  0
SECTION
  2
HEADER
  9
$ACADVER
  1
AC1014
  9
$ACADMAINTVER
 70
     9
  9
$DWGCODEPAGE
  3
ANSI_932
  9
$INSBASE
 10
0.0
 20
0.0
 30
0.0
  9
$EXTMIN
 10
-31.010009
 20
-24.99717078
 30
-0.00152582
  9
$EXTMAX
 10
78.02136281
 20
61.00495231
 30
0.00000003
  9
$LIMMIN
 10
0.0
 20
0.0
  9
$LIMMAX
 10
297.0
 20
210.0
  9
$ORTHOMODE
 70
     0
  9
$REGENMODE
 70
     1
  9
$FILLMODE
 70
     1
  9
$QTEXTMODE
 70
     0
  9
$MIRRTEXT
 70
     1
  9
$DRAGMODE
 70
     2
  9
$LTSCALE
 40
10.0
  9
$OSMODE
 70
   549
  9
$ATTMODE
 70
     1
  9
$TEXTSIZE
 40
3.0
  9
$TRACEWID
 40
1.0
  9
$TEXTSTYLE
  7
YOKO
  9
$CLAYER
  8
245
  9
$CELTYPE
  6
BYLAYER
  9
$CECOLOR
 62
   256
  9
$CELTSCALE
 40
1.0
  9
$DELOBJ
 70
     1
  9
$DISPSILH
 70
     0
  9
$DIMSCALE
 40
1.0
  9
$DIMASZ
 40
2.0
  9
$DIMEXO
 40
2.0
  9
$DIMDLI
 40
2.5
  9
$DIMRND
 40
0.0
  9
$DIMDLE
 40
0.0
  9
$DIMEXE
 40
2.0
  9
$DIMTP
 40
0.0
  9
$DIMTM
 40
0.0
  9
$DIMTXT
 40
4.0
  9
$DIMCEN
 40
0.0
  9
$DIMTSZ
 40
0.0
  9
$DIMTOL
 70
     0
  9
$DIMLIM
 70
     0
  9
$DIMTIH
 70
     0
  9
$DIMTOH
 70
     0
  9
$DIMSE1
 70
     0
  9
$DIMSE2
 70
     0
  9
$DIMTAD
 70
     3
  9
$DIMZIN
 70
     8
  9
$DIMBLK
  1

  9
$DIMASO
 70
     1
  9
$DIMSHO
 70
     1
  9
$DIMPOST
  1

  9
$DIMAPOST
  1

  9
$DIMALT
 70
     0
  9
$DIMALTD
 70
     2
  9
$DIMALTF
 40
25.4
  9
$DIMLFAC
 40
1.0
  9
$DIMTOFL
 70
     1
  9
$DIMTVP
 40
0.0
  9
$DIMTIX
 70
     1
  9
$DIMSOXD
 70
     0
  9
$DIMSAH
 70
     1
  9
$DIMBLK1
  1
OPEN
  9
$DIMBLK2
  1
OPEN
  9
$DIMSTYLE
  2
BIGT
  9
$DIMCLRD
 70
   256
  9
$DIMCLRE
 70
   256
  9
$DIMCLRT
 70
    40
  9
$DIMTFAC
 40
1.0
  9
$DIMGAP
 40
1.0
  9
$DIMJUST
 70
     0
  9
$DIMSD1
 70
     0
  9
$DIMSD2
 70
     0
  9
$DIMTOLJ
 70
     1
  9
$DIMTZIN
 70
     8
  9
$DIMALTZ
 70
     0
  9
$DIMALTTZ
 70
     0
  9
$DIMFIT
 70
     3
  9
$DIMUPT
 70
     0
  9
$DIMUNIT
 70
     2
  9
$DIMDEC
 70
     3
  9
$DIMTDEC
 70
     3
  9
$DIMALTU
 70
     2
  9
$DIMALTTD
 70
     2
  9
$DIMTXSTY
  7
STANDARD
  9
$DIMAUNIT
 70
     0
  9
$LUNITS
 70
     2
  9
$LUPREC
 70
     3
  9
$SKETCHINC
 40
1.0
  9
$FILLETRAD
 40
0.0
  9
$AUNITS
 70
     0
  9
$AUPREC
 70
     3
  9
$MENU
  1
.
  9
$ELEVATION
 40
0.0
  9
$PELEVATION
 40
0.0
  9
$THICKNESS
 40
0.0
  9
$LIMCHECK
 70
     0
  9
$BLIPMODE
 70
     0
  9
$CHAMFERA
 40
10.0
  9
$CHAMFERB
 40
10.0
  9
$CHAMFERC
 40
0.0
  9
$CHAMFERD
 40
0.0
  9
$SKPOLY
 70
     0
  9
$TDCREATE
 40
2454995.589342801
  9
$TDUPDATE
 40
2455378.444422372
  9
$TDINDWG
 40
0.0266279630
  9
$TDUSRTIMER
 40
0.0266279630
  9
$USRTIMER
 70
     1
  9
$ANGBASE
 50
0.0
  9
$ANGDIR
 70
     0
  9
$PDMODE
 70
     1
  9
$PDSIZE
 40
-5.0
  9
$PLINEWID
 40
0.0
  9
$COORDS
 70
     0
  9
$SPLFRAME
 70
     0
  9
$SPLINETYPE
 70
     6
  9
$SPLINESEGS
 70
     8
  9
$ATTDIA
 70
     0
  9
$ATTREQ
 70
     1
  9
$HANDLING
 70
-16383
  9
$HANDSEED
  5
22AF
  9
$SURFTAB1
 70
     6
  9
$SURFTAB2
 70
     6
  9
$SURFTYPE
 70
     6
  9
$SURFU
 70
     6
  9
$SURFV
 70
     6
  9
$UCSNAME
  2

  9
$UCSORG
 10
0.0
 20
0.0
 30
0.0
  9
$UCSXDIR
 10
1.0
 20
0.0
 30
0.0
  9
$UCSYDIR
 10
0.0
 20
1.0
 30
0.0
  9
$PUCSNAME
  2

  9
$PUCSORG
 10
0.0
 20
0.0
 30
0.0
  9
$PUCSXDIR
 10
1.0
 20
0.0
 30
0.0
  9
$PUCSYDIR
 10
0.0
 20
1.0
 30
0.0
  9
$USERI1
 70
     1
  9
$USERI2
 70
     0
  9
$USERI3
 70
     0
  9
$USERI4
 70
     0
  9
$USERI5
 70
     0
  9
$USERR1
 40
0.0
  9
$USERR2
 40
0.0
  9
$USERR3
 40
0.0
  9
$USERR4
 40
0.0
  9
$USERR5
 40
0.0
  9
$WORLDVIEW
 70
     1
  9
$SHADEDGE
 70
     3
  9
$SHADEDIF
 70
    70
  9
$TILEMODE
 70
     1
  9
$MAXACTVP
 70
    16
  9
$PINSBASE
 10
0.0
 20
0.0
 30
0.0
  9
$PLIMCHECK
 70
     0
  9
$PEXTMIN
 10
1.00000000E+20
 20
1.00000000E+20
 30
1.00000000E+20
  9
$PEXTMAX
 10
-1.00000000E+20
 20
-1.00000000E+20
 30
-1.00000000E+20
  9
$PLIMMIN
 10
0.0
 20
0.0
  9
$PLIMMAX
 10
420.0
 20
297.0
  9
$UNITMODE
 70
     0
  9
$VISRETAIN
 70
     0
  9
$PLINEGEN
 70
     0
  9
$PSLTSCALE
 70
     1
  9
$TREEDEPTH
 70
  3020
  9
$PICKSTYLE
 70
     0
  9
$CMLSTYLE
  2
STANDARD
  9
$CMLJUST
 70
     0
  9
$CMLSCALE
 40
1.0
  9
$PROXYGRAPHICS
 70
     1
  9
$MEASUREMENT
 70
     1
  0
ENDSEC
  0
SECTION
  2
CLASSES
  0
CLASS
  1
XRECORD
  2
AcDbXrecord
  3
AutoCAD 2000
 90
        0
280
     0
281
     0
  0
CLASS
  1
ACDBDICTIONARYWDFLT
  2
AcDbDictionaryWithDefault
  3
AutoCAD 2000
 90
        0
280
     0
281
     0
  0
CLASS
  1
ACDBPLACEHOLDER
  2
AcDbPlaceHolder
  3
AutoCAD 2000
 90
        0
280
     0
281
     0
  0
CLASS
  1
LAYOUT
  2
AcDbLayout
  3
AutoCAD 2000
 90
        0
280
     0
281
     0
  0
CLASS
  1
PLOTSETTINGS
  2
AcDbPlotSettings
  3
AutoCAD 2000
 90
        0
280
     0
281
     0
  0
CLASS
  1
LONG_TRANSACTION
  2
AcDbLongTransaction
  3
AutoCAD 2000
 90
        0
280
     0
281
     0
  0
CLASS
  1
LWPOLYLINE
  2
AcDbPolyline
  3
AutoCAD 2000
 90
        0
280
     0
281
     1
  0
CLASS
  1
HATCH
  2
AcDbHatch
  3
AutoCAD 2000
 90
        0
280
     0
281
     1
  0
CLASS
  1
XRECORD
  2
AcDbXrecord
  3
AutoCAD 2000
 90
        0
280
     0
281
     0
  0
CLASS
  1
LONG_TRANSACTION
  2
AcDbLongTransaction
  3
AutoCAD 2000
 90
        0
280
     0
281
     0
  0
CLASS
  1
LWPOLYLINE
  2
AcDbPolyline
  3
AutoCAD 2000
 90
        0
280
     0
281
     1
  0
CLASS
  1
HATCH
  2
AcDbHatch
  3
AutoCAD 2000
 90
        0
280
     0
281
     1
  0
CLASS
  1
XRECORD
  2
AcDbXrecord
  3
AutoCAD 2000
 90
        0
280
     0
281
     0
  0
CLASS
  1
LONG_TRANSACTION
  2
AcDbLongTransaction
  3
AutoCAD 2000
 90
        0
280
     0
281
     0
  0
CLASS
  1
LWPOLYLINE
  2
AcDbPolyline
  3
AutoCAD 2000
 90
        0
280
     0
281
     1
  0
CLASS
  1
HATCH
  2
AcDbHatch
  3
AutoCAD 2000
 90
        0
280
     0
281
     1
  0
CLASS
  1
XRECORD
  2
AcDbXrecord
  3
AutoCAD 2000
 90
        0
280
     0
281
     0
  0
CLASS
  1
LONG_TRANSACTION
  2
AcDbLongTransaction
  3
AutoCAD 2000
 90
        0
280
     0
281
     0
  0
CLASS
  1
LWPOLYLINE
  2
AcDbPolyline
  3
AutoCAD 2000
 90
        0
280
     0
281
     1
  0
CLASS
  1
HATCH
  2
AcDbHatch
  3
AutoCAD 2000
 90
        0
280
     0
281
     1
  0
CLASS
  1
XRECORD
  2
AcDbXrecord
  3
AutoCAD 2000
 90
        0
280
     0
281
     0
  0
CLASS
  1
LONG_TRANSACTION
  2
AcDbLongTransaction
  3
AutoCAD 2000
 90
        0
280
     0
281
     0
  0
CLASS
  1
LWPOLYLINE
  2
AcDbPolyline
  3
AutoCAD 2000
 90
        0
280
     0
281
     1
  0
CLASS
  1
HATCH
  2
AcDbHatch
  3
AutoCAD 2000
 90
        0
280
     0
281
     1
  0
CLASS
  1
XRECORD
  2
AcDbXrecord
  3
AutoCAD 2000
 90
        0
280
     0
281
     0
  0
CLASS
  1
LONG_TRANSACTION
  2
AcDbLongTransaction
  3
AutoCAD 2000
 90
        0
280
     0
281
     0
  0
CLASS
  1
LWPOLYLINE
  2
AcDbPolyline
  3
AutoCAD 2000
 90
        0
280
     0
281
     1
  0
CLASS
  1
HATCH
  2
AcDbHatch
  3
AutoCAD 2000
 90
        0
280
     0
281
     1
  0
CLASS
  1
XRECORD
  2
AcDbXrecord
  3
AutoCAD 2000
 90
        0
280
     0
281
     0
  0
CLASS
  1
LONG_TRANSACTION
  2
AcDbLongTransaction
  3
AutoCAD 2000
 90
        0
280
     0
281
     0
  0
CLASS
  1
LWPOLYLINE
  2
AcDbPolyline
  3
AutoCAD 2000
 90
        0
280
     0
281
     1
  0
CLASS
  1
HATCH
  2
AcDbHatch
  3
AutoCAD 2000
 90
        0
280
     0
281
     1
  0
CLASS
  1
XRECORD
  2
AcDbXrecord
  3
AutoCAD 2000
 90
        0
280
     0
281
     0
  0
ENDSEC
  0
SECTION
  2
TABLES
  0
TABLE
  2
VPORT
  5
8
330
0
100
AcDbSymbolTable
 70
     5
  0
VPORT
  5
228A
330
8
100
AcDbSymbolTableRecord
100
AcDbViewportTableRecord
  2
*ACTIVE
 70
     0
 10
0.0
 20
0.0
 11
1.0
 21
1.0
 12
23.50567691
 22
18.00389076
 13
0.0
 23
0.0
 14
7.0
 24
7.0
 15
7.0
 25
7.0
 16
0.0
 26
0.0
 36
1.0
 17
0.0
 27
0.0
 37
0.0
 40
86.66966867
 41
1.45595855
 42
50.0
 43
0.0
 44
0.0
 50
0.0
 51
0.0
 71
     0
 72
  2000
 73
     1
 74
     0
 75
     0
 76
     0
 77
     0
 78
     0
  0
ENDTAB
  0
TABLE
  2
LTYPE
  5
5
330
0
100
AcDbSymbolTable
 70
     4
  0
LTYPE
  5
14
330
5
100
AcDbSymbolTableRecord
100
AcDbLinetypeTableRecord
  2
BYBLOCK
 70
     0
  3

 72
    65
 73
     0
 40
0.0
  0
LTYPE
  5
15
330
5
100
AcDbSymbolTableRecord
100
AcDbLinetypeTableRecord
  2
BYLAYER
 70
     0
  3

 72
    65
 73
     0
 40
0.0
  0
LTYPE
  5
16
330
5
100
AcDbSymbolTableRecord
100
AcDbLinetypeTableRecord
  2
CONTINUOUS
 70
     0
  3
Solid line
 72
    65
 73
     0
 40
0.0
  0
LTYPE
  5
258
330
5
100
AcDbSymbolTableRecord
100
AcDbLinetypeTableRecord
  2
CENTER2
 70
     0
  3
___ _ ___ _ ___ _ ___ _ ___ _ ___ _ ___ _ ___ _
 72
    65
 73
     4
 40
1.125
 49
0.75
 74
     0
 49
-0.125
 74
     0
 49
0.125
 74
     0
 49
-0.125
 74
     0
  0
LTYPE
  5
25D
330
5
100
AcDbSymbolTableRecord
100
AcDbLinetypeTableRecord
  2
PHANTOM2
 70
     0
  3
___ _ _ ___ _ _ ___ _ _ ___ _ _ ___ _ _ ___ _ _
 72
    65
 73
     6
 40
1.25
 49
0.625
 74
     0
 49
-0.125
 74
     0
 49
0.125
 74
     0
 49
-0.125
 74
     0
 49
0.125
 74
     0
 49
-0.125
 74
     0
  0
LTYPE
  5
E41
330
5
100
AcDbSymbolTableRecord
100
AcDbLinetypeTableRecord
  2
HIDDEN2
 70
     0
  3
_ _ _ _ _ _ _ _ _ _ _ _ _ _ _ _ _ _ _ _ _ _ _ _
 72
    65
 73
     2
 40
0.1875
 49
0.125
 74
     0
 49
-0.0625
 74
     0
  0
ENDTAB
  0
TABLE
  2
LAYER
  5
2
330
0
100
AcDbSymbolTable
 70
    11
  0
LAYER
  5
F
330
2
100
AcDbSymbolTableRecord
100
AcDbLayerTableRecord
  2
0
 70
     0
 62
     7
  6
CONTINUOUS
  0
LAYER
  5
1AA
330
2
100
AcDbSymbolTableRecord
100
AcDbLayerTableRecord
  2
240
 70
     0
 62
     4
  6
CONTINUOUS
  0
LAYER
  5
1AB
330
2
100
AcDbSymbolTableRecord
100
AcDbLayerTableRecord
  2
241
 70
     0
 62
   211
  6
CONTINUOUS
  0
LAYER
  5
1AC
330
2
100
AcDbSymbolTableRecord
100
AcDbLayerTableRecord
  2
242
 70
     0
 62
     3
  6
CONTINUOUS
  0
LAYER
  5
1AF
330
2
100
AcDbSymbolTableRecord
100
AcDbLayerTableRecord
  2
245
 70
     0
 62
     2
  6
CENTER2
  0
LAYER
  5
21A
330
2
100
AcDbSymbolTableRecord
100
AcDbLayerTableRecord
  2
246
 70
     0
 62
     3
  6
PHANTOM2
  0
LAYER
  5
21B
330
2
100
AcDbSymbolTableRecord
100
AcDbLayerTableRecord
  2
247
 70
     0
 62
    60
  6
CONTINUOUS
  0
LAYER
  5
21E
330
2
100
AcDbSymbolTableRecord
100
AcDbLayerTableRecord
  2
250
 70
     0
 62
     3
  6
CONTINUOUS
  0
LAYER
  5
21F
330
2
100
AcDbSymbolTableRecord
100
AcDbLayerTableRecord
  2
251
 70
     0
 62
    40
  6
CONTINUOUS
  0
LAYER
  5
5C4
330
2
100
AcDbSymbolTableRecord
100
AcDbLayerTableRecord
  2
DEFPOINTS
 70
     0
 62
     7
  6
CONTINUOUS
  0
ENDTAB
  0
TABLE
  2
STYLE
  5
3
330
0
100
AcDbSymbolTable
 70
     2
  0
STYLE
  5
10
330
3
100
AcDbSymbolTableRecord
100
AcDbTextStyleTableRecord
  2
STANDARD
 70
     0
 40
0.0
 41
1.0
 50
0.0
 71
     0
 42
3.0
  3
romans.shx
  4
BIGFONT.SHX
  0
STYLE
  5
339
330
3
100
AcDbSymbolTableRecord
100
AcDbTextStyleTableRecord
  2
YOKO
 70
     0
 40
0.0
 41
1.0
 50
0.0
 71
     0
 42
3.0
  3
romans.shx
  4
extfont.shx
  0
ENDTAB
  0
TABLE
  2
VIEW
  5
6
330
0
100
AcDbSymbolTable
 70
     1
  0
VIEW
  5
2287
330
6
100
AcDbSymbolTableRecord
100
AcDbViewTableRecord
  2
OLE1
 70
     0
 40
86.66966867
 10
23.50567691
 20
18.00389076
 41
126.18744506
 11
0.0
 21
0.0
 31
1.0
 12
0.0
 22
0.0
 32
0.0
 42
50.0
 43
0.0
 44
0.0
 50
0.0
 71
     0
  0
ENDTAB
  0
TABLE
  2
UCS
  5
7
330
0
100
AcDbSymbolTable
 70
     0
  0
ENDTAB
  0
TABLE
  2
APPID
  5
9
330
0
100
AcDbSymbolTable
 70
     9
  0
APPID
  5
11
330
9
100
AcDbSymbolTableRecord
100
AcDbRegAppTableRecord
  2
ACAD
 70
     0
  0
APPID
  5
1B1
330
9
100
AcDbSymbolTableRecord
100
AcDbRegAppTableRecord
  2
GLOBAL
 70
     0
  0
APPID
  5
2A4
330
9
100
AcDbSymbolTableRecord
100
AcDbRegAppTableRecord
  2
DETAIL
 70
     0
  0
APPID
  5
5FD
330
9
100
AcDbSymbolTableRecord
100
AcDbRegAppTableRecord
  2
GRPNAME
 70
     0
  0
APPID
  5
5FE
330
9
100
AcDbSymbolTableRecord
100
AcDbRegAppTableRecord
  2
GPARA
 70
     0
  0
APPID
  5
6C4
330
9
100
AcDbSymbolTableRecord
100
AcDbRegAppTableRecord
  2
DCO15
 70
     0
  0
APPID
  5
6C5
330
9
100
AcDbSymbolTableRecord
100
AcDbRegAppTableRecord
  2
ITEMNAME
 70
     0
  0
APPID
  5
6C6
330
9
100
AcDbSymbolTableRecord
100
AcDbRegAppTableRecord
  2
GRADE_0
 70
     0
  0
APPID
  5
E05
330
9
100
AcDbSymbolTableRecord
100
AcDbRegAppTableRecord
  2
CONTENTBLOCKICON
 70
     0
  0
ENDTAB
  0
TABLE
  2
DIMSTYLE
  5
A
330
0
100
AcDbSymbolTable
 70
     3
  0
DIMSTYLE
105
725
102
{ACAD_REACTORS
330
A31
102
}
330
A
100
AcDbSymbolTableRecord
100
AcDbDimStyleTableRecord
  2
BIGT
 70
     0
  3

  4

  5

  6
OPEN
  7
OPEN
 40
1.0
 41
2.23
 42
0.5
 43
2.5
 44
1.0
 45
0.0
 46
0.0
 47
0.0
 48
0.0
140
2.8
141
0.0
142
0.0
143
25.4
144
1.0
145
0.0
146
1.0
147
1.0
 71
     0
 72
     0
 73
     0
 74
     0
 75
     0
 76
     0
 77
     3
 78
     8
170
     0
171
     2
172
     1
173
     1
174
     1
175
     0
176
   256
177
   256
178
    40
270
     2
271
     3
272
     3
273
     2
274
     2
340
10
275
     0
280
     0
281
     0
282
     0
283
     1
284
     8
285
     0
286
     0
287
     3
288
     0
  0
DIMSTYLE
105
79C
102
{ACAD_REACTORS
330
972
330
998
330
999
102
}
330
A
100
AcDbSymbolTableRecord
100
AcDbDimStyleTableRecord
  2
BIGT$0
 70
     0
  3

  4
"
  5
OPEN
  6

  7

 40
1.0
 41
2.23
 42
0.5
 43
7.0
 44
1.0
 45
0.0
 46
0.0
 47
0.1
 48
0.1
140
3.0
141
0.0
142
0.0
143
0.0393701
144
1.0
145
0.0
146
0.71
147
1.0
 71
     0
 72
     0
 73
     0
 74
     0
 75
     0
 76
     0
 77
     3
 78
     8
170
     0
171
     2
172
     1
173
     0
174
     0
175
     0
176
     3
177
     3
178
    40
270
     2
271
     3
272
     3
273
     2
274
     2
340
10
275
     0
280
     0
281
     0
282
     0
283
     1
284
     8
285
     0
286
     0
287
     3
288
     0
  0
DIMSTYLE
105
79D
330
A
100
AcDbSymbolTableRecord
100
AcDbDimStyleTableRecord
  2
BIGT$7
 70
     0
  3

  4
"
  5
OPEN
  6

  7

 40
1.0
 41
2.5
 42
0.5
 43
7.0
 44
1.0
 45
0.0
 46
0.0
 47
0.1
 48
0.1
140
5.0
141
0.0
142
0.0
143
0.0393701
144
1.0
145
0.0
146
0.71
147
1.5
 71
     0
 72
     0
 73
     0
 74
     0
 75
     0
 76
     0
 77
     3
 78
     8
170
     0
171
     2
172
     1
173
     0
174
     0
175
     0
176
     3
177
     3
178
    40
270
     2
271
     3
272
     3
273
     2
274
     2
340
10
275
     0
280
     0
281
     0
282
     0
283
     1
284
     8
285
     0
286
     0
287
     3
288
     0
  0
ENDTAB
  0
TABLE
  2
BLOCK_RECORD
  5
1
330
0
100
AcDbSymbolTable
 70
     7
  0
BLOCK_RECORD
  5
1A
102
{ACAD_XDICTIONARY
360
E03
102
}
330
1
100
AcDbSymbolTableRecord
100
AcDbBlockTableRecord
  2
*MODEL_SPACE
  0
BLOCK_RECORD
  5
17
102
{ACAD_XDICTIONARY
360
E01
102
}
330
1
100
AcDbSymbolTableRecord
100
AcDbBlockTableRecord
  2
*PAPER_SPACE
  0
BLOCK_RECORD
  5
594
330
1
100
AcDbSymbolTableRecord
100
AcDbBlockTableRecord
  2
_OPEN
  0
BLOCK_RECORD
  5
6E3
330
1
100
AcDbSymbolTableRecord
100
AcDbBlockTableRecord
  2
矢印なし
  0
BLOCK_RECORD
  5
B40
330
1
100
AcDbSymbolTableRecord
100
AcDbBlockTableRecord
  2
*D2
  0
BLOCK_RECORD
  5
B4C
330
1
100
AcDbSymbolTableRecord
100
AcDbBlockTableRecord
  2
*D3
  0
BLOCK_RECORD
  5
B58
330
1
100
AcDbSymbolTableRecord
100
AcDbBlockTableRecord
  2
*D4
  0
BLOCK_RECORD
  5
B64
330
1
100
AcDbSymbolTableRecord
100
AcDbBlockTableRecord
  2
*D5
  0
BLOCK_RECORD
  5
BC6
330
1
100
AcDbSymbolTableRecord
100
AcDbBlockTableRecord
  2
1
1001
CONTENTBLOCKICON
1071
        0
1004
2800000020000000200000000100080000000000000400000000000000000000000000000000000000000000000080000080000000808000800000008000800080800000C0C0C000C0DCC000F0CAA6000020400000206000002080000020A0000020C0000020E00000400000004020000040400000406000004080000040A0
1004
000040C0000040E00000600000006020000060400000606000006080000060A0000060C0000060E00000800000008020000080400000806000008080000080A0000080C0000080E00000A0000000A0200000A0400000A0600000A0800000A0A00000A0C00000A0E00000C0000000C0200000C0400000C0600000C0800000C0
1004
A00000C0C00000C0E00000E0000000E0200000E0400000E0600000E0800000E0A00000E0C00000E0E00040000000400020004000400040006000400080004000A0004000C0004000E00040200000402020004020400040206000402080004020A0004020C0004020E000404000004040200040404000404060004040800040
1004
40A0004040C0004040E00040600000406020004060400040606000406080004060A0004060C0004060E00040800000408020004080400040806000408080004080A0004080C0004080E00040A0000040A0200040A0400040A0600040A0800040A0A00040A0C00040A0E00040C0000040C0200040C0400040C0600040C08000
1004
40C0A00040C0C00040C0E00040E0000040E0200040E0400040E0600040E0800040E0A00040E0C00040E0E00080000000800020008000400080006000800080008000A0008000C0008000E00080200000802020008020400080206000802080008020A0008020C0008020E00080400000804020008040400080406000804080
1004
008040A0008040C0008040E00080600000806020008060400080606000806080008060A0008060C0008060E00080800000808020008080400080806000808080008080A0008080C0008080E00080A0000080A0200080A0400080A0600080A0800080A0A00080A0C00080A0E00080C0000080C0200080C0400080C0600080C0
1004
800080C0A00080C0C00080C0E00080E0000080E0200080E0400080E0600080E0800080E0A00080E0C00080E0E000C0000000C0002000C0004000C0006000C0008000C000A000C000C000C000E000C0200000C0202000C0204000C0206000C0208000C020A000C020C000C020E000C0400000C0402000C0404000C0406000C0
1004
408000C040A000C040C000C040E000C0600000C0602000C0604000C0606000C0608000C060A000C060C000C060E000C0800000C0802000C0804000C0806000C0808000C080A000C080C000C080E000C0A00000C0A02000C0A04000C0A06000C0A08000C0A0A000C0A0C000C0A0E000C0C00000C0C02000C0C04000C0C06000
1004
C0C08000C0C0A000F0FBFF00A4A0A000808080000000FF0000FF000000FFFF00FF000000FF00FF00FFFF0000FFFFFF0000000000000000000000000000000000000000000000000000000000000000000000000000000000000000000000000000000000000000000000000000000000000000000000000000000000000000
1004
00000000000000000000000000000000000000000000000000000000000000000000000000000000000000000000000000000000000000000000000000000000000000000000000000000000000000000000000000000000000000000000000000000000000000000000000000000000000000000000000000000000000000
1004
000000000000000000000000000000000000000000000000000000000000000000000000000000000000000000000000000000000000000000000000FEFEFEFEFEFEFE00000000000000000000000000000000000000000000000000FE00E7E7E700FE00000000000000000000000000000000000000000000000000FE00E7
1004
E7E7E7FEFE00000000000000000000000000000000FEFAFAFEFEFEFEFEFE00E7E7E7E7E700FEFE0000000000000000000000000000E700000000000000E700E7E7E7E7E7000000FEFE000000000000000000000000E700000000000000E70000E7E700E70000000000FEFEFEFEFEFEFAFE00000000E700000000000000E700
1004
00000000E70000000000E700E7E7E7E7E7FE00000000E700000000000000E70000000000E70000000000E700E700E7E7003E000000FBE7FBFBFBFBFBFBFBE7FBFBFBFBFBE7FBFBFBFBFBE7FBFBE7E7E7E7FEFB000000FE00000000000000E70000000000E70000000000E70000000000E7FA00000000FE00000000000000E7
1004
0000E7E700E70000000000FEFEFEFEFEFEFEFA00000000FE00000000000000E700E7E7E7E7E7000000FEFE000000000000000000000000FE00000000000000E700E7E7E7E7E700FEFE0000000000000000000000000000FEFEFEFEFEFEFEFEFE00E7E7E7E7FEFE000000000000000000000000000000000000000000000000
1004
FE00E7E7E700FE00000000000000000000000000000000000000000000000000FEFEFEFEFEFEFE00000000000000000000000000000000000000000000000000000000000000000000000000000000000000000000000000000000000000000000000000000000000000000000000000000000000000000000000000000000
1004
00000000000000000000000000000000000000000000000000000000000000000000000000000000000000000000000000000000000000000000000000000000000000000000000000000000000000000000000000000000000000000000000000000000000000000000000000000000000000000000000000000000000000
1004
0000000000000000000000000000000000000000000000000000000000000000000000000000000000000000000000000000000000000000
  0
ENDTAB
  0
ENDSEC
  0
SECTION
  2
BLOCKS
  0
BLOCK
  5
1B
330
1A
100
AcDbEntity
  8
0
100
AcDbBlockBegin
  2
*MODEL_SPACE
 70
     0
 10
0.0
 20
0.0
 30
0.0
  3
*MODEL_SPACE
  1

  0
ENDBLK
  5
1C
330
1A
100
AcDbEntity
  8
0
100
AcDbBlockEnd
  0
BLOCK
  5
18
330
17
100
AcDbEntity
 67
     1
  8
0
100
AcDbBlockBegin
  2
*PAPER_SPACE
 70
     0
 10
0.0
 20
0.0
 30
0.0
  3
*PAPER_SPACE
  1

  0
ENDBLK
  5
19
330
17
100
AcDbEntity
 67
     1
  8
0
100
AcDbBlockEnd
  0
BLOCK
  5
598
330
594
100
AcDbEntity
  8
0
100
AcDbBlockBegin
  2
_OPEN
 70
     0
 10
0.0
 20
0.0
 30
0.0
  3
_OPEN
  1

  0
LINE
  5
595
330
594
100
AcDbEntity
  8
0
  6
BYBLOCK
 62
     0
100
AcDbLine
 10
-1.0
 20
0.16666667
 30
0.0
 11
0.0
 21
0.0
 31
0.0
  0
LINE
  5
596
330
594
100
AcDbEntity
  8
0
  6
BYBLOCK
 62
     0
100
AcDbLine
 10
-1.0
 20
-0.16666667
 30
0.0
 11
0.0
 21
0.0
 31
0.0
  0
LINE
  5
597
330
594
100
AcDbEntity
  8
0
  6
BYBLOCK
 62
     0
100
AcDbLine
 10
0.0
 20
0.0
 30
0.0
 11
-1.0
 21
0.0
 31
0.0
  0
ENDBLK
  5
599
330
594
100
AcDbEntity
  8
0
100
AcDbBlockEnd
  0
BLOCK
  5
6E4
330
6E3
100
AcDbEntity
  8
0
100
AcDbBlockBegin
  2
矢印なし
 70
     0
 10
0.0
 20
0.0
 30
0.0
  3
矢印なし
  1

  0
ENDBLK
  5
6E5
330
6E3
100
AcDbEntity
  8
0
100
AcDbBlockEnd
  0
BLOCK
  5
B4A
330
B40
100
AcDbEntity
  8
0
100
AcDbBlockBegin
  2
*D2
 70
     1
 10
0.0
 20
0.0
 30
0.0
  3
*D2
  1

  0
LINE
  5
BBD
330
B40
100
AcDbEntity
  8
250
  6
CONTINUOUS
100
AcDbLine
 10
65.5
 20
-8.0
 30
0.0
 11
78.0
 21
-8.0
 31
0.0
  0
LINE
  5
BBE
330
B40
100
AcDbEntity
  8
250
  6
CONTINUOUS
100
AcDbLine
 10
65.5
 20
8.0
 30
0.0
 11
78.0
 21
8.0
 31
0.0
  0
LINE
  5
BBF
330
B40
100
AcDbEntity
  8
250
  6
CONTINUOUS
100
AcDbLine
 10
77.0
 20
-5.77
 30
0.0
 11
77.0
 21
5.77
 31
0.0
  0
INSERT
  5
BC0
330
B40
100
AcDbEntity
  8
250
  6
CONTINUOUS
100
AcDbBlockReference
  2
_OPEN
 10
77.0
 20
-8.0
 30
0.0
 41
2.23
 42
2.23
 43
2.23
 50
270.0
  0
INSERT
  5
BC1
330
B40
100
AcDbEntity
  8
250
  6
CONTINUOUS
100
AcDbBlockReference
  2
_OPEN
 10
77.0
 20
8.0
 30
0.0
 41
2.23
 42
2.23
 43
2.23
 50
90.0
  0
MTEXT
  5
BC2
330
B40
100
AcDbEntity
  8
250
  6
CONTINUOUS
 62
    40
100
AcDbMText
 10
74.6
 20
0.0
 30
0.0
 40
2.8
 41
0.0
 71
     5
 72
     1
  1
\A1;{\H2.8;\U+2205}16
 11
0.0
 21
1.0
 31
0.0
1001
ACAD
1000
MTEXTBEGIN
1070
    73
1070
     1
1070
    44
1040
1.0
1070
    74
1070
     0
1000
MTEXTEND
1000
MTEXTBEGIN
1070
    73
1070
     1
1070
    44
1040
1.0
1070
    74
1070
     0
1000
MTEXTEND
1000
MTEXTBEGIN
1070
    73
1070
     1
1070
    44
1040
1.0
1070
    74
1070
     0
1000
MTEXTEND
1000
MTEXTBEGIN
1070
    73
1070
     1
1070
    44
1040
1.0
1070
    74
1070
     0
1000
MTEXTEND
1000
MTEXTBEGIN
1070
    73
1070
     1
1070
    44
1040
1.0
1070
    74
1070
     0
1000
MTEXTEND
1000
MTEXTBEGIN
1070
    73
1070
     1
1070
    44
1040
1.0
1070
    74
1070
     0
1000
MTEXTEND
1000
MTEXTBEGIN
1070
    73
1070
     1
1070
    44
1040
1.0
1070
    74
1070
     0
1000
MTEXTEND
  0
POINT
  5
BC3
330
B40
100
AcDbEntity
  8
DEFPOINTS
  6
CONTINUOUS
 62
     0
100
AcDbPoint
 10
65.0
 20
-8.0
 30
0.0
  0
POINT
  5
BC4
330
B40
100
AcDbEntity
  8
DEFPOINTS
  6
CONTINUOUS
 62
     0
100
AcDbPoint
 10
65.0
 20
8.0
 30
0.0
  0
POINT
  5
BC5
330
B40
100
AcDbEntity
  8
DEFPOINTS
  6
CONTINUOUS
 62
     0
100
AcDbPoint
 10
77.0
 20
8.0
 30
0.0
  0
ENDBLK
  5
B4B
330
B40
100
AcDbEntity
  8
0
100
AcDbBlockEnd
  0
BLOCK
  5
B56
330
B4C
100
AcDbEntity
  8
0
100
AcDbBlockBegin
  2
*D3
 70
     1
 10
0.0
 20
0.0
 30
0.0
  3
*D3
  1

  0
LINE
  5
1435
330
B4C
100
AcDbEntity
  8
250
  6
CONTINUOUS
 62
     3
100
AcDbLine
 10
0.0
 20
25.49
 30
0.0
 11
0.0
 21
43.0
 31
0.0
  0
LINE
  5
1436
330
B4C
100
AcDbEntity
  8
250
  6
CONTINUOUS
 62
     3
100
AcDbLine
 10
65.0
 20
8.5
 30
0.0
 11
65.0
 21
43.0
 31
0.0
  0
LINE
  5
1437
330
B4C
100
AcDbEntity
  8
250
  6
CONTINUOUS
 62
     3
100
AcDbLine
 10
2.23
 20
42.0
 30
0.0
 11
62.77
 21
42.0
 31
0.0
  0
INSERT
  5
1438
330
B4C
100
AcDbEntity
  8
250
  6
CONTINUOUS
 62
     3
100
AcDbBlockReference
  2
_OPEN
 10
0.0
 20
42.0
 30
0.0
 41
2.23
 42
2.23
 43
2.23
 50
180.0
  0
INSERT
  5
1439
330
B4C
100
AcDbEntity
  8
250
  6
CONTINUOUS
 62
     3
100
AcDbBlockReference
  2
_OPEN
 10
65.0
 20
42.0
 30
0.0
 41
2.23
 42
2.23
 43
2.23
  0
MTEXT
  5
143A
330
B4C
100
AcDbEntity
  8
250
  6
CONTINUOUS
 62
    40
100
AcDbMText
 10
32.5
 20
44.5
 30
0.0
 40
3.0
 41
0.0
 71
     5
 72
     1
  1
\A1;65
1001
ACAD
1000
MTEXTBEGIN
1070
    73
1070
     1
1070
    44
1040
1.0
1070
    74
1070
     0
1000
MTEXTEND
1000
MTEXTBEGIN
1070
    73
1070
     1
1070
    44
1040
1.0
1070
    74
1070
     0
1000
MTEXTEND
1000
MTEXTBEGIN
1070
    73
1070
     1
1070
    44
1040
1.0
1070
    74
1070
     0
1000
MTEXTEND
1000
MTEXTBEGIN
1070
    73
1070
     1
1070
    44
1040
1.0
1070
    74
1070
     0
1000
MTEXTEND
  0
POINT
  5
143B
330
B4C
100
AcDbEntity
  8
DEFPOINTS
  6
CONTINUOUS
 62
     0
100
AcDbPoint
 10
0.0
 20
24.99
 30
0.0
  0
POINT
  5
143C
330
B4C
100
AcDbEntity
  8
DEFPOINTS
  6
CONTINUOUS
 62
     0
100
AcDbPoint
 10
65.0
 20
8.0
 30
0.0
  0
POINT
  5
143D
330
B4C
100
AcDbEntity
  8
DEFPOINTS
  6
CONTINUOUS
 62
     0
100
AcDbPoint
 10
65.0
 20
42.0
 30
0.0
  0
ENDBLK
  5
B57
330
B4C
100
AcDbEntity
  8
0
100
AcDbBlockEnd
  0
BLOCK
  5
B62
330
B58
100
AcDbEntity
  8
0
100
AcDbBlockBegin
  2
*D4
 70
     1
 10
0.0
 20
0.0
 30
0.0
  3
*D4
  1

  0
LINE
  5
BB4
330
B58
100
AcDbEntity
  8
250
  6
CONTINUOUS
 62
     3
100
AcDbLine
 10
42.0
 20
7.9
 30
0.0
 11
42.0
 21
36.0
 31
0.0
  0
LINE
  5
BB5
330
B58
100
AcDbEntity
  8
250
  6
CONTINUOUS
 62
     3
100
AcDbLine
 10
65.0
 20
8.5
 30
0.0
 11
65.0
 21
36.0
 31
0.0
  0
LINE
  5
BB6
330
B58
100
AcDbEntity
  8
250
  6
CONTINUOUS
 62
     3
100
AcDbLine
 10
44.23
 20
35.0
 30
0.0
 11
62.77
 21
35.0
 31
0.0
  0
INSERT
  5
BB7
330
B58
100
AcDbEntity
  8
250
  6
CONTINUOUS
 62
     3
100
AcDbBlockReference
  2
_OPEN
 10
42.0
 20
35.0
 30
0.0
 41
2.23
 42
2.23
 43
2.23
 50
180.0
  0
INSERT
  5
BB8
330
B58
100
AcDbEntity
  8
250
  6
CONTINUOUS
 62
     3
100
AcDbBlockReference
  2
_OPEN
 10
65.0
 20
35.0
 30
0.0
 41
2.23
 42
2.23
 43
2.23
  0
MTEXT
  5
BB9
330
B58
100
AcDbEntity
  8
250
  6
CONTINUOUS
 62
    40
100
AcDbMText
 10
53.5
 20
37.5
 30
0.0
 40
3.0
 41
0.0
 71
     5
 72
     1
  1
\A1;23
1001
ACAD
1000
MTEXTBEGIN
1070
    73
1070
     1
1070
    44
1040
1.0
1070
    74
1070
     0
1000
MTEXTEND
1000
MTEXTBEGIN
1070
    73
1070
     1
1070
    44
1040
1.0
1070
    74
1070
     0
1000
MTEXTEND
1000
MTEXTBEGIN
1070
    73
1070
     1
1070
    44
1040
1.0
1070
    74
1070
     0
1000
MTEXTEND
1000
MTEXTBEGIN
1070
    73
1070
     1
1070
    44
1040
1.0
1070
    74
1070
     0
1000
MTEXTEND
1000
MTEXTBEGIN
1070
    73
1070
     1
1070
    44
1040
1.0
1070
    74
1070
     0
1000
MTEXTEND
1000
MTEXTBEGIN
1070
    73
1070
     1
1070
    44
1040
1.0
1070
    74
1070
     0
1000
MTEXTEND
1000
MTEXTBEGIN
1070
    73
1070
     1
1070
    44
1040
1.0
1070
    74
1070
     0
1000
MTEXTEND
  0
POINT
  5
BBA
330
B58
100
AcDbEntity
  8
DEFPOINTS
  6
CONTINUOUS
 62
     0
100
AcDbPoint
 10
42.0
 20
7.4
 30
0.0
  0
POINT
  5
BBB
330
B58
100
AcDbEntity
  8
DEFPOINTS
  6
CONTINUOUS
 62
     0
100
AcDbPoint
 10
65.0
 20
8.0
 30
0.0
  0
POINT
  5
BBC
330
B58
100
AcDbEntity
  8
DEFPOINTS
  6
CONTINUOUS
 62
     0
100
AcDbPoint
 10
65.0
 20
35.0
 30
0.0
  0
ENDBLK
  5
B63
330
B58
100
AcDbEntity
  8
0
100
AcDbBlockEnd
  0
BLOCK
  5
B6E
330
B64
100
AcDbEntity
  8
0
100
AcDbBlockBegin
  2
*D5
 70
     1
 10
0.0
 20
0.0
 30
0.0
  3
*D5
  1

  0
LINE
  5
BAB
330
B64
100
AcDbEntity
  8
250
  6
CONTINUOUS
 62
     3
100
AcDbLine
 10
56.0
 20
8.5
 30
0.0
 11
56.0
 21
29.0
 31
0.0
  0
LINE
  5
BAC
330
B64
100
AcDbEntity
  8
250
  6
CONTINUOUS
 62
     3
100
AcDbLine
 10
65.0
 20
8.5
 30
0.0
 11
65.0
 21
29.0
 31
0.0
  0
LINE
  5
BAD
330
B64
100
AcDbEntity
  8
250
  6
CONTINUOUS
 62
     3
100
AcDbLine
 10
58.23
 20
28.0
 30
0.0
 11
62.77
 21
28.0
 31
0.0
  0
INSERT
  5
BAE
330
B64
100
AcDbEntity
  8
250
  6
CONTINUOUS
 62
     3
100
AcDbBlockReference
  2
_OPEN
 10
56.0
 20
28.0
 30
0.0
 41
2.23
 42
2.23
 43
2.23
 50
180.0
  0
INSERT
  5
BAF
330
B64
100
AcDbEntity
  8
250
  6
CONTINUOUS
 62
     3
100
AcDbBlockReference
  2
_OPEN
 10
65.0
 20
28.0
 30
0.0
 41
2.23
 42
2.23
 43
2.23
  0
MTEXT
  5
BB0
330
B64
100
AcDbEntity
  8
250
  6
CONTINUOUS
 62
    40
100
AcDbMText
 10
60.5
 20
30.5
 30
0.0
 40
3.0
 41
0.0
 71
     5
 72
     1
  1
\A1;9
1001
ACAD
1000
MTEXTBEGIN
1070
    73
1070
     1
1070
    44
1040
1.0
1070
    74
1070
     0
1000
MTEXTEND
1000
MTEXTBEGIN
1070
    73
1070
     1
1070
    44
1040
1.0
1070
    74
1070
     0
1000
MTEXTEND
1000
MTEXTBEGIN
1070
    73
1070
     1
1070
    44
1040
1.0
1070
    74
1070
     0
1000
MTEXTEND
1000
MTEXTBEGIN
1070
    73
1070
     1
1070
    44
1040
1.0
1070
    74
1070
     0
1000
MTEXTEND
1000
MTEXTBEGIN
1070
    73
1070
     1
1070
    44
1040
1.0
1070
    74
1070
     0
1000
MTEXTEND
1000
MTEXTBEGIN
1070
    73
1070
     1
1070
    44
1040
1.0
1070
    74
1070
     0
1000
MTEXTEND
1000
MTEXTBEGIN
1070
    73
1070
     1
1070
    44
1040
1.0
1070
    74
1070
     0
1000
MTEXTEND
  0
POINT
  5
BB1
330
B64
100
AcDbEntity
  8
DEFPOINTS
  6
CONTINUOUS
 62
     0
100
AcDbPoint
 10
56.0
 20
8.0
 30
0.0
  0
POINT
  5
BB2
330
B64
100
AcDbEntity
  8
DEFPOINTS
  6
CONTINUOUS
 62
     0
100
AcDbPoint
 10
65.0
 20
8.0
 30
0.0
  0
POINT
  5
BB3
330
B64
100
AcDbEntity
  8
DEFPOINTS
  6
CONTINUOUS
 62
     0
100
AcDbPoint
 10
65.0
 20
28.0
 30
0.0
  0
ENDBLK
  5
B6F
330
B64
100
AcDbEntity
  8
0
100
AcDbBlockEnd
  0
BLOCK
  5
BC7
330
BC6
100
AcDbEntity
  8
0
100
AcDbBlockBegin
  2
1
 70
     0
 10
0.0
 20
0.0
 30
0.0
  3
1
  1

  0
ARC
  5
2117
330
BC6
100
AcDbEntity
  8
240
  6
CONTINUOUS
100
AcDbCircle
 10
58.75037012
 20
-64.39494381
 30
0.0
 40
60.0
100
AcDbArc
 50
109.96541898
 51
128.84380181
1001
GRPNAME
1000
PASTMD01
  0
LINE
  5
2118
330
BC6
100
AcDbEntity
  8
245
  6
CENTER2
100
AcDbLine
 10
-31.0
 20
0.0
 30
0.0
 11
65.5
 21
0.0
 31
0.0
1001
GRPNAME
1000
PASTMD0U
  0
ARC
  5
2119
330
BC6
100
AcDbEntity
  8
240
  6
CONTINUOUS
100
AcDbCircle
 10
58.75037012
 20
64.39494381
 30
0.0
 40
59.99999999999997
100
AcDbArc
 50
231.15619749
 51
250.03458088
1001
GRPNAME
1000
PASTMD01
  0
SPLINE
  5
211A
330
BC6
100
AcDbEntity
  8
241
  6
CONTINUOUS
100
AcDbSpline
210
0.0
220
0.0
230
1.0
 70
     8
 71
     3
 72
     9
 73
     5
 74
     3
 42
0.0000000001
 43
0.0000000001
 44
0.0000000001
 40
0.0
 40
0.0
 40
0.0
 40
0.0
 40
8.637419212856821
 40
17.27483842571346
 40
17.27483842571346
 40
17.27483842571346
 40
17.27483842571346
 10
7.950000000000045
 20
7.174818891878004
 30
0.0
 10
6.906572875253825
 20
9.968662321834578
 30
0.0
 10
4.819718625761407
 20
15.55634918174766
 30
0.0
 10
6.9065728752538
 20
21.14403604166074
 30
0.0
 10
7.949999999999986
 20
23.93787947161726
 30
0.0
 11
7.950000000000045
 21
7.174818891878004
 31
0.0
 11
5.86314575050761
 21
15.55634918174772
 31
0.0
 11
7.949999999999986
 21
23.93787947161726
 31
0.0
  0
LINE
  5
211B
330
BC6
100
AcDbEntity
  8
241
  6
CONTINUOUS
100
AcDbLine
 10
7.95
 20
7.1748189
 30
0.0
 11
7.95
 21
23.93787948
 31
0.0
  0
ARC
  5
211C
330
BC6
100
AcDbEntity
  8
240
  6
CONTINUOUS
100
AcDbCircle
 10
23.0
 20
20.0
 30
0.0
 40
3.0
100
AcDbArc
 50
179.99999999
 51
231.15626121
1001
GRPNAME
1000
PASTMD01
  0
LINE
  5
211D
330
BC6
100
AcDbEntity
  8
241
100
AcDbLine
 10
20.0
 20
20.0
 30
0.0
 11
20.0
 21
0.0
 31
0.0
  0
LINE
  5
211E
330
BC6
100
AcDbEntity
  8
240
  6
CONTINUOUS
100
AcDbLine
 10
0.0
 20
24.99
 30
0.0
 11
0.0
 21
18.64266156
 31
0.0
  0
SPLINE
  5
211F
330
BC6
100
AcDbEntity
  8
241
  6
CONTINUOUS
100
AcDbSpline
210
0.0
220
0.0
230
1.0
 70
     8
 71
     3
 72
     9
 73
     5
 74
     3
 42
0.0000000001
 43
0.0000000001
 44
0.0000000001
 40
0.0
 40
0.0
 40
0.0
 40
0.0
 40
8.630480605859938
 40
17.26096121171991
 40
17.26096121171991
 40
17.26096121171991
 40
17.26096121171991
 10
12.05
 20
23.93787947161734
 30
0.0
 10
13.07897345545482
 20
21.1440360416608
 30
0.0
 10
15.13692036636449
 20
15.5563491817477
 30
0.0
 10
13.07897345545483
 20
9.968662321834612
 30
0.0
 10
12.05
 20
7.174818891878061
 30
0.0
 11
12.05
 21
23.93787947161734
 31
0.0
 11
14.10794691090966
 21
15.55634918174772
 31
0.0
 11
12.05
 21
7.174818891878061
 31
0.0
  0
LINE
  5
2120
330
BC6
100
AcDbEntity
  8
241
  6
CONTINUOUS
100
AcDbLine
 10
12.05
 20
7.1748189
 30
0.0
 11
12.05
 21
23.93787948
 31
0.0
  0
LINE
  5
2121
330
BC6
100
AcDbEntity
  8
240
  6
CONTINUOUS
100
AcDbLine
 10
-2.19993752
 20
-16.40000332
 30
0.0
 11
-28.5
 21
-15.74244388
 31
0.0
  0
LINE
  5
2122
330
BC6
100
AcDbEntity
  8
240
  6
CONTINUOUS
100
AcDbLine
 10
-28.5
 20
17.98244397
 30
0.0
 11
-2.09361726
 21
18.64266156
 31
0.0
  0
LINE
  5
2123
330
BC6
100
AcDbEntity
  8
241
100
AcDbLine
 10
-28.5
 20
0.0
 30
0.0
 11
-28.5
 21
17.98244397
 31
0.0
  0
LINE
  5
2124
330
BC6
100
AcDbEntity
  8
240
  6
CONTINUOUS
100
AcDbLine
 10
-30.0
 20
0.0
 30
0.0
 11
-30.0
 21
17.11641857
 31
0.0
  0
LINE
  5
2125
330
BC6
100
AcDbEntity
  8
240
  6
CONTINUOUS
100
AcDbLine
 10
-30.0
 20
-14.87641848
 30
0.0
 11
-30.0
 21
0.0
 31
0.0
  0
LINE
  5
2126
330
BC6
100
AcDbEntity
  8
241
100
AcDbLine
 10
-28.5
 20
-15.74244388
 30
0.0
 11
-28.5
 21
0.0
 31
0.0
  0
LINE
  5
2127
330
BC6
100
AcDbEntity
  8
242
  6
HIDDEN2
100
AcDbLine
 10
-30.0
 20
-14.0
 30
0.0
 11
-24.7
 21
-14.0
 31
0.0
  0
LINE
  5
2128
330
BC6
100
AcDbEntity
  8
240
  6
CONTINUOUS
100
AcDbLine
 10
-28.5
 20
-15.74244388
 30
0.0
 11
-30.0
 21
-14.87641848
 31
0.0
  0
LINE
  5
2129
330
BC6
100
AcDbEntity
  8
242
  6
HIDDEN2
100
AcDbLine
 10
-22.81542934
 20
-15.88457066
 30
0.0
 11
-24.7
 21
-14.0
 31
0.0
  0
LINE
  5
212A
330
BC6
100
AcDbEntity
  8
242
  6
HIDDEN2
100
AcDbLine
 10
-24.7
 20
-14.0
 30
0.0
 11
-24.7
 21
-15.83745224
 31
0.0
  0
LINE
  5
212B
330
BC6
100
AcDbEntity
  8
240
  6
CONTINUOUS
100
AcDbLine
 10
-30.0
 20
17.11641857
 30
0.0
 11
-28.5
 21
17.98244397
 31
0.0
  0
LINE
  5
212C
330
BC6
100
AcDbEntity
  8
240
  6
CONTINUOUS
100
AcDbLine
 10
0.0
 20
-24.99
 30
0.0
 11
0.0
 21
-16.40000332
 31
0.0
  0
ARC
  5
212D
330
BC6
100
AcDbEntity
  8
240
  6
CONTINUOUS
100
AcDbCircle
 10
23.0
 20
-20.0
 30
0.0
 40
2.999999999999998
100
AcDbArc
 50
128.84373878
 51
179.99999999
1001
GRPNAME
1000
PASTMD01
  0
SPLINE
  5
212E
330
BC6
100
AcDbEntity
  8
241
  6
CONTINUOUS
100
AcDbSpline
210
0.0
220
0.0
230
1.0
 70
     8
 71
     3
 72
     9
 73
     5
 74
     3
 42
0.0000000001
 43
0.0000000001
 44
0.0000000001
 40
0.0
 40
0.0
 40
0.0
 40
0.0
 40
8.630480605859919
 40
17.26096121171992
 40
17.26096121171992
 40
17.26096121171992
 40
17.26096121171992
 10
12.05
 20
-23.93787948032985
 30
0.0
 10
13.07897345545482
 20
-21.14403605037331
 30
0.0
 10
15.13692036636449
 20
-15.55634919046022
 30
0.0
 10
13.07897345545483
 20
-9.968662330547125
 30
0.0
 10
12.05
 20
-7.174818900590564
 30
0.0
 11
12.05
 21
-23.93787948032985
 31
0.0
 11
14.10794691090966
 21
-15.55634919046025
 31
0.0
 11
12.05
 21
-7.174818900590564
 31
0.0
  0
LINE
  5
212F
330
BC6
100
AcDbEntity
  8
241
  6
CONTINUOUS
100
AcDbLine
 10
12.05
 20
-7.1748189
 30
0.0
 11
12.05
 21
-23.93787948
 31
0.0
  0
SPLINE
  5
2130
330
BC6
100
AcDbEntity
  8
241
  6
CONTINUOUS
100
AcDbSpline
210
0.0
220
0.0
230
1.0
 70
     8
 71
     3
 72
     9
 73
     5
 74
     3
 42
0.0000000001
 43
0.0000000001
 44
0.0000000001
 40
0.0
 40
0.0
 40
0.0
 40
0.0
 40
8.637419212856791
 40
17.27483842571348
 40
17.27483842571348
 40
17.27483842571348
 40
17.27483842571348
 10
7.950000000000045
 20
-7.174818900590536
 30
0.0
 10
6.906572875253829
 20
-9.968662330547097
 30
0.0
 10
4.819718625761407
 20
-15.55634919046018
 30
0.0
 10
6.906572875253797
 20
-21.14403605037328
 30
0.0
 10
7.949999999999986
 20
-23.93787948032982
 30
0.0
 11
7.950000000000045
 21
-7.174818900590536
 31
0.0
 11
5.86314575050761
 21
-15.55634919046022
 31
0.0
 11
7.949999999999986
 21
-23.93787948032982
 31
0.0
  0
LINE
  5
2131
330
BC6
100
AcDbEntity
  8
241
  6
CONTINUOUS
100
AcDbLine
 10
7.95
 20
-7.1748189
 30
0.0
 11
7.95
 21
-23.93787948
 31
0.0
  0
LINE
  5
2132
330
BC6
100
AcDbEntity
  8
241
100
AcDbLine
 10
20.0
 20
0.0
 30
0.0
 11
20.0
 21
-20.0
 31
0.0
  0
LINE
  5
2133
330
BC6
100
AcDbEntity
  8
240
  6
CONTINUOUS
100
AcDbLine
 10
0.0
 20
-24.99
 30
0.0
 11
20.0
 21
-24.99
 31
0.0
  0
LINE
  5
2134
330
BC6
100
AcDbEntity
  8
241
  6
CONTINUOUS
100
AcDbLine
 10
7.95
 20
-23.93787948
 30
0.0
 11
12.05
 21
-23.93787948
 31
0.0
  0
LINE
  5
2135
330
BC6
100
AcDbEntity
  8
240
100
AcDbLine
 10
20.0
 20
-24.99
 30
0.0
 11
20.0
 21
-20.0
 31
0.0
  0
LINE
  5
2136
330
BC6
100
AcDbEntity
  8
241
100
AcDbLine
 10
0.0
 20
0.0
 30
0.0
 11
0.0
 21
18.64266156
 31
0.0
  0
LINE
  5
2137
330
BC6
100
AcDbEntity
  8
241
100
AcDbLine
 10
-2.19993752
 20
0.0
 30
0.0
 11
-2.19993752
 21
18.64000332
 31
0.0
  0
LINE
  5
2138
330
BC6
100
AcDbEntity
  8
241
100
AcDbLine
 10
-2.19993752
 20
-16.40000332
 30
0.0
 11
-2.19993752
 21
0.0
 31
0.0
  0
LINE
  5
2139
330
BC6
100
AcDbEntity
  8
241
100
AcDbLine
 10
0.0
 20
-16.40000332
 30
0.0
 11
0.0
 21
0.0
 31
0.0
  0
LINE
  5
213A
330
BC6
100
AcDbEntity
  8
240
100
AcDbLine
 10
-2.19993752
 20
-16.40000332
 30
0.0
 11
0.0
 21
-16.40000332
 31
0.0
  0
LINE
  5
213B
330
BC6
100
AcDbEntity
  8
240
100
AcDbLine
 10
-2.09361726
 20
18.64266156
 30
0.0
 11
0.0
 21
18.64266156
 31
0.0
  0
LINE
  5
213C
330
BC6
100
AcDbEntity
  8
241
  6
CONTINUOUS
100
AcDbLine
 10
7.95
 20
-7.1748189
 30
0.0
 11
12.05
 21
-7.1748189
 31
0.0
  0
LINE
  5
213D
330
BC6
100
AcDbEntity
  8
241
  6
CONTINUOUS
100
AcDbLine
 10
7.95
 20
7.1748189
 30
0.0
 11
12.05
 21
7.1748189
 31
0.0
  0
LINE
  5
213E
330
BC6
100
AcDbEntity
  8
240
  6
CONTINUOUS
100
AcDbLine
 10
0.0
 20
24.99
 30
0.0
 11
20.0
 21
24.99
 31
0.0
  0
LINE
  5
213F
330
BC6
100
AcDbEntity
  8
241
  6
CONTINUOUS
100
AcDbLine
 10
7.95
 20
23.93787948
 30
0.0
 11
12.05
 21
23.93787948
 31
0.0
  0
LINE
  5
2140
330
BC6
100
AcDbEntity
  8
240
100
AcDbLine
 10
20.0
 20
24.99
 30
0.0
 11
20.0
 21
20.0
 31
0.0
  0
LINE
  5
2141
330
BC6
100
AcDbEntity
  8
242
100
AcDbLine
 10
65.0
 20
8.0
 30
0.0
 11
56.0
 21
8.0
 31
0.0
  0
LINE
  5
2142
330
BC6
100
AcDbEntity
  8
240
100
AcDbLine
 10
64.5
 20
7.3
 30
0.0
 11
55.00000001
 21
7.6
 31
0.0
  0
LINE
  5
2143
330
BC6
100
AcDbEntity
  8
241
100
AcDbLine
 10
48.69962837
 20
-4.48958244
 30
0.0
 11
64.28181685
 21
-7.30689
 31
0.0
  0
LINE
  5
2144
330
BC6
100
AcDbEntity
  8
240
100
AcDbLine
 10
64.5
 20
-7.3
 30
0.0
 11
55.00000001
 21
-7.6
 31
0.0
  0
LINE
  5
2145
330
BC6
100
AcDbEntity
  8
242
100
AcDbLine
 10
65.0
 20
-8.0
 30
0.0
 11
56.0
 21
-8.0
 31
0.0
  0
LINE
  5
2146
330
BC6
100
AcDbEntity
  8
241
100
AcDbLine
 10
54.96190064
 20
2.18447099
 30
0.0
 11
64.5
 21
0.50264672
 31
0.0
  0
LINE
  5
2147
330
BC6
100
AcDbEntity
  8
241
100
AcDbLine
 10
64.5
 20
-3.66057103
 30
0.0
 11
53.86821946
 21
-0.05790774
 31
0.0
  0
LINE
  5
2148
330
BC6
100
AcDbEntity
  8
241
100
AcDbLine
 10
39.99999999
 20
7.4
 30
0.0
 11
39.99999999
 21
0.0
 31
0.0
  0
ARC
  5
2149
330
BC6
100
AcDbEntity
  8
241
100
AcDbCircle
 10
49.17568132
 20
-1.85659096
 30
0.0
 40
2.67568131511622
100
AcDbArc
 50
80.0
 51
260.0
  0
LINE
  5
214A
330
BC6
100
AcDbEntity
  8
241
100
AcDbLine
 10
49.6403085
 20
0.77844074
 30
0.0
 11
53.90902268
 21
0.02575126
 31
0.0
  0
LINE
  5
214B
330
BC6
100
AcDbEntity
  8
241
100
AcDbLine
 10
54.96190064
 20
2.18447099
 30
0.0
 11
53.86821946
 21
-0.05790774
 31
0.0
  0
LINE
  5
214C
330
BC6
100
AcDbEntity
  8
240
100
AcDbLine
 10
54.45050451
 20
-7.4
 30
0.0
 11
41.6777237
 21
-7.4
 31
0.0
  0
LINE
  5
214D
330
BC6
100
AcDbEntity
  8
241
100
AcDbLine
 10
39.99999999
 20
-7.4
 30
0.0
 11
39.99999999
 21
0.0
 31
0.0
  0
ARC
  5
214E
330
BC6
100
AcDbEntity
  8
240
  6
CONTINUOUS
100
AcDbCircle
 10
41.6777237
 20
-17.4
 30
0.0
 40
10.0
100
AcDbArc
 50
90.00000002
 51
109.96541909
1001
GRPNAME
1000
PASTMD01
  0
LINE
  5
214F
330
BC6
100
AcDbEntity
  8
240
100
AcDbLine
 10
54.45050451
 20
-7.4
 30
0.0
 11
55.00000001
 21
-7.6
 31
0.0
  0
LINE
  5
2150
330
BC6
100
AcDbEntity
  8
240
100
AcDbLine
 10
54.45050451
 20
7.4
 30
0.0
 11
41.6777237
 21
7.4
 31
0.0
  0
ARC
  5
2151
330
BC6
100
AcDbEntity
  8
240
  6
CONTINUOUS
100
AcDbCircle
 10
41.6777237
 20
17.4
 30
0.0
 40
10.0
100
AcDbArc
 50
250.0345809
 51
269.99999997
1001
GRPNAME
1000
PASTMD01
  0
LINE
  5
2152
330
BC6
100
AcDbEntity
  8
240
100
AcDbLine
 10
55.00000001
 20
7.6
 30
0.0
 11
54.45050451
 21
7.4
 31
0.0
  0
LINE
  5
2153
330
BC6
100
AcDbEntity
  8
240
100
AcDbLine
 10
64.5
 20
7.3
 30
0.0
 11
64.5
 21
0.50445513
 31
0.0
  0
LINE
  5
2154
330
BC6
100
AcDbEntity
  8
246
100
AcDbLine
 10
65.0
 20
-8.0
 30
0.0
 11
65.0
 21
8.0
 31
0.0
  0
LINE
  5
2155
330
BC6
100
AcDbEntity
  8
240
100
AcDbLine
 10
64.5
 20
-7.3
 30
0.0
 11
64.5
 21
-3.66057103
 31
0.0
  0
LINE
  5
2156
330
BC6
100
AcDbEntity
  8
240
100
AcDbLine
 10
64.99051309
 20
-2.97357041
 30
0.0
 11
64.60907584
 21
0.48341371
 31
0.0
  0
LINE
  5
2157
330
BC6
100
AcDbEntity
  8
240
100
AcDbLine
 10
64.99051309
 20
-2.97357041
 30
0.0
 11
65.0
 21
-3.83
 31
0.0
  0
LINE
  5
2158
330
BC6
100
AcDbEntity
  8
247
100
AcDbLine
 10
64.69544263
 20
-1.25512764
 30
0.0
 11
64.69454015
 21
-1.25484608
 31
0.0
  0
LINE
  5
2159
330
BC6
100
AcDbEntity
  8
240
100
AcDbLine
 10
64.60907584
 20
0.48341371
 30
0.0
 11
64.5
 21
0.50264672
 31
0.0
  0
LINE
  5
215A
330
BC6
100
AcDbEntity
  8
240
100
AcDbLine
 10
65.0
 20
-3.83
 30
0.0
 11
64.5
 21
-3.66057103
 31
0.0
  0
POLYLINE
  5
215B
330
BC6
100
AcDbEntity
  8
241
100
AcDb3dPolyline
 66
     1
 10
0.0
 20
0.0
 30
0.0
 70
     8
  0
VERTEX
  5
215C
330
215B
100
AcDbEntity
  8
241
100
AcDbVertex
100
AcDb3dPolylineVertex
 10
58.9316
 20
5.98201
 30
0.0
 70
    32
  0
VERTEX
  5
215D
330
215B
100
AcDbEntity
  8
241
100
AcDbVertex
100
AcDb3dPolylineVertex
 10
58.9267
 20
5.95187
 30
0.0
 70
    32
  0
VERTEX
  5
215E
330
215B
100
AcDbEntity
  8
241
100
AcDbVertex
100
AcDb3dPolylineVertex
 10
58.9225
 20
5.92162
 30
0.0
 70
    32
  0
VERTEX
  5
215F
330
215B
100
AcDbEntity
  8
241
100
AcDbVertex
100
AcDb3dPolylineVertex
 10
58.9191
 20
5.89128
 30
0.0
 70
    32
  0
VERTEX
  5
2160
330
215B
100
AcDbEntity
  8
241
100
AcDbVertex
100
AcDb3dPolylineVertex
 10
58.9164
 20
5.86085
 30
0.0
 70
    32
  0
VERTEX
  5
2161
330
215B
100
AcDbEntity
  8
241
100
AcDbVertex
100
AcDb3dPolylineVertex
 10
58.9145
 20
5.83037
 30
0.0
 70
    32
  0
VERTEX
  5
2162
330
215B
100
AcDbEntity
  8
241
100
AcDbVertex
100
AcDb3dPolylineVertex
 10
58.9133
 20
5.79986
 30
0.0
 70
    32
  0
VERTEX
  5
2163
330
215B
100
AcDbEntity
  8
241
100
AcDbVertex
100
AcDb3dPolylineVertex
 10
58.9128
 20
5.76932
 30
0.0
 70
    32
  0
VERTEX
  5
2164
330
215B
100
AcDbEntity
  8
241
100
AcDbVertex
100
AcDb3dPolylineVertex
 10
58.9131
 20
5.73877
 30
0.0
 70
    32
  0
VERTEX
  5
2165
330
215B
100
AcDbEntity
  8
241
100
AcDbVertex
100
AcDb3dPolylineVertex
 10
58.9142
 20
5.70825
 30
0.0
 70
    32
  0
VERTEX
  5
2166
330
215B
100
AcDbEntity
  8
241
100
AcDbVertex
100
AcDb3dPolylineVertex
 10
58.916
 20
5.67775
 30
0.0
 70
    32
  0
VERTEX
  5
2167
330
215B
100
AcDbEntity
  8
241
100
AcDbVertex
100
AcDb3dPolylineVertex
 10
58.9186
 20
5.64731
 30
0.0
 70
    32
  0
VERTEX
  5
2168
330
215B
100
AcDbEntity
  8
241
100
AcDbVertex
100
AcDb3dPolylineVertex
 10
58.9219
 20
5.61694
 30
0.0
 70
    32
  0
VERTEX
  5
2169
330
215B
100
AcDbEntity
  8
241
100
AcDbVertex
100
AcDb3dPolylineVertex
 10
58.926
 20
5.58666
 30
0.0
 70
    32
  0
VERTEX
  5
216A
330
215B
100
AcDbEntity
  8
241
100
AcDbVertex
100
AcDb3dPolylineVertex
 10
58.9308
 20
5.55649
 30
0.0
 70
    32
  0
VERTEX
  5
216B
330
215B
100
AcDbEntity
  8
241
100
AcDbVertex
100
AcDb3dPolylineVertex
 10
58.9364
 20
5.52644
 30
0.0
 70
    32
  0
VERTEX
  5
216C
330
215B
100
AcDbEntity
  8
241
100
AcDbVertex
100
AcDb3dPolylineVertex
 10
58.9427
 20
5.49654
 30
0.0
 70
    32
  0
VERTEX
  5
216D
330
215B
100
AcDbEntity
  8
241
100
AcDbVertex
100
AcDb3dPolylineVertex
 10
58.9497
 20
5.4668
 30
0.0
 70
    32
  0
VERTEX
  5
216E
330
215B
100
AcDbEntity
  8
241
100
AcDbVertex
100
AcDb3dPolylineVertex
 10
58.9575
 20
5.43724
 30
0.0
 70
    32
  0
VERTEX
  5
216F
330
215B
100
AcDbEntity
  8
241
100
AcDbVertex
100
AcDb3dPolylineVertex
 10
58.9659
 20
5.40787
 30
0.0
 70
    32
  0
VERTEX
  5
2170
330
215B
100
AcDbEntity
  8
241
100
AcDbVertex
100
AcDb3dPolylineVertex
 10
58.9751
 20
5.37872
 30
0.0
 70
    32
  0
VERTEX
  5
2171
330
215B
100
AcDbEntity
  8
241
100
AcDbVertex
100
AcDb3dPolylineVertex
 10
58.9851
 20
5.3498
 30
0.0
 70
    32
  0
VERTEX
  5
2172
330
215B
100
AcDbEntity
  8
241
100
AcDbVertex
100
AcDb3dPolylineVertex
 10
58.9957
 20
5.32114
 30
0.0
 70
    32
  0
VERTEX
  5
2173
330
215B
100
AcDbEntity
  8
241
100
AcDbVertex
100
AcDb3dPolylineVertex
 10
59.007
 20
5.29274
 30
0.0
 70
    32
  0
VERTEX
  5
2174
330
215B
100
AcDbEntity
  8
241
100
AcDbVertex
100
AcDb3dPolylineVertex
 10
59.0191
 20
5.26462
 30
0.0
 70
    32
  0
VERTEX
  5
2175
330
215B
100
AcDbEntity
  8
241
100
AcDbVertex
100
AcDb3dPolylineVertex
 10
59.0318
 20
5.23681
 30
0.0
 70
    32
  0
VERTEX
  5
2176
330
215B
100
AcDbEntity
  8
241
100
AcDbVertex
100
AcDb3dPolylineVertex
 10
59.0452
 20
5.20931
 30
0.0
 70
    32
  0
VERTEX
  5
2177
330
215B
100
AcDbEntity
  8
241
100
AcDbVertex
100
AcDb3dPolylineVertex
 10
59.0593
 20
5.18215
 30
0.0
 70
    32
  0
VERTEX
  5
2178
330
215B
100
AcDbEntity
  8
241
100
AcDbVertex
100
AcDb3dPolylineVertex
 10
59.074
 20
5.15534
 30
0.0
 70
    32
  0
VERTEX
  5
2179
330
215B
100
AcDbEntity
  8
241
100
AcDbVertex
100
AcDb3dPolylineVertex
 10
59.0894
 20
5.1289
 30
0.0
 70
    32
  0
VERTEX
  5
217A
330
215B
100
AcDbEntity
  8
241
100
AcDbVertex
100
AcDb3dPolylineVertex
 10
59.1054
 20
5.10284
 30
0.0
 70
    32
  0
VERTEX
  5
217B
330
215B
100
AcDbEntity
  8
241
100
AcDbVertex
100
AcDb3dPolylineVertex
 10
59.1221
 20
5.07718
 30
0.0
 70
    32
  0
VERTEX
  5
217C
330
215B
100
AcDbEntity
  8
241
100
AcDbVertex
100
AcDb3dPolylineVertex
 10
59.1394
 20
5.05193
 30
0.0
 70
    32
  0
VERTEX
  5
217D
330
215B
100
AcDbEntity
  8
241
100
AcDbVertex
100
AcDb3dPolylineVertex
 10
59.1573
 20
5.02711
 30
0.0
 70
    32
  0
VERTEX
  5
217E
330
215B
100
AcDbEntity
  8
241
100
AcDbVertex
100
AcDb3dPolylineVertex
 10
59.1759
 20
5.00274
 30
0.0
 70
    32
  0
VERTEX
  5
217F
330
215B
100
AcDbEntity
  8
241
100
AcDbVertex
100
AcDb3dPolylineVertex
 10
59.195
 20
4.97883
 30
0.0
 70
    32
  0
VERTEX
  5
2180
330
215B
100
AcDbEntity
  8
241
100
AcDbVertex
100
AcDb3dPolylineVertex
 10
59.2147
 20
4.95539
 30
0.0
 70
    32
  0
VERTEX
  5
2181
330
215B
100
AcDbEntity
  8
241
100
AcDbVertex
100
AcDb3dPolylineVertex
 10
59.235
 20
4.93244
 30
0.0
 70
    32
  0
VERTEX
  5
2182
330
215B
100
AcDbEntity
  8
241
100
AcDbVertex
100
AcDb3dPolylineVertex
 10
59.2558
 20
4.90998
 30
0.0
 70
    32
  0
VERTEX
  5
2183
330
215B
100
AcDbEntity
  8
241
100
AcDbVertex
100
AcDb3dPolylineVertex
 10
59.2772
 20
4.88805
 30
0.0
 70
    32
  0
VERTEX
  5
2184
330
215B
100
AcDbEntity
  8
241
100
AcDbVertex
100
AcDb3dPolylineVertex
 10
59.2991
 20
4.86664
 30
0.0
 70
    32
  0
VERTEX
  5
2185
330
215B
100
AcDbEntity
  8
241
100
AcDbVertex
100
AcDb3dPolylineVertex
 10
59.3215
 20
4.84577
 30
0.0
 70
    32
  0
VERTEX
  5
2186
330
215B
100
AcDbEntity
  8
241
100
AcDbVertex
100
AcDb3dPolylineVertex
 10
59.3445
 20
4.82546
 30
0.0
 70
    32
  0
VERTEX
  5
2187
330
215B
100
AcDbEntity
  8
241
100
AcDbVertex
100
AcDb3dPolylineVertex
 10
59.3679
 20
4.80571
 30
0.0
 70
    32
  0
VERTEX
  5
2188
330
215B
100
AcDbEntity
  8
241
100
AcDbVertex
100
AcDb3dPolylineVertex
 10
59.3918
 20
4.78655
 30
0.0
 70
    32
  0
VERTEX
  5
2189
330
215B
100
AcDbEntity
  8
241
100
AcDbVertex
100
AcDb3dPolylineVertex
 10
59.4162
 20
4.76797
 30
0.0
 70
    32
  0
VERTEX
  5
218A
330
215B
100
AcDbEntity
  8
241
100
AcDbVertex
100
AcDb3dPolylineVertex
 10
59.441
 20
4.74999
 30
0.0
 70
    32
  0
VERTEX
  5
218B
330
215B
100
AcDbEntity
  8
241
100
AcDbVertex
100
AcDb3dPolylineVertex
 10
59.4663
 20
4.73262
 30
0.0
 70
    32
  0
VERTEX
  5
218C
330
215B
100
AcDbEntity
  8
241
100
AcDbVertex
100
AcDb3dPolylineVertex
 10
59.4919
 20
4.71587
 30
0.0
 70
    32
  0
VERTEX
  5
218D
330
215B
100
AcDbEntity
  8
241
100
AcDbVertex
100
AcDb3dPolylineVertex
 10
59.518
 20
4.69976
 30
0.0
 70
    32
  0
VERTEX
  5
218E
330
215B
100
AcDbEntity
  8
241
100
AcDbVertex
100
AcDb3dPolylineVertex
 10
59.5445
 20
4.68429
 30
0.0
 70
    32
  0
VERTEX
  5
218F
330
215B
100
AcDbEntity
  8
241
100
AcDbVertex
100
AcDb3dPolylineVertex
 10
59.5713
 20
4.66947
 30
0.0
 70
    32
  0
VERTEX
  5
2190
330
215B
100
AcDbEntity
  8
241
100
AcDbVertex
100
AcDb3dPolylineVertex
 10
59.5985
 20
4.6553
 30
0.0
 70
    32
  0
VERTEX
  5
2191
330
215B
100
AcDbEntity
  8
241
100
AcDbVertex
100
AcDb3dPolylineVertex
 10
59.6261
 20
4.64181
 30
0.0
 70
    32
  0
VERTEX
  5
2192
330
215B
100
AcDbEntity
  8
241
100
AcDbVertex
100
AcDb3dPolylineVertex
 10
59.6539
 20
4.62899
 30
0.0
 70
    32
  0
VERTEX
  5
2193
330
215B
100
AcDbEntity
  8
241
100
AcDbVertex
100
AcDb3dPolylineVertex
 10
59.6821
 20
4.61686
 30
0.0
 70
    32
  0
VERTEX
  5
2194
330
215B
100
AcDbEntity
  8
241
100
AcDbVertex
100
AcDb3dPolylineVertex
 10
59.7106
 20
4.60542
 30
0.0
 70
    32
  0
VERTEX
  5
2195
330
215B
100
AcDbEntity
  8
241
100
AcDbVertex
100
AcDb3dPolylineVertex
 10
59.7393
 20
4.59468
 30
0.0
 70
    32
  0
VERTEX
  5
2196
330
215B
100
AcDbEntity
  8
241
100
AcDbVertex
100
AcDb3dPolylineVertex
 10
59.7683
 20
4.58464
 30
0.0
 70
    32
  0
VERTEX
  5
2197
330
215B
100
AcDbEntity
  8
241
100
AcDbVertex
100
AcDb3dPolylineVertex
 10
59.7975
 20
4.57531
 30
0.0
 70
    32
  0
VERTEX
  5
2198
330
215B
100
AcDbEntity
  8
241
100
AcDbVertex
100
AcDb3dPolylineVertex
 10
59.827
 20
4.5667
 30
0.0
 70
    32
  0
VERTEX
  5
2199
330
215B
100
AcDbEntity
  8
241
100
AcDbVertex
100
AcDb3dPolylineVertex
 10
59.8566
 20
4.55882
 30
0.0
 70
    32
  0
VERTEX
  5
219A
330
215B
100
AcDbEntity
  8
241
100
AcDbVertex
100
AcDb3dPolylineVertex
 10
59.8864
 20
4.55165
 30
0.0
 70
    32
  0
VERTEX
  5
219B
330
215B
100
AcDbEntity
  8
241
100
AcDbVertex
100
AcDb3dPolylineVertex
 10
59.9164
 20
4.54522
 30
0.0
 70
    32
  0
VERTEX
  5
219C
330
215B
100
AcDbEntity
  8
241
100
AcDbVertex
100
AcDb3dPolylineVertex
 10
59.9466
 20
4.53953
 30
0.0
 70
    32
  0
VERTEX
  5
219D
330
215B
100
AcDbEntity
  8
241
100
AcDbVertex
100
AcDb3dPolylineVertex
 10
59.9769
 20
4.53457
 30
0.0
 70
    32
  0
VERTEX
  5
219E
330
215B
100
AcDbEntity
  8
241
100
AcDbVertex
100
AcDb3dPolylineVertex
 10
60.0072
 20
4.53035
 30
0.0
 70
    32
  0
VERTEX
  5
219F
330
215B
100
AcDbEntity
  8
241
100
AcDbVertex
100
AcDb3dPolylineVertex
 10
60.0377
 20
4.52688
 30
0.0
 70
    32
  0
VERTEX
  5
21A0
330
215B
100
AcDbEntity
  8
241
100
AcDbVertex
100
AcDb3dPolylineVertex
 10
60.0683
 20
4.52415
 30
0.0
 70
    32
  0
VERTEX
  5
21A1
330
215B
100
AcDbEntity
  8
241
100
AcDbVertex
100
AcDb3dPolylineVertex
 10
60.0989
 20
4.52217
 30
0.0
 70
    32
  0
VERTEX
  5
21A2
330
215B
100
AcDbEntity
  8
241
100
AcDbVertex
100
AcDb3dPolylineVertex
 10
60.1295
 20
4.52094
 30
0.0
 70
    32
  0
VERTEX
  5
21A3
330
215B
100
AcDbEntity
  8
241
100
AcDbVertex
100
AcDb3dPolylineVertex
 10
60.1602
 20
4.52046
 30
0.0
 70
    32
  0
VERTEX
  5
21A4
330
215B
100
AcDbEntity
  8
241
100
AcDbVertex
100
AcDb3dPolylineVertex
 10
60.1909
 20
4.52073
 30
0.0
 70
    32
  0
VERTEX
  5
21A5
330
215B
100
AcDbEntity
  8
241
100
AcDbVertex
100
AcDb3dPolylineVertex
 10
60.2215
 20
4.52174
 30
0.0
 70
    32
  0
VERTEX
  5
21A6
330
215B
100
AcDbEntity
  8
241
100
AcDbVertex
100
AcDb3dPolylineVertex
 10
60.2522
 20
4.52351
 30
0.0
 70
    32
  0
VERTEX
  5
21A7
330
215B
100
AcDbEntity
  8
241
100
AcDbVertex
100
AcDb3dPolylineVertex
 10
60.2827
 20
4.52602
 30
0.0
 70
    32
  0
VERTEX
  5
21A8
330
215B
100
AcDbEntity
  8
241
100
AcDbVertex
100
AcDb3dPolylineVertex
 10
60.3132
 20
4.52928
 30
0.0
 70
    32
  0
VERTEX
  5
21A9
330
215B
100
AcDbEntity
  8
241
100
AcDbVertex
100
AcDb3dPolylineVertex
 10
60.3436
 20
4.53329
 30
0.0
 70
    32
  0
VERTEX
  5
21AA
330
215B
100
AcDbEntity
  8
241
100
AcDbVertex
100
AcDb3dPolylineVertex
 10
60.3739
 20
4.53804
 30
0.0
 70
    32
  0
VERTEX
  5
21AB
330
215B
100
AcDbEntity
  8
241
100
AcDbVertex
100
AcDb3dPolylineVertex
 10
60.4041
 20
4.54352
 30
0.0
 70
    32
  0
VERTEX
  5
21AC
330
215B
100
AcDbEntity
  8
241
100
AcDbVertex
100
AcDb3dPolylineVertex
 10
60.4341
 20
4.54974
 30
0.0
 70
    32
  0
VERTEX
  5
21AD
330
215B
100
AcDbEntity
  8
241
100
AcDbVertex
100
AcDb3dPolylineVertex
 10
60.464
 20
4.5567
 30
0.0
 70
    32
  0
VERTEX
  5
21AE
330
215B
100
AcDbEntity
  8
241
100
AcDbVertex
100
AcDb3dPolylineVertex
 10
60.4937
 20
4.56438
 30
0.0
 70
    32
  0
VERTEX
  5
21AF
330
215B
100
AcDbEntity
  8
241
100
AcDbVertex
100
AcDb3dPolylineVertex
 10
60.5231
 20
4.57278
 30
0.0
 70
    32
  0
VERTEX
  5
21B0
330
215B
100
AcDbEntity
  8
241
100
AcDbVertex
100
AcDb3dPolylineVertex
 10
60.5524
 20
4.5819
 30
0.0
 70
    32
  0
VERTEX
  5
21B1
330
215B
100
AcDbEntity
  8
241
100
AcDbVertex
100
AcDb3dPolylineVertex
 10
60.5814
 20
4.59174
 30
0.0
 70
    32
  0
VERTEX
  5
21B2
330
215B
100
AcDbEntity
  8
241
100
AcDbVertex
100
AcDb3dPolylineVertex
 10
60.6102
 20
4.60228
 30
0.0
 70
    32
  0
VERTEX
  5
21B3
330
215B
100
AcDbEntity
  8
241
100
AcDbVertex
100
AcDb3dPolylineVertex
 10
60.6387
 20
4.61352
 30
0.0
 70
    32
  0
VERTEX
  5
21B4
330
215B
100
AcDbEntity
  8
241
100
AcDbVertex
100
AcDb3dPolylineVertex
 10
60.6669
 20
4.62546
 30
0.0
 70
    32
  0
VERTEX
  5
21B5
330
215B
100
AcDbEntity
  8
241
100
AcDbVertex
100
AcDb3dPolylineVertex
 10
60.6948
 20
4.63808
 30
0.0
 70
    32
  0
VERTEX
  5
21B6
330
215B
100
AcDbEntity
  8
241
100
AcDbVertex
100
AcDb3dPolylineVertex
 10
60.7224
 20
4.65138
 30
0.0
 70
    32
  0
VERTEX
  5
21B7
330
215B
100
AcDbEntity
  8
241
100
AcDbVertex
100
AcDb3dPolylineVertex
 10
60.7497
 20
4.66535
 30
0.0
 70
    32
  0
VERTEX
  5
21B8
330
215B
100
AcDbEntity
  8
241
100
AcDbVertex
100
AcDb3dPolylineVertex
 10
60.7766
 20
4.67998
 30
0.0
 70
    32
  0
VERTEX
  5
21B9
330
215B
100
AcDbEntity
  8
241
100
AcDbVertex
100
AcDb3dPolylineVertex
 10
60.8031
 20
4.69527
 30
0.0
 70
    32
  0
VERTEX
  5
21BA
330
215B
100
AcDbEntity
  8
241
100
AcDbVertex
100
AcDb3dPolylineVertex
 10
60.8292
 20
4.7112
 30
0.0
 70
    32
  0
VERTEX
  5
21BB
330
215B
100
AcDbEntity
  8
241
100
AcDbVertex
100
AcDb3dPolylineVertex
 10
60.855
 20
4.72777
 30
0.0
 70
    32
  0
VERTEX
  5
21BC
330
215B
100
AcDbEntity
  8
241
100
AcDbVertex
100
AcDb3dPolylineVertex
 10
60.8803
 20
4.74496
 30
0.0
 70
    32
  0
VERTEX
  5
21BD
330
215B
100
AcDbEntity
  8
241
100
AcDbVertex
100
AcDb3dPolylineVertex
 10
60.9052
 20
4.76277
 30
0.0
 70
    32
  0
VERTEX
  5
21BE
330
215B
100
AcDbEntity
  8
241
100
AcDbVertex
100
AcDb3dPolylineVertex
 10
60.9297
 20
4.78118
 30
0.0
 70
    32
  0
VERTEX
  5
21BF
330
215B
100
AcDbEntity
  8
241
100
AcDbVertex
100
AcDb3dPolylineVertex
 10
60.9537
 20
4.80018
 30
0.0
 70
    32
  0
VERTEX
  5
21C0
330
215B
100
AcDbEntity
  8
241
100
AcDbVertex
100
AcDb3dPolylineVertex
 10
60.9772
 20
4.81976
 30
0.0
 70
    32
  0
VERTEX
  5
21C1
330
215B
100
AcDbEntity
  8
241
100
AcDbVertex
100
AcDb3dPolylineVertex
 10
61.0002
 20
4.83991
 30
0.0
 70
    32
  0
VERTEX
  5
21C2
330
215B
100
AcDbEntity
  8
241
100
AcDbVertex
100
AcDb3dPolylineVertex
 10
61.0227
 20
4.86062
 30
0.0
 70
    32
  0
VERTEX
  5
21C3
330
215B
100
AcDbEntity
  8
241
100
AcDbVertex
100
AcDb3dPolylineVertex
 10
61.0447
 20
4.88188
 30
0.0
 70
    32
  0
VERTEX
  5
21C4
330
215B
100
AcDbEntity
  8
241
100
AcDbVertex
100
AcDb3dPolylineVertex
 10
61.0662
 20
4.90366
 30
0.0
 70
    32
  0
VERTEX
  5
21C5
330
215B
100
AcDbEntity
  8
241
100
AcDbVertex
100
AcDb3dPolylineVertex
 10
61.0871
 20
4.92597
 30
0.0
 70
    32
  0
VERTEX
  5
21C6
330
215B
100
AcDbEntity
  8
241
100
AcDbVertex
100
AcDb3dPolylineVertex
 10
61.1074
 20
4.94878
 30
0.0
 70
    32
  0
VERTEX
  5
21C7
330
215B
100
AcDbEntity
  8
241
100
AcDbVertex
100
AcDb3dPolylineVertex
 10
61.1272
 20
4.97208
 30
0.0
 70
    32
  0
VERTEX
  5
21C8
330
215B
100
AcDbEntity
  8
241
100
AcDbVertex
100
AcDb3dPolylineVertex
 10
61.1465
 20
4.99586
 30
0.0
 70
    32
  0
VERTEX
  5
21C9
330
215B
100
AcDbEntity
  8
241
100
AcDbVertex
100
AcDb3dPolylineVertex
 10
61.1651
 20
5.0201
 30
0.0
 70
    32
  0
VERTEX
  5
21CA
330
215B
100
AcDbEntity
  8
241
100
AcDbVertex
100
AcDb3dPolylineVertex
 10
61.1831
 20
5.0448
 30
0.0
 70
    32
  0
VERTEX
  5
21CB
330
215B
100
AcDbEntity
  8
241
100
AcDbVertex
100
AcDb3dPolylineVertex
 10
61.2005
 20
5.06992
 30
0.0
 70
    32
  0
VERTEX
  5
21CC
330
215B
100
AcDbEntity
  8
241
100
AcDbVertex
100
AcDb3dPolylineVertex
 10
61.2173
 20
5.09546
 30
0.0
 70
    32
  0
VERTEX
  5
21CD
330
215B
100
AcDbEntity
  8
241
100
AcDbVertex
100
AcDb3dPolylineVertex
 10
61.2334
 20
5.12141
 30
0.0
 70
    32
  0
VERTEX
  5
21CE
330
215B
100
AcDbEntity
  8
241
100
AcDbVertex
100
AcDb3dPolylineVertex
 10
61.2489
 20
5.14775
 30
0.0
 70
    32
  0
VERTEX
  5
21CF
330
215B
100
AcDbEntity
  8
241
100
AcDbVertex
100
AcDb3dPolylineVertex
 10
61.2638
 20
5.17445
 30
0.0
 70
    32
  0
VERTEX
  5
21D0
330
215B
100
AcDbEntity
  8
241
100
AcDbVertex
100
AcDb3dPolylineVertex
 10
61.2779
 20
5.20152
 30
0.0
 70
    32
  0
VERTEX
  5
21D1
330
215B
100
AcDbEntity
  8
241
100
AcDbVertex
100
AcDb3dPolylineVertex
 10
61.2914
 20
5.22892
 30
0.0
 70
    32
  0
VERTEX
  5
21D2
330
215B
100
AcDbEntity
  8
241
100
AcDbVertex
100
AcDb3dPolylineVertex
 10
61.3043
 20
5.25664
 30
0.0
 70
    32
  0
VERTEX
  5
21D3
330
215B
100
AcDbEntity
  8
241
100
AcDbVertex
100
AcDb3dPolylineVertex
 10
61.3164
 20
5.28467
 30
0.0
 70
    32
  0
VERTEX
  5
21D4
330
215B
100
AcDbEntity
  8
241
100
AcDbVertex
100
AcDb3dPolylineVertex
 10
61.3279
 20
5.31299
 30
0.0
 70
    32
  0
VERTEX
  5
21D5
330
215B
100
AcDbEntity
  8
241
100
AcDbVertex
100
AcDb3dPolylineVertex
 10
61.3386
 20
5.34159
 30
0.0
 70
    32
  0
VERTEX
  5
21D6
330
215B
100
AcDbEntity
  8
241
100
AcDbVertex
100
AcDb3dPolylineVertex
 10
61.3486
 20
5.37043
 30
0.0
 70
    32
  0
VERTEX
  5
21D7
330
215B
100
AcDbEntity
  8
241
100
AcDbVertex
100
AcDb3dPolylineVertex
 10
61.358
 20
5.39952
 30
0.0
 70
    32
  0
VERTEX
  5
21D8
330
215B
100
AcDbEntity
  8
241
100
AcDbVertex
100
AcDb3dPolylineVertex
 10
61.3666
 20
5.42882
 30
0.0
 70
    32
  0
VERTEX
  5
21D9
330
215B
100
AcDbEntity
  8
241
100
AcDbVertex
100
AcDb3dPolylineVertex
 10
61.3744
 20
5.45833
 30
0.0
 70
    32
  0
VERTEX
  5
21DA
330
215B
100
AcDbEntity
  8
241
100
AcDbVertex
100
AcDb3dPolylineVertex
 10
61.3816
 20
5.48802
 30
0.0
 70
    32
  0
VERTEX
  5
21DB
330
215B
100
AcDbEntity
  8
241
100
AcDbVertex
100
AcDb3dPolylineVertex
 10
61.388
 20
5.51788
 30
0.0
 70
    32
  0
VERTEX
  5
21DC
330
215B
100
AcDbEntity
  8
241
100
AcDbVertex
100
AcDb3dPolylineVertex
 10
61.3937
 20
5.54789
 30
0.0
 70
    32
  0
SEQEND
  5
21DD
330
215B
100
AcDbEntity
  8
241
  0
POLYLINE
  5
21DE
330
BC6
100
AcDbEntity
  8
241
100
AcDb3dPolyline
 66
     1
 10
0.0
 20
0.0
 30
0.0
 70
     8
  0
VERTEX
  5
21DF
330
21DE
100
AcDbEntity
  8
241
100
AcDbVertex
100
AcDb3dPolylineVertex
 10
61.3937
 20
5.54789
 30
0.0
 70
    32
  0
VERTEX
  5
21E0
330
21DE
100
AcDbEntity
  8
241
100
AcDbVertex
100
AcDb3dPolylineVertex
 10
61.3967
 20
5.56711
 30
0.0
 70
    32
  0
VERTEX
  5
21E1
330
21DE
100
AcDbEntity
  8
241
100
AcDbVertex
100
AcDb3dPolylineVertex
 10
61.3989
 20
5.58644
 30
0.0
 70
    32
  0
VERTEX
  5
21E2
330
21DE
100
AcDbEntity
  8
241
100
AcDbVertex
100
AcDb3dPolylineVertex
 10
61.4005
 20
5.60589
 30
0.0
 70
    32
  0
VERTEX
  5
21E3
330
21DE
100
AcDbEntity
  8
241
100
AcDbVertex
100
AcDb3dPolylineVertex
 10
61.4012
 20
5.62543
 30
0.0
 70
    32
  0
VERTEX
  5
21E4
330
21DE
100
AcDbEntity
  8
241
100
AcDbVertex
100
AcDb3dPolylineVertex
 10
61.4013
 20
5.64505
 30
0.0
 70
    32
  0
VERTEX
  5
21E5
330
21DE
100
AcDbEntity
  8
241
100
AcDbVertex
100
AcDb3dPolylineVertex
 10
61.4005
 20
5.66474
 30
0.0
 70
    32
  0
VERTEX
  5
21E6
330
21DE
100
AcDbEntity
  8
241
100
AcDbVertex
100
AcDb3dPolylineVertex
 10
61.3991
 20
5.6845
 30
0.0
 70
    32
  0
VERTEX
  5
21E7
330
21DE
100
AcDbEntity
  8
241
100
AcDbVertex
100
AcDb3dPolylineVertex
 10
61.3969
 20
5.7043
 30
0.0
 70
    32
  0
VERTEX
  5
21E8
330
21DE
100
AcDbEntity
  8
241
100
AcDbVertex
100
AcDb3dPolylineVertex
 10
61.3939
 20
5.72414
 30
0.0
 70
    32
  0
VERTEX
  5
21E9
330
21DE
100
AcDbEntity
  8
241
100
AcDbVertex
100
AcDb3dPolylineVertex
 10
61.3902
 20
5.74401
 30
0.0
 70
    32
  0
VERTEX
  5
21EA
330
21DE
100
AcDbEntity
  8
241
100
AcDbVertex
100
AcDb3dPolylineVertex
 10
61.3858
 20
5.76388
 30
0.0
 70
    32
  0
VERTEX
  5
21EB
330
21DE
100
AcDbEntity
  8
241
100
AcDbVertex
100
AcDb3dPolylineVertex
 10
61.3806
 20
5.78376
 30
0.0
 70
    32
  0
VERTEX
  5
21EC
330
21DE
100
AcDbEntity
  8
241
100
AcDbVertex
100
AcDb3dPolylineVertex
 10
61.3747
 20
5.80363
 30
0.0
 70
    32
  0
VERTEX
  5
21ED
330
21DE
100
AcDbEntity
  8
241
100
AcDbVertex
100
AcDb3dPolylineVertex
 10
61.3681
 20
5.82347
 30
0.0
 70
    32
  0
VERTEX
  5
21EE
330
21DE
100
AcDbEntity
  8
241
100
AcDbVertex
100
AcDb3dPolylineVertex
 10
61.3607
 20
5.84328
 30
0.0
 70
    32
  0
VERTEX
  5
21EF
330
21DE
100
AcDbEntity
  8
241
100
AcDbVertex
100
AcDb3dPolylineVertex
 10
61.3526
 20
5.86304
 30
0.0
 70
    32
  0
VERTEX
  5
21F0
330
21DE
100
AcDbEntity
  8
241
100
AcDbVertex
100
AcDb3dPolylineVertex
 10
61.3438
 20
5.88274
 30
0.0
 70
    32
  0
VERTEX
  5
21F1
330
21DE
100
AcDbEntity
  8
241
100
AcDbVertex
100
AcDb3dPolylineVertex
 10
61.3343
 20
5.90237
 30
0.0
 70
    32
  0
VERTEX
  5
21F2
330
21DE
100
AcDbEntity
  8
241
100
AcDbVertex
100
AcDb3dPolylineVertex
 10
61.3241
 20
5.92192
 30
0.0
 70
    32
  0
VERTEX
  5
21F3
330
21DE
100
AcDbEntity
  8
241
100
AcDbVertex
100
AcDb3dPolylineVertex
 10
61.3132
 20
5.94138
 30
0.0
 70
    32
  0
VERTEX
  5
21F4
330
21DE
100
AcDbEntity
  8
241
100
AcDbVertex
100
AcDb3dPolylineVertex
 10
61.3016
 20
5.96072
 30
0.0
 70
    32
  0
VERTEX
  5
21F5
330
21DE
100
AcDbEntity
  8
241
100
AcDbVertex
100
AcDb3dPolylineVertex
 10
61.2893
 20
5.97995
 30
0.0
 70
    32
  0
VERTEX
  5
21F6
330
21DE
100
AcDbEntity
  8
241
100
AcDbVertex
100
AcDb3dPolylineVertex
 10
61.2763
 20
5.99905
 30
0.0
 70
    32
  0
VERTEX
  5
21F7
330
21DE
100
AcDbEntity
  8
241
100
AcDbVertex
100
AcDb3dPolylineVertex
 10
61.2626
 20
6.01801
 30
0.0
 70
    32
  0
VERTEX
  5
21F8
330
21DE
100
AcDbEntity
  8
241
100
AcDbVertex
100
AcDb3dPolylineVertex
 10
61.2483
 20
6.03682
 30
0.0
 70
    32
  0
VERTEX
  5
21F9
330
21DE
100
AcDbEntity
  8
241
100
AcDbVertex
100
AcDb3dPolylineVertex
 10
61.2334
 20
6.05546
 30
0.0
 70
    32
  0
VERTEX
  5
21FA
330
21DE
100
AcDbEntity
  8
241
100
AcDbVertex
100
AcDb3dPolylineVertex
 10
61.2178
 20
6.07393
 30
0.0
 70
    32
  0
VERTEX
  5
21FB
330
21DE
100
AcDbEntity
  8
241
100
AcDbVertex
100
AcDb3dPolylineVertex
 10
61.2015
 20
6.09221
 30
0.0
 70
    32
  0
VERTEX
  5
21FC
330
21DE
100
AcDbEntity
  8
241
100
AcDbVertex
100
AcDb3dPolylineVertex
 10
61.1847
 20
6.1103
 30
0.0
 70
    32
  0
VERTEX
  5
21FD
330
21DE
100
AcDbEntity
  8
241
100
AcDbVertex
100
AcDb3dPolylineVertex
 10
61.1672
 20
6.12817
 30
0.0
 70
    32
  0
VERTEX
  5
21FE
330
21DE
100
AcDbEntity
  8
241
100
AcDbVertex
100
AcDb3dPolylineVertex
 10
61.1491
 20
6.14583
 30
0.0
 70
    32
  0
VERTEX
  5
21FF
330
21DE
100
AcDbEntity
  8
241
100
AcDbVertex
100
AcDb3dPolylineVertex
 10
61.1304
 20
6.16326
 30
0.0
 70
    32
  0
VERTEX
  5
2200
330
21DE
100
AcDbEntity
  8
241
100
AcDbVertex
100
AcDb3dPolylineVertex
 10
61.1111
 20
6.18045
 30
0.0
 70
    32
  0
VERTEX
  5
2201
330
21DE
100
AcDbEntity
  8
241
100
AcDbVertex
100
AcDb3dPolylineVertex
 10
61.0913
 20
6.19738
 30
0.0
 70
    32
  0
VERTEX
  5
2202
330
21DE
100
AcDbEntity
  8
241
100
AcDbVertex
100
AcDb3dPolylineVertex
 10
61.0709
 20
6.21406
 30
0.0
 70
    32
  0
VERTEX
  5
2203
330
21DE
100
AcDbEntity
  8
241
100
AcDbVertex
100
AcDb3dPolylineVertex
 10
61.05
 20
6.23047
 30
0.0
 70
    32
  0
VERTEX
  5
2204
330
21DE
100
AcDbEntity
  8
241
100
AcDbVertex
100
AcDb3dPolylineVertex
 10
61.0285
 20
6.2466
 30
0.0
 70
    32
  0
VERTEX
  5
2205
330
21DE
100
AcDbEntity
  8
241
100
AcDbVertex
100
AcDb3dPolylineVertex
 10
61.0065
 20
6.26243
 30
0.0
 70
    32
  0
VERTEX
  5
2206
330
21DE
100
AcDbEntity
  8
241
100
AcDbVertex
100
AcDb3dPolylineVertex
 10
60.984
 20
6.27797
 30
0.0
 70
    32
  0
VERTEX
  5
2207
330
21DE
100
AcDbEntity
  8
241
100
AcDbVertex
100
AcDb3dPolylineVertex
 10
60.961
 20
6.2932
 30
0.0
 70
    32
  0
VERTEX
  5
2208
330
21DE
100
AcDbEntity
  8
241
100
AcDbVertex
100
AcDb3dPolylineVertex
 10
60.9375
 20
6.30811
 30
0.0
 70
    32
  0
VERTEX
  5
2209
330
21DE
100
AcDbEntity
  8
241
100
AcDbVertex
100
AcDb3dPolylineVertex
 10
60.9135
 20
6.32269
 30
0.0
 70
    32
  0
VERTEX
  5
220A
330
21DE
100
AcDbEntity
  8
241
100
AcDbVertex
100
AcDb3dPolylineVertex
 10
60.8891
 20
6.33694
 30
0.0
 70
    32
  0
VERTEX
  5
220B
330
21DE
100
AcDbEntity
  8
241
100
AcDbVertex
100
AcDb3dPolylineVertex
 10
60.8643
 20
6.35084
 30
0.0
 70
    32
  0
VERTEX
  5
220C
330
21DE
100
AcDbEntity
  8
241
100
AcDbVertex
100
AcDb3dPolylineVertex
 10
60.839
 20
6.36439
 30
0.0
 70
    32
  0
VERTEX
  5
220D
330
21DE
100
AcDbEntity
  8
241
100
AcDbVertex
100
AcDb3dPolylineVertex
 10
60.8134
 20
6.37757
 30
0.0
 70
    32
  0
VERTEX
  5
220E
330
21DE
100
AcDbEntity
  8
241
100
AcDbVertex
100
AcDb3dPolylineVertex
 10
60.7873
 20
6.39039
 30
0.0
 70
    32
  0
VERTEX
  5
220F
330
21DE
100
AcDbEntity
  8
241
100
AcDbVertex
100
AcDb3dPolylineVertex
 10
60.7609
 20
6.40284
 30
0.0
 70
    32
  0
VERTEX
  5
2210
330
21DE
100
AcDbEntity
  8
241
100
AcDbVertex
100
AcDb3dPolylineVertex
 10
60.7341
 20
6.41489
 30
0.0
 70
    32
  0
VERTEX
  5
2211
330
21DE
100
AcDbEntity
  8
241
100
AcDbVertex
100
AcDb3dPolylineVertex
 10
60.7069
 20
6.42656
 30
0.0
 70
    32
  0
VERTEX
  5
2212
330
21DE
100
AcDbEntity
  8
241
100
AcDbVertex
100
AcDb3dPolylineVertex
 10
60.6795
 20
6.43783
 30
0.0
 70
    32
  0
VERTEX
  5
2213
330
21DE
100
AcDbEntity
  8
241
100
AcDbVertex
100
AcDb3dPolylineVertex
 10
60.6517
 20
6.44869
 30
0.0
 70
    32
  0
VERTEX
  5
2214
330
21DE
100
AcDbEntity
  8
241
100
AcDbVertex
100
AcDb3dPolylineVertex
 10
60.6236
 20
6.45914
 30
0.0
 70
    32
  0
VERTEX
  5
2215
330
21DE
100
AcDbEntity
  8
241
100
AcDbVertex
100
AcDb3dPolylineVertex
 10
60.5952
 20
6.46917
 30
0.0
 70
    32
  0
VERTEX
  5
2216
330
21DE
100
AcDbEntity
  8
241
100
AcDbVertex
100
AcDb3dPolylineVertex
 10
60.5666
 20
6.47878
 30
0.0
 70
    32
  0
VERTEX
  5
2217
330
21DE
100
AcDbEntity
  8
241
100
AcDbVertex
100
AcDb3dPolylineVertex
 10
60.5378
 20
6.48796
 30
0.0
 70
    32
  0
VERTEX
  5
2218
330
21DE
100
AcDbEntity
  8
241
100
AcDbVertex
100
AcDb3dPolylineVertex
 10
60.5087
 20
6.4967
 30
0.0
 70
    32
  0
VERTEX
  5
2219
330
21DE
100
AcDbEntity
  8
241
100
AcDbVertex
100
AcDb3dPolylineVertex
 10
60.4794
 20
6.50501
 30
0.0
 70
    32
  0
VERTEX
  5
221A
330
21DE
100
AcDbEntity
  8
241
100
AcDbVertex
100
AcDb3dPolylineVertex
 10
60.4499
 20
6.51286
 30
0.0
 70
    32
  0
VERTEX
  5
221B
330
21DE
100
AcDbEntity
  8
241
100
AcDbVertex
100
AcDb3dPolylineVertex
 10
60.4202
 20
6.52027
 30
0.0
 70
    32
  0
VERTEX
  5
221C
330
21DE
100
AcDbEntity
  8
241
100
AcDbVertex
100
AcDb3dPolylineVertex
 10
60.3904
 20
6.52722
 30
0.0
 70
    32
  0
VERTEX
  5
221D
330
21DE
100
AcDbEntity
  8
241
100
AcDbVertex
100
AcDb3dPolylineVertex
 10
60.3605
 20
6.53371
 30
0.0
 70
    32
  0
VERTEX
  5
221E
330
21DE
100
AcDbEntity
  8
241
100
AcDbVertex
100
AcDb3dPolylineVertex
 10
60.3304
 20
6.53974
 30
0.0
 70
    32
  0
VERTEX
  5
221F
330
21DE
100
AcDbEntity
  8
241
100
AcDbVertex
100
AcDb3dPolylineVertex
 10
60.3003
 20
6.5453
 30
0.0
 70
    32
  0
VERTEX
  5
2220
330
21DE
100
AcDbEntity
  8
241
100
AcDbVertex
100
AcDb3dPolylineVertex
 10
60.27
 20
6.55039
 30
0.0
 70
    32
  0
VERTEX
  5
2221
330
21DE
100
AcDbEntity
  8
241
100
AcDbVertex
100
AcDb3dPolylineVertex
 10
60.2397
 20
6.55501
 30
0.0
 70
    32
  0
VERTEX
  5
2222
330
21DE
100
AcDbEntity
  8
241
100
AcDbVertex
100
AcDb3dPolylineVertex
 10
60.2093
 20
6.55915
 30
0.0
 70
    32
  0
VERTEX
  5
2223
330
21DE
100
AcDbEntity
  8
241
100
AcDbVertex
100
AcDb3dPolylineVertex
 10
60.1789
 20
6.56282
 30
0.0
 70
    32
  0
VERTEX
  5
2224
330
21DE
100
AcDbEntity
  8
241
100
AcDbVertex
100
AcDb3dPolylineVertex
 10
60.1485
 20
6.566
 30
0.0
 70
    32
  0
VERTEX
  5
2225
330
21DE
100
AcDbEntity
  8
241
100
AcDbVertex
100
AcDb3dPolylineVertex
 10
60.1181
 20
6.5687
 30
0.0
 70
    32
  0
VERTEX
  5
2226
330
21DE
100
AcDbEntity
  8
241
100
AcDbVertex
100
AcDb3dPolylineVertex
 10
60.0878
 20
6.57092
 30
0.0
 70
    32
  0
VERTEX
  5
2227
330
21DE
100
AcDbEntity
  8
241
100
AcDbVertex
100
AcDb3dPolylineVertex
 10
60.0575
 20
6.57265
 30
0.0
 70
    32
  0
VERTEX
  5
2228
330
21DE
100
AcDbEntity
  8
241
100
AcDbVertex
100
AcDb3dPolylineVertex
 10
60.0272
 20
6.5739
 30
0.0
 70
    32
  0
VERTEX
  5
2229
330
21DE
100
AcDbEntity
  8
241
100
AcDbVertex
100
AcDb3dPolylineVertex
 10
59.997
 20
6.57466
 30
0.0
 70
    32
  0
VERTEX
  5
222A
330
21DE
100
AcDbEntity
  8
241
100
AcDbVertex
100
AcDb3dPolylineVertex
 10
59.9669
 20
6.57493
 30
0.0
 70
    32
  0
VERTEX
  5
222B
330
21DE
100
AcDbEntity
  8
241
100
AcDbVertex
100
AcDb3dPolylineVertex
 10
59.937
 20
6.57471
 30
0.0
 70
    32
  0
VERTEX
  5
222C
330
21DE
100
AcDbEntity
  8
241
100
AcDbVertex
100
AcDb3dPolylineVertex
 10
59.9072
 20
6.574
 30
0.0
 70
    32
  0
VERTEX
  5
222D
330
21DE
100
AcDbEntity
  8
241
100
AcDbVertex
100
AcDb3dPolylineVertex
 10
59.8775
 20
6.57281
 30
0.0
 70
    32
  0
VERTEX
  5
222E
330
21DE
100
AcDbEntity
  8
241
100
AcDbVertex
100
AcDb3dPolylineVertex
 10
59.848
 20
6.57113
 30
0.0
 70
    32
  0
VERTEX
  5
222F
330
21DE
100
AcDbEntity
  8
241
100
AcDbVertex
100
AcDb3dPolylineVertex
 10
59.8187
 20
6.56897
 30
0.0
 70
    32
  0
VERTEX
  5
2230
330
21DE
100
AcDbEntity
  8
241
100
AcDbVertex
100
AcDb3dPolylineVertex
 10
59.7896
 20
6.56632
 30
0.0
 70
    32
  0
VERTEX
  5
2231
330
21DE
100
AcDbEntity
  8
241
100
AcDbVertex
100
AcDb3dPolylineVertex
 10
59.7607
 20
6.56318
 30
0.0
 70
    32
  0
VERTEX
  5
2232
330
21DE
100
AcDbEntity
  8
241
100
AcDbVertex
100
AcDb3dPolylineVertex
 10
59.7321
 20
6.55957
 30
0.0
 70
    32
  0
VERTEX
  5
2233
330
21DE
100
AcDbEntity
  8
241
100
AcDbVertex
100
AcDb3dPolylineVertex
 10
59.7037
 20
6.55548
 30
0.0
 70
    32
  0
VERTEX
  5
2234
330
21DE
100
AcDbEntity
  8
241
100
AcDbVertex
100
AcDb3dPolylineVertex
 10
59.6756
 20
6.55091
 30
0.0
 70
    32
  0
VERTEX
  5
2235
330
21DE
100
AcDbEntity
  8
241
100
AcDbVertex
100
AcDb3dPolylineVertex
 10
59.6478
 20
6.54587
 30
0.0
 70
    32
  0
VERTEX
  5
2236
330
21DE
100
AcDbEntity
  8
241
100
AcDbVertex
100
AcDb3dPolylineVertex
 10
59.6203
 20
6.54036
 30
0.0
 70
    32
  0
VERTEX
  5
2237
330
21DE
100
AcDbEntity
  8
241
100
AcDbVertex
100
AcDb3dPolylineVertex
 10
59.5932
 20
6.53438
 30
0.0
 70
    32
  0
VERTEX
  5
2238
330
21DE
100
AcDbEntity
  8
241
100
AcDbVertex
100
AcDb3dPolylineVertex
 10
59.5663
 20
6.52794
 30
0.0
 70
    32
  0
VERTEX
  5
2239
330
21DE
100
AcDbEntity
  8
241
100
AcDbVertex
100
AcDb3dPolylineVertex
 10
59.5399
 20
6.52104
 30
0.0
 70
    32
  0
VERTEX
  5
223A
330
21DE
100
AcDbEntity
  8
241
100
AcDbVertex
100
AcDb3dPolylineVertex
 10
59.5138
 20
6.51368
 30
0.0
 70
    32
  0
VERTEX
  5
223B
330
21DE
100
AcDbEntity
  8
241
100
AcDbVertex
100
AcDb3dPolylineVertex
 10
59.4881
 20
6.50587
 30
0.0
 70
    32
  0
VERTEX
  5
223C
330
21DE
100
AcDbEntity
  8
241
100
AcDbVertex
100
AcDb3dPolylineVertex
 10
59.4628
 20
6.49762
 30
0.0
 70
    32
  0
VERTEX
  5
223D
330
21DE
100
AcDbEntity
  8
241
100
AcDbVertex
100
AcDb3dPolylineVertex
 10
59.4379
 20
6.48892
 30
0.0
 70
    32
  0
VERTEX
  5
223E
330
21DE
100
AcDbEntity
  8
241
100
AcDbVertex
100
AcDb3dPolylineVertex
 10
59.4135
 20
6.47979
 30
0.0
 70
    32
  0
VERTEX
  5
223F
330
21DE
100
AcDbEntity
  8
241
100
AcDbVertex
100
AcDb3dPolylineVertex
 10
59.3895
 20
6.47023
 30
0.0
 70
    32
  0
VERTEX
  5
2240
330
21DE
100
AcDbEntity
  8
241
100
AcDbVertex
100
AcDb3dPolylineVertex
 10
59.366
 20
6.46024
 30
0.0
 70
    32
  0
VERTEX
  5
2241
330
21DE
100
AcDbEntity
  8
241
100
AcDbVertex
100
AcDb3dPolylineVertex
 10
59.3429
 20
6.44983
 30
0.0
 70
    32
  0
VERTEX
  5
2242
330
21DE
100
AcDbEntity
  8
241
100
AcDbVertex
100
AcDb3dPolylineVertex
 10
59.3204
 20
6.43901
 30
0.0
 70
    32
  0
VERTEX
  5
2243
330
21DE
100
AcDbEntity
  8
241
100
AcDbVertex
100
AcDb3dPolylineVertex
 10
59.2984
 20
6.42779
 30
0.0
 70
    32
  0
VERTEX
  5
2244
330
21DE
100
AcDbEntity
  8
241
100
AcDbVertex
100
AcDb3dPolylineVertex
 10
59.2768
 20
6.41617
 30
0.0
 70
    32
  0
VERTEX
  5
2245
330
21DE
100
AcDbEntity
  8
241
100
AcDbVertex
100
AcDb3dPolylineVertex
 10
59.2559
 20
6.40415
 30
0.0
 70
    32
  0
VERTEX
  5
2246
330
21DE
100
AcDbEntity
  8
241
100
AcDbVertex
100
AcDb3dPolylineVertex
 10
59.2354
 20
6.39175
 30
0.0
 70
    32
  0
VERTEX
  5
2247
330
21DE
100
AcDbEntity
  8
241
100
AcDbVertex
100
AcDb3dPolylineVertex
 10
59.2156
 20
6.37897
 30
0.0
 70
    32
  0
VERTEX
  5
2248
330
21DE
100
AcDbEntity
  8
241
100
AcDbVertex
100
AcDb3dPolylineVertex
 10
59.1962
 20
6.36582
 30
0.0
 70
    32
  0
VERTEX
  5
2249
330
21DE
100
AcDbEntity
  8
241
100
AcDbVertex
100
AcDb3dPolylineVertex
 10
59.1775
 20
6.35231
 30
0.0
 70
    32
  0
VERTEX
  5
224A
330
21DE
100
AcDbEntity
  8
241
100
AcDbVertex
100
AcDb3dPolylineVertex
 10
59.1594
 20
6.33845
 30
0.0
 70
    32
  0
VERTEX
  5
224B
330
21DE
100
AcDbEntity
  8
241
100
AcDbVertex
100
AcDb3dPolylineVertex
 10
59.1419
 20
6.32424
 30
0.0
 70
    32
  0
VERTEX
  5
224C
330
21DE
100
AcDbEntity
  8
241
100
AcDbVertex
100
AcDb3dPolylineVertex
 10
59.125
 20
6.30969
 30
0.0
 70
    32
  0
VERTEX
  5
224D
330
21DE
100
AcDbEntity
  8
241
100
AcDbVertex
100
AcDb3dPolylineVertex
 10
59.1087
 20
6.29481
 30
0.0
 70
    32
  0
VERTEX
  5
224E
330
21DE
100
AcDbEntity
  8
241
100
AcDbVertex
100
AcDb3dPolylineVertex
 10
59.093
 20
6.27962
 30
0.0
 70
    32
  0
VERTEX
  5
224F
330
21DE
100
AcDbEntity
  8
241
100
AcDbVertex
100
AcDb3dPolylineVertex
 10
59.078
 20
6.26412
 30
0.0
 70
    32
  0
VERTEX
  5
2250
330
21DE
100
AcDbEntity
  8
241
100
AcDbVertex
100
AcDb3dPolylineVertex
 10
59.0637
 20
6.24831
 30
0.0
 70
    32
  0
VERTEX
  5
2251
330
21DE
100
AcDbEntity
  8
241
100
AcDbVertex
100
AcDb3dPolylineVertex
 10
59.05
 20
6.23222
 30
0.0
 70
    32
  0
VERTEX
  5
2252
330
21DE
100
AcDbEntity
  8
241
100
AcDbVertex
100
AcDb3dPolylineVertex
 10
59.0369
 20
6.21584
 30
0.0
 70
    32
  0
VERTEX
  5
2253
330
21DE
100
AcDbEntity
  8
241
100
AcDbVertex
100
AcDb3dPolylineVertex
 10
59.0246
 20
6.19919
 30
0.0
 70
    32
  0
VERTEX
  5
2254
330
21DE
100
AcDbEntity
  8
241
100
AcDbVertex
100
AcDb3dPolylineVertex
 10
59.0129
 20
6.18228
 30
0.0
 70
    32
  0
VERTEX
  5
2255
330
21DE
100
AcDbEntity
  8
241
100
AcDbVertex
100
AcDb3dPolylineVertex
 10
59.002
 20
6.16512
 30
0.0
 70
    32
  0
VERTEX
  5
2256
330
21DE
100
AcDbEntity
  8
241
100
AcDbVertex
100
AcDb3dPolylineVertex
 10
58.9917
 20
6.14771
 30
0.0
 70
    32
  0
VERTEX
  5
2257
330
21DE
100
AcDbEntity
  8
241
100
AcDbVertex
100
AcDb3dPolylineVertex
 10
58.9821
 20
6.13008
 30
0.0
 70
    32
  0
VERTEX
  5
2258
330
21DE
100
AcDbEntity
  8
241
100
AcDbVertex
100
AcDb3dPolylineVertex
 10
58.9733
 20
6.11223
 30
0.0
 70
    32
  0
VERTEX
  5
2259
330
21DE
100
AcDbEntity
  8
241
100
AcDbVertex
100
AcDb3dPolylineVertex
 10
58.9652
 20
6.09416
 30
0.0
 70
    32
  0
VERTEX
  5
225A
330
21DE
100
AcDbEntity
  8
241
100
AcDbVertex
100
AcDb3dPolylineVertex
 10
58.9577
 20
6.0759
 30
0.0
 70
    32
  0
VERTEX
  5
225B
330
21DE
100
AcDbEntity
  8
241
100
AcDbVertex
100
AcDb3dPolylineVertex
 10
58.9511
 20
6.05746
 30
0.0
 70
    32
  0
VERTEX
  5
225C
330
21DE
100
AcDbEntity
  8
241
100
AcDbVertex
100
AcDb3dPolylineVertex
 10
58.9451
 20
6.03883
 30
0.0
 70
    32
  0
VERTEX
  5
225D
330
21DE
100
AcDbEntity
  8
241
100
AcDbVertex
100
AcDb3dPolylineVertex
 10
58.9399
 20
6.02004
 30
0.0
 70
    32
  0
VERTEX
  5
225E
330
21DE
100
AcDbEntity
  8
241
100
AcDbVertex
100
AcDb3dPolylineVertex
 10
58.9354
 20
6.0011
 30
0.0
 70
    32
  0
VERTEX
  5
225F
330
21DE
100
AcDbEntity
  8
241
100
AcDbVertex
100
AcDb3dPolylineVertex
 10
58.9316
 20
5.98201
 30
0.0
 70
    32
  0
SEQEND
  5
2260
330
21DE
100
AcDbEntity
  8
241
  0
ENDBLK
  5
BC8
330
BC6
100
AcDbEntity
  8
0
100
AcDbBlockEnd
  0
ENDSEC
  0
SECTION
  2
ENTITIES
  0
INSERT
  5
6E6
330
1A
100
AcDbEntity
  8
245
100
AcDbBlockReference
  2
矢印なし
 10
175.62382697
 20
90.55123572
 30
0.0
  0
TEXT
  5
971
330
1A
100
AcDbEntity
  8
241
100
AcDbText
 10
-30.0
 20
56.0
 30
0.0
 40
5.0
  1
C5-FCM16092-65
  7
YOKO
 11
-30.0
 21
56.0
 31
0.0
100
AcDbText
 73
     1
  0
DIMENSION
  5
972
330
1A
100
AcDbEntity
  8
250
  6
CONTINUOUS
100
AcDbDimension
  2
*D3
 10
65.0
 20
42.0
 30
0.0
 11
32.5
 21
44.5
 31
0.0
 70
    32
  3
BIGT$0
100
AcDbAlignedDimension
 13
0.0
 23
24.99
 33
0.0
 14
65.0
 24
8.0
 34
0.0
100
AcDbRotatedDimension
  0
DIMENSION
  5
998
330
1A
100
AcDbEntity
  8
250
  6
CONTINUOUS
100
AcDbDimension
  2
*D4
 10
65.0
 20
35.0
 30
0.0
 11
53.5
 21
37.5
 31
0.0
 70
    32
  3
BIGT$0
100
AcDbAlignedDimension
 13
42.0
 23
7.4
 33
0.0
 14
65.0
 24
8.0
 34
0.0
100
AcDbRotatedDimension
  0
DIMENSION
  5
999
330
1A
100
AcDbEntity
  8
250
  6
CONTINUOUS
100
AcDbDimension
  2
*D5
 10
65.0
 20
28.0
 30
0.0
 11
60.5
 21
30.5
 31
0.0
 70
    32
  3
BIGT$0
100
AcDbAlignedDimension
 13
56.0
 23
8.0
 33
0.0
 14
65.0
 24
8.0
 34
0.0
100
AcDbRotatedDimension
  0
DIMENSION
  5
A31
330
1A
100
AcDbEntity
  8
250
  6
CONTINUOUS
100
AcDbDimension
  2
*D2
 10
77.0
 20
8.0
 30
0.0
 11
77.0
 21
0.0
 31
0.0
 70
   160
  1
{\H2.8;\U+2205}<>
  3
BIGT
100
AcDbAlignedDimension
 13
65.0
 23
-8.0
 33
0.0
 14
65.0
 24
8.0
 34
0.0
 50
90.0
100
AcDbRotatedDimension
  0
MTEXT
  5
140F
330
1A
100
AcDbEntity
  8
251
  6
CONTINUOUS
100
AcDbMText
 10
-25.91998082
 20
-23.62287576
 30
0.0
 40
2.8
 41
0.0
 71
     7
 72
     1
  1
C5
  7
YOKO
1001
ITEMNAME
1000
LNSP3
1001
ACAD
1000
MTEXTBEGIN
1070
    73
1070
     1
1070
    44
1040
1.0
1070
    74
1070
     0
1000
MTEXTEND
1000
MTEXTBEGIN
1070
    73
1070
     1
1070
    44
1040
1.0
1070
    74
1070
     0
1000
MTEXTEND
1000
MTEXTBEGIN
1070
    73
1070
     1
1070
    44
1040
1.0
1070
    74
1070
     0
1000
MTEXTEND
1000
MTEXTBEGIN
1070
    73
1070
     1
1070
    44
1040
1.0
1070
    74
1070
     0
1000
MTEXTEND
1000
MTEXTBEGIN
1070
    73
1070
     1
1070
    44
1040
1.0
1070
    74
1070
     0
1000
MTEXTEND
1000
MTEXTBEGIN
1070
    73
1070
     1
1070
    44
1040
1.0
1070
    74
1070
     0
1000
MTEXTEND
1000
MTEXTBEGIN
1070
    73
1070
     1
1070
    44
1040
1.0
1070
    74
1070
     0
1000
MTEXTEND
1000
MTEXTBEGIN
1070
    73
1070
     1
1070
    44
1040
1.0
1070
    74
1070
     0
1000
MTEXTEND
1000
MTEXTBEGIN
1070
    73
1070
     1
1070
    44
1040
1.0
1070
    74
1070
     0
1000
MTEXTEND
1000
MTEXTBEGIN
1070
    73
1070
     1
1070
    44
1040
1.0
1070
    74
1070
     0
1000
MTEXTEND
1000
MTEXTBEGIN
1070
    73
1070
     1
1070
    44
1040
1.0
1070
    74
1070
     0
1000
MTEXTEND
1000
MTEXTBEGIN
1070
    73
1070
     1
1070
    44
1040
1.0
1070
    74
1070
     0
1000
MTEXTEND
1000
MTEXTBEGIN
1070
    73
1070
     1
1070
    44
1040
1.0
1070
    74
1070
     0
1000
MTEXTEND
1000
MTEXTBEGIN
1070
    73
1070
     1
1070
    44
1040
1.0
1070
    74
1070
     0
1000
MTEXTEND
1000
MTEXTBEGIN
1070
    73
1070
     1
1070
    44
1040
1.0
1070
    74
1070
     0
1000
MTEXTEND
  0
LINE
  5
1410
330
1A
100
AcDbEntity
  8
250
  6
CONTINUOUS
100
AcDbLine
 10
-18.45331416
 20
-24.62287576
 30
0.0
 11
-28.71998082
 21
-24.62287576
 31
0.0
1001
ITEMNAME
1000
LNSP2
  0
LEADER
  5
1415
330
1A
100
AcDbEntity
  8
250
  6
CONTINUOUS
100
AcDbLeader
  3
BIGT$7
 76
     2
 10
-13.54211194
 20
-16.116424
 30
0.0
 10
-18.45331416
 20
-24.62287576
 30
0.0
1001
ACAD
1000
DSTYLE
1002
{
1070
     5
1000
OPEN
1070
    41
1040
2.0
1070
   342
1005
594
1002
}
  0
INSERT
  5
2261
330
1A
100
AcDbEntity
  8
245
100
AcDbBlockReference
  2
1
 10
0.0
 20
0.0
 30
0.0
  0
VIEWPORT
  5
22
330
17
100
AcDbEntity
 67
     1
  8
0
100
AcDbViewport
 10
261.51769912
 20
148.5
 30
0.0
 40
523.03539823
 41
297.0
 68
     1
 69
     1
1001
ACAD
1000
MVIEW
1002
{
1070
    16
1010
0.0
1020
0.0
1030
0.0
1010
0.0
1020
0.0
1030
1.0
1040
0.0
1040
297.0
1040
261.51769912
1040
148.5
1040
50.0
1040
0.0
1040
0.0
1070
     0
1070
   100
1070
     1
1070
     1
1070
     0
1070
     0
1070
     0
1070
     0
1040
0.0
1040
0.0
1040
0.0
1040
1.0
1040
1.0
1040
10.0
1040
10.0
1070
     0
1002
{
1002
}
1002
}
  0
ENDSEC
  0
SECTION
  2
OBJECTS
  0
DICTIONARY
  5
C
330
0
100
AcDbDictionary
  3
ACAD_GROUP
350
D
  3
ACAD_LAYOUT
350
565
  3
ACAD_MLINESTYLE
350
E
  3
ACAD_PLOTSETTINGS
350
566
  3
ACAD_PLOTSTYLENAME
350
563
  3
ACDBHEADERROUNDTRIPXREC
350
228B
  3
GRADE_DWG
350
540
  0
DICTIONARY
  5
E03
330
1A
100
AcDbDictionary
280
     1
  3
ACAD_LAYOUTSELFREF
360
22AD
  0
DICTIONARY
  5
E01
330
17
100
AcDbDictionary
280
     1
  3
ACAD_LAYOUTSELFREF
360
22AC
  0
DICTIONARY
  5
D
102
{ACAD_REACTORS
330
C
102
}
330
C
100
AcDbDictionary
  3
*A1
350
6C7
  3
*A2
350
6C8
  3
*A3
350
6D4
  3
*A4
350
6D5
  3
DREC-1
350
5FC
  3
DREC-2
350
654
  3
DREC-3
350
673
  0
DICTIONARY
  5
565
102
{ACAD_REACTORS
330
C
102
}
330
C
100
AcDbDictionary
  0
DICTIONARY
  5
E
102
{ACAD_REACTORS
330
C
102
}
330
C
100
AcDbDictionary
  3
STANDARD
350
13
  0
DICTIONARY
  5
566
102
{ACAD_REACTORS
330
C
102
}
330
C
100
AcDbDictionary
  3
A3_0_5倍_
350
758
  3
A3_1倍_
350
757
  3
A3_1倍__2000_
350
707
  3
A3_2倍_
350
759
  3
A4_0_5倍_
350
755
  3
A4_1倍_
350
754
  3
A4_1倍__2000_
350
708
  3
A4_2倍_
350
756
  0
ACDBDICTIONARYWDFLT
  5
563
102
{ACAD_REACTORS
330
C
102
}
330
C
100
AcDbDictionary
281
     1
  3
Normal
350
564
100
AcDbDictionaryWithDefault
340
564
  0
DICTIONARY
  5
228B
102
{ACAD_REACTORS
330
C
102
}
330
C
100
AcDbDictionary
  3
CEPSNTYPE
350
2295
  3
DIMSTYLEDATA
350
2299
  3
FINGERPRINTGUID
350
2296
  3
HYPERLINKBASE
350
228E
  3
INSUNITS
350
2294
  3
LAYOUTDICT
350
2290
  3
LWETCUNION
350
2293
  3
PLOTSETDICT
350
2291
  3
PLOTSTYLNAMDICT
350
2292
  3
PSVPSCALE
350
2298
  3
PUCSBASE
350
229C
  3
PUCSORGBACK
350
22A2
  3
PUCSORGBOTTOM
350
229E
  3
PUCSORGFRONT
350
22A1
  3
PUCSORGLEFT
350
229F
  3
PUCSORGRIGHT
350
22A0
  3
PUCSORGTOP
350
229D
  3
PUCSORTHOREF
350
229A
  3
PUCSORTHOVIEW
350
229B
  3
STYLESHEET
350
228F
  3
TSTACKALIGN
350
228C
  3
TSTACKSIZE
350
228D
  3
UCSBASE
350
22A5
  3
UCSORGBACK
350
22AB
  3
UCSORGBOTTOM
350
22A7
  3
UCSORGFRONT
350
22AA
  3
UCSORGLEFT
350
22A8
  3
UCSORGRIGHT
350
22A9
  3
UCSORGTOP
350
22A6
  3
UCSORTHOREF
350
22A3
  3
UCSORTHOVIEW
350
22A4
  3
VERSIONGUID
350
2297
  0
DICTIONARY
  5
540
102
{ACAD_REACTORS
330
C
102
}
330
C
100
AcDbDictionary
  3
VERSION
350
560
  0
XRECORD
  5
22AD
102
{ACAD_REACTORS
330
E03
102
}
330
E03
100
AcDbXrecord
340
1A
  0
XRECORD
  5
22AC
102
{ACAD_REACTORS
330
E01
102
}
330
E01
100
AcDbXrecord
340
17
  0
GROUP
  5
6C7
102
{ACAD_REACTORS
330
D
102
}
330
D
100
AcDbGroup
300

 70
     0
 71
     1
1001
GRPNAME
1000
DMA00
  0
GROUP
  5
6C8
102
{ACAD_REACTORS
330
D
102
}
330
D
100
AcDbGroup
300

 70
     0
 71
     1
1001
GRPNAME
1000
DMA00
  0
GROUP
  5
6D4
102
{ACAD_REACTORS
330
D
102
}
330
D
100
AcDbGroup
300

 70
     0
 71
     1
1001
GRPNAME
1000
DMA00
  0
GROUP
  5
6D5
102
{ACAD_REACTORS
330
D
102
}
330
D
100
AcDbGroup
300

 70
     0
 71
     1
1001
GRPNAME
1000
DMA00
  0
GROUP
  5
5FC
102
{ACAD_REACTORS
330
D
102
}
330
D
100
AcDbGroup
300

 70
     0
 71
     1
1001
GRPNAME
1000
DREC-
1001
GPARA
1000
xsiz
1000
44.182
1000
ysiz
1000
40.677
1000
angl
1000
0
1000
ctyp
1000
0
1000
csiz
1000
5
1000
lfnt
1000
cont
1000
hcnt
1000
hoff
1000
vcnt
1000
voff
1000
opnt
1000
4
1000
dxpt
1000
0
1000
dypt
1000
0
  0
GROUP
  5
654
102
{ACAD_REACTORS
330
D
102
}
330
D
100
AcDbGroup
300

 70
     0
 71
     1
1001
GRPNAME
1000
DREC-
1001
GPARA
1000
xsiz
1000
54.592
1000
ysiz
1000
53.036
1000
angl
1000
0
1000
ctyp
1000
0
1000
csiz
1000
5
1000
lfnt
1000
cont
1000
hcnt
1000
hoff
1000
vcnt
1000
voff
1000
opnt
1000
4
1000
dxpt
1000
0
1000
dypt
1000
0
  0
GROUP
  5
673
102
{ACAD_REACTORS
330
D
102
}
330
D
100
AcDbGroup
300

 70
     0
 71
     1
1001
GRPNAME
1000
DREC-
1001
GPARA
1000
xsiz
1000
30.363
1000
ysiz
1000
36.175
1000
angl
1000
0
1000
ctyp
1000
0
1000
csiz
1000
5
1000
lfnt
1000
cont
1000
hcnt
1000
hoff
1000
vcnt
1000
voff
1000
opnt
1000
4
1000
dxpt
1000
0
1000
dypt
1000
0
  0
MLINESTYLE
  5
13
102
{ACAD_REACTORS
330
E
102
}
330
E
100
AcDbMlineStyle
  2
STANDARD
 70
     0
  3

 62
     0
 51
90.0
 52
90.0
 71
     2
 49
0.5
 62
   256
  6
BYLAYER
 49
-0.5
 62
   256
  6
BYLAYER
  0
PLOTSETTINGS
  5
758
102
{ACAD_REACTORS
330
566
102
}
330
566
100
AcDbPlotSettings
  1
A3(0.5倍)
  2
\\AWTECPC05\HP DeskJet 1120C
  4
A3
  6

 40
5.95841646
 41
13.49375153
 42
6.04309082
 43
3.67242432
 44
296.92599487
 45
419.94665527
 46
89.96
 47
127.14
 48
0.0
 49
0.0
140
0.0
141
0.0
142
1.0
143
2.0
 70
  1716
 72
     1
 73
     1
 74
     2
  7
big.ctb
 75
    17
147
0.5
148
0.0
149
0.0
  0
PLOTSETTINGS
  5
757
102
{ACAD_REACTORS
330
566
102
}
330
566
100
AcDbPlotSettings
  1
A3(1倍)
  2
\\AWTECPC05\HP DeskJet 1120C
  4
A3
  6

 40
5.95841646
 41
13.49375153
 42
6.04309082
 43
3.67242432
 44
296.92599487
 45
419.94665527
 46
37.46
 47
52.89
 48
0.0
 49
0.0
140
0.0
141
0.0
142
1.0
143
1.0
 70
  1716
 72
     1
 73
     1
 74
     2
  7
big.ctb
 75
    16
147
1.0
148
0.0
149
0.0
  0
PLOTSETTINGS
  5
707
102
{ACAD_REACTORS
330
566
102
}
330
566
100
AcDbPlotSettings
  1
A3(1倍)(2000)
  2
SII LS-1300 (D-SCAN)
  4
User258
  6

 40
3.17499995
 41
3.17499995
 42
3.17498779
 43
3.17498779
 44
419.98898315
 45
296.98950195
 46
58.32
 47
40.32
 48
0.0
 49
0.0
140
0.0
141
0.0
142
1.0
143
1.0
 70
  1716
 72
     1
 73
     0
 74
     2
  7
big.ctb
 75
    16
147
1.0
148
0.0
149
0.0
  0
PLOTSETTINGS
  5
759
102
{ACAD_REACTORS
330
566
102
}
330
566
100
AcDbPlotSettings
  1
A3(2倍)
  2
\\AWTECPC05\HP DeskJet 1120C
  4
A3
  6

 40
5.95841646
 41
13.49375153
 42
6.04309082
 43
3.67242432
 44
296.92599487
 45
419.94665527
 46
-67.54
 47
-95.61
 48
0.0
 49
0.0
140
0.0
141
0.0
142
1.0
143
0.5
 70
  1716
 72
     1
 73
     1
 74
     2
  7
big.ctb
 75
    27
147
2.0
148
0.0
149
0.0
  0
PLOTSETTINGS
  5
755
102
{ACAD_REACTORS
330
566
102
}
330
566
100
AcDbPlotSettings
  1
A4(0.5倍)
  2
\\AWTECPC05\HP DeskJet 1120C
  4
A4
  6

 40
4.18041658
 41
13.49374962
 42
4.18040466
 43
3.92642212
 44
209.97332764
 45
296.92599487
 46
48.31
 47
65.5
 48
0.0
 49
0.0
140
0.0
141
0.0
142
1.0
143
2.0
 70
  1716
 72
     1
 73
     1
 74
     2
  7
big.ctb
 75
    17
147
0.5
148
0.0
149
0.0
  0
PLOTSETTINGS
  5
754
102
{ACAD_REACTORS
330
566
102
}
330
566
100
AcDbPlotSettings
  1
A4(1倍)
  2
\\AWTECPC05\HP DeskJet 1120C
  4
A4
  6

 40
4.18041658
 41
13.49374962
 42
4.18040466
 43
3.92642212
 44
209.97332764
 45
296.92599487
 46
-4.19
 47
-8.75
 48
0.0
 49
0.0
140
0.0
141
0.0
142
1.0
143
1.0
 70
  1716
 72
     1
 73
     1
 74
     2
  7
big.ctb
 75
    16
147
1.0
148
0.0
149
0.0
  0
PLOTSETTINGS
  5
708
102
{ACAD_REACTORS
330
566
102
}
330
566
100
AcDbPlotSettings
  1
A4(1倍)(2000)
  2
SII LS-1300 (D-SCAN)
  4
User259
  6

 40
3.17499995
 41
3.17499995
 42
3.17498779
 43
3.17500305
 44
296.98950195
 45
209.99449158
 46
-3.18
 47
-3.18
 48
0.0
 49
0.0
140
0.0
141
0.0
142
1.0
143
1.0
 70
  1716
 72
     1
 73
     0
 74
     2
  7
big.ctb
 75
    16
147
1.0
148
0.0
149
0.0
  0
PLOTSETTINGS
  5
756
102
{ACAD_REACTORS
330
566
102
}
330
566
100
AcDbPlotSettings
  1
A4(2倍)
  2
\\AWTECPC05\HP DeskJet 1120C
  4
A4
  6

 40
4.18041658
 41
13.49374962
 42
4.18040466
 43
3.92642212
 44
209.97332764
 45
296.92599487
 46
-109.19
 47
-157.25
 48
0.0
 49
0.0
140
0.0
141
0.0
142
1.0
143
0.5
 70
  1716
 72
     1
 73
     1
 74
     2
  7
big.ctb
 75
    27
147
2.0
148
0.0
149
0.0
  0
ACDBPLACEHOLDER
  5
564
102
{ACAD_REACTORS
330
563
102
}
330
563
100
AcDbPlaceHolder
280
     0
  0
XRECORD
  5
2295
102
{ACAD_REACTORS
330
228B
102
}
330
228B
100
AcDbXrecord
 90
        0
  0
XRECORD
  5
2299
102
{ACAD_REACTORS
330
228B
102
}
330
228B
100
AcDbXrecord
1000
DSTYLE
1002
{
1070
    79
 70
     2
1070
   179
 70
     3
1070
   341
340
594
1070
   343
340
594
1070
   344
340
594
1070
   371
 70
    -1
1070
   372
 70
    -1
1002
}
  0
XRECORD
  5
2296
102
{ACAD_REACTORS
330
228B
102
}
330
228B
100
AcDbXrecord
  1
{51294030-9CB4-11D3-8E18-00A0C925D94D}
  0
XRECORD
  5
228E
102
{ACAD_REACTORS
330
228B
102
}
330
228B
100
AcDbXrecord
  1

  0
XRECORD
  5
2294
102
{ACAD_REACTORS
330
228B
102
}
330
228B
100
AcDbXrecord
 90
        0
  0
XRECORD
  5
2290
102
{ACAD_REACTORS
330
228B
102
}
330
228B
100
AcDbXrecord
340
565
  0
XRECORD
  5
2293
102
{ACAD_REACTORS
330
228B
102
}
330
228B
100
AcDbXrecord
 90
    10781
  0
XRECORD
  5
2291
102
{ACAD_REACTORS
330
228B
102
}
330
228B
100
AcDbXrecord
340
566
  0
XRECORD
  5
2292
102
{ACAD_REACTORS
330
228B
102
}
330
228B
100
AcDbXrecord
340
563
  0
XRECORD
  5
2298
102
{ACAD_REACTORS
330
228B
102
}
330
228B
100
AcDbXrecord
 40
0.0
  0
XRECORD
  5
229C
102
{ACAD_REACTORS
330
228B
102
}
330
228B
100
AcDbXrecord
340
0
  0
XRECORD
  5
22A2
102
{ACAD_REACTORS
330
228B
102
}
330
228B
100
AcDbXrecord
 10
0.0
 20
0.0
 30
0.0
  0
XRECORD
  5
229E
102
{ACAD_REACTORS
330
228B
102
}
330
228B
100
AcDbXrecord
 10
0.0
 20
0.0
 30
0.0
  0
XRECORD
  5
22A1
102
{ACAD_REACTORS
330
228B
102
}
330
228B
100
AcDbXrecord
 10
0.0
 20
0.0
 30
0.0
  0
XRECORD
  5
229F
102
{ACAD_REACTORS
330
228B
102
}
330
228B
100
AcDbXrecord
 10
0.0
 20
0.0
 30
0.0
  0
XRECORD
  5
22A0
102
{ACAD_REACTORS
330
228B
102
}
330
228B
100
AcDbXrecord
 10
0.0
 20
0.0
 30
0.0
  0
XRECORD
  5
229D
102
{ACAD_REACTORS
330
228B
102
}
330
228B
100
AcDbXrecord
 10
0.0
 20
0.0
 30
0.0
  0
XRECORD
  5
229A
102
{ACAD_REACTORS
330
228B
102
}
330
228B
100
AcDbXrecord
340
0
  0
XRECORD
  5
229B
102
{ACAD_REACTORS
330
228B
102
}
330
228B
100
AcDbXrecord
 70
     0
  0
XRECORD
  5
228F
102
{ACAD_REACTORS
330
228B
102
}
330
228B
100
AcDbXrecord
  1
big.ctb
  0
XRECORD
  5
228C
102
{ACAD_REACTORS
330
228B
102
}
330
228B
100
AcDbXrecord
 90
        1
  0
XRECORD
  5
228D
102
{ACAD_REACTORS
330
228B
102
}
330
228B
100
AcDbXrecord
 90
       70
  0
XRECORD
  5
22A5
102
{ACAD_REACTORS
330
228B
102
}
330
228B
100
AcDbXrecord
340
0
  0
XRECORD
  5
22AB
102
{ACAD_REACTORS
330
228B
102
}
330
228B
100
AcDbXrecord
 10
0.0
 20
0.0
 30
0.0
  0
XRECORD
  5
22A7
102
{ACAD_REACTORS
330
228B
102
}
330
228B
100
AcDbXrecord
 10
0.0
 20
0.0
 30
0.0
  0
XRECORD
  5
22AA
102
{ACAD_REACTORS
330
228B
102
}
330
228B
100
AcDbXrecord
 10
0.0
 20
0.0
 30
0.0
  0
XRECORD
  5
22A8
102
{ACAD_REACTORS
330
228B
102
}
330
228B
100
AcDbXrecord
 10
0.0
 20
0.0
 30
0.0
  0
XRECORD
  5
22A9
102
{ACAD_REACTORS
330
228B
102
}
330
228B
100
AcDbXrecord
 10
0.0
 20
0.0
 30
0.0
  0
XRECORD
  5
22A6
102
{ACAD_REACTORS
330
228B
102
}
330
228B
100
AcDbXrecord
 10
0.0
 20
0.0
 30
0.0
  0
XRECORD
  5
22A3
102
{ACAD_REACTORS
330
228B
102
}
330
228B
100
AcDbXrecord
340
0
  0
XRECORD
  5
22A4
102
{ACAD_REACTORS
330
228B
102
}
330
228B
100
AcDbXrecord
 70
     0
  0
XRECORD
  5
2297
102
{ACAD_REACTORS
330
228B
102
}
330
228B
100
AcDbXrecord
  1
{847F1D08-822B-44E0-87D2-BD49244A6847}
  0
XRECORD
  5
560
102
{ACAD_REACTORS
330
540
102
}
330
540
100
AcDbXrecord
  1
2.0.0
  0
ENDSEC
  0
EOF
