  0
SECTION
  2
HEADER
  9
$ACADVER
  1
AC1014
  9
$ACADMAINTVER
 70
     9
  9
$DWGCODEPAGE
  3
ANSI_932
  9
$INSBASE
 10
0.0
 20
0.0
 30
0.0
  9
$EXTMIN
 10
-31.01376238
 20
-48.01052776
 30
0.0
  9
$EXTMAX
 10
195.01612933
 20
75.01574762
 30
0.0
  9
$LIMMIN
 10
0.0
 20
0.0
  9
$LIMMAX
 10
420.0
 20
297.0
  9
$ORTHOMODE
 70
     0
  9
$REGENMODE
 70
     1
  9
$FILLMODE
 70
     1
  9
$QTEXTMODE
 70
     0
  9
$MIRRTEXT
 70
     1
  9
$DRAGMODE
 70
     2
  9
$LTSCALE
 40
10.0
  9
$OSMODE
 70
   549
  9
$ATTMODE
 70
     1
  9
$TEXTSIZE
 40
3.0
  9
$TRACEWID
 40
1.0
  9
$TEXTSTYLE
  7
YOKO
  9
$CLAYER
  8
245
  9
$CELTYPE
  6
BYLAYER
  9
$CECOLOR
 62
   256
  9
$CELTSCALE
 40
1.0
  9
$DELOBJ
 70
     1
  9
$DISPSILH
 70
     0
  9
$DIMSCALE
 40
1.0
  9
$DIMASZ
 40
2.0
  9
$DIMEXO
 40
2.0
  9
$DIMDLI
 40
2.5
  9
$DIMRND
 40
0.0
  9
$DIMDLE
 40
0.0
  9
$DIMEXE
 40
2.0
  9
$DIMTP
 40
0.0
  9
$DIMTM
 40
0.0
  9
$DIMTXT
 40
4.0
  9
$DIMCEN
 40
0.0
  9
$DIMTSZ
 40
0.0
  9
$DIMTOL
 70
     0
  9
$DIMLIM
 70
     0
  9
$DIMTIH
 70
     0
  9
$DIMTOH
 70
     0
  9
$DIMSE1
 70
     0
  9
$DIMSE2
 70
     0
  9
$DIMTAD
 70
     3
  9
$DIMZIN
 70
     8
  9
$DIMBLK
  1

  9
$DIMASO
 70
     1
  9
$DIMSHO
 70
     1
  9
$DIMPOST
  1

  9
$DIMAPOST
  1

  9
$DIMALT
 70
     0
  9
$DIMALTD
 70
     2
  9
$DIMALTF
 40
25.4
  9
$DIMLFAC
 40
1.0
  9
$DIMTOFL
 70
     1
  9
$DIMTVP
 40
0.0
  9
$DIMTIX
 70
     1
  9
$DIMSOXD
 70
     0
  9
$DIMSAH
 70
     1
  9
$DIMBLK1
  1
OPEN
  9
$DIMBLK2
  1
OPEN
  9
$DIMSTYLE
  2
BIGT
  9
$DIMCLRD
 70
   256
  9
$DIMCLRE
 70
   256
  9
$DIMCLRT
 70
    40
  9
$DIMTFAC
 40
1.0
  9
$DIMGAP
 40
1.0
  9
$DIMJUST
 70
     0
  9
$DIMSD1
 70
     0
  9
$DIMSD2
 70
     0
  9
$DIMTOLJ
 70
     1
  9
$DIMTZIN
 70
     8
  9
$DIMALTZ
 70
     0
  9
$DIMALTTZ
 70
     0
  9
$DIMFIT
 70
     3
  9
$DIMUPT
 70
     0
  9
$DIMUNIT
 70
     2
  9
$DIMDEC
 70
     3
  9
$DIMTDEC
 70
     3
  9
$DIMALTU
 70
     2
  9
$DIMALTTD
 70
     2
  9
$DIMTXSTY
  7
STANDARD
  9
$DIMAUNIT
 70
     0
  9
$LUNITS
 70
     2
  9
$LUPREC
 70
     3
  9
$SKETCHINC
 40
1.0
  9
$FILLETRAD
 40
0.0
  9
$AUNITS
 70
     0
  9
$AUPREC
 70
     3
  9
$MENU
  1
.
  9
$ELEVATION
 40
0.0
  9
$PELEVATION
 40
0.0
  9
$THICKNESS
 40
0.0
  9
$LIMCHECK
 70
     0
  9
$BLIPMODE
 70
     0
  9
$CHAMFERA
 40
10.0
  9
$CHAMFERB
 40
10.0
  9
$CHAMFERC
 40
0.0
  9
$CHAMFERD
 40
0.0
  9
$SKPOLY
 70
     0
  9
$TDCREATE
 40
2455105.716420717
  9
$TDUPDATE
 40
2455390.667322222
  9
$TDINDWG
 40
0.0151869792
  9
$TDUSRTIMER
 40
0.0151869792
  9
$USRTIMER
 70
     1
  9
$ANGBASE
 50
0.0
  9
$ANGDIR
 70
     0
  9
$PDMODE
 70
     1
  9
$PDSIZE
 40
-5.0
  9
$PLINEWID
 40
0.0
  9
$COORDS
 70
     1
  9
$SPLFRAME
 70
     0
  9
$SPLINETYPE
 70
     6
  9
$SPLINESEGS
 70
     8
  9
$ATTDIA
 70
     0
  9
$ATTREQ
 70
     1
  9
$HANDLING
 70
-16383
  9
$HANDSEED
  5
F74
  9
$SURFTAB1
 70
     6
  9
$SURFTAB2
 70
     6
  9
$SURFTYPE
 70
     6
  9
$SURFU
 70
     6
  9
$SURFV
 70
     6
  9
$UCSNAME
  2

  9
$UCSORG
 10
0.0
 20
0.0
 30
0.0
  9
$UCSXDIR
 10
1.0
 20
0.0
 30
0.0
  9
$UCSYDIR
 10
0.0
 20
1.0
 30
0.0
  9
$PUCSNAME
  2

  9
$PUCSORG
 10
0.0
 20
0.0
 30
0.0
  9
$PUCSXDIR
 10
1.0
 20
0.0
 30
0.0
  9
$PUCSYDIR
 10
0.0
 20
1.0
 30
0.0
  9
$USERI1
 70
     1
  9
$USERI2
 70
     0
  9
$USERI3
 70
     0
  9
$USERI4
 70
     0
  9
$USERI5
 70
     0
  9
$USERR1
 40
0.0
  9
$USERR2
 40
0.0
  9
$USERR3
 40
0.0
  9
$USERR4
 40
0.0
  9
$USERR5
 40
0.0
  9
$WORLDVIEW
 70
     1
  9
$SHADEDGE
 70
     3
  9
$SHADEDIF
 70
    70
  9
$TILEMODE
 70
     1
  9
$MAXACTVP
 70
    16
  9
$PINSBASE
 10
0.0
 20
0.0
 30
0.0
  9
$PLIMCHECK
 70
     0
  9
$PEXTMIN
 10
1.00000000E+20
 20
1.00000000E+20
 30
1.00000000E+20
  9
$PEXTMAX
 10
-1.00000000E+20
 20
-1.00000000E+20
 30
-1.00000000E+20
  9
$PLIMMIN
 10
0.0
 20
0.0
  9
$PLIMMAX
 10
420.0
 20
297.0
  9
$UNITMODE
 70
     0
  9
$VISRETAIN
 70
     0
  9
$PLINEGEN
 70
     0
  9
$PSLTSCALE
 70
     1
  9
$TREEDEPTH
 70
  3020
  9
$PICKSTYLE
 70
     0
  9
$CMLSTYLE
  2
STANDARD
  9
$CMLJUST
 70
     0
  9
$CMLSCALE
 40
1.0
  9
$PROXYGRAPHICS
 70
     1
  9
$MEASUREMENT
 70
     1
  0
ENDSEC
  0
SECTION
  2
CLASSES
  0
CLASS
  1
XRECORD
  2
AcDbXrecord
  3
AutoCAD 2000
 90
        0
280
     0
281
     0
  0
CLASS
  1
ACDBDICTIONARYWDFLT
  2
AcDbDictionaryWithDefault
  3
AutoCAD 2000
 90
        0
280
     0
281
     0
  0
CLASS
  1
ACDBPLACEHOLDER
  2
AcDbPlaceHolder
  3
AutoCAD 2000
 90
        0
280
     0
281
     0
  0
CLASS
  1
LAYOUT
  2
AcDbLayout
  3
AutoCAD 2000
 90
        0
280
     0
281
     0
  0
CLASS
  1
PLOTSETTINGS
  2
AcDbPlotSettings
  3
AutoCAD 2000
 90
        0
280
     0
281
     0
  0
CLASS
  1
LONG_TRANSACTION
  2
AcDbLongTransaction
  3
AutoCAD 2000
 90
        0
280
     0
281
     0
  0
CLASS
  1
LWPOLYLINE
  2
AcDbPolyline
  3
AutoCAD 2000
 90
        0
280
     0
281
     1
  0
CLASS
  1
HATCH
  2
AcDbHatch
  3
AutoCAD 2000
 90
        0
280
     0
281
     1
  0
CLASS
  1
XRECORD
  2
AcDbXrecord
  3
AutoCAD 2000
 90
        0
280
     0
281
     0
  0
CLASS
  1
LONG_TRANSACTION
  2
AcDbLongTransaction
  3
AutoCAD 2000
 90
        0
280
     0
281
     0
  0
CLASS
  1
LWPOLYLINE
  2
AcDbPolyline
  3
AutoCAD 2000
 90
        0
280
     0
281
     1
  0
CLASS
  1
HATCH
  2
AcDbHatch
  3
AutoCAD 2000
 90
        0
280
     0
281
     1
  0
CLASS
  1
XRECORD
  2
AcDbXrecord
  3
AutoCAD 2000
 90
        0
280
     0
281
     0
  0
CLASS
  1
LONG_TRANSACTION
  2
AcDbLongTransaction
  3
AutoCAD 2000
 90
        0
280
     0
281
     0
  0
CLASS
  1
LWPOLYLINE
  2
AcDbPolyline
  3
AutoCAD 2000
 90
        0
280
     0
281
     1
  0
CLASS
  1
HATCH
  2
AcDbHatch
  3
AutoCAD 2000
 90
        0
280
     0
281
     1
  0
CLASS
  1
XRECORD
  2
AcDbXrecord
  3
AutoCAD 2000
 90
        0
280
     0
281
     0
  0
CLASS
  1
LONG_TRANSACTION
  2
AcDbLongTransaction
  3
AutoCAD 2000
 90
        0
280
     0
281
     0
  0
CLASS
  1
LWPOLYLINE
  2
AcDbPolyline
  3
AutoCAD 2000
 90
        0
280
     0
281
     1
  0
CLASS
  1
HATCH
  2
AcDbHatch
  3
AutoCAD 2000
 90
        0
280
     0
281
     1
  0
CLASS
  1
XRECORD
  2
AcDbXrecord
  3
AutoCAD 2000
 90
        0
280
     0
281
     0
  0
ENDSEC
  0
SECTION
  2
TABLES
  0
TABLE
  2
VPORT
  5
8
330
0
100
AcDbSymbolTable
 70
     2
  0
VPORT
  5
F49
330
8
100
AcDbSymbolTableRecord
100
AcDbViewportTableRecord
  2
*ACTIVE
 70
     0
 10
0.0
 20
0.0
 11
1.0
 21
1.0
 12
82.00118348
 22
13.50260993
 13
0.0
 23
0.0
 14
7.0
 24
7.0
 15
7.0
 25
7.0
 16
0.0
 26
0.0
 36
1.0
 17
0.0
 27
0.0
 37
0.0
 40
156.07236635
 41
1.45595855
 42
50.0
 43
0.0
 44
0.0
 50
0.0
 51
0.0
 71
     0
 72
  2000
 73
     1
 74
     0
 75
     0
 76
     0
 77
     0
 78
     0
  0
ENDTAB
  0
TABLE
  2
LTYPE
  5
5
330
0
100
AcDbSymbolTable
 70
     4
  0
LTYPE
  5
14
330
5
100
AcDbSymbolTableRecord
100
AcDbLinetypeTableRecord
  2
BYBLOCK
 70
     0
  3

 72
    65
 73
     0
 40
0.0
  0
LTYPE
  5
15
330
5
100
AcDbSymbolTableRecord
100
AcDbLinetypeTableRecord
  2
BYLAYER
 70
     0
  3

 72
    65
 73
     0
 40
0.0
  0
LTYPE
  5
16
330
5
100
AcDbSymbolTableRecord
100
AcDbLinetypeTableRecord
  2
CONTINUOUS
 70
     0
  3
Solid line
 72
    65
 73
     0
 40
0.0
  0
LTYPE
  5
258
330
5
100
AcDbSymbolTableRecord
100
AcDbLinetypeTableRecord
  2
CENTER2
 70
     0
  3
___ _ ___ _ ___ _ ___ _ ___ _ ___ _ ___ _ ___ _
 72
    65
 73
     4
 40
1.125
 49
0.75
 74
     0
 49
-0.125
 74
     0
 49
0.125
 74
     0
 49
-0.125
 74
     0
  0
LTYPE
  5
25C
330
5
100
AcDbSymbolTableRecord
100
AcDbLinetypeTableRecord
  2
HIDDEN2
 70
     0
  3
_ _ _ _ _ _ _ _ _ _ _ _ _ _ _ _ _ _ _ _ _ _ _ _
 72
    65
 73
     2
 40
0.1875
 49
0.125
 74
     0
 49
-0.0625
 74
     0
  0
LTYPE
  5
25D
330
5
100
AcDbSymbolTableRecord
100
AcDbLinetypeTableRecord
  2
PHANTOM2
 70
     0
  3
___ _ _ ___ _ _ ___ _ _ ___ _ _ ___ _ _ ___ _ _
 72
    65
 73
     6
 40
1.25
 49
0.625
 74
     0
 49
-0.125
 74
     0
 49
0.125
 74
     0
 49
-0.125
 74
     0
 49
0.125
 74
     0
 49
-0.125
 74
     0
  0
ENDTAB
  0
TABLE
  2
LAYER
  5
2
330
0
100
AcDbSymbolTable
 70
    12
  0
LAYER
  5
F
330
2
100
AcDbSymbolTableRecord
100
AcDbLayerTableRecord
  2
0
 70
     0
 62
     7
  6
CONTINUOUS
  0
LAYER
  5
1AA
330
2
100
AcDbSymbolTableRecord
100
AcDbLayerTableRecord
  2
240
 70
     0
 62
     4
  6
CONTINUOUS
  0
LAYER
  5
1AB
330
2
100
AcDbSymbolTableRecord
100
AcDbLayerTableRecord
  2
241
 70
     0
 62
   211
  6
CONTINUOUS
  0
LAYER
  5
1AC
330
2
100
AcDbSymbolTableRecord
100
AcDbLayerTableRecord
  2
242
 70
     0
 62
     3
  6
CONTINUOUS
  0
LAYER
  5
1AD
330
2
100
AcDbSymbolTableRecord
100
AcDbLayerTableRecord
  2
243
 70
     0
 62
   211
  6
HIDDEN2
  0
LAYER
  5
1AF
330
2
100
AcDbSymbolTableRecord
100
AcDbLayerTableRecord
  2
245
 70
     0
 62
     2
  6
CENTER2
  0
LAYER
  5
21A
330
2
100
AcDbSymbolTableRecord
100
AcDbLayerTableRecord
  2
246
 70
     0
 62
     3
  6
PHANTOM2
  0
LAYER
  5
21E
330
2
100
AcDbSymbolTableRecord
100
AcDbLayerTableRecord
  2
250
 70
     0
 62
     3
  6
CONTINUOUS
  0
LAYER
  5
21F
330
2
100
AcDbSymbolTableRecord
100
AcDbLayerTableRecord
  2
251
 70
     0
 62
    40
  6
CONTINUOUS
  0
LAYER
  5
5C4
330
2
100
AcDbSymbolTableRecord
100
AcDbLayerTableRecord
  2
DEFPOINTS
 70
     0
 62
     7
  6
CONTINUOUS
  0
ENDTAB
  0
TABLE
  2
STYLE
  5
3
330
0
100
AcDbSymbolTable
 70
     2
  0
STYLE
  5
10
330
3
100
AcDbSymbolTableRecord
100
AcDbTextStyleTableRecord
  2
STANDARD
 70
     0
 40
0.0
 41
1.0
 50
0.0
 71
     0
 42
3.0
  3
romans.shx
  4
BIGFONT.SHX
  0
STYLE
  5
339
330
3
100
AcDbSymbolTableRecord
100
AcDbTextStyleTableRecord
  2
YOKO
 70
     0
 40
0.0
 41
1.0
 50
0.0
 71
     0
 42
3.0
  3
romans.shx
  4
extfont.shx
  0
ENDTAB
  0
TABLE
  2
VIEW
  5
6
330
0
100
AcDbSymbolTable
 70
     0
  0
ENDTAB
  0
TABLE
  2
UCS
  5
7
330
0
100
AcDbSymbolTable
 70
     0
  0
ENDTAB
  0
TABLE
  2
APPID
  5
9
330
0
100
AcDbSymbolTable
 70
     9
  0
APPID
  5
11
330
9
100
AcDbSymbolTableRecord
100
AcDbRegAppTableRecord
  2
ACAD
 70
     0
  0
APPID
  5
1B1
330
9
100
AcDbSymbolTableRecord
100
AcDbRegAppTableRecord
  2
GLOBAL
 70
     0
  0
APPID
  5
2A4
330
9
100
AcDbSymbolTableRecord
100
AcDbRegAppTableRecord
  2
DETAIL
 70
     0
  0
APPID
  5
5FD
330
9
100
AcDbSymbolTableRecord
100
AcDbRegAppTableRecord
  2
GRPNAME
 70
     0
  0
APPID
  5
5FE
330
9
100
AcDbSymbolTableRecord
100
AcDbRegAppTableRecord
  2
GPARA
 70
     0
  0
APPID
  5
6C4
330
9
100
AcDbSymbolTableRecord
100
AcDbRegAppTableRecord
  2
DCO15
 70
     0
  0
APPID
  5
6C5
330
9
100
AcDbSymbolTableRecord
100
AcDbRegAppTableRecord
  2
ITEMNAME
 70
     0
  0
APPID
  5
6C6
330
9
100
AcDbSymbolTableRecord
100
AcDbRegAppTableRecord
  2
GRADE_0
 70
     0
  0
APPID
  5
B0A
330
9
100
AcDbSymbolTableRecord
100
AcDbRegAppTableRecord
  2
CONTENTBLOCKICON
 70
     0
  0
ENDTAB
  0
TABLE
  2
DIMSTYLE
  5
A
330
0
100
AcDbSymbolTable
 70
     6
  0
DIMSTYLE
105
725
102
{ACAD_REACTORS
330
9A7
102
}
330
A
100
AcDbSymbolTableRecord
100
AcDbDimStyleTableRecord
  2
BIGT
 70
     0
  3

  4

  5

  6
OPEN
  7
OPEN
 40
1.0
 41
2.23
 42
0.5
 43
2.5
 44
1.0
 45
0.0
 46
0.0
 47
0.0
 48
0.0
140
2.8
141
0.0
142
0.0
143
25.4
144
1.0
145
0.0
146
1.0
147
1.0
 71
     0
 72
     0
 73
     0
 74
     0
 75
     0
 76
     0
 77
     3
 78
     8
170
     0
171
     2
172
     1
173
     1
174
     1
175
     0
176
   256
177
   256
178
    40
270
     2
271
     3
272
     3
273
     2
274
     2
340
10
275
     0
280
     0
281
     0
282
     0
283
     1
284
     8
285
     0
286
     0
287
     3
288
     0
  0
DIMSTYLE
105
79E
102
{ACAD_REACTORS
330
823
330
991
102
}
330
A
100
AcDbSymbolTableRecord
100
AcDbDimStyleTableRecord
  2
BIGT$0
 70
     0
  3

  4
"
  5
OPEN
  6

  7

 40
1.0
 41
2.23
 42
0.5
 43
7.0
 44
1.0
 45
0.0
 46
0.0
 47
0.1
 48
0.1
140
3.0
141
0.0
142
0.0
143
0.0393701
144
1.0
145
0.0
146
0.71
147
1.0
 71
     0
 72
     0
 73
     0
 74
     0
 75
     0
 76
     0
 77
     3
 78
     8
170
     0
171
     2
172
     1
173
     0
174
     0
175
     0
176
     3
177
     3
178
    40
270
     2
271
     3
272
     3
273
     2
274
     2
340
10
275
     0
280
     0
281
     0
282
     0
283
     1
284
     8
285
     0
286
     0
287
     3
288
     0
  0
DIMSTYLE
105
79F
330
A
100
AcDbSymbolTableRecord
100
AcDbDimStyleTableRecord
  2
BIGT$7
 70
     0
  3

  4
"
  5
OPEN
  6

  7

 40
1.0
 41
2.5
 42
0.5
 43
7.0
 44
1.0
 45
0.0
 46
0.0
 47
0.1
 48
0.1
140
5.0
141
0.0
142
0.0
143
0.0393701
144
1.0
145
0.0
146
0.71
147
1.5
 71
     0
 72
     0
 73
     0
 74
     0
 75
     0
 76
     0
 77
     3
 78
     8
170
     0
171
     2
172
     1
173
     0
174
     0
175
     0
176
     3
177
     3
178
    40
270
     2
271
     3
272
     3
273
     2
274
     2
340
10
275
     0
280
     0
281
     0
282
     0
283
     1
284
     8
285
     0
286
     0
287
     3
288
     0
  0
ENDTAB
  0
TABLE
  2
BLOCK_RECORD
  5
1
330
0
100
AcDbSymbolTable
 70
     9
  0
BLOCK_RECORD
  5
1A
102
{ACAD_XDICTIONARY
360
B02
102
}
330
1
100
AcDbSymbolTableRecord
100
AcDbBlockTableRecord
  2
*MODEL_SPACE
  0
BLOCK_RECORD
  5
17
102
{ACAD_XDICTIONARY
360
B00
102
}
330
1
100
AcDbSymbolTableRecord
100
AcDbBlockTableRecord
  2
*PAPER_SPACE
  0
BLOCK_RECORD
  5
594
330
1
100
AcDbSymbolTableRecord
100
AcDbBlockTableRecord
  2
_OPEN
  0
BLOCK_RECORD
  5
6E3
330
1
100
AcDbSymbolTableRecord
100
AcDbBlockTableRecord
  2
矢印なし
  0
BLOCK_RECORD
  5
894
330
1
100
AcDbSymbolTableRecord
100
AcDbBlockTableRecord
  2
*D2
  0
BLOCK_RECORD
  5
992
330
1
100
AcDbSymbolTableRecord
100
AcDbBlockTableRecord
  2
*D4
  0
BLOCK_RECORD
  5
9A8
330
1
100
AcDbSymbolTableRecord
100
AcDbBlockTableRecord
  2
*D5
  0
BLOCK_RECORD
  5
BA7
330
1
100
AcDbSymbolTableRecord
100
AcDbBlockTableRecord
  2
1
1001
CONTENTBLOCKICON
1071
        0
1004
2800000020000000200000000100080000000000000400000000000000000000000000000000000000000000000080000080000000808000800000008000800080800000C0C0C000C0DCC000F0CAA6000020400000206000002080000020A0000020C0000020E00000400000004020000040400000406000004080000040A0
1004
000040C0000040E00000600000006020000060400000606000006080000060A0000060C0000060E00000800000008020000080400000806000008080000080A0000080C0000080E00000A0000000A0200000A0400000A0600000A0800000A0A00000A0C00000A0E00000C0000000C0200000C0400000C0600000C0800000C0
1004
A00000C0C00000C0E00000E0000000E0200000E0400000E0600000E0800000E0A00000E0C00000E0E00040000000400020004000400040006000400080004000A0004000C0004000E00040200000402020004020400040206000402080004020A0004020C0004020E000404000004040200040404000404060004040800040
1004
40A0004040C0004040E00040600000406020004060400040606000406080004060A0004060C0004060E00040800000408020004080400040806000408080004080A0004080C0004080E00040A0000040A0200040A0400040A0600040A0800040A0A00040A0C00040A0E00040C0000040C0200040C0400040C0600040C08000
1004
40C0A00040C0C00040C0E00040E0000040E0200040E0400040E0600040E0800040E0A00040E0C00040E0E00080000000800020008000400080006000800080008000A0008000C0008000E00080200000802020008020400080206000802080008020A0008020C0008020E00080400000804020008040400080406000804080
1004
008040A0008040C0008040E00080600000806020008060400080606000806080008060A0008060C0008060E00080800000808020008080400080806000808080008080A0008080C0008080E00080A0000080A0200080A0400080A0600080A0800080A0A00080A0C00080A0E00080C0000080C0200080C0400080C0600080C0
1004
800080C0A00080C0C00080C0E00080E0000080E0200080E0400080E0600080E0800080E0A00080E0C00080E0E000C0000000C0002000C0004000C0006000C0008000C000A000C000C000C000E000C0200000C0202000C0204000C0206000C0208000C020A000C020C000C020E000C0400000C0402000C0404000C0406000C0
1004
408000C040A000C040C000C040E000C0600000C0602000C0604000C0606000C0608000C060A000C060C000C060E000C0800000C0802000C0804000C0806000C0808000C080A000C080C000C080E000C0A00000C0A02000C0A04000C0A06000C0A08000C0A0A000C0A0C000C0A0E000C0C00000C0C02000C0C04000C0C06000
1004
C0C08000C0C0A000F0FBFF00A4A0A000808080000000FF0000FF000000FFFF00FF000000FF00FF00FFFF0000FFFFFF0000000000000000000000000000000000000000000000000000000000000000000000000000000000000000000000000000000000000000000000000000000000000000000000000000000000000000
1004
00000000000000000000000000000000000000000000000000000000000000000000000000000000000000000000000000000000000000000000000000000000000000000000000000000000000000000000000000000000000000000000000000000000000000000000000000000000000000000000000000000000000000
1004
00000000000000000000000000000000000000000000000000000000000000000000000000000000000000000000000000000000000000000000000000000000000000000000000000000000000000000000000000000000000000000000000000000000000000000000000000000000000000000000000000000000000000
1004
0000000000000000FAFAFAFAFAFA00000000000000000000000000000000000000000000000000FA000000FB0000FAFA0000000000000000FEFEFEE7FE000000000000000000FA00000000FEFE0000FA00000000000000FEFEE7E7E700E700000000000000FA000000FEFEFB00FEFE00FA00000000FEFE00E7E7E7E700FE00
1004
000000000000FA0000E7E7E7FB000000FEFA00000000E70000E7E7E7E70000FEFEFE00000000FA00FEE7E7E7FB00E7E7FEFA000000FBE7FBFBE7E7E7E7FBFBFBFEFBFE000000FAFBFEFBE7E7E7E7E7E7E7FEFB000000FEFE00E7E7E7E700E7E7E7E7FE000000FA00FE000000FB00E7E7E7FE000000000000FEFEE7E7E7E7FB
1004
E7E7E700000000FA00FE000000FB00E70000FE00000000000000FEFEFEFEFBE7FBFE000000000000FAFE000000FEFEFE00FE0000000000000000000000FEFEFBFE0000000000000000FEFE0000FE00FEFEFA000000000000000000000000FEFE00000000000000000000FEFEFEFEFAFE000000000000000000000000000000
1004
00000000000000000000000000000000000000000000000000000000000000000000000000000000000000000000000000000000000000000000000000000000000000000000000000000000000000000000000000000000000000000000000000000000000000000000000000000000000000000000000000000000000000
1004
00000000000000000000000000000000000000000000000000000000000000000000000000000000000000000000000000000000000000000000000000000000000000000000000000000000000000000000000000000000000000000000000000000000000000000000000000000000000000000000000000000000000000
1004
0000000000000000000000000000000000000000000000000000000000000000000000000000000000000000000000000000000000000000
  0
ENDTAB
  0
ENDSEC
  0
SECTION
  2
BLOCKS
  0
BLOCK
  5
1B
330
1A
100
AcDbEntity
  8
0
100
AcDbBlockBegin
  2
*MODEL_SPACE
 70
     0
 10
0.0
 20
0.0
 30
0.0
  3
*MODEL_SPACE
  1

  0
ENDBLK
  5
1C
330
1A
100
AcDbEntity
  8
0
100
AcDbBlockEnd
  0
BLOCK
  5
18
330
17
100
AcDbEntity
 67
     1
  8
0
100
AcDbBlockBegin
  2
*PAPER_SPACE
 70
     0
 10
0.0
 20
0.0
 30
0.0
  3
*PAPER_SPACE
  1

  0
ENDBLK
  5
19
330
17
100
AcDbEntity
 67
     1
  8
0
100
AcDbBlockEnd
  0
BLOCK
  5
598
330
594
100
AcDbEntity
  8
0
100
AcDbBlockBegin
  2
_OPEN
 70
     0
 10
0.0
 20
0.0
 30
0.0
  3
_OPEN
  1

  0
LINE
  5
595
330
594
100
AcDbEntity
  8
0
  6
BYBLOCK
 62
     0
100
AcDbLine
 10
-1.0
 20
0.16666667
 30
0.0
 11
0.0
 21
0.0
 31
0.0
  0
LINE
  5
596
330
594
100
AcDbEntity
  8
0
  6
BYBLOCK
 62
     0
100
AcDbLine
 10
-1.0
 20
-0.16666667
 30
0.0
 11
0.0
 21
0.0
 31
0.0
  0
LINE
  5
597
330
594
100
AcDbEntity
  8
0
  6
BYBLOCK
 62
     0
100
AcDbLine
 10
0.0
 20
0.0
 30
0.0
 11
-1.0
 21
0.0
 31
0.0
  0
ENDBLK
  5
599
330
594
100
AcDbEntity
  8
0
100
AcDbBlockEnd
  0
BLOCK
  5
6E4
330
6E3
100
AcDbEntity
  8
0
100
AcDbBlockBegin
  2
矢印なし
 70
     0
 10
0.0
 20
0.0
 30
0.0
  3
矢印なし
  1

  0
ENDBLK
  5
6E5
330
6E3
100
AcDbEntity
  8
0
100
AcDbBlockEnd
  0
BLOCK
  5
89E
330
894
100
AcDbEntity
  8
0
100
AcDbBlockBegin
  2
*D2
 70
     1
 10
0.0
 20
0.0
 30
0.0
  3
*D2
  1

  0
LINE
  5
EB3
330
894
100
AcDbEntity
  8
250
  6
CONTINUOUS
 62
     3
100
AcDbLine
 10
0.0
 20
25.49
 30
0.0
 11
0.0
 21
57.0
 31
0.0
  0
LINE
  5
EB4
330
894
100
AcDbEntity
  8
250
  6
CONTINUOUS
 62
     3
100
AcDbLine
 10
72.51471897
 20
7.57106781
 30
0.0
 11
72.51471897
 21
57.0
 31
0.0
  0
LINE
  5
EB5
330
894
100
AcDbEntity
  8
250
  6
CONTINUOUS
 62
     3
100
AcDbLine
 10
2.0
 20
56.0
 30
0.0
 11
70.51471897
 21
56.0
 31
0.0
  0
INSERT
  5
EB6
330
894
100
AcDbEntity
  8
250
  6
CONTINUOUS
 62
     3
100
AcDbBlockReference
  2
_OPEN
 10
0.0
 20
56.0
 30
0.0
 41
2.0
 42
2.0
 43
2.0
 50
180.0
  0
INSERT
  5
EB7
330
894
100
AcDbEntity
  8
250
  6
CONTINUOUS
 62
     3
100
AcDbBlockReference
  2
_OPEN
 10
72.51471897
 20
56.0
 30
0.0
 41
2.0
 42
2.0
 43
2.0
  0
MTEXT
  5
EB8
330
894
100
AcDbEntity
  8
250
  6
CONTINUOUS
 62
    40
100
AcDbMText
 10
36.25735949
 20
58.5
 30
0.0
 40
3.0
 41
0.0
 71
     5
 72
     1
  1
\A1;（72.5）
1001
ACAD
1000
MTEXTBEGIN
1070
    73
1070
     1
1070
    44
1040
1.0
1070
    74
1070
     0
1000
MTEXTEND
  0
POINT
  5
EB9
330
894
100
AcDbEntity
  8
DEFPOINTS
  6
CONTINUOUS
 62
     0
100
AcDbPoint
 10
0.0
 20
24.99
 30
0.0
  0
POINT
  5
EBA
330
894
100
AcDbEntity
  8
DEFPOINTS
  6
CONTINUOUS
 62
     0
100
AcDbPoint
 10
72.51471897
 20
7.07106781
 30
0.0
  0
POINT
  5
EBB
330
894
100
AcDbEntity
  8
DEFPOINTS
  6
CONTINUOUS
 62
     0
100
AcDbPoint
 10
72.51471897
 20
56.0
 30
0.0
  0
ENDBLK
  5
89F
330
894
100
AcDbEntity
  8
0
100
AcDbBlockEnd
  0
BLOCK
  5
99C
330
992
100
AcDbEntity
  8
0
100
AcDbBlockBegin
  2
*D4
 70
     1
 10
0.0
 20
0.0
 30
0.0
  3
*D4
  1

  0
LINE
  5
A13
330
992
100
AcDbEntity
  8
250
  6
CONTINUOUS
 62
     3
100
AcDbLine
 10
147.0
 20
48.5
 30
0.0
 11
147.0
 21
57.0
 31
0.0
  0
LINE
  5
A14
330
992
100
AcDbEntity
  8
250
  6
CONTINUOUS
 62
     3
100
AcDbLine
 10
167.0
 20
43.03234064
 30
0.0
 11
167.0
 21
57.0
 31
0.0
  0
LINE
  5
A15
330
992
100
AcDbEntity
  8
250
  6
CONTINUOUS
 62
     3
100
AcDbLine
 10
149.23
 20
56.0
 30
0.0
 11
164.77
 21
56.0
 31
0.0
  0
INSERT
  5
A16
330
992
100
AcDbEntity
  8
250
  6
CONTINUOUS
 62
     3
100
AcDbBlockReference
  2
_OPEN
 10
147.0
 20
56.0
 30
0.0
 41
2.23
 42
2.23
 43
2.23
 50
180.0
  0
INSERT
  5
A17
330
992
100
AcDbEntity
  8
250
  6
CONTINUOUS
 62
     3
100
AcDbBlockReference
  2
_OPEN
 10
167.0
 20
56.0
 30
0.0
 41
2.23
 42
2.23
 43
2.23
  0
MTEXT
  5
A18
330
992
100
AcDbEntity
  8
250
  6
CONTINUOUS
 62
    40
100
AcDbMText
 10
157.0
 20
58.5
 30
0.0
 40
3.0
 41
0.0
 71
     5
 72
     1
  1
\A1;□20
1001
ACAD
1000
MTEXTBEGIN
1070
    73
1070
     1
1070
    44
1040
1.0
1070
    74
1070
     0
1000
MTEXTEND
1000
MTEXTBEGIN
1070
    73
1070
     1
1070
    44
1040
1.0
1070
    74
1070
     0
1000
MTEXTEND
1000
MTEXTBEGIN
1070
    73
1070
     1
1070
    44
1040
1.0
1070
    74
1070
     0
1000
MTEXTEND
1000
MTEXTBEGIN
1070
    73
1070
     1
1070
    44
1040
1.0
1070
    74
1070
     0
1000
MTEXTEND
  0
POINT
  5
A19
330
992
100
AcDbEntity
  8
DEFPOINTS
  6
CONTINUOUS
 62
     0
100
AcDbPoint
 10
147.0
 20
48.0
 30
0.0
  0
POINT
  5
A1A
330
992
100
AcDbEntity
  8
DEFPOINTS
  6
CONTINUOUS
 62
     0
100
AcDbPoint
 10
167.0
 20
42.53234064
 30
0.0
  0
POINT
  5
A1B
330
992
100
AcDbEntity
  8
DEFPOINTS
  6
CONTINUOUS
 62
     0
100
AcDbPoint
 10
167.0
 20
56.0
 30
0.0
  0
ENDBLK
  5
99D
330
992
100
AcDbEntity
  8
0
100
AcDbBlockEnd
  0
BLOCK
  5
9AF
330
9A8
100
AcDbEntity
  8
0
100
AcDbBlockBegin
  2
*D5
 70
     1
 10
0.0
 20
0.0
 30
0.0
  3
*D5
  1

  0
LINE
  5
F6D
330
9A8
100
AcDbEntity
  8
250
  6
CONTINUOUS
100
AcDbLine
 10
177.88534098
 20
-32.410625
 30
0.0
 11
116.11465902
 21
32.410625
 31
0.0
  0
INSERT
  5
F6E
330
9A8
100
AcDbEntity
  8
250
  6
CONTINUOUS
100
AcDbBlockReference
  2
_OPEN
 10
179.42374416
 20
-34.02500279
 30
0.0
 41
2.23
 42
2.23
 43
2.23
 50
313.61957353
  0
INSERT
  5
F6F
330
9A8
100
AcDbEntity
  8
250
  6
CONTINUOUS
100
AcDbBlockReference
  2
_OPEN
 10
114.57625584
 20
34.02500279
 30
0.0
 41
2.23
 42
2.23
 43
2.23
 50
133.61957353
  0
MTEXT
  5
F70
330
9A8
100
AcDbEntity
  8
250
  6
CONTINUOUS
 62
    40
100
AcDbMText
 10
133.3011523
 20
17.85430234
 30
0.0
 40
2.8
 41
0.0
 71
     5
 72
     1
  1
\A1;（{\H2.8;\U+2205}94）
 11
0.6898669
 21
-0.72393623
 31
0.0
  0
POINT
  5
F71
330
9A8
100
AcDbEntity
  8
DEFPOINTS
  6
CONTINUOUS
 62
     0
100
AcDbPoint
 10
114.57625584
 20
34.02500279
 30
0.0
  0
POINT
  5
F72
330
9A8
100
AcDbEntity
  8
DEFPOINTS
  6
CONTINUOUS
 62
     0
100
AcDbPoint
 10
179.42374416
 20
-34.02500279
 30
0.0
  0
ENDBLK
  5
9B0
330
9A8
100
AcDbEntity
  8
0
100
AcDbBlockEnd
  0
BLOCK
  5
BA8
330
BA7
100
AcDbEntity
  8
0
100
AcDbBlockBegin
  2
1
 70
     0
 10
0.0
 20
0.0
 30
0.0
  3
1
  1

  0
LINE
  5
ED7
330
BA7
100
AcDbEntity
  8
245
100
AcDbLine
 10
99.0
 20
0.0
 30
0.0
 11
195.0
 21
0.0
 31
0.0
  0
ELLIPSE
  5
ED8
330
BA7
100
AcDbEntity
  8
241
100
AcDbEllipse
 10
189.66025404
 20
7.07106781
 30
0.0
 11
-18.64827279813489
 21
-3.659939265101556
 31
0.0000000000000002
210
0.0
220
0.0
230
0.9999999999999998
 40
0.18267581
 41
4.819602052311837
 42
6.247348414953242
  0
ELLIPSE
  5
ED9
330
BA7
100
AcDbEntity
  8
241
100
AcDbEllipse
 10
189.66025404
 20
0.35355339
 30
0.0
 11
-18.64827279813489
 21
-3.659939265101556
 31
0.0000000000000002
210
0.0
220
0.0
230
0.9999999999999998
 40
0.18267581
 41
6.247348414953242
 42
7.5696461607159
  0
LINE
  5
EDA
330
BA7
100
AcDbEntity
  8
240
100
AcDbLine
 10
38.37258335
 20
-15.0
 30
0.0
 11
53.72613676
 21
0.35355337
 31
0.0
  0
LINE
  5
EDB
330
BA7
100
AcDbEntity
  8
245
  6
CENTER2
100
AcDbLine
 10
-31.0
 20
0.0
 30
0.0
 11
68.51471897
 21
0.0
 31
0.0
1001
GRPNAME
1000
PASTMD0U
  0
LINE
  5
EDC
330
BA7
100
AcDbEntity
  8
245
100
AcDbLine
 10
31.45227313
 20
36.06244584
 30
0.0
 11
57.61522404
 21
9.89949494
 31
0.0
  0
LINE
  5
EDD
330
BA7
100
AcDbEntity
  8
240
100
AcDbLine
 10
71.05025288
 20
10.60660172
 30
0.0
 11
38.65691256
 21
42.99994204
 31
0.0
  0
CIRCLE
  5
EDE
330
BA7
100
AcDbEntity
  8
242
100
AcDbCircle
 10
53.37258335
 20
14.14213562
 30
0.0
 40
4.25
  0
LWPOLYLINE
  5
EDF
330
BA7
100
AcDbEntity
  8
241
100
AcDbPolyline
 90
        6
 70
     1
 43
0.0
 10
50.58419567
 20
14.88928185
 10
51.3313419
 20
12.10089417
 10
54.11972958
 20
11.35374794
 10
56.16097103
 20
13.3949894
 10
55.4138248
 20
16.18337708
 10
52.62543712
 20
16.9305233
  0
LINE
  5
EE0
330
BA7
100
AcDbEntity
  8
245
100
AcDbLine
 10
57.61522404
 20
18.38477631
 30
0.0
 11
49.12994266
 21
9.89949494
 31
0.0
  0
CIRCLE
  5
EE1
330
BA7
100
AcDbEntity
  8
241
100
AcDbCircle
 10
53.37258335
 20
14.14213562
 30
0.0
 40
5.0
  0
LINE
  5
EE2
330
BA7
100
AcDbEntity
  8
241
100
AcDbLine
 10
22.0
 20
0.0
 30
0.0
 11
22.0
 21
24.99
 31
0.0
  0
LINE
  5
EE3
330
BA7
100
AcDbEntity
  8
240
  6
CONTINUOUS
100
AcDbLine
 10
0.0
 20
24.99
 30
0.0
 11
0.0
 21
16.40000332
 31
0.0
  0
SPLINE
  5
EE4
330
BA7
100
AcDbEntity
  8
241
  6
CONTINUOUS
100
AcDbSpline
210
0.0
220
0.0
230
1.0
 70
     8
 71
     3
 72
     9
 73
     5
 74
     3
 42
0.0000000001
 43
0.0000000001
 44
0.0000000001
 40
0.0
 40
0.0
 40
0.0
 40
0.0
 40
8.637419212856793
 40
17.27483842571346
 40
17.27483842571346
 40
17.27483842571346
 40
17.27483842571346
 10
7.950000000000045
 20
7.174818896234285
 30
0.0
 10
6.906572875253829
 20
9.968662326190848
 30
0.0
 10
4.81971862576141
 20
15.55634918610393
 30
0.0
 10
6.906572875253799
 20
21.14403604601701
 30
0.0
 10
7.949999999999988
 20
23.93787947597354
 30
0.0
 11
7.950000000000045
 21
7.174818896234285
 31
0.0
 11
5.863145750507612
 21
15.55634918610397
 31
0.0
 11
7.949999999999988
 21
23.93787947597354
 31
0.0
  0
LINE
  5
EE5
330
BA7
100
AcDbEntity
  8
241
  6
CONTINUOUS
100
AcDbLine
 10
7.95
 20
7.1748189
 30
0.0
 11
7.95
 21
23.93787948
 31
0.0
  0
SPLINE
  5
EE6
330
BA7
100
AcDbEntity
  8
241
  6
CONTINUOUS
100
AcDbSpline
210
0.0
220
0.0
230
1.0
 70
     8
 71
     3
 72
     9
 73
     5
 74
     3
 42
0.0000000001
 43
0.0000000001
 44
0.0000000001
 40
0.0
 40
0.0
 40
0.0
 40
0.0
 40
8.630480605859949
 40
17.26096121171992
 40
17.26096121171992
 40
17.26096121171992
 40
17.26096121171992
 10
12.05000000000001
 20
23.9378794759736
 30
0.0
 10
13.07897345545484
 20
21.14403604601706
 30
0.0
 10
15.13692036636451
 20
15.55634918610397
 30
0.0
 10
13.07897345545484
 20
9.968662326190868
 30
0.0
 10
12.05000000000001
 20
7.174818896234313
 30
0.0
 11
12.05000000000001
 21
23.9378794759736
 31
0.0
 11
14.10794691090967
 21
15.55634918610397
 31
0.0
 11
12.05000000000001
 21
7.174818896234313
 31
0.0
  0
LINE
  5
EE7
330
BA7
100
AcDbEntity
  8
241
  6
CONTINUOUS
100
AcDbLine
 10
12.05
 20
7.1748189
 30
0.0
 11
12.05
 21
23.93787948
 31
0.0
  0
LINE
  5
EE8
330
BA7
100
AcDbEntity
  8
243
100
AcDbLine
 10
22.10769153
 20
31.26490491
 30
0.0
 11
53.37258404
 21
0.00000064
 31
0.0
  0
LINE
  5
EE9
330
BA7
100
AcDbEntity
  8
240
100
AcDbLine
 10
-2.19993752
 20
16.40000332
 30
0.0
 11
-28.5
 21
15.74244388
 31
0.0
  0
LINE
  5
EEA
330
BA7
100
AcDbEntity
  8
240
100
AcDbLine
 10
-2.19993752
 20
-16.40000332
 30
0.0
 11
-28.5
 21
-15.74244388
 31
0.0
  0
LINE
  5
EEB
330
BA7
100
AcDbEntity
  8
241
100
AcDbLine
 10
-28.5
 20
-15.74244388
 30
0.0
 11
-28.5
 21
0.0
 31
0.0
  0
LINE
  5
EEC
330
BA7
100
AcDbEntity
  8
240
100
AcDbLine
 10
-30.0
 20
-14.87641848
 30
0.0
 11
-30.0
 21
0.0
 31
0.0
  0
LINE
  5
EED
330
BA7
100
AcDbEntity
  8
240
100
AcDbLine
 10
-28.5
 20
-15.74244388
 30
0.0
 11
-30.0
 21
-14.87641848
 31
0.0
  0
LINE
  5
EEE
330
BA7
100
AcDbEntity
  8
240
100
AcDbLine
 10
-30.0
 20
0.0
 30
0.0
 11
-30.0
 21
14.87641848
 31
0.0
  0
LINE
  5
EEF
330
BA7
100
AcDbEntity
  8
241
100
AcDbLine
 10
-28.5
 20
15.74244388
 30
0.0
 11
-28.5
 21
0.0
 31
0.0
  0
LINE
  5
EF0
330
BA7
100
AcDbEntity
  8
241
  6
HIDDEN2
100
AcDbLine
 10
-28.5
 20
3.1365
 30
0.0
 11
-24.7
 21
3.1365
 31
0.0
  0
LINE
  5
EF1
330
BA7
100
AcDbEntity
  8
241
  6
HIDDEN2
100
AcDbLine
 10
-28.5
 20
-3.1365
 30
0.0
 11
-24.7
 21
-3.1365
 31
0.0
  0
LINE
  5
EF2
330
BA7
100
AcDbEntity
  8
241
  6
HIDDEN2
100
AcDbLine
 10
-30.0
 20
-2.2704746
 30
0.0
 11
-28.5
 21
-3.1365
 31
0.0
  0
LINE
  5
EF3
330
BA7
100
AcDbEntity
  8
241
  6
HIDDEN2
100
AcDbLine
 10
-30.0
 20
2.2704746
 30
0.0
 11
-28.5
 21
3.1365
 31
0.0
  0
SPLINE
  5
EF4
330
BA7
100
AcDbEntity
  8
241
  6
HIDDEN2
100
AcDbSpline
210
0.0
220
0.0
230
1.0
 70
     8
 71
     3
 72
     9
 73
     5
 74
     3
 42
0.0000000001
 43
0.0000000001
 44
0.0000000001
 40
0.0
 40
0.0
 40
0.0
 40
0.0
 40
3.659130882107572
 40
7.318261764215169
 40
7.318261764215169
 40
7.318261764215169
 40
7.318261764215169
 10
-24.69999999999998
 20
3.136499999999983
 30
0.0
 10
-23.75771467134504
 20
2.090999999999989
 30
0.0
 10
-21.87314401403515
 20
-0.000000000000005
 30
0.0
 10
-23.75771467134504
 20
-2.091000000000007
 30
0.0
 10
-24.69999999999998
 20
-3.136500000000012
 30
0.0
 11
-24.69999999999998
 21
3.136499999999983
 31
0.0
 11
-22.81542934269009
 21
0.0
 31
0.0
 11
-24.69999999999998
 21
-3.136500000000012
 31
0.0
  0
LINE
  5
EF5
330
BA7
100
AcDbEntity
  8
241
  6
HIDDEN2
100
AcDbLine
 10
-24.7
 20
-3.1365
 30
0.0
 11
-24.7
 21
3.1365
 31
0.0
  0
LINE
  5
EF6
330
BA7
100
AcDbEntity
  8
240
100
AcDbLine
 10
-28.5
 20
15.74244388
 30
0.0
 11
-30.0
 21
14.87641848
 31
0.0
  0
LINE
  5
EF7
330
BA7
100
AcDbEntity
  8
240
  6
CONTINUOUS
100
AcDbLine
 10
0.0
 20
-24.99
 30
0.0
 11
28.38258335
 21
-24.99
 31
0.0
  0
SPLINE
  5
EF8
330
BA7
100
AcDbEntity
  8
241
  6
CONTINUOUS
100
AcDbSpline
210
0.0
220
0.0
230
1.0
 70
     8
 71
     3
 72
     9
 73
     5
 74
     3
 42
0.0000000001
 43
0.0000000001
 44
0.0000000001
 40
0.0
 40
0.0
 40
0.0
 40
0.0
 40
8.637419212856793
 40
17.27483842571346
 40
17.27483842571346
 40
17.27483842571346
 40
17.27483842571346
 10
7.950000000000045
 20
-7.174818896234285
 30
0.0
 10
6.906572875253829
 20
-9.968662326190848
 30
0.0
 10
4.81971862576141
 20
-15.55634918610393
 30
0.0
 10
6.906572875253799
 20
-21.14403604601701
 30
0.0
 10
7.949999999999988
 20
-23.93787947597354
 30
0.0
 11
7.950000000000045
 21
-7.174818896234285
 31
0.0
 11
5.863145750507612
 21
-15.55634918610397
 31
0.0
 11
7.949999999999988
 21
-23.93787947597354
 31
0.0
  0
LINE
  5
EF9
330
BA7
100
AcDbEntity
  8
241
  6
CONTINUOUS
100
AcDbLine
 10
7.95
 20
-7.1748189
 30
0.0
 11
7.95
 21
-23.93787948
 31
0.0
  0
SPLINE
  5
EFA
330
BA7
100
AcDbEntity
  8
241
  6
CONTINUOUS
100
AcDbSpline
210
0.0
220
0.0
230
1.0
 70
     8
 71
     3
 72
     9
 73
     5
 74
     3
 42
0.0000000001
 43
0.0000000001
 44
0.0000000001
 40
0.0
 40
0.0
 40
0.0
 40
0.0
 40
8.630480605859949
 40
17.26096121171992
 40
17.26096121171992
 40
17.26096121171992
 40
17.26096121171992
 10
12.05000000000001
 20
-23.9378794759736
 30
0.0
 10
13.07897345545484
 20
-21.14403604601706
 30
0.0
 10
15.13692036636451
 20
-15.55634918610397
 30
0.0
 10
13.07897345545484
 20
-9.968662326190868
 30
0.0
 10
12.05000000000001
 20
-7.174818896234313
 30
0.0
 11
12.05000000000001
 21
-23.9378794759736
 31
0.0
 11
14.10794691090967
 21
-15.55634918610397
 31
0.0
 11
12.05000000000001
 21
-7.174818896234313
 31
0.0
  0
LINE
  5
EFB
330
BA7
100
AcDbEntity
  8
241
  6
CONTINUOUS
100
AcDbLine
 10
12.05
 20
-7.1748189
 30
0.0
 11
12.05
 21
-23.93787948
 31
0.0
  0
LINE
  5
EFC
330
BA7
100
AcDbEntity
  8
241
100
AcDbLine
 10
-2.19993752
 20
-16.40000332
 30
0.0
 11
-2.19993752
 21
0.0
 31
0.0
  0
LINE
  5
EFD
330
BA7
100
AcDbEntity
  8
241
100
AcDbLine
 10
0.0
 20
-16.40000332
 30
0.0
 11
0.0
 21
0.0
 31
0.0
  0
LINE
  5
EFE
330
BA7
100
AcDbEntity
  8
240
  6
CONTINUOUS
100
AcDbLine
 10
0.0
 20
-24.99
 30
0.0
 11
0.0
 21
-16.40000332
 31
0.0
  0
LINE
  5
EFF
330
BA7
100
AcDbEntity
  8
240
100
AcDbLine
 10
-2.19993752
 20
-16.40000332
 30
0.0
 11
0.0
 21
-16.40000332
 31
0.0
  0
LINE
  5
F00
330
BA7
100
AcDbEntity
  8
241
  6
CONTINUOUS
100
AcDbLine
 10
7.95
 20
-23.93787948
 30
0.0
 11
12.05
 21
-23.93787948
 31
0.0
  0
LINE
  5
F01
330
BA7
100
AcDbEntity
  8
241
100
AcDbLine
 10
0.0
 20
16.40000332
 30
0.0
 11
0.0
 21
0.0
 31
0.0
  0
LINE
  5
F02
330
BA7
100
AcDbEntity
  8
241
100
AcDbLine
 10
-2.19993752
 20
16.40000332
 30
0.0
 11
-2.19993752
 21
0.0
 31
0.0
  0
LINE
  5
F03
330
BA7
100
AcDbEntity
  8
240
100
AcDbLine
 10
-2.19993752
 20
16.40000332
 30
0.0
 11
0.0
 21
16.40000332
 31
0.0
  0
LINE
  5
F04
330
BA7
100
AcDbEntity
  8
241
  6
CONTINUOUS
100
AcDbLine
 10
7.95
 20
-7.1748189
 30
0.0
 11
12.05
 21
-7.1748189
 31
0.0
  0
LINE
  5
F05
330
BA7
100
AcDbEntity
  8
241
  6
CONTINUOUS
100
AcDbLine
 10
7.95
 20
7.1748189
 30
0.0
 11
12.05
 21
7.1748189
 31
0.0
  0
LINE
  5
F06
330
BA7
100
AcDbEntity
  8
241
100
AcDbLine
 10
22.0
 20
0.0
 30
0.0
 11
22.0
 21
-24.99
 31
0.0
  0
LINE
  5
F07
330
BA7
100
AcDbEntity
  8
240
100
AcDbLine
 10
28.38258335
 20
-24.99
 30
0.0
 11
38.37258335
 21
-15.0
 31
0.0
  0
LINE
  5
F08
330
BA7
100
AcDbEntity
  8
243
100
AcDbLine
 10
36.00000035
 20
-17.25
 30
0.0
 11
36.00000035
 21
-17.372583
 31
0.0
  0
LINE
  5
F09
330
BA7
100
AcDbEntity
  8
240
  6
CONTINUOUS
100
AcDbLine
 10
0.0
 20
24.99
 30
0.0
 11
22.0
 21
24.99
 31
0.0
  0
LINE
  5
F0A
330
BA7
100
AcDbEntity
  8
241
  6
CONTINUOUS
100
AcDbLine
 10
7.95
 20
23.93787948
 30
0.0
 11
12.05
 21
23.93787948
 31
0.0
  0
ARC
  5
F0B
330
BA7
100
AcDbEntity
  8
240
100
AcDbCircle
 10
35.82848544
 20
40.17151491
 30
0.0
 40
4.0
100
AcDbArc
 50
45.0
 51
135.00007747
  0
CIRCLE
  5
F0C
330
BA7
100
AcDbEntity
  8
242
100
AcDbCircle
 10
35.69491382
 20
31.81980515
 30
0.0
 40
4.25
  0
CIRCLE
  5
F0D
330
BA7
100
AcDbEntity
  8
241
100
AcDbCircle
 10
35.69491382
 20
31.81980515
 30
0.0
 40
5.0
  0
LWPOLYLINE
  5
F0E
330
BA7
100
AcDbEntity
  8
241
100
AcDbPolyline
 90
        6
 70
     1
 43
0.0
 10
32.90652614
 20
32.56695138
 10
33.65367237
 20
29.7785637
 10
36.44206005
 20
29.03141747
 10
38.4833015
 20
31.07265893
 10
37.73615527
 20
33.86104661
 10
34.94776759
 20
34.60819283
  0
LINE
  5
F0F
330
BA7
100
AcDbEntity
  8
245
100
AcDbLine
 10
39.93755451
 20
36.06244584
 30
0.0
 11
31.45227313
 21
27.57716447
 31
0.0
  0
LINE
  5
F10
330
BA7
100
AcDbEntity
  8
240
100
AcDbLine
 10
22.0
 20
30.34299502
 30
0.0
 11
22.0
 21
24.99
 31
0.0
  0
SPLINE
  5
F11
330
BA7
100
AcDbEntity
  8
240
100
AcDbSpline
210
0.0
220
0.0
230
1.0
 70
    12
 71
     2
 72
     6
 73
     3
 74
     0
 42
0.0000000001
 43
0.0000000001
 40
2.79015416972691
 40
2.79015416972691
 40
2.79015416972691
 40
17.07109624923381
 40
17.07109624923381
 40
17.07109624923381
 10
33.00005448987738
 20
42.99993821079704
 30
0.0
 41
1.003298913322204
 10
27.4517210990723
 20
37.45158981636331
 30
0.0
 41
1.010091927437605
 10
23.17157287525259
 20
33.17142214343766
 30
0.0
 41
1.0
  0
SPLINE
  5
F12
330
BA7
100
AcDbEntity
  8
240
100
AcDbSpline
210
0.0
220
0.0
230
1.0
 70
     8
 71
     3
 72
    12
 73
     8
 74
     0
 42
0.0000000001
 43
0.0000000001
 40
2.961927829514634
 40
2.961927829514634
 40
2.961927829514634
 40
2.961927829514634
 40
3.702408090585771
 40
3.702408090585771
 40
4.442892120101143
 40
4.442892120101143
 40
5.050403966178745
 40
5.050403966178745
 40
5.050403966178745
 40
5.050403966178745
 10
23.17157287525464
 20
33.17142214343971
 30
0.0
 10
22.9970402368196
 20
32.9968887119237
 30
0.0
 10
22.82364802850014
 20
32.78905602021426
 30
0.0
 10
22.52459769056048
 20
32.34149418745664
 30
0.0
 10
22.39893980880214
 20
32.10176487719582
 30
0.0
 10
22.22698831736346
 20
31.68663610976421
 30
0.0
 10
22.15845050210389
 20
31.47921110710877
 30
0.0
 10
22.10768902570856
 20
31.26489432552921
 30
0.0
  0
SPLINE
  5
F13
330
BA7
100
AcDbEntity
  8
240
100
AcDbSpline
210
0.0
220
0.0
230
1.0
 70
    24
 71
     3
 72
     8
 73
     4
 74
     0
 42
0.0000000001
 43
0.0000000001
 40
-0.0998573147924047
 40
-0.0998573147924047
 40
-0.0998573147924047
 40
-0.0998573147924047
 40
0.0
 40
0.0
 40
0.0
 40
0.0
 10
22.10768902570856
 20
31.26489432552921
 30
0.0
 10
22.10766858020741
 20
31.26491477103025
 30
0.0
 10
22.10765840269999
 20
31.26492494853778
 30
0.0
 10
22.10765840269999
 20
31.26492494853778
 30
0.0
  0
ARC
  5
F14
330
BA7
100
AcDbEntity
  8
240
100
AcDbCircle
 10
26.0
 20
30.34314575
 30
0.0
 40
4.0
100
AcDbArc
 50
166.67673964
 51
180.0
  0
CIRCLE
  5
F15
330
BA7
100
AcDbEntity
  8
242
100
AcDbCircle
 10
44.53374859
 20
22.98097039
 30
0.0
 40
4.25
  0
CIRCLE
  5
F16
330
BA7
100
AcDbEntity
  8
241
100
AcDbCircle
 10
44.53374859
 20
22.98097039
 30
0.0
 40
5.0
  0
LWPOLYLINE
  5
F17
330
BA7
100
AcDbEntity
  8
241
100
AcDbPolyline
 90
        6
 70
     1
 43
0.0
 10
41.74536091
 20
23.72811662
 10
42.49250713
 20
20.93972894
 10
45.28089481
 20
20.19258271
 10
47.32213627
 20
22.23382416
 10
46.57499004
 20
25.02221184
 10
43.78660236
 20
25.76935807
  0
LINE
  5
F18
330
BA7
100
AcDbEntity
  8
245
100
AcDbLine
 10
48.77638927
 20
27.22361108
 30
0.0
 11
40.2911079
 21
18.7383297
 31
0.0
  0
LINE
  5
F19
330
BA7
100
AcDbEntity
  8
240
100
AcDbLine
 10
122.0
 20
32.9646447
 30
0.0
 11
122.0
 21
0.0
 31
0.0
  0
LINE
  5
F1A
330
BA7
100
AcDbEntity
  8
241
100
AcDbLine
 10
146.9
 20
31.26489433
 30
0.0
 11
146.9
 21
0.0
 31
0.0
  0
ARC
  5
F1B
330
BA7
100
AcDbEntity
  8
241
100
AcDbCircle
 10
56.20101048
 20
14.14213556
 30
0.0
 40
8.0
100
AcDbArc
 50
315.0
 51
45.0
  0
LINE
  5
F1C
330
BA7
100
AcDbEntity
  8
245
100
AcDbLine
 10
147.0
 20
48.0
 30
0.0
 11
147.0
 21
-48.0
 31
0.0
  0
CIRCLE
  5
F1D
330
BA7
100
AcDbEntity
  8
246
100
AcDbCircle
 10
147.0
 20
0.0
 30
0.0
 40
47.0
  0
LINE
  5
F1E
330
BA7
100
AcDbEntity
  8
240
100
AcDbLine
 10
187.0
 20
10.60660172
 30
0.0
 11
187.0
 21
21.0
 31
0.0
  0
LINE
  5
F1F
330
BA7
100
AcDbEntity
  8
241
100
AcDbLine
 10
167.0
 20
3.53553391
 30
0.0
 11
167.0
 21
28.53035279
 31
0.0
  0
SPLINE
  5
F20
330
BA7
100
AcDbEntity
  8
240
100
AcDbSpline
210
0.0
220
0.0
230
1.0
 70
     8
 71
     3
 72
    22
 73
    18
 74
     0
 42
0.0000000001
 43
0.0000000001
 40
0.0
 40
0.0
 40
0.0
 40
0.0
 40
2.150708720641063
 40
2.150708720641063
 40
4.301417441282129
 40
4.301417441282129
 40
6.452126161923197
 40
6.452126161923197
 40
8.602834882564261
 40
8.602834882564261
 40
10.75354360320533
 40
10.75354360320533
 40
12.90425232384639
 40
12.90425232384639
 40
15.05496104448746
 40
15.05496104448746
 40
17.20566976512853
 40
17.20566976512853
 40
17.20566976512853
 40
17.20566976512853
 10
121.9999999999997
 20
-0.0000000000001705
 30
0.0
 10
121.9999999999997
 20
-0.6728920481802449
 30
0.0
 10
122.0273212021296
 20
-1.359196423807077
 30
0.0
 10
122.1412582907509
 20
-2.743184621715895
 30
0.0
 10
122.2278794222912
 20
-3.440858168051761
 30
0.0
 10
122.4612774948168
 20
-4.832034582036783
 30
0.0
 10
122.6080663774119
 20
-5.525595621768331
 30
0.0
 10
122.958854146947
 20
-6.893615806753075
 30
0.0
 10
123.1628479743122
 20
-7.568064171812181
 30
0.0
 10
123.6213413668915
 20
-8.883903000315227
 30
0.0
 10
123.8760504110909
 20
-9.525905982656862
 30
0.0
 10
124.4265015952052
 20
-10.76555150227471
 30
0.0
 10
124.7222248754146
 20
-11.36318573531883
 30
0.0
 10
125.3418521344821
 20
-12.50383483717351
 30
0.0
 10
125.6657682708238
 20
-13.04691768127571
 30
0.0
 10
126.3269175882195
 20
-14.07107558266345
 30
0.0
 10
126.6641157283703
 20
-14.55215430449465
 30
0.0
 10
126.9999999999997
 20
-15.00000000000015
 30
0.0
  0
ARC
  5
F21
330
BA7
100
AcDbEntity
  8
240
100
AcDbCircle
 10
67.51471897
 20
7.07106781
 30
0.0
 40
5.0
100
AcDbArc
 50
315.0
 51
45.0
  0
LINE
  5
F22
330
BA7
100
AcDbEntity
  8
241
100
AcDbLine
 10
61.85786473
 20
8.48528131
 30
0.0
 11
53.72613676
 21
0.35355337
 31
0.0
  0
LINE
  5
F23
330
BA7
100
AcDbEntity
  8
240
100
AcDbLine
 10
64.33273846
 20
-3.18198052
 30
0.0
 11
71.05025288
 21
3.53553391
 31
0.0
  0
ARC
  5
F24
330
BA7
100
AcDbEntity
  8
240
100
AcDbCircle
 10
60.79720455
 20
0.35355339
 30
0.0
 40
5.0
100
AcDbArc
 50
225.0
 51
315.0
  0
LINE
  5
F25
330
BA7
100
AcDbEntity
  8
240
100
AcDbLine
 10
57.26167065
 20
-3.18198052
 30
0.0
 11
53.72613676
 21
0.35355337
 31
0.0
  0
ARC
  5
F26
330
BA7
100
AcDbEntity
  8
240
100
AcDbCircle
 10
155.0
 20
7.0
 30
0.0
 40
32.00000000000001
100
AcDbArc
 50
270.0
 51
340.0032487
  0
LINE
  5
F27
330
BA7
100
AcDbEntity
  8
241
100
AcDbLine
 10
167.0
 20
0.0
 30
0.0
 11
146.9
 21
0.0
 31
0.0
  0
ARC
  5
F28
330
BA7
100
AcDbEntity
  8
241
100
AcDbCircle
 10
136.0
 20
-9.372583
 30
0.0
 40
8.000000000000008
100
AcDbArc
 50
180.0
 51
0.0
  0
SPLINE
  5
F29
330
BA7
100
AcDbEntity
  8
241
100
AcDbSpline
210
0.0
220
0.0
230
1.0
 70
     8
 71
     3
 72
    67
 73
    63
 74
     0
 42
0.0000000001
 43
0.0000000001
 40
-28.38071336693157
 40
-28.38071336693157
 40
-28.38071336693157
 40
-28.38071336693157
 40
-27.65081274874981
 40
-27.65081274874981
 40
-26.41258014232089
 40
-26.41258014232089
 40
-25.17434753589199
 40
-25.17434753589199
 40
-23.90197364552026
 40
-23.90197364552026
 40
-22.62959975514852
 40
-22.62959975514852
 40
-21.3572258647768
 40
-21.3572258647768
 40
-20.08485197440508
 40
-20.08485197440508
 40
-18.81247808403335
 40
-18.81247808403335
 40
-17.54010419366163
 40
-17.54010419366163
 40
-16.2677303032899
 40
-16.2677303032899
 40
-14.99535641291817
 40
-14.99535641291817
 40
-13.75712380648927
 40
-13.75712380648927
 40
-12.51889120006036
 40
-12.51889120006036
 40
-11.28065859363144
 40
-11.28065859363144
 40
-10.04242598720254
 40
-10.04242598720254
 40
-8.804193380773629
 40
-8.804193380773629
 40
-7.565960774344715
 40
-7.565960774344715
 40
-6.327728167915807
 40
-6.327728167915807
 40
-5.089495561486899
 40
-5.089495561486899
 40
-3.817121671115172
 40
-3.817121671115172
 40
-2.544747780743449
 40
-2.544747780743449
 40
-1.272373890371724
 40
-1.272373890371724
 40
0.0
 40
0.0
 40
0.0
 40
1.272373890371725
 40
1.272373890371725
 40
2.544747780743451
 40
2.544747780743451
 40
3.817121671115176
 40
3.817121671115176
 40
5.089495561486902
 40
5.089495561486902
 40
6.327728167915814
 40
6.327728167915814
 40
7.565960774344723
 40
7.565960774344723
 40
8.295861392526482
 40
8.295861392526482
 40
8.295861392526482
 40
8.295861392526482
 10
134.2499999999996
 20
-5.000000000000167
 30
0.0
 10
134.0118929606635
 20
-5.069447886473141
 30
0.0
 10
133.7786239427948
 20
-5.152934368118676
 30
0.0
 10
133.1699171654871
 20
-5.411946260554657
 30
0.0
 10
132.8079030691948
 20
-5.611692299790036
 30
0.0
 10
132.1454011018643
 20
-6.063866897222568
 30
0.0
 10
131.8448576438165
 20
-6.316307591351401
 30
0.0
 10
131.3090208435599
 20
-6.852144391607962
 30
0.0
 10
131.0548655778247
 20
-7.156979215405557
 30
0.0
 10
130.604471402657
 20
-7.820151832607906
 30
0.0
 10
130.4080597710928
 20
-8.178423883272955
 30
0.0
 10
130.0869879897635
 20
-8.934237988967597
 30
0.0
 10
129.9620231215519
 20
-9.332421241908321
 30
0.0
 10
129.7934903547574
 20
-10.15311066897859
 30
0.0
 10
129.7499999999996
 20
-10.57587536987619
 30
0.0
 10
129.7499999999996
 20
-11.42412463012402
 30
0.0
 10
129.7934903547574
 20
-11.84688933102182
 30
0.0
 10
129.9620231215519
 20
-12.66757875809213
 30
0.0
 10
130.0869879897635
 20
-13.06576201103274
 30
0.0
 10
130.4080597710928
 20
-13.82157611672738
 30
0.0
 10
130.604471402657
 20
-14.17984816739232
 30
0.0
 10
131.0548655778247
 20
-14.84302078459466
 30
0.0
 10
131.3090208435599
 20
-15.14785560839226
 30
0.0
 10
131.8448576438165
 20
-15.68369240864882
 30
0.0
 10
132.1454011018643
 20
-15.93613310277766
 30
0.0
 10
132.8079030691948
 20
-16.3883077002103
 30
0.0
 10
133.1699171654871
 20
-16.58805373944557
 30
0.0
 10
133.9358415145013
 20
-16.91396355759883
 30
0.0
 10
134.3406329322359
 20
-17.04040596918224
 30
0.0
 10
135.1663270250755
 20
-17.20846138031441
 30
0.0
 10
135.5872557978567
 20
-17.25000000000017
 30
0.0
 10
136.4127442021427
 20
-17.25000000000017
 30
0.0
 10
136.8336729749239
 20
-17.20846138031441
 30
0.0
 10
137.6593670677634
 20
-17.04040596918224
 30
0.0
 10
138.064158485498
 20
-16.91396355759883
 30
0.0
 10
138.8300828345123
 20
-16.58805373944557
 30
0.0
 10
139.1920969308044
 20
-16.3883077002103
 30
0.0
 10
139.8545988981352
 20
-15.93613310277766
 30
0.0
 10
140.1551423561828
 20
-15.68369240864882
 30
0.0
 10
140.6909791564394
 20
-15.14785560839226
 30
0.0
 10
140.9451344221748
 20
-14.84302078459466
 30
0.0
 10
141.3955285973425
 20
-14.17984816739232
 30
0.0
 10
141.5919402289065
 20
-13.82157611672738
 30
0.0
 10
141.913012010236
 20
-13.06576201103274
 30
0.0
 10
142.0379768784474
 20
-12.66757875809213
 30
0.0
 10
142.2065096452421
 20
-11.84688933102182
 30
0.0
 10
142.2499999999996
 20
-11.42412463012402
 30
0.0
 10
142.2499999999996
 20
-11.00000000000016
 30
0.0
 10
142.2499999999996
 20
-10.57587536987619
 30
0.0
 10
142.2065096452421
 20
-10.15311066897859
 30
0.0
 10
142.0379768784474
 20
-9.332421241908321
 30
0.0
 10
141.913012010236
 20
-8.934237988967597
 30
0.0
 10
141.5919402289065
 20
-8.178423883272955
 30
0.0
 10
141.3955285973425
 20
-7.820151832607906
 30
0.0
 10
140.9451344221748
 20
-7.156979215405557
 30
0.0
 10
140.6909791564394
 20
-6.852144391607962
 30
0.0
 10
140.1551423561828
 20
-6.316307591351401
 30
0.0
 10
139.8545988981352
 20
-6.063866897222568
 30
0.0
 10
139.1920969308044
 20
-5.611692299790036
 30
0.0
 10
138.8300828345123
 20
-5.411946260554657
 30
0.0
 10
138.2213760572043
 20
-5.152934368118676
 30
0.0
 10
137.9881070393357
 20
-5.069447886473141
 30
0.0
 10
137.7499999999995
 20
-5.000000000000167
 30
0.0
  0
ARC
  5
F2A
330
BA7
100
AcDbEntity
  8
240
100
AcDbCircle
 10
147.0
 20
0.0
 30
0.0
 40
25.0
100
AcDbArc
 50
216.86989765
 51
270.0
  0
LINE
  5
F2B
330
BA7
100
AcDbEntity
  8
240
100
AcDbLine
 10
147.0
 20
-25.0
 30
0.0
 11
155.0
 21
-25.0
 31
0.0
  0
ARC
  5
F2C
330
BA7
100
AcDbEntity
  8
241
100
AcDbCircle
 10
136.0
 20
-5.0
 30
0.0
 40
8.000000000000001
100
AcDbArc
 50
0.0
 51
180.0
  0
LINE
  5
F2D
330
BA7
100
AcDbEntity
  8
241
100
AcDbLine
 10
128.0
 20
-9.372583
 30
0.0
 11
128.0
 21
-5.0
 31
0.0
  0
SPLINE
  5
F2E
330
BA7
100
AcDbEntity
  8
241
100
AcDbSpline
210
0.0
220
0.0
230
1.0
 70
     8
 71
     3
 72
    14
 73
    10
 74
     0
 42
0.0000000001
 43
0.0000000001
 40
11.78638634767829
 40
11.78638634767829
 40
11.78638634767829
 40
11.78638634767829
 40
12.46132098562892
 40
12.46132098562892
 40
13.51382867343163
 40
13.51382867343163
 40
14.56633636123433
 40
14.56633636123433
 40
15.24127099918497
 40
15.24127099918497
 40
15.24127099918497
 40
15.24127099918497
 10
137.7499999999995
 20
-5.000000000000167
 30
0.0
 10
137.5269273745395
 20
-4.934937150907613
 30
0.0
 10
137.2990237476092
 20
-4.882057703244356
 30
0.0
 10
136.7120642349749
 20
-4.780094789522705
 30
0.0
 10
136.3508358959341
 20
-4.750000000000167
 30
0.0
 10
135.6491641040655
 20
-4.750000000000167
 30
0.0
 10
135.2879357650242
 20
-4.780094789522705
 30
0.0
 10
134.7009762523904
 20
-4.882057703244356
 30
0.0
 10
134.47307262546
 20
-4.934937150907613
 30
0.0
 10
134.2499999999996
 20
-5.000000000000167
 30
0.0
  0
LINE
  5
F2F
330
BA7
100
AcDbEntity
  8
241
100
AcDbLine
 10
144.0
 20
-5.0
 30
0.0
 11
144.0
 21
-9.372583
 31
0.0
  0
LINE
  5
F30
330
BA7
100
AcDbEntity
  8
241
100
AcDbLine
 10
187.0
 20
10.60660172
 30
0.0
 11
167.0
 21
10.60660172
 31
0.0
  0
LINE
  5
F31
330
BA7
100
AcDbEntity
  8
241
100
AcDbLine
 10
171.0
 20
3.53553391
 30
0.0
 11
171.0
 21
-3.18198052
 31
0.0
  0
LINE
  5
F32
330
BA7
100
AcDbEntity
  8
241
100
AcDbLine
 10
167.0
 20
-3.18198052
 30
0.0
 11
167.0
 21
3.53553391
 31
0.0
  0
LINE
  5
F33
330
BA7
100
AcDbEntity
  8
241
100
AcDbLine
 10
171.0
 20
-3.18198052
 30
0.0
 11
167.0
 21
-3.18198052
 31
0.0
  0
LINE
  5
F34
330
BA7
100
AcDbEntity
  8
241
100
AcDbLine
 10
176.46546187
 20
-4.64644661
 30
0.0
 11
167.0
 21
-4.64644661
 31
0.0
  0
LINE
  5
F35
330
BA7
100
AcDbEntity
  8
241
100
AcDbLine
 10
167.0
 20
-4.64644661
 30
0.0
 11
167.0
 21
-3.18198052
 31
0.0
  0
LINE
  5
F36
330
BA7
100
AcDbEntity
  8
241
100
AcDbLine
 10
167.0
 20
3.53553391
 30
0.0
 11
171.0
 21
3.53553391
 31
0.0
  0
ARC
  5
F37
330
BA7
100
AcDbEntity
  8
240
100
AcDbCircle
 10
155.0
 20
7.0
 30
0.0
 40
32.0
100
AcDbArc
 50
340.0032487
 51
0.0
  0
LINE
  5
F38
330
BA7
100
AcDbEntity
  8
240
100
AcDbLine
 10
187.0
 20
7.0
 30
0.0
 11
187.0
 21
10.06645418
 31
0.0
  0
LINE
  5
F39
330
BA7
100
AcDbEntity
  8
240
100
AcDbLine
 10
187.0
 20
10.60660172
 30
0.0
 11
187.0
 21
10.06645418
 31
0.0
  0
SPLINE
  5
F3A
330
BA7
100
AcDbEntity
  8
240
100
AcDbSpline
210
0.0
220
0.0
230
1.0
 70
     8
 71
     3
 72
    14
 73
    10
 74
     0
 42
0.0000000001
 43
0.0000000001
 40
8.66658682233033
 40
8.66658682233033
 40
8.66658682233033
 40
8.66658682233033
 40
9.592205673171523
 40
9.592205673171523
 40
12.21168997696677
 40
12.21168997696677
 40
14.83117428076202
 40
14.83117428076202
 40
17.45065858455726
 40
17.45065858455726
 40
17.45065858455726
 40
17.45065858455726
 10
124.5703446466493
 20
41.30262413601343
 30
0.0
 10
124.3871677986742
 20
41.06604054937696
 30
0.0
 10
124.213529744218
 20
40.81858984294689
 30
0.0
 10
123.5855504777275
 20
39.83528480351168
 30
0.0
 10
123.1992514031704
 20
39.03440682103489
 30
0.0
 10
122.58729718728
 20
37.35349441136492
 30
0.0
 10
122.3618779898759
 20
36.47315085486735
 30
0.0
 10
122.0681394548562
 20
34.7055289640478
 30
0.0
 10
121.9999999999997
 20
33.81822201831511
 30
0.0
 10
121.9999999999997
 20
32.96464470388702
 30
0.0
  0
LINE
  5
F3B
330
BA7
100
AcDbEntity
  8
241
100
AcDbLine
 10
61.85786473
 20
19.79898987
 30
0.0
 11
61.85786473
 21
19.79898981
 31
0.0
  0
SPLINE
  5
F3C
330
BA7
100
AcDbEntity
  8
240
100
AcDbSpline
210
0.0
220
0.0
230
1.0
 70
     8
 71
     3
 72
    17
 73
    13
 74
     0
 42
0.0000000001
 43
0.0000000001
 40
-0.0998573147924047
 40
-0.0998573147924047
 40
-0.0998573147924047
 40
-0.0998573147924047
 40
0.0
 40
0.0
 40
0.0
 40
3.461220095329618
 40
3.461220095329618
 40
6.922440190659236
 40
6.922440190659236
 40
10.38366028598884
 40
10.38366028598884
 40
13.0226993235083
 40
13.0226993235083
 40
13.0226993235083
 40
13.0226993235083
 10
146.8999999999998
 20
31.26489432552904
 30
0.0
 10
146.933380634379
 20
31.26491477102995
 30
0.0
 10
146.9667142284023
 20
31.2649249485376
 30
0.0
 10
146.9999999999996
 20
31.2649249485376
 30
0.0
 10
148.1537400317763
 20
31.2649249485376
 30
0.0
 10
149.3649362656763
 20
31.25351005323778
 30
0.0
 10
151.8371057201154
 20
31.19109065901017
 30
0.0
 10
153.0980496026494
 20
31.13950652998261
 30
0.0
 10
155.603855143372
 20
30.96566911480812
 30
0.0
 10
156.8488111225294
 20
30.84276094796456
 30
0.0
 10
158.9703675761254
 20
30.54320481266774
 30
0.0
 10
159.864284744856
 20
30.38638639389029
 30
0.0
 10
160.72050338901
 20
30.20101047598364
 30
0.0
  0
SPLINE
  5
F3D
330
BA7
100
AcDbEntity
  8
240
100
AcDbSpline
210
0.0
220
0.0
230
1.0
 70
     8
 71
     3
 72
    10
 73
     6
 74
     0
 42
0.0000000001
 43
0.0000000001
 40
-9.166912235730448
 40
-9.166912235730448
 40
-9.166912235730448
 40
-9.166912235730448
 40
-4.056300879641574
 40
-4.056300879641574
 40
-2.139052771932869
 40
-2.139052771932869
 40
-2.139052771932869
 40
-2.139052771932869
 10
128.9266937516946
 20
43.27520109451228
 30
0.0
 10
130.3899505454676
 20
43.76536240856689
 30
0.0
 10
131.781620455284
 20
44.02859304208113
 30
0.0
 10
133.9103688106145
 20
44.17030514879814
 30
0.0
 10
134.486181531807
 20
44.18563720840956
 30
0.0
 10
135.0700674793346
 20
44.18494670065427
 30
0.0
  0
LINE
  5
F3E
330
BA7
100
AcDbEntity
  8
240
100
AcDbLine
 10
146.9
 20
31.26489433
 30
0.0
 11
146.9
 21
44.1849467
 31
0.0
  0
SPLINE
  5
F3F
330
BA7
100
AcDbEntity
  8
240
100
AcDbSpline
210
0.0
220
0.0
230
1.0
 70
     8
 71
     3
 72
    10
 73
     6
 74
     0
 42
0.0000000001
 43
0.0000000001
 40
-19.68465596620555
 40
-19.68465596620555
 40
-19.68465596620555
 40
-19.68465596620555
 40
-18.04064113221436
 40
-18.04064113221436
 40
-17.56262104535626
 40
-17.56262104535626
 40
-17.56262104535626
 40
-17.56262104535626
 10
127.0000000000682
 20
42.52108182946215
 30
0.0
 10
127.503015994775
 20
42.74334567466275
 30
0.0
 10
128.0113651308188
 20
42.94479181215018
 30
0.0
 10
128.6398226948456
 20
43.17433266027721
 30
0.0
 10
128.7826549593119
 20
43.22518769324839
 30
0.0
 10
128.9266937516946
 20
43.27520109451228
 30
0.0
  0
SPLINE
  5
F40
330
BA7
100
AcDbEntity
  8
240
100
AcDbSpline
210
0.0
220
0.0
230
1.0
 70
     8
 71
     3
 72
     8
 73
     4
 74
     0
 42
0.0000000001
 43
0.0000000001
 40
-1.259773322840346
 40
-1.259773322840346
 40
-1.259773322840346
 40
-1.259773322840346
 40
-0.0030749680522293
 40
-0.0030749680522293
 40
-0.0030749680522293
 40
-0.0030749680522293
 10
127.0000000000682
 20
42.52108182946215
 30
0.0
 10
126.6414073813252
 20
42.36263324106556
 30
0.0
 10
126.2738674256147
 20
42.18528494553305
 30
0.0
 10
125.904515348186
 20
41.99976818156364
 30
0.0
  0
SPLINE
  5
F41
330
BA7
100
AcDbEntity
  8
240
100
AcDbSpline
210
0.0
220
0.0
230
1.0
 70
     8
 71
     3
 72
     8
 73
     4
 74
     0
 42
0.0000000001
 43
0.0000000001
 40
-34.88311370772267
 40
-34.88311370772267
 40
-34.88311370772267
 40
-34.88311370772267
 40
-34.78503558993775
 40
-34.78503558993775
 40
-34.78503558993775
 40
-34.78503558993775
 10
124.6688052345682
 20
41.35598796242645
 30
0.0
 10
124.6355646798104
 20
41.3380388977568
 30
0.0
 10
124.602744922914
 20
41.32025209750366
 30
0.0
 10
124.5703446466493
 20
41.30262413601343
 30
0.0
  0
SPLINE
  5
F42
330
BA7
100
AcDbEntity
  8
240
100
AcDbSpline
210
0.0
220
0.0
230
1.0
 70
     8
 71
     3
 72
    12
 73
     8
 74
     0
 42
0.0000000001
 43
0.0000000001
 40
2.037334200926216
 40
2.037334200926216
 40
2.037334200926216
 40
2.037334200926216
 40
2.120651579891235
 40
2.120651579891235
 40
3.180977369836856
 40
3.180977369836856
 40
3.401117901202263
 40
3.401117901202263
 40
3.401117901202263
 40
3.401117901202263
 10
125.904515348186
 20
41.99976818156364
 30
0.0
 10
125.8789986826247
 20
41.98695176733045
 30
0.0
 10
125.8534748711919
 20
41.9741026390231
 30
0.0
 10
125.5031078216116
 20
41.79732064939861
 30
0.0
 10
125.1774288292047
 20
41.62814420266971
 30
0.0
 10
124.7977913610635
 20
41.42544394338296
 30
0.0
 10
124.7330054329937
 20
41.39065445706608
 30
0.0
 10
124.6688052345682
 20
41.35598796242645
 30
0.0
  0
LINE
  5
F43
330
BA7
100
AcDbEntity
  8
240
100
AcDbLine
 10
146.9
 20
44.1849467
 30
0.0
 11
135.07006748
 21
44.1849467
 31
0.0
  0
ARC
  5
F44
330
BA7
100
AcDbEntity
  8
240
100
AcDbCircle
 10
147.0
 20
0.0
 30
0.0
 40
46.99999999999998
100
AcDbArc
 50
36.86989765
 51
64.81566347
  0
SPLINE
  5
F45
330
BA7
100
AcDbEntity
  8
240
100
AcDbSpline
210
0.0
220
0.0
230
1.0
 70
    12
 71
     2
 72
     6
 73
     3
 74
     0
 42
0.0000000001
 43
0.0000000001
 40
0.0
 40
0.0
 40
0.0
 40
7.420454544504312
 40
7.420454544504312
 40
7.420454544504312
 10
160.7205033890003
 20
30.20101047598478
 30
0.0
 41
1.0
 10
163.8602516945002
 20
29.52123816770694
 30
0.0
 41
1.0
 10
166.9999999999996
 20
28.53035279126634
 30
0.0
 41
1.0
  0
LINE
  5
F46
330
BA7
100
AcDbEntity
  8
240
100
AcDbLine
 10
167.0
 20
42.53234064
 30
0.0
 11
167.0
 21
28.53035279
 31
0.0
  0
ARC
  5
F47
330
BA7
100
AcDbEntity
  8
240
100
AcDbCircle
 10
175.0
 20
21.0
 30
0.0
 40
11.99999999999999
100
AcDbArc
 50
0.0
 51
36.86989765
  0
ENDBLK
  5
BA9
330
BA7
100
AcDbEntity
  8
0
100
AcDbBlockEnd
  0
ENDSEC
  0
SECTION
  2
ENTITIES
  0
INSERT
  5
6E6
330
1A
100
AcDbEntity
  8
245
100
AcDbBlockReference
  2
矢印なし
 10
175.62382697
 20
90.55123572
 30
0.0
  0
DIMENSION
  5
823
330
1A
100
AcDbEntity
  8
250
  6
CONTINUOUS
100
AcDbDimension
  2
*D2
 10
72.51471897
 20
56.0
 30
0.0
 11
36.25735949
 21
56.0
 31
0.0
 70
   160
  1
（72.5）
  3
BIGT$0
100
AcDbAlignedDimension
 13
0.0
 23
24.99
 33
0.0
 14
72.51471897
 24
7.07106781
 34
0.0
100
AcDbRotatedDimension
1001
ACAD
1000
DSTYLE
1002
{
1070
    41
1040
2.0
1002
}
  0
TEXT
  5
876
330
1A
100
AcDbEntity
  8
241
100
AcDbText
 10
-30.0
 20
70.0
 30
0.0
 40
5.0
  1
C5-45-BH20R-5838
  7
YOKO
 11
-30.0
 21
70.0
 31
0.0
100
AcDbText
 73
     1
  0
DIMENSION
  5
991
330
1A
100
AcDbEntity
  8
250
  6
CONTINUOUS
100
AcDbDimension
  2
*D4
 10
167.0
 20
56.0
 30
0.0
 11
157.0
 21
58.5
 31
0.0
 70
    32
  1
□<>
  3
BIGT$0
100
AcDbAlignedDimension
 13
147.0
 23
48.0
 33
0.0
 14
167.0
 24
42.53234064
 34
0.0
100
AcDbRotatedDimension
  0
DIMENSION
  5
9A7
330
1A
100
AcDbEntity
  8
250
  6
CONTINUOUS
100
AcDbDimension
  2
*D5
 10
179.42374416
 20
-34.02500279
 30
0.0
 11
131.56370535
 21
16.19862179
 31
0.0
 70
   163
  1
（{\H2.8;\U+2205}<>）
  3
BIGT
100
AcDbDiametricDimension
 15
114.57625584
 25
34.02500279
 35
0.0
 40
0.0
1001
ACAD
1000
DSTYLE
1002
{
1070
   287
1070
     0
1070
   287
1070
     0
1070
   287
1070
     0
1070
   287
1070
     0
1070
     3
1000
<>
1070
   288
1070
     1
1070
   289
1070
     0
1002
}
  0
LEADER
  5
E92
330
1A
100
AcDbEntity
  8
250
  6
CONTINUOUS
100
AcDbLeader
  3
BIGT$7
 76
     2
 10
-12.69342942
 20
-16.13764293
 30
0.0
 10
-17.55153517
 20
-24.55212892
 30
0.0
1001
ACAD
1000
DSTYLE
1002
{
1070
     5
1000
OPEN
1070
    41
1040
2.0
1070
    42
1040
2.0
1070
    44
1040
2.0
1070
    79
1070
     2
1070
   140
1040
4.0
1070
   179
1070
     3
1070
   342
1005
594
1070
   371
1070
    -1
1070
   372
1070
    -1
1002
}
  0
MTEXT
  5
E95
330
1A
100
AcDbEntity
  8
251
  6
CONTINUOUS
100
AcDbMText
 10
-25.01820183
 20
-23.55212892
 30
0.0
 40
2.8
 41
0.0
 71
     7
 72
     1
  1
C5
  7
YOKO
1001
ITEMNAME
1000
LNSP3
1001
ACAD
1000
MTEXTBEGIN
1070
    73
1070
     1
1070
    44
1040
1.0
1070
    74
1070
     0
1000
MTEXTEND
1000
MTEXTBEGIN
1070
    73
1070
     1
1070
    44
1040
1.0
1070
    74
1070
     0
1000
MTEXTEND
1000
MTEXTBEGIN
1070
    73
1070
     1
1070
    44
1040
1.0
1070
    74
1070
     0
1000
MTEXTEND
  0
LINE
  5
E96
330
1A
100
AcDbEntity
  8
250
  6
CONTINUOUS
100
AcDbLine
 10
-17.55153517
 20
-24.55212892
 30
0.0
 11
-27.81820183
 21
-24.55212892
 31
0.0
1001
ITEMNAME
1000
LNSP2
  0
INSERT
  5
F48
330
1A
100
AcDbEntity
  8
245
100
AcDbBlockReference
  2
1
 10
0.0
 20
0.0
 30
0.0
  0
VIEWPORT
  5
22
330
17
100
AcDbEntity
 67
     1
  8
0
100
AcDbViewport
 10
261.51769912
 20
148.5
 30
0.0
 40
523.03539823
 41
297.0
 68
     1
 69
     1
1001
ACAD
1000
MVIEW
1002
{
1070
    16
1010
0.0
1020
0.0
1030
0.0
1010
0.0
1020
0.0
1030
1.0
1040
0.0
1040
297.0
1040
261.51769912
1040
148.5
1040
50.0
1040
0.0
1040
0.0
1070
     0
1070
   100
1070
     1
1070
     1
1070
     0
1070
     0
1070
     0
1070
     0
1040
0.0
1040
0.0
1040
0.0
1040
1.0
1040
1.0
1040
10.0
1040
10.0
1070
     0
1002
{
1002
}
1002
}
  0
ENDSEC
  0
SECTION
  2
OBJECTS
  0
DICTIONARY
  5
C
330
0
100
AcDbDictionary
  3
ACAD_GROUP
350
D
  3
ACAD_LAYOUT
350
565
  3
ACAD_MLINESTYLE
350
E
  3
ACAD_PLOTSETTINGS
350
566
  3
ACAD_PLOTSTYLENAME
350
563
  3
ACDBHEADERROUNDTRIPXREC
350
F4A
  3
GRADE_DWG
350
540
  0
DICTIONARY
  5
B02
330
1A
100
AcDbDictionary
280
     1
  3
ACAD_LAYOUTSELFREF
360
F6C
  0
DICTIONARY
  5
B00
330
17
100
AcDbDictionary
280
     1
  3
ACAD_LAYOUTSELFREF
360
F6B
  0
DICTIONARY
  5
D
102
{ACAD_REACTORS
330
C
102
}
330
C
100
AcDbDictionary
  3
*A1
350
6C7
  3
*A2
350
6C8
  3
*A3
350
6D4
  3
*A4
350
6D5
  3
DREC-1
350
5FC
  3
DREC-2
350
654
  3
DREC-3
350
673
  0
DICTIONARY
  5
565
102
{ACAD_REACTORS
330
C
102
}
330
C
100
AcDbDictionary
  0
DICTIONARY
  5
E
102
{ACAD_REACTORS
330
C
102
}
330
C
100
AcDbDictionary
  3
STANDARD
350
13
  0
DICTIONARY
  5
566
102
{ACAD_REACTORS
330
C
102
}
330
C
100
AcDbDictionary
  3
A3_0_5倍_
350
758
  3
A3_1倍_
350
757
  3
A3_1倍__2000_
350
707
  3
A3_2倍_
350
759
  3
A4_0_5倍_
350
755
  3
A4_1倍_
350
754
  3
A4_1倍__2000_
350
708
  3
A4_2倍_
350
756
  0
ACDBDICTIONARYWDFLT
  5
563
102
{ACAD_REACTORS
330
C
102
}
330
C
100
AcDbDictionary
281
     1
  3
Normal
350
564
100
AcDbDictionaryWithDefault
340
564
  0
DICTIONARY
  5
F4A
102
{ACAD_REACTORS
330
C
102
}
330
C
100
AcDbDictionary
  3
CEPSNTYPE
350
F54
  3
DIMSTYLEDATA
350
F58
  3
FINGERPRINTGUID
350
F55
  3
HYPERLINKBASE
350
F4D
  3
INSUNITS
350
F53
  3
LAYOUTDICT
350
F4F
  3
LWETCUNION
350
F52
  3
PLOTSETDICT
350
F50
  3
PLOTSTYLNAMDICT
350
F51
  3
PSVPSCALE
350
F57
  3
PUCSBASE
350
F5B
  3
PUCSORGBACK
350
F61
  3
PUCSORGBOTTOM
350
F5D
  3
PUCSORGFRONT
350
F60
  3
PUCSORGLEFT
350
F5E
  3
PUCSORGRIGHT
350
F5F
  3
PUCSORGTOP
350
F5C
  3
PUCSORTHOREF
350
F59
  3
PUCSORTHOVIEW
350
F5A
  3
STYLESHEET
350
F4E
  3
TSTACKALIGN
350
F4B
  3
TSTACKSIZE
350
F4C
  3
UCSBASE
350
F64
  3
UCSORGBACK
350
F6A
  3
UCSORGBOTTOM
350
F66
  3
UCSORGFRONT
350
F69
  3
UCSORGLEFT
350
F67
  3
UCSORGRIGHT
350
F68
  3
UCSORGTOP
350
F65
  3
UCSORTHOREF
350
F62
  3
UCSORTHOVIEW
350
F63
  3
VERSIONGUID
350
F56
  0
DICTIONARY
  5
540
102
{ACAD_REACTORS
330
C
102
}
330
C
100
AcDbDictionary
  3
VERSION
350
560
  0
XRECORD
  5
F6C
102
{ACAD_REACTORS
330
B02
102
}
330
B02
100
AcDbXrecord
340
1A
  0
XRECORD
  5
F6B
102
{ACAD_REACTORS
330
B00
102
}
330
B00
100
AcDbXrecord
340
17
  0
GROUP
  5
6C7
102
{ACAD_REACTORS
330
D
102
}
330
D
100
AcDbGroup
300

 70
     0
 71
     1
1001
GRPNAME
1000
DMA00
  0
GROUP
  5
6C8
102
{ACAD_REACTORS
330
D
102
}
330
D
100
AcDbGroup
300

 70
     0
 71
     1
1001
GRPNAME
1000
DMA00
  0
GROUP
  5
6D4
102
{ACAD_REACTORS
330
D
102
}
330
D
100
AcDbGroup
300

 70
     0
 71
     1
1001
GRPNAME
1000
DMA00
  0
GROUP
  5
6D5
102
{ACAD_REACTORS
330
D
102
}
330
D
100
AcDbGroup
300

 70
     0
 71
     1
1001
GRPNAME
1000
DMA00
  0
GROUP
  5
5FC
102
{ACAD_REACTORS
330
D
102
}
330
D
100
AcDbGroup
300

 70
     0
 71
     1
1001
GRPNAME
1000
DREC-
1001
GPARA
1000
xsiz
1000
44.182
1000
ysiz
1000
40.677
1000
angl
1000
0
1000
ctyp
1000
0
1000
csiz
1000
5
1000
lfnt
1000
cont
1000
hcnt
1000
hoff
1000
vcnt
1000
voff
1000
opnt
1000
4
1000
dxpt
1000
0
1000
dypt
1000
0
  0
GROUP
  5
654
102
{ACAD_REACTORS
330
D
102
}
330
D
100
AcDbGroup
300

 70
     0
 71
     1
1001
GRPNAME
1000
DREC-
1001
GPARA
1000
xsiz
1000
54.592
1000
ysiz
1000
53.036
1000
angl
1000
0
1000
ctyp
1000
0
1000
csiz
1000
5
1000
lfnt
1000
cont
1000
hcnt
1000
hoff
1000
vcnt
1000
voff
1000
opnt
1000
4
1000
dxpt
1000
0
1000
dypt
1000
0
  0
GROUP
  5
673
102
{ACAD_REACTORS
330
D
102
}
330
D
100
AcDbGroup
300

 70
     0
 71
     1
1001
GRPNAME
1000
DREC-
1001
GPARA
1000
xsiz
1000
30.363
1000
ysiz
1000
36.175
1000
angl
1000
0
1000
ctyp
1000
0
1000
csiz
1000
5
1000
lfnt
1000
cont
1000
hcnt
1000
hoff
1000
vcnt
1000
voff
1000
opnt
1000
4
1000
dxpt
1000
0
1000
dypt
1000
0
  0
MLINESTYLE
  5
13
102
{ACAD_REACTORS
330
E
102
}
330
E
100
AcDbMlineStyle
  2
STANDARD
 70
     0
  3

 62
     0
 51
90.0
 52
90.0
 71
     2
 49
0.5
 62
   256
  6
BYLAYER
 49
-0.5
 62
   256
  6
BYLAYER
  0
PLOTSETTINGS
  5
758
102
{ACAD_REACTORS
330
566
102
}
330
566
100
AcDbPlotSettings
  1
A3(0.5倍)
  2
\\AWTECPC05\HP DeskJet 1120C
  4
A3
  6

 40
5.95841646
 41
13.49375153
 42
6.04309082
 43
3.67242432
 44
296.92599487
 45
419.94665527
 46
89.96
 47
127.14
 48
0.0
 49
0.0
140
0.0
141
0.0
142
1.0
143
2.0
 70
  1716
 72
     1
 73
     1
 74
     2
  7
big.ctb
 75
    17
147
0.5
148
0.0
149
0.0
  0
PLOTSETTINGS
  5
757
102
{ACAD_REACTORS
330
566
102
}
330
566
100
AcDbPlotSettings
  1
A3(1倍)
  2
\\AWTECPC05\HP DeskJet 1120C
  4
A3
  6

 40
5.95841646
 41
13.49375153
 42
6.04309082
 43
3.67242432
 44
296.92599487
 45
419.94665527
 46
37.46
 47
52.89
 48
0.0
 49
0.0
140
0.0
141
0.0
142
1.0
143
1.0
 70
  1716
 72
     1
 73
     1
 74
     2
  7
big.ctb
 75
    16
147
1.0
148
0.0
149
0.0
  0
PLOTSETTINGS
  5
707
102
{ACAD_REACTORS
330
566
102
}
330
566
100
AcDbPlotSettings
  1
A3(1倍)(2000)
  2
SII LS-1300 (D-SCAN)
  4
User258
  6

 40
3.17499995
 41
3.17499995
 42
3.17498779
 43
3.17498779
 44
419.98898315
 45
296.98950195
 46
58.32
 47
40.32
 48
0.0
 49
0.0
140
0.0
141
0.0
142
1.0
143
1.0
 70
  1716
 72
     1
 73
     0
 74
     2
  7
big.ctb
 75
    16
147
1.0
148
0.0
149
0.0
  0
PLOTSETTINGS
  5
759
102
{ACAD_REACTORS
330
566
102
}
330
566
100
AcDbPlotSettings
  1
A3(2倍)
  2
\\AWTECPC05\HP DeskJet 1120C
  4
A3
  6

 40
5.95841646
 41
13.49375153
 42
6.04309082
 43
3.67242432
 44
296.92599487
 45
419.94665527
 46
-67.54
 47
-95.61
 48
0.0
 49
0.0
140
0.0
141
0.0
142
1.0
143
0.5
 70
  1716
 72
     1
 73
     1
 74
     2
  7
big.ctb
 75
    27
147
2.0
148
0.0
149
0.0
  0
PLOTSETTINGS
  5
755
102
{ACAD_REACTORS
330
566
102
}
330
566
100
AcDbPlotSettings
  1
A4(0.5倍)
  2
\\AWTECPC05\HP DeskJet 1120C
  4
A4
  6

 40
4.18041658
 41
13.49374962
 42
4.18040466
 43
3.92642212
 44
209.97332764
 45
296.92599487
 46
48.31
 47
65.5
 48
0.0
 49
0.0
140
0.0
141
0.0
142
1.0
143
2.0
 70
  1716
 72
     1
 73
     1
 74
     2
  7
big.ctb
 75
    17
147
0.5
148
0.0
149
0.0
  0
PLOTSETTINGS
  5
754
102
{ACAD_REACTORS
330
566
102
}
330
566
100
AcDbPlotSettings
  1
A4(1倍)
  2
\\AWTECPC05\HP DeskJet 1120C
  4
A4
  6

 40
4.18041658
 41
13.49374962
 42
4.18040466
 43
3.92642212
 44
209.97332764
 45
296.92599487
 46
-4.19
 47
-8.75
 48
0.0
 49
0.0
140
0.0
141
0.0
142
1.0
143
1.0
 70
  1716
 72
     1
 73
     1
 74
     2
  7
big.ctb
 75
    16
147
1.0
148
0.0
149
0.0
  0
PLOTSETTINGS
  5
708
102
{ACAD_REACTORS
330
566
102
}
330
566
100
AcDbPlotSettings
  1
A4(1倍)(2000)
  2
SII LS-1300 (D-SCAN)
  4
User259
  6

 40
3.17499995
 41
3.17499995
 42
3.17498779
 43
3.17500305
 44
296.98950195
 45
209.99449158
 46
-3.18
 47
-3.18
 48
0.0
 49
0.0
140
0.0
141
0.0
142
1.0
143
1.0
 70
  1716
 72
     1
 73
     0
 74
     2
  7
big.ctb
 75
    16
147
1.0
148
0.0
149
0.0
  0
PLOTSETTINGS
  5
756
102
{ACAD_REACTORS
330
566
102
}
330
566
100
AcDbPlotSettings
  1
A4(2倍)
  2
\\AWTECPC05\HP DeskJet 1120C
  4
A4
  6

 40
4.18041658
 41
13.49374962
 42
4.18040466
 43
3.92642212
 44
209.97332764
 45
296.92599487
 46
-109.19
 47
-157.25
 48
0.0
 49
0.0
140
0.0
141
0.0
142
1.0
143
0.5
 70
  1716
 72
     1
 73
     1
 74
     2
  7
big.ctb
 75
    27
147
2.0
148
0.0
149
0.0
  0
ACDBPLACEHOLDER
  5
564
102
{ACAD_REACTORS
330
563
102
}
330
563
100
AcDbPlaceHolder
280
     0
  0
XRECORD
  5
F54
102
{ACAD_REACTORS
330
F4A
102
}
330
F4A
100
AcDbXrecord
 90
        0
  0
XRECORD
  5
F58
102
{ACAD_REACTORS
330
F4A
102
}
330
F4A
100
AcDbXrecord
1000
DSTYLE
1002
{
1070
    79
 70
     2
1070
   179
 70
     3
1070
   341
340
594
1070
   343
340
594
1070
   344
340
594
1070
   371
 70
    -1
1070
   372
 70
    -1
1002
}
  0
XRECORD
  5
F55
102
{ACAD_REACTORS
330
F4A
102
}
330
F4A
100
AcDbXrecord
  1
{51294030-9CB4-11D3-8E18-00A0C925D94D}
  0
XRECORD
  5
F4D
102
{ACAD_REACTORS
330
F4A
102
}
330
F4A
100
AcDbXrecord
  1

  0
XRECORD
  5
F53
102
{ACAD_REACTORS
330
F4A
102
}
330
F4A
100
AcDbXrecord
 90
        0
  0
XRECORD
  5
F4F
102
{ACAD_REACTORS
330
F4A
102
}
330
F4A
100
AcDbXrecord
340
565
  0
XRECORD
  5
F52
102
{ACAD_REACTORS
330
F4A
102
}
330
F4A
100
AcDbXrecord
 90
    10781
  0
XRECORD
  5
F50
102
{ACAD_REACTORS
330
F4A
102
}
330
F4A
100
AcDbXrecord
340
566
  0
XRECORD
  5
F51
102
{ACAD_REACTORS
330
F4A
102
}
330
F4A
100
AcDbXrecord
340
563
  0
XRECORD
  5
F57
102
{ACAD_REACTORS
330
F4A
102
}
330
F4A
100
AcDbXrecord
 40
0.0
  0
XRECORD
  5
F5B
102
{ACAD_REACTORS
330
F4A
102
}
330
F4A
100
AcDbXrecord
340
0
  0
XRECORD
  5
F61
102
{ACAD_REACTORS
330
F4A
102
}
330
F4A
100
AcDbXrecord
 10
0.0
 20
0.0
 30
0.0
  0
XRECORD
  5
F5D
102
{ACAD_REACTORS
330
F4A
102
}
330
F4A
100
AcDbXrecord
 10
0.0
 20
0.0
 30
0.0
  0
XRECORD
  5
F60
102
{ACAD_REACTORS
330
F4A
102
}
330
F4A
100
AcDbXrecord
 10
0.0
 20
0.0
 30
0.0
  0
XRECORD
  5
F5E
102
{ACAD_REACTORS
330
F4A
102
}
330
F4A
100
AcDbXrecord
 10
0.0
 20
0.0
 30
0.0
  0
XRECORD
  5
F5F
102
{ACAD_REACTORS
330
F4A
102
}
330
F4A
100
AcDbXrecord
 10
0.0
 20
0.0
 30
0.0
  0
XRECORD
  5
F5C
102
{ACAD_REACTORS
330
F4A
102
}
330
F4A
100
AcDbXrecord
 10
0.0
 20
0.0
 30
0.0
  0
XRECORD
  5
F59
102
{ACAD_REACTORS
330
F4A
102
}
330
F4A
100
AcDbXrecord
340
0
  0
XRECORD
  5
F5A
102
{ACAD_REACTORS
330
F4A
102
}
330
F4A
100
AcDbXrecord
 70
     0
  0
XRECORD
  5
F4E
102
{ACAD_REACTORS
330
F4A
102
}
330
F4A
100
AcDbXrecord
  1
big.ctb
  0
XRECORD
  5
F4B
102
{ACAD_REACTORS
330
F4A
102
}
330
F4A
100
AcDbXrecord
 90
        1
  0
XRECORD
  5
F4C
102
{ACAD_REACTORS
330
F4A
102
}
330
F4A
100
AcDbXrecord
 90
       70
  0
XRECORD
  5
F64
102
{ACAD_REACTORS
330
F4A
102
}
330
F4A
100
AcDbXrecord
340
0
  0
XRECORD
  5
F6A
102
{ACAD_REACTORS
330
F4A
102
}
330
F4A
100
AcDbXrecord
 10
0.0
 20
0.0
 30
0.0
  0
XRECORD
  5
F66
102
{ACAD_REACTORS
330
F4A
102
}
330
F4A
100
AcDbXrecord
 10
0.0
 20
0.0
 30
0.0
  0
XRECORD
  5
F69
102
{ACAD_REACTORS
330
F4A
102
}
330
F4A
100
AcDbXrecord
 10
0.0
 20
0.0
 30
0.0
  0
XRECORD
  5
F67
102
{ACAD_REACTORS
330
F4A
102
}
330
F4A
100
AcDbXrecord
 10
0.0
 20
0.0
 30
0.0
  0
XRECORD
  5
F68
102
{ACAD_REACTORS
330
F4A
102
}
330
F4A
100
AcDbXrecord
 10
0.0
 20
0.0
 30
0.0
  0
XRECORD
  5
F65
102
{ACAD_REACTORS
330
F4A
102
}
330
F4A
100
AcDbXrecord
 10
0.0
 20
0.0
 30
0.0
  0
XRECORD
  5
F62
102
{ACAD_REACTORS
330
F4A
102
}
330
F4A
100
AcDbXrecord
340
0
  0
XRECORD
  5
F63
102
{ACAD_REACTORS
330
F4A
102
}
330
F4A
100
AcDbXrecord
 70
     0
  0
XRECORD
  5
F56
102
{ACAD_REACTORS
330
F4A
102
}
330
F4A
100
AcDbXrecord
  1
{8CE106EE-D1C0-487C-AFD3-442276432D0D}
  0
XRECORD
  5
560
102
{ACAD_REACTORS
330
540
102
}
330
540
100
AcDbXrecord
  1
2.0.0
  0
ENDSEC
  0
EOF
