  0
SECTION
  2
HEADER
  9
$ACADVER
  1
AC1014
  9
$ACADMAINTVER
 70
     9
  9
$DWGCODEPAGE
  3
ANSI_932
  9
$INSBASE
 10
0.0
 20
0.0
 30
0.0
  9
$EXTMIN
 10
-31.01376238
 20
-50.00947538
 30
-0.00152582
  9
$EXTMAX
 10
211.01611409
 20
54.00653276
 30
0.00000003
  9
$LIMMIN
 10
0.0
 20
0.0
  9
$LIMMAX
 10
420.0
 20
297.0
  9
$ORTHOMODE
 70
     0
  9
$REGENMODE
 70
     1
  9
$FILLMODE
 70
     1
  9
$QTEXTMODE
 70
     0
  9
$MIRRTEXT
 70
     1
  9
$DRAGMODE
 70
     2
  9
$LTSCALE
 40
10.0
  9
$OSMODE
 70
   549
  9
$ATTMODE
 70
     1
  9
$TEXTSIZE
 40
3.0
  9
$TRACEWID
 40
1.0
  9
$TEXTSTYLE
  7
YOKO
  9
$CLAYER
  8
245
  9
$CELTYPE
  6
BYLAYER
  9
$CECOLOR
 62
   256
  9
$CELTSCALE
 40
1.0
  9
$DELOBJ
 70
     1
  9
$DISPSILH
 70
     0
  9
$DIMSCALE
 40
1.0
  9
$DIMASZ
 40
2.23
  9
$DIMEXO
 40
0.5
  9
$DIMDLI
 40
2.5
  9
$DIMRND
 40
0.0
  9
$DIMDLE
 40
0.0
  9
$DIMEXE
 40
1.0
  9
$DIMTP
 40
0.0
  9
$DIMTM
 40
0.0
  9
$DIMTXT
 40
2.8
  9
$DIMCEN
 40
0.0
  9
$DIMTSZ
 40
0.0
  9
$DIMTOL
 70
     0
  9
$DIMLIM
 70
     0
  9
$DIMTIH
 70
     0
  9
$DIMTOH
 70
     0
  9
$DIMSE1
 70
     0
  9
$DIMSE2
 70
     0
  9
$DIMTAD
 70
     3
  9
$DIMZIN
 70
     8
  9
$DIMBLK
  1

  9
$DIMASO
 70
     1
  9
$DIMSHO
 70
     1
  9
$DIMPOST
  1

  9
$DIMAPOST
  1

  9
$DIMALT
 70
     0
  9
$DIMALTD
 70
     2
  9
$DIMALTF
 40
25.4
  9
$DIMLFAC
 40
1.0
  9
$DIMTOFL
 70
     1
  9
$DIMTVP
 40
0.0
  9
$DIMTIX
 70
     1
  9
$DIMSOXD
 70
     0
  9
$DIMSAH
 70
     1
  9
$DIMBLK1
  1
OPEN
  9
$DIMBLK2
  1
OPEN
  9
$DIMSTYLE
  2
BIGT
  9
$DIMCLRD
 70
   256
  9
$DIMCLRE
 70
   256
  9
$DIMCLRT
 70
    40
  9
$DIMTFAC
 40
1.0
  9
$DIMGAP
 40
1.0
  9
$DIMJUST
 70
     0
  9
$DIMSD1
 70
     0
  9
$DIMSD2
 70
     0
  9
$DIMTOLJ
 70
     1
  9
$DIMTZIN
 70
     8
  9
$DIMALTZ
 70
     0
  9
$DIMALTTZ
 70
     0
  9
$DIMFIT
 70
     3
  9
$DIMUPT
 70
     0
  9
$DIMUNIT
 70
     2
  9
$DIMDEC
 70
     3
  9
$DIMTDEC
 70
     3
  9
$DIMALTU
 70
     2
  9
$DIMALTTD
 70
     2
  9
$DIMTXSTY
  7
STANDARD
  9
$DIMAUNIT
 70
     0
  9
$LUNITS
 70
     2
  9
$LUPREC
 70
     3
  9
$SKETCHINC
 40
1.0
  9
$FILLETRAD
 40
0.0
  9
$AUNITS
 70
     0
  9
$AUPREC
 70
     3
  9
$MENU
  1
.
  9
$ELEVATION
 40
0.0
  9
$PELEVATION
 40
0.0
  9
$THICKNESS
 40
0.0
  9
$LIMCHECK
 70
     0
  9
$BLIPMODE
 70
     0
  9
$CHAMFERA
 40
10.0
  9
$CHAMFERB
 40
10.0
  9
$CHAMFERC
 40
0.0
  9
$CHAMFERD
 40
0.0
  9
$SKPOLY
 70
     0
  9
$TDCREATE
 40
2455106.444307176
  9
$TDUPDATE
 40
2455390.699862916
  9
$TDINDWG
 40
0.0210244792
  9
$TDUSRTIMER
 40
0.0210244792
  9
$USRTIMER
 70
     1
  9
$ANGBASE
 50
0.0
  9
$ANGDIR
 70
     0
  9
$PDMODE
 70
     1
  9
$PDSIZE
 40
-5.0
  9
$PLINEWID
 40
0.0
  9
$COORDS
 70
     1
  9
$SPLFRAME
 70
     0
  9
$SPLINETYPE
 70
     6
  9
$SPLINESEGS
 70
     8
  9
$ATTDIA
 70
     0
  9
$ATTREQ
 70
     1
  9
$HANDLING
 70
-16383
  9
$HANDSEED
  5
129C
  9
$SURFTAB1
 70
     6
  9
$SURFTAB2
 70
     6
  9
$SURFTYPE
 70
     6
  9
$SURFU
 70
     6
  9
$SURFV
 70
     6
  9
$UCSNAME
  2

  9
$UCSORG
 10
0.0
 20
0.0
 30
0.0
  9
$UCSXDIR
 10
1.0
 20
0.0
 30
0.0
  9
$UCSYDIR
 10
0.0
 20
1.0
 30
0.0
  9
$PUCSNAME
  2

  9
$PUCSORG
 10
0.0
 20
0.0
 30
0.0
  9
$PUCSXDIR
 10
1.0
 20
0.0
 30
0.0
  9
$PUCSYDIR
 10
0.0
 20
1.0
 30
0.0
  9
$USERI1
 70
     1
  9
$USERI2
 70
     0
  9
$USERI3
 70
     0
  9
$USERI4
 70
     0
  9
$USERI5
 70
     0
  9
$USERR1
 40
0.0
  9
$USERR2
 40
0.0
  9
$USERR3
 40
0.0
  9
$USERR4
 40
0.0
  9
$USERR5
 40
0.0
  9
$WORLDVIEW
 70
     1
  9
$SHADEDGE
 70
     3
  9
$SHADEDIF
 70
    70
  9
$TILEMODE
 70
     1
  9
$MAXACTVP
 70
    16
  9
$PINSBASE
 10
0.0
 20
0.0
 30
0.0
  9
$PLIMCHECK
 70
     0
  9
$PEXTMIN
 10
1.00000000E+20
 20
1.00000000E+20
 30
1.00000000E+20
  9
$PEXTMAX
 10
-1.00000000E+20
 20
-1.00000000E+20
 30
-1.00000000E+20
  9
$PLIMMIN
 10
0.0
 20
0.0
  9
$PLIMMAX
 10
420.0
 20
297.0
  9
$UNITMODE
 70
     0
  9
$VISRETAIN
 70
     0
  9
$PLINEGEN
 70
     0
  9
$PSLTSCALE
 70
     1
  9
$TREEDEPTH
 70
  3020
  9
$PICKSTYLE
 70
     0
  9
$CMLSTYLE
  2
STANDARD
  9
$CMLJUST
 70
     0
  9
$CMLSCALE
 40
1.0
  9
$PROXYGRAPHICS
 70
     1
  9
$MEASUREMENT
 70
     1
  0
ENDSEC
  0
SECTION
  2
CLASSES
  0
CLASS
  1
XRECORD
  2
AcDbXrecord
  3
AutoCAD 2000
 90
        0
280
     0
281
     0
  0
CLASS
  1
ACDBDICTIONARYWDFLT
  2
AcDbDictionaryWithDefault
  3
AutoCAD 2000
 90
        0
280
     0
281
     0
  0
CLASS
  1
ACDBPLACEHOLDER
  2
AcDbPlaceHolder
  3
AutoCAD 2000
 90
        0
280
     0
281
     0
  0
CLASS
  1
LAYOUT
  2
AcDbLayout
  3
AutoCAD 2000
 90
        0
280
     0
281
     0
  0
CLASS
  1
PLOTSETTINGS
  2
AcDbPlotSettings
  3
AutoCAD 2000
 90
        0
280
     0
281
     0
  0
CLASS
  1
LONG_TRANSACTION
  2
AcDbLongTransaction
  3
AutoCAD 2000
 90
        0
280
     0
281
     0
  0
CLASS
  1
LWPOLYLINE
  2
AcDbPolyline
  3
AutoCAD 2000
 90
        0
280
     0
281
     1
  0
CLASS
  1
HATCH
  2
AcDbHatch
  3
AutoCAD 2000
 90
        0
280
     0
281
     1
  0
CLASS
  1
XRECORD
  2
AcDbXrecord
  3
AutoCAD 2000
 90
        0
280
     0
281
     0
  0
CLASS
  1
LONG_TRANSACTION
  2
AcDbLongTransaction
  3
AutoCAD 2000
 90
        0
280
     0
281
     0
  0
CLASS
  1
LWPOLYLINE
  2
AcDbPolyline
  3
AutoCAD 2000
 90
        0
280
     0
281
     1
  0
CLASS
  1
HATCH
  2
AcDbHatch
  3
AutoCAD 2000
 90
        0
280
     0
281
     1
  0
CLASS
  1
XRECORD
  2
AcDbXrecord
  3
AutoCAD 2000
 90
        0
280
     0
281
     0
  0
CLASS
  1
LONG_TRANSACTION
  2
AcDbLongTransaction
  3
AutoCAD 2000
 90
        0
280
     0
281
     0
  0
CLASS
  1
LWPOLYLINE
  2
AcDbPolyline
  3
AutoCAD 2000
 90
        0
280
     0
281
     1
  0
CLASS
  1
HATCH
  2
AcDbHatch
  3
AutoCAD 2000
 90
        0
280
     0
281
     1
  0
CLASS
  1
XRECORD
  2
AcDbXrecord
  3
AutoCAD 2000
 90
        0
280
     0
281
     0
  0
CLASS
  1
LONG_TRANSACTION
  2
AcDbLongTransaction
  3
AutoCAD 2000
 90
        0
280
     0
281
     0
  0
CLASS
  1
LWPOLYLINE
  2
AcDbPolyline
  3
AutoCAD 2000
 90
        0
280
     0
281
     1
  0
CLASS
  1
HATCH
  2
AcDbHatch
  3
AutoCAD 2000
 90
        0
280
     0
281
     1
  0
CLASS
  1
XRECORD
  2
AcDbXrecord
  3
AutoCAD 2000
 90
        0
280
     0
281
     0
  0
CLASS
  1
LONG_TRANSACTION
  2
AcDbLongTransaction
  3
AutoCAD 2000
 90
        0
280
     0
281
     0
  0
CLASS
  1
LWPOLYLINE
  2
AcDbPolyline
  3
AutoCAD 2000
 90
        0
280
     0
281
     1
  0
CLASS
  1
HATCH
  2
AcDbHatch
  3
AutoCAD 2000
 90
        0
280
     0
281
     1
  0
CLASS
  1
XRECORD
  2
AcDbXrecord
  3
AutoCAD 2000
 90
        0
280
     0
281
     0
  0
ENDSEC
  0
SECTION
  2
TABLES
  0
TABLE
  2
VPORT
  5
8
330
0
100
AcDbSymbolTable
 70
     2
  0
VPORT
  5
1271
330
8
100
AcDbSymbolTableRecord
100
AcDbViewportTableRecord
  2
*ACTIVE
 70
     0
 10
0.0
 20
0.0
 11
1.0
 21
1.0
 12
90.00117586
 22
1.99852869
 13
0.0
 23
0.0
 14
7.0
 24
7.0
 15
7.0
 25
7.0
 16
0.0
 26
0.0
 36
1.0
 17
0.0
 27
0.0
 37
0.0
 40
167.12026565
 41
1.45595855
 42
50.0
 43
0.0
 44
0.0
 50
0.0
 51
0.0
 71
     0
 72
  2000
 73
     1
 74
     0
 75
     0
 76
     0
 77
     0
 78
     0
  0
ENDTAB
  0
TABLE
  2
LTYPE
  5
5
330
0
100
AcDbSymbolTable
 70
     4
  0
LTYPE
  5
14
330
5
100
AcDbSymbolTableRecord
100
AcDbLinetypeTableRecord
  2
BYBLOCK
 70
     0
  3

 72
    65
 73
     0
 40
0.0
  0
LTYPE
  5
15
330
5
100
AcDbSymbolTableRecord
100
AcDbLinetypeTableRecord
  2
BYLAYER
 70
     0
  3

 72
    65
 73
     0
 40
0.0
  0
LTYPE
  5
16
330
5
100
AcDbSymbolTableRecord
100
AcDbLinetypeTableRecord
  2
CONTINUOUS
 70
     0
  3
Solid line
 72
    65
 73
     0
 40
0.0
  0
LTYPE
  5
258
330
5
100
AcDbSymbolTableRecord
100
AcDbLinetypeTableRecord
  2
CENTER2
 70
     0
  3
___ _ ___ _ ___ _ ___ _ ___ _ ___ _ ___ _ ___ _
 72
    65
 73
     4
 40
1.125
 49
0.75
 74
     0
 49
-0.125
 74
     0
 49
0.125
 74
     0
 49
-0.125
 74
     0
  0
LTYPE
  5
25C
330
5
100
AcDbSymbolTableRecord
100
AcDbLinetypeTableRecord
  2
HIDDEN2
 70
     0
  3
_ _ _ _ _ _ _ _ _ _ _ _ _ _ _ _ _ _ _ _ _ _ _ _
 72
    65
 73
     2
 40
0.1875
 49
0.125
 74
     0
 49
-0.0625
 74
     0
  0
LTYPE
  5
25D
330
5
100
AcDbSymbolTableRecord
100
AcDbLinetypeTableRecord
  2
PHANTOM2
 70
     0
  3
___ _ _ ___ _ _ ___ _ _ ___ _ _ ___ _ _ ___ _ _
 72
    65
 73
     6
 40
1.25
 49
0.625
 74
     0
 49
-0.125
 74
     0
 49
0.125
 74
     0
 49
-0.125
 74
     0
 49
0.125
 74
     0
 49
-0.125
 74
     0
  0
ENDTAB
  0
TABLE
  2
LAYER
  5
2
330
0
100
AcDbSymbolTable
 70
     9
  0
LAYER
  5
F
330
2
100
AcDbSymbolTableRecord
100
AcDbLayerTableRecord
  2
0
 70
     0
 62
     7
  6
CONTINUOUS
  0
LAYER
  5
1AA
330
2
100
AcDbSymbolTableRecord
100
AcDbLayerTableRecord
  2
240
 70
     0
 62
     4
  6
CONTINUOUS
  0
LAYER
  5
1AB
330
2
100
AcDbSymbolTableRecord
100
AcDbLayerTableRecord
  2
241
 70
     0
 62
   211
  6
CONTINUOUS
  0
LAYER
  5
1AC
330
2
100
AcDbSymbolTableRecord
100
AcDbLayerTableRecord
  2
242
 70
     0
 62
     3
  6
CONTINUOUS
  0
LAYER
  5
1AF
330
2
100
AcDbSymbolTableRecord
100
AcDbLayerTableRecord
  2
245
 70
     0
 62
     2
  6
CENTER2
  0
LAYER
  5
21A
330
2
100
AcDbSymbolTableRecord
100
AcDbLayerTableRecord
  2
246
 70
     0
 62
     3
  6
PHANTOM2
  0
LAYER
  5
21E
330
2
100
AcDbSymbolTableRecord
100
AcDbLayerTableRecord
  2
250
 70
     0
 62
     3
  6
CONTINUOUS
  0
LAYER
  5
21F
330
2
100
AcDbSymbolTableRecord
100
AcDbLayerTableRecord
  2
251
 70
     0
 62
    40
  6
CONTINUOUS
  0
LAYER
  5
5C4
330
2
100
AcDbSymbolTableRecord
100
AcDbLayerTableRecord
  2
DEFPOINTS
 70
     0
 62
     7
  6
CONTINUOUS
  0
ENDTAB
  0
TABLE
  2
STYLE
  5
3
330
0
100
AcDbSymbolTable
 70
     2
  0
STYLE
  5
10
330
3
100
AcDbSymbolTableRecord
100
AcDbTextStyleTableRecord
  2
STANDARD
 70
     0
 40
0.0
 41
1.0
 50
0.0
 71
     0
 42
3.0
  3
romans.shx
  4
BIGFONT.SHX
  0
STYLE
  5
339
330
3
100
AcDbSymbolTableRecord
100
AcDbTextStyleTableRecord
  2
YOKO
 70
     0
 40
0.0
 41
1.0
 50
0.0
 71
     0
 42
3.0
  3
romans.shx
  4
extfont.shx
  0
ENDTAB
  0
TABLE
  2
VIEW
  5
6
330
0
100
AcDbSymbolTable
 70
     1
  0
VIEW
  5
10EF
330
6
100
AcDbSymbolTableRecord
100
AcDbViewTableRecord
  2
OLE1
 70
     0
 40
167.12026565
 10
90.00117586
 20
1.99852869
 41
243.32017952
 11
0.0
 21
0.0
 31
1.0
 12
0.0
 22
0.0
 32
0.0
 42
50.0
 43
0.0
 44
0.0
 50
0.0
 71
     0
  0
ENDTAB
  0
TABLE
  2
UCS
  5
7
330
0
100
AcDbSymbolTable
 70
     0
  0
ENDTAB
  0
TABLE
  2
APPID
  5
9
330
0
100
AcDbSymbolTable
 70
     9
  0
APPID
  5
11
330
9
100
AcDbSymbolTableRecord
100
AcDbRegAppTableRecord
  2
ACAD
 70
     0
  0
APPID
  5
1B1
330
9
100
AcDbSymbolTableRecord
100
AcDbRegAppTableRecord
  2
GLOBAL
 70
     0
  0
APPID
  5
2A4
330
9
100
AcDbSymbolTableRecord
100
AcDbRegAppTableRecord
  2
DETAIL
 70
     0
  0
APPID
  5
5FD
330
9
100
AcDbSymbolTableRecord
100
AcDbRegAppTableRecord
  2
GRPNAME
 70
     0
  0
APPID
  5
5FE
330
9
100
AcDbSymbolTableRecord
100
AcDbRegAppTableRecord
  2
GPARA
 70
     0
  0
APPID
  5
6C4
330
9
100
AcDbSymbolTableRecord
100
AcDbRegAppTableRecord
  2
DCO15
 70
     0
  0
APPID
  5
6C5
330
9
100
AcDbSymbolTableRecord
100
AcDbRegAppTableRecord
  2
ITEMNAME
 70
     0
  0
APPID
  5
6C6
330
9
100
AcDbSymbolTableRecord
100
AcDbRegAppTableRecord
  2
GRADE_0
 70
     0
  0
APPID
  5
A9D
330
9
100
AcDbSymbolTableRecord
100
AcDbRegAppTableRecord
  2
CONTENTBLOCKICON
 70
     0
  0
ENDTAB
  0
TABLE
  2
DIMSTYLE
  5
A
330
0
100
AcDbSymbolTable
 70
     3
  0
DIMSTYLE
105
725
102
{ACAD_REACTORS
330
8A2
102
}
330
A
100
AcDbSymbolTableRecord
100
AcDbDimStyleTableRecord
  2
BIGT
 70
     0
  3

  4

  5

  6
OPEN
  7
OPEN
 40
1.0
 41
2.23
 42
0.5
 43
2.5
 44
1.0
 45
0.0
 46
0.0
 47
0.0
 48
0.0
140
2.8
141
0.0
142
0.0
143
25.4
144
1.0
145
0.0
146
1.0
147
1.0
 71
     0
 72
     0
 73
     0
 74
     0
 75
     0
 76
     0
 77
     3
 78
     8
170
     0
171
     2
172
     1
173
     1
174
     1
175
     0
176
   256
177
   256
178
    40
270
     2
271
     3
272
     3
273
     2
274
     2
340
10
275
     0
280
     0
281
     0
282
     0
283
     1
284
     8
285
     0
286
     0
287
     3
288
     0
  0
DIMSTYLE
105
81D
102
{ACAD_REACTORS
330
8A1
330
8A3
330
8A4
330
915
330
AB1
102
}
330
A
100
AcDbSymbolTableRecord
100
AcDbDimStyleTableRecord
  2
BIGT$0
 70
     0
  3

  4
"
  5
OPEN
  6

  7

 40
1.0
 41
2.23
 42
0.5
 43
7.0
 44
1.0
 45
0.0
 46
0.0
 47
0.1
 48
0.1
140
3.0
141
0.0
142
0.0
143
0.0393701
144
1.0
145
0.0
146
0.71
147
1.0
 71
     0
 72
     0
 73
     0
 74
     0
 75
     0
 76
     0
 77
     3
 78
     8
170
     0
171
     2
172
     1
173
     0
174
     0
175
     0
176
     3
177
     3
178
    40
270
     2
271
     3
272
     3
273
     2
274
     2
340
10
275
     0
280
     0
281
     0
282
     0
283
     1
284
     8
285
     0
286
     0
287
     3
288
     0
  0
DIMSTYLE
105
81E
330
A
100
AcDbSymbolTableRecord
100
AcDbDimStyleTableRecord
  2
BIGT$7
 70
     0
  3

  4
"
  5
OPEN
  6

  7

 40
1.0
 41
2.5
 42
0.5
 43
7.0
 44
1.0
 45
0.0
 46
0.0
 47
0.1
 48
0.1
140
5.0
141
0.0
142
0.0
143
0.0393701
144
1.0
145
0.0
146
0.71
147
1.5
 71
     0
 72
     0
 73
     0
 74
     0
 75
     0
 76
     0
 77
     3
 78
     8
170
     0
171
     2
172
     1
173
     0
174
     0
175
     0
176
     3
177
     3
178
    40
270
     2
271
     3
272
     3
273
     2
274
     2
340
10
275
     0
280
     0
281
     0
282
     0
283
     1
284
     8
285
     0
286
     0
287
     3
288
     0
  0
ENDTAB
  0
TABLE
  2
BLOCK_RECORD
  5
1
330
0
100
AcDbSymbolTable
 70
     9
  0
BLOCK_RECORD
  5
1A
102
{ACAD_XDICTIONARY
360
A9B
102
}
330
1
100
AcDbSymbolTableRecord
100
AcDbBlockTableRecord
  2
*MODEL_SPACE
  0
BLOCK_RECORD
  5
17
102
{ACAD_XDICTIONARY
360
A99
102
}
330
1
100
AcDbSymbolTableRecord
100
AcDbBlockTableRecord
  2
*PAPER_SPACE
  0
BLOCK_RECORD
  5
594
330
1
100
AcDbSymbolTableRecord
100
AcDbBlockTableRecord
  2
_OPEN
  0
BLOCK_RECORD
  5
6E3
330
1
100
AcDbSymbolTableRecord
100
AcDbBlockTableRecord
  2
矢印なし
  0
BLOCK_RECORD
  5
76C
330
1
100
AcDbSymbolTableRecord
100
AcDbBlockTableRecord
  2
1
1001
CONTENTBLOCKICON
1071
        0
1004
2800000020000000200000000100080000000000000400000000000000000000000000000000000000000000000080000080000000808000800000008000800080800000C0C0C000C0DCC000F0CAA6000020400000206000002080000020A0000020C0000020E00000400000004020000040400000406000004080000040A0
1004
000040C0000040E00000600000006020000060400000606000006080000060A0000060C0000060E00000800000008020000080400000806000008080000080A0000080C0000080E00000A0000000A0200000A0400000A0600000A0800000A0A00000A0C00000A0E00000C0000000C0200000C0400000C0600000C0800000C0
1004
A00000C0C00000C0E00000E0000000E0200000E0400000E0600000E0800000E0A00000E0C00000E0E00040000000400020004000400040006000400080004000A0004000C0004000E00040200000402020004020400040206000402080004020A0004020C0004020E000404000004040200040404000404060004040800040
1004
40A0004040C0004040E00040600000406020004060400040606000406080004060A0004060C0004060E00040800000408020004080400040806000408080004080A0004080C0004080E00040A0000040A0200040A0400040A0600040A0800040A0A00040A0C00040A0E00040C0000040C0200040C0400040C0600040C08000
1004
40C0A00040C0C00040C0E00040E0000040E0200040E0400040E0600040E0800040E0A00040E0C00040E0E00080000000800020008000400080006000800080008000A0008000C0008000E00080200000802020008020400080206000802080008020A0008020C0008020E00080400000804020008040400080406000804080
1004
008040A0008040C0008040E00080600000806020008060400080606000806080008060A0008060C0008060E00080800000808020008080400080806000808080008080A0008080C0008080E00080A0000080A0200080A0400080A0600080A0800080A0A00080A0C00080A0E00080C0000080C0200080C0400080C0600080C0
1004
800080C0A00080C0C00080C0E00080E0000080E0200080E0400080E0600080E0800080E0A00080E0C00080E0E000C0000000C0002000C0004000C0006000C0008000C000A000C000C000C000E000C0200000C0202000C0204000C0206000C0208000C020A000C020C000C020E000C0400000C0402000C0404000C0406000C0
1004
408000C040A000C040C000C040E000C0600000C0602000C0604000C0606000C0608000C060A000C060C000C060E000C0800000C0802000C0804000C0806000C0808000C080A000C080C000C080E000C0A00000C0A02000C0A04000C0A06000C0A08000C0A0A000C0A0C000C0A0E000C0C00000C0C02000C0C04000C0C06000
1004
C0C08000C0C0A000F0FBFF00A4A0A000808080000000FF0000FF000000FFFF00FF000000FF00FF00FFFF0000FFFFFF0000000000000000000000000000000000000000000000000000000000000000000000000000000000000000000000000000000000000000000000000000000000000000000000000000000000000000
1004
00000000000000000000000000000000000000000000000000000000000000000000000000000000000000000000000000000000000000000000000000000000000000000000000000000000000000000000000000000000000000000000000000000000000000000000000000000000000000000000000000000000000000
1004
00000000000000000000000000000000000000000000000000000000000000000000000000000000000000000000000000000000000000000000000000000000000000000000000000000000000000000000000000000000000000000000000000000000000000000000000000000000000000000000000000000000000000
1004
000000000000000000000000FB00000000000000000000000000000000000000000000000000000000FAFAFAFBFAFA000000000000000000FEFEFEE7FEFEFEFEFEFEFEFE00000000FA0000E7FEFEFEFA0000000000000000FEE7E7E7FAE700E7FAFAE7FE000000FAFA00FEE7FB00E7FAFA00000000FEFEFEFEE7E7E7FAE7E7
1004
E7E7E7E7FE000000FA00E7E7E7FB00E700FE000000FBE7FBFBE7E7E7E7FBFBFBFBFBFBFBFE0000FBFBFBE7E7E7E7E7E7FBFEFB000000E70000E7E7E7E700000000000000FE000000FA00E7E700FB000000FE00000000FEFEFEFEE7E7E700000000000000FE000000FA00FEE7E7FBE7E7E7E700000000000000FEE7E7E70000
1004
00FEFEFEFE00000000FAFA00FEFEFBE7FEFEFE00000000000000FEFEFEFEFEFEFE000000000000000000FA000000FEFEFEFA00000000000000000000000000000000000000000000000000FAFAFAFBFAFA0000000000000000000000000000000000000000000000000000000000FB00000000000000000000000000000000
1004
00000000000000000000000000000000000000000000000000000000000000000000000000000000000000000000000000000000000000000000000000000000000000000000000000000000000000000000000000000000000000000000000000000000000000000000000000000000000000000000000000000000000000
1004
00000000000000000000000000000000000000000000000000000000000000000000000000000000000000000000000000000000000000000000000000000000000000000000000000000000000000000000000000000000000000000000000000000000000000000000000000000000000000000000000000000000000000
1004
0000000000000000000000000000000000000000000000000000000000000000000000000000000000000000000000000000000000000000
  0
BLOCK_RECORD
  5
8A5
330
1
100
AcDbSymbolTableRecord
100
AcDbBlockTableRecord
  2
*D3
  0
BLOCK_RECORD
  5
8AE
330
1
100
AcDbSymbolTableRecord
100
AcDbBlockTableRecord
  2
*D4
  0
BLOCK_RECORD
  5
8BA
330
1
100
AcDbSymbolTableRecord
100
AcDbBlockTableRecord
  2
*D5
  0
BLOCK_RECORD
  5
8D2
330
1
100
AcDbSymbolTableRecord
100
AcDbBlockTableRecord
  2
*D6
  0
BLOCK_RECORD
  5
916
330
1
100
AcDbSymbolTableRecord
100
AcDbBlockTableRecord
  2
*D7
  0
BLOCK_RECORD
  5
AB2
330
1
100
AcDbSymbolTableRecord
100
AcDbBlockTableRecord
  2
*D8
  0
ENDTAB
  0
ENDSEC
  0
SECTION
  2
BLOCKS
  0
BLOCK
  5
1B
330
1A
100
AcDbEntity
  8
0
100
AcDbBlockBegin
  2
*MODEL_SPACE
 70
     0
 10
0.0
 20
0.0
 30
0.0
  3
*MODEL_SPACE
  1

  0
ENDBLK
  5
1C
330
1A
100
AcDbEntity
  8
0
100
AcDbBlockEnd
  0
BLOCK
  5
18
330
17
100
AcDbEntity
 67
     1
  8
0
100
AcDbBlockBegin
  2
*PAPER_SPACE
 70
     0
 10
0.0
 20
0.0
 30
0.0
  3
*PAPER_SPACE
  1

  0
ENDBLK
  5
19
330
17
100
AcDbEntity
 67
     1
  8
0
100
AcDbBlockEnd
  0
BLOCK
  5
598
330
594
100
AcDbEntity
  8
0
100
AcDbBlockBegin
  2
_OPEN
 70
     0
 10
0.0
 20
0.0
 30
0.0
  3
_OPEN
  1

  0
LINE
  5
595
330
594
100
AcDbEntity
  8
0
  6
BYBLOCK
 62
     0
100
AcDbLine
 10
-1.0
 20
0.16666667
 30
0.0
 11
0.0
 21
0.0
 31
0.0
  0
LINE
  5
596
330
594
100
AcDbEntity
  8
0
  6
BYBLOCK
 62
     0
100
AcDbLine
 10
-1.0
 20
-0.16666667
 30
0.0
 11
0.0
 21
0.0
 31
0.0
  0
LINE
  5
597
330
594
100
AcDbEntity
  8
0
  6
BYBLOCK
 62
     0
100
AcDbLine
 10
0.0
 20
0.0
 30
0.0
 11
-1.0
 21
0.0
 31
0.0
  0
ENDBLK
  5
599
330
594
100
AcDbEntity
  8
0
100
AcDbBlockEnd
  0
BLOCK
  5
6E4
330
6E3
100
AcDbEntity
  8
0
100
AcDbBlockBegin
  2
矢印なし
 70
     0
 10
0.0
 20
0.0
 30
0.0
  3
矢印なし
  1

  0
ENDBLK
  5
6E5
330
6E3
100
AcDbEntity
  8
0
100
AcDbBlockEnd
  0
BLOCK
  5
7E2
330
76C
100
AcDbEntity
  8
0
100
AcDbBlockBegin
  2
1
 70
     0
 10
0.0
 20
0.0
 30
0.0
  3
1
  1

  0
ARC
  5
1208
330
76C
100
AcDbEntity
  8
240
100
AcDbCircle
 10
183.24859546
 20
-8.99888662
 30
0.0
 40
16.0
100
AcDbArc
 50
270.0
 51
337.97568716
  0
CIRCLE
  5
1209
330
76C
100
AcDbEntity
  8
246
100
AcDbCircle
 10
160.99657184
 20
0.00454154
 30
0.0
 40
40.0
  0
LINE
  5
120A
330
76C
100
AcDbEntity
  8
245
100
AcDbLine
 10
118.99657199
 20
0.00111338
 30
0.0
 11
202.9965717
 21
0.00111338
 31
0.0
  0
LINE
  5
120B
330
76C
100
AcDbEntity
  8
241
100
AcDbLine
 10
139.85856066
 20
13.34425929
 30
0.0
 11
198.70889096
 21
13.34425929
 31
0.0
  0
LINE
  5
120C
330
76C
100
AcDbEntity
  8
241
100
AcDbLine
 10
146.27498945
 20
20.20443153
 30
0.0
 11
194.67162844
 21
20.20443153
 31
0.0
  0
ARC
  5
120D
330
76C
100
AcDbEntity
  8
240
100
AcDbCircle
 10
183.24859546
 20
9.00111339
 30
0.0
 40
16.00000000000004
100
AcDbArc
 50
44.44364479
 51
78.99296979
  0
LINE
  5
120E
330
76C
100
AcDbEntity
  8
245
  6
CENTER2
 62
     2
100
AcDbLine
 10
33.5
 20
-14.9999999
 30
0.0
 11
85.5
 21
-14.9999952
 31
0.0
  0
LINE
  5
120F
330
76C
100
AcDbEntity
  8
241
  6
HIDDEN2
100
AcDbLine
 10
25.0
 20
-4.9998
 30
0.0
 11
90.0
 21
-4.9998
 31
0.0
  0
LINE
  5
1210
330
76C
100
AcDbEntity
  8
245
  6
CENTER2
100
AcDbLine
 10
-31.0
 20
0.0
 30
0.0
 11
91.0
 21
0.0
 31
0.0
1001
GRPNAME
1000
PASTMD0U
  0
LINE
  5
1211
330
76C
100
AcDbEntity
  8
240
100
AcDbLine
 10
89.0
 20
-25.0
 30
0.0
 11
0.0
 21
-25.0
 31
0.0
  0
LINE
  5
1212
330
76C
100
AcDbEntity
  8
240
100
AcDbLine
 10
76.82632455
 20
20.20331815
 30
0.0
 11
22.11430068
 21
24.99
 31
0.0
  0
LINE
  5
1213
330
76C
100
AcDbEntity
  8
241
100
AcDbLine
 10
20.0
 20
0.0
 30
0.0
 11
20.0
 21
24.99
 31
0.0
  0
SPLINE
  5
1214
330
76C
100
AcDbEntity
  8
241
  6
CONTINUOUS
100
AcDbSpline
210
0.0
220
0.0
230
1.0
 70
     8
 71
     3
 72
     9
 73
     5
 74
     3
 42
0.0000000001
 43
0.0000000001
 44
0.0000000001
 40
0.0
 40
0.0
 40
0.0
 40
0.0
 40
8.637419212856796
 40
17.27483842571346
 40
17.27483842571346
 40
17.27483842571346
 40
17.27483842571346
 10
7.950000000000045
 20
7.174818896234279
 30
0.0
 10
6.906572875253827
 20
9.968662326190841
 30
0.0
 10
4.819718625761407
 20
15.55634918610392
 30
0.0
 10
6.906572875253799
 20
21.14403604601701
 30
0.0
 10
7.949999999999986
 20
23.93787947597354
 30
0.0
 11
7.950000000000045
 21
7.174818896234279
 31
0.0
 11
5.86314575050761
 21
15.55634918610397
 31
0.0
 11
7.949999999999986
 21
23.93787947597354
 31
0.0
  0
LINE
  5
1215
330
76C
100
AcDbEntity
  8
241
  6
CONTINUOUS
100
AcDbLine
 10
7.95
 20
7.1748189
 30
0.0
 11
7.95
 21
23.93787948
 31
0.0
  0
SPLINE
  5
1216
330
76C
100
AcDbEntity
  8
241
  6
CONTINUOUS
100
AcDbSpline
210
0.0
220
0.0
230
1.0
 70
     8
 71
     3
 72
     9
 73
     5
 74
     3
 42
0.0000000001
 43
0.0000000001
 44
0.0000000001
 40
0.0
 40
0.0
 40
0.0
 40
0.0
 40
8.630480605859938
 40
17.26096121171991
 40
17.26096121171991
 40
17.26096121171991
 40
17.26096121171991
 10
12.05
 20
23.93787947597359
 30
0.0
 10
13.07897345545482
 20
21.14403604601705
 30
0.0
 10
15.13692036636449
 20
15.55634918610395
 30
0.0
 10
13.07897345545483
 20
9.968662326190862
 30
0.0
 10
12.05
 20
7.17481889623431
 30
0.0
 11
12.05
 21
23.93787947597359
 31
0.0
 11
14.10794691090966
 21
15.55634918610397
 31
0.0
 11
12.05
 21
7.17481889623431
 31
0.0
  0
LINE
  5
1217
330
76C
100
AcDbEntity
  8
241
  6
CONTINUOUS
100
AcDbLine
 10
12.05
 20
7.1748189
 30
0.0
 11
12.05
 21
23.93787948
 31
0.0
  0
LINE
  5
1218
330
76C
100
AcDbEntity
  8
241
100
AcDbLine
 10
0.0
 20
16.40000332
 30
0.0
 11
0.0
 21
0.0
 31
0.0
  0
LINE
  5
1219
330
76C
100
AcDbEntity
  8
241
100
AcDbLine
 10
-2.19993752
 20
16.40000332
 30
0.0
 11
-2.19993752
 21
0.0
 31
0.0
  0
LINE
  5
121A
330
76C
100
AcDbEntity
  8
241
100
AcDbLine
 10
-28.5
 20
15.74244388
 30
0.0
 11
-28.5
 21
0.0
 31
0.0
  0
LINE
  5
121B
330
76C
100
AcDbEntity
  8
240
100
AcDbLine
 10
-28.5
 20
15.74244388
 30
0.0
 11
-30.0
 21
14.87641848
 31
0.0
  0
LINE
  5
121C
330
76C
100
AcDbEntity
  8
240
100
AcDbLine
 10
-2.19993752
 20
-16.40000332
 30
0.0
 11
-28.5
 21
-15.74244388
 31
0.0
  0
LINE
  5
121D
330
76C
100
AcDbEntity
  8
241
100
AcDbLine
 10
-28.5
 20
-15.74244388
 30
0.0
 11
-28.5
 21
0.0
 31
0.0
  0
LINE
  5
121E
330
76C
100
AcDbEntity
  8
240
100
AcDbLine
 10
-30.0
 20
-14.87641848
 30
0.0
 11
-30.0
 21
0.0
 31
0.0
  0
LINE
  5
121F
330
76C
100
AcDbEntity
  8
240
100
AcDbLine
 10
-28.5
 20
-15.74244388
 30
0.0
 11
-30.0
 21
-14.87641848
 31
0.0
  0
SPLINE
  5
1220
330
76C
100
AcDbEntity
  8
241
  6
HIDDEN2
100
AcDbSpline
210
0.0
220
0.0
230
1.0
 70
     8
 71
     3
 72
     9
 73
     5
 74
     3
 42
0.0000000001
 43
0.0000000001
 44
0.0000000001
 40
0.0
 40
0.0
 40
0.0
 40
0.0
 40
3.659130882107569
 40
7.318261764215162
 40
7.318261764215162
 40
7.318261764215162
 40
7.318261764215162
 10
-24.69999999999998
 20
3.136499999999978
 30
0.0
 10
-23.75771467134503
 20
2.090999999999985
 30
0.0
 10
-21.87314401403514
 20
-0.0000000000000088
 30
0.0
 10
-23.75771467134503
 20
-2.091000000000009
 30
0.0
 10
-24.69999999999998
 20
-3.136500000000013
 30
0.0
 11
-24.69999999999998
 21
3.136499999999978
 31
0.0
 11
-22.81542934269009
 21
-0.0000000000000036
 31
0.0
 11
-24.69999999999998
 21
-3.136500000000013
 31
0.0
  0
LINE
  5
1221
330
76C
100
AcDbEntity
  8
241
  6
HIDDEN2
100
AcDbLine
 10
-24.7
 20
-3.1365
 30
0.0
 11
-24.7
 21
3.1365
 31
0.0
  0
LINE
  5
1222
330
76C
100
AcDbEntity
  8
240
100
AcDbLine
 10
-30.0
 20
0.0
 30
0.0
 11
-30.0
 21
14.87641848
 31
0.0
  0
LINE
  5
1223
330
76C
100
AcDbEntity
  8
241
  6
HIDDEN2
100
AcDbLine
 10
-28.5
 20
-3.1365
 30
0.0
 11
-24.7
 21
-3.1365
 31
0.0
  0
LINE
  5
1224
330
76C
100
AcDbEntity
  8
241
  6
HIDDEN2
100
AcDbLine
 10
-30.0
 20
-2.2704746
 30
0.0
 11
-28.5
 21
-3.1365
 31
0.0
  0
LINE
  5
1225
330
76C
100
AcDbEntity
  8
241
  6
HIDDEN2
100
AcDbLine
 10
-28.5
 20
3.1365
 30
0.0
 11
-24.7
 21
3.1365
 31
0.0
  0
LINE
  5
1226
330
76C
100
AcDbEntity
  8
241
  6
HIDDEN2
100
AcDbLine
 10
-30.0
 20
2.2704746
 30
0.0
 11
-28.5
 21
3.1365
 31
0.0
  0
SPLINE
  5
1227
330
76C
100
AcDbEntity
  8
241
  6
CONTINUOUS
100
AcDbSpline
210
0.0
220
0.0
230
1.0
 70
     8
 71
     3
 72
     9
 73
     5
 74
     3
 42
0.0000000001
 43
0.0000000001
 44
0.0000000001
 40
0.0
 40
0.0
 40
0.0
 40
0.0
 40
8.637419212856791
 40
17.27483842571345
 40
17.27483842571345
 40
17.27483842571345
 40
17.27483842571345
 10
7.950000000000045
 20
-7.174818896234286
 30
0.0
 10
6.906572875253828
 20
-9.968662326190848
 30
0.0
 10
4.819718625761408
 20
-15.55634918610392
 30
0.0
 10
6.906572875253798
 20
-21.14403604601701
 30
0.0
 10
7.949999999999986
 20
-23.93787947597354
 30
0.0
 11
7.950000000000045
 21
-7.174818896234286
 31
0.0
 11
5.86314575050761
 21
-15.55634918610397
 31
0.0
 11
7.949999999999986
 21
-23.93787947597354
 31
0.0
  0
LINE
  5
1228
330
76C
100
AcDbEntity
  8
241
  6
CONTINUOUS
100
AcDbLine
 10
7.95
 20
-7.1748189
 30
0.0
 11
7.95
 21
-23.93787948
 31
0.0
  0
SPLINE
  5
1229
330
76C
100
AcDbEntity
  8
241
  6
CONTINUOUS
100
AcDbSpline
210
0.0
220
0.0
230
1.0
 70
     8
 71
     3
 72
     9
 73
     5
 74
     3
 42
0.0000000001
 43
0.0000000001
 44
0.0000000001
 40
0.0
 40
0.0
 40
0.0
 40
0.0
 40
8.630480605859949
 40
17.26096121171992
 40
17.26096121171992
 40
17.26096121171992
 40
17.26096121171992
 10
12.05
 20
-23.9378794759736
 30
0.0
 10
13.07897345545482
 20
-21.14403604601705
 30
0.0
 10
15.13692036636449
 20
-15.55634918610396
 30
0.0
 10
13.07897345545483
 20
-9.968662326190868
 30
0.0
 10
12.05
 20
-7.174818896234317
 30
0.0
 11
12.05
 21
-23.9378794759736
 31
0.0
 11
14.10794691090966
 21
-15.55634918610397
 31
0.0
 11
12.05
 21
-7.174818896234317
 31
0.0
  0
LINE
  5
122A
330
76C
100
AcDbEntity
  8
241
  6
CONTINUOUS
100
AcDbLine
 10
12.05
 20
-7.1748189
 30
0.0
 11
12.05
 21
-23.93787948
 31
0.0
  0
LINE
  5
122B
330
76C
100
AcDbEntity
  8
241
100
AcDbLine
 10
-2.19993752
 20
-16.40000332
 30
0.0
 11
-2.19993752
 21
0.0
 31
0.0
  0
LINE
  5
122C
330
76C
100
AcDbEntity
  8
241
100
AcDbLine
 10
0.0
 20
-16.40000332
 30
0.0
 11
0.0
 21
0.0
 31
0.0
  0
LINE
  5
122D
330
76C
100
AcDbEntity
  8
240
  6
CONTINUOUS
100
AcDbLine
 10
0.0
 20
-24.99
 30
0.0
 11
0.0
 21
-16.40000332
 31
0.0
  0
LINE
  5
122E
330
76C
100
AcDbEntity
  8
240
100
AcDbLine
 10
-2.19993752
 20
-16.40000332
 30
0.0
 11
0.0
 21
-16.40000332
 31
0.0
  0
LINE
  5
122F
330
76C
100
AcDbEntity
  8
241
  6
CONTINUOUS
100
AcDbLine
 10
7.95
 20
-23.93787948
 30
0.0
 11
12.05
 21
-23.93787948
 31
0.0
  0
LINE
  5
1230
330
76C
100
AcDbEntity
  8
241
  6
CONTINUOUS
100
AcDbLine
 10
7.95
 20
-7.1748189
 30
0.0
 11
12.05
 21
-7.1748189
 31
0.0
  0
LINE
  5
1231
330
76C
100
AcDbEntity
  8
241
  6
CONTINUOUS
100
AcDbLine
 10
7.95
 20
7.1748189
 30
0.0
 11
12.05
 21
7.1748189
 31
0.0
  0
LINE
  5
1232
330
76C
100
AcDbEntity
  8
241
100
AcDbLine
 10
20.0
 20
0.0
 30
0.0
 11
20.0
 21
-25.0
 31
0.0
  0
LINE
  5
1233
330
76C
100
AcDbEntity
  8
241
  6
HIDDEN2
100
AcDbLine
 10
25.0
 20
-4.9998
 30
0.0
 11
25.0
 21
-25.0
 31
0.0
  0
LINE
  5
1234
330
76C
100
AcDbEntity
  8
245
  6
CENTER2
 62
     2
100
AcDbLine
 10
39.5
 20
-8.99999444
 30
0.0
 11
39.5
 21
-20.99999444
 31
0.0
  0
CIRCLE
  5
1235
330
76C
100
AcDbEntity
  8
241
100
AcDbCircle
 10
39.5
 20
-14.99999444
 30
0.0
 40
5.0
  0
CIRCLE
  5
1236
330
76C
100
AcDbEntity
  8
242
100
AcDbCircle
 10
39.5
 20
-14.99999936
 30
0.0
 40
4.25
  0
LINE
  5
1237
330
76C
100
AcDbEntity
  8
241
100
AcDbLine
 10
39.5
 20
-17.88675071
 30
0.0
 11
42.0
 21
-16.44337503
 31
0.0
  0
LINE
  5
1238
330
76C
100
AcDbEntity
  8
241
100
AcDbLine
 10
42.0
 20
-13.55662369
 30
0.0
 11
39.5
 21
-12.11324801
 31
0.0
  0
LINE
  5
1239
330
76C
100
AcDbEntity
  8
241
100
AcDbLine
 10
37.0
 20
-16.44337503
 30
0.0
 11
39.5
 21
-17.88675071
 31
0.0
  0
LINE
  5
123A
330
76C
100
AcDbEntity
  8
241
100
AcDbLine
 10
39.5
 20
-12.11324801
 30
0.0
 11
37.0
 21
-13.55662369
 31
0.0
  0
LINE
  5
123B
330
76C
100
AcDbEntity
  8
241
100
AcDbLine
 10
37.0
 20
-13.55662369
 30
0.0
 11
37.0
 21
-16.44337503
 31
0.0
  0
LINE
  5
123C
330
76C
100
AcDbEntity
  8
241
100
AcDbLine
 10
42.0
 20
-16.44337503
 30
0.0
 11
42.0
 21
-13.55662369
 31
0.0
  0
LINE
  5
123D
330
76C
100
AcDbEntity
  8
240
100
AcDbLine
 10
-2.19993752
 20
16.40000332
 30
0.0
 11
-28.5
 21
15.74244388
 31
0.0
  0
LINE
  5
123E
330
76C
100
AcDbEntity
  8
240
  6
CONTINUOUS
100
AcDbLine
 10
0.0
 20
24.99
 30
0.0
 11
22.11430068
 21
24.99
 31
0.0
  0
LINE
  5
123F
330
76C
100
AcDbEntity
  8
240
  6
CONTINUOUS
100
AcDbLine
 10
0.0
 20
24.99
 30
0.0
 11
0.0
 21
16.40000332
 31
0.0
  0
LINE
  5
1240
330
76C
100
AcDbEntity
  8
240
100
AcDbLine
 10
-2.19993752
 20
16.40000332
 30
0.0
 11
0.0
 21
16.40000332
 31
0.0
  0
LINE
  5
1241
330
76C
100
AcDbEntity
  8
241
  6
CONTINUOUS
100
AcDbLine
 10
7.95
 20
23.93787948
 30
0.0
 11
12.05
 21
23.93787948
 31
0.0
  0
LINE
  5
1242
330
76C
100
AcDbEntity
  8
245
100
AcDbLine
 10
161.0
 20
-41.99545832
 30
0.0
 11
161.0
 21
42.00454139
 31
0.0
  0
ARC
  5
1243
330
76C
100
AcDbEntity
  8
240
100
AcDbCircle
 10
161.0
 20
0.00111338
 30
0.0
 40
25.0
100
AcDbArc
 50
90.0000176
 51
180.0
  0
LINE
  5
1244
330
76C
100
AcDbEntity
  8
240
100
AcDbLine
 10
84.26573701
 20
16.73426315
 30
0.0
 11
86.0
 21
15.00000016
 31
0.0
  0
ARC
  5
1245
330
76C
100
AcDbEntity
  8
240
100
AcDbCircle
 10
81.99988445
 20
7.6862438
 30
0.0
 40
8.000115548775321
100
AcDbArc
 50
0.00034278
 51
44.99965722
  0
CIRCLE
  5
1246
330
76C
100
AcDbEntity
  8
241
100
AcDbCircle
 10
59.5
 20
-14.99999263
 30
0.0
 40
5.0
  0
CIRCLE
  5
1247
330
76C
100
AcDbEntity
  8
242
100
AcDbCircle
 10
59.5
 20
-14.99999755
 30
0.0
 40
4.25
  0
CIRCLE
  5
1248
330
76C
100
AcDbEntity
  8
241
100
AcDbCircle
 10
79.5
 20
-14.99999508
 30
0.0
 40
5.0
  0
CIRCLE
  5
1249
330
76C
100
AcDbEntity
  8
242
100
AcDbCircle
 10
79.5
 20
-15.0
 30
0.0
 40
4.25
  0
LINE
  5
124A
330
76C
100
AcDbEntity
  8
245
  6
CENTER2
 62
     2
100
AcDbLine
 10
59.5
 20
-8.99999263
 30
0.0
 11
59.5
 21
-20.99999263
 31
0.0
  0
LINE
  5
124B
330
76C
100
AcDbEntity
  8
245
  6
CENTER2
 62
     2
100
AcDbLine
 10
79.5
 20
-8.99999508
 30
0.0
 11
79.5
 21
-20.99999508
 31
0.0
  0
LINE
  5
124C
330
76C
100
AcDbEntity
  8
241
100
AcDbLine
 10
57.0
 20
-16.44337323
 30
0.0
 11
59.5
 21
-17.8867489
 31
0.0
  0
LINE
  5
124D
330
76C
100
AcDbEntity
  8
241
100
AcDbLine
 10
59.5
 20
-12.11324621
 30
0.0
 11
57.0
 21
-13.55662188
 31
0.0
  0
LINE
  5
124E
330
76C
100
AcDbEntity
  8
241
100
AcDbLine
 10
57.0
 20
-13.55662188
 30
0.0
 11
57.0
 21
-16.44337323
 31
0.0
  0
LINE
  5
124F
330
76C
100
AcDbEntity
  8
241
100
AcDbLine
 10
59.5
 20
-17.8867489
 30
0.0
 11
62.0
 21
-16.44337323
 31
0.0
  0
LINE
  5
1250
330
76C
100
AcDbEntity
  8
241
100
AcDbLine
 10
62.0
 20
-13.55662188
 30
0.0
 11
59.5
 21
-12.11324621
 31
0.0
  0
LINE
  5
1251
330
76C
100
AcDbEntity
  8
241
100
AcDbLine
 10
62.0
 20
-16.44337323
 30
0.0
 11
62.0
 21
-13.55662188
 31
0.0
  0
LINE
  5
1252
330
76C
100
AcDbEntity
  8
241
100
AcDbLine
 10
79.5
 20
-17.88675135
 30
0.0
 11
82.0
 21
-16.44337567
 31
0.0
  0
LINE
  5
1253
330
76C
100
AcDbEntity
  8
241
100
AcDbLine
 10
82.0
 20
-13.55662433
 30
0.0
 11
79.5
 21
-12.11324865
 31
0.0
  0
LINE
  5
1254
330
76C
100
AcDbEntity
  8
241
100
AcDbLine
 10
77.0
 20
-16.44337567
 30
0.0
 11
79.5
 21
-17.88675135
 31
0.0
  0
LINE
  5
1255
330
76C
100
AcDbEntity
  8
241
100
AcDbLine
 10
79.5
 20
-12.11324865
 30
0.0
 11
77.0
 21
-13.55662433
 31
0.0
  0
LINE
  5
1256
330
76C
100
AcDbEntity
  8
241
100
AcDbLine
 10
77.0
 20
-13.55662433
 30
0.0
 11
77.0
 21
-16.44337567
 31
0.0
  0
LINE
  5
1257
330
76C
100
AcDbEntity
  8
241
100
AcDbLine
 10
82.0
 20
-16.44337567
 30
0.0
 11
82.0
 21
-13.55662433
 31
0.0
  0
SPLINE
  5
1258
330
76C
100
AcDbEntity
  8
240
100
AcDbSpline
210
0.0
220
0.0
230
1.0
 70
    24
 71
     3
 72
    12
 73
     8
 74
     0
 42
0.0000000001
 43
0.0000000001
 40
39.17393079441271
 40
39.17393079441271
 40
39.17393079441271
 40
39.17393079441271
 40
39.68038242373983
 40
39.68038242373983
 40
40.28668161876806
 40
40.28668161876806
 40
41.49928000882453
 40
41.49928000882453
 40
41.49928000882453
 40
41.49928000882453
 10
87.65685424949339
 20
13.34314590923758
 30
0.0
 10
87.53621543566159
 20
13.46378472306932
 30
0.0
 10
87.41221536645156
 20
13.58778479227952
 30
0.0
 10
87.13757200266291
 20
13.86242815606805
 30
0.0
 10
86.98649511519937
 20
14.01350504353171
 30
0.0
 10
86.54035777352186
 20
14.45964238520911
 30
0.0
 10
86.25250140206487
 20
14.7474987566661
 30
0.0
 10
86.00000000000109
 20
15.00000015872998
 30
0.0
  0
LINE
  5
1259
330
76C
100
AcDbEntity
  8
240
100
AcDbLine
 10
90.0
 20
-24.0
 30
0.0
 11
90.0
 21
0.0
 31
0.0
  0
ARC
  5
125A
330
76C
100
AcDbEntity
  8
240
100
AcDbCircle
 10
89.0
 20
-24.0
 30
0.0
 40
0.9999999999999998
100
AcDbArc
 50
270.0
 51
0.0
  0
LINE
  5
125B
330
76C
100
AcDbEntity
  8
240
100
AcDbLine
 10
90.0
 20
7.6862438
 30
0.0
 11
90.0
 21
0.0
 31
0.0
  0
ARC
  5
125C
330
76C
100
AcDbEntity
  8
240
100
AcDbCircle
 10
161.0
 20
0.00111338
 30
0.0
 40
25.0
100
AcDbArc
 50
180.0
 51
269.9999824
  0
SPLINE
  5
125D
330
76C
100
AcDbEntity
  8
241
100
AcDbSpline
210
0.0
220
0.0
230
1.0
 70
     8
 71
     3
 72
    14
 73
    10
 74
     0
 42
0.0000000001
 43
0.0000000001
 40
9.905947362877842
 40
9.905947362877842
 40
9.905947362877842
 40
9.905947362877842
 40
11.09890761156806
 40
11.09890761156806
 40
13.77531557391963
 40
13.77531557391963
 40
16.00439033704686
 40
16.00439033704686
 40
17.35381834686821
 40
17.35381834686821
 40
17.35381834686821
 40
17.35381834686821
 10
143.8132671977869
 20
-12.06604103283628
 30
0.0
 10
143.5035148783518
 20
-11.84443841194257
 30
0.0
 10
143.1991490006943
 20
-11.5846014048861
 30
0.0
 10
142.2517582858309
 20
-10.61963876779959
 30
0.0
 10
141.6747665436844
 20
-9.780166365371963
 30
0.0
 10
140.8920540707812
 20
-7.986432780652159
 30
0.0
 10
140.6610241194013
 20
-7.121222817225053
 30
0.0
 10
140.4980818095459
 20
-5.701626334707691
 30
0.0
 10
140.4846906907309
 20
-5.164807351227373
 30
0.0
 10
140.5171008625003
 20
-4.630392092041766
 30
0.0
  0
ELLIPSE
  5
125E
330
76C
100
AcDbEntity
  8
241
100
AcDbEllipse
 10
147.5
 20
-5.19503904
 30
0.0
 11
0.0000000000000315
 21
8.082903768654777
 31
0.0
210
0.0
220
0.0
230
-1.0
 40
0.8660254
 41
1.346709377872782
 42
3.696278311392485
  0
ARC
  5
125F
330
76C
100
AcDbEntity
  8
241
100
AcDbCircle
 10
147.5
 20
-4.74600094
 30
0.0
 40
6.956658273837441
100
AcDbArc
 50
11.16551386
 51
168.83448614
  0
ELLIPSE
  5
1260
330
76C
100
AcDbEntity
  8
241
100
AcDbEllipse
 10
147.5
 20
-3.16981091
 30
0.0
 11
6.249999999999999
 21
0.0000000000000129
 31
0.0
210
0.0
220
0.0
230
-1.0
 40
0.8660254
 41
1.570796326794897
 42
3.816379646417399
  0
ELLIPSE
  5
1261
330
76C
100
AcDbEntity
  8
241
100
AcDbEllipse
 10
147.5
 20
-5.19503904
 30
0.0
 11
0.0000000000010713
 21
8.082903768655546
 31
0.0
210
0.0
220
0.0
230
-1.0
 40
0.8660254
 41
-1.500882441223875
 42
-1.346709377872918
  0
ELLIPSE
  5
1262
330
76C
100
AcDbEntity
  8
241
100
AcDbEllipse
 10
147.5
 20
-3.16981091
 30
0.0
 11
-6.25
 21
0.0000000000000184
 31
0.0
210
0.0
220
0.0
230
-1.0
 40
0.8660254
 41
2.466805660762185
 42
4.712388980384687
  0
LINE
  5
1263
330
76C
100
AcDbEntity
  8
241
100
AcDbLine
 10
181.0
 20
-4.99888662
 30
0.0
 11
181.0
 21
-24.99888662
 31
0.0
  0
LINE
  5
1264
330
76C
100
AcDbEntity
  8
241
100
AcDbLine
 10
160.5
 20
-4.99888662
 30
0.0
 11
160.5
 21
-24.99388612
 31
0.0
  0
LINE
  5
1265
330
76C
100
AcDbEntity
  8
240
100
AcDbLine
 10
183.24859546
 20
-24.99888662
 30
0.0
 11
161.0
 21
-24.99888662
 31
0.0
  0
LINE
  5
1266
330
76C
100
AcDbEntity
  8
241
100
AcDbLine
 10
160.5
 20
-4.99888662
 30
0.0
 11
181.0
 21
-4.99888662
 31
0.0
  0
ARC
  5
1267
330
76C
100
AcDbEntity
  8
240
100
AcDbCircle
 10
75.7802312
 20
8.24850047
 30
0.0
 40
12.00049904045815
100
AcDbArc
 50
45.00086721
 51
84.99913279
  0
LINE
  5
1268
330
76C
100
AcDbEntity
  8
240
100
AcDbLine
 10
161.0
 20
25.00111339
 30
0.0
 11
178.3309972
 21
25.00111339
 31
0.0
  0
SPLINE
  5
1269
330
76C
100
AcDbEntity
  8
240
100
AcDbSpline
210
0.0
220
0.0
230
1.0
 70
    12
 71
     2
 72
     6
 73
     3
 74
     0
 42
0.0000000001
 43
0.0000000001
 40
0.0
 40
0.0
 40
0.0
 40
4.282769205269928
 40
4.282769205269928
 40
4.282769205269928
 10
182.9195736150365
 20
24.89861404723697
 30
0.0
 41
1.0
 10
184.5610009311959
 20
24.80956724865907
 30
0.0
 41
1.002514144279804
 10
186.3034664941018
 20
24.70677361207642
 30
0.0
 41
1.002884241045959
  0
SPLINE
  5
126A
330
76C
100
AcDbEntity
  8
240
100
AcDbSpline
210
0.0
220
0.0
230
1.0
 70
     8
 71
     3
 72
    14
 73
    10
 74
     0
 42
0.0000000001
 43
0.0000000001
 40
26.16218249897269
 40
26.16218249897269
 40
26.16218249897269
 40
26.16218249897269
 40
27.46988677349065
 40
27.46988677349065
 40
28.77759104800862
 40
28.77759104800862
 40
29.78713696525978
 40
29.78713696525978
 40
30.79668288251094
 40
30.79668288251094
 40
30.79668288251094
 40
30.79668288251094
 10
178.1961185747413
 20
25.0011133784291
 30
0.0
 10
178.6320199995806
 20
25.0011133784291
 30
0.0
 10
179.1104730064901
 20
24.99899882025786
 30
0.0
 10
180.0587523138213
 20
24.9890083344085
 30
0.0
 10
180.5285171397541
 20
24.9810881611493
 30
0.0
 10
181.2744336038811
 20
24.96360561544761
 30
0.0
 10
181.625746466893
 20
24.95354345330214
 30
0.0
 10
182.3055675011474
 20
24.92881727088846
 30
0.0
 10
182.6338815630018
 20
24.91411273082919
 30
0.0
 10
182.9195736150365
 20
24.89861404723697
 30
0.0
  0
ARC
  5
126B
330
76C
100
AcDbEntity
  8
240
100
AcDbCircle
 10
161.0
 20
0.00111338
 30
0.0
 40
40.0
100
AcDbArc
 50
0.0
 51
21.97526916
  0
ARC
  5
126C
330
76C
100
AcDbEntity
  8
240
100
AcDbCircle
 10
183.24859546
 20
9.00111339
 30
0.0
 40
16.0
100
AcDbArc
 50
22.02431287
 51
28.90713798
  0
ARC
  5
126D
330
76C
100
AcDbEntity
  8
240
100
AcDbCircle
 10
161.0
 20
0.00111338
 30
0.0
 40
40.0
100
AcDbArc
 50
337.97568716
 51
0.0
  0
ARC
  5
126E
330
76C
100
AcDbEntity
  8
241
100
AcDbCircle
 10
161.0
 20
0.00111338
 30
0.0
 40
40.0
100
AcDbArc
 50
21.97526916
 51
22.02431287
  0
SPLINE
  5
126F
330
76C
100
AcDbEntity
  8
240
100
AcDbSpline
210
0.0
220
0.0
230
1.0
 70
     8
 71
     3
 72
    16
 73
    12
 74
     0
 42
0.0000000001
 43
0.0000000001
 40
6.277353443247761
 40
6.277353443247761
 40
6.277353443247761
 40
6.277353443247761
 40
8.037713963305924
 40
8.037713963305924
 40
9.963131077757813
 40
9.963131077757813
 40
11.8885481922097
 40
11.8885481922097
 40
13.81396530666159
 40
13.81396530666159
 40
14.70411139847453
 40
14.70411139847453
 40
14.70411139847453
 40
14.70411139847453
 10
197.2550644516656
 20
16.73537652878917
 30
0.0
 10
197.0303963335789
 20
17.1422423122316
 30
0.0
 10
196.8033240851996
 20
17.51133709823877
 30
0.0
 10
196.3486184627465
 20
18.19754307267876
 30
0.0
 10
196.1030596444839
 20
18.53563774103032
 30
0.0
 10
195.6359248685482
 20
19.13513895887378
 30
0.0
 10
195.4146521406148
 20
19.39664773783013
 30
0.0
 10
195.0394273697682
 20
19.82037314563071
 30
0.0
 10
194.8857551293462
 20
19.9828590136798
 30
0.0
 10
194.7346721936064
 20
20.13999982172176
 30
0.0
 10
194.6975217818794
 20
20.17802949448096
 30
0.0
 10
194.6716275692918
 20
20.20443153165151
 30
0.0
  0
ENDBLK
  5
7E3
330
76C
100
AcDbEntity
  8
0
100
AcDbBlockEnd
  0
BLOCK
  5
8AC
330
8A5
100
AcDbEntity
  8
0
100
AcDbBlockBegin
  2
*D3
 70
     1
 10
0.0
 20
0.0
 30
0.0
  3
*D3
  1

  0
LINE
  5
1296
330
8A5
100
AcDbEntity
  8
250
  6
CONTINUOUS
100
AcDbLine
 10
138.24121524
 20
30.15029821
 30
0.0
 11
183.75192845
 21
-30.14121514
 31
0.0
  0
INSERT
  5
1297
330
8A5
100
AcDbEntity
  8
250
  6
CONTINUOUS
100
AcDbBlockReference
  2
_OPEN
 10
136.89770332
 20
31.93015094
 30
0.0
 41
2.23
 42
2.23
 43
2.23
 50
127.04712693
  0
INSERT
  5
1298
330
8A5
100
AcDbEntity
  8
250
  6
CONTINUOUS
100
AcDbBlockReference
  2
_OPEN
 10
185.09544037
 20
-31.92106787
 30
0.0
 41
2.23
 42
2.23
 43
2.23
 50
307.04712693
  0
MTEXT
  5
1299
330
8A5
100
AcDbEntity
  8
250
  6
CONTINUOUS
 62
    40
100
AcDbMText
 10
174.68931929
 20
-14.15169598
 30
0.0
 40
2.8
 41
0.0
 71
     5
 72
     1
  1
\A1;（{\H2.8;\U+2205}80）
 11
0.60247171
 21
-0.79814024
 31
0.0
  0
POINT
  5
129A
330
8A5
100
AcDbEntity
  8
DEFPOINTS
  6
CONTINUOUS
 62
     0
100
AcDbPoint
 10
185.09544037
 20
-31.92106787
 30
0.0
  0
POINT
  5
129B
330
8A5
100
AcDbEntity
  8
DEFPOINTS
  6
CONTINUOUS
 62
     0
100
AcDbPoint
 10
136.89770332
 20
31.93015094
 30
0.0
  0
ENDBLK
  5
8AD
330
8A5
100
AcDbEntity
  8
0
100
AcDbBlockEnd
  0
BLOCK
  5
8B8
330
8AE
100
AcDbEntity
  8
0
100
AcDbBlockBegin
  2
*D4
 70
     1
 10
0.0
 20
0.0
 30
0.0
  3
*D4
  1

  0
LINE
  5
11FD
330
8AE
100
AcDbEntity
  8
250
  6
CONTINUOUS
 62
     3
100
AcDbLine
 10
181.5
 20
-4.99888662
 30
0.0
 11
211.0
 21
-4.99888662
 31
0.0
  0
LINE
  5
11FE
330
8AE
100
AcDbEntity
  8
250
  6
CONTINUOUS
 62
     3
100
AcDbLine
 10
183.74859546
 20
-24.99888662
 30
0.0
 11
211.0
 21
-24.99888662
 31
0.0
  0
LINE
  5
11FF
330
8AE
100
AcDbEntity
  8
250
  6
CONTINUOUS
 62
     3
100
AcDbLine
 10
210.0
 20
-7.22888662
 30
0.0
 11
210.0
 21
-22.76888662
 31
0.0
  0
INSERT
  5
1200
330
8AE
100
AcDbEntity
  8
250
  6
CONTINUOUS
 62
     3
100
AcDbBlockReference
  2
_OPEN
 10
210.0
 20
-4.99888662
 30
0.0
 41
2.23
 42
2.23
 43
2.23
 50
90.0
  0
INSERT
  5
1201
330
8AE
100
AcDbEntity
  8
250
  6
CONTINUOUS
 62
     3
100
AcDbBlockReference
  2
_OPEN
 10
210.0
 20
-24.99888662
 30
0.0
 41
2.23
 42
2.23
 43
2.23
 50
270.0
  0
MTEXT
  5
1202
330
8AE
100
AcDbEntity
  8
250
  6
CONTINUOUS
 62
    40
100
AcDbMText
 10
207.5
 20
-14.99888662
 30
0.0
 40
3.0
 41
0.0
 71
     5
 72
     1
  1
\A1;20
 11
0.0
 21
1.0
 31
0.0
1001
ACAD
1000
MTEXTBEGIN
1070
    73
1070
     1
1070
    44
1040
1.0
1070
    74
1070
     0
1000
MTEXTEND
  0
POINT
  5
1203
330
8AE
100
AcDbEntity
  8
DEFPOINTS
  6
CONTINUOUS
 62
     0
100
AcDbPoint
 10
181.0
 20
-4.99888662
 30
0.0
  0
POINT
  5
1204
330
8AE
100
AcDbEntity
  8
DEFPOINTS
  6
CONTINUOUS
 62
     0
100
AcDbPoint
 10
183.24859546
 20
-24.99888662
 30
0.0
  0
POINT
  5
1205
330
8AE
100
AcDbEntity
  8
DEFPOINTS
  6
CONTINUOUS
 62
     0
100
AcDbPoint
 10
210.0
 20
-24.99888662
 30
0.0
  0
ENDBLK
  5
8B9
330
8AE
100
AcDbEntity
  8
0
100
AcDbBlockEnd
  0
BLOCK
  5
8C4
330
8BA
100
AcDbEntity
  8
0
100
AcDbBlockBegin
  2
*D5
 70
     1
 10
0.0
 20
0.0
 30
0.0
  3
*D5
  1

  0
LINE
  5
94C
330
8BA
100
AcDbEntity
  8
250
  6
CONTINUOUS
 62
     3
100
AcDbLine
 10
25.0
 20
-25.5
 30
0.0
 11
25.0
 21
-36.0
 31
0.0
  0
LINE
  5
94D
330
8BA
100
AcDbEntity
  8
250
  6
CONTINUOUS
 62
     3
100
AcDbLine
 10
90.0
 20
-24.5
 30
0.0
 11
90.0
 21
-36.0
 31
0.0
  0
LINE
  5
94E
330
8BA
100
AcDbEntity
  8
250
  6
CONTINUOUS
 62
     3
100
AcDbLine
 10
27.23
 20
-35.0
 30
0.0
 11
87.77
 21
-35.0
 31
0.0
  0
INSERT
  5
94F
330
8BA
100
AcDbEntity
  8
250
  6
CONTINUOUS
 62
     3
100
AcDbBlockReference
  2
_OPEN
 10
25.0
 20
-35.0
 30
0.0
 41
2.23
 42
2.23
 43
2.23
 50
180.0
  0
INSERT
  5
950
330
8BA
100
AcDbEntity
  8
250
  6
CONTINUOUS
 62
     3
100
AcDbBlockReference
  2
_OPEN
 10
90.0
 20
-35.0
 30
0.0
 41
2.23
 42
2.23
 43
2.23
  0
MTEXT
  5
951
330
8BA
100
AcDbEntity
  8
250
  6
CONTINUOUS
 62
    40
100
AcDbMText
 10
57.5
 20
-32.5
 30
0.0
 40
3.0
 41
0.0
 71
     5
 72
     1
  1
\A1;65
1001
ACAD
1000
MTEXTBEGIN
1070
    73
1070
     1
1070
    44
1040
1.0
1070
    74
1070
     0
1000
MTEXTEND
1000
MTEXTBEGIN
1070
    73
1070
     1
1070
    44
1040
1.0
1070
    74
1070
     0
1000
MTEXTEND
1000
MTEXTBEGIN
1070
    73
1070
     1
1070
    44
1040
1.0
1070
    74
1070
     0
1000
MTEXTEND
1000
MTEXTBEGIN
1070
    73
1070
     1
1070
    44
1040
1.0
1070
    74
1070
     0
1000
MTEXTEND
1000
MTEXTBEGIN
1070
    73
1070
     1
1070
    44
1040
1.0
1070
    74
1070
     0
1000
MTEXTEND
  0
POINT
  5
952
330
8BA
100
AcDbEntity
  8
DEFPOINTS
  6
CONTINUOUS
 62
     0
100
AcDbPoint
 10
25.0
 20
-25.0
 30
0.0
  0
POINT
  5
953
330
8BA
100
AcDbEntity
  8
DEFPOINTS
  6
CONTINUOUS
 62
     0
100
AcDbPoint
 10
90.0
 20
-24.0
 30
0.0
  0
POINT
  5
954
330
8BA
100
AcDbEntity
  8
DEFPOINTS
  6
CONTINUOUS
 62
     0
100
AcDbPoint
 10
90.0
 20
-35.0
 30
0.0
  0
ENDBLK
  5
8C5
330
8BA
100
AcDbEntity
  8
0
100
AcDbBlockEnd
  0
BLOCK
  5
8DC
330
8D2
100
AcDbEntity
  8
0
100
AcDbBlockBegin
  2
*D6
 70
     1
 10
0.0
 20
0.0
 30
0.0
  3
*D6
  1

  0
LINE
  5
B4B
330
8D2
100
AcDbEntity
  8
250
  6
CONTINUOUS
 62
     3
100
AcDbLine
 10
161.0
 20
-42.49545832
 30
0.0
 11
161.0
 21
-49.99888662
 31
0.0
  0
LINE
  5
B4C
330
8D2
100
AcDbEntity
  8
250
  6
CONTINUOUS
 62
     3
100
AcDbLine
 10
181.0
 20
-25.29888662
 30
0.0
 11
181.0
 21
-49.99888662
 31
0.0
  0
LINE
  5
B4D
330
8D2
100
AcDbEntity
  8
250
  6
CONTINUOUS
 62
     3
100
AcDbLine
 10
163.23
 20
-48.99888662
 30
0.0
 11
178.77
 21
-48.99888662
 31
0.0
  0
INSERT
  5
B4E
330
8D2
100
AcDbEntity
  8
250
  6
CONTINUOUS
 62
     3
100
AcDbBlockReference
  2
_OPEN
 10
161.0
 20
-48.99888662
 30
0.0
 41
2.23
 42
2.23
 43
2.23
 50
180.0
  0
INSERT
  5
B4F
330
8D2
100
AcDbEntity
  8
250
  6
CONTINUOUS
 62
     3
100
AcDbBlockReference
  2
_OPEN
 10
181.0
 20
-48.99888662
 30
0.0
 41
2.23
 42
2.23
 43
2.23
  0
MTEXT
  5
B50
330
8D2
100
AcDbEntity
  8
250
  6
CONTINUOUS
 62
    40
100
AcDbMText
 10
171.0
 20
-46.49888662
 30
0.0
 40
3.0
 41
0.0
 71
     5
 72
     1
  1
\A1;□20
1001
ACAD
1000
MTEXTBEGIN
1070
    73
1070
     1
1070
    44
1040
1.0
1070
    74
1070
     0
1000
MTEXTEND
1000
MTEXTBEGIN
1070
    73
1070
     1
1070
    44
1040
1.0
1070
    74
1070
     0
1000
MTEXTEND
1000
MTEXTBEGIN
1070
    73
1070
     1
1070
    44
1040
1.0
1070
    74
1070
     0
1000
MTEXTEND
1000
MTEXTBEGIN
1070
    73
1070
     1
1070
    44
1040
1.0
1070
    74
1070
     0
1000
MTEXTEND
  0
POINT
  5
B51
330
8D2
100
AcDbEntity
  8
DEFPOINTS
  6
CONTINUOUS
 62
     0
100
AcDbPoint
 10
161.0
 20
-41.99545832
 30
0.0
  0
POINT
  5
B52
330
8D2
100
AcDbEntity
  8
DEFPOINTS
  6
CONTINUOUS
 62
     0
100
AcDbPoint
 10
181.0
 20
-24.79888662
 30
0.0
  0
POINT
  5
B53
330
8D2
100
AcDbEntity
  8
DEFPOINTS
  6
CONTINUOUS
 62
     0
100
AcDbPoint
 10
181.0
 20
-48.99888662
 30
0.0
  0
ENDBLK
  5
8DD
330
8D2
100
AcDbEntity
  8
0
100
AcDbBlockEnd
  0
BLOCK
  5
920
330
916
100
AcDbEntity
  8
0
100
AcDbBlockBegin
  2
*D7
 70
     1
 10
0.0
 20
0.0
 30
0.0
  3
*D7
  1

  0
LINE
  5
CFA
330
916
100
AcDbEntity
  8
250
  6
CONTINUOUS
 62
     3
100
AcDbLine
 10
0.0
 20
25.49
 30
0.0
 11
0.0
 21
36.0
 31
0.0
  0
LINE
  5
CFB
330
916
100
AcDbEntity
  8
250
  6
CONTINUOUS
 62
     3
100
AcDbLine
 10
90.0
 20
8.18629166
 30
0.0
 11
90.0
 21
36.0
 31
0.0
  0
LINE
  5
CFC
330
916
100
AcDbEntity
  8
250
  6
CONTINUOUS
 62
     3
100
AcDbLine
 10
2.23
 20
35.0
 30
0.0
 11
87.77
 21
35.0
 31
0.0
  0
INSERT
  5
CFD
330
916
100
AcDbEntity
  8
250
  6
CONTINUOUS
 62
     3
100
AcDbBlockReference
  2
_OPEN
 10
0.0
 20
35.0
 30
0.0
 41
2.23
 42
2.23
 43
2.23
 50
180.0
  0
INSERT
  5
CFE
330
916
100
AcDbEntity
  8
250
  6
CONTINUOUS
 62
     3
100
AcDbBlockReference
  2
_OPEN
 10
90.0
 20
35.0
 30
0.0
 41
2.23
 42
2.23
 43
2.23
  0
MTEXT
  5
CFF
330
916
100
AcDbEntity
  8
250
  6
CONTINUOUS
 62
    40
100
AcDbMText
 10
45.0
 20
37.5
 30
0.0
 40
3.0
 41
0.0
 71
     5
 72
     1
  1
\A1;90
1001
ACAD
1000
MTEXTBEGIN
1070
    73
1070
     1
1070
    44
1040
1.0
1070
    74
1070
     0
1000
MTEXTEND
1000
MTEXTBEGIN
1070
    73
1070
     1
1070
    44
1040
1.0
1070
    74
1070
     0
1000
MTEXTEND
1000
MTEXTBEGIN
1070
    73
1070
     1
1070
    44
1040
1.0
1070
    74
1070
     0
1000
MTEXTEND
  0
POINT
  5
D00
330
916
100
AcDbEntity
  8
DEFPOINTS
  6
CONTINUOUS
 62
     0
100
AcDbPoint
 10
0.0
 20
24.99
 30
0.0
  0
POINT
  5
D01
330
916
100
AcDbEntity
  8
DEFPOINTS
  6
CONTINUOUS
 62
     0
100
AcDbPoint
 10
90.0
 20
7.68629166
 30
0.0
  0
POINT
  5
D02
330
916
100
AcDbEntity
  8
DEFPOINTS
  6
CONTINUOUS
 62
     0
100
AcDbPoint
 10
90.0
 20
35.0
 30
0.0
  0
ENDBLK
  5
921
330
916
100
AcDbEntity
  8
0
100
AcDbBlockEnd
  0
BLOCK
  5
ABC
330
AB2
100
AcDbEntity
  8
0
100
AcDbBlockBegin
  2
*D8
 70
     1
 10
0.0
 20
0.0
 30
0.0
  3
*D8
  1

  0
LINE
  5
AB3
330
AB2
100
AcDbEntity
  8
250
  6
CONTINUOUS
 62
     3
100
AcDbLine
 10
89.5
 20
-25.0
 30
0.0
 11
106.0
 21
-25.0
 31
0.0
  0
LINE
  5
AB4
330
AB2
100
AcDbEntity
  8
250
  6
CONTINUOUS
 62
     3
100
AcDbLine
 10
91.5
 20
0.0
 30
0.0
 11
106.0
 21
0.0
 31
0.0
  0
LINE
  5
AB5
330
AB2
100
AcDbEntity
  8
250
  6
CONTINUOUS
 62
     3
100
AcDbLine
 10
105.0
 20
-22.77
 30
0.0
 11
105.0
 21
-2.23
 31
0.0
  0
INSERT
  5
AB6
330
AB2
100
AcDbEntity
  8
250
  6
CONTINUOUS
 62
     3
100
AcDbBlockReference
  2
_OPEN
 10
105.0
 20
-25.0
 30
0.0
 41
2.23
 42
2.23
 43
2.23
 50
270.0
  0
INSERT
  5
AB7
330
AB2
100
AcDbEntity
  8
250
  6
CONTINUOUS
 62
     3
100
AcDbBlockReference
  2
_OPEN
 10
105.0
 20
0.0
 30
0.0
 41
2.23
 42
2.23
 43
2.23
 50
90.0
  0
MTEXT
  5
AB8
330
AB2
100
AcDbEntity
  8
250
  6
CONTINUOUS
 62
    40
100
AcDbMText
 10
102.5
 20
-12.5
 30
0.0
 40
3.0
 41
0.0
 71
     5
 72
     1
  1
\A1;25
 11
0.0
 21
1.0
 31
0.0
1001
ACAD
1000
MTEXTBEGIN
1070
    73
1070
     1
1070
    44
1040
1.0
1070
    74
1070
     0
1000
MTEXTEND
1000
MTEXTBEGIN
1070
    73
1070
     1
1070
    44
1040
1.0
1070
    74
1070
     0
1000
MTEXTEND
1000
MTEXTBEGIN
1070
    73
1070
     1
1070
    44
1040
1.0
1070
    74
1070
     0
1000
MTEXTEND
1000
MTEXTBEGIN
1070
    73
1070
     1
1070
    44
1040
1.0
1070
    74
1070
     0
1000
MTEXTEND
  0
POINT
  5
AB9
330
AB2
100
AcDbEntity
  8
DEFPOINTS
  6
CONTINUOUS
 62
     0
100
AcDbPoint
 10
89.0
 20
-25.0
 30
0.0
  0
POINT
  5
ABA
330
AB2
100
AcDbEntity
  8
DEFPOINTS
  6
CONTINUOUS
 62
     0
100
AcDbPoint
 10
91.0
 20
0.0
 30
0.0
  0
POINT
  5
ABB
330
AB2
100
AcDbEntity
  8
DEFPOINTS
  6
CONTINUOUS
 62
     0
100
AcDbPoint
 10
105.0
 20
0.0
 30
0.0
  0
ENDBLK
  5
ABD
330
AB2
100
AcDbEntity
  8
0
100
AcDbBlockEnd
  0
ENDSEC
  0
SECTION
  2
ENTITIES
  0
INSERT
  5
6E6
330
1A
100
AcDbEntity
  8
245
100
AcDbBlockReference
  2
矢印なし
 10
175.62382697
 20
90.55123572
 30
0.0
  0
TEXT
  5
832
330
1A
100
AcDbEntity
  8
241
100
AcDbText
 10
-30.0
 20
49.0
 30
0.0
 40
5.0
  1
C5-180-BH20L-2590
  7
YOKO
 11
-30.0
 21
49.0
 31
0.0
100
AcDbText
 73
     1
  0
DIMENSION
  5
8A1
330
1A
100
AcDbEntity
  8
250
  6
CONTINUOUS
100
AcDbDimension
  2
*D4
 10
210.0
 20
-24.99888662
 30
0.0
 11
207.5
 21
-14.99888662
 31
0.0
 70
    32
  3
BIGT$0
100
AcDbAlignedDimension
 13
181.0
 23
-4.99888662
 33
0.0
 14
183.24859546
 24
-24.99888662
 34
0.0
 50
270.0
100
AcDbRotatedDimension
  0
DIMENSION
  5
8A2
330
1A
100
AcDbEntity
  8
250
  6
CONTINUOUS
100
AcDbDimension
  2
*D3
 10
136.89770332
 20
31.93015094
 30
0.0
 11
172.77378273
 21
-15.59762809
 31
0.0
 70
   163
  1
（{\H2.8;\U+2205}<>）
  3
BIGT
100
AcDbDiametricDimension
 15
185.09544037
 25
-31.92106787
 35
0.0
 40
0.0
1001
ACAD
1000
DSTYLE
1002
{
1070
   287
1070
     0
1070
   287
1070
     0
1070
   287
1070
     0
1070
   287
1070
     0
1070
   287
1070
     0
1070
     3
1000
<>
1070
   288
1070
     1
1070
   289
1070
     0
1002
}
  0
DIMENSION
  5
8A3
330
1A
100
AcDbEntity
  8
250
  6
CONTINUOUS
100
AcDbDimension
  2
*D5
 10
90.0
 20
-35.0
 30
0.0
 11
57.5
 21
-32.5
 31
0.0
 70
    32
  3
BIGT$0
100
AcDbAlignedDimension
 13
25.0
 23
-25.0
 33
0.0
 14
90.0
 24
-24.0
 34
0.0
100
AcDbRotatedDimension
  0
DIMENSION
  5
8A4
330
1A
100
AcDbEntity
  8
250
  6
CONTINUOUS
100
AcDbDimension
  2
*D6
 10
181.0
 20
-48.99888662
 30
0.0
 11
171.0
 21
-46.49888662
 31
0.0
 70
    32
  1
□<>
  3
BIGT$0
100
AcDbAlignedDimension
 13
161.0
 23
-41.99545832
 33
0.0
 14
181.0
 24
-24.79888662
 34
0.0
100
AcDbRotatedDimension
  0
DIMENSION
  5
915
330
1A
100
AcDbEntity
  8
250
  6
CONTINUOUS
100
AcDbDimension
  2
*D7
 10
90.0
 20
35.0
 30
0.0
 11
45.0
 21
37.5
 31
0.0
 70
    32
  3
BIGT$0
100
AcDbAlignedDimension
 13
0.0
 23
24.99
 33
0.0
 14
90.0
 24
7.68629166
 34
0.0
100
AcDbRotatedDimension
  0
DIMENSION
  5
AB1
330
1A
100
AcDbEntity
  8
250
  6
CONTINUOUS
100
AcDbDimension
  2
*D8
 10
105.0
 20
0.0
 30
0.0
 11
102.5
 21
-12.5
 31
0.0
 70
    32
  3
BIGT$0
100
AcDbAlignedDimension
 13
89.0
 23
-25.0
 33
0.0
 14
91.0
 24
0.0
 34
0.0
 50
90.0
100
AcDbRotatedDimension
  0
LEADER
  5
CD9
330
1A
100
AcDbEntity
  8
250
  6
CONTINUOUS
100
AcDbLeader
  3
BIGT$7
 76
     2
 10
-12.69342942
 20
-16.13764293
 30
0.0
 10
-17.55153517
 20
-24.55212892
 30
0.0
1001
ACAD
1000
DSTYLE
1002
{
1070
     5
1000
OPEN
1070
    41
1040
2.0
1070
    42
1040
2.0
1070
    44
1040
2.0
1070
    79
1070
     2
1070
   140
1040
4.0
1070
   179
1070
     3
1070
   342
1005
594
1070
   371
1070
    -1
1070
   372
1070
    -1
1002
}
  0
MTEXT
  5
CDC
330
1A
100
AcDbEntity
  8
251
  6
CONTINUOUS
100
AcDbMText
 10
-25.01820183
 20
-23.55212892
 30
0.0
 40
2.8
 41
0.0
 71
     7
 72
     1
  1
C5
  7
YOKO
1001
ITEMNAME
1000
LNSP3
1001
ACAD
1000
MTEXTBEGIN
1070
    73
1070
     1
1070
    44
1040
1.0
1070
    74
1070
     0
1000
MTEXTEND
1000
MTEXTBEGIN
1070
    73
1070
     1
1070
    44
1040
1.0
1070
    74
1070
     0
1000
MTEXTEND
1000
MTEXTBEGIN
1070
    73
1070
     1
1070
    44
1040
1.0
1070
    74
1070
     0
1000
MTEXTEND
1000
MTEXTBEGIN
1070
    73
1070
     1
1070
    44
1040
1.0
1070
    74
1070
     0
1000
MTEXTEND
1000
MTEXTBEGIN
1070
    73
1070
     1
1070
    44
1040
1.0
1070
    74
1070
     0
1000
MTEXTEND
  0
LINE
  5
CDD
330
1A
100
AcDbEntity
  8
250
  6
CONTINUOUS
100
AcDbLine
 10
-17.55153517
 20
-24.55212892
 30
0.0
 11
-27.81820183
 21
-24.55212892
 31
0.0
1001
ITEMNAME
1000
LNSP2
  0
INSERT
  5
1270
330
1A
100
AcDbEntity
  8
245
100
AcDbBlockReference
  2
1
 10
0.0
 20
0.0
 30
0.0
  0
VIEWPORT
  5
22
330
17
100
AcDbEntity
 67
     1
  8
0
100
AcDbViewport
 10
261.51769912
 20
148.5
 30
0.0
 40
523.03539823
 41
297.0
 68
     1
 69
     1
1001
ACAD
1000
MVIEW
1002
{
1070
    16
1010
0.0
1020
0.0
1030
0.0
1010
0.0
1020
0.0
1030
1.0
1040
0.0
1040
297.0
1040
261.51769912
1040
148.5
1040
50.0
1040
0.0
1040
0.0
1070
     0
1070
   100
1070
     1
1070
     1
1070
     0
1070
     0
1070
     0
1070
     0
1040
0.0
1040
0.0
1040
0.0
1040
1.0
1040
1.0
1040
10.0
1040
10.0
1070
     0
1002
{
1002
}
1002
}
  0
ENDSEC
  0
SECTION
  2
OBJECTS
  0
DICTIONARY
  5
C
330
0
100
AcDbDictionary
  3
ACAD_GROUP
350
D
  3
ACAD_LAYOUT
350
565
  3
ACAD_MLINESTYLE
350
E
  3
ACAD_PLOTSETTINGS
350
566
  3
ACAD_PLOTSTYLENAME
350
563
  3
ACDBHEADERROUNDTRIPXREC
350
1272
  3
GRADE_DWG
350
540
  0
DICTIONARY
  5
A9B
330
1A
100
AcDbDictionary
280
     1
  3
ACAD_LAYOUTSELFREF
360
1294
  0
DICTIONARY
  5
A99
330
17
100
AcDbDictionary
280
     1
  3
ACAD_LAYOUTSELFREF
360
1293
  0
DICTIONARY
  5
D
102
{ACAD_REACTORS
330
C
102
}
330
C
100
AcDbDictionary
  3
*A1
350
6C7
  3
*A2
350
6C8
  3
*A3
350
6D4
  3
*A4
350
6D5
  3
DREC-1
350
5FC
  3
DREC-2
350
654
  3
DREC-3
350
673
  0
DICTIONARY
  5
565
102
{ACAD_REACTORS
330
C
102
}
330
C
100
AcDbDictionary
  0
DICTIONARY
  5
E
102
{ACAD_REACTORS
330
C
102
}
330
C
100
AcDbDictionary
  3
STANDARD
350
13
  0
DICTIONARY
  5
566
102
{ACAD_REACTORS
330
C
102
}
330
C
100
AcDbDictionary
  3
A3_0_5倍_
350
758
  3
A3_1倍_
350
757
  3
A3_1倍__2000_
350
707
  3
A3_2倍_
350
759
  3
A4_0_5倍_
350
755
  3
A4_1倍_
350
754
  3
A4_1倍__2000_
350
708
  3
A4_2倍_
350
756
  0
ACDBDICTIONARYWDFLT
  5
563
102
{ACAD_REACTORS
330
C
102
}
330
C
100
AcDbDictionary
281
     1
  3
Normal
350
564
100
AcDbDictionaryWithDefault
340
564
  0
DICTIONARY
  5
1272
102
{ACAD_REACTORS
330
C
102
}
330
C
100
AcDbDictionary
  3
CEPSNTYPE
350
127C
  3
DIMSTYLEDATA
350
1280
  3
FINGERPRINTGUID
350
127D
  3
HYPERLINKBASE
350
1275
  3
INSUNITS
350
127B
  3
LAYOUTDICT
350
1277
  3
LWETCUNION
350
127A
  3
PLOTSETDICT
350
1278
  3
PLOTSTYLNAMDICT
350
1279
  3
PSVPSCALE
350
127F
  3
PUCSBASE
350
1283
  3
PUCSORGBACK
350
1289
  3
PUCSORGBOTTOM
350
1285
  3
PUCSORGFRONT
350
1288
  3
PUCSORGLEFT
350
1286
  3
PUCSORGRIGHT
350
1287
  3
PUCSORGTOP
350
1284
  3
PUCSORTHOREF
350
1281
  3
PUCSORTHOVIEW
350
1282
  3
STYLESHEET
350
1276
  3
TSTACKALIGN
350
1273
  3
TSTACKSIZE
350
1274
  3
UCSBASE
350
128C
  3
UCSORGBACK
350
1292
  3
UCSORGBOTTOM
350
128E
  3
UCSORGFRONT
350
1291
  3
UCSORGLEFT
350
128F
  3
UCSORGRIGHT
350
1290
  3
UCSORGTOP
350
128D
  3
UCSORTHOREF
350
128A
  3
UCSORTHOVIEW
350
128B
  3
VERSIONGUID
350
127E
  0
DICTIONARY
  5
540
102
{ACAD_REACTORS
330
C
102
}
330
C
100
AcDbDictionary
  3
VERSION
350
560
  0
XRECORD
  5
1294
102
{ACAD_REACTORS
330
A9B
102
}
330
A9B
100
AcDbXrecord
340
1A
  0
XRECORD
  5
1293
102
{ACAD_REACTORS
330
A99
102
}
330
A99
100
AcDbXrecord
340
17
  0
GROUP
  5
6C7
102
{ACAD_REACTORS
330
D
102
}
330
D
100
AcDbGroup
300

 70
     0
 71
     1
1001
GRPNAME
1000
DMA00
  0
GROUP
  5
6C8
102
{ACAD_REACTORS
330
D
102
}
330
D
100
AcDbGroup
300

 70
     0
 71
     1
1001
GRPNAME
1000
DMA00
  0
GROUP
  5
6D4
102
{ACAD_REACTORS
330
D
102
}
330
D
100
AcDbGroup
300

 70
     0
 71
     1
1001
GRPNAME
1000
DMA00
  0
GROUP
  5
6D5
102
{ACAD_REACTORS
330
D
102
}
330
D
100
AcDbGroup
300

 70
     0
 71
     1
1001
GRPNAME
1000
DMA00
  0
GROUP
  5
5FC
102
{ACAD_REACTORS
330
D
102
}
330
D
100
AcDbGroup
300

 70
     0
 71
     1
1001
GRPNAME
1000
DREC-
1001
GPARA
1000
xsiz
1000
44.182
1000
ysiz
1000
40.677
1000
angl
1000
0
1000
ctyp
1000
0
1000
csiz
1000
5
1000
lfnt
1000
cont
1000
hcnt
1000
hoff
1000
vcnt
1000
voff
1000
opnt
1000
4
1000
dxpt
1000
0
1000
dypt
1000
0
  0
GROUP
  5
654
102
{ACAD_REACTORS
330
D
102
}
330
D
100
AcDbGroup
300

 70
     0
 71
     1
1001
GRPNAME
1000
DREC-
1001
GPARA
1000
xsiz
1000
54.592
1000
ysiz
1000
53.036
1000
angl
1000
0
1000
ctyp
1000
0
1000
csiz
1000
5
1000
lfnt
1000
cont
1000
hcnt
1000
hoff
1000
vcnt
1000
voff
1000
opnt
1000
4
1000
dxpt
1000
0
1000
dypt
1000
0
  0
GROUP
  5
673
102
{ACAD_REACTORS
330
D
102
}
330
D
100
AcDbGroup
300

 70
     0
 71
     1
1001
GRPNAME
1000
DREC-
1001
GPARA
1000
xsiz
1000
30.363
1000
ysiz
1000
36.175
1000
angl
1000
0
1000
ctyp
1000
0
1000
csiz
1000
5
1000
lfnt
1000
cont
1000
hcnt
1000
hoff
1000
vcnt
1000
voff
1000
opnt
1000
4
1000
dxpt
1000
0
1000
dypt
1000
0
  0
MLINESTYLE
  5
13
102
{ACAD_REACTORS
330
E
102
}
330
E
100
AcDbMlineStyle
  2
STANDARD
 70
     0
  3

 62
     0
 51
90.0
 52
90.0
 71
     2
 49
0.5
 62
   256
  6
BYLAYER
 49
-0.5
 62
   256
  6
BYLAYER
  0
PLOTSETTINGS
  5
758
102
{ACAD_REACTORS
330
566
102
}
330
566
100
AcDbPlotSettings
  1
A3(0.5倍)
  2
\\AWTECPC05\HP DeskJet 1120C
  4
A3
  6

 40
5.95841646
 41
13.49375153
 42
6.04309082
 43
3.67242432
 44
296.92599487
 45
419.94665527
 46
89.96
 47
127.14
 48
0.0
 49
0.0
140
0.0
141
0.0
142
1.0
143
2.0
 70
  1716
 72
     1
 73
     1
 74
     2
  7
big.ctb
 75
    17
147
0.5
148
0.0
149
0.0
  0
PLOTSETTINGS
  5
757
102
{ACAD_REACTORS
330
566
102
}
330
566
100
AcDbPlotSettings
  1
A3(1倍)
  2
\\AWTECPC05\HP DeskJet 1120C
  4
A3
  6

 40
5.95841646
 41
13.49375153
 42
6.04309082
 43
3.67242432
 44
296.92599487
 45
419.94665527
 46
37.46
 47
52.89
 48
0.0
 49
0.0
140
0.0
141
0.0
142
1.0
143
1.0
 70
  1716
 72
     1
 73
     1
 74
     2
  7
big.ctb
 75
    16
147
1.0
148
0.0
149
0.0
  0
PLOTSETTINGS
  5
707
102
{ACAD_REACTORS
330
566
102
}
330
566
100
AcDbPlotSettings
  1
A3(1倍)(2000)
  2
SII LS-1300 (D-SCAN)
  4
User258
  6

 40
3.17499995
 41
3.17499995
 42
3.17498779
 43
3.17498779
 44
419.98898315
 45
296.98950195
 46
58.32
 47
40.32
 48
0.0
 49
0.0
140
0.0
141
0.0
142
1.0
143
1.0
 70
  1716
 72
     1
 73
     0
 74
     2
  7
big.ctb
 75
    16
147
1.0
148
0.0
149
0.0
  0
PLOTSETTINGS
  5
759
102
{ACAD_REACTORS
330
566
102
}
330
566
100
AcDbPlotSettings
  1
A3(2倍)
  2
\\AWTECPC05\HP DeskJet 1120C
  4
A3
  6

 40
5.95841646
 41
13.49375153
 42
6.04309082
 43
3.67242432
 44
296.92599487
 45
419.94665527
 46
-67.54
 47
-95.61
 48
0.0
 49
0.0
140
0.0
141
0.0
142
1.0
143
0.5
 70
  1716
 72
     1
 73
     1
 74
     2
  7
big.ctb
 75
    27
147
2.0
148
0.0
149
0.0
  0
PLOTSETTINGS
  5
755
102
{ACAD_REACTORS
330
566
102
}
330
566
100
AcDbPlotSettings
  1
A4(0.5倍)
  2
\\AWTECPC05\HP DeskJet 1120C
  4
A4
  6

 40
4.18041658
 41
13.49374962
 42
4.18040466
 43
3.92642212
 44
209.97332764
 45
296.92599487
 46
48.31
 47
65.5
 48
0.0
 49
0.0
140
0.0
141
0.0
142
1.0
143
2.0
 70
  1716
 72
     1
 73
     1
 74
     2
  7
big.ctb
 75
    17
147
0.5
148
0.0
149
0.0
  0
PLOTSETTINGS
  5
754
102
{ACAD_REACTORS
330
566
102
}
330
566
100
AcDbPlotSettings
  1
A4(1倍)
  2
\\AWTECPC05\HP DeskJet 1120C
  4
A4
  6

 40
4.18041658
 41
13.49374962
 42
4.18040466
 43
3.92642212
 44
209.97332764
 45
296.92599487
 46
-4.19
 47
-8.75
 48
0.0
 49
0.0
140
0.0
141
0.0
142
1.0
143
1.0
 70
  1716
 72
     1
 73
     1
 74
     2
  7
big.ctb
 75
    16
147
1.0
148
0.0
149
0.0
  0
PLOTSETTINGS
  5
708
102
{ACAD_REACTORS
330
566
102
}
330
566
100
AcDbPlotSettings
  1
A4(1倍)(2000)
  2
SII LS-1300 (D-SCAN)
  4
User259
  6

 40
3.17499995
 41
3.17499995
 42
3.17498779
 43
3.17500305
 44
296.98950195
 45
209.99449158
 46
-3.18
 47
-3.18
 48
0.0
 49
0.0
140
0.0
141
0.0
142
1.0
143
1.0
 70
  1716
 72
     1
 73
     0
 74
     2
  7
big.ctb
 75
    16
147
1.0
148
0.0
149
0.0
  0
PLOTSETTINGS
  5
756
102
{ACAD_REACTORS
330
566
102
}
330
566
100
AcDbPlotSettings
  1
A4(2倍)
  2
\\AWTECPC05\HP DeskJet 1120C
  4
A4
  6

 40
4.18041658
 41
13.49374962
 42
4.18040466
 43
3.92642212
 44
209.97332764
 45
296.92599487
 46
-109.19
 47
-157.25
 48
0.0
 49
0.0
140
0.0
141
0.0
142
1.0
143
0.5
 70
  1716
 72
     1
 73
     1
 74
     2
  7
big.ctb
 75
    27
147
2.0
148
0.0
149
0.0
  0
ACDBPLACEHOLDER
  5
564
102
{ACAD_REACTORS
330
563
102
}
330
563
100
AcDbPlaceHolder
280
     0
  0
XRECORD
  5
127C
102
{ACAD_REACTORS
330
1272
102
}
330
1272
100
AcDbXrecord
 90
        0
  0
XRECORD
  5
1280
102
{ACAD_REACTORS
330
1272
102
}
330
1272
100
AcDbXrecord
1000
DSTYLE
1002
{
1070
   341
340
594
1070
   343
340
594
1070
   344
340
594
1002
}
  0
XRECORD
  5
127D
102
{ACAD_REACTORS
330
1272
102
}
330
1272
100
AcDbXrecord
  1
{51294030-9CB4-11D3-8E18-00A0C925D94D}
  0
XRECORD
  5
1275
102
{ACAD_REACTORS
330
1272
102
}
330
1272
100
AcDbXrecord
  1

  0
XRECORD
  5
127B
102
{ACAD_REACTORS
330
1272
102
}
330
1272
100
AcDbXrecord
 90
        0
  0
XRECORD
  5
1277
102
{ACAD_REACTORS
330
1272
102
}
330
1272
100
AcDbXrecord
340
565
  0
XRECORD
  5
127A
102
{ACAD_REACTORS
330
1272
102
}
330
1272
100
AcDbXrecord
 90
    10781
  0
XRECORD
  5
1278
102
{ACAD_REACTORS
330
1272
102
}
330
1272
100
AcDbXrecord
340
566
  0
XRECORD
  5
1279
102
{ACAD_REACTORS
330
1272
102
}
330
1272
100
AcDbXrecord
340
563
  0
XRECORD
  5
127F
102
{ACAD_REACTORS
330
1272
102
}
330
1272
100
AcDbXrecord
 40
0.0
  0
XRECORD
  5
1283
102
{ACAD_REACTORS
330
1272
102
}
330
1272
100
AcDbXrecord
340
0
  0
XRECORD
  5
1289
102
{ACAD_REACTORS
330
1272
102
}
330
1272
100
AcDbXrecord
 10
0.0
 20
0.0
 30
0.0
  0
XRECORD
  5
1285
102
{ACAD_REACTORS
330
1272
102
}
330
1272
100
AcDbXrecord
 10
0.0
 20
0.0
 30
0.0
  0
XRECORD
  5
1288
102
{ACAD_REACTORS
330
1272
102
}
330
1272
100
AcDbXrecord
 10
0.0
 20
0.0
 30
0.0
  0
XRECORD
  5
1286
102
{ACAD_REACTORS
330
1272
102
}
330
1272
100
AcDbXrecord
 10
0.0
 20
0.0
 30
0.0
  0
XRECORD
  5
1287
102
{ACAD_REACTORS
330
1272
102
}
330
1272
100
AcDbXrecord
 10
0.0
 20
0.0
 30
0.0
  0
XRECORD
  5
1284
102
{ACAD_REACTORS
330
1272
102
}
330
1272
100
AcDbXrecord
 10
0.0
 20
0.0
 30
0.0
  0
XRECORD
  5
1281
102
{ACAD_REACTORS
330
1272
102
}
330
1272
100
AcDbXrecord
340
0
  0
XRECORD
  5
1282
102
{ACAD_REACTORS
330
1272
102
}
330
1272
100
AcDbXrecord
 70
     0
  0
XRECORD
  5
1276
102
{ACAD_REACTORS
330
1272
102
}
330
1272
100
AcDbXrecord
  1
big.ctb
  0
XRECORD
  5
1273
102
{ACAD_REACTORS
330
1272
102
}
330
1272
100
AcDbXrecord
 90
        1
  0
XRECORD
  5
1274
102
{ACAD_REACTORS
330
1272
102
}
330
1272
100
AcDbXrecord
 90
       70
  0
XRECORD
  5
128C
102
{ACAD_REACTORS
330
1272
102
}
330
1272
100
AcDbXrecord
340
0
  0
XRECORD
  5
1292
102
{ACAD_REACTORS
330
1272
102
}
330
1272
100
AcDbXrecord
 10
0.0
 20
0.0
 30
0.0
  0
XRECORD
  5
128E
102
{ACAD_REACTORS
330
1272
102
}
330
1272
100
AcDbXrecord
 10
0.0
 20
0.0
 30
0.0
  0
XRECORD
  5
1291
102
{ACAD_REACTORS
330
1272
102
}
330
1272
100
AcDbXrecord
 10
0.0
 20
0.0
 30
0.0
  0
XRECORD
  5
128F
102
{ACAD_REACTORS
330
1272
102
}
330
1272
100
AcDbXrecord
 10
0.0
 20
0.0
 30
0.0
  0
XRECORD
  5
1290
102
{ACAD_REACTORS
330
1272
102
}
330
1272
100
AcDbXrecord
 10
0.0
 20
0.0
 30
0.0
  0
XRECORD
  5
128D
102
{ACAD_REACTORS
330
1272
102
}
330
1272
100
AcDbXrecord
 10
0.0
 20
0.0
 30
0.0
  0
XRECORD
  5
128A
102
{ACAD_REACTORS
330
1272
102
}
330
1272
100
AcDbXrecord
340
0
  0
XRECORD
  5
128B
102
{ACAD_REACTORS
330
1272
102
}
330
1272
100
AcDbXrecord
 70
     0
  0
XRECORD
  5
127E
102
{ACAD_REACTORS
330
1272
102
}
330
1272
100
AcDbXrecord
  1
{D3DDE800-1CEB-451B-BDFF-FB8F5621B184}
  0
XRECORD
  5
560
102
{ACAD_REACTORS
330
540
102
}
330
540
100
AcDbXrecord
  1
2.0.0
  0
ENDSEC
  0
EOF
