  0
SECTION
  2
HEADER
  9
$ACADVER
  1
AC1014
  9
$ACADMAINTVER
 70
     9
  9
$DWGCODEPAGE
  3
ANSI_932
  9
$INSBASE
 10
0.0
 20
0.0
 30
0.0
  9
$EXTMIN
 10
-31.01376238
 20
-47.01049725
 30
-0.00152582
  9
$EXTMAX
 10
225.02040182
 20
75.0030523
 30
0.00000003
  9
$LIMMIN
 10
0.0
 20
0.0
  9
$LIMMAX
 10
420.0
 20
297.0
  9
$ORTHOMODE
 70
     1
  9
$REGENMODE
 70
     1
  9
$FILLMODE
 70
     1
  9
$QTEXTMODE
 70
     0
  9
$MIRRTEXT
 70
     1
  9
$DRAGMODE
 70
     2
  9
$LTSCALE
 40
10.0
  9
$OSMODE
 70
   549
  9
$ATTMODE
 70
     1
  9
$TEXTSIZE
 40
3.0
  9
$TRACEWID
 40
1.0
  9
$TEXTSTYLE
  7
YOKO
  9
$CLAYER
  8
245
  9
$CELTYPE
  6
BYLAYER
  9
$CECOLOR
 62
   256
  9
$CELTSCALE
 40
1.0
  9
$DELOBJ
 70
     1
  9
$DISPSILH
 70
     0
  9
$DIMSCALE
 40
1.0
  9
$DIMASZ
 40
2.23
  9
$DIMEXO
 40
0.5
  9
$DIMDLI
 40
2.5
  9
$DIMRND
 40
0.0
  9
$DIMDLE
 40
0.0
  9
$DIMEXE
 40
1.0
  9
$DIMTP
 40
0.0
  9
$DIMTM
 40
0.0
  9
$DIMTXT
 40
2.8
  9
$DIMCEN
 40
0.0
  9
$DIMTSZ
 40
0.0
  9
$DIMTOL
 70
     0
  9
$DIMLIM
 70
     0
  9
$DIMTIH
 70
     0
  9
$DIMTOH
 70
     0
  9
$DIMSE1
 70
     0
  9
$DIMSE2
 70
     0
  9
$DIMTAD
 70
     3
  9
$DIMZIN
 70
     8
  9
$DIMBLK
  1

  9
$DIMASO
 70
     1
  9
$DIMSHO
 70
     1
  9
$DIMPOST
  1

  9
$DIMAPOST
  1

  9
$DIMALT
 70
     0
  9
$DIMALTD
 70
     2
  9
$DIMALTF
 40
25.4
  9
$DIMLFAC
 40
1.0
  9
$DIMTOFL
 70
     1
  9
$DIMTVP
 40
0.0
  9
$DIMTIX
 70
     1
  9
$DIMSOXD
 70
     0
  9
$DIMSAH
 70
     1
  9
$DIMBLK1
  1
OPEN
  9
$DIMBLK2
  1
OPEN
  9
$DIMSTYLE
  2
BIGT
  9
$DIMCLRD
 70
   256
  9
$DIMCLRE
 70
   256
  9
$DIMCLRT
 70
    40
  9
$DIMTFAC
 40
1.0
  9
$DIMGAP
 40
1.0
  9
$DIMJUST
 70
     0
  9
$DIMSD1
 70
     0
  9
$DIMSD2
 70
     0
  9
$DIMTOLJ
 70
     1
  9
$DIMTZIN
 70
     8
  9
$DIMALTZ
 70
     0
  9
$DIMALTTZ
 70
     0
  9
$DIMFIT
 70
     3
  9
$DIMUPT
 70
     0
  9
$DIMUNIT
 70
     2
  9
$DIMDEC
 70
     3
  9
$DIMTDEC
 70
     3
  9
$DIMALTU
 70
     2
  9
$DIMALTTD
 70
     2
  9
$DIMTXSTY
  7
STANDARD
  9
$DIMAUNIT
 70
     0
  9
$LUNITS
 70
     2
  9
$LUPREC
 70
     3
  9
$SKETCHINC
 40
1.0
  9
$FILLETRAD
 40
0.0
  9
$AUNITS
 70
     0
  9
$AUPREC
 70
     3
  9
$MENU
  1
.
  9
$ELEVATION
 40
0.0
  9
$PELEVATION
 40
0.0
  9
$THICKNESS
 40
0.0
  9
$LIMCHECK
 70
     0
  9
$BLIPMODE
 70
     0
  9
$CHAMFERA
 40
10.0
  9
$CHAMFERB
 40
10.0
  9
$CHAMFERC
 40
0.0
  9
$CHAMFERD
 40
0.0
  9
$SKPOLY
 70
     0
  9
$TDCREATE
 40
2455106.464085104
  9
$TDUPDATE
 40
2455390.716325405
  9
$TDINDWG
 40
0.0228132176
  9
$TDUSRTIMER
 40
0.0228132176
  9
$USRTIMER
 70
     1
  9
$ANGBASE
 50
0.0
  9
$ANGDIR
 70
     0
  9
$PDMODE
 70
     1
  9
$PDSIZE
 40
-5.0
  9
$PLINEWID
 40
0.0
  9
$COORDS
 70
     1
  9
$SPLFRAME
 70
     0
  9
$SPLINETYPE
 70
     6
  9
$SPLINESEGS
 70
     8
  9
$ATTDIA
 70
     0
  9
$ATTREQ
 70
     1
  9
$HANDLING
 70
-16383
  9
$HANDSEED
  5
1015
  9
$SURFTAB1
 70
     6
  9
$SURFTAB2
 70
     6
  9
$SURFTYPE
 70
     6
  9
$SURFU
 70
     6
  9
$SURFV
 70
     6
  9
$UCSNAME
  2

  9
$UCSORG
 10
0.0
 20
0.0
 30
0.0
  9
$UCSXDIR
 10
1.0
 20
0.0
 30
0.0
  9
$UCSYDIR
 10
0.0
 20
1.0
 30
0.0
  9
$PUCSNAME
  2

  9
$PUCSORG
 10
0.0
 20
0.0
 30
0.0
  9
$PUCSXDIR
 10
1.0
 20
0.0
 30
0.0
  9
$PUCSYDIR
 10
0.0
 20
1.0
 30
0.0
  9
$USERI1
 70
     1
  9
$USERI2
 70
     0
  9
$USERI3
 70
     0
  9
$USERI4
 70
     0
  9
$USERI5
 70
     0
  9
$USERR1
 40
0.0
  9
$USERR2
 40
0.0
  9
$USERR3
 40
0.0
  9
$USERR4
 40
0.0
  9
$USERR5
 40
0.0
  9
$WORLDVIEW
 70
     1
  9
$SHADEDGE
 70
     3
  9
$SHADEDIF
 70
    70
  9
$TILEMODE
 70
     1
  9
$MAXACTVP
 70
    16
  9
$PINSBASE
 10
0.0
 20
0.0
 30
0.0
  9
$PLIMCHECK
 70
     0
  9
$PEXTMIN
 10
1.00000000E+20
 20
1.00000000E+20
 30
1.00000000E+20
  9
$PEXTMAX
 10
-1.00000000E+20
 20
-1.00000000E+20
 30
-1.00000000E+20
  9
$PLIMMIN
 10
0.0
 20
0.0
  9
$PLIMMAX
 10
420.0
 20
297.0
  9
$UNITMODE
 70
     0
  9
$VISRETAIN
 70
     0
  9
$PLINEGEN
 70
     0
  9
$PSLTSCALE
 70
     1
  9
$TREEDEPTH
 70
  3020
  9
$PICKSTYLE
 70
     0
  9
$CMLSTYLE
  2
STANDARD
  9
$CMLJUST
 70
     0
  9
$CMLSCALE
 40
1.0
  9
$PROXYGRAPHICS
 70
     1
  9
$MEASUREMENT
 70
     1
  0
ENDSEC
  0
SECTION
  2
CLASSES
  0
CLASS
  1
XRECORD
  2
AcDbXrecord
  3
AutoCAD 2000
 90
        0
280
     0
281
     0
  0
CLASS
  1
ACDBDICTIONARYWDFLT
  2
AcDbDictionaryWithDefault
  3
AutoCAD 2000
 90
        0
280
     0
281
     0
  0
CLASS
  1
ACDBPLACEHOLDER
  2
AcDbPlaceHolder
  3
AutoCAD 2000
 90
        0
280
     0
281
     0
  0
CLASS
  1
LAYOUT
  2
AcDbLayout
  3
AutoCAD 2000
 90
        0
280
     0
281
     0
  0
CLASS
  1
PLOTSETTINGS
  2
AcDbPlotSettings
  3
AutoCAD 2000
 90
        0
280
     0
281
     0
  0
CLASS
  1
LONG_TRANSACTION
  2
AcDbLongTransaction
  3
AutoCAD 2000
 90
        0
280
     0
281
     0
  0
CLASS
  1
LWPOLYLINE
  2
AcDbPolyline
  3
AutoCAD 2000
 90
        0
280
     0
281
     1
  0
CLASS
  1
HATCH
  2
AcDbHatch
  3
AutoCAD 2000
 90
        0
280
     0
281
     1
  0
CLASS
  1
XRECORD
  2
AcDbXrecord
  3
AutoCAD 2000
 90
        0
280
     0
281
     0
  0
CLASS
  1
LONG_TRANSACTION
  2
AcDbLongTransaction
  3
AutoCAD 2000
 90
        0
280
     0
281
     0
  0
CLASS
  1
LWPOLYLINE
  2
AcDbPolyline
  3
AutoCAD 2000
 90
        0
280
     0
281
     1
  0
CLASS
  1
HATCH
  2
AcDbHatch
  3
AutoCAD 2000
 90
        0
280
     0
281
     1
  0
CLASS
  1
XRECORD
  2
AcDbXrecord
  3
AutoCAD 2000
 90
        0
280
     0
281
     0
  0
CLASS
  1
LONG_TRANSACTION
  2
AcDbLongTransaction
  3
AutoCAD 2000
 90
        0
280
     0
281
     0
  0
CLASS
  1
LWPOLYLINE
  2
AcDbPolyline
  3
AutoCAD 2000
 90
        0
280
     0
281
     1
  0
CLASS
  1
HATCH
  2
AcDbHatch
  3
AutoCAD 2000
 90
        0
280
     0
281
     1
  0
CLASS
  1
XRECORD
  2
AcDbXrecord
  3
AutoCAD 2000
 90
        0
280
     0
281
     0
  0
ENDSEC
  0
SECTION
  2
TABLES
  0
TABLE
  2
VPORT
  5
8
330
0
100
AcDbSymbolTable
 70
     4
  0
VPORT
  5
FE7
330
8
100
AcDbSymbolTableRecord
100
AcDbViewportTableRecord
  2
*ACTIVE
 70
     0
 10
0.0
 20
0.0
 11
1.0
 21
1.0
 12
97.00331972
 22
13.99627753
 13
0.0
 23
0.0
 14
7.0
 24
7.0
 15
7.0
 25
7.0
 16
0.0
 26
0.0
 36
1.0
 17
0.0
 27
0.0
 37
0.0
 40
176.7901474
 41
1.45595855
 42
50.0
 43
0.0
 44
0.0
 50
0.0
 51
0.0
 71
     0
 72
  2000
 73
     1
 74
     0
 75
     0
 76
     0
 77
     0
 78
     0
  0
ENDTAB
  0
TABLE
  2
LTYPE
  5
5
330
0
100
AcDbSymbolTable
 70
     4
  0
LTYPE
  5
14
330
5
100
AcDbSymbolTableRecord
100
AcDbLinetypeTableRecord
  2
BYBLOCK
 70
     0
  3

 72
    65
 73
     0
 40
0.0
  0
LTYPE
  5
15
330
5
100
AcDbSymbolTableRecord
100
AcDbLinetypeTableRecord
  2
BYLAYER
 70
     0
  3

 72
    65
 73
     0
 40
0.0
  0
LTYPE
  5
16
330
5
100
AcDbSymbolTableRecord
100
AcDbLinetypeTableRecord
  2
CONTINUOUS
 70
     0
  3
Solid line
 72
    65
 73
     0
 40
0.0
  0
LTYPE
  5
258
330
5
100
AcDbSymbolTableRecord
100
AcDbLinetypeTableRecord
  2
CENTER2
 70
     0
  3
___ _ ___ _ ___ _ ___ _ ___ _ ___ _ ___ _ ___ _
 72
    65
 73
     4
 40
1.125
 49
0.75
 74
     0
 49
-0.125
 74
     0
 49
0.125
 74
     0
 49
-0.125
 74
     0
  0
LTYPE
  5
25C
330
5
100
AcDbSymbolTableRecord
100
AcDbLinetypeTableRecord
  2
HIDDEN2
 70
     0
  3
_ _ _ _ _ _ _ _ _ _ _ _ _ _ _ _ _ _ _ _ _ _ _ _
 72
    65
 73
     2
 40
0.1875
 49
0.125
 74
     0
 49
-0.0625
 74
     0
  0
LTYPE
  5
25D
330
5
100
AcDbSymbolTableRecord
100
AcDbLinetypeTableRecord
  2
PHANTOM2
 70
     0
  3
___ _ _ ___ _ _ ___ _ _ ___ _ _ ___ _ _ ___ _ _
 72
    65
 73
     6
 40
1.25
 49
0.625
 74
     0
 49
-0.125
 74
     0
 49
0.125
 74
     0
 49
-0.125
 74
     0
 49
0.125
 74
     0
 49
-0.125
 74
     0
  0
ENDTAB
  0
TABLE
  2
LAYER
  5
2
330
0
100
AcDbSymbolTable
 70
     9
  0
LAYER
  5
F
330
2
100
AcDbSymbolTableRecord
100
AcDbLayerTableRecord
  2
0
 70
     0
 62
     7
  6
CONTINUOUS
  0
LAYER
  5
1AA
330
2
100
AcDbSymbolTableRecord
100
AcDbLayerTableRecord
  2
240
 70
     0
 62
     4
  6
CONTINUOUS
  0
LAYER
  5
1AB
330
2
100
AcDbSymbolTableRecord
100
AcDbLayerTableRecord
  2
241
 70
     0
 62
   211
  6
CONTINUOUS
  0
LAYER
  5
1AC
330
2
100
AcDbSymbolTableRecord
100
AcDbLayerTableRecord
  2
242
 70
     0
 62
     3
  6
CONTINUOUS
  0
LAYER
  5
1AF
330
2
100
AcDbSymbolTableRecord
100
AcDbLayerTableRecord
  2
245
 70
     0
 62
     2
  6
CENTER2
  0
LAYER
  5
21E
330
2
100
AcDbSymbolTableRecord
100
AcDbLayerTableRecord
  2
250
 70
     0
 62
     3
  6
CONTINUOUS
  0
LAYER
  5
21F
330
2
100
AcDbSymbolTableRecord
100
AcDbLayerTableRecord
  2
251
 70
     0
 62
    40
  6
CONTINUOUS
  0
LAYER
  5
5C4
330
2
100
AcDbSymbolTableRecord
100
AcDbLayerTableRecord
  2
DEFPOINTS
 70
     0
 62
     7
  6
CONTINUOUS
  0
ENDTAB
  0
TABLE
  2
STYLE
  5
3
330
0
100
AcDbSymbolTable
 70
     2
  0
STYLE
  5
10
330
3
100
AcDbSymbolTableRecord
100
AcDbTextStyleTableRecord
  2
STANDARD
 70
     0
 40
0.0
 41
1.0
 50
0.0
 71
     0
 42
3.0
  3
romans.shx
  4
BIGFONT.SHX
  0
STYLE
  5
339
330
3
100
AcDbSymbolTableRecord
100
AcDbTextStyleTableRecord
  2
YOKO
 70
     0
 40
0.0
 41
1.0
 50
0.0
 71
     0
 42
3.0
  3
romans.shx
  4
extfont.shx
  0
ENDTAB
  0
TABLE
  2
VIEW
  5
6
330
0
100
AcDbSymbolTable
 70
     1
  0
VIEW
  5
FE5
330
6
100
AcDbSymbolTableRecord
100
AcDbViewTableRecord
  2
OLE1
 70
     0
 40
176.7901474
 10
97.00331972
 20
13.99627753
 41
257.39912653
 11
0.0
 21
0.0
 31
1.0
 12
0.0
 22
0.0
 32
0.0
 42
50.0
 43
0.0
 44
0.0
 50
0.0
 71
     0
  0
ENDTAB
  0
TABLE
  2
UCS
  5
7
330
0
100
AcDbSymbolTable
 70
     0
  0
ENDTAB
  0
TABLE
  2
APPID
  5
9
330
0
100
AcDbSymbolTable
 70
    12
  0
APPID
  5
11
330
9
100
AcDbSymbolTableRecord
100
AcDbRegAppTableRecord
  2
ACAD
 70
     0
  0
APPID
  5
1B1
330
9
100
AcDbSymbolTableRecord
100
AcDbRegAppTableRecord
  2
GLOBAL
 70
     0
  0
APPID
  5
2A4
330
9
100
AcDbSymbolTableRecord
100
AcDbRegAppTableRecord
  2
DETAIL
 70
     0
  0
APPID
  5
5FD
330
9
100
AcDbSymbolTableRecord
100
AcDbRegAppTableRecord
  2
GRPNAME
 70
     0
  0
APPID
  5
5FE
330
9
100
AcDbSymbolTableRecord
100
AcDbRegAppTableRecord
  2
GPARA
 70
     0
  0
APPID
  5
6C4
330
9
100
AcDbSymbolTableRecord
100
AcDbRegAppTableRecord
  2
DCO15
 70
     0
  0
APPID
  5
6C5
330
9
100
AcDbSymbolTableRecord
100
AcDbRegAppTableRecord
  2
ITEMNAME
 70
     0
  0
APPID
  5
6C6
330
9
100
AcDbSymbolTableRecord
100
AcDbRegAppTableRecord
  2
GRADE_0
 70
     0
  0
APPID
  5
813
330
9
100
AcDbSymbolTableRecord
100
AcDbRegAppTableRecord
  2
ASK_MEN_XD
 70
     0
  0
APPID
  5
90E
330
9
100
AcDbSymbolTableRecord
100
AcDbRegAppTableRecord
  2
LAYER_SCALE
 70
     0
  0
APPID
  5
90F
330
9
100
AcDbSymbolTableRecord
100
AcDbRegAppTableRecord
  2
ASKLEADERCHILD
 70
     0
  0
APPID
  5
BB6
330
9
100
AcDbSymbolTableRecord
100
AcDbRegAppTableRecord
  2
CONTENTBLOCKICON
 70
     0
  0
ENDTAB
  0
TABLE
  2
DIMSTYLE
  5
A
330
0
100
AcDbSymbolTable
 70
     3
  0
DIMSTYLE
105
725
330
A
100
AcDbSymbolTableRecord
100
AcDbDimStyleTableRecord
  2
BIGT
 70
     0
  3

  4

  5

  6
OPEN
  7
OPEN
 40
1.0
 41
2.23
 42
0.5
 43
2.5
 44
1.0
 45
0.0
 46
0.0
 47
0.0
 48
0.0
140
2.8
141
0.0
142
0.0
143
25.4
144
1.0
145
0.0
146
1.0
147
1.0
 71
     0
 72
     0
 73
     0
 74
     0
 75
     0
 76
     0
 77
     3
 78
     8
170
     0
171
     2
172
     1
173
     1
174
     1
175
     0
176
   256
177
   256
178
    40
270
     2
271
     3
272
     3
273
     2
274
     2
340
10
275
     0
280
     0
281
     0
282
     0
283
     1
284
     8
285
     0
286
     0
287
     3
288
     0
  0
DIMSTYLE
105
811
102
{ACAD_REACTORS
330
822
330
9C1
330
BD4
330
EE3
330
EFB
102
}
330
A
100
AcDbSymbolTableRecord
100
AcDbDimStyleTableRecord
  2
BIGT$0
 70
     0
  3

  4
"
  5
OPEN
  6

  7

 40
1.0
 41
2.23
 42
0.5
 43
7.0
 44
1.0
 45
0.0
 46
0.0
 47
0.1
 48
0.1
140
3.0
141
0.0
142
0.0
143
0.0393701
144
1.0
145
0.0
146
0.71
147
1.0
 71
     0
 72
     0
 73
     0
 74
     0
 75
     0
 76
     0
 77
     3
 78
     8
170
     0
171
     2
172
     1
173
     0
174
     0
175
     0
176
     3
177
     3
178
    40
270
     2
271
     3
272
     3
273
     2
274
     2
340
10
275
     0
280
     0
281
     0
282
     0
283
     1
284
     8
285
     0
286
     0
287
     3
288
     0
  0
DIMSTYLE
105
812
330
A
100
AcDbSymbolTableRecord
100
AcDbDimStyleTableRecord
  2
BIGT$7
 70
     0
  3

  4
"
  5
OPEN
  6

  7

 40
1.0
 41
2.5
 42
0.5
 43
7.0
 44
1.0
 45
0.0
 46
0.0
 47
0.1
 48
0.1
140
5.0
141
0.0
142
0.0
143
0.0393701
144
1.0
145
0.0
146
0.71
147
1.5
 71
     0
 72
     0
 73
     0
 74
     0
 75
     0
 76
     0
 77
     3
 78
     8
170
     0
171
     2
172
     1
173
     0
174
     0
175
     0
176
     3
177
     3
178
    40
270
     2
271
     3
272
     3
273
     2
274
     2
340
10
275
     0
280
     0
281
     0
282
     0
283
     1
284
     8
285
     0
286
     0
287
     3
288
     0
  0
ENDTAB
  0
TABLE
  2
BLOCK_RECORD
  5
1
330
0
100
AcDbSymbolTable
 70
     9
  0
BLOCK_RECORD
  5
1A
102
{ACAD_XDICTIONARY
360
BB4
102
}
330
1
100
AcDbSymbolTableRecord
100
AcDbBlockTableRecord
  2
*MODEL_SPACE
  0
BLOCK_RECORD
  5
17
102
{ACAD_XDICTIONARY
360
BB2
102
}
330
1
100
AcDbSymbolTableRecord
100
AcDbBlockTableRecord
  2
*PAPER_SPACE
  0
BLOCK_RECORD
  5
594
330
1
100
AcDbSymbolTableRecord
100
AcDbBlockTableRecord
  2
_OPEN
  0
BLOCK_RECORD
  5
6E3
330
1
100
AcDbSymbolTableRecord
100
AcDbBlockTableRecord
  2
矢印なし
  0
BLOCK_RECORD
  5
76C
330
1
100
AcDbSymbolTableRecord
100
AcDbBlockTableRecord
  2
1
1001
CONTENTBLOCKICON
1071
        0
1004
2800000020000000200000000100080000000000000400000000000000000000000000000000000000000000000080000080000000808000800000008000800080800000C0C0C000C0DCC000F0CAA6000020400000206000002080000020A0000020C0000020E00000400000004020000040400000406000004080000040A0
1004
000040C0000040E00000600000006020000060400000606000006080000060A0000060C0000060E00000800000008020000080400000806000008080000080A0000080C0000080E00000A0000000A0200000A0400000A0600000A0800000A0A00000A0C00000A0E00000C0000000C0200000C0400000C0600000C0800000C0
1004
A00000C0C00000C0E00000E0000000E0200000E0400000E0600000E0800000E0A00000E0C00000E0E00040000000400020004000400040006000400080004000A0004000C0004000E00040200000402020004020400040206000402080004020A0004020C0004020E000404000004040200040404000404060004040800040
1004
40A0004040C0004040E00040600000406020004060400040606000406080004060A0004060C0004060E00040800000408020004080400040806000408080004080A0004080C0004080E00040A0000040A0200040A0400040A0600040A0800040A0A00040A0C00040A0E00040C0000040C0200040C0400040C0600040C08000
1004
40C0A00040C0C00040C0E00040E0000040E0200040E0400040E0600040E0800040E0A00040E0C00040E0E00080000000800020008000400080006000800080008000A0008000C0008000E00080200000802020008020400080206000802080008020A0008020C0008020E00080400000804020008040400080406000804080
1004
008040A0008040C0008040E00080600000806020008060400080606000806080008060A0008060C0008060E00080800000808020008080400080806000808080008080A0008080C0008080E00080A0000080A0200080A0400080A0600080A0800080A0A00080A0C00080A0E00080C0000080C0200080C0400080C0600080C0
1004
800080C0A00080C0C00080C0E00080E0000080E0200080E0400080E0600080E0800080E0A00080E0C00080E0E000C0000000C0002000C0004000C0006000C0008000C000A000C000C000C000E000C0200000C0202000C0204000C0206000C0208000C020A000C020C000C020E000C0400000C0402000C0404000C0406000C0
1004
408000C040A000C040C000C040E000C0600000C0602000C0604000C0606000C0608000C060A000C060C000C060E000C0800000C0802000C0804000C0806000C0808000C080A000C080C000C080E000C0A00000C0A02000C0A04000C0A06000C0A08000C0A0A000C0A0C000C0A0E000C0C00000C0C02000C0C04000C0C06000
1004
C0C08000C0C0A000F0FBFF00A4A0A000808080000000FF0000FF000000FFFF00FF000000FF00FF00FFFF0000FFFFFF0000000000000000000000000000000000000000000000000000000000000000000000000000000000000000000000000000000000000000000000000000000000000000000000000000000000000000
1004
00000000000000000000000000000000000000000000000000000000000000000000000000000000000000000000000000000000000000000000000000000000000000000000000000000000000000000000000000000000000000000000000000000000000000000000000000000000000000000000000000000000000000
1004
000000000000000000000000000000000000000000000000000000000000000000000000000000000000000000000000000000000000000000000000000000000000000000000000000000000000000000000000000000000000000000000000000000000000000000000000000000000000000000000000000000E7FEFEFE
1004
FEFEFEFE00000000000000FE000000000000000000000000000000E700000000000000FE0000000000FAFEE7E7FEFA0000000000000000000000FEE700000000000000FE00000000FAE7E7000000E7FA0000000000000000FEE7FEE7E7000000000000FE000000FA00E7E7E7E7E700FEFA00000000FEFEFEFEE7E7E7E7FAFA
1004
FAFAE7E7E70000FAFAE700E7E700E7E7FEFA00000000E70000E7E7E7E7E7E7E7E7E7E7E7FE0000FAE7FEE7E70000E7E7E7FE000000FBE7FBFBE7E7E7E7E7FBFBFBFBFBFBFE0000FAFEE7FBE7E7E7E7E7E7FEFB000000FEFEFEFEE7E7E7E7E7E7E7E7E7E7FE0000FEE700E7E7E7E7E7E7E7FE00000000000000FEE7FEE700E7
1004
E7E7E7FAE7FE000000E7E7E7E7E70000E7E7FE000000000000000000FEFEFEE7E7E7E7FAE7FE00000000FEE7E7E7FEFEE7FE00000000000000000000000000000000000000000000000000FAFA00FAFAFA00000000000000000000000000000000000000000000000000000000FA0000000000000000000000000000000000
1004
00000000000000000000000000000000000000000000000000000000000000000000000000000000000000000000000000000000000000000000000000000000000000000000000000000000000000000000000000000000000000000000000000000000000000000000000000000000000000000000000000000000000000
1004
00000000000000000000000000000000000000000000000000000000000000000000000000000000000000000000000000000000000000000000000000000000000000000000000000000000000000000000000000000000000000000000000000000000000000000000000000000000000000000000000000000000000000
1004
0000000000000000000000000000000000000000000000000000000000000000000000000000000000000000000000000000000000000000
  0
BLOCK_RECORD
  5
828
330
1
100
AcDbSymbolTableRecord
100
AcDbBlockTableRecord
  2
*D3
  0
BLOCK_RECORD
  5
9C2
330
1
100
AcDbSymbolTableRecord
100
AcDbBlockTableRecord
  2
*D4
  0
BLOCK_RECORD
  5
BD5
330
1
100
AcDbSymbolTableRecord
100
AcDbBlockTableRecord
  2
*D5
  0
BLOCK_RECORD
  5
EE4
330
1
100
AcDbSymbolTableRecord
100
AcDbBlockTableRecord
  2
*D7
  0
BLOCK_RECORD
  5
EFC
330
1
100
AcDbSymbolTableRecord
100
AcDbBlockTableRecord
  2
*D8
  0
ENDTAB
  0
ENDSEC
  0
SECTION
  2
BLOCKS
  0
BLOCK
  5
1B
330
1A
100
AcDbEntity
  8
0
100
AcDbBlockBegin
  2
*MODEL_SPACE
 70
     0
 10
0.0
 20
0.0
 30
0.0
  3
*MODEL_SPACE
  1

  0
ENDBLK
  5
1C
330
1A
100
AcDbEntity
  8
0
100
AcDbBlockEnd
  0
BLOCK
  5
18
330
17
100
AcDbEntity
 67
     1
  8
0
100
AcDbBlockBegin
  2
*PAPER_SPACE
 70
     0
 10
0.0
 20
0.0
 30
0.0
  3
*PAPER_SPACE
  1

  0
ENDBLK
  5
19
330
17
100
AcDbEntity
 67
     1
  8
0
100
AcDbBlockEnd
  0
BLOCK
  5
598
330
594
100
AcDbEntity
  8
0
100
AcDbBlockBegin
  2
_OPEN
 70
     0
 10
0.0
 20
0.0
 30
0.0
  3
_OPEN
  1

  0
LINE
  5
595
330
594
100
AcDbEntity
  8
0
  6
BYBLOCK
 62
     0
100
AcDbLine
 10
-1.0
 20
0.16666667
 30
0.0
 11
0.0
 21
0.0
 31
0.0
  0
LINE
  5
596
330
594
100
AcDbEntity
  8
0
  6
BYBLOCK
 62
     0
100
AcDbLine
 10
-1.0
 20
-0.16666667
 30
0.0
 11
0.0
 21
0.0
 31
0.0
  0
LINE
  5
597
330
594
100
AcDbEntity
  8
0
  6
BYBLOCK
 62
     0
100
AcDbLine
 10
0.0
 20
0.0
 30
0.0
 11
-1.0
 21
0.0
 31
0.0
  0
ENDBLK
  5
599
330
594
100
AcDbEntity
  8
0
100
AcDbBlockEnd
  0
BLOCK
  5
6E4
330
6E3
100
AcDbEntity
  8
0
100
AcDbBlockBegin
  2
矢印なし
 70
     0
 10
0.0
 20
0.0
 30
0.0
  3
矢印なし
  1

  0
ENDBLK
  5
6E5
330
6E3
100
AcDbEntity
  8
0
100
AcDbBlockEnd
  0
BLOCK
  5
7EC
330
76C
100
AcDbEntity
  8
0
100
AcDbBlockBegin
  2
1
 70
     0
 10
0.0
 20
0.0
 30
0.0
  3
1
  1

  0
LINE
  5
F11
330
76C
100
AcDbEntity
  8
241
100
AcDbLine
 10
177.99038106
 20
-24.82050808
 30
0.0
 11
195.31088913
 21
-34.82050808
 31
0.0
  0
LINE
  5
F12
330
76C
100
AcDbEntity
  8
241
100
AcDbLine
 10
188.09038106
 20
-7.32679492
 30
0.0
 11
205.41088913
 21
-17.32679492
 31
0.0
  0
LINE
  5
F13
330
76C
100
AcDbEntity
  8
241
100
AcDbLine
 10
174.8
 20
15.0
 30
0.0
 11
195.0
 21
15.0
 31
0.0
  0
LINE
  5
F14
330
76C
100
AcDbEntity
  8
240
100
AcDbLine
 10
160.98076211
 20
35.0
 30
0.0
 11
200.29822128
 21
35.0
 31
0.0
  0
LINE
  5
F15
330
76C
100
AcDbEntity
  8
240
100
AcDbLine
 10
212.32050808
 20
-5.35898385
 30
0.0
 11
192.66177849
 21
-39.4089023
 31
0.0
  0
LINE
  5
F16
330
76C
100
AcDbEntity
  8
245
100
AcDbLine
 10
128.0
 20
0.0
 30
0.0
 11
222.0
 21
0.0
 31
0.0
  0
CIRCLE
  5
F17
330
76C
100
AcDbEntity
  8
242
  6
PHANTOM2
100
AcDbCircle
 10
175.0
 20
0.0
 30
0.0
 40
45.0
  0
ARC
  5
F18
330
76C
100
AcDbEntity
  8
241
100
AcDbCircle
 10
192.0261851
 20
2.87163337
 30
0.0
 40
6.999804094515174
100
AcDbArc
 50
59.25750453
 51
240.74249547
  0
ELLIPSE
  5
F19
330
76C
100
AcDbEntity
  8
241
100
AcDbEllipse
 10
192.0
 20
2.88675135
 30
0.0
 11
-7.000000000000029
 21
4.041451884327329
 31
0.0
210
0.0
220
0.0
230
0.9999999999999998
 40
0.8660254
 41
1.585759801005421
 42
4.697425506174177
  0
LWPOLYLINE
  5
F1A
330
76C
100
AcDbEntity
  8
241
100
AcDbPolyline
 90
       42
 70
   128
 43
0.0
 10
185.9649356
 20
6.3710974
 10
186.47562155
 20
7.133838
 10
187.07981363
 20
7.81780389
 10
187.76335011
 20
8.40696351
 10
188.51020946
 20
8.88750745
 10
189.30288593
 20
9.24817217
 10
190.12279987
 20
9.48050399
 10
190.95073317
 20
9.57905725
 10
191.76727979
 20
9.54152194
 10
192.55330057
 20
9.36877787
 10
193.29037184
 20
9.064874
 10
193.96121729
 20
8.63693358
 10
194.55011285
 20
8.09498719
 10
195.04325532
 20
7.45173757
 10
195.42908586
 20
6.72226196
 10
195.69856092
 20
5.92365865
 10
195.84536424
 20
5.07464621
 10
195.86605487
 20
4.19512479
 10
195.76014785
 20
3.30570962
 10
195.53012554
 20
2.42724783
 10
195.18137947
 20
1.58032984
 10
194.72208395
 20
0.78480666
 10
194.16300448
 20
0.05932471
 10
193.51724542
 20
-0.57911135
 10
192.7999428
 20
-1.11553711
 10
192.02790959
 20
-1.5373792
 10
191.21924159
 20
-1.83475002
 10
190.3928933
 20
-2.00067942
 10
189.56823362
 20
-2.03127818
 10
188.76459188
 20
-1.92582909
 10
188.00080475
 20
-1.68680377
 10
187.29477476
 20
-1.31980478
 10
186.66305065
 20
-0.83343427
 10
186.12043951
 20
-0.23909234
 10
185.67965967
 20
0.44929012
 10
185.35104264
 20
1.21557803
 10
185.14229093
 20
2.04181023
 10
185.0582975
 20
2.90862055
 10
185.10103108
 20
3.79569169
 10
185.26949004
 20
4.68223146
 10
185.55972584
 20
5.5474601
 10
185.9649356
 20
6.3710974
  0
LINE
  5
F1B
330
76C
100
AcDbEntity
  8
240
100
AcDbLine
 10
33.54700413
 20
-44.99987885
 30
0.0
 11
96.00000252
 21
-44.99987885
 31
0.0
  0
LINE
  5
F1C
330
76C
100
AcDbEntity
  8
245
  6
CENTER2
100
AcDbLine
 10
-31.0
 20
0.0
 30
0.0
 11
101.0
 21
0.0
 31
0.0
1001
GRPNAME
1000
PASTMD0U
  0
LINE
  5
F1D
330
76C
100
AcDbEntity
  8
241
100
AcDbLine
 10
95.99999935
 20
-17.67320558
 30
0.0
 11
37.99999915
 21
-17.67320558
 31
0.0
  0
LINE
  5
F1E
330
76C
100
AcDbEntity
  8
241
100
AcDbLine
 10
37.99999915
 20
-7.67320488
 30
0.0
 11
100.0
 21
-7.67320488
 31
0.0
  0
LINE
  5
F1F
330
76C
100
AcDbEntity
  8
240
100
AcDbLine
 10
24.30939945
 20
35.00000015
 30
0.0
 11
98.99999839
 21
35.00000015
 31
0.0
  0
LINE
  5
F20
330
76C
100
AcDbEntity
  8
241
100
AcDbLine
 10
33.54700413
 20
10.22704318
 30
0.0
 11
100.0
 21
10.22704318
 31
0.0
  0
LINE
  5
F21
330
76C
100
AcDbEntity
  8
241
100
AcDbLine
 10
37.99999915
 20
-0.17949192
 30
0.0
 11
100.0
 21
-0.17949192
 31
0.0
  0
LINE
  5
F22
330
76C
100
AcDbEntity
  8
241
  6
HIDDEN2
100
AcDbLine
 10
30.0
 20
15.00000015
 30
0.0
 11
100.0
 21
15.00000015
 31
0.0
  0
LINE
  5
F23
330
76C
100
AcDbEntity
  8
245
100
AcDbLine
 10
43.5
 20
25.0
 30
0.0
 11
95.5
 21
25.0
 31
0.0
  0
LWPOLYLINE
  5
F24
330
76C
100
AcDbEntity
  8
241
100
AcDbPolyline
 90
       35
 70
     0
 43
0.0
 10
49.5
 20
-14.79820508
 10
48.71906455
 20
-14.76202292
 10
47.96472292
 20
-14.65470857
 10
47.26266331
 20
-14.47991649
 10
46.63679352
 20
-14.24359903
 10
46.10842679
 20
-13.95380368
 10
45.69555602
 20
-13.62039909
 10
45.41224102
 20
-13.25473893
 10
45.26812975
 20
-12.86927534
 10
45.26812975
 20
-12.47713482
 10
45.41224102
 20
-12.09167123
 10
45.69555602
 20
-11.72601107
 10
46.10842679
 20
-11.39260648
 10
46.63679352
 20
-11.10281113
 10
47.26266331
 20
-10.86649367
 10
47.96472292
 20
-10.69170159
 10
48.71906455
 20
-10.58438724
 10
49.5
 20
-10.54820508
 10
50.28093545
 20
-10.58438724
 10
51.03527709
 20
-10.69170159
 10
51.7373367
 20
-10.86649367
 10
52.36320649
 20
-11.10281113
 10
52.89157322
 20
-11.39260648
 10
53.30444399
 20
-11.72601107
 10
53.58775899
 20
-12.09167123
 10
53.73187025
 20
-12.47713482
 10
53.73187025
 20
-12.86927534
 10
53.58775899
 20
-13.25473893
 10
53.30444399
 20
-13.62039909
 10
52.89157322
 20
-13.95380368
 10
52.36320649
 20
-14.24359903
 10
51.7373367
 20
-14.47991649
 10
51.03527709
 20
-14.65470857
 10
50.28093545
 20
-14.76202292
 10
49.5
 20
-14.79820508
  0
ELLIPSE
  5
F25
330
76C
100
AcDbEntity
  8
242
100
AcDbEllipse
 10
49.5
 20
-12.67320508
 30
0.0
 11
5.0
 21
0.0000000000000658
 31
0.0
210
0.0
220
0.0
230
-1.0
 40
0.5
 41
0.000000000000026
 42
6.283185307179611
  0
CIRCLE
  5
F26
330
76C
100
AcDbEntity
  8
242
100
AcDbCircle
 10
49.5
 20
25.0
 30
0.0
 40
4.25
  0
CIRCLE
  5
F27
330
76C
100
AcDbEntity
  8
241
100
AcDbCircle
 10
49.5
 20
25.0
 30
0.0
 40
5.0
  0
LINE
  5
F28
330
76C
100
AcDbEntity
  8
241
100
AcDbLine
 10
21.99999839
 20
0.0
 30
0.0
 11
21.99999839
 21
24.99
 31
0.0
  0
LINE
  5
F29
330
76C
100
AcDbEntity
  8
240
  6
CONTINUOUS
100
AcDbLine
 10
0.0
 20
24.99
 30
0.0
 11
0.0
 21
16.40000332
 31
0.0
  0
SPLINE
  5
F2A
330
76C
100
AcDbEntity
  8
241
  6
CONTINUOUS
100
AcDbSpline
210
0.0
220
0.0
230
1.0
 70
     8
 71
     3
 72
     9
 73
     5
 74
     3
 42
0.0000000001
 43
0.0000000001
 44
0.0000000001
 40
0.0
 40
0.0
 40
0.0
 40
0.0
 40
8.637419212856793
 40
17.27483842571346
 40
17.27483842571346
 40
17.27483842571346
 40
17.27483842571346
 10
7.950000000000045
 20
7.174818896234285
 30
0.0
 10
6.906572875253829
 20
9.968662326190848
 30
0.0
 10
4.81971862576141
 20
15.55634918610393
 30
0.0
 10
6.906572875253799
 20
21.14403604601701
 30
0.0
 10
7.949999999999988
 20
23.93787947597354
 30
0.0
 11
7.950000000000045
 21
7.174818896234285
 31
0.0
 11
5.863145750507612
 21
15.55634918610397
 31
0.0
 11
7.949999999999988
 21
23.93787947597354
 31
0.0
  0
LINE
  5
F2B
330
76C
100
AcDbEntity
  8
241
  6
CONTINUOUS
100
AcDbLine
 10
7.95
 20
7.1748189
 30
0.0
 11
7.95
 21
23.93787948
 31
0.0
  0
SPLINE
  5
F2C
330
76C
100
AcDbEntity
  8
241
  6
CONTINUOUS
100
AcDbSpline
210
0.0
220
0.0
230
1.0
 70
     8
 71
     3
 72
     9
 73
     5
 74
     3
 42
0.0000000001
 43
0.0000000001
 44
0.0000000001
 40
0.0
 40
0.0
 40
0.0
 40
0.0
 40
8.630480605859949
 40
17.26096121171992
 40
17.26096121171992
 40
17.26096121171992
 40
17.26096121171992
 10
12.05000000000001
 20
23.9378794759736
 30
0.0
 10
13.07897345545484
 20
21.14403604601706
 30
0.0
 10
15.13692036636451
 20
15.55634918610397
 30
0.0
 10
13.07897345545484
 20
9.968662326190868
 30
0.0
 10
12.05000000000001
 20
7.174818896234313
 30
0.0
 11
12.05000000000001
 21
23.9378794759736
 31
0.0
 11
14.10794691090967
 21
15.55634918610397
 31
0.0
 11
12.05000000000001
 21
7.174818896234313
 31
0.0
  0
LINE
  5
F2D
330
76C
100
AcDbEntity
  8
241
  6
CONTINUOUS
100
AcDbLine
 10
12.05
 20
7.1748189
 30
0.0
 11
12.05
 21
23.93787948
 31
0.0
  0
LINE
  5
F2E
330
76C
100
AcDbEntity
  8
241
  6
HIDDEN2
100
AcDbLine
 10
30.0
 20
15.00000015
 30
0.0
 11
30.0
 21
35.00000015
 31
0.0
  0
LINE
  5
F2F
330
76C
100
AcDbEntity
  8
240
100
AcDbLine
 10
-2.19993752
 20
16.40000332
 30
0.0
 11
-28.5
 21
15.74244388
 31
0.0
  0
LINE
  5
F30
330
76C
100
AcDbEntity
  8
240
100
AcDbLine
 10
-2.19993752
 20
-16.40000332
 30
0.0
 11
-28.5
 21
-15.74244388
 31
0.0
  0
LINE
  5
F31
330
76C
100
AcDbEntity
  8
241
100
AcDbLine
 10
-28.5
 20
-15.74244388
 30
0.0
 11
-28.5
 21
0.0
 31
0.0
  0
LINE
  5
F32
330
76C
100
AcDbEntity
  8
240
100
AcDbLine
 10
-30.0
 20
-14.87641848
 30
0.0
 11
-30.0
 21
0.0
 31
0.0
  0
LINE
  5
F33
330
76C
100
AcDbEntity
  8
240
100
AcDbLine
 10
-28.5
 20
-15.74244388
 30
0.0
 11
-30.0
 21
-14.87641848
 31
0.0
  0
LINE
  5
F34
330
76C
100
AcDbEntity
  8
240
100
AcDbLine
 10
-30.0
 20
0.0
 30
0.0
 11
-30.0
 21
14.87641848
 31
0.0
  0
LINE
  5
F35
330
76C
100
AcDbEntity
  8
241
100
AcDbLine
 10
-28.5
 20
15.74244388
 30
0.0
 11
-28.5
 21
0.0
 31
0.0
  0
LINE
  5
F36
330
76C
100
AcDbEntity
  8
241
  6
HIDDEN2
100
AcDbLine
 10
-28.5
 20
3.1365
 30
0.0
 11
-24.7
 21
3.1365
 31
0.0
  0
LINE
  5
F37
330
76C
100
AcDbEntity
  8
241
  6
HIDDEN2
100
AcDbLine
 10
-28.5
 20
-3.1365
 30
0.0
 11
-24.7
 21
-3.1365
 31
0.0
  0
LINE
  5
F38
330
76C
100
AcDbEntity
  8
241
  6
HIDDEN2
100
AcDbLine
 10
-30.0
 20
-2.2704746
 30
0.0
 11
-28.5
 21
-3.1365
 31
0.0
  0
LINE
  5
F39
330
76C
100
AcDbEntity
  8
241
  6
HIDDEN2
100
AcDbLine
 10
-30.0
 20
2.2704746
 30
0.0
 11
-28.5
 21
3.1365
 31
0.0
  0
SPLINE
  5
F3A
330
76C
100
AcDbEntity
  8
241
  6
HIDDEN2
100
AcDbSpline
210
0.0
220
0.0
230
1.0
 70
     8
 71
     3
 72
     9
 73
     5
 74
     3
 42
0.0000000001
 43
0.0000000001
 44
0.0000000001
 40
0.0
 40
0.0
 40
0.0
 40
0.0
 40
3.659130882107572
 40
7.318261764215169
 40
7.318261764215169
 40
7.318261764215169
 40
7.318261764215169
 10
-24.69999999999998
 20
3.136499999999983
 30
0.0
 10
-23.75771467134504
 20
2.090999999999989
 30
0.0
 10
-21.87314401403515
 20
-0.000000000000005
 30
0.0
 10
-23.75771467134504
 20
-2.091000000000007
 30
0.0
 10
-24.69999999999998
 20
-3.136500000000012
 30
0.0
 11
-24.69999999999998
 21
3.136499999999983
 31
0.0
 11
-22.81542934269009
 21
0.0
 31
0.0
 11
-24.69999999999998
 21
-3.136500000000012
 31
0.0
  0
LINE
  5
F3B
330
76C
100
AcDbEntity
  8
241
  6
HIDDEN2
100
AcDbLine
 10
-24.7
 20
-3.1365
 30
0.0
 11
-24.7
 21
3.1365
 31
0.0
  0
LINE
  5
F3C
330
76C
100
AcDbEntity
  8
240
100
AcDbLine
 10
-28.5
 20
15.74244388
 30
0.0
 11
-30.0
 21
14.87641848
 31
0.0
  0
ARC
  5
F3D
330
76C
100
AcDbEntity
  8
241
100
AcDbCircle
 10
-44.76663935
 20
-47.7407379
 30
0.0
 40
72.91883322750149
100
AcDbArc
 50
8.50089173
 51
14.37205153
  0
LINE
  5
F3E
330
76C
100
AcDbEntity
  8
240
100
AcDbLine
 10
28.35085141
 20
-41.99999943
 30
0.0
 11
23.33974434
 21
-33.3205089
 31
0.0
  0
ARC
  5
F3F
330
76C
100
AcDbEntity
  8
240
100
AcDbCircle
 10
33.54700378
 20
-39.0
 30
0.0
 40
6.000000000000021
100
AcDbArc
 50
210.0
 51
269.21758859
  0
ARC
  5
F40
330
76C
100
AcDbEntity
  8
241
100
AcDbCircle
 10
33.90483553
 20
-39.31238871
 30
0.0
 40
5.817706541863931
100
AcDbArc
 50
197.31767732
 51
232.82881364
  0
ARC
  5
F41
330
76C
100
AcDbEntity
  8
241
100
AcDbCircle
 10
33.56697502
 20
-39.77172145
 30
0.0
 40
5.231639947022146
100
AcDbArc
 50
232.60527749
 51
269.78128264
  0
LWPOLYLINE
  5
F42
330
76C
100
AcDbEntity
  8
241
100
AcDbPolyline
 90
        3
 70
     0
 43
0.0
 10
27.35107569
 20
-36.96152568
 10
27.73989775
 20
-39.00652751
 10
28.35085141
 20
-41.0441421
  0
LINE
  5
F43
330
76C
100
AcDbEntity
  8
240
  6
CONTINUOUS
100
AcDbLine
 10
0.0
 20
-24.99
 30
0.0
 11
21.99999839
 21
-24.99
 31
0.0
  0
SPLINE
  5
F44
330
76C
100
AcDbEntity
  8
241
  6
CONTINUOUS
100
AcDbSpline
210
0.0
220
0.0
230
1.0
 70
     8
 71
     3
 72
     9
 73
     5
 74
     3
 42
0.0000000001
 43
0.0000000001
 44
0.0000000001
 40
0.0
 40
0.0
 40
0.0
 40
0.0
 40
8.637419212856793
 40
17.27483842571346
 40
17.27483842571346
 40
17.27483842571346
 40
17.27483842571346
 10
7.950000000000045
 20
-7.174818896234285
 30
0.0
 10
6.906572875253829
 20
-9.968662326190848
 30
0.0
 10
4.81971862576141
 20
-15.55634918610393
 30
0.0
 10
6.906572875253799
 20
-21.14403604601701
 30
0.0
 10
7.949999999999988
 20
-23.93787947597354
 30
0.0
 11
7.950000000000045
 21
-7.174818896234285
 31
0.0
 11
5.863145750507612
 21
-15.55634918610397
 31
0.0
 11
7.949999999999988
 21
-23.93787947597354
 31
0.0
  0
LINE
  5
F45
330
76C
100
AcDbEntity
  8
241
  6
CONTINUOUS
100
AcDbLine
 10
7.95
 20
-7.1748189
 30
0.0
 11
7.95
 21
-23.93787948
 31
0.0
  0
SPLINE
  5
F46
330
76C
100
AcDbEntity
  8
241
  6
CONTINUOUS
100
AcDbSpline
210
0.0
220
0.0
230
1.0
 70
     8
 71
     3
 72
     9
 73
     5
 74
     3
 42
0.0000000001
 43
0.0000000001
 44
0.0000000001
 40
0.0
 40
0.0
 40
0.0
 40
0.0
 40
8.630480605859949
 40
17.26096121171992
 40
17.26096121171992
 40
17.26096121171992
 40
17.26096121171992
 10
12.05000000000001
 20
-23.9378794759736
 30
0.0
 10
13.07897345545484
 20
-21.14403604601706
 30
0.0
 10
15.13692036636451
 20
-15.55634918610397
 30
0.0
 10
13.07897345545484
 20
-9.968662326190868
 30
0.0
 10
12.05000000000001
 20
-7.174818896234313
 30
0.0
 11
12.05000000000001
 21
-23.9378794759736
 31
0.0
 11
14.10794691090967
 21
-15.55634918610397
 31
0.0
 11
12.05000000000001
 21
-7.174818896234313
 31
0.0
  0
LINE
  5
F47
330
76C
100
AcDbEntity
  8
241
  6
CONTINUOUS
100
AcDbLine
 10
12.05
 20
-7.1748189
 30
0.0
 11
12.05
 21
-23.93787948
 31
0.0
  0
LINE
  5
F48
330
76C
100
AcDbEntity
  8
241
100
AcDbLine
 10
-2.19993752
 20
-16.40000332
 30
0.0
 11
-2.19993752
 21
0.0
 31
0.0
  0
LINE
  5
F49
330
76C
100
AcDbEntity
  8
241
100
AcDbLine
 10
0.0
 20
-16.40000332
 30
0.0
 11
0.0
 21
0.0
 31
0.0
  0
LINE
  5
F4A
330
76C
100
AcDbEntity
  8
240
  6
CONTINUOUS
100
AcDbLine
 10
0.0
 20
-24.99
 30
0.0
 11
0.0
 21
-16.40000332
 31
0.0
  0
LINE
  5
F4B
330
76C
100
AcDbEntity
  8
240
100
AcDbLine
 10
-2.19993752
 20
-16.40000332
 30
0.0
 11
0.0
 21
-16.40000332
 31
0.0
  0
LINE
  5
F4C
330
76C
100
AcDbEntity
  8
241
  6
CONTINUOUS
100
AcDbLine
 10
7.95
 20
-23.93787948
 30
0.0
 11
12.05
 21
-23.93787948
 31
0.0
  0
LINE
  5
F4D
330
76C
100
AcDbEntity
  8
241
100
AcDbLine
 10
0.0
 20
16.40000332
 30
0.0
 11
0.0
 21
0.0
 31
0.0
  0
LINE
  5
F4E
330
76C
100
AcDbEntity
  8
241
100
AcDbLine
 10
-2.19993752
 20
16.40000332
 30
0.0
 11
-2.19993752
 21
0.0
 31
0.0
  0
LINE
  5
F4F
330
76C
100
AcDbEntity
  8
240
100
AcDbLine
 10
-2.19993752
 20
16.40000332
 30
0.0
 11
0.0
 21
16.40000332
 31
0.0
  0
LINE
  5
F50
330
76C
100
AcDbEntity
  8
241
  6
CONTINUOUS
100
AcDbLine
 10
7.95
 20
-7.1748189
 30
0.0
 11
12.05
 21
-7.1748189
 31
0.0
  0
LINE
  5
F51
330
76C
100
AcDbEntity
  8
241
  6
CONTINUOUS
100
AcDbLine
 10
7.95
 20
7.1748189
 30
0.0
 11
12.05
 21
7.1748189
 31
0.0
  0
LINE
  5
F52
330
76C
100
AcDbEntity
  8
241
100
AcDbLine
 10
21.99999839
 20
0.0
 30
0.0
 11
21.99999839
 21
-24.99
 31
0.0
  0
LWPOLYLINE
  5
F53
330
76C
100
AcDbEntity
  8
241
100
AcDbPolyline
 90
       10
 70
     0
 43
0.0
 10
28.35085141
 20
2.60596932
 10
26.7731309
 20
-2.08224962
 10
25.5221074
 20
-6.84243208
 10
24.90147218
 20
-10.11920441
 10
24.49307349
 20
-13.42322864
 10
24.31576318
 20
-16.73923992
 10
24.37668774
 20
-19.96642351
 10
24.66171226
 20
-23.18471856
 10
25.16768771
 20
-26.42648853
 10
25.87015196
 20
-29.64101546
  0
LWPOLYLINE
  5
F54
330
76C
100
AcDbEntity
  8
241
100
AcDbPolyline
 90
       17
 70
     0
 43
0.0
 10
37.99999915
 20
-7.67320488
 10
37.92313896
 20
-8.34901817
 10
37.69551628
 20
-8.99885967
 10
37.32587714
 20
-9.5977569
 10
36.82842516
 20
-10.12269501
 10
36.22227945
 20
-10.55350062
 10
35.53073239
 20
-10.8736176
 10
34.78035927
 20
-11.07074507
 10
33.9999985
 20
-11.13730669
 10
33.21963679
 20
-11.07074507
 10
32.46926461
 20
-10.8736176
 10
31.77771755
 20
-10.55350062
 10
31.17157091
 20
-10.12269501
 10
30.67411986
 20
-9.5977569
 10
30.30448072
 20
-8.99885967
 10
30.0768571
 20
-8.34901817
 10
29.99999877
 20
-7.67320488
  0
LINE
  5
F55
330
76C
100
AcDbEntity
  8
241
100
AcDbLine
 10
29.99999877
 20
-17.67320558
 30
0.0
 11
29.99999877
 21
-0.17949192
 31
0.0
  0
LINE
  5
F56
330
76C
100
AcDbEntity
  8
241
100
AcDbLine
 10
37.99999915
 20
-7.67320488
 30
0.0
 11
37.99999915
 21
-17.67320558
 31
0.0
  0
LWPOLYLINE
  5
F57
330
76C
100
AcDbEntity
  8
241
100
AcDbPolyline
 90
       17
 70
     0
 43
0.0
 10
37.99999915
 20
-17.67320558
 10
37.92313896
 20
-18.34901795
 10
37.69551628
 20
-18.99885945
 10
37.32587714
 20
-19.59775761
 10
36.82842516
 20
-20.12269571
 10
36.22227945
 20
-20.55349946
 10
35.53073239
 20
-20.87361738
 10
34.78035927
 20
-21.07074484
 10
33.9999985
 20
-21.13730647
 10
33.21963679
 20
-21.07074484
 10
32.46926461
 20
-20.87361738
 10
31.77771755
 20
-20.55349946
 10
31.17157091
 20
-20.12269571
 10
30.67411986
 20
-19.59775761
 10
30.30448072
 20
-18.99885945
 10
30.0768571
 20
-18.34901795
 10
29.99999877
 20
-17.67320558
  0
ARC
  5
F58
330
76C
100
AcDbEntity
  8
240
100
AcDbCircle
 10
31.99999839
 20
-28.32050808
 30
0.0
 40
10.0
100
AcDbArc
 50
180.0
 51
210.0
  0
LINE
  5
F59
330
76C
100
AcDbEntity
  8
240
100
AcDbLine
 10
21.99999839
 20
-24.99
 30
0.0
 11
21.99999839
 21
-28.32050808
 31
0.0
  0
LWPOLYLINE
  5
F5A
330
76C
100
AcDbEntity
  8
241
100
AcDbPolyline
 90
       17
 70
     0
 43
0.0
 10
29.99999877
 20
-0.17949192
 10
30.0768571
 20
0.49632078
 10
30.30448072
 20
1.14616239
 10
30.67411986
 20
1.74505985
 10
31.17157091
 20
2.26999773
 10
31.77771755
 20
2.70080334
 10
32.46926461
 20
3.02092056
 10
33.21963679
 20
3.21804802
 10
33.9999985
 20
3.28460964
 10
34.78035927
 20
3.21804802
 10
35.53073239
 20
3.02092056
 10
36.22227945
 20
2.70080334
 10
36.82842516
 20
2.26999773
 10
37.32587714
 20
1.74505985
 10
37.69551628
 20
1.14616239
 10
37.92313896
 20
0.49632078
 10
37.99999915
 20
-0.17949192
  0
LWPOLYLINE
  5
F5B
330
76C
100
AcDbEntity
  8
241
100
AcDbPolyline
 90
        3
 70
     0
 43
0.0
 10
29.2481239
 20
4.40890249
 10
28.74778016
 20
3.53297708
 10
28.35085141
 20
2.60596932
  0
ARC
  5
F5C
330
76C
100
AcDbEntity
  8
241
100
AcDbCircle
 10
99.34436549
 20
-42.94265005
 30
0.0
 40
84.59497053731402
100
AcDbArc
 50
141.05893067
 51
145.95621874
  0
LINE
  5
F5D
330
76C
100
AcDbEntity
  8
240
  6
CONTINUOUS
100
AcDbLine
 10
0.0
 20
24.99
 30
0.0
 11
21.99999839
 21
24.99
 31
0.0
  0
LINE
  5
F5E
330
76C
100
AcDbEntity
  8
241
  6
CONTINUOUS
100
AcDbLine
 10
7.95
 20
23.93787948
 30
0.0
 11
12.05
 21
23.93787948
 31
0.0
  0
LINE
  5
F5F
330
76C
100
AcDbEntity
  8
240
100
AcDbLine
 10
29.99999877
 20
35.00000015
 30
0.0
 11
37.99999915
 21
35.00000015
 31
0.0
  0
ARC
  5
F60
330
76C
100
AcDbEntity
  8
240
100
AcDbCircle
 10
31.99999839
 20
28.32050808
 30
0.0
 40
10.0
100
AcDbArc
 50
150.0
 51
180.0
  0
LINE
  5
F61
330
76C
100
AcDbEntity
  8
240
100
AcDbLine
 10
21.99999839
 20
28.32050808
 30
0.0
 11
21.99999839
 21
24.99
 31
0.0
  0
LINE
  5
F62
330
76C
100
AcDbEntity
  8
240
100
AcDbLine
 10
23.33974434
 20
33.3205089
 30
0.0
 11
24.30939945
 21
35.00000015
 31
0.0
  0
LINE
  5
F63
330
76C
100
AcDbEntity
  8
245
100
AcDbLine
 10
49.5
 20
19.0
 30
0.0
 11
49.5
 21
31.0
 31
0.0
  0
LINE
  5
F64
330
76C
100
AcDbEntity
  8
241
100
AcDbLine
 10
47.0
 20
23.55662433
 30
0.0
 11
47.0
 21
26.44337567
 31
0.0
  0
LINE
  5
F65
330
76C
100
AcDbEntity
  8
241
100
AcDbLine
 10
52.0
 20
26.44337567
 30
0.0
 11
52.0
 21
23.55662433
 31
0.0
  0
LINE
  5
F66
330
76C
100
AcDbEntity
  8
241
100
AcDbLine
 10
49.5
 20
22.11324865
 30
0.0
 11
47.0
 21
23.55662433
 31
0.0
  0
LINE
  5
F67
330
76C
100
AcDbEntity
  8
241
100
AcDbLine
 10
52.0
 20
23.55662433
 30
0.0
 11
49.5
 21
22.11324865
 31
0.0
  0
LINE
  5
F68
330
76C
100
AcDbEntity
  8
241
100
AcDbLine
 10
47.0
 20
26.44337567
 30
0.0
 11
49.5
 21
27.88675135
 31
0.0
  0
LINE
  5
F69
330
76C
100
AcDbEntity
  8
241
100
AcDbLine
 10
49.5
 20
27.88675135
 30
0.0
 11
52.0
 21
26.44337567
 31
0.0
  0
LINE
  5
F6A
330
76C
100
AcDbEntity
  8
241
100
AcDbLine
 10
174.8
 20
15.0
 30
0.0
 11
174.8
 21
35.0
 31
0.0
  0
LINE
  5
F6B
330
76C
100
AcDbEntity
  8
240
100
AcDbLine
 10
100.0
 20
34.0
 30
0.0
 11
100.0
 21
0.0
 31
0.0
  0
ELLIPSE
  5
F6C
330
76C
100
AcDbEntity
  8
241
100
AcDbEllipse
 10
164.0
 20
13.27905619
 30
0.0
 11
0.0000000000000005
 21
8.08290376865483
 31
0.0
210
0.0
220
0.0
230
1.0
 40
0.8660254
 41
4.727352454595231
 42
7.839018159763964
  0
ARC
  5
F6D
330
76C
100
AcDbEntity
  8
241
100
AcDbCircle
 10
164.0
 20
13.30929214
 30
0.0
 40
6.999804094515142
100
AcDbArc
 50
179.25750453
 51
0.74249547
  0
ARC
  5
F6E
330
76C
100
AcDbEntity
  8
240
100
AcDbCircle
 10
175.0
 20
0.0
 30
0.0
 40
44.99999999999998
100
AcDbArc
 50
151.00271913
 51
166.86374113
  0
ARC
  5
F6F
330
76C
100
AcDbEntity
  8
241
100
AcDbCircle
 10
175.0
 20
0.0
 30
0.0
 40
40.99999999999996
100
AcDbArc
 50
150.13272183
 51
176.02364718
  0
LINE
  5
F70
330
76C
100
AcDbEntity
  8
240
100
AcDbLine
 10
100.0
 20
-40.46400264
 30
0.0
 11
100.0
 21
0.0
 31
0.0
  0
ARC
  5
F71
330
76C
100
AcDbEntity
  8
240
100
AcDbCircle
 10
96.00000252
 20
-40.99988067
 30
0.0
 40
3.999998181073271
100
AcDbArc
 50
269.9999546
 51
359.96622523
  0
LINE
  5
F72
330
76C
100
AcDbEntity
  8
240
100
AcDbLine
 10
100.0
 20
-40.99988937
 30
0.0
 11
100.0
 21
-40.46400264
 31
0.0
  0
ELLIPSE
  5
F73
330
76C
100
AcDbEntity
  8
242
100
AcDbEllipse
 10
89.5
 20
-12.67320508
 30
0.0
 11
5.0
 21
0.0000000000000469
 31
0.0
210
0.0
220
0.0
230
-1.0
 40
0.5
 41
0.0000000000000184
 42
6.283185307179602
  0
LWPOLYLINE
  5
F74
330
76C
100
AcDbEntity
  8
241
100
AcDbPolyline
 90
       35
 70
     0
 43
0.0
 10
89.5
 20
-14.79820508
 10
88.71906455
 20
-14.76202292
 10
87.96472292
 20
-14.65470857
 10
87.26266331
 20
-14.47991649
 10
86.63679352
 20
-14.24359903
 10
86.10842679
 20
-13.95380368
 10
85.69555602
 20
-13.62039909
 10
85.41224102
 20
-13.25473893
 10
85.26812975
 20
-12.86927534
 10
85.26812975
 20
-12.47713482
 10
85.41224102
 20
-12.09167123
 10
85.69555602
 20
-11.72601107
 10
86.10842679
 20
-11.39260648
 10
86.63679352
 20
-11.10281113
 10
87.26266331
 20
-10.86649367
 10
87.96472292
 20
-10.69170159
 10
88.71906455
 20
-10.58438724
 10
89.5
 20
-10.54820508
 10
90.28093545
 20
-10.58438724
 10
91.03527709
 20
-10.69170159
 10
91.7373367
 20
-10.86649367
 10
92.36320649
 20
-11.10281113
 10
92.89157322
 20
-11.39260648
 10
93.30444399
 20
-11.72601107
 10
93.58775899
 20
-12.09167123
 10
93.73187025
 20
-12.47713482
 10
93.73187025
 20
-12.86927534
 10
93.58775899
 20
-13.25473893
 10
93.30444399
 20
-13.62039909
 10
92.89157322
 20
-13.95380368
 10
92.36320649
 20
-14.24359903
 10
91.7373367
 20
-14.47991649
 10
91.03527709
 20
-14.65470857
 10
90.28093545
 20
-14.76202292
 10
89.5
 20
-14.79820508
  0
LWPOLYLINE
  5
F75
330
76C
100
AcDbEntity
  8
241
100
AcDbPolyline
 90
       35
 70
     0
 43
0.0
 10
69.5
 20
-14.79820508
 10
68.71906455
 20
-14.76202292
 10
67.96472292
 20
-14.65470857
 10
67.26266331
 20
-14.47991649
 10
66.63679352
 20
-14.24359903
 10
66.10842679
 20
-13.95380368
 10
65.69555602
 20
-13.62039909
 10
65.41224102
 20
-13.25473893
 10
65.26812975
 20
-12.86927534
 10
65.26812975
 20
-12.47713482
 10
65.41224102
 20
-12.09167123
 10
65.69555602
 20
-11.72601107
 10
66.10842679
 20
-11.39260648
 10
66.63679352
 20
-11.10281113
 10
67.26266331
 20
-10.86649367
 10
67.96472292
 20
-10.69170159
 10
68.71906455
 20
-10.58438724
 10
69.5
 20
-10.54820508
 10
70.28093545
 20
-10.58438724
 10
71.03527709
 20
-10.69170159
 10
71.7373367
 20
-10.86649367
 10
72.36320649
 20
-11.10281113
 10
72.89157322
 20
-11.39260648
 10
73.30444399
 20
-11.72601107
 10
73.58775899
 20
-12.09167123
 10
73.73187025
 20
-12.47713482
 10
73.73187025
 20
-12.86927534
 10
73.58775899
 20
-13.25473893
 10
73.30444399
 20
-13.62039909
 10
72.89157322
 20
-13.95380368
 10
72.36320649
 20
-14.24359903
 10
71.7373367
 20
-14.47991649
 10
71.03527709
 20
-14.65470857
 10
70.28093545
 20
-14.76202292
 10
69.5
 20
-14.79820508
  0
ELLIPSE
  5
F76
330
76C
100
AcDbEntity
  8
242
100
AcDbEllipse
 10
69.5
 20
-12.67320508
 30
0.0
 11
5.0
 21
0.0000000000000469
 31
0.0
210
0.0
220
0.0
230
-1.0
 40
0.5
 41
0.0000000000000184
 42
6.283185307179602
  0
LWPOLYLINE
  5
F77
330
76C
100
AcDbEntity
  8
241
100
AcDbPolyline
 90
        9
 70
     0
 43
0.0
 10
100.0
 20
-15.67320526
 10
99.92313981
 20
-16.06338657
 10
99.69551713
 20
-16.43857174
 10
99.32587892
 20
-16.78434573
 10
98.82842601
 20
-17.08741859
 10
98.22227657
 20
-17.33614504
 10
97.53072858
 20
-17.52096415
 10
96.78035826
 20
-17.63477549
 10
95.99999935
 20
-17.67320558
  0
LINE
  5
F78
330
76C
100
AcDbEntity
  8
241
100
AcDbLine
 10
192.98842449
 20
-36.84313483
 30
0.0
 11
194.44486373
 21
-34.32050808
 31
0.0
  0
LINE
  5
F79
330
76C
100
AcDbEntity
  8
241
100
AcDbLine
 10
161.01923789
 20
-33.49742261
 30
0.0
 11
173.08570794
 21
-40.46400235
 31
0.0
  0
ARC
  5
F7A
330
76C
100
AcDbEntity
  8
240
100
AcDbCircle
 10
169.01923789
 20
-19.64101615
 30
0.0
 40
20.0
100
AcDbArc
 50
210.0
 51
240.0
  0
LINE
  5
F7B
330
76C
100
AcDbEntity
  8
240
100
AcDbLine
 10
170.612495
 20
-43.65489434
 30
0.0
 11
159.01923789
 21
-36.96152423
 31
0.0
  0
ARC
  5
F7C
330
76C
100
AcDbEntity
  8
240
100
AcDbCircle
 10
175.0
 20
0.0
 30
0.0
 40
44.99999999999998
100
AcDbArc
 50
271.00271913
 51
286.86374113
  0
ARC
  5
F7D
330
76C
100
AcDbEntity
  8
241
100
AcDbCircle
 10
175.0
 20
0.0
 30
0.0
 40
41.00000000000004
100
AcDbArc
 50
270.13272183
 51
296.02364718
  0
ARC
  5
F7E
330
76C
100
AcDbEntity
  8
240
100
AcDbCircle
 10
175.612495
 20
-34.9946403
 30
0.0
 40
10.0
100
AcDbArc
 50
240.0
 51
271.00271913
  0
ARC
  5
F7F
330
76C
100
AcDbEntity
  8
241
100
AcDbCircle
 10
175.08570794
 20
-36.99990073
 30
0.0
 40
4.00000000000003
100
AcDbArc
 50
240.0
 51
270.13272183
  0
ARC
  5
F80
330
76C
100
AcDbEntity
  8
240
100
AcDbCircle
 10
185.73357526
 20
-35.4089023
 30
0.0
 40
8.0
100
AcDbArc
 50
286.86374113
 51
330.0
  0
LINE
  5
F81
330
76C
100
AcDbEntity
  8
241
100
AcDbLine
 10
162.10961894
 20
-7.67320508
 30
0.0
 11
144.78911087
 21
-17.67320508
 31
0.0
  0
LINE
  5
F82
330
76C
100
AcDbEntity
  8
241
100
AcDbLine
 10
162.10961894
 20
-7.67320508
 30
0.0
 11
152.00961894
 21
9.82050808
 31
0.0
  0
LWPOLYLINE
  5
F83
330
76C
100
AcDbEntity
  8
241
100
AcDbPolyline
 90
       42
 70
   128
 43
0.0
 10
164.0
 20
6.31036408
 10
163.08410429
 20
6.37126079
 10
162.18967641
 20
6.55252353
 10
161.33768097
 20
6.84990368
 10
160.54808804
 20
7.25643088
 10
159.839405
 20
7.76257648
 10
159.22824277
 20
8.35647687
 10
158.72892649
 20
9.02421151
 10
158.35315971
 20
9.75012928
 10
158.10975008
 20
10.51721528
 10
158.00440291
 20
11.30748966
 10
158.03958746
 20
12.10242906
 10
158.21447903
 20
12.88340078
 10
158.5249783
 20
13.6320995
 10
158.96380744
 20
14.33097635
 10
159.52068067
 20
14.96365025
 10
160.18254535
 20
15.51529188
 10
160.93388792
 20
15.9729712
 10
161.75709757
 20
16.32596061
 10
162.63287895
 20
16.56598634
 10
163.54070448
 20
16.68742238
 10
164.45929552
 20
16.68742238
 10
165.36712105
 20
16.56598634
 10
166.24290243
 20
16.32596061
 10
167.06611208
 20
15.9729712
 10
167.81745465
 20
15.51529188
 10
168.47931933
 20
14.96365025
 10
169.03619256
 20
14.33097635
 10
169.4750217
 20
13.6320995
 10
169.78552097
 20
12.88340078
 10
169.96041254
 20
12.10242906
 10
169.99559709
 20
11.30748966
 10
169.89024992
 20
10.51721528
 10
169.64684029
 20
9.75012928
 10
169.27107351
 20
9.02421151
 10
168.77175723
 20
8.35647687
 10
168.160595
 20
7.76257648
 10
167.45191196
 20
7.25643088
 10
166.66231903
 20
6.84990368
 10
165.81032359
 20
6.55252353
 10
164.91589571
 20
6.37126079
 10
164.0
 20
6.31036408
  0
ARC
  5
F84
330
76C
100
AcDbEntity
  8
241
100
AcDbCircle
 10
169.01923789
 20
-19.64101615
 30
0.0
 40
16.0
100
AcDbArc
 50
210.0
 51
240.0
  0
LINE
  5
F85
330
76C
100
AcDbEntity
  8
240
100
AcDbLine
 10
132.04000023
 20
4.4089023
 30
0.0
 11
151.69872981
 21
-29.64101615
 31
0.0
  0
LINE
  5
F86
330
76C
100
AcDbEntity
  8
241
100
AcDbLine
 10
148.25321248
 20
-15.67320508
 30
0.0
 11
155.16283143
 21
-27.64101615
 31
0.0
  0
LINE
  5
F87
330
76C
100
AcDbEntity
  8
241
100
AcDbLine
 10
152.00961894
 20
9.82050808
 30
0.0
 11
134.68911087
 21
-0.17949192
 31
0.0
  0
LINE
  5
F88
330
76C
100
AcDbEntity
  8
241
100
AcDbLine
 10
134.09869703
 20
2.84313483
 30
0.0
 11
135.55513627
 21
0.32050808
 31
0.0
  0
ARC
  5
F89
330
76C
100
AcDbEntity
  8
240
100
AcDbCircle
 10
138.96820346
 20
8.4089023
 30
0.0
 40
8.000000000004373
100
AcDbArc
 50
166.86374113
 51
210.0
  0
LINE
  5
F8A
330
76C
100
AcDbEntity
  8
241
100
AcDbLine
 10
188.09038106
 20
-7.32679492
 30
0.0
 11
177.99038106
 21
-24.82050808
 31
0.0
  0
ARC
  5
F8B
330
76C
100
AcDbEntity
  8
241
100
AcDbCircle
 10
168.9738149
 20
-16.18092551
 30
0.0
 40
6.999804094515183
100
AcDbArc
 50
299.25750453
 51
120.74249547
  0
ELLIPSE
  5
F8C
330
76C
100
AcDbEntity
  8
241
100
AcDbEllipse
 10
169.0
 20
-16.16580754
 30
0.0
 11
-6.999999999999972
 21
-4.041451884327385
 31
0.0
210
0.0
220
0.0
230
1.0
 40
0.8660254
 41
4.727352454595227
 42
7.839018159763976
  0
LWPOLYLINE
  5
F8D
330
76C
100
AcDbEntity
  8
241
100
AcDbPolyline
 90
       42
 70
   128
 43
0.0
 10
175.0350644
 20
-12.68146148
 10
175.44027416
 20
-13.50509878
 10
175.73050996
 20
-14.37032743
 10
175.89896892
 20
-15.25686719
 10
175.9417025
 20
-16.14393833
 10
175.85770907
 20
-17.01074865
 10
175.64895736
 20
-17.83698086
 10
175.32034033
 20
-18.60326876
 10
174.87956049
 20
-19.29165122
 10
174.33694935
 20
-19.88599315
 10
173.70522524
 20
-20.37236366
 10
172.99919525
 20
-20.73936265
 10
172.23540812
 20
-20.97838797
 10
171.43176638
 20
-21.08383707
 10
170.6071067
 20
-21.05323831
 10
169.78075841
 20
-20.8873089
 10
168.97209041
 20
-20.58993809
 10
168.2000572
 20
-20.16809599
 10
167.48275458
 20
-19.63167023
 10
166.83699552
 20
-18.99323417
 10
166.27791605
 20
-18.26775222
 10
165.81862053
 20
-17.47222905
 10
165.46987446
 20
-16.62531105
 10
165.23985215
 20
-15.74684927
 10
165.13394513
 20
-14.85743409
 10
165.15463576
 20
-13.97791267
 10
165.30143908
 20
-13.12890024
 10
165.57091414
 20
-12.33029692
 10
165.95674468
 20
-11.60082131
 10
166.44988715
 20
-10.9575717
 10
167.03878271
 20
-10.4156253
 10
167.70962816
 20
-9.98768489
 10
168.44669943
 20
-9.68378102
 10
169.23272021
 20
-9.51103694
 10
170.04926683
 20
-9.47350164
 10
170.87720013
 20
-9.5720549
 10
171.69711407
 20
-9.80438671
 10
172.48979054
 20
-10.16505143
 10
173.23664989
 20
-10.64559537
 10
173.92018637
 20
-11.23475499
 10
174.52437845
 20
-11.91872089
 10
175.0350644
 20
-12.68146148
  0
CIRCLE
  5
F8E
330
76C
100
AcDbEntity
  8
241
100
AcDbCircle
 10
89.5
 20
25.0
 30
0.0
 40
5.0
  0
CIRCLE
  5
F8F
330
76C
100
AcDbEntity
  8
242
100
AcDbCircle
 10
89.5
 20
25.0
 30
0.0
 40
4.25
  0
LINE
  5
F90
330
76C
100
AcDbEntity
  8
241
100
AcDbLine
 10
89.5
 20
22.11324865
 30
0.0
 11
87.0
 21
23.55662433
 31
0.0
  0
LINE
  5
F91
330
76C
100
AcDbEntity
  8
241
100
AcDbLine
 10
87.0
 20
26.44337567
 30
0.0
 11
89.5
 21
27.88675135
 31
0.0
  0
CIRCLE
  5
F92
330
76C
100
AcDbEntity
  8
242
100
AcDbCircle
 10
69.5
 20
25.0
 30
0.0
 40
4.25
  0
CIRCLE
  5
F93
330
76C
100
AcDbEntity
  8
241
100
AcDbCircle
 10
69.5
 20
25.0
 30
0.0
 40
5.0
  0
LINE
  5
F94
330
76C
100
AcDbEntity
  8
241
100
AcDbLine
 10
72.0
 20
23.55662433
 30
0.0
 11
69.5
 21
22.11324865
 31
0.0
  0
LINE
  5
F95
330
76C
100
AcDbEntity
  8
241
100
AcDbLine
 10
69.5
 20
27.88675135
 30
0.0
 11
72.0
 21
26.44337567
 31
0.0
  0
LINE
  5
F96
330
76C
100
AcDbEntity
  8
245
100
AcDbLine
 10
69.5
 20
19.0
 30
0.0
 11
69.5
 21
31.0
 31
0.0
  0
LINE
  5
F97
330
76C
100
AcDbEntity
  8
241
100
AcDbLine
 10
67.0
 20
23.55662433
 30
0.0
 11
67.0
 21
26.44337567
 31
0.0
  0
LINE
  5
F98
330
76C
100
AcDbEntity
  8
241
100
AcDbLine
 10
69.5
 20
22.11324865
 30
0.0
 11
67.0
 21
23.55662433
 31
0.0
  0
LINE
  5
F99
330
76C
100
AcDbEntity
  8
241
100
AcDbLine
 10
67.0
 20
26.44337567
 30
0.0
 11
69.5
 21
27.88675135
 31
0.0
  0
LINE
  5
F9A
330
76C
100
AcDbEntity
  8
241
100
AcDbLine
 10
72.0
 20
26.44337567
 30
0.0
 11
72.0
 21
23.55662433
 31
0.0
  0
LINE
  5
F9B
330
76C
100
AcDbEntity
  8
241
100
AcDbLine
 10
87.0
 20
23.55662433
 30
0.0
 11
87.0
 21
26.44337567
 31
0.0
  0
LINE
  5
F9C
330
76C
100
AcDbEntity
  8
245
100
AcDbLine
 10
89.5
 20
19.0
 30
0.0
 11
89.5
 21
31.0
 31
0.0
  0
LINE
  5
F9D
330
76C
100
AcDbEntity
  8
241
100
AcDbLine
 10
92.0
 20
26.44337567
 30
0.0
 11
92.0
 21
23.55662433
 31
0.0
  0
LINE
  5
F9E
330
76C
100
AcDbEntity
  8
241
100
AcDbLine
 10
92.0
 20
23.55662433
 30
0.0
 11
89.5
 21
22.11324865
 31
0.0
  0
LINE
  5
F9F
330
76C
100
AcDbEntity
  8
241
100
AcDbLine
 10
89.5
 20
27.88675135
 30
0.0
 11
92.0
 21
26.44337567
 31
0.0
  0
ARC
  5
FA0
330
76C
100
AcDbEntity
  8
240
100
AcDbCircle
 10
98.99999839
 20
34.0
 30
0.0
 40
1.0
100
AcDbArc
 50
0.0
 51
90.0
  0
ARC
  5
FA1
330
76C
100
AcDbEntity
  8
241
100
AcDbCircle
 10
160.98076211
 20
15.0
 30
0.0
 40
16.0
100
AcDbArc
 50
90.0
 51
120.0
  0
ARC
  5
FA2
330
76C
100
AcDbEntity
  8
240
100
AcDbCircle
 10
160.98076211
 20
15.0
 30
0.0
 40
20.0
100
AcDbArc
 50
90.0
 51
120.0
  0
LINE
  5
FA3
330
76C
100
AcDbEntity
  8
240
100
AcDbLine
 10
139.387505
 20
25.62713796
 30
0.0
 11
150.98076211
 21
32.32050808
 31
0.0
  0
LINE
  5
FA4
330
76C
100
AcDbEntity
  8
241
100
AcDbLine
 10
152.98076211
 20
28.85640646
 30
0.0
 11
140.91429206
 21
21.88982673
 31
0.0
  0
ARC
  5
FA5
330
76C
100
AcDbEntity
  8
240
100
AcDbCircle
 10
144.387505
 20
16.96688392
 30
0.0
 40
10.0
100
AcDbArc
 50
120.0
 51
151.00271913
  0
ARC
  5
FA6
330
76C
100
AcDbEntity
  8
241
100
AcDbCircle
 10
142.91429206
 20
18.42572511
 30
0.0
 40
4.000000000000004
100
AcDbArc
 50
120.0
 51
150.13272183
  0
LINE
  5
FA7
330
76C
100
AcDbEntity
  8
241
100
AcDbLine
 10
143.58359214
 20
23.43094784
 30
0.0
 11
152.98076211
 21
28.85640646
 31
0.0
  0
LINE
  5
FA8
330
76C
100
AcDbEntity
  8
241
100
AcDbLine
 10
174.8
 20
31.0
 30
0.0
 11
160.98076211
 21
31.0
 31
0.0
  0
LINE
  5
FA9
330
76C
100
AcDbEntity
  8
241
100
AcDbLine
 10
195.0
 20
15.0
 30
0.0
 11
195.0
 21
35.0
 31
0.0
  0
LINE
  5
FAA
330
76C
100
AcDbEntity
  8
240
100
AcDbLine
 10
215.0
 20
18.02775638
 30
0.0
 11
215.0
 21
4.64101615
 31
0.0
  0
LINE
  5
FAB
330
76C
100
AcDbEntity
  8
241
100
AcDbLine
 10
211.0
 20
4.64101615
 30
0.0
 11
211.0
 21
18.57417562
 31
0.0
  0
LINE
  5
FAC
330
76C
100
AcDbEntity
  8
241
100
AcDbLine
 10
201.94678752
 20
-15.32679492
 30
0.0
 11
208.85640646
 21
-3.35898385
 31
0.0
  0
ARC
  5
FAD
330
76C
100
AcDbEntity
  8
241
100
AcDbCircle
 10
195.0
 20
4.64101615
 30
0.0
 40
16.0
100
AcDbArc
 50
330.0
 51
0.0
  0
LINE
  5
FAE
330
76C
100
AcDbEntity
  8
241
100
AcDbLine
 10
211.0
 20
15.49193338
 30
0.0
 11
211.0
 21
4.64101615
 31
0.0
  0
ARC
  5
FAF
330
76C
100
AcDbEntity
  8
240
100
AcDbCircle
 10
195.0
 20
4.64101615
 30
0.0
 40
20.0
100
AcDbArc
 50
330.0
 51
0.0
  0
ARC
  5
FB0
330
76C
100
AcDbEntity
  8
240
100
AcDbCircle
 10
175.0
 20
0.0
 30
0.0
 40
44.99999999999998
100
AcDbArc
 50
31.00271913
 51
46.86374113
  0
ARC
  5
FB1
330
76C
100
AcDbEntity
  8
241
100
AcDbCircle
 10
175.0
 20
0.0
 30
0.0
 40
41.00000000000002
100
AcDbArc
 50
30.13272183
 51
56.02364718
  0
ARC
  5
FB2
330
76C
100
AcDbEntity
  8
241
100
AcDbCircle
 10
207.0
 20
18.57417562
 30
0.0
 40
4.000000000000039
100
AcDbArc
 50
0.0
 51
30.13272183
  0
ARC
  5
FB3
330
76C
100
AcDbEntity
  8
240
100
AcDbCircle
 10
200.29822128
 20
27.0
 30
0.0
 40
8.000000000007981
100
AcDbArc
 50
46.86374113
 51
90.0
  0
LINE
  5
FB4
330
76C
100
AcDbEntity
  8
241
100
AcDbLine
 10
197.91287847
 20
34.0
 30
0.0
 11
195.0
 21
34.0
 31
0.0
  0
ARC
  5
FB5
330
76C
100
AcDbEntity
  8
240
100
AcDbCircle
 10
205.0
 20
18.02775638
 30
0.0
 40
10.0
100
AcDbArc
 50
0.0
 51
31.00271913
  0
ENDBLK
  5
7ED
330
76C
100
AcDbEntity
  8
0
100
AcDbBlockEnd
  0
BLOCK
  5
832
330
828
100
AcDbEntity
  8
0
100
AcDbBlockBegin
  2
*D3
 70
     1
 10
0.0
 20
0.0
 30
0.0
  3
*D3
  1

  0
LINE
  5
100C
330
828
100
AcDbEntity
  8
250
  6
CONTINUOUS
 62
     3
100
AcDbLine
 10
0.0
 20
25.49
 30
0.0
 11
0.0
 21
57.0
 31
0.0
  0
LINE
  5
100D
330
828
100
AcDbEntity
  8
250
  6
CONTINUOUS
 62
     3
100
AcDbLine
 10
100.0
 20
34.5
 30
0.0
 11
100.0
 21
57.0
 31
0.0
  0
LINE
  5
100E
330
828
100
AcDbEntity
  8
250
  6
CONTINUOUS
 62
     3
100
AcDbLine
 10
2.23
 20
56.0
 30
0.0
 11
97.77
 21
56.0
 31
0.0
  0
INSERT
  5
100F
330
828
100
AcDbEntity
  8
250
  6
CONTINUOUS
 62
     3
100
AcDbBlockReference
  2
_OPEN
 10
0.0
 20
56.0
 30
0.0
 41
2.23
 42
2.23
 43
2.23
 50
180.0
  0
INSERT
  5
1010
330
828
100
AcDbEntity
  8
250
  6
CONTINUOUS
 62
     3
100
AcDbBlockReference
  2
_OPEN
 10
100.0
 20
56.0
 30
0.0
 41
2.23
 42
2.23
 43
2.23
  0
MTEXT
  5
1011
330
828
100
AcDbEntity
  8
250
  6
CONTINUOUS
 62
    40
100
AcDbMText
 10
50.0
 20
58.5
 30
0.0
 40
3.0
 41
0.0
 71
     5
 72
     1
  1
\A1;100
  0
POINT
  5
1012
330
828
100
AcDbEntity
  8
DEFPOINTS
  6
CONTINUOUS
 62
     0
100
AcDbPoint
 10
0.0
 20
24.99
 30
0.0
  0
POINT
  5
1013
330
828
100
AcDbEntity
  8
DEFPOINTS
  6
CONTINUOUS
 62
     0
100
AcDbPoint
 10
100.0
 20
34.0
 30
0.0
  0
POINT
  5
1014
330
828
100
AcDbEntity
  8
DEFPOINTS
  6
CONTINUOUS
 62
     0
100
AcDbPoint
 10
100.0
 20
56.0
 30
0.0
  0
ENDBLK
  5
833
330
828
100
AcDbEntity
  8
0
100
AcDbBlockEnd
  0
BLOCK
  5
9CC
330
9C2
100
AcDbEntity
  8
0
100
AcDbBlockBegin
  2
*D4
 70
     1
 10
0.0
 20
0.0
 30
0.0
  3
*D4
  1

  0
LINE
  5
A78
330
9C2
100
AcDbEntity
  8
250
  6
CONTINUOUS
 62
     3
100
AcDbLine
 10
30.0
 20
35.50000015
 30
0.0
 11
30.0
 21
50.0
 31
0.0
  0
LINE
  5
A79
330
9C2
100
AcDbEntity
  8
250
  6
CONTINUOUS
 62
     3
100
AcDbLine
 10
100.0
 20
34.5
 30
0.0
 11
100.0
 21
50.0
 31
0.0
  0
LINE
  5
A7A
330
9C2
100
AcDbEntity
  8
250
  6
CONTINUOUS
 62
     3
100
AcDbLine
 10
32.23
 20
49.0
 30
0.0
 11
97.77
 21
49.0
 31
0.0
  0
INSERT
  5
A7B
330
9C2
100
AcDbEntity
  8
250
  6
CONTINUOUS
 62
     3
100
AcDbBlockReference
  2
_OPEN
 10
30.0
 20
49.0
 30
0.0
 41
2.23
 42
2.23
 43
2.23
 50
180.0
  0
INSERT
  5
A7C
330
9C2
100
AcDbEntity
  8
250
  6
CONTINUOUS
 62
     3
100
AcDbBlockReference
  2
_OPEN
 10
100.0
 20
49.0
 30
0.0
 41
2.23
 42
2.23
 43
2.23
  0
MTEXT
  5
A7D
330
9C2
100
AcDbEntity
  8
250
  6
CONTINUOUS
 62
    40
100
AcDbMText
 10
65.0
 20
51.5
 30
0.0
 40
3.0
 41
0.0
 71
     5
 72
     1
  1
\A1;70
1001
ACAD
1000
MTEXTBEGIN
1070
    73
1070
     1
1070
    44
1040
1.0
1070
    74
1070
     0
1000
MTEXTEND
1000
MTEXTBEGIN
1070
    73
1070
     1
1070
    44
1040
1.0
1070
    74
1070
     0
1000
MTEXTEND
1000
MTEXTBEGIN
1070
    73
1070
     1
1070
    44
1040
1.0
1070
    74
1070
     0
1000
MTEXTEND
  0
POINT
  5
A7E
330
9C2
100
AcDbEntity
  8
DEFPOINTS
  6
CONTINUOUS
 62
     0
100
AcDbPoint
 10
30.0
 20
35.00000015
 30
0.0
  0
POINT
  5
A7F
330
9C2
100
AcDbEntity
  8
DEFPOINTS
  6
CONTINUOUS
 62
     0
100
AcDbPoint
 10
100.0
 20
34.0
 30
0.0
  0
POINT
  5
A80
330
9C2
100
AcDbEntity
  8
DEFPOINTS
  6
CONTINUOUS
 62
     0
100
AcDbPoint
 10
100.0
 20
49.0
 30
0.0
  0
ENDBLK
  5
9CD
330
9C2
100
AcDbEntity
  8
0
100
AcDbBlockEnd
  0
BLOCK
  5
BDF
330
BD5
100
AcDbEntity
  8
0
100
AcDbBlockBegin
  2
*D5
 70
     1
 10
0.0
 20
0.0
 30
0.0
  3
*D5
  1

  0
LINE
  5
BD6
330
BD5
100
AcDbEntity
  8
250
  6
CONTINUOUS
 62
     3
100
AcDbLine
 10
101.5
 20
0.0
 30
0.0
 11
113.0
 21
0.0
 31
0.0
  0
LINE
  5
BD7
330
BD5
100
AcDbEntity
  8
250
  6
CONTINUOUS
 62
     3
100
AcDbLine
 10
99.49999839
 20
35.00000015
 30
0.0
 11
113.0
 21
35.00000015
 31
0.0
  0
LINE
  5
BD8
330
BD5
100
AcDbEntity
  8
250
  6
CONTINUOUS
 62
     3
100
AcDbLine
 10
112.0
 20
2.23
 30
0.0
 11
112.0
 21
32.77000015
 31
0.0
  0
INSERT
  5
BD9
330
BD5
100
AcDbEntity
  8
250
  6
CONTINUOUS
 62
     3
100
AcDbBlockReference
  2
_OPEN
 10
112.0
 20
0.0
 30
0.0
 41
2.23
 42
2.23
 43
2.23
 50
270.0
  0
INSERT
  5
BDA
330
BD5
100
AcDbEntity
  8
250
  6
CONTINUOUS
 62
     3
100
AcDbBlockReference
  2
_OPEN
 10
112.0
 20
35.00000015
 30
0.0
 41
2.23
 42
2.23
 43
2.23
 50
90.0
  0
MTEXT
  5
BDB
330
BD5
100
AcDbEntity
  8
250
  6
CONTINUOUS
 62
    40
100
AcDbMText
 10
109.5
 20
17.50000008
 30
0.0
 40
3.0
 41
0.0
 71
     5
 72
     1
  1
\A1;35
 11
0.0
 21
1.0
 31
0.0
1001
ACAD
1000
MTEXTBEGIN
1070
    73
1070
     1
1070
    44
1040
1.0
1070
    74
1070
     0
1000
MTEXTEND
1000
MTEXTBEGIN
1070
    73
1070
     1
1070
    44
1040
1.0
1070
    74
1070
     0
1000
MTEXTEND
  0
POINT
  5
BDC
330
BD5
100
AcDbEntity
  8
DEFPOINTS
  6
CONTINUOUS
 62
     0
100
AcDbPoint
 10
101.0
 20
0.0
 30
0.0
  0
POINT
  5
BDD
330
BD5
100
AcDbEntity
  8
DEFPOINTS
  6
CONTINUOUS
 62
     0
100
AcDbPoint
 10
98.99999839
 20
35.00000015
 30
0.0
  0
POINT
  5
BDE
330
BD5
100
AcDbEntity
  8
DEFPOINTS
  6
CONTINUOUS
 62
     0
100
AcDbPoint
 10
112.0
 20
35.00000015
 30
0.0
  0
ENDBLK
  5
BE0
330
BD5
100
AcDbEntity
  8
0
100
AcDbBlockEnd
  0
BLOCK
  5
EEE
330
EE4
100
AcDbEntity
  8
0
100
AcDbBlockBegin
  2
*D7
 70
     1
 10
0.0
 20
0.0
 30
0.0
  3
*D7
  1

  0
LINE
  5
EF0
330
EE4
100
AcDbEntity
  8
250
  6
CONTINUOUS
 62
     3
100
AcDbLine
 10
175.0
 20
47.5
 30
0.0
 11
175.0
 21
57.0
 31
0.0
  0
LINE
  5
EF1
330
EE4
100
AcDbEntity
  8
250
  6
CONTINUOUS
 62
     3
100
AcDbLine
 10
195.0
 20
35.5
 30
0.0
 11
195.0
 21
57.0
 31
0.0
  0
LINE
  5
EF2
330
EE4
100
AcDbEntity
  8
250
  6
CONTINUOUS
 62
     3
100
AcDbLine
 10
177.23
 20
56.0
 30
0.0
 11
192.77
 21
56.0
 31
0.0
  0
INSERT
  5
EF3
330
EE4
100
AcDbEntity
  8
250
  6
CONTINUOUS
 62
     3
100
AcDbBlockReference
  2
_OPEN
 10
175.0
 20
56.0
 30
0.0
 41
2.23
 42
2.23
 43
2.23
 50
180.0
  0
INSERT
  5
EF4
330
EE4
100
AcDbEntity
  8
250
  6
CONTINUOUS
 62
     3
100
AcDbBlockReference
  2
_OPEN
 10
195.0
 20
56.0
 30
0.0
 41
2.23
 42
2.23
 43
2.23
  0
MTEXT
  5
EF5
330
EE4
100
AcDbEntity
  8
250
  6
CONTINUOUS
 62
    40
100
AcDbMText
 10
185.0
 20
58.5
 30
0.0
 40
3.0
 41
0.0
 71
     5
 72
     1
  1
\A1;□20
1001
ACAD
1000
MTEXTBEGIN
1070
    73
1070
     1
1070
    44
1040
1.0
1070
    74
1070
     0
1000
MTEXTEND
  0
POINT
  5
EF6
330
EE4
100
AcDbEntity
  8
DEFPOINTS
  6
CONTINUOUS
 62
     0
100
AcDbPoint
 10
175.0
 20
47.0
 30
0.0
  0
POINT
  5
EF7
330
EE4
100
AcDbEntity
  8
DEFPOINTS
  6
CONTINUOUS
 62
     0
100
AcDbPoint
 10
195.0
 20
35.0
 30
0.0
  0
POINT
  5
EF8
330
EE4
100
AcDbEntity
  8
DEFPOINTS
  6
CONTINUOUS
 62
     0
100
AcDbPoint
 10
195.0
 20
56.0
 30
0.0
  0
ENDBLK
  5
EEF
330
EE4
100
AcDbEntity
  8
0
100
AcDbBlockEnd
  0
BLOCK
  5
F06
330
EFC
100
AcDbEntity
  8
0
100
AcDbBlockBegin
  2
*D8
 70
     1
 10
0.0
 20
0.0
 30
0.0
  3
*D8
  1

  0
LINE
  5
EFD
330
EFC
100
AcDbEntity
  8
250
  6
CONTINUOUS
 62
     3
100
AcDbLine
 10
195.5
 20
15.0
 30
0.0
 11
225.0
 21
15.0
 31
0.0
  0
LINE
  5
EFE
330
EFC
100
AcDbEntity
  8
250
  6
CONTINUOUS
 62
     3
100
AcDbLine
 10
200.79822128
 20
35.0
 30
0.0
 11
225.0
 21
35.0
 31
0.0
  0
LINE
  5
EFF
330
EFC
100
AcDbEntity
  8
250
  6
CONTINUOUS
 62
     3
100
AcDbLine
 10
224.0
 20
17.23
 30
0.0
 11
224.0
 21
32.77
 31
0.0
  0
INSERT
  5
F00
330
EFC
100
AcDbEntity
  8
250
  6
CONTINUOUS
 62
     3
100
AcDbBlockReference
  2
_OPEN
 10
224.0
 20
15.0
 30
0.0
 41
2.23
 42
2.23
 43
2.23
 50
270.0
  0
INSERT
  5
F01
330
EFC
100
AcDbEntity
  8
250
  6
CONTINUOUS
 62
     3
100
AcDbBlockReference
  2
_OPEN
 10
224.0
 20
35.0
 30
0.0
 41
2.23
 42
2.23
 43
2.23
 50
90.0
  0
MTEXT
  5
F02
330
EFC
100
AcDbEntity
  8
250
  6
CONTINUOUS
 62
    40
100
AcDbMText
 10
221.5
 20
25.0
 30
0.0
 40
3.0
 41
0.0
 71
     5
 72
     1
  1
\A1;20
 11
0.0
 21
1.0
 31
0.0
1001
ACAD
1000
MTEXTBEGIN
1070
    73
1070
     1
1070
    44
1040
1.0
1070
    74
1070
     0
1000
MTEXTEND
  0
POINT
  5
F03
330
EFC
100
AcDbEntity
  8
DEFPOINTS
  6
CONTINUOUS
 62
     0
100
AcDbPoint
 10
195.0
 20
15.0
 30
0.0
  0
POINT
  5
F04
330
EFC
100
AcDbEntity
  8
DEFPOINTS
  6
CONTINUOUS
 62
     0
100
AcDbPoint
 10
200.29822128
 20
35.0
 30
0.0
  0
POINT
  5
F05
330
EFC
100
AcDbEntity
  8
DEFPOINTS
  6
CONTINUOUS
 62
     0
100
AcDbPoint
 10
224.0
 20
35.0
 30
0.0
  0
ENDBLK
  5
F07
330
EFC
100
AcDbEntity
  8
0
100
AcDbBlockEnd
  0
ENDSEC
  0
SECTION
  2
ENTITIES
  0
INSERT
  5
6E6
330
1A
100
AcDbEntity
  8
245
100
AcDbBlockReference
  2
矢印なし
 10
175.62382697
 20
90.55123572
 30
0.0
  0
TEXT
  5
821
330
1A
100
AcDbEntity
  8
241
100
AcDbText
 10
-30.0
 20
70.0
 30
0.0
 40
5.0
  1
C5-180-3BH20R-100
  7
YOKO
 11
-30.0
 21
70.0
 31
0.0
100
AcDbText
 73
     1
  0
DIMENSION
  5
822
330
1A
100
AcDbEntity
  8
250
  6
CONTINUOUS
100
AcDbDimension
  2
*D3
 10
100.0
 20
56.0
 30
0.0
 11
50.0
 21
56.0
 31
0.0
 70
   160
  3
BIGT$0
100
AcDbAlignedDimension
 13
0.0
 23
24.99
 33
0.0
 14
100.0
 24
34.0
 34
0.0
100
AcDbRotatedDimension
1001
ACAD
1000
DSTYLE
1002
{
1070
   287
1070
     0
1070
   287
1070
     0
1070
   287
1070
     0
1070
   287
1070
     0
1070
   287
1070
     0
1070
   287
1070
     0
1070
   287
1070
     0
1070
     3
1000
<>
1070
   289
1070
     0
1002
}
  0
DIMENSION
  5
9C1
330
1A
100
AcDbEntity
  8
250
  6
CONTINUOUS
100
AcDbDimension
  2
*D4
 10
100.0
 20
49.0
 30
0.0
 11
65.0
 21
51.5
 31
0.0
 70
    32
  3
BIGT$0
100
AcDbAlignedDimension
 13
30.0
 23
35.00000015
 33
0.0
 14
100.0
 24
34.0
 34
0.0
100
AcDbRotatedDimension
  0
DIMENSION
  5
BD4
330
1A
100
AcDbEntity
  8
250
  6
CONTINUOUS
100
AcDbDimension
  2
*D5
 10
112.0
 20
35.00000015
 30
0.0
 11
109.5
 21
17.50000008
 31
0.0
 70
    32
  3
BIGT$0
100
AcDbAlignedDimension
 13
101.0
 23
0.0
 33
0.0
 14
98.99999839
 24
35.00000015
 34
0.0
 50
90.0
100
AcDbRotatedDimension
  0
LINE
  5
BE7
330
1A
100
AcDbEntity
  8
250
  6
CONTINUOUS
100
AcDbLine
 10
156.3638487
 20
-38.49632144
 30
0.0
 11
193.6361513
 21
38.49632144
 31
0.0
  0
INSERT
  5
BE8
330
1A
100
AcDbEntity
  8
250
  6
CONTINUOUS
100
AcDbBlockReference
  2
_OPEN
 10
155.39217188
 20
-40.50349462
 30
0.0
 41
2.23
 42
2.23
 43
2.23
 50
244.16827695
  0
INSERT
  5
BE9
330
1A
100
AcDbEntity
  8
250
  6
CONTINUOUS
100
AcDbBlockReference
  2
_OPEN
 10
194.60782812
 20
40.50349462
 30
0.0
 41
2.23
 42
2.23
 43
2.23
 50
64.16827695
  0
MTEXT
  5
BEA
330
1A
100
AcDbEntity
  8
250
  6
CONTINUOUS
 62
    40
100
AcDbMText
 10
184.35453933
 20
24.83148723
 30
0.0
 40
2.8
 41
0.0
 71
     5
 72
     1
  1
\A1;（{\H2.8;\U+2205}90）
 11
0.43572951
 21
0.90007766
 31
0.0
1001
ACAD
1000
MTEXTBEGIN
1070
    73
1070
     1
1070
    44
1040
1.0
1070
    74
1070
     0
1000
MTEXTEND
1000
MTEXTBEGIN
1070
    73
1070
     1
1070
    44
1040
1.0
1070
    74
1070
     0
1000
MTEXTEND
  0
LINE
  5
E02
330
1A
100
AcDbEntity
  8
245
100
AcDbLine
 10
175.0
 20
47.0
 30
0.0
 11
175.0
 21
-47.0
 31
0.0
  0
LEADER
  5
E9B
330
1A
100
AcDbEntity
  8
250
  6
CONTINUOUS
100
AcDbLeader
  3
BIGT$7
 76
     2
 10
-12.69342942
 20
-16.13764293
 30
0.0
 10
-17.55153517
 20
-24.55212892
 30
0.0
1001
ACAD
1000
DSTYLE
1002
{
1070
     5
1000
OPEN
1070
    41
1040
2.0
1070
    42
1040
2.0
1070
    44
1040
2.0
1070
    79
1070
     2
1070
   140
1040
4.0
1070
   179
1070
     3
1070
   342
1005
594
1070
   371
1070
    -1
1070
   372
1070
    -1
1002
}
  0
MTEXT
  5
E9E
330
1A
100
AcDbEntity
  8
251
  6
CONTINUOUS
100
AcDbMText
 10
-25.01820183
 20
-23.55212892
 30
0.0
 40
2.8
 41
0.0
 71
     7
 72
     1
  1
C5
  7
YOKO
1001
ITEMNAME
1000
LNSP3
1001
ACAD
1000
MTEXTBEGIN
1070
    73
1070
     1
1070
    44
1040
1.0
1070
    74
1070
     0
1000
MTEXTEND
1000
MTEXTBEGIN
1070
    73
1070
     1
1070
    44
1040
1.0
1070
    74
1070
     0
1000
MTEXTEND
1000
MTEXTBEGIN
1070
    73
1070
     1
1070
    44
1040
1.0
1070
    74
1070
     0
1000
MTEXTEND
  0
LINE
  5
E9F
330
1A
100
AcDbEntity
  8
250
  6
CONTINUOUS
100
AcDbLine
 10
-17.55153517
 20
-24.55212892
 30
0.0
 11
-27.81820183
 21
-24.55212892
 31
0.0
1001
ITEMNAME
1000
LNSP2
  0
DIMENSION
  5
EE3
330
1A
100
AcDbEntity
  8
250
  6
CONTINUOUS
100
AcDbDimension
  2
*D7
 10
195.0
 20
56.0
 30
0.0
 11
185.0
 21
58.5
 31
0.0
 70
    32
  1
□<>
  3
BIGT$0
100
AcDbAlignedDimension
 13
175.0
 23
47.0
 33
0.0
 14
195.0
 24
35.0
 34
0.0
100
AcDbRotatedDimension
  0
DIMENSION
  5
EFB
330
1A
100
AcDbEntity
  8
250
  6
CONTINUOUS
100
AcDbDimension
  2
*D8
 10
224.0
 20
35.0
 30
0.0
 11
221.5
 21
25.0
 31
0.0
 70
    32
  3
BIGT$0
100
AcDbAlignedDimension
 13
195.0
 23
15.0
 33
0.0
 14
200.29822128
 24
35.0
 34
0.0
 50
90.0
100
AcDbRotatedDimension
  0
INSERT
  5
FB6
330
1A
100
AcDbEntity
  8
245
100
AcDbBlockReference
  2
1
 10
0.0
 20
0.0
 30
0.0
  0
VIEWPORT
  5
22
330
17
100
AcDbEntity
 67
     1
  8
0
100
AcDbViewport
 10
261.51769912
 20
148.5
 30
0.0
 40
523.03539823
 41
297.0
 68
     1
 69
     1
1001
ACAD
1000
MVIEW
1002
{
1070
    16
1010
0.0
1020
0.0
1030
0.0
1010
0.0
1020
0.0
1030
1.0
1040
0.0
1040
297.0
1040
261.51769912
1040
148.5
1040
50.0
1040
0.0
1040
0.0
1070
     0
1070
   100
1070
     1
1070
     1
1070
     0
1070
     0
1070
     0
1070
     0
1040
0.0
1040
0.0
1040
0.0
1040
1.0
1040
1.0
1040
10.0
1040
10.0
1070
     0
1002
{
1002
}
1002
}
  0
ENDSEC
  0
SECTION
  2
OBJECTS
  0
DICTIONARY
  5
C
330
0
100
AcDbDictionary
  3
ACAD_GROUP
350
D
  3
ACAD_LAYOUT
350
565
  3
ACAD_MLINESTYLE
350
E
  3
ACAD_PLOTSETTINGS
350
566
  3
ACAD_PLOTSTYLENAME
350
563
  3
ACDBHEADERROUNDTRIPXREC
350
FE8
  3
GRADE_DWG
350
540
  0
DICTIONARY
  5
BB4
330
1A
100
AcDbDictionary
280
     1
  3
ACAD_LAYOUTSELFREF
360
100A
  0
DICTIONARY
  5
BB2
330
17
100
AcDbDictionary
280
     1
  3
ACAD_LAYOUTSELFREF
360
1009
  0
DICTIONARY
  5
D
102
{ACAD_REACTORS
330
C
102
}
330
C
100
AcDbDictionary
  3
*A1
350
6C7
  3
*A2
350
6C8
  3
*A3
350
6D4
  3
*A4
350
6D5
  3
DREC-1
350
5FC
  3
DREC-2
350
654
  3
DREC-3
350
673
  0
DICTIONARY
  5
565
102
{ACAD_REACTORS
330
C
102
}
330
C
100
AcDbDictionary
  0
DICTIONARY
  5
E
102
{ACAD_REACTORS
330
C
102
}
330
C
100
AcDbDictionary
  3
STANDARD
350
13
  0
DICTIONARY
  5
566
102
{ACAD_REACTORS
330
C
102
}
330
C
100
AcDbDictionary
  3
A3_0_5倍_
350
758
  3
A3_1倍_
350
757
  3
A3_1倍__2000_
350
707
  3
A3_2倍_
350
759
  3
A4_0_5倍_
350
755
  3
A4_1倍_
350
754
  3
A4_1倍__2000_
350
708
  3
A4_2倍_
350
756
  0
ACDBDICTIONARYWDFLT
  5
563
102
{ACAD_REACTORS
330
C
102
}
330
C
100
AcDbDictionary
281
     1
  3
Normal
350
564
100
AcDbDictionaryWithDefault
340
564
  0
DICTIONARY
  5
FE8
102
{ACAD_REACTORS
330
C
102
}
330
C
100
AcDbDictionary
  3
CEPSNTYPE
350
FF2
  3
DIMSTYLEDATA
350
FF6
  3
FINGERPRINTGUID
350
FF3
  3
HYPERLINKBASE
350
FEB
  3
INSUNITS
350
FF1
  3
LAYOUTDICT
350
FED
  3
LWETCUNION
350
FF0
  3
PLOTSETDICT
350
FEE
  3
PLOTSTYLNAMDICT
350
FEF
  3
PSVPSCALE
350
FF5
  3
PUCSBASE
350
FF9
  3
PUCSORGBACK
350
FFF
  3
PUCSORGBOTTOM
350
FFB
  3
PUCSORGFRONT
350
FFE
  3
PUCSORGLEFT
350
FFC
  3
PUCSORGRIGHT
350
FFD
  3
PUCSORGTOP
350
FFA
  3
PUCSORTHOREF
350
FF7
  3
PUCSORTHOVIEW
350
FF8
  3
STYLESHEET
350
FEC
  3
TSTACKALIGN
350
FE9
  3
TSTACKSIZE
350
FEA
  3
UCSBASE
350
1002
  3
UCSORGBACK
350
1008
  3
UCSORGBOTTOM
350
1004
  3
UCSORGFRONT
350
1007
  3
UCSORGLEFT
350
1005
  3
UCSORGRIGHT
350
1006
  3
UCSORGTOP
350
1003
  3
UCSORTHOREF
350
1000
  3
UCSORTHOVIEW
350
1001
  3
VERSIONGUID
350
FF4
  0
DICTIONARY
  5
540
102
{ACAD_REACTORS
330
C
102
}
330
C
100
AcDbDictionary
  3
VERSION
350
560
  0
XRECORD
  5
100A
102
{ACAD_REACTORS
330
BB4
102
}
330
BB4
100
AcDbXrecord
340
1A
  0
XRECORD
  5
1009
102
{ACAD_REACTORS
330
BB2
102
}
330
BB2
100
AcDbXrecord
340
17
  0
GROUP
  5
6C7
102
{ACAD_REACTORS
330
D
102
}
330
D
100
AcDbGroup
300

 70
     0
 71
     1
1001
GRPNAME
1000
DMA00
  0
GROUP
  5
6C8
102
{ACAD_REACTORS
330
D
102
}
330
D
100
AcDbGroup
300

 70
     0
 71
     1
1001
GRPNAME
1000
DMA00
  0
GROUP
  5
6D4
102
{ACAD_REACTORS
330
D
102
}
330
D
100
AcDbGroup
300

 70
     0
 71
     1
1001
GRPNAME
1000
DMA00
  0
GROUP
  5
6D5
102
{ACAD_REACTORS
330
D
102
}
330
D
100
AcDbGroup
300

 70
     0
 71
     1
1001
GRPNAME
1000
DMA00
  0
GROUP
  5
5FC
102
{ACAD_REACTORS
330
D
102
}
330
D
100
AcDbGroup
300

 70
     0
 71
     1
1001
GRPNAME
1000
DREC-
1001
GPARA
1000
xsiz
1000
44.182
1000
ysiz
1000
40.677
1000
angl
1000
0
1000
ctyp
1000
0
1000
csiz
1000
5
1000
lfnt
1000
cont
1000
hcnt
1000
hoff
1000
vcnt
1000
voff
1000
opnt
1000
4
1000
dxpt
1000
0
1000
dypt
1000
0
  0
GROUP
  5
654
102
{ACAD_REACTORS
330
D
102
}
330
D
100
AcDbGroup
300

 70
     0
 71
     1
1001
GRPNAME
1000
DREC-
1001
GPARA
1000
xsiz
1000
54.592
1000
ysiz
1000
53.036
1000
angl
1000
0
1000
ctyp
1000
0
1000
csiz
1000
5
1000
lfnt
1000
cont
1000
hcnt
1000
hoff
1000
vcnt
1000
voff
1000
opnt
1000
4
1000
dxpt
1000
0
1000
dypt
1000
0
  0
GROUP
  5
673
102
{ACAD_REACTORS
330
D
102
}
330
D
100
AcDbGroup
300

 70
     0
 71
     1
1001
GRPNAME
1000
DREC-
1001
GPARA
1000
xsiz
1000
30.363
1000
ysiz
1000
36.175
1000
angl
1000
0
1000
ctyp
1000
0
1000
csiz
1000
5
1000
lfnt
1000
cont
1000
hcnt
1000
hoff
1000
vcnt
1000
voff
1000
opnt
1000
4
1000
dxpt
1000
0
1000
dypt
1000
0
  0
MLINESTYLE
  5
13
102
{ACAD_REACTORS
330
E
102
}
330
E
100
AcDbMlineStyle
  2
STANDARD
 70
     0
  3

 62
     0
 51
90.0
 52
90.0
 71
     2
 49
0.5
 62
   256
  6
BYLAYER
 49
-0.5
 62
   256
  6
BYLAYER
  0
PLOTSETTINGS
  5
758
102
{ACAD_REACTORS
330
566
102
}
330
566
100
AcDbPlotSettings
  1
A3(0.5倍)
  2
\\AWTECPC05\HP DeskJet 1120C
  4
A3
  6

 40
5.95841646
 41
13.49375153
 42
6.04309082
 43
3.67242432
 44
296.92599487
 45
419.94665527
 46
89.96
 47
127.14
 48
0.0
 49
0.0
140
0.0
141
0.0
142
1.0
143
2.0
 70
  1716
 72
     1
 73
     1
 74
     2
  7
big.ctb
 75
    17
147
0.5
148
0.0
149
0.0
  0
PLOTSETTINGS
  5
757
102
{ACAD_REACTORS
330
566
102
}
330
566
100
AcDbPlotSettings
  1
A3(1倍)
  2
\\AWTECPC05\HP DeskJet 1120C
  4
A3
  6

 40
5.95841646
 41
13.49375153
 42
6.04309082
 43
3.67242432
 44
296.92599487
 45
419.94665527
 46
37.46
 47
52.89
 48
0.0
 49
0.0
140
0.0
141
0.0
142
1.0
143
1.0
 70
  1716
 72
     1
 73
     1
 74
     2
  7
big.ctb
 75
    16
147
1.0
148
0.0
149
0.0
  0
PLOTSETTINGS
  5
707
102
{ACAD_REACTORS
330
566
102
}
330
566
100
AcDbPlotSettings
  1
A3(1倍)(2000)
  2
SII LS-1300 (D-SCAN)
  4
User258
  6

 40
3.17499995
 41
3.17499995
 42
3.17498779
 43
3.17498779
 44
419.98898315
 45
296.98950195
 46
58.32
 47
40.32
 48
0.0
 49
0.0
140
0.0
141
0.0
142
1.0
143
1.0
 70
  1716
 72
     1
 73
     0
 74
     2
  7
big.ctb
 75
    16
147
1.0
148
0.0
149
0.0
  0
PLOTSETTINGS
  5
759
102
{ACAD_REACTORS
330
566
102
}
330
566
100
AcDbPlotSettings
  1
A3(2倍)
  2
\\AWTECPC05\HP DeskJet 1120C
  4
A3
  6

 40
5.95841646
 41
13.49375153
 42
6.04309082
 43
3.67242432
 44
296.92599487
 45
419.94665527
 46
-67.54
 47
-95.61
 48
0.0
 49
0.0
140
0.0
141
0.0
142
1.0
143
0.5
 70
  1716
 72
     1
 73
     1
 74
     2
  7
big.ctb
 75
    27
147
2.0
148
0.0
149
0.0
  0
PLOTSETTINGS
  5
755
102
{ACAD_REACTORS
330
566
102
}
330
566
100
AcDbPlotSettings
  1
A4(0.5倍)
  2
\\AWTECPC05\HP DeskJet 1120C
  4
A4
  6

 40
4.18041658
 41
13.49374962
 42
4.18040466
 43
3.92642212
 44
209.97332764
 45
296.92599487
 46
48.31
 47
65.5
 48
0.0
 49
0.0
140
0.0
141
0.0
142
1.0
143
2.0
 70
  1716
 72
     1
 73
     1
 74
     2
  7
big.ctb
 75
    17
147
0.5
148
0.0
149
0.0
  0
PLOTSETTINGS
  5
754
102
{ACAD_REACTORS
330
566
102
}
330
566
100
AcDbPlotSettings
  1
A4(1倍)
  2
\\AWTECPC05\HP DeskJet 1120C
  4
A4
  6

 40
4.18041658
 41
13.49374962
 42
4.18040466
 43
3.92642212
 44
209.97332764
 45
296.92599487
 46
-4.19
 47
-8.75
 48
0.0
 49
0.0
140
0.0
141
0.0
142
1.0
143
1.0
 70
  1716
 72
     1
 73
     1
 74
     2
  7
big.ctb
 75
    16
147
1.0
148
0.0
149
0.0
  0
PLOTSETTINGS
  5
708
102
{ACAD_REACTORS
330
566
102
}
330
566
100
AcDbPlotSettings
  1
A4(1倍)(2000)
  2
SII LS-1300 (D-SCAN)
  4
User259
  6

 40
3.17499995
 41
3.17499995
 42
3.17498779
 43
3.17500305
 44
296.98950195
 45
209.99449158
 46
-3.18
 47
-3.18
 48
0.0
 49
0.0
140
0.0
141
0.0
142
1.0
143
1.0
 70
  1716
 72
     1
 73
     0
 74
     2
  7
big.ctb
 75
    16
147
1.0
148
0.0
149
0.0
  0
PLOTSETTINGS
  5
756
102
{ACAD_REACTORS
330
566
102
}
330
566
100
AcDbPlotSettings
  1
A4(2倍)
  2
\\AWTECPC05\HP DeskJet 1120C
  4
A4
  6

 40
4.18041658
 41
13.49374962
 42
4.18040466
 43
3.92642212
 44
209.97332764
 45
296.92599487
 46
-109.19
 47
-157.25
 48
0.0
 49
0.0
140
0.0
141
0.0
142
1.0
143
0.5
 70
  1716
 72
     1
 73
     1
 74
     2
  7
big.ctb
 75
    27
147
2.0
148
0.0
149
0.0
  0
ACDBPLACEHOLDER
  5
564
102
{ACAD_REACTORS
330
563
102
}
330
563
100
AcDbPlaceHolder
280
     0
  0
XRECORD
  5
FF2
102
{ACAD_REACTORS
330
FE8
102
}
330
FE8
100
AcDbXrecord
 90
        0
  0
XRECORD
  5
FF6
102
{ACAD_REACTORS
330
FE8
102
}
330
FE8
100
AcDbXrecord
1000
DSTYLE
1002
{
1070
   341
340
594
1070
   343
340
594
1070
   344
340
594
1002
}
  0
XRECORD
  5
FF3
102
{ACAD_REACTORS
330
FE8
102
}
330
FE8
100
AcDbXrecord
  1
{51294030-9CB4-11D3-8E18-00A0C925D94D}
  0
XRECORD
  5
FEB
102
{ACAD_REACTORS
330
FE8
102
}
330
FE8
100
AcDbXrecord
  1

  0
XRECORD
  5
FF1
102
{ACAD_REACTORS
330
FE8
102
}
330
FE8
100
AcDbXrecord
 90
        0
  0
XRECORD
  5
FED
102
{ACAD_REACTORS
330
FE8
102
}
330
FE8
100
AcDbXrecord
340
565
  0
XRECORD
  5
FF0
102
{ACAD_REACTORS
330
FE8
102
}
330
FE8
100
AcDbXrecord
 90
    10781
  0
XRECORD
  5
FEE
102
{ACAD_REACTORS
330
FE8
102
}
330
FE8
100
AcDbXrecord
340
566
  0
XRECORD
  5
FEF
102
{ACAD_REACTORS
330
FE8
102
}
330
FE8
100
AcDbXrecord
340
563
  0
XRECORD
  5
FF5
102
{ACAD_REACTORS
330
FE8
102
}
330
FE8
100
AcDbXrecord
 40
0.0
  0
XRECORD
  5
FF9
102
{ACAD_REACTORS
330
FE8
102
}
330
FE8
100
AcDbXrecord
340
0
  0
XRECORD
  5
FFF
102
{ACAD_REACTORS
330
FE8
102
}
330
FE8
100
AcDbXrecord
 10
0.0
 20
0.0
 30
0.0
  0
XRECORD
  5
FFB
102
{ACAD_REACTORS
330
FE8
102
}
330
FE8
100
AcDbXrecord
 10
0.0
 20
0.0
 30
0.0
  0
XRECORD
  5
FFE
102
{ACAD_REACTORS
330
FE8
102
}
330
FE8
100
AcDbXrecord
 10
0.0
 20
0.0
 30
0.0
  0
XRECORD
  5
FFC
102
{ACAD_REACTORS
330
FE8
102
}
330
FE8
100
AcDbXrecord
 10
0.0
 20
0.0
 30
0.0
  0
XRECORD
  5
FFD
102
{ACAD_REACTORS
330
FE8
102
}
330
FE8
100
AcDbXrecord
 10
0.0
 20
0.0
 30
0.0
  0
XRECORD
  5
FFA
102
{ACAD_REACTORS
330
FE8
102
}
330
FE8
100
AcDbXrecord
 10
0.0
 20
0.0
 30
0.0
  0
XRECORD
  5
FF7
102
{ACAD_REACTORS
330
FE8
102
}
330
FE8
100
AcDbXrecord
340
0
  0
XRECORD
  5
FF8
102
{ACAD_REACTORS
330
FE8
102
}
330
FE8
100
AcDbXrecord
 70
     0
  0
XRECORD
  5
FEC
102
{ACAD_REACTORS
330
FE8
102
}
330
FE8
100
AcDbXrecord
  1
big.ctb
  0
XRECORD
  5
FE9
102
{ACAD_REACTORS
330
FE8
102
}
330
FE8
100
AcDbXrecord
 90
        1
  0
XRECORD
  5
FEA
102
{ACAD_REACTORS
330
FE8
102
}
330
FE8
100
AcDbXrecord
 90
       70
  0
XRECORD
  5
1002
102
{ACAD_REACTORS
330
FE8
102
}
330
FE8
100
AcDbXrecord
340
0
  0
XRECORD
  5
1008
102
{ACAD_REACTORS
330
FE8
102
}
330
FE8
100
AcDbXrecord
 10
0.0
 20
0.0
 30
0.0
  0
XRECORD
  5
1004
102
{ACAD_REACTORS
330
FE8
102
}
330
FE8
100
AcDbXrecord
 10
0.0
 20
0.0
 30
0.0
  0
XRECORD
  5
1007
102
{ACAD_REACTORS
330
FE8
102
}
330
FE8
100
AcDbXrecord
 10
0.0
 20
0.0
 30
0.0
  0
XRECORD
  5
1005
102
{ACAD_REACTORS
330
FE8
102
}
330
FE8
100
AcDbXrecord
 10
0.0
 20
0.0
 30
0.0
  0
XRECORD
  5
1006
102
{ACAD_REACTORS
330
FE8
102
}
330
FE8
100
AcDbXrecord
 10
0.0
 20
0.0
 30
0.0
  0
XRECORD
  5
1003
102
{ACAD_REACTORS
330
FE8
102
}
330
FE8
100
AcDbXrecord
 10
0.0
 20
0.0
 30
0.0
  0
XRECORD
  5
1000
102
{ACAD_REACTORS
330
FE8
102
}
330
FE8
100
AcDbXrecord
340
0
  0
XRECORD
  5
1001
102
{ACAD_REACTORS
330
FE8
102
}
330
FE8
100
AcDbXrecord
 70
     0
  0
XRECORD
  5
FF4
102
{ACAD_REACTORS
330
FE8
102
}
330
FE8
100
AcDbXrecord
  1
{8FB21035-5A93-4C36-92C5-22C03E4AF70F}
  0
XRECORD
  5
560
102
{ACAD_REACTORS
330
540
102
}
330
540
100
AcDbXrecord
  1
2.0.0
  0
ENDSEC
  0
EOF
