  0
SECTION
  2
HEADER
  9
$ACADVER
  1
AC1014
  9
$ACADMAINTVER
 70
     9
  9
$DWGCODEPAGE
  3
ANSI_932
  9
$INSBASE
 10
0.0
 20
0.0
 30
0.0
  9
$EXTMIN
 10
-31.01376238
 20
-57.0108024
 30
-0.00152582
  9
$EXTMAX
 10
225.02040182
 20
75.0045782
 30
0.00000003
  9
$LIMMIN
 10
0.0
 20
0.0
  9
$LIMMAX
 10
420.0
 20
297.0
  9
$ORTHOMODE
 70
     0
  9
$REGENMODE
 70
     1
  9
$FILLMODE
 70
     1
  9
$QTEXTMODE
 70
     0
  9
$MIRRTEXT
 70
     1
  9
$DRAGMODE
 70
     2
  9
$LTSCALE
 40
10.0
  9
$OSMODE
 70
   549
  9
$ATTMODE
 70
     1
  9
$TEXTSIZE
 40
3.0
  9
$TRACEWID
 40
1.0
  9
$TEXTSTYLE
  7
YOKO
  9
$CLAYER
  8
245
  9
$CELTYPE
  6
BYLAYER
  9
$CECOLOR
 62
   256
  9
$CELTSCALE
 40
1.0
  9
$DELOBJ
 70
     1
  9
$DISPSILH
 70
     0
  9
$DIMSCALE
 40
1.0
  9
$DIMASZ
 40
2.0
  9
$DIMEXO
 40
2.0
  9
$DIMDLI
 40
2.5
  9
$DIMRND
 40
0.0
  9
$DIMDLE
 40
0.0
  9
$DIMEXE
 40
2.0
  9
$DIMTP
 40
0.0
  9
$DIMTM
 40
0.0
  9
$DIMTXT
 40
4.0
  9
$DIMCEN
 40
0.0
  9
$DIMTSZ
 40
0.0
  9
$DIMTOL
 70
     0
  9
$DIMLIM
 70
     0
  9
$DIMTIH
 70
     0
  9
$DIMTOH
 70
     0
  9
$DIMSE1
 70
     0
  9
$DIMSE2
 70
     0
  9
$DIMTAD
 70
     3
  9
$DIMZIN
 70
     8
  9
$DIMBLK
  1

  9
$DIMASO
 70
     1
  9
$DIMSHO
 70
     1
  9
$DIMPOST
  1

  9
$DIMAPOST
  1

  9
$DIMALT
 70
     0
  9
$DIMALTD
 70
     2
  9
$DIMALTF
 40
25.4
  9
$DIMLFAC
 40
1.0
  9
$DIMTOFL
 70
     1
  9
$DIMTVP
 40
0.0
  9
$DIMTIX
 70
     1
  9
$DIMSOXD
 70
     0
  9
$DIMSAH
 70
     1
  9
$DIMBLK1
  1
OPEN
  9
$DIMBLK2
  1
OPEN
  9
$DIMSTYLE
  2
BIGT
  9
$DIMCLRD
 70
   256
  9
$DIMCLRE
 70
   256
  9
$DIMCLRT
 70
    40
  9
$DIMTFAC
 40
1.0
  9
$DIMGAP
 40
1.0
  9
$DIMJUST
 70
     0
  9
$DIMSD1
 70
     0
  9
$DIMSD2
 70
     0
  9
$DIMTOLJ
 70
     1
  9
$DIMTZIN
 70
     8
  9
$DIMALTZ
 70
     0
  9
$DIMALTTZ
 70
     0
  9
$DIMFIT
 70
     3
  9
$DIMUPT
 70
     0
  9
$DIMUNIT
 70
     2
  9
$DIMDEC
 70
     3
  9
$DIMTDEC
 70
     3
  9
$DIMALTU
 70
     2
  9
$DIMALTTD
 70
     2
  9
$DIMTXSTY
  7
STANDARD
  9
$DIMAUNIT
 70
     0
  9
$LUNITS
 70
     2
  9
$LUPREC
 70
     3
  9
$SKETCHINC
 40
1.0
  9
$FILLETRAD
 40
0.0
  9
$AUNITS
 70
     0
  9
$AUPREC
 70
     3
  9
$MENU
  1
.
  9
$ELEVATION
 40
0.0
  9
$PELEVATION
 40
0.0
  9
$THICKNESS
 40
0.0
  9
$LIMCHECK
 70
     0
  9
$BLIPMODE
 70
     0
  9
$CHAMFERA
 40
10.0
  9
$CHAMFERB
 40
10.0
  9
$CHAMFERC
 40
0.0
  9
$CHAMFERD
 40
0.0
  9
$SKPOLY
 70
     0
  9
$TDCREATE
 40
2455106.471514027
  9
$TDUPDATE
 40
2455390.704325266
  9
$TDINDWG
 40
0.0109593750
  9
$TDUSRTIMER
 40
0.0109593750
  9
$USRTIMER
 70
     1
  9
$ANGBASE
 50
0.0
  9
$ANGDIR
 70
     0
  9
$PDMODE
 70
     1
  9
$PDSIZE
 40
-5.0
  9
$PLINEWID
 40
0.0
  9
$COORDS
 70
     1
  9
$SPLFRAME
 70
     0
  9
$SPLINETYPE
 70
     6
  9
$SPLINESEGS
 70
     8
  9
$ATTDIA
 70
     0
  9
$ATTREQ
 70
     1
  9
$HANDLING
 70
-16383
  9
$HANDSEED
  5
1537
  9
$SURFTAB1
 70
     6
  9
$SURFTAB2
 70
     6
  9
$SURFTYPE
 70
     6
  9
$SURFU
 70
     6
  9
$SURFV
 70
     6
  9
$UCSNAME
  2

  9
$UCSORG
 10
0.0
 20
0.0
 30
0.0
  9
$UCSXDIR
 10
1.0
 20
0.0
 30
0.0
  9
$UCSYDIR
 10
0.0
 20
1.0
 30
0.0
  9
$PUCSNAME
  2

  9
$PUCSORG
 10
0.0
 20
0.0
 30
0.0
  9
$PUCSXDIR
 10
1.0
 20
0.0
 30
0.0
  9
$PUCSYDIR
 10
0.0
 20
1.0
 30
0.0
  9
$USERI1
 70
     1
  9
$USERI2
 70
     0
  9
$USERI3
 70
     0
  9
$USERI4
 70
     0
  9
$USERI5
 70
     0
  9
$USERR1
 40
0.0
  9
$USERR2
 40
0.0
  9
$USERR3
 40
0.0
  9
$USERR4
 40
0.0
  9
$USERR5
 40
0.0
  9
$WORLDVIEW
 70
     1
  9
$SHADEDGE
 70
     3
  9
$SHADEDIF
 70
    70
  9
$TILEMODE
 70
     1
  9
$MAXACTVP
 70
    16
  9
$PINSBASE
 10
0.0
 20
0.0
 30
0.0
  9
$PLIMCHECK
 70
     0
  9
$PEXTMIN
 10
1.00000000E+20
 20
1.00000000E+20
 30
1.00000000E+20
  9
$PEXTMAX
 10
-1.00000000E+20
 20
-1.00000000E+20
 30
-1.00000000E+20
  9
$PLIMMIN
 10
0.0
 20
0.0
  9
$PLIMMAX
 10
420.0
 20
297.0
  9
$UNITMODE
 70
     0
  9
$VISRETAIN
 70
     0
  9
$PLINEGEN
 70
     0
  9
$PSLTSCALE
 70
     1
  9
$TREEDEPTH
 70
  3020
  9
$PICKSTYLE
 70
     0
  9
$CMLSTYLE
  2
STANDARD
  9
$CMLJUST
 70
     0
  9
$CMLSCALE
 40
1.0
  9
$PROXYGRAPHICS
 70
     1
  9
$MEASUREMENT
 70
     1
  0
ENDSEC
  0
SECTION
  2
CLASSES
  0
CLASS
  1
XRECORD
  2
AcDbXrecord
  3
AutoCAD 2000
 90
        0
280
     0
281
     0
  0
CLASS
  1
ACDBDICTIONARYWDFLT
  2
AcDbDictionaryWithDefault
  3
AutoCAD 2000
 90
        0
280
     0
281
     0
  0
CLASS
  1
ACDBPLACEHOLDER
  2
AcDbPlaceHolder
  3
AutoCAD 2000
 90
        0
280
     0
281
     0
  0
CLASS
  1
LAYOUT
  2
AcDbLayout
  3
AutoCAD 2000
 90
        0
280
     0
281
     0
  0
CLASS
  1
PLOTSETTINGS
  2
AcDbPlotSettings
  3
AutoCAD 2000
 90
        0
280
     0
281
     0
  0
CLASS
  1
LONG_TRANSACTION
  2
AcDbLongTransaction
  3
AutoCAD 2000
 90
        0
280
     0
281
     0
  0
CLASS
  1
LWPOLYLINE
  2
AcDbPolyline
  3
AutoCAD 2000
 90
        0
280
     0
281
     1
  0
CLASS
  1
HATCH
  2
AcDbHatch
  3
AutoCAD 2000
 90
        0
280
     0
281
     1
  0
CLASS
  1
XRECORD
  2
AcDbXrecord
  3
AutoCAD 2000
 90
        0
280
     0
281
     0
  0
CLASS
  1
LONG_TRANSACTION
  2
AcDbLongTransaction
  3
AutoCAD 2000
 90
        0
280
     0
281
     0
  0
CLASS
  1
LWPOLYLINE
  2
AcDbPolyline
  3
AutoCAD 2000
 90
        0
280
     0
281
     1
  0
CLASS
  1
HATCH
  2
AcDbHatch
  3
AutoCAD 2000
 90
        0
280
     0
281
     1
  0
CLASS
  1
XRECORD
  2
AcDbXrecord
  3
AutoCAD 2000
 90
        0
280
     0
281
     0
  0
CLASS
  1
LONG_TRANSACTION
  2
AcDbLongTransaction
  3
AutoCAD 2000
 90
        0
280
     0
281
     0
  0
CLASS
  1
LWPOLYLINE
  2
AcDbPolyline
  3
AutoCAD 2000
 90
        0
280
     0
281
     1
  0
CLASS
  1
HATCH
  2
AcDbHatch
  3
AutoCAD 2000
 90
        0
280
     0
281
     1
  0
CLASS
  1
XRECORD
  2
AcDbXrecord
  3
AutoCAD 2000
 90
        0
280
     0
281
     0
  0
CLASS
  1
LONG_TRANSACTION
  2
AcDbLongTransaction
  3
AutoCAD 2000
 90
        0
280
     0
281
     0
  0
CLASS
  1
LWPOLYLINE
  2
AcDbPolyline
  3
AutoCAD 2000
 90
        0
280
     0
281
     1
  0
CLASS
  1
HATCH
  2
AcDbHatch
  3
AutoCAD 2000
 90
        0
280
     0
281
     1
  0
CLASS
  1
XRECORD
  2
AcDbXrecord
  3
AutoCAD 2000
 90
        0
280
     0
281
     0
  0
CLASS
  1
LONG_TRANSACTION
  2
AcDbLongTransaction
  3
AutoCAD 2000
 90
        0
280
     0
281
     0
  0
CLASS
  1
LWPOLYLINE
  2
AcDbPolyline
  3
AutoCAD 2000
 90
        0
280
     0
281
     1
  0
CLASS
  1
HATCH
  2
AcDbHatch
  3
AutoCAD 2000
 90
        0
280
     0
281
     1
  0
CLASS
  1
XRECORD
  2
AcDbXrecord
  3
AutoCAD 2000
 90
        0
280
     0
281
     0
  0
ENDSEC
  0
SECTION
  2
TABLES
  0
TABLE
  2
VPORT
  5
8
330
0
100
AcDbSymbolTable
 70
     4
  0
VPORT
  5
1503
330
8
100
AcDbSymbolTableRecord
100
AcDbViewportTableRecord
  2
*ACTIVE
 70
     0
 10
0.0
 20
0.0
 11
1.0
 21
1.0
 12
97.00331972
 22
8.9968879
 13
0.0
 23
0.0
 14
7.0
 24
7.0
 15
7.0
 25
7.0
 16
0.0
 26
0.0
 36
1.0
 17
0.0
 27
0.0
 37
0.0
 40
176.7901474
 41
1.45595855
 42
50.0
 43
0.0
 44
0.0
 50
0.0
 51
0.0
 71
     0
 72
  2000
 73
     1
 74
     0
 75
     0
 76
     0
 77
     0
 78
     0
  0
ENDTAB
  0
TABLE
  2
LTYPE
  5
5
330
0
100
AcDbSymbolTable
 70
     4
  0
LTYPE
  5
14
330
5
100
AcDbSymbolTableRecord
100
AcDbLinetypeTableRecord
  2
BYBLOCK
 70
     0
  3

 72
    65
 73
     0
 40
0.0
  0
LTYPE
  5
15
330
5
100
AcDbSymbolTableRecord
100
AcDbLinetypeTableRecord
  2
BYLAYER
 70
     0
  3

 72
    65
 73
     0
 40
0.0
  0
LTYPE
  5
16
330
5
100
AcDbSymbolTableRecord
100
AcDbLinetypeTableRecord
  2
CONTINUOUS
 70
     0
  3
Solid line
 72
    65
 73
     0
 40
0.0
  0
LTYPE
  5
258
330
5
100
AcDbSymbolTableRecord
100
AcDbLinetypeTableRecord
  2
CENTER2
 70
     0
  3
___ _ ___ _ ___ _ ___ _ ___ _ ___ _ ___ _ ___ _
 72
    65
 73
     4
 40
1.125
 49
0.75
 74
     0
 49
-0.125
 74
     0
 49
0.125
 74
     0
 49
-0.125
 74
     0
  0
LTYPE
  5
25C
330
5
100
AcDbSymbolTableRecord
100
AcDbLinetypeTableRecord
  2
HIDDEN2
 70
     0
  3
_ _ _ _ _ _ _ _ _ _ _ _ _ _ _ _ _ _ _ _ _ _ _ _
 72
    65
 73
     2
 40
0.1875
 49
0.125
 74
     0
 49
-0.0625
 74
     0
  0
LTYPE
  5
25D
330
5
100
AcDbSymbolTableRecord
100
AcDbLinetypeTableRecord
  2
PHANTOM2
 70
     0
  3
___ _ _ ___ _ _ ___ _ _ ___ _ _ ___ _ _ ___ _ _
 72
    65
 73
     6
 40
1.25
 49
0.625
 74
     0
 49
-0.125
 74
     0
 49
0.125
 74
     0
 49
-0.125
 74
     0
 49
0.125
 74
     0
 49
-0.125
 74
     0
  0
ENDTAB
  0
TABLE
  2
LAYER
  5
2
330
0
100
AcDbSymbolTable
 70
     9
  0
LAYER
  5
F
330
2
100
AcDbSymbolTableRecord
100
AcDbLayerTableRecord
  2
0
 70
     0
 62
     7
  6
CONTINUOUS
  0
LAYER
  5
1AA
330
2
100
AcDbSymbolTableRecord
100
AcDbLayerTableRecord
  2
240
 70
     0
 62
     4
  6
CONTINUOUS
  0
LAYER
  5
1AB
330
2
100
AcDbSymbolTableRecord
100
AcDbLayerTableRecord
  2
241
 70
     0
 62
   211
  6
CONTINUOUS
  0
LAYER
  5
1AC
330
2
100
AcDbSymbolTableRecord
100
AcDbLayerTableRecord
  2
242
 70
     0
 62
     3
  6
CONTINUOUS
  0
LAYER
  5
1AF
330
2
100
AcDbSymbolTableRecord
100
AcDbLayerTableRecord
  2
245
 70
     0
 62
     2
  6
CENTER2
  0
LAYER
  5
21E
330
2
100
AcDbSymbolTableRecord
100
AcDbLayerTableRecord
  2
250
 70
     0
 62
     3
  6
CONTINUOUS
  0
LAYER
  5
21F
330
2
100
AcDbSymbolTableRecord
100
AcDbLayerTableRecord
  2
251
 70
     0
 62
    40
  6
CONTINUOUS
  0
LAYER
  5
5C4
330
2
100
AcDbSymbolTableRecord
100
AcDbLayerTableRecord
  2
DEFPOINTS
 70
     0
 62
     7
  6
CONTINUOUS
  0
ENDTAB
  0
TABLE
  2
STYLE
  5
3
330
0
100
AcDbSymbolTable
 70
     2
  0
STYLE
  5
10
330
3
100
AcDbSymbolTableRecord
100
AcDbTextStyleTableRecord
  2
STANDARD
 70
     0
 40
0.0
 41
1.0
 50
0.0
 71
     0
 42
3.0
  3
romans.shx
  4
BIGFONT.SHX
  0
STYLE
  5
339
330
3
100
AcDbSymbolTableRecord
100
AcDbTextStyleTableRecord
  2
YOKO
 70
     0
 40
0.0
 41
1.0
 50
0.0
 71
     0
 42
3.0
  3
romans.shx
  4
extfont.shx
  0
ENDTAB
  0
TABLE
  2
VIEW
  5
6
330
0
100
AcDbSymbolTable
 70
     1
  0
VIEW
  5
1501
330
6
100
AcDbSymbolTableRecord
100
AcDbViewTableRecord
  2
OLE1
 70
     0
 40
176.7901474
 10
97.00331972
 20
8.9968879
 41
257.39912653
 11
0.0
 21
0.0
 31
1.0
 12
0.0
 22
0.0
 32
0.0
 42
50.0
 43
0.0
 44
0.0
 50
0.0
 71
     0
  0
ENDTAB
  0
TABLE
  2
UCS
  5
7
330
0
100
AcDbSymbolTable
 70
     0
  0
ENDTAB
  0
TABLE
  2
APPID
  5
9
330
0
100
AcDbSymbolTable
 70
    11
  0
APPID
  5
11
330
9
100
AcDbSymbolTableRecord
100
AcDbRegAppTableRecord
  2
ACAD
 70
     0
  0
APPID
  5
1B1
330
9
100
AcDbSymbolTableRecord
100
AcDbRegAppTableRecord
  2
GLOBAL
 70
     0
  0
APPID
  5
2A4
330
9
100
AcDbSymbolTableRecord
100
AcDbRegAppTableRecord
  2
DETAIL
 70
     0
  0
APPID
  5
5FD
330
9
100
AcDbSymbolTableRecord
100
AcDbRegAppTableRecord
  2
GRPNAME
 70
     0
  0
APPID
  5
5FE
330
9
100
AcDbSymbolTableRecord
100
AcDbRegAppTableRecord
  2
GPARA
 70
     0
  0
APPID
  5
6C4
330
9
100
AcDbSymbolTableRecord
100
AcDbRegAppTableRecord
  2
DCO15
 70
     0
  0
APPID
  5
6C5
330
9
100
AcDbSymbolTableRecord
100
AcDbRegAppTableRecord
  2
ITEMNAME
 70
     0
  0
APPID
  5
6C6
330
9
100
AcDbSymbolTableRecord
100
AcDbRegAppTableRecord
  2
GRADE_0
 70
     0
  0
APPID
  5
867
330
9
100
AcDbSymbolTableRecord
100
AcDbRegAppTableRecord
  2
ASK_MEN_XD
 70
     0
  0
APPID
  5
868
330
9
100
AcDbSymbolTableRecord
100
AcDbRegAppTableRecord
  2
ASKLEADERCHILD
 70
     0
  0
APPID
  5
D35
330
9
100
AcDbSymbolTableRecord
100
AcDbRegAppTableRecord
  2
CONTENTBLOCKICON
 70
     0
  0
ENDTAB
  0
TABLE
  2
DIMSTYLE
  5
A
330
0
100
AcDbSymbolTable
 70
     3
  0
DIMSTYLE
105
725
102
{ACAD_REACTORS
330
8EC
102
}
330
A
100
AcDbSymbolTableRecord
100
AcDbDimStyleTableRecord
  2
BIGT
 70
     0
  3

  4

  5

  6
OPEN
  7
OPEN
 40
1.0
 41
2.23
 42
0.5
 43
2.5
 44
1.0
 45
0.0
 46
0.0
 47
0.0
 48
0.0
140
2.8
141
0.0
142
0.0
143
25.4
144
1.0
145
0.0
146
1.0
147
1.0
 71
     0
 72
     0
 73
     0
 74
     0
 75
     0
 76
     0
 77
     3
 78
     8
170
     0
171
     2
172
     1
173
     1
174
     1
175
     0
176
   256
177
   256
178
    40
270
     2
271
     3
272
     3
273
     2
274
     2
340
10
275
     0
280
     0
281
     0
282
     0
283
     1
284
     8
285
     0
286
     0
287
     3
288
     0
  0
DIMSTYLE
105
865
102
{ACAD_REACTORS
330
8E7
330
8ED
330
8EB
330
8EE
330
D52
102
}
330
A
100
AcDbSymbolTableRecord
100
AcDbDimStyleTableRecord
  2
BIGT$0
 70
     0
  3

  4
"
  5
OPEN
  6

  7

 40
1.0
 41
2.23
 42
0.5
 43
7.0
 44
1.0
 45
0.0
 46
0.0
 47
0.1
 48
0.1
140
3.0
141
0.0
142
0.0
143
0.0393701
144
1.0
145
0.0
146
0.71
147
1.0
 71
     0
 72
     0
 73
     0
 74
     0
 75
     0
 76
     0
 77
     3
 78
     8
170
     0
171
     2
172
     1
173
     0
174
     0
175
     0
176
     3
177
     3
178
    40
270
     2
271
     3
272
     3
273
     2
274
     2
340
10
275
     0
280
     0
281
     0
282
     0
283
     1
284
     8
285
     0
286
     0
287
     3
288
     0
  0
DIMSTYLE
105
866
330
A
100
AcDbSymbolTableRecord
100
AcDbDimStyleTableRecord
  2
BIGT$7
 70
     0
  3

  4
"
  5
OPEN
  6

  7

 40
1.0
 41
2.5
 42
0.5
 43
7.0
 44
1.0
 45
0.0
 46
0.0
 47
0.1
 48
0.1
140
5.0
141
0.0
142
0.0
143
0.0393701
144
1.0
145
0.0
146
0.71
147
1.5
 71
     0
 72
     0
 73
     0
 74
     0
 75
     0
 76
     0
 77
     3
 78
     8
170
     0
171
     2
172
     1
173
     0
174
     0
175
     0
176
     3
177
     3
178
    40
270
     2
271
     3
272
     3
273
     2
274
     2
340
10
275
     0
280
     0
281
     0
282
     0
283
     1
284
     8
285
     0
286
     0
287
     3
288
     0
  0
ENDTAB
  0
TABLE
  2
BLOCK_RECORD
  5
1
330
0
100
AcDbSymbolTable
 70
    10
  0
BLOCK_RECORD
  5
1A
102
{ACAD_XDICTIONARY
360
D33
102
}
330
1
100
AcDbSymbolTableRecord
100
AcDbBlockTableRecord
  2
*MODEL_SPACE
  0
BLOCK_RECORD
  5
17
102
{ACAD_XDICTIONARY
360
D31
102
}
330
1
100
AcDbSymbolTableRecord
100
AcDbBlockTableRecord
  2
*PAPER_SPACE
  0
BLOCK_RECORD
  5
594
330
1
100
AcDbSymbolTableRecord
100
AcDbBlockTableRecord
  2
_OPEN
  0
BLOCK_RECORD
  5
6E3
330
1
100
AcDbSymbolTableRecord
100
AcDbBlockTableRecord
  2
矢印なし
  0
BLOCK_RECORD
  5
76C
330
1
100
AcDbSymbolTableRecord
100
AcDbBlockTableRecord
  2
1
1001
CONTENTBLOCKICON
1071
        0
1004
2800000020000000200000000100080000000000000400000000000000000000000000000000000000000000000080000080000000808000800000008000800080800000C0C0C000C0DCC000F0CAA6000020400000206000002080000020A0000020C0000020E00000400000004020000040400000406000004080000040A0
1004
000040C0000040E00000600000006020000060400000606000006080000060A0000060C0000060E00000800000008020000080400000806000008080000080A0000080C0000080E00000A0000000A0200000A0400000A0600000A0800000A0A00000A0C00000A0E00000C0000000C0200000C0400000C0600000C0800000C0
1004
A00000C0C00000C0E00000E0000000E0200000E0400000E0600000E0800000E0A00000E0C00000E0E00040000000400020004000400040006000400080004000A0004000C0004000E00040200000402020004020400040206000402080004020A0004020C0004020E000404000004040200040404000404060004040800040
1004
40A0004040C0004040E00040600000406020004060400040606000406080004060A0004060C0004060E00040800000408020004080400040806000408080004080A0004080C0004080E00040A0000040A0200040A0400040A0600040A0800040A0A00040A0C00040A0E00040C0000040C0200040C0400040C0600040C08000
1004
40C0A00040C0C00040C0E00040E0000040E0200040E0400040E0600040E0800040E0A00040E0C00040E0E00080000000800020008000400080006000800080008000A0008000C0008000E00080200000802020008020400080206000802080008020A0008020C0008020E00080400000804020008040400080406000804080
1004
008040A0008040C0008040E00080600000806020008060400080606000806080008060A0008060C0008060E00080800000808020008080400080806000808080008080A0008080C0008080E00080A0000080A0200080A0400080A0600080A0800080A0A00080A0C00080A0E00080C0000080C0200080C0400080C0600080C0
1004
800080C0A00080C0C00080C0E00080E0000080E0200080E0400080E0600080E0800080E0A00080E0C00080E0E000C0000000C0002000C0004000C0006000C0008000C000A000C000C000C000E000C0200000C0202000C0204000C0206000C0208000C020A000C020C000C020E000C0400000C0402000C0404000C0406000C0
1004
408000C040A000C040C000C040E000C0600000C0602000C0604000C0606000C0608000C060A000C060C000C060E000C0800000C0802000C0804000C0806000C0808000C080A000C080C000C080E000C0A00000C0A02000C0A04000C0A06000C0A08000C0A0A000C0A0C000C0A0E000C0C00000C0C02000C0C04000C0C06000
1004
C0C08000C0C0A000F0FBFF00A4A0A000808080000000FF0000FF000000FFFF00FF000000FF00FF00FFFF0000FFFFFF0000000000000000000000000000000000000000000000000000000000000000000000000000000000000000000000000000000000000000000000000000000000000000000000000000000000000000
1004
00000000000000000000000000000000000000000000000000000000000000000000000000000000000000000000000000000000000000000000000000000000000000000000000000000000000000000000000000000000000000000000000000000000000000000000000000000000000000000000000000000000000000
1004
00000000000000000000000000000000000000000000000000000000000000000000000000000000000000000000000000000000000000000000000000000000000000000000000000000000000000000000000000000000000000000000000000000000000000000000000000000000000000000000000000000000000000
1004
0000000000000000000000FB0000000000000000000000000000000000000000000000000000000000FAFAFBFAFAFA0000000000000000000000FEFEFEE7FEFAE7E7E7FE000000FAFAE7E7E7FEFEE7FE0000000000000000FEE7FEE700E7E7E7E7FAE7FE000000E7E7E7E7E70000E7E7FE00000000FEFEFEFEE7E7E7E7E7E7
1004
E7E7E7E7FE0000FEE700E7E7E7E7E7E7E7FE00000000E70000E7E7E7E7E7000000000000FE0000FAE7E700E7E7E7E7E7E7FE000000FBE7FBFBE7E7E7E7E7E7E7E7E7E7E7FE0000FAE7FEFBE7FBFBE7E7E7FEFB000000FEFEFEFEE7E7E7E7E7E7FAFAE7E7E7000000FAE7E7E7E700E7E7E7FA00000000000000FEE7FEE7E700
1004
0000000000FE000000FA00E7E7E7E70000FEFA000000000000000000FEE700000000000000FE000000FAFAE7E7FB00E7E7FA0000000000000000000000E700000000000000FE0000000000FAFEE7E7FEFA00000000000000000000000000E7FEFEFEFEFEFEFE00000000000000FEFE00000000000000000000000000000000
1004
00000000000000000000000000000000000000000000000000000000000000000000000000000000000000000000000000000000000000000000000000000000000000000000000000000000000000000000000000000000000000000000000000000000000000000000000000000000000000000000000000000000000000
1004
00000000000000000000000000000000000000000000000000000000000000000000000000000000000000000000000000000000000000000000000000000000000000000000000000000000000000000000000000000000000000000000000000000000000000000000000000000000000000000000000000000000000000
1004
0000000000000000000000000000000000000000000000000000000000000000000000000000000000000000000000000000000000000000
  0
BLOCK_RECORD
  5
8EF
330
1
100
AcDbSymbolTableRecord
100
AcDbBlockTableRecord
  2
*D3
  0
BLOCK_RECORD
  5
8FB
330
1
100
AcDbSymbolTableRecord
100
AcDbBlockTableRecord
  2
*D4
  0
BLOCK_RECORD
  5
904
330
1
100
AcDbSymbolTableRecord
100
AcDbBlockTableRecord
  2
*D5
  0
BLOCK_RECORD
  5
910
330
1
100
AcDbSymbolTableRecord
100
AcDbBlockTableRecord
  2
*D6
  0
BLOCK_RECORD
  5
91C
330
1
100
AcDbSymbolTableRecord
100
AcDbBlockTableRecord
  2
*D7
  0
BLOCK_RECORD
  5
D53
330
1
100
AcDbSymbolTableRecord
100
AcDbBlockTableRecord
  2
*D8
  0
ENDTAB
  0
ENDSEC
  0
SECTION
  2
BLOCKS
  0
BLOCK
  5
1B
330
1A
100
AcDbEntity
  8
0
100
AcDbBlockBegin
  2
*MODEL_SPACE
 70
     0
 10
0.0
 20
0.0
 30
0.0
  3
*MODEL_SPACE
  1

  0
ENDBLK
  5
1C
330
1A
100
AcDbEntity
  8
0
100
AcDbBlockEnd
  0
BLOCK
  5
18
330
17
100
AcDbEntity
 67
     1
  8
0
100
AcDbBlockBegin
  2
*PAPER_SPACE
 70
     0
 10
0.0
 20
0.0
 30
0.0
  3
*PAPER_SPACE
  1

  0
ENDBLK
  5
19
330
17
100
AcDbEntity
 67
     1
  8
0
100
AcDbBlockEnd
  0
BLOCK
  5
598
330
594
100
AcDbEntity
  8
0
100
AcDbBlockBegin
  2
_OPEN
 70
     0
 10
0.0
 20
0.0
 30
0.0
  3
_OPEN
  1

  0
LINE
  5
595
330
594
100
AcDbEntity
  8
0
  6
BYBLOCK
 62
     0
100
AcDbLine
 10
-1.0
 20
0.16666667
 30
0.0
 11
0.0
 21
0.0
 31
0.0
  0
LINE
  5
596
330
594
100
AcDbEntity
  8
0
  6
BYBLOCK
 62
     0
100
AcDbLine
 10
-1.0
 20
-0.16666667
 30
0.0
 11
0.0
 21
0.0
 31
0.0
  0
LINE
  5
597
330
594
100
AcDbEntity
  8
0
  6
BYBLOCK
 62
     0
100
AcDbLine
 10
0.0
 20
0.0
 30
0.0
 11
-1.0
 21
0.0
 31
0.0
  0
ENDBLK
  5
599
330
594
100
AcDbEntity
  8
0
100
AcDbBlockEnd
  0
BLOCK
  5
6E4
330
6E3
100
AcDbEntity
  8
0
100
AcDbBlockBegin
  2
矢印なし
 70
     0
 10
0.0
 20
0.0
 30
0.0
  3
矢印なし
  1

  0
ENDBLK
  5
6E5
330
6E3
100
AcDbEntity
  8
0
100
AcDbBlockEnd
  0
BLOCK
  5
82A
330
76C
100
AcDbEntity
  8
0
100
AcDbBlockBegin
  2
1
 70
     0
 10
0.0
 20
0.0
 30
0.0
  3
1
  1

  0
LINE
  5
1427
330
76C
100
AcDbEntity
  8
240
100
AcDbLine
 10
212.32050808
 20
5.35898385
 30
0.0
 11
192.66177849
 21
39.4089023
 31
0.0
  0
LINE
  5
1428
330
76C
100
AcDbEntity
  8
241
100
AcDbLine
 10
188.09038106
 20
7.32679492
 30
0.0
 11
205.41088913
 21
17.32679492
 31
0.0
  0
LINE
  5
1429
330
76C
100
AcDbEntity
  8
241
100
AcDbLine
 10
177.99038106
 20
24.82050808
 30
0.0
 11
195.31088913
 21
34.82050808
 31
0.0
  0
LINE
  5
142A
330
76C
100
AcDbEntity
  8
240
100
AcDbLine
 10
160.98076211
 20
-35.0
 30
0.0
 11
200.29822128
 21
-35.0
 31
0.0
  0
LINE
  5
142B
330
76C
100
AcDbEntity
  8
241
100
AcDbLine
 10
174.8
 20
-15.0
 30
0.0
 11
195.0
 21
-15.0
 31
0.0
  0
LINE
  5
142C
330
76C
100
AcDbEntity
  8
245
100
AcDbLine
 10
128.0
 20
0.0
 30
0.0
 11
222.0
 21
0.0
 31
0.0
  0
CIRCLE
  5
142D
330
76C
100
AcDbEntity
  8
242
  6
PHANTOM2
100
AcDbCircle
 10
175.0
 20
0.0
 30
0.0
 40
45.0
  0
ELLIPSE
  5
142E
330
76C
100
AcDbEntity
  8
241
100
AcDbEllipse
 10
192.0
 20
-2.88675135
 30
0.0
 11
7.000000000000125
 21
4.041451884327176
 31
0.0
210
0.0
220
0.0
230
-0.9999999999999998
 40
0.8660254
 41
-1.555832852584389
 42
1.55583285258436
  0
LWPOLYLINE
  5
142F
330
76C
100
AcDbEntity
  8
241
100
AcDbPolyline
 90
       42
 70
     0
 43
0.0
 10
185.9649356
 20
-6.3710974
 10
186.47562155
 20
-7.133838
 10
187.07981363
 20
-7.81780389
 10
187.76335011
 20
-8.40696351
 10
188.51020946
 20
-8.88750745
 10
189.30288593
 20
-9.24817217
 10
190.12279987
 20
-9.48050399
 10
190.95073317
 20
-9.57905725
 10
191.76727979
 20
-9.54152194
 10
192.55330057
 20
-9.36877787
 10
193.29037184
 20
-9.064874
 10
193.96121729
 20
-8.63693358
 10
194.55011285
 20
-8.09498719
 10
195.04325532
 20
-7.45173757
 10
195.42908586
 20
-6.72226196
 10
195.69856092
 20
-5.92365865
 10
195.84536424
 20
-5.07464621
 10
195.86605487
 20
-4.19512479
 10
195.76014785
 20
-3.30570962
 10
195.53012554
 20
-2.42724783
 10
195.18137947
 20
-1.58032984
 10
194.72208395
 20
-0.78480666
 10
194.16300448
 20
-0.05932471
 10
193.51724542
 20
0.57911135
 10
192.7999428
 20
1.11553711
 10
192.02790959
 20
1.5373792
 10
191.21924159
 20
1.83475002
 10
190.3928933
 20
2.00067942
 10
189.56823362
 20
2.03127818
 10
188.76459188
 20
1.92582909
 10
188.00080475
 20
1.68680377
 10
187.29477476
 20
1.31980478
 10
186.66305065
 20
0.83343427
 10
186.12043951
 20
0.23909234
 10
185.67965967
 20
-0.44929012
 10
185.35104264
 20
-1.21557803
 10
185.14229093
 20
-2.04181023
 10
185.0582975
 20
-2.90862055
 10
185.10103108
 20
-3.79569169
 10
185.26949004
 20
-4.68223146
 10
185.55972584
 20
-5.5474601
 10
185.9649356
 20
-6.3710974
  0
ARC
  5
1430
330
76C
100
AcDbEntity
  8
241
100
AcDbCircle
 10
192.0261851
 20
-2.87163337
 30
0.0
 40
6.999804094515173
100
AcDbArc
 50
119.25750453
 51
300.74249547
  0
LWPOLYLINE
  5
1431
330
76C
100
AcDbEntity
  8
241
100
AcDbPolyline
 90
       35
 70
     0
 43
0.0
 10
49.5
 20
14.79820508
 10
48.71906455
 20
14.76202292
 10
47.96472292
 20
14.65470857
 10
47.26266331
 20
14.47991649
 10
46.63679352
 20
14.24359903
 10
46.10842679
 20
13.95380368
 10
45.69555602
 20
13.62039909
 10
45.41224102
 20
13.25473893
 10
45.26812975
 20
12.86927534
 10
45.26812975
 20
12.47713482
 10
45.41224102
 20
12.09167123
 10
45.69555602
 20
11.72601107
 10
46.10842679
 20
11.39260648
 10
46.63679352
 20
11.10281113
 10
47.26266331
 20
10.86649367
 10
47.96472292
 20
10.69170159
 10
48.71906455
 20
10.58438724
 10
49.5
 20
10.54820508
 10
50.28093545
 20
10.58438724
 10
51.03527709
 20
10.69170159
 10
51.7373367
 20
10.86649367
 10
52.36320649
 20
11.10281113
 10
52.89157322
 20
11.39260648
 10
53.30444399
 20
11.72601107
 10
53.58775899
 20
12.09167123
 10
53.73187025
 20
12.47713482
 10
53.73187025
 20
12.86927534
 10
53.58775899
 20
13.25473893
 10
53.30444399
 20
13.62039909
 10
52.89157322
 20
13.95380368
 10
52.36320649
 20
14.24359903
 10
51.7373367
 20
14.47991649
 10
51.03527709
 20
14.65470857
 10
50.28093545
 20
14.76202292
 10
49.5
 20
14.79820508
  0
ELLIPSE
  5
1432
330
76C
100
AcDbEntity
  8
242
100
AcDbEllipse
 10
49.5
 20
12.67320508
 30
0.0
 11
-5.0
 21
0.0000000000000714
 31
0.0
210
0.0
220
0.0
230
1.0
 40
0.5
 41
3.141592653589794
 42
9.424777960769379
  0
CIRCLE
  5
1433
330
76C
100
AcDbEntity
  8
242
100
AcDbCircle
 10
49.5
 20
-25.0
 30
0.0
 40
4.25
  0
CIRCLE
  5
1434
330
76C
100
AcDbEntity
  8
241
100
AcDbCircle
 10
49.5
 20
-25.0
 30
0.0
 40
5.0
  0
LINE
  5
1435
330
76C
100
AcDbEntity
  8
240
100
AcDbLine
 10
24.30939945
 20
-35.00000015
 30
0.0
 11
98.99999839
 21
-35.00000015
 31
0.0
  0
LINE
  5
1436
330
76C
100
AcDbEntity
  8
240
100
AcDbLine
 10
33.54700413
 20
44.99987885
 30
0.0
 11
96.00000252
 21
44.99987885
 31
0.0
  0
LINE
  5
1437
330
76C
100
AcDbEntity
  8
245
  6
CENTER2
100
AcDbLine
 10
-31.0
 20
0.0
 30
0.0
 11
101.0
 21
0.0
 31
0.0
1001
GRPNAME
1000
PASTMD0U
  0
LINE
  5
1438
330
76C
100
AcDbEntity
  8
241
100
AcDbLine
 10
95.99999935
 20
17.67320558
 30
0.0
 11
37.99999915
 21
17.67320558
 31
0.0
  0
LINE
  5
1439
330
76C
100
AcDbEntity
  8
241
100
AcDbLine
 10
37.99999915
 20
7.67320488
 30
0.0
 11
100.0
 21
7.67320488
 31
0.0
  0
LINE
  5
143A
330
76C
100
AcDbEntity
  8
241
100
AcDbLine
 10
33.54700413
 20
-10.22704318
 30
0.0
 11
100.0
 21
-10.22704318
 31
0.0
  0
LINE
  5
143B
330
76C
100
AcDbEntity
  8
241
100
AcDbLine
 10
37.99999915
 20
0.17949192
 30
0.0
 11
100.0
 21
0.17949192
 31
0.0
  0
LINE
  5
143C
330
76C
100
AcDbEntity
  8
241
  6
HIDDEN2
100
AcDbLine
 10
30.0
 20
-15.00000015
 30
0.0
 11
100.0
 21
-15.00000015
 31
0.0
  0
LINE
  5
143D
330
76C
100
AcDbEntity
  8
245
100
AcDbLine
 10
43.5
 20
-25.0
 30
0.0
 11
95.5
 21
-25.0
 31
0.0
  0
LINE
  5
143E
330
76C
100
AcDbEntity
  8
241
100
AcDbLine
 10
21.99999839
 20
0.0
 30
0.0
 11
21.99999839
 21
24.99
 31
0.0
  0
SPLINE
  5
143F
330
76C
100
AcDbEntity
  8
241
  6
CONTINUOUS
100
AcDbSpline
210
0.0
220
0.0
230
1.0
 70
     8
 71
     3
 72
     9
 73
     5
 74
     3
 42
0.0000000001
 43
0.0000000001
 44
0.0000000001
 40
0.0
 40
0.0
 40
0.0
 40
0.0
 40
8.637419212856793
 40
17.27483842571346
 40
17.27483842571346
 40
17.27483842571346
 40
17.27483842571346
 10
7.950000000000045
 20
7.174818896234285
 30
0.0
 10
6.906572875253829
 20
9.968662326190848
 30
0.0
 10
4.81971862576141
 20
15.55634918610393
 30
0.0
 10
6.906572875253799
 20
21.14403604601701
 30
0.0
 10
7.949999999999988
 20
23.93787947597354
 30
0.0
 11
7.950000000000045
 21
7.174818896234285
 31
0.0
 11
5.863145750507612
 21
15.55634918610397
 31
0.0
 11
7.949999999999988
 21
23.93787947597354
 31
0.0
  0
LINE
  5
1440
330
76C
100
AcDbEntity
  8
241
  6
CONTINUOUS
100
AcDbLine
 10
7.95
 20
7.1748189
 30
0.0
 11
7.95
 21
23.93787948
 31
0.0
  0
SPLINE
  5
1441
330
76C
100
AcDbEntity
  8
241
  6
CONTINUOUS
100
AcDbSpline
210
0.0
220
0.0
230
1.0
 70
     8
 71
     3
 72
     9
 73
     5
 74
     3
 42
0.0000000001
 43
0.0000000001
 44
0.0000000001
 40
0.0
 40
0.0
 40
0.0
 40
0.0
 40
8.630480605859949
 40
17.26096121171992
 40
17.26096121171992
 40
17.26096121171992
 40
17.26096121171992
 10
12.05000000000001
 20
23.9378794759736
 30
0.0
 10
13.07897345545484
 20
21.14403604601706
 30
0.0
 10
15.13692036636451
 20
15.55634918610397
 30
0.0
 10
13.07897345545484
 20
9.968662326190868
 30
0.0
 10
12.05000000000001
 20
7.174818896234313
 30
0.0
 11
12.05000000000001
 21
23.9378794759736
 31
0.0
 11
14.10794691090967
 21
15.55634918610397
 31
0.0
 11
12.05000000000001
 21
7.174818896234313
 31
0.0
  0
LINE
  5
1442
330
76C
100
AcDbEntity
  8
241
  6
CONTINUOUS
100
AcDbLine
 10
12.05
 20
7.1748189
 30
0.0
 11
12.05
 21
23.93787948
 31
0.0
  0
LINE
  5
1443
330
76C
100
AcDbEntity
  8
241
100
AcDbLine
 10
0.0
 20
16.40000332
 30
0.0
 11
0.0
 21
0.0
 31
0.0
  0
LINE
  5
1444
330
76C
100
AcDbEntity
  8
241
100
AcDbLine
 10
-2.19993752
 20
16.40000332
 30
0.0
 11
-2.19993752
 21
0.0
 31
0.0
  0
LINE
  5
1445
330
76C
100
AcDbEntity
  8
240
100
AcDbLine
 10
-30.0
 20
0.0
 30
0.0
 11
-30.0
 21
14.87641848
 31
0.0
  0
LINE
  5
1446
330
76C
100
AcDbEntity
  8
241
100
AcDbLine
 10
-28.5
 20
15.74244388
 30
0.0
 11
-28.5
 21
0.0
 31
0.0
  0
LWPOLYLINE
  5
1447
330
76C
100
AcDbEntity
  8
241
100
AcDbPolyline
 90
       10
 70
     0
 43
0.0
 10
28.35085141
 20
-2.60596932
 10
26.7731309
 20
2.08224962
 10
25.5221074
 20
6.84243208
 10
24.90147218
 20
10.11920441
 10
24.49307349
 20
13.42322864
 10
24.31576318
 20
16.73923992
 10
24.37668774
 20
19.96642351
 10
24.66171226
 20
23.18471856
 10
25.16768771
 20
26.42648853
 10
25.87015196
 20
29.64101546
  0
LINE
  5
1448
330
76C
100
AcDbEntity
  8
241
100
AcDbLine
 10
29.99999877
 20
17.67320558
 30
0.0
 11
29.99999877
 21
0.17949192
 31
0.0
  0
LWPOLYLINE
  5
1449
330
76C
100
AcDbEntity
  8
241
100
AcDbPolyline
 90
       17
 70
     0
 43
0.0
 10
37.99999915
 20
7.67320488
 10
37.92313896
 20
8.34901817
 10
37.69551628
 20
8.99885967
 10
37.32587714
 20
9.5977569
 10
36.82842516
 20
10.12269501
 10
36.22227945
 20
10.55350062
 10
35.53073239
 20
10.8736176
 10
34.78035927
 20
11.07074507
 10
33.9999985
 20
11.13730669
 10
33.21963679
 20
11.07074507
 10
32.46926461
 20
10.8736176
 10
31.77771755
 20
10.55350062
 10
31.17157091
 20
10.12269501
 10
30.67411986
 20
9.5977569
 10
30.30448072
 20
8.99885967
 10
30.0768571
 20
8.34901817
 10
29.99999877
 20
7.67320488
  0
LINE
  5
144A
330
76C
100
AcDbEntity
  8
241
100
AcDbLine
 10
37.99999915
 20
7.67320488
 30
0.0
 11
37.99999915
 21
17.67320558
 31
0.0
  0
LINE
  5
144B
330
76C
100
AcDbEntity
  8
240
100
AcDbLine
 10
-2.19993752
 20
-16.40000332
 30
0.0
 11
-28.5
 21
-15.74244388
 31
0.0
  0
LINE
  5
144C
330
76C
100
AcDbEntity
  8
241
100
AcDbLine
 10
-28.5
 20
-15.74244388
 30
0.0
 11
-28.5
 21
0.0
 31
0.0
  0
LINE
  5
144D
330
76C
100
AcDbEntity
  8
240
100
AcDbLine
 10
-30.0
 20
-14.87641848
 30
0.0
 11
-30.0
 21
0.0
 31
0.0
  0
LINE
  5
144E
330
76C
100
AcDbEntity
  8
240
100
AcDbLine
 10
-28.5
 20
-15.74244388
 30
0.0
 11
-30.0
 21
-14.87641848
 31
0.0
  0
LINE
  5
144F
330
76C
100
AcDbEntity
  8
241
  6
HIDDEN2
100
AcDbLine
 10
-28.5
 20
3.1365
 30
0.0
 11
-24.7
 21
3.1365
 31
0.0
  0
LINE
  5
1450
330
76C
100
AcDbEntity
  8
241
  6
HIDDEN2
100
AcDbLine
 10
-28.5
 20
-3.1365
 30
0.0
 11
-24.7
 21
-3.1365
 31
0.0
  0
LINE
  5
1451
330
76C
100
AcDbEntity
  8
241
  6
HIDDEN2
100
AcDbLine
 10
-30.0
 20
2.2704746
 30
0.0
 11
-28.5
 21
3.1365
 31
0.0
  0
LINE
  5
1452
330
76C
100
AcDbEntity
  8
241
  6
HIDDEN2
100
AcDbLine
 10
-30.0
 20
-2.2704746
 30
0.0
 11
-28.5
 21
-3.1365
 31
0.0
  0
SPLINE
  5
1453
330
76C
100
AcDbEntity
  8
241
  6
HIDDEN2
100
AcDbSpline
210
0.0
220
0.0
230
1.0
 70
     8
 71
     3
 72
     9
 73
     5
 74
     3
 42
0.0000000001
 43
0.0000000001
 44
0.0000000001
 40
0.0
 40
0.0
 40
0.0
 40
0.0
 40
3.659130882107572
 40
7.318261764215169
 40
7.318261764215169
 40
7.318261764215169
 40
7.318261764215169
 10
-24.69999999999998
 20
3.136499999999983
 30
0.0
 10
-23.75771467134504
 20
2.090999999999989
 30
0.0
 10
-21.87314401403515
 20
-0.000000000000005
 30
0.0
 10
-23.75771467134504
 20
-2.091000000000007
 30
0.0
 10
-24.69999999999998
 20
-3.136500000000012
 30
0.0
 11
-24.69999999999998
 21
3.136499999999983
 31
0.0
 11
-22.81542934269009
 21
0.0
 31
0.0
 11
-24.69999999999998
 21
-3.136500000000012
 31
0.0
  0
LINE
  5
1454
330
76C
100
AcDbEntity
  8
241
  6
HIDDEN2
100
AcDbLine
 10
-24.7
 20
-3.1365
 30
0.0
 11
-24.7
 21
3.1365
 31
0.0
  0
LINE
  5
1455
330
76C
100
AcDbEntity
  8
240
  6
CONTINUOUS
100
AcDbLine
 10
0.0
 20
-24.99
 30
0.0
 11
21.99999839
 21
-24.99
 31
0.0
  0
LINE
  5
1456
330
76C
100
AcDbEntity
  8
240
  6
CONTINUOUS
100
AcDbLine
 10
0.0
 20
-24.99
 30
0.0
 11
0.0
 21
-16.40000332
 31
0.0
  0
SPLINE
  5
1457
330
76C
100
AcDbEntity
  8
241
  6
CONTINUOUS
100
AcDbSpline
210
0.0
220
0.0
230
1.0
 70
     8
 71
     3
 72
     9
 73
     5
 74
     3
 42
0.0000000001
 43
0.0000000001
 44
0.0000000001
 40
0.0
 40
0.0
 40
0.0
 40
0.0
 40
8.637419212856793
 40
17.27483842571346
 40
17.27483842571346
 40
17.27483842571346
 40
17.27483842571346
 10
7.950000000000045
 20
-7.174818896234285
 30
0.0
 10
6.906572875253829
 20
-9.968662326190848
 30
0.0
 10
4.81971862576141
 20
-15.55634918610393
 30
0.0
 10
6.906572875253799
 20
-21.14403604601701
 30
0.0
 10
7.949999999999988
 20
-23.93787947597354
 30
0.0
 11
7.950000000000045
 21
-7.174818896234285
 31
0.0
 11
5.863145750507612
 21
-15.55634918610397
 31
0.0
 11
7.949999999999988
 21
-23.93787947597354
 31
0.0
  0
LINE
  5
1458
330
76C
100
AcDbEntity
  8
241
  6
CONTINUOUS
100
AcDbLine
 10
7.95
 20
-7.1748189
 30
0.0
 11
7.95
 21
-23.93787948
 31
0.0
  0
SPLINE
  5
1459
330
76C
100
AcDbEntity
  8
241
  6
CONTINUOUS
100
AcDbSpline
210
0.0
220
0.0
230
1.0
 70
     8
 71
     3
 72
     9
 73
     5
 74
     3
 42
0.0000000001
 43
0.0000000001
 44
0.0000000001
 40
0.0
 40
0.0
 40
0.0
 40
0.0
 40
8.630480605859949
 40
17.26096121171992
 40
17.26096121171992
 40
17.26096121171992
 40
17.26096121171992
 10
12.05000000000001
 20
-23.9378794759736
 30
0.0
 10
13.07897345545484
 20
-21.14403604601706
 30
0.0
 10
15.13692036636451
 20
-15.55634918610397
 30
0.0
 10
13.07897345545484
 20
-9.968662326190868
 30
0.0
 10
12.05000000000001
 20
-7.174818896234313
 30
0.0
 11
12.05000000000001
 21
-23.9378794759736
 31
0.0
 11
14.10794691090967
 21
-15.55634918610397
 31
0.0
 11
12.05000000000001
 21
-7.174818896234313
 31
0.0
  0
LINE
  5
145A
330
76C
100
AcDbEntity
  8
241
  6
CONTINUOUS
100
AcDbLine
 10
12.05
 20
-7.1748189
 30
0.0
 11
12.05
 21
-23.93787948
 31
0.0
  0
LINE
  5
145B
330
76C
100
AcDbEntity
  8
241
  6
CONTINUOUS
100
AcDbLine
 10
7.95
 20
-23.93787948
 30
0.0
 11
12.05
 21
-23.93787948
 31
0.0
  0
LINE
  5
145C
330
76C
100
AcDbEntity
  8
241
100
AcDbLine
 10
-2.19993752
 20
-16.40000332
 30
0.0
 11
-2.19993752
 21
0.0
 31
0.0
  0
LINE
  5
145D
330
76C
100
AcDbEntity
  8
241
100
AcDbLine
 10
0.0
 20
-16.40000332
 30
0.0
 11
0.0
 21
0.0
 31
0.0
  0
LINE
  5
145E
330
76C
100
AcDbEntity
  8
240
100
AcDbLine
 10
-2.19993752
 20
-16.40000332
 30
0.0
 11
0.0
 21
-16.40000332
 31
0.0
  0
LINE
  5
145F
330
76C
100
AcDbEntity
  8
241
  6
CONTINUOUS
100
AcDbLine
 10
7.95
 20
-7.1748189
 30
0.0
 11
12.05
 21
-7.1748189
 31
0.0
  0
LINE
  5
1460
330
76C
100
AcDbEntity
  8
241
  6
CONTINUOUS
100
AcDbLine
 10
7.95
 20
7.1748189
 30
0.0
 11
12.05
 21
7.1748189
 31
0.0
  0
LINE
  5
1461
330
76C
100
AcDbEntity
  8
241
100
AcDbLine
 10
21.99999839
 20
0.0
 30
0.0
 11
21.99999839
 21
-24.99
 31
0.0
  0
LINE
  5
1462
330
76C
100
AcDbEntity
  8
241
  6
HIDDEN2
100
AcDbLine
 10
30.0
 20
-15.00000015
 30
0.0
 11
30.0
 21
-35.00000015
 31
0.0
  0
ARC
  5
1463
330
76C
100
AcDbEntity
  8
240
100
AcDbCircle
 10
31.99999839
 20
-28.32050808
 30
0.0
 40
10.0
100
AcDbArc
 50
180.0
 51
210.0
  0
LINE
  5
1464
330
76C
100
AcDbEntity
  8
240
100
AcDbLine
 10
23.33974434
 20
-33.3205089
 30
0.0
 11
24.30939945
 21
-35.00000015
 31
0.0
  0
LINE
  5
1465
330
76C
100
AcDbEntity
  8
240
100
AcDbLine
 10
21.99999839
 20
-28.32050808
 30
0.0
 11
21.99999839
 21
-24.99
 31
0.0
  0
LINE
  5
1466
330
76C
100
AcDbEntity
  8
245
100
AcDbLine
 10
49.5
 20
-19.0
 30
0.0
 11
49.5
 21
-31.0
 31
0.0
  0
LINE
  5
1467
330
76C
100
AcDbEntity
  8
241
100
AcDbLine
 10
47.0
 20
-23.55662433
 30
0.0
 11
47.0
 21
-26.44337567
 31
0.0
  0
LINE
  5
1468
330
76C
100
AcDbEntity
  8
241
100
AcDbLine
 10
52.0
 20
-26.44337567
 30
0.0
 11
52.0
 21
-23.55662433
 31
0.0
  0
LINE
  5
1469
330
76C
100
AcDbEntity
  8
241
100
AcDbLine
 10
47.0
 20
-26.44337567
 30
0.0
 11
49.5
 21
-27.88675135
 31
0.0
  0
LINE
  5
146A
330
76C
100
AcDbEntity
  8
241
100
AcDbLine
 10
49.5
 20
-27.88675135
 30
0.0
 11
52.0
 21
-26.44337567
 31
0.0
  0
LINE
  5
146B
330
76C
100
AcDbEntity
  8
241
100
AcDbLine
 10
49.5
 20
-22.11324865
 30
0.0
 11
47.0
 21
-23.55662433
 31
0.0
  0
LINE
  5
146C
330
76C
100
AcDbEntity
  8
241
100
AcDbLine
 10
52.0
 20
-23.55662433
 30
0.0
 11
49.5
 21
-22.11324865
 31
0.0
  0
LWPOLYLINE
  5
146D
330
76C
100
AcDbEntity
  8
241
100
AcDbPolyline
 90
       17
 70
     0
 43
0.0
 10
29.99999877
 20
0.17949192
 10
30.0768571
 20
-0.49632078
 10
30.30448072
 20
-1.14616239
 10
30.67411986
 20
-1.74505985
 10
31.17157091
 20
-2.26999773
 10
31.77771755
 20
-2.70080334
 10
32.46926461
 20
-3.02092056
 10
33.21963679
 20
-3.21804802
 10
33.9999985
 20
-3.28460964
 10
34.78035927
 20
-3.21804802
 10
35.53073239
 20
-3.02092056
 10
36.22227945
 20
-2.70080334
 10
36.82842516
 20
-2.26999773
 10
37.32587714
 20
-1.74505985
 10
37.69551628
 20
-1.14616239
 10
37.92313896
 20
-0.49632078
 10
37.99999915
 20
0.17949192
  0
ARC
  5
146E
330
76C
100
AcDbEntity
  8
241
100
AcDbCircle
 10
99.34436549
 20
42.94265005
 30
0.0
 40
84.59497053731402
100
AcDbArc
 50
214.04378126
 51
218.94106933
  0
LWPOLYLINE
  5
146F
330
76C
100
AcDbEntity
  8
241
100
AcDbPolyline
 90
        3
 70
     0
 43
0.0
 10
29.2481239
 20
-4.40890249
 10
28.74778016
 20
-3.53297708
 10
28.35085141
 20
-2.60596932
  0
LINE
  5
1470
330
76C
100
AcDbEntity
  8
240
100
AcDbLine
 10
-2.19993752
 20
16.40000332
 30
0.0
 11
-28.5
 21
15.74244388
 31
0.0
  0
LINE
  5
1471
330
76C
100
AcDbEntity
  8
240
100
AcDbLine
 10
-28.5
 20
15.74244388
 30
0.0
 11
-30.0
 21
14.87641848
 31
0.0
  0
LINE
  5
1472
330
76C
100
AcDbEntity
  8
240
  6
CONTINUOUS
100
AcDbLine
 10
0.0
 20
24.99
 30
0.0
 11
21.99999839
 21
24.99
 31
0.0
  0
LINE
  5
1473
330
76C
100
AcDbEntity
  8
240
  6
CONTINUOUS
100
AcDbLine
 10
0.0
 20
24.99
 30
0.0
 11
0.0
 21
16.40000332
 31
0.0
  0
LINE
  5
1474
330
76C
100
AcDbEntity
  8
240
100
AcDbLine
 10
-2.19993752
 20
16.40000332
 30
0.0
 11
0.0
 21
16.40000332
 31
0.0
  0
LINE
  5
1475
330
76C
100
AcDbEntity
  8
241
  6
CONTINUOUS
100
AcDbLine
 10
7.95
 20
23.93787948
 30
0.0
 11
12.05
 21
23.93787948
 31
0.0
  0
LINE
  5
1476
330
76C
100
AcDbEntity
  8
240
100
AcDbLine
 10
28.35085141
 20
41.99999943
 30
0.0
 11
23.33974434
 21
33.3205089
 31
0.0
  0
LWPOLYLINE
  5
1477
330
76C
100
AcDbEntity
  8
241
100
AcDbPolyline
 90
        3
 70
     0
 43
0.0
 10
27.35107569
 20
36.96152568
 10
27.73989775
 20
39.00652751
 10
28.35085141
 20
41.0441421
  0
LWPOLYLINE
  5
1478
330
76C
100
AcDbEntity
  8
241
100
AcDbPolyline
 90
       17
 70
     0
 43
0.0
 10
37.99999915
 20
17.67320558
 10
37.92313896
 20
18.34901795
 10
37.69551628
 20
18.99885945
 10
37.32587714
 20
19.59775761
 10
36.82842516
 20
20.12269571
 10
36.22227945
 20
20.55349946
 10
35.53073239
 20
20.87361738
 10
34.78035927
 20
21.07074484
 10
33.9999985
 20
21.13730647
 10
33.21963679
 20
21.07074484
 10
32.46926461
 20
20.87361738
 10
31.77771755
 20
20.55349946
 10
31.17157091
 20
20.12269571
 10
30.67411986
 20
19.59775761
 10
30.30448072
 20
18.99885945
 10
30.0768571
 20
18.34901795
 10
29.99999877
 20
17.67320558
  0
ARC
  5
1479
330
76C
100
AcDbEntity
  8
241
100
AcDbCircle
 10
-44.76663935
 20
47.7407379
 30
0.0
 40
72.91883322750149
100
AcDbArc
 50
345.62794847
 51
351.49910827
  0
ARC
  5
147A
330
76C
100
AcDbEntity
  8
240
100
AcDbCircle
 10
31.99999839
 20
28.32050808
 30
0.0
 40
10.0
100
AcDbArc
 50
150.0
 51
180.0
  0
LINE
  5
147B
330
76C
100
AcDbEntity
  8
240
100
AcDbLine
 10
21.99999839
 20
24.99
 30
0.0
 11
21.99999839
 21
28.32050808
 31
0.0
  0
ARC
  5
147C
330
76C
100
AcDbEntity
  8
240
100
AcDbCircle
 10
33.54700378
 20
39.0
 30
0.0
 40
6.000000000000021
100
AcDbArc
 50
90.78241141
 51
150.0
  0
ARC
  5
147D
330
76C
100
AcDbEntity
  8
241
100
AcDbCircle
 10
33.56697502
 20
39.77172145
 30
0.0
 40
5.231639947022146
100
AcDbArc
 50
90.21871736
 51
127.39472251
  0
ARC
  5
147E
330
76C
100
AcDbEntity
  8
241
100
AcDbCircle
 10
33.90483553
 20
39.31238871
 30
0.0
 40
5.817706541863931
100
AcDbArc
 50
127.17118636
 51
162.68232268
  0
LINE
  5
147F
330
76C
100
AcDbEntity
  8
241
100
AcDbLine
 10
188.09038106
 20
7.32679492
 30
0.0
 11
177.99038106
 21
24.82050808
 31
0.0
  0
LINE
  5
1480
330
76C
100
AcDbEntity
  8
240
100
AcDbLine
 10
132.04000023
 20
-4.4089023
 30
0.0
 11
151.69872981
 21
29.64101615
 31
0.0
  0
LINE
  5
1481
330
76C
100
AcDbEntity
  8
241
100
AcDbLine
 10
162.10961894
 20
7.67320507
 30
0.0
 11
144.78911087
 21
17.67320508
 31
0.0
  0
LINE
  5
1482
330
76C
100
AcDbEntity
  8
240
100
AcDbLine
 10
100.0
 20
40.99988067
 30
0.0
 11
100.0
 21
0.0
 31
0.0
  0
LINE
  5
1483
330
76C
100
AcDbEntity
  8
245
100
AcDbLine
 10
175.0
 20
-47.0
 30
0.0
 11
175.0
 21
47.0
 31
0.0
  0
ARC
  5
1484
330
76C
100
AcDbEntity
  8
241
100
AcDbCircle
 10
168.9738149
 20
16.18092551
 30
0.0
 40
6.999804094515183
100
AcDbArc
 50
239.25750453
 51
60.74249547
  0
LINE
  5
1485
330
76C
100
AcDbEntity
  8
241
100
AcDbLine
 10
89.5
 20
-22.11324865
 30
0.0
 11
87.0
 21
-23.55662433
 31
0.0
  0
CIRCLE
  5
1486
330
76C
100
AcDbEntity
  8
241
100
AcDbCircle
 10
89.5
 20
-25.0
 30
0.0
 40
5.0
  0
CIRCLE
  5
1487
330
76C
100
AcDbEntity
  8
242
100
AcDbCircle
 10
89.5
 20
-25.0
 30
0.0
 40
4.25
  0
LINE
  5
1488
330
76C
100
AcDbEntity
  8
241
100
AcDbLine
 10
87.0
 20
-26.44337567
 30
0.0
 11
89.5
 21
-27.88675135
 31
0.0
  0
CIRCLE
  5
1489
330
76C
100
AcDbEntity
  8
241
100
AcDbCircle
 10
69.5
 20
-25.0
 30
0.0
 40
5.0
  0
LINE
  5
148A
330
76C
100
AcDbEntity
  8
241
100
AcDbLine
 10
69.5
 20
-27.88675135
 30
0.0
 11
72.0
 21
-26.44337567
 31
0.0
  0
LINE
  5
148B
330
76C
100
AcDbEntity
  8
241
100
AcDbLine
 10
72.0
 20
-23.55662433
 30
0.0
 11
69.5
 21
-22.11324865
 31
0.0
  0
CIRCLE
  5
148C
330
76C
100
AcDbEntity
  8
242
100
AcDbCircle
 10
69.5
 20
-25.0
 30
0.0
 40
4.25
  0
LINE
  5
148D
330
76C
100
AcDbEntity
  8
245
100
AcDbLine
 10
69.5
 20
-19.0
 30
0.0
 11
69.5
 21
-31.0
 31
0.0
  0
LINE
  5
148E
330
76C
100
AcDbEntity
  8
241
100
AcDbLine
 10
67.0
 20
-23.55662433
 30
0.0
 11
67.0
 21
-26.44337567
 31
0.0
  0
LINE
  5
148F
330
76C
100
AcDbEntity
  8
241
100
AcDbLine
 10
67.0
 20
-26.44337567
 30
0.0
 11
69.5
 21
-27.88675135
 31
0.0
  0
LINE
  5
1490
330
76C
100
AcDbEntity
  8
241
100
AcDbLine
 10
69.5
 20
-22.11324865
 30
0.0
 11
67.0
 21
-23.55662433
 31
0.0
  0
LINE
  5
1491
330
76C
100
AcDbEntity
  8
241
100
AcDbLine
 10
72.0
 20
-26.44337567
 30
0.0
 11
72.0
 21
-23.55662433
 31
0.0
  0
LINE
  5
1492
330
76C
100
AcDbEntity
  8
241
100
AcDbLine
 10
87.0
 20
-23.55662433
 30
0.0
 11
87.0
 21
-26.44337567
 31
0.0
  0
LINE
  5
1493
330
76C
100
AcDbEntity
  8
240
100
AcDbLine
 10
100.0
 20
-34.0
 30
0.0
 11
100.0
 21
0.0
 31
0.0
  0
ARC
  5
1494
330
76C
100
AcDbEntity
  8
240
100
AcDbCircle
 10
98.99999839
 20
-34.0
 30
0.0
 40
1.0
100
AcDbArc
 50
270.0
 51
0.0
  0
LINE
  5
1495
330
76C
100
AcDbEntity
  8
245
100
AcDbLine
 10
89.5
 20
-19.0
 30
0.0
 11
89.5
 21
-31.0
 31
0.0
  0
LINE
  5
1496
330
76C
100
AcDbEntity
  8
241
100
AcDbLine
 10
92.0
 20
-26.44337567
 30
0.0
 11
92.0
 21
-23.55662433
 31
0.0
  0
LINE
  5
1497
330
76C
100
AcDbEntity
  8
241
100
AcDbLine
 10
89.5
 20
-27.88675135
 30
0.0
 11
92.0
 21
-26.44337567
 31
0.0
  0
LINE
  5
1498
330
76C
100
AcDbEntity
  8
241
100
AcDbLine
 10
92.0
 20
-23.55662433
 30
0.0
 11
89.5
 21
-22.11324865
 31
0.0
  0
LINE
  5
1499
330
76C
100
AcDbEntity
  8
241
100
AcDbLine
 10
162.10961894
 20
7.67320507
 30
0.0
 11
152.00961894
 21
-9.82050808
 31
0.0
  0
ELLIPSE
  5
149A
330
76C
100
AcDbEntity
  8
241
100
AcDbEllipse
 10
164.0
 20
-13.27905619
 30
0.0
 11
-0.0000000000003784
 21
8.082903768654825
 31
0.0
210
0.0
220
0.0
230
-1.0
 40
0.8660254
 41
1.585759801005479
 42
4.69742550617421
  0
ARC
  5
149B
330
76C
100
AcDbEntity
  8
241
100
AcDbCircle
 10
164.0
 20
-13.30929214
 30
0.0
 40
6.999804094515142
100
AcDbArc
 50
359.25750453
 51
180.74249547
  0
LWPOLYLINE
  5
149C
330
76C
100
AcDbEntity
  8
241
100
AcDbPolyline
 90
       42
 70
     0
 43
0.0
 10
164.0
 20
-6.31036408
 10
163.08410429
 20
-6.37126079
 10
162.18967641
 20
-6.55252353
 10
161.33768097
 20
-6.84990368
 10
160.54808804
 20
-7.25643088
 10
159.839405
 20
-7.76257648
 10
159.22824277
 20
-8.35647687
 10
158.72892649
 20
-9.02421151
 10
158.35315971
 20
-9.75012928
 10
158.10975008
 20
-10.51721528
 10
158.00440291
 20
-11.30748966
 10
158.03958746
 20
-12.10242906
 10
158.21447903
 20
-12.88340078
 10
158.5249783
 20
-13.6320995
 10
158.96380744
 20
-14.33097635
 10
159.52068067
 20
-14.96365025
 10
160.18254535
 20
-15.51529188
 10
160.93388792
 20
-15.9729712
 10
161.75709757
 20
-16.32596061
 10
162.63287895
 20
-16.56598634
 10
163.54070448
 20
-16.68742238
 10
164.45929552
 20
-16.68742238
 10
165.36712105
 20
-16.56598634
 10
166.24290243
 20
-16.32596061
 10
167.06611208
 20
-15.9729712
 10
167.81745465
 20
-15.51529188
 10
168.47931933
 20
-14.96365025
 10
169.03619256
 20
-14.33097635
 10
169.4750217
 20
-13.6320995
 10
169.78552097
 20
-12.88340078
 10
169.96041254
 20
-12.10242906
 10
169.99559709
 20
-11.30748966
 10
169.89024992
 20
-10.51721528
 10
169.64684029
 20
-9.75012928
 10
169.27107351
 20
-9.02421151
 10
168.77175723
 20
-8.35647687
 10
168.160595
 20
-7.76257648
 10
167.45191196
 20
-7.25643088
 10
166.66231903
 20
-6.84990368
 10
165.81032359
 20
-6.55252353
 10
164.91589571
 20
-6.37126079
 10
164.0
 20
-6.31036408
  0
ARC
  5
149D
330
76C
100
AcDbEntity
  8
240
100
AcDbCircle
 10
160.98076211
 20
-15.0
 30
0.0
 40
20.0
100
AcDbArc
 50
240.0
 51
270.0
  0
ARC
  5
149E
330
76C
100
AcDbEntity
  8
241
100
AcDbCircle
 10
160.98076211
 20
-15.0
 30
0.0
 40
16.0
100
AcDbArc
 50
240.0
 51
270.0
  0
ARC
  5
149F
330
76C
100
AcDbEntity
  8
240
100
AcDbCircle
 10
175.0
 20
0.0
 30
0.0
 40
44.99999999999998
100
AcDbArc
 50
193.13625887
 51
208.99728087
  0
ARC
  5
14A0
330
76C
100
AcDbEntity
  8
241
100
AcDbCircle
 10
175.0
 20
0.0
 30
0.0
 40
40.99999999999996
100
AcDbArc
 50
183.97635282
 51
209.86727817
  0
LINE
  5
14A1
330
76C
100
AcDbEntity
  8
240
100
AcDbLine
 10
139.387505
 20
-25.62713796
 30
0.0
 11
150.98076211
 21
-32.32050808
 31
0.0
  0
LINE
  5
14A2
330
76C
100
AcDbEntity
  8
241
100
AcDbLine
 10
152.98076211
 20
-28.85640646
 30
0.0
 11
140.91429206
 21
-21.88982673
 31
0.0
  0
ARC
  5
14A3
330
76C
100
AcDbEntity
  8
240
100
AcDbCircle
 10
144.387505
 20
-16.96688392
 30
0.0
 40
10.0
100
AcDbArc
 50
208.99728087
 51
240.0
  0
ARC
  5
14A4
330
76C
100
AcDbEntity
  8
241
100
AcDbCircle
 10
142.91429206
 20
-18.42572511
 30
0.0
 40
4.000000000000004
100
AcDbArc
 50
209.86727817
 51
240.0
  0
LINE
  5
14A5
330
76C
100
AcDbEntity
  8
241
100
AcDbLine
 10
143.58359214
 20
-23.43094784
 30
0.0
 11
152.98076211
 21
-28.85640646
 31
0.0
  0
LINE
  5
14A6
330
76C
100
AcDbEntity
  8
241
100
AcDbLine
 10
152.00961894
 20
-9.82050808
 30
0.0
 11
135.55513627
 21
-0.32050808
 31
0.0
  0
ARC
  5
14A7
330
76C
100
AcDbEntity
  8
240
100
AcDbCircle
 10
138.96820346
 20
-8.4089023
 30
0.0
 40
8.000000000004373
100
AcDbArc
 50
150.0
 51
193.13625887
  0
LINE
  5
14A8
330
76C
100
AcDbEntity
  8
241
100
AcDbLine
 10
134.09869703
 20
-2.84313483
 30
0.0
 11
135.55513627
 21
-0.32050808
 31
0.0
  0
LINE
  5
14A9
330
76C
100
AcDbEntity
  8
241
100
AcDbLine
 10
135.55513627
 20
-0.32050808
 30
0.0
 11
134.68911087
 21
0.17949192
 31
0.0
  0
LINE
  5
14AA
330
76C
100
AcDbEntity
  8
241
100
AcDbLine
 10
174.8
 20
-15.0
 30
0.0
 11
174.8
 21
-35.0
 31
0.0
  0
LINE
  5
14AB
330
76C
100
AcDbEntity
  8
241
100
AcDbLine
 10
174.8
 20
-31.0
 30
0.0
 11
160.98076211
 21
-31.0
 31
0.0
  0
ELLIPSE
  5
14AC
330
76C
100
AcDbEntity
  8
242
100
AcDbEllipse
 10
89.5
 20
12.67320508
 30
0.0
 11
-5.0
 21
0.0000000000000347
 31
0.0
210
0.0
220
0.0
230
1.0
 40
0.5
 41
3.141592653589786
 42
9.424777960769372
  0
LWPOLYLINE
  5
14AD
330
76C
100
AcDbEntity
  8
241
100
AcDbPolyline
 90
       35
 70
     0
 43
0.0
 10
89.5
 20
14.79820508
 10
88.71906455
 20
14.76202292
 10
87.96472292
 20
14.65470857
 10
87.26266331
 20
14.47991649
 10
86.63679352
 20
14.24359903
 10
86.10842679
 20
13.95380368
 10
85.69555602
 20
13.62039909
 10
85.41224102
 20
13.25473893
 10
85.26812975
 20
12.86927534
 10
85.26812975
 20
12.47713482
 10
85.41224102
 20
12.09167123
 10
85.69555602
 20
11.72601107
 10
86.10842679
 20
11.39260648
 10
86.63679352
 20
11.10281113
 10
87.26266331
 20
10.86649367
 10
87.96472292
 20
10.69170159
 10
88.71906455
 20
10.58438724
 10
89.5
 20
10.54820508
 10
90.28093545
 20
10.58438724
 10
91.03527709
 20
10.69170159
 10
91.7373367
 20
10.86649367
 10
92.36320649
 20
11.10281113
 10
92.89157322
 20
11.39260648
 10
93.30444399
 20
11.72601107
 10
93.58775899
 20
12.09167123
 10
93.73187025
 20
12.47713482
 10
93.73187025
 20
12.86927534
 10
93.58775899
 20
13.25473893
 10
93.30444399
 20
13.62039909
 10
92.89157322
 20
13.95380368
 10
92.36320649
 20
14.24359903
 10
91.7373367
 20
14.47991649
 10
91.03527709
 20
14.65470857
 10
90.28093545
 20
14.76202292
 10
89.5
 20
14.79820508
  0
LWPOLYLINE
  5
14AE
330
76C
100
AcDbEntity
  8
241
100
AcDbPolyline
 90
       35
 70
     0
 43
0.0
 10
69.5
 20
14.79820508
 10
68.71906455
 20
14.76202292
 10
67.96472292
 20
14.65470857
 10
67.26266331
 20
14.47991649
 10
66.63679352
 20
14.24359903
 10
66.10842679
 20
13.95380368
 10
65.69555602
 20
13.62039909
 10
65.41224102
 20
13.25473893
 10
65.26812975
 20
12.86927534
 10
65.26812975
 20
12.47713482
 10
65.41224102
 20
12.09167123
 10
65.69555602
 20
11.72601107
 10
66.10842679
 20
11.39260648
 10
66.63679352
 20
11.10281113
 10
67.26266331
 20
10.86649367
 10
67.96472292
 20
10.69170159
 10
68.71906455
 20
10.58438724
 10
69.5
 20
10.54820508
 10
70.28093545
 20
10.58438724
 10
71.03527709
 20
10.69170159
 10
71.7373367
 20
10.86649367
 10
72.36320649
 20
11.10281113
 10
72.89157322
 20
11.39260648
 10
73.30444399
 20
11.72601107
 10
73.58775899
 20
12.09167123
 10
73.73187025
 20
12.47713482
 10
73.73187025
 20
12.86927534
 10
73.58775899
 20
13.25473893
 10
73.30444399
 20
13.62039909
 10
72.89157322
 20
13.95380368
 10
72.36320649
 20
14.24359903
 10
71.7373367
 20
14.47991649
 10
71.03527709
 20
14.65470857
 10
70.28093545
 20
14.76202292
 10
69.5
 20
14.79820508
  0
ELLIPSE
  5
14AF
330
76C
100
AcDbEntity
  8
242
100
AcDbEllipse
 10
69.5
 20
12.67320508
 30
0.0
 11
-5.0
 21
0.0000000000000347
 31
0.0
210
0.0
220
0.0
230
1.0
 40
0.5
 41
3.141592653589788
 42
9.424777960769374
  0
LWPOLYLINE
  5
14B0
330
76C
100
AcDbEntity
  8
241
100
AcDbPolyline
 90
        9
 70
     0
 43
0.0
 10
100.0
 20
15.67320526
 10
99.92313981
 20
16.06338657
 10
99.69551713
 20
16.43857174
 10
99.32587892
 20
16.78434573
 10
98.82842601
 20
17.08741859
 10
98.22227657
 20
17.33614504
 10
97.53072858
 20
17.52096415
 10
96.78035826
 20
17.63477549
 10
95.99999935
 20
17.67320558
  0
ARC
  5
14B1
330
76C
100
AcDbEntity
  8
240
100
AcDbCircle
 10
96.00000252
 20
40.99988067
 30
0.0
 40
3.999998181073271
100
AcDbArc
 50
359.9999824
 51
90.0000454
  0
LINE
  5
14B2
330
76C
100
AcDbEntity
  8
240
100
AcDbLine
 10
170.612495
 20
43.65489434
 30
0.0
 11
159.01923789
 21
36.96152423
 31
0.0
  0
ARC
  5
14B3
330
76C
100
AcDbEntity
  8
241
100
AcDbCircle
 10
169.01923789
 20
19.64101615
 30
0.0
 40
16.0
100
AcDbArc
 50
120.0
 51
150.0
  0
ARC
  5
14B4
330
76C
100
AcDbEntity
  8
240
100
AcDbCircle
 10
169.01923789
 20
19.64101615
 30
0.0
 40
20.0
100
AcDbArc
 50
120.0
 51
150.0
  0
LINE
  5
14B5
330
76C
100
AcDbEntity
  8
241
100
AcDbLine
 10
148.25321248
 20
15.67320508
 30
0.0
 11
155.16283143
 21
27.64101615
 31
0.0
  0
LINE
  5
14B6
330
76C
100
AcDbEntity
  8
241
100
AcDbLine
 10
161.01923789
 20
33.49742261
 30
0.0
 11
173.08570794
 21
40.46400235
 31
0.0
  0
ARC
  5
14B7
330
76C
100
AcDbEntity
  8
241
100
AcDbCircle
 10
175.0
 20
0.0
 30
0.0
 40
41.00000000000004
100
AcDbArc
 50
63.97635282
 51
89.86727817
  0
ELLIPSE
  5
14B8
330
76C
100
AcDbEntity
  8
241
100
AcDbEllipse
 10
169.0
 20
16.16580754
 30
0.0
 11
-6.999999999999752
 21
4.041451884327758
 31
0.0
210
0.0
220
0.0
230
-1.0
 40
0.8660254
 41
-1.555832852584404
 42
1.555832852584343
  0
LWPOLYLINE
  5
14B9
330
76C
100
AcDbEntity
  8
241
100
AcDbPolyline
 90
       42
 70
     0
 43
0.0
 10
175.0350644
 20
12.68146148
 10
175.44027416
 20
13.50509878
 10
175.73050996
 20
14.37032743
 10
175.89896892
 20
15.25686719
 10
175.9417025
 20
16.14393833
 10
175.85770907
 20
17.01074865
 10
175.64895736
 20
17.83698086
 10
175.32034033
 20
18.60326876
 10
174.87956049
 20
19.29165122
 10
174.33694935
 20
19.88599315
 10
173.70522524
 20
20.37236366
 10
172.99919525
 20
20.73936265
 10
172.23540812
 20
20.97838797
 10
171.43176638
 20
21.08383707
 10
170.6071067
 20
21.05323831
 10
169.78075841
 20
20.8873089
 10
168.97209041
 20
20.58993809
 10
168.2000572
 20
20.16809599
 10
167.48275458
 20
19.63167023
 10
166.83699552
 20
18.99323417
 10
166.27791605
 20
18.26775222
 10
165.81862053
 20
17.47222905
 10
165.46987446
 20
16.62531105
 10
165.23985215
 20
15.74684927
 10
165.13394513
 20
14.85743409
 10
165.15463576
 20
13.97791267
 10
165.30143908
 20
13.12890024
 10
165.57091414
 20
12.33029692
 10
165.95674468
 20
11.60082131
 10
166.44988715
 20
10.9575717
 10
167.03878271
 20
10.4156253
 10
167.70962816
 20
9.98768489
 10
168.44669943
 20
9.68378102
 10
169.23272021
 20
9.51103694
 10
170.04926683
 20
9.47350164
 10
170.87720013
 20
9.5720549
 10
171.69711407
 20
9.80438671
 10
172.48979054
 20
10.16505143
 10
173.23664989
 20
10.64559537
 10
173.92018637
 20
11.23475499
 10
174.52437845
 20
11.91872089
 10
175.0350644
 20
12.68146148
  0
LINE
  5
14BA
330
76C
100
AcDbEntity
  8
241
100
AcDbLine
 10
192.98842449
 20
36.84313483
 30
0.0
 11
194.44486373
 21
34.32050808
 31
0.0
  0
ARC
  5
14BB
330
76C
100
AcDbEntity
  8
240
100
AcDbCircle
 10
175.0
 20
0.0
 30
0.0
 40
44.99999999999998
100
AcDbArc
 50
73.13625887
 51
88.99728087
  0
ARC
  5
14BC
330
76C
100
AcDbEntity
  8
240
100
AcDbCircle
 10
175.612495
 20
34.9946403
 30
0.0
 40
10.0
100
AcDbArc
 50
88.99728087
 51
120.0
  0
ARC
  5
14BD
330
76C
100
AcDbEntity
  8
241
100
AcDbCircle
 10
175.08570794
 20
36.99990073
 30
0.0
 40
4.00000000000003
100
AcDbArc
 50
89.86727817
 51
120.0
  0
ARC
  5
14BE
330
76C
100
AcDbEntity
  8
240
100
AcDbCircle
 10
185.73357526
 20
35.4089023
 30
0.0
 40
8.0
100
AcDbArc
 50
30.0
 51
73.13625887
  0
LINE
  5
14BF
330
76C
100
AcDbEntity
  8
241
100
AcDbLine
 10
201.94678752
 20
15.32679492
 30
0.0
 11
208.85640646
 21
3.35898385
 31
0.0
  0
ARC
  5
14C0
330
76C
100
AcDbEntity
  8
240
100
AcDbCircle
 10
205.0
 20
-18.02775638
 30
0.0
 40
10.0
100
AcDbArc
 50
328.99728087
 51
0.0
  0
LINE
  5
14C1
330
76C
100
AcDbEntity
  8
241
100
AcDbLine
 10
211.0
 20
-4.64101615
 30
0.0
 11
211.0
 21
-18.57417562
 31
0.0
  0
LINE
  5
14C2
330
76C
100
AcDbEntity
  8
241
100
AcDbLine
 10
195.0
 20
-15.0
 30
0.0
 11
195.0
 21
-35.0
 31
0.0
  0
ARC
  5
14C3
330
76C
100
AcDbEntity
  8
240
100
AcDbCircle
 10
175.0
 20
0.0
 30
0.0
 40
44.99999999999998
100
AcDbArc
 50
313.13625887
 51
328.99728087
  0
ARC
  5
14C4
330
76C
100
AcDbEntity
  8
241
100
AcDbCircle
 10
175.0
 20
0.0
 30
0.0
 40
41.00000000000002
100
AcDbArc
 50
303.97635282
 51
329.86727817
  0
ARC
  5
14C5
330
76C
100
AcDbEntity
  8
240
100
AcDbCircle
 10
200.29822128
 20
-27.0
 30
0.0
 40
8.000000000007981
100
AcDbArc
 50
270.0
 51
313.13625887
  0
LINE
  5
14C6
330
76C
100
AcDbEntity
  8
241
100
AcDbLine
 10
197.91287847
 20
-34.0
 30
0.0
 11
195.0
 21
-34.0
 31
0.0
  0
ARC
  5
14C7
330
76C
100
AcDbEntity
  8
241
100
AcDbCircle
 10
207.0
 20
-18.57417562
 30
0.0
 40
4.000000000000039
100
AcDbArc
 50
329.86727817
 51
0.0
  0
ARC
  5
14C8
330
76C
100
AcDbEntity
  8
241
100
AcDbCircle
 10
195.0
 20
-4.64101615
 30
0.0
 40
16.0
100
AcDbArc
 50
0.0
 51
30.0
  0
LINE
  5
14C9
330
76C
100
AcDbEntity
  8
241
100
AcDbLine
 10
211.0
 20
-15.49193338
 30
0.0
 11
211.0
 21
-4.64101615
 31
0.0
  0
ARC
  5
14CA
330
76C
100
AcDbEntity
  8
240
100
AcDbCircle
 10
195.0
 20
-4.64101615
 30
0.0
 40
20.0
100
AcDbArc
 50
0.0
 51
30.0
  0
LINE
  5
14CB
330
76C
100
AcDbEntity
  8
240
100
AcDbLine
 10
215.0
 20
-18.02775638
 30
0.0
 11
215.0
 21
-4.64101615
 31
0.0
  0
ENDBLK
  5
82B
330
76C
100
AcDbEntity
  8
0
100
AcDbBlockEnd
  0
BLOCK
  5
8F9
330
8EF
100
AcDbEntity
  8
0
100
AcDbBlockBegin
  2
*D3
 70
     1
 10
0.0
 20
0.0
 30
0.0
  3
*D3
  1

  0
LINE
  5
1528
330
8EF
100
AcDbEntity
  8
250
  6
CONTINUOUS
 62
     3
100
AcDbLine
 10
0.0
 20
25.49
 30
0.0
 11
0.0
 21
57.0
 31
0.0
  0
LINE
  5
1529
330
8EF
100
AcDbEntity
  8
250
  6
CONTINUOUS
 62
     3
100
AcDbLine
 10
100.0
 20
41.50224891
 30
0.0
 11
100.0
 21
57.0
 31
0.0
  0
LINE
  5
152A
330
8EF
100
AcDbEntity
  8
250
  6
CONTINUOUS
 62
     3
100
AcDbLine
 10
2.23
 20
56.0
 30
0.0
 11
97.77
 21
56.0
 31
0.0
  0
INSERT
  5
152B
330
8EF
100
AcDbEntity
  8
250
  6
CONTINUOUS
 62
     3
100
AcDbBlockReference
  2
_OPEN
 10
0.0
 20
56.0
 30
0.0
 41
2.23
 42
2.23
 43
2.23
 50
180.0
  0
INSERT
  5
152C
330
8EF
100
AcDbEntity
  8
250
  6
CONTINUOUS
 62
     3
100
AcDbBlockReference
  2
_OPEN
 10
100.0
 20
56.0
 30
0.0
 41
2.23
 42
2.23
 43
2.23
  0
MTEXT
  5
152D
330
8EF
100
AcDbEntity
  8
250
  6
CONTINUOUS
 62
    40
100
AcDbMText
 10
50.0
 20
58.5
 30
0.0
 40
3.0
 41
0.0
 71
     5
 72
     1
  1
\A1;100
  0
POINT
  5
152E
330
8EF
100
AcDbEntity
  8
DEFPOINTS
  6
CONTINUOUS
 62
     0
100
AcDbPoint
 10
0.0
 20
24.99
 30
0.0
  0
POINT
  5
152F
330
8EF
100
AcDbEntity
  8
DEFPOINTS
  6
CONTINUOUS
 62
     0
100
AcDbPoint
 10
100.0
 20
41.00224891
 30
0.0
  0
POINT
  5
1530
330
8EF
100
AcDbEntity
  8
DEFPOINTS
  6
CONTINUOUS
 62
     0
100
AcDbPoint
 10
100.0
 20
56.0
 30
0.0
  0
ENDBLK
  5
8FA
330
8EF
100
AcDbEntity
  8
0
100
AcDbBlockEnd
  0
BLOCK
  5
902
330
8FB
100
AcDbEntity
  8
0
100
AcDbBlockBegin
  2
*D4
 70
     1
 10
0.0
 20
0.0
 30
0.0
  3
*D4
  1

  0
LINE
  5
1531
330
8FB
100
AcDbEntity
  8
250
  6
CONTINUOUS
100
AcDbLine
 10
161.06634128
 20
40.43669194
 30
0.0
 11
188.93365872
 21
-40.43669194
 31
0.0
  0
INSERT
  5
1532
330
8FB
100
AcDbEntity
  8
250
  6
CONTINUOUS
100
AcDbBlockReference
  2
_OPEN
 10
160.33984937
 20
42.54503477
 30
0.0
 41
2.23
 42
2.23
 43
2.23
 50
109.01290592
  0
INSERT
  5
1533
330
8FB
100
AcDbEntity
  8
250
  6
CONTINUOUS
100
AcDbBlockReference
  2
_OPEN
 10
189.66015063
 20
-42.54503477
 30
0.0
 41
2.23
 42
2.23
 43
2.23
 50
289.01290592
  0
MTEXT
  5
1534
330
8FB
100
AcDbEntity
  8
250
  6
CONTINUOUS
 62
    40
100
AcDbMText
 10
185.46514781
 20
-23.0038617
 30
0.0
 40
2.8
 41
0.0
 71
     5
 72
     1
  1
\A1;（{\H2.8;\U+2205}90）
 11
0.32578113
 21
-0.94544522
 31
0.0
  0
POINT
  5
1535
330
8FB
100
AcDbEntity
  8
DEFPOINTS
  6
CONTINUOUS
 62
     0
100
AcDbPoint
 10
189.66015063
 20
-42.54503477
 30
0.0
  0
POINT
  5
1536
330
8FB
100
AcDbEntity
  8
DEFPOINTS
  6
CONTINUOUS
 62
     0
100
AcDbPoint
 10
160.33984937
 20
42.54503477
 30
0.0
  0
ENDBLK
  5
903
330
8FB
100
AcDbEntity
  8
0
100
AcDbBlockEnd
  0
BLOCK
  5
90E
330
904
100
AcDbEntity
  8
0
100
AcDbBlockBegin
  2
*D5
 70
     1
 10
0.0
 20
0.0
 30
0.0
  3
*D5
  1

  0
LINE
  5
99C
330
904
100
AcDbEntity
  8
250
  6
CONTINUOUS
 62
     3
100
AcDbLine
 10
30.0
 20
-35.50000015
 30
0.0
 11
30.0
 21
-50.0
 31
0.0
  0
LINE
  5
99D
330
904
100
AcDbEntity
  8
250
  6
CONTINUOUS
 62
     3
100
AcDbLine
 10
100.0
 20
-34.5
 30
0.0
 11
100.0
 21
-50.0
 31
0.0
  0
LINE
  5
99E
330
904
100
AcDbEntity
  8
250
  6
CONTINUOUS
 62
     3
100
AcDbLine
 10
32.23
 20
-49.0
 30
0.0
 11
97.77
 21
-49.0
 31
0.0
  0
INSERT
  5
99F
330
904
100
AcDbEntity
  8
250
  6
CONTINUOUS
 62
     3
100
AcDbBlockReference
  2
_OPEN
 10
30.0
 20
-49.0
 30
0.0
 41
2.23
 42
2.23
 43
2.23
 50
180.0
  0
INSERT
  5
9A0
330
904
100
AcDbEntity
  8
250
  6
CONTINUOUS
 62
     3
100
AcDbBlockReference
  2
_OPEN
 10
100.0
 20
-49.0
 30
0.0
 41
2.23
 42
2.23
 43
2.23
  0
MTEXT
  5
9A1
330
904
100
AcDbEntity
  8
250
  6
CONTINUOUS
 62
    40
100
AcDbMText
 10
65.0
 20
-46.5
 30
0.0
 40
3.0
 41
0.0
 71
     5
 72
     1
  1
\A1;70
1001
ACAD
1000
MTEXTBEGIN
1070
    73
1070
     1
1070
    44
1040
1.0
1070
    74
1070
     0
1000
MTEXTEND
1000
MTEXTBEGIN
1070
    73
1070
     1
1070
    44
1040
1.0
1070
    74
1070
     0
1000
MTEXTEND
1000
MTEXTBEGIN
1070
    73
1070
     1
1070
    44
1040
1.0
1070
    74
1070
     0
1000
MTEXTEND
1000
MTEXTBEGIN
1070
    73
1070
     1
1070
    44
1040
1.0
1070
    74
1070
     0
1000
MTEXTEND
1000
MTEXTBEGIN
1070
    73
1070
     1
1070
    44
1040
1.0
1070
    74
1070
     0
1000
MTEXTEND
  0
POINT
  5
9A2
330
904
100
AcDbEntity
  8
DEFPOINTS
  6
CONTINUOUS
 62
     0
100
AcDbPoint
 10
30.0
 20
-35.00000015
 30
0.0
  0
POINT
  5
9A3
330
904
100
AcDbEntity
  8
DEFPOINTS
  6
CONTINUOUS
 62
     0
100
AcDbPoint
 10
100.0
 20
-34.0
 30
0.0
  0
POINT
  5
9A4
330
904
100
AcDbEntity
  8
DEFPOINTS
  6
CONTINUOUS
 62
     0
100
AcDbPoint
 10
100.0
 20
-49.0
 30
0.0
  0
ENDBLK
  5
90F
330
904
100
AcDbEntity
  8
0
100
AcDbBlockEnd
  0
BLOCK
  5
91A
330
910
100
AcDbEntity
  8
0
100
AcDbBlockBegin
  2
*D6
 70
     1
 10
0.0
 20
0.0
 30
0.0
  3
*D6
  1

  0
LINE
  5
1419
330
910
100
AcDbEntity
  8
250
  6
CONTINUOUS
 62
     3
100
AcDbLine
 10
175.0
 20
-47.5
 30
0.0
 11
175.0
 21
-57.0
 31
0.0
  0
LINE
  5
141A
330
910
100
AcDbEntity
  8
250
  6
CONTINUOUS
 62
     3
100
AcDbLine
 10
195.0
 20
-35.5
 30
0.0
 11
195.0
 21
-57.0
 31
0.0
  0
LINE
  5
141B
330
910
100
AcDbEntity
  8
250
  6
CONTINUOUS
 62
     3
100
AcDbLine
 10
177.23
 20
-56.0
 30
0.0
 11
192.77
 21
-56.0
 31
0.0
  0
INSERT
  5
141C
330
910
100
AcDbEntity
  8
250
  6
CONTINUOUS
 62
     3
100
AcDbBlockReference
  2
_OPEN
 10
175.0
 20
-56.0
 30
0.0
 41
2.23
 42
2.23
 43
2.23
 50
180.0
  0
INSERT
  5
141D
330
910
100
AcDbEntity
  8
250
  6
CONTINUOUS
 62
     3
100
AcDbBlockReference
  2
_OPEN
 10
195.0
 20
-56.0
 30
0.0
 41
2.23
 42
2.23
 43
2.23
  0
MTEXT
  5
141E
330
910
100
AcDbEntity
  8
250
  6
CONTINUOUS
 62
    40
100
AcDbMText
 10
185.0
 20
-53.5
 30
0.0
 40
3.0
 41
0.0
 71
     5
 72
     1
  1
\A1;□20
1001
ACAD
1000
MTEXTBEGIN
1070
    73
1070
     1
1070
    44
1040
1.0
1070
    74
1070
     0
1000
MTEXTEND
  0
POINT
  5
141F
330
910
100
AcDbEntity
  8
DEFPOINTS
  6
CONTINUOUS
 62
     0
100
AcDbPoint
 10
175.0
 20
-47.0
 30
0.0
  0
POINT
  5
1420
330
910
100
AcDbEntity
  8
DEFPOINTS
  6
CONTINUOUS
 62
     0
100
AcDbPoint
 10
195.0
 20
-35.0
 30
0.0
  0
POINT
  5
1421
330
910
100
AcDbEntity
  8
DEFPOINTS
  6
CONTINUOUS
 62
     0
100
AcDbPoint
 10
195.0
 20
-56.0
 30
0.0
  0
ENDBLK
  5
91B
330
910
100
AcDbEntity
  8
0
100
AcDbBlockEnd
  0
BLOCK
  5
926
330
91C
100
AcDbEntity
  8
0
100
AcDbBlockBegin
  2
*D7
 70
     1
 10
0.0
 20
0.0
 30
0.0
  3
*D7
  1

  0
LINE
  5
140E
330
91C
100
AcDbEntity
  8
250
  6
CONTINUOUS
 62
     3
100
AcDbLine
 10
195.5
 20
-15.0
 30
0.0
 11
225.0
 21
-15.0
 31
0.0
  0
LINE
  5
140F
330
91C
100
AcDbEntity
  8
250
  6
CONTINUOUS
 62
     3
100
AcDbLine
 10
200.79822128
 20
-35.0
 30
0.0
 11
225.0
 21
-35.0
 31
0.0
  0
LINE
  5
1410
330
91C
100
AcDbEntity
  8
250
  6
CONTINUOUS
 62
     3
100
AcDbLine
 10
224.0
 20
-17.23
 30
0.0
 11
224.0
 21
-32.77
 31
0.0
  0
INSERT
  5
1411
330
91C
100
AcDbEntity
  8
250
  6
CONTINUOUS
 62
     3
100
AcDbBlockReference
  2
_OPEN
 10
224.0
 20
-15.0
 30
0.0
 41
2.23
 42
2.23
 43
2.23
 50
90.0
  0
INSERT
  5
1412
330
91C
100
AcDbEntity
  8
250
  6
CONTINUOUS
 62
     3
100
AcDbBlockReference
  2
_OPEN
 10
224.0
 20
-35.0
 30
0.0
 41
2.23
 42
2.23
 43
2.23
 50
270.0
  0
MTEXT
  5
1413
330
91C
100
AcDbEntity
  8
250
  6
CONTINUOUS
 62
    40
100
AcDbMText
 10
221.5
 20
-25.0
 30
0.0
 40
3.0
 41
0.0
 71
     5
 72
     1
  1
\A1;20
 11
0.0
 21
1.0
 31
0.0
1001
ACAD
1000
MTEXTBEGIN
1070
    73
1070
     1
1070
    44
1040
1.0
1070
    74
1070
     0
1000
MTEXTEND
  0
POINT
  5
1414
330
91C
100
AcDbEntity
  8
DEFPOINTS
  6
CONTINUOUS
 62
     0
100
AcDbPoint
 10
195.0
 20
-15.0
 30
0.0
  0
POINT
  5
1415
330
91C
100
AcDbEntity
  8
DEFPOINTS
  6
CONTINUOUS
 62
     0
100
AcDbPoint
 10
200.29822128
 20
-35.0
 30
0.0
  0
POINT
  5
1416
330
91C
100
AcDbEntity
  8
DEFPOINTS
  6
CONTINUOUS
 62
     0
100
AcDbPoint
 10
224.0
 20
-35.0
 30
0.0
  0
ENDBLK
  5
927
330
91C
100
AcDbEntity
  8
0
100
AcDbBlockEnd
  0
BLOCK
  5
D5D
330
D53
100
AcDbEntity
  8
0
100
AcDbBlockBegin
  2
*D8
 70
     1
 10
0.0
 20
0.0
 30
0.0
  3
*D8
  1

  0
LINE
  5
D54
330
D53
100
AcDbEntity
  8
250
  6
CONTINUOUS
 62
     3
100
AcDbLine
 10
99.49999839
 20
-35.00000015
 30
0.0
 11
113.0
 21
-35.00000015
 31
0.0
  0
LINE
  5
D55
330
D53
100
AcDbEntity
  8
250
  6
CONTINUOUS
 62
     3
100
AcDbLine
 10
101.5
 20
0.0
 30
0.0
 11
113.0
 21
0.0
 31
0.0
  0
LINE
  5
D56
330
D53
100
AcDbEntity
  8
250
  6
CONTINUOUS
 62
     3
100
AcDbLine
 10
112.0
 20
-32.77000015
 30
0.0
 11
112.0
 21
-2.23
 31
0.0
  0
INSERT
  5
D57
330
D53
100
AcDbEntity
  8
250
  6
CONTINUOUS
 62
     3
100
AcDbBlockReference
  2
_OPEN
 10
112.0
 20
-35.00000015
 30
0.0
 41
2.23
 42
2.23
 43
2.23
 50
270.0
  0
INSERT
  5
D58
330
D53
100
AcDbEntity
  8
250
  6
CONTINUOUS
 62
     3
100
AcDbBlockReference
  2
_OPEN
 10
112.0
 20
0.0
 30
0.0
 41
2.23
 42
2.23
 43
2.23
 50
90.0
  0
MTEXT
  5
D59
330
D53
100
AcDbEntity
  8
250
  6
CONTINUOUS
 62
    40
100
AcDbMText
 10
109.5
 20
-17.50000007
 30
0.0
 40
3.0
 41
0.0
 71
     5
 72
     1
  1
\A1;35
 11
0.0
 21
1.0
 31
0.0
1001
ACAD
1000
MTEXTBEGIN
1070
    73
1070
     1
1070
    44
1040
1.0
1070
    74
1070
     0
1000
MTEXTEND
1000
MTEXTBEGIN
1070
    73
1070
     1
1070
    44
1040
1.0
1070
    74
1070
     0
1000
MTEXTEND
1000
MTEXTBEGIN
1070
    73
1070
     1
1070
    44
1040
1.0
1070
    74
1070
     0
1000
MTEXTEND
1000
MTEXTBEGIN
1070
    73
1070
     1
1070
    44
1040
1.0
1070
    74
1070
     0
1000
MTEXTEND
  0
POINT
  5
D5A
330
D53
100
AcDbEntity
  8
DEFPOINTS
  6
CONTINUOUS
 62
     0
100
AcDbPoint
 10
98.99999839
 20
-35.00000015
 30
0.0
  0
POINT
  5
D5B
330
D53
100
AcDbEntity
  8
DEFPOINTS
  6
CONTINUOUS
 62
     0
100
AcDbPoint
 10
101.0
 20
0.0
 30
0.0
  0
POINT
  5
D5C
330
D53
100
AcDbEntity
  8
DEFPOINTS
  6
CONTINUOUS
 62
     0
100
AcDbPoint
 10
112.0
 20
0.0
 30
0.0
  0
ENDBLK
  5
D5E
330
D53
100
AcDbEntity
  8
0
100
AcDbBlockEnd
  0
ENDSEC
  0
SECTION
  2
ENTITIES
  0
INSERT
  5
6E6
330
1A
100
AcDbEntity
  8
245
100
AcDbBlockReference
  2
矢印なし
 10
175.62382697
 20
90.55123572
 30
0.0
  0
TEXT
  5
87C
330
1A
100
AcDbEntity
  8
241
100
AcDbText
 10
-30.0
 20
70.0
 30
0.0
 40
5.0
  1
C5-180-3BH20L-100
  7
YOKO
 11
-30.0
 21
70.0
 31
0.0
100
AcDbText
 73
     1
  0
DIMENSION
  5
8E7
330
1A
100
AcDbEntity
  8
250
  6
CONTINUOUS
100
AcDbDimension
  2
*D3
 10
100.0
 20
56.0
 30
0.0
 11
50.0
 21
56.0
 31
0.0
 70
   160
  3
BIGT$0
100
AcDbAlignedDimension
 13
0.0
 23
24.99
 33
0.0
 14
100.0
 24
41.00224891
 34
0.0
100
AcDbRotatedDimension
1001
ACAD
1000
DSTYLE
1002
{
1070
   287
1070
     0
1070
   287
1070
     0
1070
   287
1070
     0
1070
   287
1070
     0
1070
   287
1070
     0
1070
   287
1070
     0
1070
   287
1070
     0
1070
   287
1070
     0
1070
   287
1070
     0
1070
     3
1000
<>
1070
   289
1070
     0
1002
}
  0
DIMENSION
  5
8EB
330
1A
100
AcDbEntity
  8
250
  6
CONTINUOUS
100
AcDbDimension
  2
*D6
 10
195.0
 20
-56.0
 30
0.0
 11
185.0
 21
-53.5
 31
0.0
 70
    32
  1
□<>
  3
BIGT$0
100
AcDbAlignedDimension
 13
175.0
 23
-47.0
 33
0.0
 14
195.0
 24
-35.0
 34
0.0
100
AcDbRotatedDimension
  0
DIMENSION
  5
8EC
330
1A
100
AcDbEntity
  8
250
  6
CONTINUOUS
100
AcDbDimension
  2
*D4
 10
160.33984937
 20
42.54503477
 30
0.0
 11
183.19607929
 21
-23.7857364
 31
0.0
 70
   163
  1
（{\H2.8;\U+2205}<>）
  3
BIGT
100
AcDbDiametricDimension
 15
189.66015063
 25
-42.54503477
 35
0.0
 40
0.0
1001
ACAD
1000
DSTYLE
1002
{
1070
   287
1070
     0
1070
   287
1070
     0
1070
   287
1070
     0
1070
   287
1070
     0
1070
   287
1070
     0
1070
     3
1000
<>
1070
   288
1070
     1
1070
   289
1070
     0
1002
}
  0
DIMENSION
  5
8ED
330
1A
100
AcDbEntity
  8
250
  6
CONTINUOUS
100
AcDbDimension
  2
*D5
 10
100.0
 20
-49.0
 30
0.0
 11
65.0
 21
-46.5
 31
0.0
 70
    32
  3
BIGT$0
100
AcDbAlignedDimension
 13
30.0
 23
-35.00000015
 33
0.0
 14
100.0
 24
-34.0
 34
0.0
100
AcDbRotatedDimension
  0
DIMENSION
  5
8EE
330
1A
100
AcDbEntity
  8
250
  6
CONTINUOUS
100
AcDbDimension
  2
*D7
 10
224.0
 20
-35.0
 30
0.0
 11
221.5
 21
-25.0
 31
0.0
 70
    32
  3
BIGT$0
100
AcDbAlignedDimension
 13
195.0
 23
-15.0
 33
0.0
 14
200.29822128
 24
-35.0
 34
0.0
 50
270.0
100
AcDbRotatedDimension
  0
DIMENSION
  5
D52
330
1A
100
AcDbEntity
  8
250
  6
CONTINUOUS
100
AcDbDimension
  2
*D8
 10
112.0
 20
0.0
 30
0.0
 11
109.5
 21
-17.50000007
 31
0.0
 70
    32
  3
BIGT$0
100
AcDbAlignedDimension
 13
98.99999839
 23
-35.00000015
 33
0.0
 14
101.0
 24
0.0
 34
0.0
 50
90.0
100
AcDbRotatedDimension
  0
LEADER
  5
13A7
330
1A
100
AcDbEntity
  8
250
  6
CONTINUOUS
100
AcDbLeader
  3
BIGT$7
 76
     2
 10
-12.69342942
 20
-16.13764293
 30
0.0
 10
-17.55153517
 20
-24.55212892
 30
0.0
1001
ACAD
1000
DSTYLE
1002
{
1070
     5
1000
OPEN
1070
    41
1040
2.0
1070
    42
1040
2.0
1070
    44
1040
2.0
1070
    79
1070
     2
1070
   140
1040
4.0
1070
   179
1070
     3
1070
   342
1005
594
1070
   371
1070
    -1
1070
   372
1070
    -1
1002
}
  0
MTEXT
  5
13AA
330
1A
100
AcDbEntity
  8
251
  6
CONTINUOUS
100
AcDbMText
 10
-25.01820183
 20
-23.55212892
 30
0.0
 40
2.8
 41
0.0
 71
     7
 72
     1
  1
C5
  7
YOKO
1001
ITEMNAME
1000
LNSP3
1001
ACAD
1000
MTEXTBEGIN
1070
    73
1070
     1
1070
    44
1040
1.0
1070
    74
1070
     0
1000
MTEXTEND
1000
MTEXTBEGIN
1070
    73
1070
     1
1070
    44
1040
1.0
1070
    74
1070
     0
1000
MTEXTEND
1000
MTEXTBEGIN
1070
    73
1070
     1
1070
    44
1040
1.0
1070
    74
1070
     0
1000
MTEXTEND
  0
LINE
  5
13AB
330
1A
100
AcDbEntity
  8
250
  6
CONTINUOUS
100
AcDbLine
 10
-17.55153517
 20
-24.55212892
 30
0.0
 11
-27.81820183
 21
-24.55212892
 31
0.0
1001
ITEMNAME
1000
LNSP2
  0
INSERT
  5
14CC
330
1A
100
AcDbEntity
  8
245
100
AcDbBlockReference
  2
1
 10
0.0
 20
0.0
 30
0.0
  0
VIEWPORT
  5
22
330
17
100
AcDbEntity
 67
     1
  8
0
100
AcDbViewport
 10
261.51769912
 20
148.5
 30
0.0
 40
523.03539823
 41
297.0
 68
     1
 69
     1
1001
ACAD
1000
MVIEW
1002
{
1070
    16
1010
0.0
1020
0.0
1030
0.0
1010
0.0
1020
0.0
1030
1.0
1040
0.0
1040
297.0
1040
261.51769912
1040
148.5
1040
50.0
1040
0.0
1040
0.0
1070
     0
1070
   100
1070
     1
1070
     1
1070
     0
1070
     0
1070
     0
1070
     0
1040
0.0
1040
0.0
1040
0.0
1040
1.0
1040
1.0
1040
10.0
1040
10.0
1070
     0
1002
{
1002
}
1002
}
  0
ENDSEC
  0
SECTION
  2
OBJECTS
  0
DICTIONARY
  5
C
330
0
100
AcDbDictionary
  3
ACAD_GROUP
350
D
  3
ACAD_LAYOUT
350
565
  3
ACAD_MLINESTYLE
350
E
  3
ACAD_PLOTSETTINGS
350
566
  3
ACAD_PLOTSTYLENAME
350
563
  3
ACDBHEADERROUNDTRIPXREC
350
1504
  3
GRADE_DWG
350
540
  0
DICTIONARY
  5
D33
330
1A
100
AcDbDictionary
280
     1
  3
ACAD_LAYOUTSELFREF
360
1526
  0
DICTIONARY
  5
D31
330
17
100
AcDbDictionary
280
     1
  3
ACAD_LAYOUTSELFREF
360
1525
  0
DICTIONARY
  5
D
102
{ACAD_REACTORS
330
C
102
}
330
C
100
AcDbDictionary
  3
*A1
350
6C7
  3
*A2
350
6C8
  3
*A3
350
6D4
  3
*A4
350
6D5
  3
DREC-1
350
5FC
  3
DREC-2
350
654
  3
DREC-3
350
673
  0
DICTIONARY
  5
565
102
{ACAD_REACTORS
330
C
102
}
330
C
100
AcDbDictionary
  0
DICTIONARY
  5
E
102
{ACAD_REACTORS
330
C
102
}
330
C
100
AcDbDictionary
  3
STANDARD
350
13
  0
DICTIONARY
  5
566
102
{ACAD_REACTORS
330
C
102
}
330
C
100
AcDbDictionary
  3
A3_0_5倍_
350
758
  3
A3_1倍_
350
757
  3
A3_1倍__2000_
350
707
  3
A3_2倍_
350
759
  3
A4_0_5倍_
350
755
  3
A4_1倍_
350
754
  3
A4_1倍__2000_
350
708
  3
A4_2倍_
350
756
  0
ACDBDICTIONARYWDFLT
  5
563
102
{ACAD_REACTORS
330
C
102
}
330
C
100
AcDbDictionary
281
     1
  3
Normal
350
564
100
AcDbDictionaryWithDefault
340
564
  0
DICTIONARY
  5
1504
102
{ACAD_REACTORS
330
C
102
}
330
C
100
AcDbDictionary
  3
CEPSNTYPE
350
150E
  3
DIMSTYLEDATA
350
1512
  3
FINGERPRINTGUID
350
150F
  3
HYPERLINKBASE
350
1507
  3
INSUNITS
350
150D
  3
LAYOUTDICT
350
1509
  3
LWETCUNION
350
150C
  3
PLOTSETDICT
350
150A
  3
PLOTSTYLNAMDICT
350
150B
  3
PSVPSCALE
350
1511
  3
PUCSBASE
350
1515
  3
PUCSORGBACK
350
151B
  3
PUCSORGBOTTOM
350
1517
  3
PUCSORGFRONT
350
151A
  3
PUCSORGLEFT
350
1518
  3
PUCSORGRIGHT
350
1519
  3
PUCSORGTOP
350
1516
  3
PUCSORTHOREF
350
1513
  3
PUCSORTHOVIEW
350
1514
  3
STYLESHEET
350
1508
  3
TSTACKALIGN
350
1505
  3
TSTACKSIZE
350
1506
  3
UCSBASE
350
151E
  3
UCSORGBACK
350
1524
  3
UCSORGBOTTOM
350
1520
  3
UCSORGFRONT
350
1523
  3
UCSORGLEFT
350
1521
  3
UCSORGRIGHT
350
1522
  3
UCSORGTOP
350
151F
  3
UCSORTHOREF
350
151C
  3
UCSORTHOVIEW
350
151D
  3
VERSIONGUID
350
1510
  0
DICTIONARY
  5
540
102
{ACAD_REACTORS
330
C
102
}
330
C
100
AcDbDictionary
  3
VERSION
350
560
  0
XRECORD
  5
1526
102
{ACAD_REACTORS
330
D33
102
}
330
D33
100
AcDbXrecord
340
1A
  0
XRECORD
  5
1525
102
{ACAD_REACTORS
330
D31
102
}
330
D31
100
AcDbXrecord
340
17
  0
GROUP
  5
6C7
102
{ACAD_REACTORS
330
D
102
}
330
D
100
AcDbGroup
300

 70
     0
 71
     1
1001
GRPNAME
1000
DMA00
  0
GROUP
  5
6C8
102
{ACAD_REACTORS
330
D
102
}
330
D
100
AcDbGroup
300

 70
     0
 71
     1
1001
GRPNAME
1000
DMA00
  0
GROUP
  5
6D4
102
{ACAD_REACTORS
330
D
102
}
330
D
100
AcDbGroup
300

 70
     0
 71
     1
1001
GRPNAME
1000
DMA00
  0
GROUP
  5
6D5
102
{ACAD_REACTORS
330
D
102
}
330
D
100
AcDbGroup
300

 70
     0
 71
     1
1001
GRPNAME
1000
DMA00
  0
GROUP
  5
5FC
102
{ACAD_REACTORS
330
D
102
}
330
D
100
AcDbGroup
300

 70
     0
 71
     1
1001
GRPNAME
1000
DREC-
1001
GPARA
1000
xsiz
1000
44.182
1000
ysiz
1000
40.677
1000
angl
1000
0
1000
ctyp
1000
0
1000
csiz
1000
5
1000
lfnt
1000
cont
1000
hcnt
1000
hoff
1000
vcnt
1000
voff
1000
opnt
1000
4
1000
dxpt
1000
0
1000
dypt
1000
0
  0
GROUP
  5
654
102
{ACAD_REACTORS
330
D
102
}
330
D
100
AcDbGroup
300

 70
     0
 71
     1
1001
GRPNAME
1000
DREC-
1001
GPARA
1000
xsiz
1000
54.592
1000
ysiz
1000
53.036
1000
angl
1000
0
1000
ctyp
1000
0
1000
csiz
1000
5
1000
lfnt
1000
cont
1000
hcnt
1000
hoff
1000
vcnt
1000
voff
1000
opnt
1000
4
1000
dxpt
1000
0
1000
dypt
1000
0
  0
GROUP
  5
673
102
{ACAD_REACTORS
330
D
102
}
330
D
100
AcDbGroup
300

 70
     0
 71
     1
1001
GRPNAME
1000
DREC-
1001
GPARA
1000
xsiz
1000
30.363
1000
ysiz
1000
36.175
1000
angl
1000
0
1000
ctyp
1000
0
1000
csiz
1000
5
1000
lfnt
1000
cont
1000
hcnt
1000
hoff
1000
vcnt
1000
voff
1000
opnt
1000
4
1000
dxpt
1000
0
1000
dypt
1000
0
  0
MLINESTYLE
  5
13
102
{ACAD_REACTORS
330
E
102
}
330
E
100
AcDbMlineStyle
  2
STANDARD
 70
     0
  3

 62
     0
 51
90.0
 52
90.0
 71
     2
 49
0.5
 62
   256
  6
BYLAYER
 49
-0.5
 62
   256
  6
BYLAYER
  0
PLOTSETTINGS
  5
758
102
{ACAD_REACTORS
330
566
102
}
330
566
100
AcDbPlotSettings
  1
A3(0.5倍)
  2
\\AWTECPC05\HP DeskJet 1120C
  4
A3
  6

 40
5.95841646
 41
13.49375153
 42
6.04309082
 43
3.67242432
 44
296.92599487
 45
419.94665527
 46
89.96
 47
127.14
 48
0.0
 49
0.0
140
0.0
141
0.0
142
1.0
143
2.0
 70
  1716
 72
     1
 73
     1
 74
     2
  7
big.ctb
 75
    17
147
0.5
148
0.0
149
0.0
  0
PLOTSETTINGS
  5
757
102
{ACAD_REACTORS
330
566
102
}
330
566
100
AcDbPlotSettings
  1
A3(1倍)
  2
\\AWTECPC05\HP DeskJet 1120C
  4
A3
  6

 40
5.95841646
 41
13.49375153
 42
6.04309082
 43
3.67242432
 44
296.92599487
 45
419.94665527
 46
37.46
 47
52.89
 48
0.0
 49
0.0
140
0.0
141
0.0
142
1.0
143
1.0
 70
  1716
 72
     1
 73
     1
 74
     2
  7
big.ctb
 75
    16
147
1.0
148
0.0
149
0.0
  0
PLOTSETTINGS
  5
707
102
{ACAD_REACTORS
330
566
102
}
330
566
100
AcDbPlotSettings
  1
A3(1倍)(2000)
  2
SII LS-1300 (D-SCAN)
  4
User258
  6

 40
3.17499995
 41
3.17499995
 42
3.17498779
 43
3.17498779
 44
419.98898315
 45
296.98950195
 46
58.32
 47
40.32
 48
0.0
 49
0.0
140
0.0
141
0.0
142
1.0
143
1.0
 70
  1716
 72
     1
 73
     0
 74
     2
  7
big.ctb
 75
    16
147
1.0
148
0.0
149
0.0
  0
PLOTSETTINGS
  5
759
102
{ACAD_REACTORS
330
566
102
}
330
566
100
AcDbPlotSettings
  1
A3(2倍)
  2
\\AWTECPC05\HP DeskJet 1120C
  4
A3
  6

 40
5.95841646
 41
13.49375153
 42
6.04309082
 43
3.67242432
 44
296.92599487
 45
419.94665527
 46
-67.54
 47
-95.61
 48
0.0
 49
0.0
140
0.0
141
0.0
142
1.0
143
0.5
 70
  1716
 72
     1
 73
     1
 74
     2
  7
big.ctb
 75
    27
147
2.0
148
0.0
149
0.0
  0
PLOTSETTINGS
  5
755
102
{ACAD_REACTORS
330
566
102
}
330
566
100
AcDbPlotSettings
  1
A4(0.5倍)
  2
\\AWTECPC05\HP DeskJet 1120C
  4
A4
  6

 40
4.18041658
 41
13.49374962
 42
4.18040466
 43
3.92642212
 44
209.97332764
 45
296.92599487
 46
48.31
 47
65.5
 48
0.0
 49
0.0
140
0.0
141
0.0
142
1.0
143
2.0
 70
  1716
 72
     1
 73
     1
 74
     2
  7
big.ctb
 75
    17
147
0.5
148
0.0
149
0.0
  0
PLOTSETTINGS
  5
754
102
{ACAD_REACTORS
330
566
102
}
330
566
100
AcDbPlotSettings
  1
A4(1倍)
  2
\\AWTECPC05\HP DeskJet 1120C
  4
A4
  6

 40
4.18041658
 41
13.49374962
 42
4.18040466
 43
3.92642212
 44
209.97332764
 45
296.92599487
 46
-4.19
 47
-8.75
 48
0.0
 49
0.0
140
0.0
141
0.0
142
1.0
143
1.0
 70
  1716
 72
     1
 73
     1
 74
     2
  7
big.ctb
 75
    16
147
1.0
148
0.0
149
0.0
  0
PLOTSETTINGS
  5
708
102
{ACAD_REACTORS
330
566
102
}
330
566
100
AcDbPlotSettings
  1
A4(1倍)(2000)
  2
SII LS-1300 (D-SCAN)
  4
User259
  6

 40
3.17499995
 41
3.17499995
 42
3.17498779
 43
3.17500305
 44
296.98950195
 45
209.99449158
 46
-3.18
 47
-3.18
 48
0.0
 49
0.0
140
0.0
141
0.0
142
1.0
143
1.0
 70
  1716
 72
     1
 73
     0
 74
     2
  7
big.ctb
 75
    16
147
1.0
148
0.0
149
0.0
  0
PLOTSETTINGS
  5
756
102
{ACAD_REACTORS
330
566
102
}
330
566
100
AcDbPlotSettings
  1
A4(2倍)
  2
\\AWTECPC05\HP DeskJet 1120C
  4
A4
  6

 40
4.18041658
 41
13.49374962
 42
4.18040466
 43
3.92642212
 44
209.97332764
 45
296.92599487
 46
-109.19
 47
-157.25
 48
0.0
 49
0.0
140
0.0
141
0.0
142
1.0
143
0.5
 70
  1716
 72
     1
 73
     1
 74
     2
  7
big.ctb
 75
    27
147
2.0
148
0.0
149
0.0
  0
ACDBPLACEHOLDER
  5
564
102
{ACAD_REACTORS
330
563
102
}
330
563
100
AcDbPlaceHolder
280
     0
  0
XRECORD
  5
150E
102
{ACAD_REACTORS
330
1504
102
}
330
1504
100
AcDbXrecord
 90
        0
  0
XRECORD
  5
1512
102
{ACAD_REACTORS
330
1504
102
}
330
1504
100
AcDbXrecord
1000
DSTYLE
1002
{
1070
   341
340
594
1070
   343
340
594
1070
   344
340
594
1002
}
  0
XRECORD
  5
150F
102
{ACAD_REACTORS
330
1504
102
}
330
1504
100
AcDbXrecord
  1
{51294030-9CB4-11D3-8E18-00A0C925D94D}
  0
XRECORD
  5
1507
102
{ACAD_REACTORS
330
1504
102
}
330
1504
100
AcDbXrecord
  1

  0
XRECORD
  5
150D
102
{ACAD_REACTORS
330
1504
102
}
330
1504
100
AcDbXrecord
 90
        0
  0
XRECORD
  5
1509
102
{ACAD_REACTORS
330
1504
102
}
330
1504
100
AcDbXrecord
340
565
  0
XRECORD
  5
150C
102
{ACAD_REACTORS
330
1504
102
}
330
1504
100
AcDbXrecord
 90
    10781
  0
XRECORD
  5
150A
102
{ACAD_REACTORS
330
1504
102
}
330
1504
100
AcDbXrecord
340
566
  0
XRECORD
  5
150B
102
{ACAD_REACTORS
330
1504
102
}
330
1504
100
AcDbXrecord
340
563
  0
XRECORD
  5
1511
102
{ACAD_REACTORS
330
1504
102
}
330
1504
100
AcDbXrecord
 40
0.0
  0
XRECORD
  5
1515
102
{ACAD_REACTORS
330
1504
102
}
330
1504
100
AcDbXrecord
340
0
  0
XRECORD
  5
151B
102
{ACAD_REACTORS
330
1504
102
}
330
1504
100
AcDbXrecord
 10
0.0
 20
0.0
 30
0.0
  0
XRECORD
  5
1517
102
{ACAD_REACTORS
330
1504
102
}
330
1504
100
AcDbXrecord
 10
0.0
 20
0.0
 30
0.0
  0
XRECORD
  5
151A
102
{ACAD_REACTORS
330
1504
102
}
330
1504
100
AcDbXrecord
 10
0.0
 20
0.0
 30
0.0
  0
XRECORD
  5
1518
102
{ACAD_REACTORS
330
1504
102
}
330
1504
100
AcDbXrecord
 10
0.0
 20
0.0
 30
0.0
  0
XRECORD
  5
1519
102
{ACAD_REACTORS
330
1504
102
}
330
1504
100
AcDbXrecord
 10
0.0
 20
0.0
 30
0.0
  0
XRECORD
  5
1516
102
{ACAD_REACTORS
330
1504
102
}
330
1504
100
AcDbXrecord
 10
0.0
 20
0.0
 30
0.0
  0
XRECORD
  5
1513
102
{ACAD_REACTORS
330
1504
102
}
330
1504
100
AcDbXrecord
340
0
  0
XRECORD
  5
1514
102
{ACAD_REACTORS
330
1504
102
}
330
1504
100
AcDbXrecord
 70
     0
  0
XRECORD
  5
1508
102
{ACAD_REACTORS
330
1504
102
}
330
1504
100
AcDbXrecord
  1
big.ctb
  0
XRECORD
  5
1505
102
{ACAD_REACTORS
330
1504
102
}
330
1504
100
AcDbXrecord
 90
        1
  0
XRECORD
  5
1506
102
{ACAD_REACTORS
330
1504
102
}
330
1504
100
AcDbXrecord
 90
       70
  0
XRECORD
  5
151E
102
{ACAD_REACTORS
330
1504
102
}
330
1504
100
AcDbXrecord
340
0
  0
XRECORD
  5
1524
102
{ACAD_REACTORS
330
1504
102
}
330
1504
100
AcDbXrecord
 10
0.0
 20
0.0
 30
0.0
  0
XRECORD
  5
1520
102
{ACAD_REACTORS
330
1504
102
}
330
1504
100
AcDbXrecord
 10
0.0
 20
0.0
 30
0.0
  0
XRECORD
  5
1523
102
{ACAD_REACTORS
330
1504
102
}
330
1504
100
AcDbXrecord
 10
0.0
 20
0.0
 30
0.0
  0
XRECORD
  5
1521
102
{ACAD_REACTORS
330
1504
102
}
330
1504
100
AcDbXrecord
 10
0.0
 20
0.0
 30
0.0
  0
XRECORD
  5
1522
102
{ACAD_REACTORS
330
1504
102
}
330
1504
100
AcDbXrecord
 10
0.0
 20
0.0
 30
0.0
  0
XRECORD
  5
151F
102
{ACAD_REACTORS
330
1504
102
}
330
1504
100
AcDbXrecord
 10
0.0
 20
0.0
 30
0.0
  0
XRECORD
  5
151C
102
{ACAD_REACTORS
330
1504
102
}
330
1504
100
AcDbXrecord
340
0
  0
XRECORD
  5
151D
102
{ACAD_REACTORS
330
1504
102
}
330
1504
100
AcDbXrecord
 70
     0
  0
XRECORD
  5
1510
102
{ACAD_REACTORS
330
1504
102
}
330
1504
100
AcDbXrecord
  1
{C2713AFF-9BED-4B11-929E-1163FA404208}
  0
XRECORD
  5
560
102
{ACAD_REACTORS
330
540
102
}
330
540
100
AcDbXrecord
  1
2.0.0
  0
ENDSEC
  0
EOF
