  0
SECTION
  2
HEADER
  9
$ACADVER
  1
AC1024
  9
$ACADMAINTVER
 70
     6
  9
$DWGCODEPAGE
  3
ANSI_932
  9
$INSBASE
 10
0.0
 20
0.0
 30
0.0
  9
$EXTMIN
 10
-76.39858687325318
 20
-43.0
 30
0.0
  9
$EXTMAX
 10
127.0
 20
68.0
 30
0.0
  9
$LIMMIN
 10
0.0
 20
0.0
  9
$LIMMAX
 10
297.0
 20
210.0
  9
$ORTHOMODE
 70
     0
  9
$REGENMODE
 70
     1
  9
$FILLMODE
 70
     1
  9
$QTEXTMODE
 70
     0
  9
$MIRRTEXT
 70
     1
  9
$LTSCALE
 40
10.0
  9
$ATTMODE
 70
     1
  9
$TEXTSIZE
 40
3.0
  9
$TRACEWID
 40
1.0
  9
$TEXTSTYLE
  7
YOKO
  9
$CLAYER
  8
245
  9
$CELTYPE
  6
ByLayer
  9
$CECOLOR
 62
   256
  9
$CELTSCALE
 40
1.0
  9
$DISPSILH
 70
     0
  9
$DIMSCALE
 40
1.0
  9
$DIMASZ
 40
2.229999999999999
  9
$DIMEXO
 40
0.5
  9
$DIMDLI
 40
2.5
  9
$DIMRND
 40
0.0
  9
$DIMDLE
 40
0.0
  9
$DIMEXE
 40
1.0
  9
$DIMTP
 40
0.0
  9
$DIMTM
 40
0.0
  9
$DIMTXT
 40
3.0
  9
$DIMCEN
 40
0.0
  9
$DIMTSZ
 40
0.0
  9
$DIMTOL
 70
     0
  9
$DIMLIM
 70
     0
  9
$DIMTIH
 70
     0
  9
$DIMTOH
 70
     0
  9
$DIMSE1
 70
     0
  9
$DIMSE2
 70
     0
  9
$DIMTAD
 70
     3
  9
$DIMZIN
 70
     8
  9
$DIMBLK
  1
OPEN
  9
$DIMASO
 70
     1
  9
$DIMSHO
 70
     1
  9
$DIMPOST
  1

  9
$DIMAPOST
  1

  9
$DIMALT
 70
     0
  9
$DIMALTD
 70
     2
  9
$DIMALTF
 40
25.4
  9
$DIMLFAC
 40
1.0
  9
$DIMTOFL
 70
     1
  9
$DIMTVP
 40
0.0
  9
$DIMTIX
 70
     0
  9
$DIMSOXD
 70
     0
  9
$DIMSAH
 70
     0
  9
$DIMBLK1
  1

  9
$DIMBLK2
  1

  9
$DIMSTYLE
  2
BIGT
  9
$DIMCLRD
 70
   256
  9
$DIMCLRE
 70
   256
  9
$DIMCLRT
 70
    40
  9
$DIMTFAC
 40
1.0
  9
$DIMGAP
 40
1.0
  9
$DIMJUST
 70
     0
  9
$DIMSD1
 70
     0
  9
$DIMSD2
 70
     0
  9
$DIMTOLJ
 70
     1
  9
$DIMTZIN
 70
     0
  9
$DIMALTZ
 70
     0
  9
$DIMALTTZ
 70
     0
  9
$DIMUPT
 70
     0
  9
$DIMDEC
 70
     3
  9
$DIMTDEC
 70
     3
  9
$DIMALTU
 70
     2
  9
$DIMALTTD
 70
     2
  9
$DIMTXSTY
  7
STANDARD
  9
$DIMAUNIT
 70
     0
  9
$DIMADEC
 70
     0
  9
$DIMALTRND
 40
0.0
  9
$DIMAZIN
 70
     0
  9
$DIMDSEP
 70
    46
  9
$DIMATFIT
 70
     3
  9
$DIMFRAC
 70
     0
  9
$DIMLDRBLK
  1

  9
$DIMLUNIT
 70
     2
  9
$DIMLWD
 70
    -2
  9
$DIMLWE
 70
    -2
  9
$DIMTMOVE
 70
     2
  9
$DIMFXL
 40
1.0
  9
$DIMFXLON
 70
     0
  9
$DIMJOGANG
 40
0.7853981633974483
  9
$DIMTFILL
 70
     0
  9
$DIMTFILLCLR
 70
     0
  9
$DIMARCSYM
 70
     0
  9
$DIMLTYPE
  6

  9
$DIMLTEX1
  6

  9
$DIMLTEX2
  6

  9
$DIMTXTDIRECTION
 70
     0
  9
$LUNITS
 70
     2
  9
$LUPREC
 70
     3
  9
$SKETCHINC
 40
1.0
  9
$FILLETRAD
 40
10.0
  9
$AUNITS
 70
     0
  9
$AUPREC
 70
     3
  9
$MENU
  1
.
  9
$ELEVATION
 40
0.0
  9
$PELEVATION
 40
0.0
  9
$THICKNESS
 40
0.0
  9
$LIMCHECK
 70
     0
  9
$CHAMFERA
 40
10.0
  9
$CHAMFERB
 40
10.0
  9
$CHAMFERC
 40
1.0
  9
$CHAMFERD
 40
0.0
  9
$SKPOLY
 70
     0
  9
$TDCREATE
 40
2452173.411575521
  9
$TDUCREATE
 40
2452173.619908854
  9
$TDUPDATE
 40
2456155.358498623
  9
$TDUUPDATE
 40
2456155.566831956
  9
$TDINDWG
 40
0.0634982639
  9
$TDUSRTIMER
 40
2456155.564582245
  9
$USRTIMER
 70
     1
  9
$ANGBASE
 50
0.0
  9
$ANGDIR
 70
     0
  9
$PDMODE
 70
    35
  9
$PDSIZE
 40
-5.0
  9
$PLINEWID
 40
0.0
  9
$SPLFRAME
 70
     0
  9
$SPLINETYPE
 70
     6
  9
$SPLINESEGS
 70
     8
  9
$HANDSEED
  5
128C
  9
$SURFTAB1
 70
     6
  9
$SURFTAB2
 70
     6
  9
$SURFTYPE
 70
     6
  9
$SURFU
 70
     6
  9
$SURFV
 70
     6
  9
$UCSBASE
  2

  9
$UCSNAME
  2

  9
$UCSORG
 10
0.0
 20
0.0
 30
0.0
  9
$UCSXDIR
 10
1.0
 20
0.0
 30
0.0
  9
$UCSYDIR
 10
0.0
 20
1.0
 30
0.0
  9
$UCSORTHOREF
  2

  9
$UCSORTHOVIEW
 70
     0
  9
$UCSORGTOP
 10
0.0
 20
0.0
 30
0.0
  9
$UCSORGBOTTOM
 10
0.0
 20
0.0
 30
0.0
  9
$UCSORGLEFT
 10
0.0
 20
0.0
 30
0.0
  9
$UCSORGRIGHT
 10
0.0
 20
0.0
 30
0.0
  9
$UCSORGFRONT
 10
0.0
 20
0.0
 30
0.0
  9
$UCSORGBACK
 10
0.0
 20
0.0
 30
0.0
  9
$PUCSBASE
  2

  9
$PUCSNAME
  2

  9
$PUCSORG
 10
0.0
 20
0.0
 30
0.0
  9
$PUCSXDIR
 10
1.0
 20
0.0
 30
0.0
  9
$PUCSYDIR
 10
0.0
 20
1.0
 30
0.0
  9
$PUCSORTHOREF
  2

  9
$PUCSORTHOVIEW
 70
     0
  9
$PUCSORGTOP
 10
0.0
 20
0.0
 30
0.0
  9
$PUCSORGBOTTOM
 10
0.0
 20
0.0
 30
0.0
  9
$PUCSORGLEFT
 10
0.0
 20
0.0
 30
0.0
  9
$PUCSORGRIGHT
 10
0.0
 20
0.0
 30
0.0
  9
$PUCSORGFRONT
 10
0.0
 20
0.0
 30
0.0
  9
$PUCSORGBACK
 10
0.0
 20
0.0
 30
0.0
  9
$USERI1
 70
     1
  9
$USERI2
 70
     0
  9
$USERI3
 70
     0
  9
$USERI4
 70
     0
  9
$USERI5
 70
     0
  9
$USERR1
 40
0.0
  9
$USERR2
 40
0.0
  9
$USERR3
 40
0.0
  9
$USERR4
 40
0.0
  9
$USERR5
 40
0.0
  9
$WORLDVIEW
 70
     1
  9
$SHADEDGE
 70
     3
  9
$SHADEDIF
 70
    70
  9
$TILEMODE
 70
     1
  9
$MAXACTVP
 70
    16
  9
$PINSBASE
 10
0.0
 20
0.0
 30
0.0
  9
$PLIMCHECK
 70
     0
  9
$PEXTMIN
 10
1.000000000000000E+20
 20
1.000000000000000E+20
 30
1.000000000000000E+20
  9
$PEXTMAX
 10
-1.000000000000000E+20
 20
-1.000000000000000E+20
 30
-1.000000000000000E+20
  9
$PLIMMIN
 10
0.0
 20
0.0
  9
$PLIMMAX
 10
420.0
 20
297.0
  9
$UNITMODE
 70
     0
  9
$VISRETAIN
 70
     0
  9
$PLINEGEN
 70
     0
  9
$PSLTSCALE
 70
     1
  9
$TREEDEPTH
 70
  3020
  9
$CMLSTYLE
  2
Standard
  9
$CMLJUST
 70
     0
  9
$CMLSCALE
 40
1.0
  9
$PROXYGRAPHICS
 70
     1
  9
$MEASUREMENT
 70
     0
  9
$CELWEIGHT
370
    -1
  9
$ENDCAPS
280
     0
  9
$JOINSTYLE
280
     0
  9
$LWDISPLAY
290
     0
  9
$INSUNITS
 70
     0
  9
$HYPERLINKBASE
  1

  9
$STYLESHEET
  1

  9
$XEDIT
290
     1
  9
$CEPSNTYPE
380
     0
  9
$PSTYLEMODE
290
     1
  9
$FINGERPRINTGUID
  2
{C830265A-9E6B-4EAC-BD0D-99BEF7A7C73B}
  9
$VERSIONGUID
  2
{FAEB1C32-E019-11D5-929B-00C0DF256EC4}
  9
$EXTNAMES
290
     1
  9
$PSVPSCALE
 40
0.0
  9
$OLESTARTUP
290
     0
  9
$SORTENTS
280
   127
  9
$INDEXCTL
280
     0
  9
$HIDETEXT
280
     1
  9
$XCLIPFRAME
280
     2
  9
$HALOGAP
280
     0
  9
$OBSCOLOR
 70
   257
  9
$OBSLTYPE
280
     0
  9
$INTERSECTIONDISPLAY
280
     0
  9
$INTERSECTIONCOLOR
 70
   257
  9
$DIMASSOC
280
     2
  9
$PROJECTNAME
  1

  9
$CAMERADISPLAY
290
     0
  9
$LENSLENGTH
 40
50.0
  9
$CAMERAHEIGHT
 40
0.0
  9
$STEPSPERSEC
 40
2.0
  9
$STEPSIZE
 40
6.0
  9
$3DDWFPREC
 40
2.0
  9
$PSOLWIDTH
 40
0.25
  9
$PSOLHEIGHT
 40
4.0
  9
$LOFTANG1
 40
1.570796326794897
  9
$LOFTANG2
 40
1.570796326794897
  9
$LOFTMAG1
 40
0.0
  9
$LOFTMAG2
 40
0.0
  9
$LOFTPARAM
 70
     7
  9
$LOFTNORMALS
280
     1
  9
$LATITUDE
 40
37.795
  9
$LONGITUDE
 40
-122.394
  9
$NORTHDIRECTION
 40
0.0
  9
$TIMEZONE
 70
 -8000
  9
$LIGHTGLYPHDISPLAY
280
     1
  9
$TILEMODELIGHTSYNCH
280
     1
  9
$SOLIDHIST
280
     1
  9
$SHOWHIST
280
     1
  9
$DWFFRAME
280
     2
  9
$DGNFRAME
280
     2
  9
$REALWORLDSCALE
290
     1
  9
$INTERFERECOLOR
 62
   256
  9
$CSHADOW
280
     0
  9
$SHADOWPLANELOCATION
 40
0.0
  0
ENDSEC
  0
SECTION
  2
CLASSES
  0
CLASS
  1
ACDBDICTIONARYWDFLT
  2
AcDbDictionaryWithDefault
  3
ObjectDBX Classes
 90
        0
 91
        4
280
     0
281
     0
  0
CLASS
  1
MATERIAL
  2
AcDbMaterial
  3
ObjectDBX Classes
 90
     1153
 91
        4
280
     0
281
     0
  0
CLASS
  1
SCALE
  2
AcDbScale
  3
ObjectDBX Classes
 90
     1153
 91
        4
280
     0
281
     0
  0
CLASS
  1
VISUALSTYLE
  2
AcDbVisualStyle
  3
ObjectDBX Classes
 90
     4095
 91
        4
280
     0
281
     0
  0
CLASS
  1
TABLESTYLE
  2
AcDbTableStyle
  3
ObjectDBX Classes
 90
     4095
 91
        4
280
     0
281
     0
  0
CLASS
  1
RASTERVARIABLES
  2
AcDbRasterVariables
  3
ISM
 90
        0
 91
        4
280
     0
281
     0
  0
CLASS
  1
DICTIONARYVAR
  2
AcDbDictionaryVar
  3
ObjectDBX Classes
 90
        0
 91
        4
280
     0
281
     0
  0
CLASS
  1
CELLSTYLEMAP
  2
AcDbCellStyleMap
  3
ObjectDBX Classes
 90
     1152
 91
        4
280
     0
281
     0
  0
ENDSEC
  0
SECTION
  2
TABLES
  0
TABLE
  2
VPORT
  5
11F2
330
0
100
AcDbSymbolTable
 70
     1
  0
VPORT
  5
1209
330
11F2
100
AcDbSymbolTableRecord
100
AcDbViewportTableRecord
  2
*ACTIVE
 70
     0
 10
0.0
 20
0.0
 11
1.0
 21
1.0
 12
110.8859425390882
 22
2.779442918879589
 13
0.0
 23
0.0
 14
7.0
 24
7.0
 15
7.0
 25
7.0
 16
0.0
 26
0.0
 36
1.0
 17
0.0
 27
0.0
 37
0.0
 40
108.3686392372004
 41
1.328822733423545
 42
50.0
 43
0.0
 44
0.0
 50
0.0
 51
0.0
 71
    16
 72
  2000
 73
     1
 74
     0
 75
     0
 76
     0
 77
     0
 78
     0
281
     0
 65
     0
110
0.0
120
0.0
130
0.0
111
1.0
121
0.0
131
0.0
112
0.0
122
1.0
132
0.0
 79
     0
146
0.0
 60
     3
 61
     5
292
     1
282
     1
141
0.0
142
0.0
 63
   256
  0
ENDTAB
  0
TABLE
  2
LTYPE
  5
11EF
330
0
100
AcDbSymbolTable
 70
     4
  0
LTYPE
  5
11FD
330
11EF
100
AcDbSymbolTableRecord
100
AcDbLinetypeTableRecord
  2
ByBlock
 70
     0
  3

 72
    65
 73
     0
 40
0.0
  0
LTYPE
  5
11FE
330
11EF
100
AcDbSymbolTableRecord
100
AcDbLinetypeTableRecord
  2
ByLayer
 70
     0
  3

 72
    65
 73
     0
 40
0.0
  0
LTYPE
  5
11FF
330
11EF
100
AcDbSymbolTableRecord
100
AcDbLinetypeTableRecord
  2
CONTINUOUS
 70
     0
  3
Solid line
 72
    65
 73
     0
 40
0.0
  0
LTYPE
  5
120B
330
11EF
100
AcDbSymbolTableRecord
100
AcDbLinetypeTableRecord
  2
CENTER2
 70
     0
  3
___ _ ___ _ ___ _ ___ _ ___ _ ___ _ ___ _ ___ _
 72
    65
 73
     4
 40
1.125
 49
0.75
 74
     0
 49
-0.125
 74
     0
 49
0.125
 74
     0
 49
-0.125
 74
     0
  0
LTYPE
  5
120C
330
11EF
100
AcDbSymbolTableRecord
100
AcDbLinetypeTableRecord
  2
HIDDEN2
 70
     0
  3
_ _ _ _ _ _ _ _ _ _ _ _ _ _ _ _ _ _ _ _ _ _ _ _
 72
    65
 73
     2
 40
0.1875
 49
0.125
 74
     0
 49
-0.0625
 74
     0
  0
LTYPE
  5
120D
330
11EF
100
AcDbSymbolTableRecord
100
AcDbLinetypeTableRecord
  2
PHANTOM2
 70
     0
  3
___ _ _ ___ _ _ ___ _ _ ___ _ _ ___ _ _ ___ _ _
 72
    65
 73
     6
 40
1.25
 49
0.625
 74
     0
 49
-0.125
 74
     0
 49
0.125
 74
     0
 49
-0.125
 74
     0
 49
0.125
 74
     0
 49
-0.125
 74
     0
  0
ENDTAB
  0
TABLE
  2
LAYER
  5
11EC
330
0
100
AcDbSymbolTable
 70
    10
  0
LAYER
  5
11FA
330
11EC
100
AcDbSymbolTableRecord
100
AcDbLayerTableRecord
  2
0
 70
     0
 62
     7
  6
CONTINUOUS
370
    -3
390
11F9
347
1212
  0
LAYER
  5
1213
330
11EC
100
AcDbSymbolTableRecord
100
AcDbLayerTableRecord
  2
240
 70
     0
 62
     4
  6
CONTINUOUS
370
    -3
390
11F9
347
1212
  0
LAYER
  5
1214
330
11EC
100
AcDbSymbolTableRecord
100
AcDbLayerTableRecord
  2
241
 70
     0
 62
   211
  6
CONTINUOUS
370
    -3
390
11F9
347
1212
  0
LAYER
  5
1215
330
11EC
100
AcDbSymbolTableRecord
100
AcDbLayerTableRecord
  2
242
 70
     0
 62
     3
  6
CONTINUOUS
370
    -3
390
11F9
347
1212
  0
LAYER
  5
1216
330
11EC
100
AcDbSymbolTableRecord
100
AcDbLayerTableRecord
  2
243
 70
     0
 62
   211
  6
HIDDEN2
370
    -3
390
11F9
347
1212
  0
LAYER
  5
1217
330
11EC
100
AcDbSymbolTableRecord
100
AcDbLayerTableRecord
  2
245
 70
     0
 62
     2
  6
CENTER2
370
    -3
390
11F9
347
1212
  0
LAYER
  5
1218
330
11EC
100
AcDbSymbolTableRecord
100
AcDbLayerTableRecord
  2
246
 70
     0
 62
     3
  6
PHANTOM2
370
    -3
390
11F9
347
1212
  0
LAYER
  5
1219
330
11EC
100
AcDbSymbolTableRecord
100
AcDbLayerTableRecord
  2
247
 70
     0
 62
    60
  6
CONTINUOUS
370
    -3
390
11F9
347
1212
  0
LAYER
  5
121A
330
11EC
100
AcDbSymbolTableRecord
100
AcDbLayerTableRecord
  2
250
 70
     0
 62
     3
  6
CONTINUOUS
370
    -3
390
11F9
347
1212
  0
LAYER
  5
121B
330
11EC
100
AcDbSymbolTableRecord
100
AcDbLayerTableRecord
  2
DEFPOINTS
 70
     0
 62
     7
  6
CONTINUOUS
290
     0
370
    -3
390
11F9
347
1212
  0
ENDTAB
  0
TABLE
  2
STYLE
  5
11ED
330
0
100
AcDbSymbolTable
 70
     2
  0
STYLE
  5
11FB
330
11ED
100
AcDbSymbolTableRecord
100
AcDbTextStyleTableRecord
  2
STANDARD
 70
     0
 40
0.0
 41
1.0
 50
0.0
 71
     0
 42
3.0
  3
romans.shx
  4
BIGFONT.SHX
  0
STYLE
  5
121D
330
11ED
100
AcDbSymbolTableRecord
100
AcDbTextStyleTableRecord
  2
YOKO
 70
     0
 40
0.0
 41
1.0
 50
0.0
 71
     0
 42
3.0
  3
romans.shx
  4
extfont.shx
  0
ENDTAB
  0
TABLE
  2
VIEW
  5
11F0
330
0
100
AcDbSymbolTable
 70
     0
  0
ENDTAB
  0
TABLE
  2
UCS
  5
11F1
330
0
100
AcDbSymbolTable
 70
     0
  0
ENDTAB
  0
TABLE
  2
APPID
  5
11F3
330
0
100
AcDbSymbolTable
 70
    11
  0
APPID
  5
11FC
330
11F3
100
AcDbSymbolTableRecord
100
AcDbRegAppTableRecord
  2
ACAD
 70
     0
  0
APPID
  5
121F
330
11F3
100
AcDbSymbolTableRecord
100
AcDbRegAppTableRecord
  2
GLOBAL
 70
     0
  0
APPID
  5
1220
330
11F3
100
AcDbSymbolTableRecord
100
AcDbRegAppTableRecord
  2
DETAIL
 70
     0
  0
APPID
  5
1221
330
11F3
100
AcDbSymbolTableRecord
100
AcDbRegAppTableRecord
  2
GRPNAME
 70
     0
  0
APPID
  5
1222
330
11F3
100
AcDbSymbolTableRecord
100
AcDbRegAppTableRecord
  2
GPARA
 70
     0
  0
APPID
  5
1223
330
11F3
100
AcDbSymbolTableRecord
100
AcDbRegAppTableRecord
  2
ITEMNAME
 70
     0
  0
APPID
  5
1224
330
11F3
100
AcDbSymbolTableRecord
100
AcDbRegAppTableRecord
  2
HATCH_TYPE
 70
     0
  0
APPID
  5
1225
330
11F3
100
AcDbSymbolTableRecord
100
AcDbRegAppTableRecord
  2
HATCH_DISPLAY
 70
     0
  0
APPID
  5
1226
330
11F3
100
AcDbSymbolTableRecord
100
AcDbRegAppTableRecord
  2
HATCH_DISTANCE
 70
     0
  0
APPID
  5
1227
330
11F3
100
AcDbSymbolTableRecord
100
AcDbRegAppTableRecord
  2
INSERT_PATH
 70
     0
  0
APPID
  5
1228
330
11F3
100
AcDbSymbolTableRecord
100
AcDbRegAppTableRecord
  2
INSERT_NAME
 70
     0
  0
ENDTAB
  0
TABLE
  2
DIMSTYLE
  5
11F4
330
0
100
AcDbSymbolTable
 70
     2
100
AcDbDimStyleTable
  0
DIMSTYLE
105
1229
330
11F4
100
AcDbSymbolTableRecord
100
AcDbDimStyleTableRecord
  2
STANDARD
 70
     0
 41
2.0
 42
2.0
 43
3.75
 44
2.0
 78
     8
140
4.0
147
1.0
173
     1
176
   256
177
   256
178
   256
340
121D
  0
DIMSTYLE
105
E0
330
11F4
100
AcDbSymbolTableRecord
100
AcDbDimStyleTableRecord
  2
BIGT
 70
     0
 41
2.229999999999999
 42
0.5
 43
2.5
 44
1.0
 73
     0
 74
     0
 77
     3
 78
     9
140
3.5
141
0.0
147
1.0
172
     1
176
   256
177
   256
178
    40
340
121D
341
122D
342
122D
  0
ENDTAB
  0
TABLE
  2
BLOCK_RECORD
  5
11EB
330
0
100
AcDbSymbolTable
 70
    17
  0
BLOCK_RECORD
  5
1206
330
11EB
100
AcDbSymbolTableRecord
100
AcDbBlockTableRecord
  2
*Model_Space
340
1207
 70
     0
280
     1
281
     0
  0
BLOCK_RECORD
  5
1204
330
11EB
100
AcDbSymbolTableRecord
100
AcDbBlockTableRecord
  2
*Paper_Space
340
1205
 70
     0
280
     1
281
     0
  0
BLOCK_RECORD
  5
122D
330
11EB
100
AcDbSymbolTableRecord
100
AcDbBlockTableRecord
  2
_OPEN
340
0
102
{BLKREFS
331
E22
331
E23
331
E2B
331
E2C
331
E34
331
E35
331
E87
331
E88
331
E46
331
E47
331
E4F
331
E50
331
FB2
331
FB3
331
FC1
331
FC2
331
FD3
331
FD4
331
FE0
331
FE1
331
FA4
331
FA5
102
}
 70
     0
280
     1
281
     0
  0
BLOCK_RECORD
  5
122F
330
11EB
100
AcDbSymbolTableRecord
100
AcDbBlockTableRecord
  2
A$C370566AD
340
0
 70
     0
280
     1
281
     0
  0
BLOCK_RECORD
  5
1231
330
11EB
100
AcDbSymbolTableRecord
100
AcDbBlockTableRecord
  2
*D2
340
0
 70
     0
280
     1
281
     0
  0
BLOCK_RECORD
  5
1233
330
11EB
100
AcDbSymbolTableRecord
100
AcDbBlockTableRecord
  2
*D3
340
0
 70
     0
280
     1
281
     0
  0
BLOCK_RECORD
  5
1235
330
11EB
100
AcDbSymbolTableRecord
100
AcDbBlockTableRecord
  2
*D4
340
0
 70
     0
280
     1
281
     0
  0
BLOCK_RECORD
  5
1237
330
11EB
100
AcDbSymbolTableRecord
100
AcDbBlockTableRecord
  2
*D5
340
0
 70
     0
280
     1
281
     0
  0
BLOCK_RECORD
  5
1239
330
11EB
100
AcDbSymbolTableRecord
100
AcDbBlockTableRecord
  2
*D6
340
0
 70
     0
280
     1
281
     0
  0
BLOCK_RECORD
  5
123B
330
11EB
100
AcDbSymbolTableRecord
100
AcDbBlockTableRecord
  2
*D7
340
0
 70
     0
280
     1
281
     0
  0
BLOCK_RECORD
  5
123D
330
11EB
100
AcDbSymbolTableRecord
100
AcDbBlockTableRecord
  2
*D8
340
0
 70
     0
280
     1
281
     0
  0
BLOCK_RECORD
  5
123F
330
11EB
100
AcDbSymbolTableRecord
100
AcDbBlockTableRecord
  2
*D9
340
0
 70
     0
280
     1
281
     0
  0
BLOCK_RECORD
  5
1241
330
11EB
100
AcDbSymbolTableRecord
100
AcDbBlockTableRecord
  2
*D10
340
0
 70
     0
280
     1
281
     0
  0
BLOCK_RECORD
  5
1243
330
11EB
100
AcDbSymbolTableRecord
100
AcDbBlockTableRecord
  2
*D11
340
0
 70
     0
280
     1
281
     0
  0
BLOCK_RECORD
  5
1245
330
11EB
100
AcDbSymbolTableRecord
100
AcDbBlockTableRecord
  2
*X12
340
0
102
{BLKREFS
331
FA6
102
}
 70
     0
280
     1
281
     0
  0
BLOCK_RECORD
  5
1247
330
11EB
100
AcDbSymbolTableRecord
100
AcDbBlockTableRecord
  2
*X13
340
0
102
{BLKREFS
331
BB5
102
}
 70
     0
280
     1
281
     0
  0
BLOCK_RECORD
  5
1249
330
11EB
100
AcDbSymbolTableRecord
100
AcDbBlockTableRecord
  2
*X14
340
0
102
{BLKREFS
331
BC7
102
}
 70
     0
280
     1
281
     0
  0
BLOCK_RECORD
  5
124B
330
11EB
100
AcDbSymbolTableRecord
100
AcDbBlockTableRecord
  2
*X15
340
0
102
{BLKREFS
331
BEB
102
}
 70
     0
280
     1
281
     0
  0
BLOCK_RECORD
  5
124D
330
11EB
100
AcDbSymbolTableRecord
100
AcDbBlockTableRecord
  2
*X16
340
0
102
{BLKREFS
331
E48
102
}
 70
     0
280
     1
281
     0
  0
ENDTAB
  0
ENDSEC
  0
SECTION
  2
BLOCKS
  0
BLOCK
  5
122A
330
1206
100
AcDbEntity
  8
0
100
AcDbBlockBegin
  2
*Model_Space
 70
     0
 10
0.0
 20
0.0
 30
0.0
  3
*Model_Space
  1

  0
ENDBLK
  5
1C
330
1206
100
AcDbEntity
  8
0
100
AcDbBlockEnd
  0
BLOCK
  5
122B
330
1204
100
AcDbEntity
 67
     1
  8
0
100
AcDbBlockBegin
  2
*Paper_Space
 70
     0
 10
0.0
 20
0.0
 30
0.0
  3
*Paper_Space
  1

  0
ENDBLK
  5
19
330
1204
100
AcDbEntity
 67
     1
  8
0
100
AcDbBlockEnd
  0
BLOCK
  5
122C
330
122D
100
AcDbEntity
  8
0
100
AcDbBlockBegin
  2
_OPEN
 70
     0
 10
0.0
 20
0.0
 30
0.0
  3
_OPEN
  1

  0
LINE
  5
595
330
122D
100
AcDbEntity
  8
0
  6
ByBlock
 62
     0
100
AcDbLine
 10
-1.0
 20
0.1666666666666666
 30
0.0
 11
0.0
 21
0.0
 31
0.0
  0
LINE
  5
596
330
122D
100
AcDbEntity
  8
0
  6
ByBlock
 62
     0
100
AcDbLine
 10
-1.0
 20
-0.1666666666666666
 30
0.0
 11
0.0
 21
0.0
 31
0.0
  0
LINE
  5
597
330
122D
100
AcDbEntity
  8
0
  6
ByBlock
 62
     0
100
AcDbLine
 10
0.0
 20
0.0
 30
0.0
 11
-1.0
 21
0.0
 31
0.0
  0
ENDBLK
  5
599
330
122D
100
AcDbEntity
  8
0
100
AcDbBlockEnd
  0
BLOCK
  5
122E
330
122F
100
AcDbEntity
  8
0
100
AcDbBlockBegin
  2
A$C370566AD
 70
     0
 10
0.0
 20
0.0
 30
0.0
  3
A$C370566AD
  1

  0
ARC
  5
B95
330
122F
100
AcDbEntity
  8
240
100
AcDbCircle
 10
37.0
 20
-22.25000000000002
 30
0.0
 40
10.0
100
AcDbArc
 50
90.0
 51
180.0
  0
ARC
  5
B96
330
122F
100
AcDbEntity
  8
240
100
AcDbCircle
 10
37.00000000000002
 20
22.25
 30
0.0
 40
10.0
100
AcDbArc
 50
180.0
 51
270.0
  0
LINE
  5
B97
330
122F
100
AcDbEntity
  8
245
100
AcDbLine
 10
-76.39858687325318
 20
0.0
 30
0.0
 11
108.6790978728599
 21
0.0
 31
0.0
  0
ARC
  5
B98
330
122F
100
AcDbEntity
  8
240
100
AcDbCircle
 10
26.0
 20
-30.5
 30
0.0
 40
1.0
100
AcDbArc
 50
270.0
 51
0.0
  0
ARC
  5
B99
330
122F
100
AcDbEntity
  8
240
100
AcDbCircle
 10
3.0
 20
-30.5
 30
0.0
 40
1.0
100
AcDbArc
 50
180.0
 51
270.0
  0
LINE
  5
B9A
330
122F
100
AcDbEntity
  8
243
100
AcDbLine
 10
23.00000000000005
 20
-22.49999999999994
 30
0.0
 11
23.00000000000005
 21
-31.5
 31
0.0
  0
LINE
  5
B9B
330
122F
100
AcDbEntity
  8
241
100
AcDbLine
 10
11.59999999999996
 20
-31.32679491924312
 30
0.0
 11
11.59999999999996
 21
31.32679491924312
 31
0.0
  0
LINE
  5
B9C
330
122F
100
AcDbEntity
  8
241
100
AcDbLine
 10
21.59999999999996
 20
-31.3267949192431
 30
0.0
 11
21.59999999999996
 21
31.32679491924312
 31
0.0
  0
LINE
  5
B9D
330
122F
100
AcDbEntity
  8
240
100
AcDbLine
 10
14.4001488055697
 20
-26.65
 30
0.0
 11
11.75
 21
-31.24019237886466
 31
0.0
  0
LINE
  5
B9E
330
122F
100
AcDbEntity
  8
240
100
AcDbLine
 10
18.79985119443034
 20
-26.65
 30
0.0
 11
21.44999999999999
 21
-31.24019237886466
 31
0.0
  0
LINE
  5
B9F
330
122F
100
AcDbEntity
  8
240
100
AcDbLine
 10
11.30000000000001
 20
-31.5
 30
0.0
 11
11.75
 21
-31.24019237886466
 31
0.0
  0
LINE
  5
BA0
330
122F
100
AcDbEntity
  8
240
100
AcDbLine
 10
3.0
 20
-31.5
 30
0.0
 11
11.30000000000001
 21
-31.5
 31
0.0
  0
LINE
  5
BA1
330
122F
100
AcDbEntity
  8
240
100
AcDbLine
 10
21.90000000000003
 20
-31.5
 30
0.0
 11
26.0
 21
-31.5
 31
0.0
  0
LINE
  5
BA2
330
122F
100
AcDbEntity
  8
240
100
AcDbLine
 10
21.44999999999999
 20
-31.24019237886466
 30
0.0
 11
21.90000000000003
 21
-31.5
 31
0.0
  0
LINE
  5
BA3
330
122F
100
AcDbEntity
  8
240
100
AcDbLine
 10
-0.0000000000000853
 20
22.22499999999996
 30
0.0
 11
-63.68861378614349
 21
12.93707715618739
 31
0.0
  0
LINE
  5
BA4
330
122F
100
AcDbEntity
  8
240
100
AcDbLine
 10
-0.0000000000000853
 20
-22.22499999999999
 30
0.0
 11
-63.68861378614349
 21
-12.93707715618742
 31
0.0
  0
LINE
  5
BA5
330
122F
100
AcDbEntity
  8
240
100
AcDbLine
 10
-65.40000000000003
 20
0.0
 30
0.0
 11
-65.4
 21
10.95801119406081
 31
0.0
  0
LINE
  5
BA6
330
122F
100
AcDbEntity
  8
240
100
AcDbLine
 10
-65.40000000000003
 20
0.0
 30
0.0
 11
-65.4
 21
-10.95801119406081
 31
0.0
  0
ARC
  5
BA7
330
122F
100
AcDbEntity
  8
240
100
AcDbCircle
 10
-63.40000000000003
 20
-10.95801119406081
 30
0.0
 40
2.0
100
AcDbArc
 50
180.0
 51
261.7028550301632
  0
ARC
  5
BA8
330
122F
100
AcDbEntity
  8
240
100
AcDbCircle
 10
-63.40000000000003
 20
10.95801119406081
 30
0.0
 40
1.999999999999991
100
AcDbArc
 50
98.29714496983684
 51
180.0
  0
LINE
  5
BA9
330
122F
100
AcDbEntity
  8
241
100
AcDbLine
 10
26.99999999999997
 20
22.25
 30
0.0
 11
26.99999999999985
 21
-22.25000000000002
 31
0.0
  0
TEXT
  5
BAA
330
122F
100
AcDbEntity
  8
247
100
AcDbText
 10
7.599999999999937
 20
-13.17886170252697
 30
0.0
 40
3.0
  1
BT40-NBS8-105
 50
90.0
  7
YOKO
 11
8.599999999999937
 21
-13.17886170252697
 31
0.0
100
AcDbText
 73
     1
  0
LINE
  5
BAB
330
122F
100
AcDbEntity
  8
241
100
AcDbLine
 10
14.4867513459481
 20
-26.5
 30
0.0
 11
14.4867513459481
 21
26.55505102571902
 31
0.0
  0
LINE
  5
BAC
330
122F
100
AcDbEntity
  8
241
100
AcDbLine
 10
18.71324865405193
 20
-26.5
 30
0.0
 11
18.71324865405193
 21
26.55505102571902
 31
0.0
  0
LINE
  5
BAD
330
122F
100
AcDbEntity
  8
241
100
AcDbLine
 10
0.0
 20
22.22499999999996
 30
0.0
 11
0.0
 21
-22.22499999999999
 31
0.0
  0
LINE
  5
BAE
330
122F
100
AcDbEntity
  8
241
100
AcDbLine
 10
2.000000000000028
 20
22.22499999999996
 30
0.0
 11
2.000000000000028
 21
-22.22499999999999
 31
0.0
  0
LINE
  5
BAF
330
122F
100
AcDbEntity
  8
243
100
AcDbLine
 10
2.000000000000028
 20
-22.49999999999994
 30
0.0
 11
23.00000000000005
 21
-22.49999999999994
 31
0.0
  0
LINE
  5
BB0
330
122F
100
AcDbEntity
  8
240
100
AcDbLine
 10
0.0
 20
-22.22499999999999
 30
0.0
 11
2.000000000000028
 21
-22.22500000000044
 31
0.0
  0
LINE
  5
BB1
330
122F
100
AcDbEntity
  8
247
100
AcDbLine
 10
8.505718437912435
 20
-23.3547200932401
 30
0.0
 11
8.505718437912435
 21
-22.45072839402135
 31
0.0
  0
LINE
  5
BB2
330
122F
100
AcDbEntity
  8
247
100
AcDbLine
 10
9.111980634541794
 20
-26.46797082566198
 30
0.0
 11
9.111980634541794
 21
-18.26327417038854
 31
0.0
  0
LINE
  5
BB3
330
122F
100
AcDbEntity
  8
247
100
AcDbLine
 10
8.707805840256185
 20
-26.46797082566198
 30
0.0
 11
8.707805840256185
 21
-18.26327417038854
 31
0.0
  0
LINE
  5
BB4
330
122F
100
AcDbEntity
  8
247
100
AcDbLine
 10
8.505718437912435
 20
-23.3547200932401
 30
0.0
 11
5.312755314590901
 21
-22.43914697312291
 31
0.0
  0
INSERT
  5
BB5
330
122F
100
AcDbEntity
  8
247
100
AcDbBlockReference
  2
*X13
 10
0.0
 20
0.0
 30
0.0
  0
LWPOLYLINE
  5
BB6
330
122F
100
AcDbEntity
  8
247
100
AcDbPolyline
 90
        6
 70
     1
 43
0.0
 10
4.868175236465901
 20
-22.45883081101354
 10
5.312755314590901
 20
-22.58631799363072
 10
5.312755314590901
 20
-22.43914697312291
 10
8.505718437912435
 20
-23.3547200932401
 10
8.505718437912435
 20
-22.45072839402135
 10
4.868175236465901
 20
-21.40768335007604
1001
HATCH_DISTANCE
1040
1.0
1001
HATCH_DISPLAY
1070
     0
1001
HATCH_TYPE
1070
     7
  0
LWPOLYLINE
  5
BBE
330
122F
100
AcDbEntity
  8
247
100
AcDbPolyline
 90
        6
 70
     1
 43
0.0
 10
4.868175236465901
 20
-22.45883081101354
 10
5.312755314590901
 20
-22.58631799363072
 10
5.312755314590901
 20
-22.43914697312291
 10
8.505718437912435
 20
-23.3547200932401
 10
8.505718437912435
 20
-22.45072839402135
 10
4.868175236465901
 20
-21.40768335007604
  0
LINE
  5
BC6
330
122F
100
AcDbEntity
  8
240
100
AcDbLine
 10
2.000000000000028
 20
-22.22499999999999
 30
0.0
 11
2.0
 21
-30.5
 31
0.0
  0
INSERT
  5
BC7
330
122F
100
AcDbEntity
  8
247
100
AcDbBlockReference
  2
*X14
 10
0.0
 20
0.0
 30
0.0
  0
LINE
  5
BC8
330
122F
100
AcDbEntity
  8
247
100
AcDbLine
 10
6.882545541329307
 20
-25.79045103955215
 30
0.0
 11
5.467765893925644
 21
-24.37567139214846
 31
0.0
  0
LINE
  5
BC9
330
122F
100
AcDbEntity
  8
247
100
AcDbLine
 10
7.033145168207965
 20
-24.59401224827038
 30
0.0
 11
5.586814224741658
 21
-23.14768130480413
 31
0.0
  0
LINE
  5
BCA
330
122F
100
AcDbEntity
  8
247
100
AcDbLine
 10
8.505718437912435
 20
-26.25588891648223
 30
0.0
 11
5.272350041154595
 21
-25.32873437546706
 31
0.0
  0
ARC
  5
BCB
330
122F
100
AcDbEntity
  8
247
100
AcDbCircle
 10
5.878596989395589
 20
-24.11506555222448
 30
0.0
 40
1.010430335998535
100
AcDbArc
 50
17.66957754739792
 51
180.2361598426716
  0
ARC
  5
BCC
330
122F
100
AcDbEntity
  8
247
100
AcDbCircle
 10
5.838191715958089
 20
-24.56597802781042
 30
0.0
 40
0.6062452793121338
100
AcDbArc
 50
351.6626016879293
 51
156.3381550951899
  0
LINE
  5
BCD
330
122F
100
AcDbEntity
  8
247
100
AcDbLine
 10
5.282914148698012
 20
-24.32266719371964
 30
0.0
 11
6.438029940731894
 21
-24.65388390240625
 31
0.0
  0
LINE
  5
BCE
330
122F
100
AcDbEntity
  8
247
100
AcDbLine
 10
6.253018573039867
 20
-25.60993687731619
 30
0.0
 11
4.868175236466043
 21
-24.22509354074233
 31
0.0
  0
LINE
  5
BCF
330
122F
100
AcDbEntity
  8
247
100
AcDbLine
 10
5.962796341641023
 20
-23.97267622775697
 30
0.0
 11
5.286448824886349
 21
-23.2963287110023
 31
0.0
  0
ARC
  5
BD0
330
122F
100
AcDbEntity
  8
247
100
AcDbCircle
 10
6.990077702286214
 20
-26.46797082566198
 30
0.0
 40
1.717727661132812
100
AcDbArc
 50
180.0
 51
0.0
  0
ARC
  5
BD1
330
122F
100
AcDbEntity
  8
247
100
AcDbCircle
 10
6.990077702286214
 20
-26.46797082566198
 30
0.0
 40
2.121902465820312
100
AcDbArc
 50
180.0
 51
0.0
  0
LINE
  5
BD2
330
122F
100
AcDbEntity
  8
247
100
AcDbLine
 10
5.272350041153401
 20
-26.46797082566198
 30
0.0
 11
5.272350041153401
 21
-25.74919030808385
 31
0.0
  0
LINE
  5
BD3
330
122F
100
AcDbEntity
  8
247
100
AcDbLine
 10
4.868175236465901
 20
-26.46797082566198
 30
0.0
 11
4.868175236465901
 21
-25.63329980515416
 31
0.0
  0
LINE
  5
BD4
330
122F
100
AcDbEntity
  8
247
100
AcDbLine
 10
5.272350041153401
 20
-25.53896997117024
 30
0.0
 11
5.272350041154595
 21
-25.32873437546706
 31
0.0
  0
LINE
  5
BD5
330
122F
100
AcDbEntity
  8
247
100
AcDbLine
 10
5.272350041153458
 20
-25.52729395753667
 30
0.0
 11
4.86817523646593
 21
-25.12311915284917
 31
0.0
  0
LINE
  5
BD6
330
122F
100
AcDbEntity
  8
247
100
AcDbLine
 10
4.868175236465901
 20
-25.42307946823987
 30
0.0
 11
5.272350041153401
 21
-25.53896997117024
 31
0.0
  0
LINE
  5
BD7
330
122F
100
AcDbEntity
  8
247
100
AcDbLine
 10
4.868175236465901
 20
-25.42307946823987
 30
0.0
 11
4.868175236466043
 21
-24.11923029866042
 31
0.0
  0
LINE
  5
BD8
330
122F
100
AcDbEntity
  8
247
100
AcDbLine
 10
4.868175236465901
 20
-25.63329980515416
 30
0.0
 11
5.272350041153401
 21
-25.74919030808385
 31
0.0
  0
LINE
  5
BD9
330
122F
100
AcDbEntity
  8
247
100
AcDbLine
 10
5.329018845699181
 20
-24.23692434392203
 30
0.0
 11
4.912182206186741
 21
-23.82008770440958
 31
0.0
  0
LINE
  5
BDA
330
122F
100
AcDbEntity
  8
247
100
AcDbLine
 10
5.623491604750427
 20
-25.42942271508022
 30
0.0
 11
4.868175236465987
 21
-24.67410634679575
 31
0.0
  0
LINE
  5
BDB
330
122F
100
AcDbEntity
  8
247
100
AcDbLine
 10
5.565587270221612
 20
-24.02447996239098
 30
0.0
 11
5.061611158830885
 21
-23.52050385100025
 31
0.0
  0
ARC
  5
BDC
330
122F
100
AcDbEntity
  8
247
100
AcDbCircle
 10
7.495296208145589
 20
-24.57864282273229
 30
0.0
 40
1.010421752929687
100
AcDbArc
 50
0.0
 51
130.3298406541676
  0
LINE
  5
BDD
330
122F
100
AcDbEntity
  8
247
100
AcDbLine
 10
8.505718437912435
 20
-26.25588891648223
 30
0.0
 11
8.505718437912435
 21
-24.57864282273229
 31
0.0
  0
LINE
  5
BDE
330
122F
100
AcDbEntity
  8
247
100
AcDbLine
 10
7.512072509618747
 20
-25.97096520178812
 30
0.0
 11
6.097286903938936
 21
-24.5561795961083
 31
0.0
  0
LINE
  5
BDF
330
122F
100
AcDbEntity
  8
247
100
AcDbLine
 10
8.141599477908159
 20
-26.15147936402408
 30
0.0
 11
6.431493516011528
 21
-24.44137340212748
 31
0.0
  0
LINE
  5
BE0
330
122F
100
AcDbEntity
  8
247
100
AcDbLine
 10
6.899581285387711
 20
-24.78623964032718
 30
0.0
 11
8.054731339309939
 21
-25.1174617979473
 31
0.0
  0
ARC
  5
BE1
330
122F
100
AcDbEntity
  8
247
100
AcDbCircle
 10
7.454875675919026
 20
-25.02955529831822
 30
0.0
 40
0.6062626242637635
100
AcDbArc
 50
351.6628542111488
 51
156.3381921591134
  0
LINE
  5
BE2
330
122F
100
AcDbEntity
  8
247
100
AcDbLine
 10
8.505718437912435
 20
-26.06658551797491
 30
0.0
 11
7.356341895667583
 21
-24.91720897573006
 31
0.0
  0
LINE
  5
BE3
330
122F
100
AcDbEntity
  8
247
100
AcDbLine
 10
8.505718437912435
 20
-25.61757271192149
 30
0.0
 11
7.985859562750221
 21
-25.09771383675925
 31
0.0
  0
LINE
  5
BE4
330
122F
100
AcDbEntity
  8
247
100
AcDbLine
 10
8.429961694562849
 20
-24.19477755041148
 30
0.0
 11
7.879161480466393
 21
-23.64397733631503
 31
0.0
  0
LINE
  5
BE5
330
122F
100
AcDbEntity
  8
247
100
AcDbLine
 10
8.505718437912435
 20
-25.16855990586802
 30
0.0
 11
7.022709184768814
 21
-23.6855506527244
 31
0.0
  0
LINE
  5
BE6
330
122F
100
AcDbEntity
  8
247
100
AcDbLine
 10
8.505718437912464
 20
-24.71954709981455
 30
0.0
 11
7.363080148100436
 21
-23.57690881000255
 31
0.0
  0
LINE
  5
BE7
330
122F
100
AcDbEntity
  8
247
100
AcDbLine
 10
7.325420841170057
 20
-24.43727511517912
 30
0.0
 11
6.00011460659482
 21
-23.11196888060388
 31
0.0
  0
LINE
  5
BE8
330
122F
100
AcDbEntity
  8
247
100
AcDbLine
 10
7.519771305801839
 20
-20.80152795456823
 30
0.0
 11
5.620158879044026
 21
-20.2568197026151
 31
0.0
  0
ARC
  5
BE9
330
122F
100
AcDbEntity
  8
247
100
AcDbCircle
 10
6.990077702286214
 20
-18.26327417038854
 30
0.0
 40
1.717727661132812
100
AcDbArc
 50
0.0
 51
194.1274364964119
  0
ARC
  5
BEA
330
122F
100
AcDbEntity
  8
247
100
AcDbCircle
 10
6.990077702286214
 20
-18.26327417038854
 30
0.0
 40
2.121902465820312
100
AcDbArc
 50
0.0
 51
194.7707939660941
  0
INSERT
  5
BEB
330
122F
100
AcDbEntity
  8
247
100
AcDbBlockReference
  2
*X15
 10
0.0
 20
0.0
 30
0.0
  0
LINE
  5
BEC
330
122F
100
AcDbEntity
  8
247
100
AcDbLine
 10
8.505718437912435
 20
-22.45072839402135
 30
0.0
 11
4.868175236465901
 21
-21.40768335007604
 31
0.0
  0
ARC
  5
BED
330
122F
100
AcDbEntity
  8
247
100
AcDbCircle
 10
6.181728092911214
 20
-20.06045434616979
 30
0.0
 40
1.313554763793945
100
AcDbArc
 50
143.4440121970573
 51
254.0001843876854
  0
LINE
  5
BEE
330
122F
100
AcDbEntity
  8
247
100
AcDbLine
 10
5.385066715958089
 20
-18.87527368210729
 30
0.0
 11
4.999065129044026
 21
-18.99699304245885
 31
0.0
  0
ARC
  5
BEF
330
122F
100
AcDbEntity
  8
247
100
AcDbCircle
 10
6.990077702286214
 20
-18.26327417038854
 30
0.0
 40
2.121903419494628
100
AcDbArc
 50
200.2296450633201
 51
208.5716889237166
  0
LINE
  5
BF0
330
122F
100
AcDbEntity
  8
247
100
AcDbLine
 10
4.868175236465901
 20
-22.45883081101354
 30
0.0
 11
4.868175236465901
 21
-21.40768335007604
 31
0.0
  0
LINE
  5
BF1
330
122F
100
AcDbEntity
  8
247
100
AcDbLine
 10
5.312755314590901
 20
-22.58631799363072
 30
0.0
 11
5.312755314590901
 21
-22.43914697312291
 31
0.0
  0
LINE
  5
BF2
330
122F
100
AcDbEntity
  8
247
100
AcDbLine
 10
5.312755314590901
 20
-22.58631799363072
 30
0.0
 11
4.868175236465901
 21
-22.45883081101354
 31
0.0
  0
ARC
  5
BF3
330
122F
100
AcDbEntity
  8
247
100
AcDbCircle
 10
6.990077702286214
 20
-18.26327417038854
 30
0.0
 40
1.717732429504394
100
AcDbArc
 50
200.8721834020736
 51
222.5419489373875
  0
ARC
  5
BF4
330
122F
100
AcDbEntity
  8
247
100
AcDbCircle
 10
5.737148014786214
 20
-19.84887597702916
 30
0.0
 40
0.4243833422660828
100
AcDbArc
 50
91.71012138206433
 51
253.9983983544486
  0
LWPOLYLINE
  5
BF5
330
122F
100
AcDbEntity
  8
247
100
AcDbPolyline
 90
        4
 70
     1
 43
0.0
 10
5.324290959122151
 20
-18.68253991745885
 10
4.938289372208089
 20
-18.80425927781041
 10
4.938289372208089
 20
-18.80425927781041
 10
5.324290959122151
 20
-18.68253991745885
1001
HATCH_DISTANCE
1040
1.0
1001
HATCH_DISPLAY
1070
     0
1001
HATCH_TYPE
1070
     7
  0
LWPOLYLINE
  5
BFB
330
122F
100
AcDbEntity
  8
247
100
AcDbPolyline
 90
        4
 70
     1
 43
0.0
 10
5.324290959122151
 20
-18.68253991745885
 10
4.938289372208089
 20
-18.80425927781041
 10
4.938289372208089
 20
-18.80425927781041
 10
5.324290959122151
 20
-18.68253991745885
  0
LWPOLYLINE
  5
C01
330
122F
100
AcDbEntity
  8
247
100
AcDbPolyline
 90
        4
 70
     1
 43
0.0
 10
5.324290959122151
 20
-18.68253991745885
 10
4.938289372208089
 20
-18.80425927781041
 10
4.938289372208089
 20
-18.80425927781041
 10
5.324290959122151
 20
-18.68253991745885
1001
HATCH_DISTANCE
1040
1.0
1001
HATCH_DISPLAY
1070
     0
1001
HATCH_TYPE
1070
     7
  0
LWPOLYLINE
  5
C07
330
122F
100
AcDbEntity
  8
247
100
AcDbPolyline
 90
        4
 70
     1
 43
0.0
 10
5.324290959122151
 20
-18.68253991745885
 10
4.938289372208089
 20
-18.80425927781041
 10
4.938289372208089
 20
-18.80425927781041
 10
5.324290959122151
 20
-18.68253991745885
  0
LINE
  5
C0D
330
122F
100
AcDbEntity
  8
247
100
AcDbLine
 10
5.324290959122151
 20
-18.68253991745885
 30
0.0
 11
4.938289372208089
 21
-18.80425927781041
 31
0.0
  0
LINE
  5
C0E
330
122F
100
AcDbEntity
  8
247
100
AcDbLine
 10
8.505718437912435
 20
-19.36035058640416
 30
0.0
 11
6.444438664200276
 21
-18.76928613327916
 31
0.0
  0
LINE
  5
C0F
330
122F
100
AcDbEntity
  8
247
100
AcDbLine
 10
6.444438664200276
 20
-19.94657800339635
 30
0.0
 11
6.444438664200276
 21
-18.76928613327916
 31
0.0
  0
ARC
  5
C10
330
122F
100
AcDbEntity
  8
247
100
AcDbCircle
 10
7.192165104629964
 20
-20.35018823288854
 30
0.0
 40
1.313568115234375
100
AcDbArc
 50
253.9997507017277
 51
34.96387329163082
  0
LINE
  5
C11
330
122F
100
AcDbEntity
  8
247
100
AcDbLine
 10
8.268642632248373
 20
-19.59744165085729
 30
0.0
 11
8.505718437912435
 21
-19.36035058640416
 31
0.0
  0
ARC
  5
C12
330
122F
100
AcDbEntity
  8
247
100
AcDbCircle
 10
7.636745182754964
 20
-20.39358422898229
 30
0.0
 40
0.4243830442428589
100
AcDbArc
 50
254.0002730571842
 51
74.00027305718427
  0
LINE
  5
C13
330
122F
100
AcDbEntity
  8
247
100
AcDbLine
 10
6.848613468887776
 20
-20.06246850632604
 30
0.0
 11
6.444438664200276
 21
-19.94657800339635
 31
0.0
  0
LINE
  5
C14
330
122F
100
AcDbEntity
  8
247
100
AcDbLine
 10
6.848613468887776
 20
-20.06246850632604
 30
0.0
 11
6.848613468887776
 21
-19.72610376023229
 31
0.0
  0
LINE
  5
C15
330
122F
100
AcDbEntity
  8
247
100
AcDbLine
 10
7.753719059708089
 20
-19.98564050339635
 30
0.0
 11
6.848613468887776
 21
-19.72610376023229
 31
0.0
  0
ARC
  5
C16
330
122F
100
AcDbEntity
  8
247
100
AcDbCircle
 10
7.261226383926839
 20
-18.20257470749791
 30
0.0
 40
3.43743896484375
100
AcDbArc
 50
245.2051773698423
 51
262.7948259620506
  0
LINE
  5
C17
330
122F
100
AcDbEntity
  8
240
100
AcDbLine
 10
14.65995642670498
 20
-26.5
 30
0.0
 11
18.540043573295
 21
-26.5
 31
0.0
  0
ARC
  5
C18
330
122F
100
AcDbEntity
  8
240
100
AcDbCircle
 10
14.65995642670503
 20
-26.80000000000001
 30
0.0
 40
0.3000000000000114
100
AcDbArc
 50
90.0000000000114
 51
149.9999999999998
  0
ARC
  5
C19
330
122F
100
AcDbEntity
  8
240
100
AcDbCircle
 10
18.540043573295
 20
-26.80000000000001
 30
0.0
 40
0.3000000000000078
100
AcDbArc
 50
29.99999999999973
 51
90.0
  0
LINE
  5
C1A
330
122F
100
AcDbEntity
  8
240
100
AcDbLine
 10
27.0
 20
-22.25000000000002
 30
0.0
 11
27.0
 21
-30.5
 31
0.0
  0
LINE
  5
C1B
330
122F
100
AcDbEntity
  8
240
100
AcDbLine
 10
11.30000000000001
 20
31.49999999999994
 30
0.0
 11
11.75
 21
31.2401923788646
 31
0.0
  0
LINE
  5
C1C
330
122F
100
AcDbEntity
  8
243
100
AcDbLine
 10
2.000000000000028
 20
22.50000000000005
 30
0.0
 11
23.00000000000005
 21
22.50000000000005
 31
0.0
  0
LINE
  5
C1D
330
122F
100
AcDbEntity
  8
240
100
AcDbLine
 10
0.0
 20
22.22499999999985
 30
0.0
 11
2.000000000000028
 21
22.22499999999985
 31
0.0
  0
LINE
  5
C1E
330
122F
100
AcDbEntity
  8
240
100
AcDbLine
 10
2.000000000000028
 20
22.22499999999996
 30
0.0
 11
2.0
 21
30.49999999999994
 31
0.0
  0
LINE
  5
C1F
330
122F
100
AcDbEntity
  8
240
100
AcDbLine
 10
3.0
 20
31.49999999999994
 30
0.0
 11
11.30000000000001
 21
31.49999999999994
 31
0.0
  0
ARC
  5
C20
330
122F
100
AcDbEntity
  8
240
100
AcDbCircle
 10
3.0
 20
30.49999999999994
 30
0.0
 40
1.0
100
AcDbArc
 50
90.0
 51
180.0
  0
LINE
  5
C21
330
122F
100
AcDbEntity
  8
240
100
AcDbLine
 10
21.90000000000003
 20
31.49999999999994
 30
0.0
 11
26.0
 21
31.49999999999994
 31
0.0
  0
LINE
  5
C22
330
122F
100
AcDbEntity
  8
243
100
AcDbLine
 10
23.00000000000005
 20
31.49999999999994
 30
0.0
 11
23.00000000000005
 21
22.50000000000005
 31
0.0
  0
LINE
  5
C23
330
122F
100
AcDbEntity
  8
240
100
AcDbLine
 10
14.65995642670498
 20
26.49999999999994
 30
0.0
 11
18.540043573295
 21
26.49999999999994
 31
0.0
  0
LINE
  5
C24
330
122F
100
AcDbEntity
  8
240
100
AcDbLine
 10
14.4001488055697
 20
26.65000000000003
 30
0.0
 11
11.75
 21
31.2401923788646
 31
0.0
  0
ARC
  5
C25
330
122F
100
AcDbEntity
  8
240
100
AcDbCircle
 10
14.65995642670503
 20
26.80000000000001
 30
0.0
 40
0.3000000000000078
100
AcDbArc
 50
209.9999999999997
 51
269.9999999999885
  0
LINE
  5
C26
330
122F
100
AcDbEntity
  8
240
100
AcDbLine
 10
18.79985119443034
 20
26.65000000000003
 30
0.0
 11
21.44999999999999
 21
31.2401923788646
 31
0.0
  0
ARC
  5
C27
330
122F
100
AcDbEntity
  8
240
100
AcDbCircle
 10
18.540043573295
 20
26.80000000000001
 30
0.0
 40
0.3000000000000114
100
AcDbArc
 50
270.0
 51
330.0000000000002
  0
LINE
  5
C28
330
122F
100
AcDbEntity
  8
240
100
AcDbLine
 10
21.44999999999999
 20
31.2401923788646
 30
0.0
 11
21.90000000000003
 21
31.49999999999994
 31
0.0
  0
LINE
  5
C29
330
122F
100
AcDbEntity
  8
240
100
AcDbLine
 10
27.00000000000002
 20
22.25
 30
0.0
 11
27.0
 21
30.49999999999994
 31
0.0
  0
ARC
  5
C2A
330
122F
100
AcDbEntity
  8
240
100
AcDbCircle
 10
26.0
 20
30.49999999999994
 30
0.0
 40
1.0
100
AcDbArc
 50
0.0
 51
90.0
  0
LINE
  5
C2B
330
122F
100
AcDbEntity
  8
240
100
AcDbLine
 10
37.00000000000002
 20
12.25
 30
0.0
 11
88.49999999999999
 21
12.25
 31
0.0
  0
LINE
  5
C2C
330
122F
100
AcDbEntity
  8
240
100
AcDbLine
 10
37.0
 20
-12.25000000000002
 30
0.0
 11
88.49999999999999
 21
-12.25
 31
0.0
  0
LINE
  5
C2D
330
122F
100
AcDbEntity
  8
246
100
AcDbLine
 10
57.0
 20
-2.899999999999977
 30
0.0
 11
57.0
 21
2.900000000000034
 31
0.0
  0
LINE
  5
C2E
330
122F
100
AcDbEntity
  8
246
100
AcDbLine
 10
70.0
 20
4.0
 30
0.0
 11
70.0
 21
-4.0
 31
0.0
  0
LINE
  5
C2F
330
122F
100
AcDbEntity
  8
246
100
AcDbLine
 10
65.49999999999997
 20
2.0
 30
0.0
 11
65.82136720504587
 21
1.44337567297407
 31
0.0
  0
LINE
  5
C30
330
122F
100
AcDbEntity
  8
246
100
AcDbLine
 10
65.5
 20
2.0
 30
0.0
 11
65.5
 21
1.029999694814875
 31
0.0
  0
LINE
  5
C31
330
122F
100
AcDbEntity
  8
246
100
AcDbLine
 10
67.69337567297407
 20
1.44337567297407
 30
0.0
 11
70.0
 21
3.75
 31
0.0
  0
LINE
  5
C32
330
122F
100
AcDbEntity
  8
246
100
AcDbLine
 10
57.0
 20
-2.0
 30
0.0
 11
65.5
 21
-1.999999999999943
 31
0.0
  0
LINE
  5
C33
330
122F
100
AcDbEntity
  8
246
100
AcDbLine
 10
58.0
 20
-3.899999999999977
 30
0.0
 11
59.99999999999997
 21
-3.899999999999977
 31
0.0
  0
ARC
  5
C34
330
122F
100
AcDbEntity
  8
246
100
AcDbCircle
 10
58.0
 20
-2.899999999999977
 30
0.0
 40
1.0
100
AcDbArc
 50
180.0
 51
270.0
  0
LINE
  5
C35
330
122F
100
AcDbEntity
  8
246
100
AcDbLine
 10
60.30000000000001
 20
-4.199999999999988
 30
0.0
 11
69.79999999999998
 21
-4.199999999999988
 31
0.0
  0
LINE
  5
C36
330
122F
100
AcDbEntity
  8
246
100
AcDbLine
 10
69.5
 20
-4.5
 30
0.0
 11
70.0
 21
-4.0
 31
0.0
  0
LINE
  5
C37
330
122F
100
AcDbEntity
  8
246
100
AcDbLine
 10
67.69337567297407
 20
-1.443375672974013
 30
0.0
 11
70.0
 21
-3.75
 31
0.0
  0
LINE
  5
C38
330
122F
100
AcDbEntity
  8
246
100
AcDbLine
 10
60.59999999999999
 20
-4.5
 30
0.0
 11
69.5
 21
-4.5
 31
0.0
  0
LINE
  5
C39
330
122F
100
AcDbEntity
  8
246
100
AcDbLine
 10
60.59999999999999
 20
-4.5
 30
0.0
 11
59.99999999999997
 21
-3.899999999999977
 31
0.0
  0
LINE
  5
C3A
330
122F
100
AcDbEntity
  8
246
100
AcDbLine
 10
67.69337567297404
 20
-0.7216878364869787
 30
0.0
 11
65.82136720504587
 21
-0.7216878364869787
 31
0.0
  0
LINE
  5
C3B
330
122F
100
AcDbEntity
  8
246
100
AcDbLine
 10
67.69337567297404
 20
-1.443375672974013
 30
0.0
 11
65.82136720504587
 21
-1.443375672974013
 31
0.0
  0
LINE
  5
C3C
330
122F
100
AcDbEntity
  8
246
100
AcDbLine
 10
67.69337567297404
 20
0.7216878364870354
 30
0.0
 11
65.82136720504587
 21
0.7216878364870354
 31
0.0
  0
LINE
  5
C3D
330
122F
100
AcDbEntity
  8
246
100
AcDbLine
 10
67.69337567297404
 20
1.44337567297407
 30
0.0
 11
65.82136720504587
 21
1.44337567297407
 31
0.0
  0
LINE
  5
C3E
330
122F
100
AcDbEntity
  8
246
100
AcDbLine
 10
65.82136720504587
 20
1.44337567297407
 30
0.0
 11
65.82136720504587
 21
-1.443375672974013
 31
0.0
  0
LINE
  5
C3F
330
122F
100
AcDbEntity
  8
246
100
AcDbLine
 10
65.49999999999997
 20
-1.999999999999943
 30
0.0
 11
65.82136720504587
 21
-1.443375672974013
 31
0.0
  0
LINE
  5
C40
330
122F
100
AcDbEntity
  8
246
100
AcDbLine
 10
65.5
 20
-1.999999999999943
 30
0.0
 11
65.5
 21
-1.029999694814875
 31
0.0
  0
LINE
  5
C41
330
122F
100
AcDbEntity
  8
246
100
AcDbLine
 10
67.69337567297404
 20
1.44337567297407
 30
0.0
 11
67.69337567297404
 21
-1.443375672974013
 31
0.0
  0
LINE
  5
C42
330
122F
100
AcDbEntity
  8
246
100
AcDbLine
 10
57.0
 20
2.000000000000056
 30
0.0
 11
65.5
 21
2.0
 31
0.0
  0
LINE
  5
C43
330
122F
100
AcDbEntity
  8
246
100
AcDbLine
 10
58.0
 20
3.900000000000034
 30
0.0
 11
59.99999999999997
 21
3.900000000000034
 31
0.0
  0
ARC
  5
C44
330
122F
100
AcDbEntity
  8
246
100
AcDbCircle
 10
58.0
 20
2.900000000000034
 30
0.0
 40
1.0
100
AcDbArc
 50
90.0
 51
180.0
  0
LINE
  5
C45
330
122F
100
AcDbEntity
  8
246
100
AcDbLine
 10
60.29999999999998
 20
4.199999999999988
 30
0.0
 11
69.79999999999998
 21
4.199999999999988
 31
0.0
  0
LINE
  5
C46
330
122F
100
AcDbEntity
  8
246
100
AcDbLine
 10
70.0
 20
4.0
 30
0.0
 11
69.5
 21
4.5
 31
0.0
  0
LINE
  5
C47
330
122F
100
AcDbEntity
  8
246
100
AcDbLine
 10
60.59999999999999
 20
4.5
 30
0.0
 11
69.5
 21
4.5
 31
0.0
  0
LINE
  5
C48
330
122F
100
AcDbEntity
  8
246
100
AcDbLine
 10
60.59999999999999
 20
4.5
 30
0.0
 11
59.99999999999997
 21
3.900000000000034
 31
0.0
  0
LINE
  5
C49
330
122F
100
AcDbEntity
  8
246
100
AcDbLine
 10
86.99999999999977
 20
4.736499012174476
 30
0.0
 11
87.00000000000031
 21
-4.736499012174192
 31
0.0
  0
LINE
  5
C4A
330
122F
100
AcDbEntity
  8
240
100
AcDbLine
 10
105.0
 20
0.0
 30
0.0
 11
105.0
 21
11.59289321881345
 31
0.0
  0
LINE
  5
C4B
330
122F
100
AcDbEntity
  8
241
100
AcDbLine
 10
104.0514718625759
 20
12.13812677388836
 30
0.0
 11
104.0514718625759
 21
-12.18543046357615
 31
0.0
  0
LINE
  5
C4C
330
122F
100
AcDbEntity
  8
241
100
AcDbLine
 10
91.5
 20
7.5
 30
0.0
 11
91.5
 21
0.0
 31
0.0
  0
LINE
  5
C4D
330
122F
100
AcDbEntity
  8
241
100
AcDbLine
 10
94.30000000000001
 20
9.800000000000011
 30
0.0
 11
94.30000000000001
 21
0.0
 31
0.0
  0
LINE
  5
C4E
330
122F
100
AcDbEntity
  8
241
100
AcDbLine
 10
94.0
 20
8.0
 30
0.0
 11
94.0
 21
0.0
 31
0.0
  0
LINE
  5
C4F
330
122F
100
AcDbEntity
  8
241
100
AcDbLine
 10
89.50000000000001
 20
9.0
 30
0.0
 11
89.50000000000001
 21
0.0
 31
0.0
  0
LINE
  5
C50
330
122F
100
AcDbEntity
  8
246
100
AcDbLine
 10
105.0
 20
-4.0
 30
0.0
 11
87.0
 21
-4.0
 31
0.0
  0
LINE
  5
C51
330
122F
100
AcDbEntity
  8
246
100
AcDbLine
 10
105.0
 20
-5.326239569296603
 30
0.0
 11
103.3999999999999
 21
-6.25
 31
0.0
  0
ARC
  5
C52
330
122F
100
AcDbEntity
  8
240
100
AcDbCircle
 10
104.0514718625759
 20
-11.90000000000014
 30
0.0
 40
0.5999999999999944
100
AcDbArc
 50
269.9999999999967
 51
314.9999999999994
  0
LINE
  5
C53
330
122F
100
AcDbEntity
  8
246
100
AcDbLine
 10
101.3999999999999
 20
-6.249999999999943
 30
0.0
 11
87.0
 21
-4.736499012174249
 31
0.0
  0
LINE
  5
C54
330
122F
100
AcDbEntity
  8
240
100
AcDbLine
 10
94.0
 20
-8.0
 30
0.0
 11
90.5
 21
-8.0
 31
0.0
  0
LINE
  5
C55
330
122F
100
AcDbEntity
  8
242
100
AcDbLine
 10
94.0
 20
-7.5
 30
0.0
 11
91.5
 21
-7.5
 31
0.0
  0
LINE
  5
C56
330
122F
100
AcDbEntity
  8
241
100
AcDbLine
 10
91.5
 20
-7.5
 30
0.0
 11
91.5
 21
0.0
 31
0.0
  0
LINE
  5
C57
330
122F
100
AcDbEntity
  8
241
100
AcDbLine
 10
89.50000000000001
 20
-9.0
 30
0.0
 11
89.50000000000001
 21
0.0
 31
0.0
  0
LINE
  5
C58
330
122F
100
AcDbEntity
  8
240
100
AcDbLine
 10
89.50000000000001
 20
-11.25
 30
0.0
 11
89.50000000000001
 21
-9.0
 31
0.0
  0
ARC
  5
C59
330
122F
100
AcDbEntity
  8
240
100
AcDbCircle
 10
88.49999999999999
 20
-11.25
 30
0.0
 40
0.9999999999999857
100
AcDbArc
 50
270.0
 51
0.0
  0
ARC
  5
C5A
330
122F
100
AcDbEntity
  8
240
100
AcDbCircle
 10
90.5
 20
-9.0
 30
0.0
 40
1.0
100
AcDbArc
 50
90.0
 51
180.0
  0
LINE
  5
C5B
330
122F
100
AcDbEntity
  8
242
100
AcDbLine
 10
91.50000000000003
 20
-7.5
 30
0.0
 11
91.00000000000003
 21
-8.0
 31
0.0
  0
LINE
  5
C5C
330
122F
100
AcDbEntity
  8
241
100
AcDbLine
 10
94.30000000000001
 20
-9.800000000000011
 30
0.0
 11
94.30000000000001
 21
0.0
 31
0.0
  0
LINE
  5
C5D
330
122F
100
AcDbEntity
  8
241
100
AcDbLine
 10
94.0
 20
-8.0
 30
0.0
 11
94.0
 21
0.0
 31
0.0
  0
LINE
  5
C5E
330
122F
100
AcDbEntity
  8
240
100
AcDbLine
 10
94.9
 20
-12.5
 30
0.0
 11
104.0514718625759
 21
-12.50000000000017
 31
0.0
  0
LINE
  5
C5F
330
122F
100
AcDbEntity
  8
241
100
AcDbLine
 10
101.0
 20
-9.997092630102372
 30
0.0
 11
94.30000000000001
 21
-9.997092630102372
 31
0.0
  0
LINE
  5
C60
330
122F
100
AcDbEntity
  8
241
100
AcDbLine
 10
101.0
 20
-11.49709263010234
 30
0.0
 11
94.30000000000001
 21
-11.49709263010237
 31
0.0
  0
LINE
  5
C61
330
122F
100
AcDbEntity
  8
240
100
AcDbLine
 10
94.30000000000001
 20
-11.89999999999997
 30
0.0
 11
94.30000000000001
 21
-9.800000000000011
 31
0.0
  0
ARC
  5
C62
330
122F
100
AcDbEntity
  8
240
100
AcDbCircle
 10
94.9
 20
-11.89999999999997
 30
0.0
 40
0.5999999999999944
100
AcDbArc
 50
180.0
 51
270.0
  0
LINE
  5
C63
330
122F
100
AcDbEntity
  8
240
100
AcDbLine
 10
94.0
 20
-9.5
 30
0.0
 11
94.0
 21
-8.0
 31
0.0
  0
LINE
  5
C64
330
122F
100
AcDbEntity
  8
240
100
AcDbLine
 10
94.0
 20
-9.5
 30
0.0
 11
94.30000000000001
 21
-9.800000000000011
 31
0.0
  0
LINE
  5
C65
330
122F
100
AcDbEntity
  8
241
100
AcDbLine
 10
101.0
 20
-11.49709263010234
 30
0.0
 11
101.0
 21
-9.997092630102372
 31
0.0
  0
LINE
  5
C66
330
122F
100
AcDbEntity
  8
241
100
AcDbLine
 10
101.0
 20
1.5
 30
0.0
 11
94.30000000000001
 21
1.5
 31
0.0
  0
LINE
  5
C67
330
122F
100
AcDbEntity
  8
241
100
AcDbLine
 10
101.0
 20
-1.5
 30
0.0
 11
94.30000000000001
 21
-1.5
 31
0.0
  0
LINE
  5
C68
330
122F
100
AcDbEntity
  8
246
100
AcDbLine
 10
101.3999999999999
 20
-5.25
 30
0.0
 11
103.3
 21
-5.25
 31
0.0
  0
LINE
  5
C69
330
122F
100
AcDbEntity
  8
246
100
AcDbLine
 10
101.3999999999999
 20
-5.25
 30
0.0
 11
101.3999999999999
 21
-6.249999999999943
 31
0.0
  0
LINE
  5
C6A
330
122F
100
AcDbEntity
  8
246
100
AcDbLine
 10
103.3
 20
-6.25
 30
0.0
 11
103.3999999999999
 21
-6.25
 31
0.0
  0
LINE
  5
C6B
330
122F
100
AcDbEntity
  8
246
100
AcDbLine
 10
103.3
 20
-5.25
 30
0.0
 11
103.3
 21
-6.25
 31
0.0
  0
LINE
  5
C6C
330
122F
100
AcDbEntity
  8
241
100
AcDbLine
 10
101.0
 20
1.5
 30
0.0
 11
101.0
 21
0.0
 31
0.0
  0
LINE
  5
C6D
330
122F
100
AcDbEntity
  8
241
100
AcDbLine
 10
101.0
 20
-1.5
 30
0.0
 11
101.0
 21
0.0
 31
0.0
  0
LINE
  5
C6E
330
122F
100
AcDbEntity
  8
240
100
AcDbLine
 10
105.0
 20
0.0
 30
0.0
 11
105.0
 21
-11.59289321881345
 31
0.0
  0
ARC
  5
C6F
330
122F
100
AcDbEntity
  8
240
100
AcDbCircle
 10
104.4999999999999
 20
-11.59289321881345
 30
0.0
 40
0.500000000000004
100
AcDbArc
 50
315.0
 51
0.0
  0
LINE
  5
C70
330
122F
100
AcDbEntity
  8
240
100
AcDbLine
 10
104.4757359312879
 20
-12.32426406871209
 30
0.0
 11
104.8535533905932
 21
-11.94644660940673
 31
0.0
  0
LINE
  5
C71
330
122F
100
AcDbEntity
  8
246
100
AcDbLine
 10
105.0
 20
4.0
 30
0.0
 11
87.0
 21
4.0
 31
0.0
  0
LINE
  5
C72
330
122F
100
AcDbEntity
  8
246
100
AcDbLine
 10
105.0
 20
5.326239569296603
 30
0.0
 11
103.3999999999999
 21
6.25
 31
0.0
  0
ARC
  5
C73
330
122F
100
AcDbEntity
  8
240
100
AcDbCircle
 10
104.0514718625759
 20
11.9000000000002
 30
0.0
 40
0.5999999999999888
100
AcDbArc
 50
45.0
 51
90.00000000000325
  0
LINE
  5
C74
330
122F
100
AcDbEntity
  8
246
100
AcDbLine
 10
101.3999999999999
 20
6.249999999999943
 30
0.0
 11
87.0
 21
4.736499012174249
 31
0.0
  0
LINE
  5
C75
330
122F
100
AcDbEntity
  8
240
100
AcDbLine
 10
94.0
 20
8.0
 30
0.0
 11
90.5
 21
8.0
 31
0.0
  0
LINE
  5
C76
330
122F
100
AcDbEntity
  8
242
100
AcDbLine
 10
94.0
 20
7.5
 30
0.0
 11
91.5
 21
7.5
 31
0.0
  0
LINE
  5
C77
330
122F
100
AcDbEntity
  8
240
100
AcDbLine
 10
89.50000000000001
 20
11.25
 30
0.0
 11
89.50000000000001
 21
9.0
 31
0.0
  0
ARC
  5
C78
330
122F
100
AcDbEntity
  8
240
100
AcDbCircle
 10
90.5
 20
9.0
 30
0.0
 40
1.0
100
AcDbArc
 50
180.0
 51
270.0
  0
LINE
  5
C79
330
122F
100
AcDbEntity
  8
242
100
AcDbLine
 10
91.50000000000003
 20
7.5
 30
0.0
 11
91.00000000000003
 21
8.0
 31
0.0
  0
ARC
  5
C7A
330
122F
100
AcDbEntity
  8
240
100
AcDbCircle
 10
88.49999999999999
 20
11.25
 30
0.0
 40
1.0
100
AcDbArc
 50
0.0
 51
90.0
  0
LINE
  5
C7B
330
122F
100
AcDbEntity
  8
240
100
AcDbLine
 10
94.30000000000001
 20
9.800000000000011
 30
0.0
 11
94.30000000000001
 21
11.90000000000003
 31
0.0
  0
LINE
  5
C7C
330
122F
100
AcDbEntity
  8
240
100
AcDbLine
 10
94.0
 20
9.5
 30
0.0
 11
94.0
 21
8.0
 31
0.0
  0
LINE
  5
C7D
330
122F
100
AcDbEntity
  8
240
100
AcDbLine
 10
94.0
 20
9.5
 30
0.0
 11
94.30000000000001
 21
9.800000000000011
 31
0.0
  0
LINE
  5
C7E
330
122F
100
AcDbEntity
  8
246
100
AcDbLine
 10
101.3999999999999
 20
5.25
 30
0.0
 11
101.3999999999999
 21
6.249999999999943
 31
0.0
  0
LINE
  5
C7F
330
122F
100
AcDbEntity
  8
246
100
AcDbLine
 10
103.3
 20
5.25
 30
0.0
 11
103.3
 21
6.25
 31
0.0
  0
LINE
  5
C80
330
122F
100
AcDbEntity
  8
246
100
AcDbLine
 10
101.3999999999999
 20
5.25
 30
0.0
 11
103.3
 21
5.25
 31
0.0
  0
LINE
  5
C81
330
122F
100
AcDbEntity
  8
246
100
AcDbLine
 10
103.3
 20
6.25
 30
0.0
 11
103.3999999999999
 21
6.25
 31
0.0
  0
LINE
  5
C82
330
122F
100
AcDbEntity
  8
240
100
AcDbLine
 10
94.9
 20
12.5
 30
0.0
 11
104.0514718625759
 21
12.50000000000017
 31
0.0
  0
LINE
  5
C83
330
122F
100
AcDbEntity
  8
241
100
AcDbLine
 10
101.0
 20
11.49709263010237
 30
0.0
 11
94.30000000000001
 21
11.49709263010237
 31
0.0
  0
LINE
  5
C84
330
122F
100
AcDbEntity
  8
241
100
AcDbLine
 10
101.0
 20
9.997092630102372
 30
0.0
 11
94.30000000000001
 21
9.997092630102372
 31
0.0
  0
ARC
  5
C85
330
122F
100
AcDbEntity
  8
240
100
AcDbCircle
 10
94.9
 20
11.90000000000003
 30
0.0
 40
0.5999999999999944
100
AcDbArc
 50
90.0
 51
180.0
  0
LINE
  5
C86
330
122F
100
AcDbEntity
  8
241
100
AcDbLine
 10
101.0
 20
11.49709263010237
 30
0.0
 11
101.0
 21
9.997092630102372
 31
0.0
  0
LINE
  5
C87
330
122F
100
AcDbEntity
  8
240
100
AcDbLine
 10
104.8535533905932
 20
11.94644660940673
 30
0.0
 11
104.4757359312878
 21
12.32426406871212
 31
0.0
  0
ARC
  5
C88
330
122F
100
AcDbEntity
  8
240
100
AcDbCircle
 10
104.4999999999999
 20
11.59289321881345
 30
0.0
 40
0.5
100
AcDbArc
 50
0.0
 51
45.0
  0
ENDBLK
  5
C8A
330
122F
100
AcDbEntity
  8
0
100
AcDbBlockEnd
  0
BLOCK
  5
1230
330
1231
100
AcDbEntity
  8
0
100
AcDbBlockBegin
  2
*D2
 70
     1
 10
0.0
 20
0.0
 30
0.0
  3
*D2
  1

  0
LINE
  5
E1F
330
1231
100
AcDbEntity
  8
250
  6
Continuous
100
AcDbLine
 10
0.0
 20
22.72499999999985
 30
0.0
 11
0.0000000000000017
 21
50.0
 31
0.0
  0
LINE
  5
E20
330
1231
100
AcDbEntity
  8
250
  6
Continuous
100
AcDbLine
 10
105.0
 20
9.592893218813401
 30
0.0
 11
105.0
 21
50.0
 31
0.0
  0
LINE
  5
E21
330
1231
100
AcDbEntity
  8
250
  6
Continuous
100
AcDbLine
 10
2.230000000000001
 20
49.0
 30
0.0
 11
102.77
 21
49.0
 31
0.0
  0
INSERT
  5
E22
330
1231
100
AcDbEntity
  8
250
  6
Continuous
100
AcDbBlockReference
  2
_OPEN
 10
0.0000000000000016
 20
49.0
 30
0.0
 41
2.229999999999999
 42
2.229999999999999
 43
2.229999999999999
 50
180.0
  0
INSERT
  5
E23
330
1231
100
AcDbEntity
  8
250
  6
Continuous
100
AcDbBlockReference
  2
_OPEN
 10
105.0
 20
49.0
 30
0.0
 41
2.229999999999999
 42
2.229999999999999
 43
2.229999999999999
  0
TEXT
  5
E24
330
1231
100
AcDbEntity
  8
250
  6
Continuous
 62
    40
100
AcDbText
 10
48.00223214285715
 20
50.0
 30
0.0
 40
3.0
  1
105
100
AcDbText
  0
POINT
  5
E25
330
1231
100
AcDbEntity
  8
DEFPOINTS
  6
Continuous
 62
     0
100
AcDbPoint
 10
0.0
 20
22.22499999999985
 30
0.0
  0
POINT
  5
E26
330
1231
100
AcDbEntity
  8
DEFPOINTS
  6
Continuous
 62
     0
100
AcDbPoint
 10
105.0
 20
9.092893218813401
 30
0.0
  0
POINT
  5
E27
330
1231
100
AcDbEntity
  8
DEFPOINTS
  6
Continuous
 62
     0
100
AcDbPoint
 10
105.0
 20
49.0
 30
0.0
  0
ENDBLK
  5
DE2
330
1231
100
AcDbEntity
  8
0
100
AcDbBlockEnd
  0
BLOCK
  5
1232
330
1233
100
AcDbEntity
  8
0
100
AcDbBlockBegin
  2
*D3
 70
     1
 10
0.0
 20
0.0
 30
0.0
  3
*D3
  1

  0
LINE
  5
E28
330
1233
100
AcDbEntity
  8
250
  6
Continuous
100
AcDbLine
 10
27.0
 20
30.99999999999994
 30
0.0
 11
27.0
 21
43.0
 31
0.0
  0
LINE
  5
E29
330
1233
100
AcDbEntity
  8
250
  6
Continuous
100
AcDbLine
 10
105.0
 20
9.592893218813401
 30
0.0
 11
105.0
 21
43.0
 31
0.0
  0
LINE
  5
E2A
330
1233
100
AcDbEntity
  8
250
  6
Continuous
100
AcDbLine
 10
29.23
 20
42.0
 30
0.0
 11
102.77
 21
42.0
 31
0.0
  0
INSERT
  5
E2B
330
1233
100
AcDbEntity
  8
250
  6
Continuous
100
AcDbBlockReference
  2
_OPEN
 10
27.0
 20
42.0
 30
0.0
 41
2.229999999999999
 42
2.229999999999999
 43
2.229999999999999
 50
180.0
  0
INSERT
  5
E2C
330
1233
100
AcDbEntity
  8
250
  6
Continuous
100
AcDbBlockReference
  2
_OPEN
 10
105.0
 20
42.0
 30
0.0
 41
2.229999999999999
 42
2.229999999999999
 43
2.229999999999999
  0
TEXT
  5
E2D
330
1233
100
AcDbEntity
  8
250
  6
Continuous
 62
    40
100
AcDbText
 10
63.13392857142857
 20
43.0
 30
0.0
 40
3.0
  1
78
100
AcDbText
  0
POINT
  5
E2E
330
1233
100
AcDbEntity
  8
DEFPOINTS
  6
Continuous
 62
     0
100
AcDbPoint
 10
27.0
 20
30.49999999999994
 30
0.0
  0
POINT
  5
E2F
330
1233
100
AcDbEntity
  8
DEFPOINTS
  6
Continuous
 62
     0
100
AcDbPoint
 10
105.0
 20
9.092893218813401
 30
0.0
  0
POINT
  5
E30
330
1233
100
AcDbEntity
  8
DEFPOINTS
  6
Continuous
 62
     0
100
AcDbPoint
 10
105.0
 20
42.0
 30
0.0
  0
ENDBLK
  5
DEE
330
1233
100
AcDbEntity
  8
0
100
AcDbBlockEnd
  0
BLOCK
  5
1234
330
1235
100
AcDbEntity
  8
0
100
AcDbBlockBegin
  2
*D4
 70
     1
 10
0.0
 20
0.0
 30
0.0
  3
*D4
  1

  0
LINE
  5
E31
330
1235
100
AcDbEntity
  8
250
  6
Continuous
100
AcDbLine
 10
0.0
 20
22.72499999999985
 30
0.0
 11
0.0000000000000013
 21
43.0
 31
0.0
  0
LINE
  5
E32
330
1235
100
AcDbEntity
  8
250
  6
Continuous
100
AcDbLine
 10
27.0
 20
30.99999999999994
 30
0.0
 11
27.0
 21
43.0
 31
0.0
  0
LINE
  5
E33
330
1235
100
AcDbEntity
  8
250
  6
Continuous
100
AcDbLine
 10
2.230000000000001
 20
42.0
 30
0.0
 11
24.77
 21
42.0
 31
0.0
  0
INSERT
  5
E34
330
1235
100
AcDbEntity
  8
250
  6
Continuous
100
AcDbBlockReference
  2
_OPEN
 10
0.0000000000000012
 20
42.0
 30
0.0
 41
2.229999999999999
 42
2.229999999999999
 43
2.229999999999999
 50
180.0
  0
INSERT
  5
E35
330
1235
100
AcDbEntity
  8
250
  6
Continuous
100
AcDbBlockReference
  2
_OPEN
 10
27.0
 20
42.0
 30
0.0
 41
2.229999999999999
 42
2.229999999999999
 43
2.229999999999999
  0
TEXT
  5
E36
330
1235
100
AcDbEntity
  8
250
  6
Continuous
 62
    40
100
AcDbText
 10
10.63392857142857
 20
43.0
 30
0.0
 40
3.0
  1
27
100
AcDbText
  0
POINT
  5
E37
330
1235
100
AcDbEntity
  8
DEFPOINTS
  6
Continuous
 62
     0
100
AcDbPoint
 10
0.0
 20
22.22499999999985
 30
0.0
  0
POINT
  5
E38
330
1235
100
AcDbEntity
  8
DEFPOINTS
  6
Continuous
 62
     0
100
AcDbPoint
 10
27.0
 20
30.49999999999994
 30
0.0
  0
POINT
  5
E39
330
1235
100
AcDbEntity
  8
DEFPOINTS
  6
Continuous
 62
     0
100
AcDbPoint
 10
27.0
 20
42.0
 30
0.0
  0
ENDBLK
  5
DFA
330
1235
100
AcDbEntity
  8
0
100
AcDbBlockEnd
  0
BLOCK
  5
1236
330
1237
100
AcDbEntity
  8
0
100
AcDbBlockBegin
  2
*D5
 70
     1
 10
0.0
 20
0.0
 30
0.0
  3
*D5
  1

  0
LINE
  5
E83
330
1237
100
AcDbEntity
  8
250
  6
Continuous
100
AcDbLine
 10
105.4999999999999
 20
-4.0
 30
0.0
 11
120.0
 21
-4.000000000000004
 31
0.0
  0
LINE
  5
E84
330
1237
100
AcDbEntity
  8
250
  6
Continuous
100
AcDbLine
 10
105.4999999999999
 20
3.999999999999999
 30
0.0
 11
120.0
 21
3.999999999999995
 31
0.0
  0
LINE
  5
E85
330
1237
100
AcDbEntity
  8
250
  6
Continuous
100
AcDbLine
 10
119.0
 20
-1.770000000000004
 30
0.0
 11
119.0
 21
1.769999999999995
 31
0.0
  0
TEXT
  5
E86
330
1237
100
AcDbEntity
  8
250
  6
Continuous
 62
    40
100
AcDbText
 10
118.267814871422
 20
-6.745343875531617
 30
0.0
 40
3.0
  1
MAX.ø8
 50
90.0
100
AcDbText
  0
INSERT
  5
E87
330
1237
100
AcDbEntity
  8
250
  6
Continuous
100
AcDbBlockReference
  2
_OPEN
 10
119.0
 20
-4.000000000000004
 30
0.0
 41
2.229999999999999
 42
2.229999999999999
 43
2.229999999999999
 50
270.0
  0
INSERT
  5
E88
330
1237
100
AcDbEntity
  8
250
  6
Continuous
100
AcDbBlockReference
  2
_OPEN
 10
119.0
 20
3.999999999999995
 30
0.0
 41
2.229999999999999
 42
2.229999999999999
 43
2.229999999999999
 50
90.0
  0
POINT
  5
E89
330
1237
100
AcDbEntity
  8
DEFPOINTS
  6
Continuous
 62
     0
100
AcDbPoint
 10
105.0
 20
-4.0
 30
0.0
  0
POINT
  5
E8A
330
1237
100
AcDbEntity
  8
DEFPOINTS
  6
Continuous
 62
     0
100
AcDbPoint
 10
105.0
 20
4.0
 30
0.0
  0
POINT
  5
E8B
330
1237
100
AcDbEntity
  8
DEFPOINTS
  6
Continuous
 62
     0
100
AcDbPoint
 10
119.0
 20
3.999999999999995
 30
0.0
  0
ENDBLK
  5
E06
330
1237
100
AcDbEntity
  8
0
100
AcDbBlockEnd
  0
BLOCK
  5
1238
330
1239
100
AcDbEntity
  8
0
100
AcDbBlockBegin
  2
*D6
 70
     1
 10
0.0
 20
0.0
 30
0.0
  3
*D6
  1

  0
LINE
  5
E43
330
1239
100
AcDbEntity
  8
250
  6
Continuous
100
AcDbLine
 10
104.5514718625759
 20
-12.50000000000017
 30
0.0
 11
127.0
 21
-12.50000000000017
 31
0.0
  0
LINE
  5
E44
330
1239
100
AcDbEntity
  8
250
  6
Continuous
100
AcDbLine
 10
104.5514718625759
 20
12.50000000000022
 30
0.0
 11
127.0
 21
12.50000000000022
 31
0.0
  0
LINE
  5
E45
330
1239
100
AcDbEntity
  8
250
  6
Continuous
100
AcDbLine
 10
126.0
 20
-10.27000000000017
 30
0.0
 11
126.0
 21
10.27000000000022
 31
0.0
  0
INSERT
  5
E46
330
1239
100
AcDbEntity
  8
250
  6
Continuous
100
AcDbBlockReference
  2
_OPEN
 10
126.0
 20
-12.50000000000017
 30
0.0
 41
2.229999999999999
 42
2.229999999999999
 43
2.229999999999999
 50
270.0
  0
INSERT
  5
E47
330
1239
100
AcDbEntity
  8
250
  6
Continuous
100
AcDbBlockReference
  2
_OPEN
 10
126.0
 20
12.50000000000022
 30
0.0
 41
2.229999999999999
 42
2.229999999999999
 43
2.229999999999999
 50
90.0
  0
INSERT
  5
E48
330
1239
100
AcDbEntity
  8
250
  6
Continuous
 62
    40
100
AcDbBlockReference
  2
*X16
 10
0.0
 20
0.0
 30
0.0
  0
POINT
  5
E49
330
1239
100
AcDbEntity
  8
DEFPOINTS
  6
Continuous
 62
     0
100
AcDbPoint
 10
104.0514718625759
 20
-12.50000000000017
 30
0.0
  0
POINT
  5
E4A
330
1239
100
AcDbEntity
  8
DEFPOINTS
  6
Continuous
 62
     0
100
AcDbPoint
 10
104.0514718625759
 20
12.50000000000022
 30
0.0
  0
POINT
  5
E4B
330
1239
100
AcDbEntity
  8
DEFPOINTS
  6
Continuous
 62
     0
100
AcDbPoint
 10
126.0
 20
12.50000000000022
 30
0.0
  0
ENDBLK
  5
E12
330
1239
100
AcDbEntity
  8
0
100
AcDbBlockEnd
  0
BLOCK
  5
123A
330
123B
100
AcDbEntity
  8
0
100
AcDbBlockBegin
  2
*D7
 70
     1
 10
0.0
 20
0.0
 30
0.0
  3
*D7
  1

  0
LINE
  5
E4C
330
123B
100
AcDbEntity
  8
250
  6
Continuous
100
AcDbLine
 10
70.0
 20
-4.5
 30
0.0
 11
70.0
 21
-43.0
 31
0.0
  0
LINE
  5
E4D
330
123B
100
AcDbEntity
  8
250
  6
Continuous
100
AcDbLine
 10
105.0
 20
-12.09289321881345
 30
0.0
 11
105.0
 21
-43.0
 31
0.0
  0
LINE
  5
E4E
330
123B
100
AcDbEntity
  8
250
  6
Continuous
100
AcDbLine
 10
72.23
 20
-42.0
 30
0.0
 11
102.77
 21
-42.0
 31
0.0
  0
INSERT
  5
E4F
330
123B
100
AcDbEntity
  8
250
  6
Continuous
100
AcDbBlockReference
  2
_OPEN
 10
70.0
 20
-42.0
 30
0.0
 41
2.229999999999999
 42
2.229999999999999
 43
2.229999999999999
 50
180.0
  0
INSERT
  5
E50
330
123B
100
AcDbEntity
  8
250
  6
Continuous
100
AcDbBlockReference
  2
_OPEN
 10
105.0
 20
-42.0
 30
0.0
 41
2.229999999999999
 42
2.229999999999999
 43
2.229999999999999
  0
TEXT
  5
E51
330
123B
100
AcDbEntity
  8
250
  6
Continuous
 62
    40
100
AcDbText
 10
79.97678571428571
 20
-41.0
 30
0.0
 40
3.0
  1
26～42
100
AcDbText
  0
POINT
  5
E52
330
123B
100
AcDbEntity
  8
DEFPOINTS
  6
Continuous
 62
     0
100
AcDbPoint
 10
70.0
 20
-4.0
 30
0.0
  0
POINT
  5
E53
330
123B
100
AcDbEntity
  8
DEFPOINTS
  6
Continuous
 62
     0
100
AcDbPoint
 10
105.0
 20
-11.59289321881345
 30
0.0
  0
POINT
  5
E54
330
123B
100
AcDbEntity
  8
DEFPOINTS
  6
Continuous
 62
     0
100
AcDbPoint
 10
105.0
 20
-42.0
 30
0.0
  0
ENDBLK
  5
E1E
330
123B
100
AcDbEntity
  8
0
100
AcDbBlockEnd
  0
BLOCK
  5
123C
330
123D
100
AcDbEntity
  8
0
100
AcDbBlockBegin
  2
*D8
 70
     1
 10
0.0
 20
0.0
 30
0.0
  3
*D8
  1

  0
LINE
  5
FAF
330
123D
100
AcDbEntity
  8
250
100
AcDbLine
 10
94.30000000000001
 20
12.40000000000003
 30
0.0
 11
94.30000000000001
 21
23.14471704226832
 31
0.0
  0
LINE
  5
FB0
330
123D
100
AcDbEntity
  8
250
100
AcDbLine
 10
104.9999999999999
 20
12.09289321881345
 30
0.0
 11
104.9999999999999
 21
23.14471704226832
 31
0.0
  0
LINE
  5
FB1
330
123D
100
AcDbEntity
  8
250
100
AcDbLine
 10
96.53000000000002
 20
22.14471704226832
 30
0.0
 11
102.7699999999999
 21
22.14471704226832
 31
0.0
  0
INSERT
  5
FB2
330
123D
100
AcDbEntity
  8
250
100
AcDbBlockReference
  2
_OPEN
 10
94.30000000000001
 20
22.14471704226832
 30
0.0
 41
2.229999999999999
 42
2.229999999999999
 43
2.229999999999999
 50
180.0
  0
INSERT
  5
FB3
330
123D
100
AcDbEntity
  8
250
100
AcDbBlockReference
  2
_OPEN
 10
104.9999999999999
 20
22.14471704226832
 30
0.0
 41
2.229999999999999
 42
2.229999999999999
 43
2.229999999999999
  0
TEXT
  5
FB4
330
123D
100
AcDbEntity
  8
250
  6
Continuous
 62
    40
100
AcDbText
 10
94.43794642857138
 20
24.64471704226832
 30
0.0
 40
3.0
  1
10.7
100
AcDbText
  0
POINT
  5
FB5
330
123D
100
AcDbEntity
  8
DEFPOINTS
 62
     0
100
AcDbPoint
 10
94.30000000000001
 20
11.90000000000003
 30
0.0
  0
POINT
  5
FB6
330
123D
100
AcDbEntity
  8
DEFPOINTS
 62
     0
100
AcDbPoint
 10
104.9999999999999
 20
11.59289321881345
 30
0.0
  0
POINT
  5
FB7
330
123D
100
AcDbEntity
  8
DEFPOINTS
 62
     0
100
AcDbPoint
 10
104.9999999999999
 20
22.14471704226832
 30
0.0
  0
ENDBLK
  5
FB9
330
123D
100
AcDbEntity
  8
0
100
AcDbBlockEnd
  0
BLOCK
  5
123E
330
123F
100
AcDbEntity
  8
0
100
AcDbBlockBegin
  2
*D9
 70
     1
 10
0.0
 20
0.0
 30
0.0
  3
*D9
  1

  0
LINE
  5
FBC
330
123F
100
AcDbEntity
  8
250
100
AcDbLine
 10
104.9999999999999
 20
12.09289321881345
 30
0.0
 11
104.9999999999999
 21
17.9740617911449
 31
0.0
  0
LINE
  5
FBD
330
123F
100
AcDbEntity
  8
250
100
AcDbLine
 10
108.8999999999999
 20
12.09289321881345
 30
0.0
 11
108.8999999999999
 21
17.9740617911449
 31
0.0
  0
LINE
  5
FBE
330
123F
100
AcDbEntity
  8
250
100
AcDbLine
 10
104.9999999999999
 20
16.9740617911449
 30
0.0
 11
108.8999999999999
 21
16.9740617911449
 31
0.0
  0
LINE
  5
FBF
330
123F
100
AcDbEntity
  8
250
100
AcDbLine
 10
102.7699999999999
 20
16.9740617911449
 30
0.0
 11
100.5399999999999
 21
16.9740617911449
 31
0.0
  0
LINE
  5
FC0
330
123F
100
AcDbEntity
  8
250
100
AcDbLine
 10
111.1299999999999
 20
16.9740617911449
 30
0.0
 11
113.3599999999999
 21
16.9740617911449
 31
0.0
  0
INSERT
  5
FC1
330
123F
100
AcDbEntity
  8
250
100
AcDbBlockReference
  2
_OPEN
 10
104.9999999999999
 20
16.9740617911449
 30
0.0
 41
2.229999999999999
 42
2.229999999999999
 43
2.229999999999999
  0
INSERT
  5
FC2
330
123F
100
AcDbEntity
  8
250
100
AcDbBlockReference
  2
_OPEN
 10
108.8999999999999
 20
16.9740617911449
 30
0.0
 41
2.229999999999999
 42
2.229999999999999
 43
2.229999999999999
 50
180.0
  0
TEXT
  5
FC3
330
123F
100
AcDbEntity
  8
250
  6
Continuous
 62
    40
100
AcDbText
 10
106.5124999999999
 20
17.9740617911449
 30
0.0
 40
3.0
  1
3.9
100
AcDbText
  0
POINT
  5
FC4
330
123F
100
AcDbEntity
  8
DEFPOINTS
 62
     0
100
AcDbPoint
 10
104.9999999999999
 20
11.59289321881345
 30
0.0
  0
POINT
  5
FC5
330
123F
100
AcDbEntity
  8
DEFPOINTS
 62
     0
100
AcDbPoint
 10
108.8999999999999
 20
11.59289321881345
 30
0.0
  0
POINT
  5
FC6
330
123F
100
AcDbEntity
  8
DEFPOINTS
 62
     0
100
AcDbPoint
 10
108.8999999999999
 20
16.9740617911449
 30
0.0
  0
ENDBLK
  5
FC8
330
123F
100
AcDbEntity
  8
0
100
AcDbBlockEnd
  0
BLOCK
  5
1240
330
1241
100
AcDbEntity
  8
0
100
AcDbBlockBegin
  2
*D10
 70
     1
 10
0.0
 20
0.0
 30
0.0
  3
*D10
  1

  0
LINE
  5
FD0
330
1241
100
AcDbEntity
  8
250
100
AcDbLine
 10
105.5
 20
9.6
 30
0.0
 11
123.5642999462896
 21
9.6
 31
0.0
  0
LINE
  5
FD1
330
1241
100
AcDbEntity
  8
250
100
AcDbLine
 10
105.5
 20
-9.599999999999998
 30
0.0
 11
123.5642999462896
 21
-9.6
 31
0.0
  0
LINE
  5
FD2
330
1241
100
AcDbEntity
  8
250
100
AcDbLine
 10
122.5642999462896
 20
7.370000000000001
 30
0.0
 11
122.5642999462896
 21
-7.370000000000001
 31
0.0
  0
INSERT
  5
FD3
330
1241
100
AcDbEntity
  8
250
100
AcDbBlockReference
  2
_OPEN
 10
122.5642999462896
 20
9.6
 30
0.0
 41
2.229999999999999
 42
2.229999999999999
 43
2.229999999999999
 50
90.0
  0
INSERT
  5
FD4
330
1241
100
AcDbEntity
  8
250
100
AcDbBlockReference
  2
_OPEN
 10
122.5642999462896
 20
-9.6
 30
0.0
 41
2.229999999999999
 42
2.229999999999999
 43
2.229999999999999
 50
270.0
  0
TEXT
  5
FD5
330
1241
100
AcDbEntity
  8
250
  6
Continuous
 62
    40
100
AcDbText
 10
121.5642999462896
 20
-6.366071428571431
 30
0.0
 40
3.0
  1
∅19.2
 50
90.0
100
AcDbText
  0
POINT
  5
FD6
330
1241
100
AcDbEntity
  8
DEFPOINTS
 62
     0
100
AcDbPoint
 10
105.0
 20
9.6
 30
0.0
  0
POINT
  5
FD7
330
1241
100
AcDbEntity
  8
DEFPOINTS
 62
     0
100
AcDbPoint
 10
105.0
 20
-9.599999999999998
 30
0.0
  0
POINT
  5
FD8
330
1241
100
AcDbEntity
  8
DEFPOINTS
 62
     0
100
AcDbPoint
 10
122.5642999462896
 20
-9.6
 30
0.0
  0
ENDBLK
  5
FDA
330
1241
100
AcDbEntity
  8
0
100
AcDbBlockEnd
  0
BLOCK
  5
1242
330
1243
100
AcDbEntity
  8
0
100
AcDbBlockBegin
  2
*D11
 70
     1
 10
0.0
 20
0.0
 30
0.0
  3
*D11
  1

  0
LINE
  5
FDD
330
1243
100
AcDbEntity
  8
250
100
AcDbLine
 10
109.3999999999999
 20
6.600000000000001
 30
0.0
 11
112.8999999999999
 21
6.600000000000001
 31
0.0
  0
LINE
  5
FDE
330
1243
100
AcDbEntity
  8
250
100
AcDbLine
 10
109.3999999999999
 20
-6.600000000000001
 30
0.0
 11
112.8999999999999
 21
-6.600000000000001
 31
0.0
  0
LINE
  5
FDF
330
1243
100
AcDbEntity
  8
250
100
AcDbLine
 10
111.8999999999999
 20
4.370000000000003
 30
0.0
 11
111.8999999999999
 21
-4.370000000000003
 31
0.0
  0
INSERT
  5
FE0
330
1243
100
AcDbEntity
  8
250
100
AcDbBlockReference
  2
_OPEN
 10
111.8999999999999
 20
6.600000000000001
 30
0.0
 41
2.229999999999999
 42
2.229999999999999
 43
2.229999999999999
 50
90.0
  0
INSERT
  5
FE1
330
1243
100
AcDbEntity
  8
250
100
AcDbBlockReference
  2
_OPEN
 10
111.8999999999999
 20
-6.600000000000001
 30
0.0
 41
2.229999999999999
 42
2.229999999999999
 43
2.229999999999999
 50
270.0
  0
TEXT
  5
FE2
330
1243
100
AcDbEntity
  8
250
  6
Continuous
 62
    40
100
AcDbText
 10
117.3999999999999
 20
-6.366071428571431
 30
0.0
 40
3.0
  1
∅13.2
 50
90.0
100
AcDbText
  0
POINT
  5
FE3
330
1243
100
AcDbEntity
  8
DEFPOINTS
 62
     0
100
AcDbPoint
 10
108.8999999999999
 20
6.600000000000001
 30
0.0
  0
POINT
  5
FE4
330
1243
100
AcDbEntity
  8
DEFPOINTS
 62
     0
100
AcDbPoint
 10
108.8999999999999
 20
-6.600000000000001
 30
0.0
  0
POINT
  5
FE5
330
1243
100
AcDbEntity
  8
DEFPOINTS
 62
     0
100
AcDbPoint
 10
111.8999999999999
 20
-6.600000000000001
 30
0.0
  0
ENDBLK
  5
FE7
330
1243
100
AcDbEntity
  8
0
100
AcDbBlockEnd
  0
BLOCK
  5
1244
330
1245
100
AcDbEntity
  8
0
100
AcDbBlockBegin
  2
*X12
 70
     1
 10
0.0
 20
0.0
 30
0.0
  3
*X12
  1

  0
TEXT
  5
1170
330
1245
100
AcDbEntity
  8
250
  6
Continuous
 62
    40
100
AcDbText
 10
127.6649852934813
 20
-4.223214285714249
 30
0.0
 40
3.0
  1
∅
 50
90.0
100
AcDbText
  0
TEXT
  5
1171
330
1245
100
AcDbEntity
  8
250
  6
Continuous
 62
    40
100
AcDbText
 10
127.6649852934813
 20
-1.508928571428541
 30
0.0
 40
3.0
  1
25
 50
90.0
100
AcDbText
  0
ENDBLK
  5
11DB
330
1245
100
AcDbEntity
  8
0
100
AcDbBlockEnd
  0
BLOCK
  5
1246
330
1247
100
AcDbEntity
  8
0
100
AcDbBlockBegin
  2
*X13
 70
     1
 10
0.0
 20
0.0
 30
0.0
  3
*X13
  1

  0
LINE
  5
1173
330
1247
100
AcDbEntity
  8
247
100
AcDbLine
 10
4.909940193653803
 20
-22.47080727371621
 30
0.0
 11
4.868175236465902
 21
-22.42904231652831
 31
0.0
  0
LINE
  5
1174
330
1247
100
AcDbEntity
  8
247
100
AcDbLine
 10
5.333137125622976
 20
-22.44499139963193
 30
0.0
 11
4.868175236465902
 21
-21.98002951047486
 31
0.0
  0
LINE
  5
1175
330
1247
100
AcDbEntity
  8
247
100
AcDbLine
 10
5.962665370504439
 20
-22.62550683845993
 30
0.0
 11
4.868175236465902
 21
-21.5310167044214
 31
0.0
  0
LINE
  5
1176
330
1247
100
AcDbEntity
  8
247
100
AcDbLine
 10
6.592193615385908
 20
-22.80602227728794
 30
0.0
 11
5.324784955762302
 21
-21.53861361766434
 31
0.0
  0
LINE
  5
1177
330
1247
100
AcDbEntity
  8
247
100
AcDbLine
 10
7.22172186026737
 20
-22.98653771611594
 30
0.0
 11
5.954310737193279
 21
-21.71912659304185
 31
0.0
  0
LINE
  5
1178
330
1247
100
AcDbEntity
  8
247
100
AcDbLine
 10
7.851250105148834
 20
-23.16705315494395
 30
0.0
 11
6.583836518624254
 21
-21.89963956841937
 31
0.0
  0
LINE
  5
1179
330
1247
100
AcDbEntity
  8
247
100
AcDbLine
 10
8.480778350030295
 20
-23.34756859377195
 30
0.0
 11
7.213362300055233
 21
-22.08015254379689
 31
0.0
  0
LINE
  5
117A
330
1247
100
AcDbEntity
  8
247
100
AcDbLine
 10
8.505718437912439
 20
-22.92349587560064
 30
0.0
 11
7.842888081486195
 21
-22.2606655191744
 31
0.0
  0
LINE
  5
117B
330
1247
100
AcDbEntity
  8
247
100
AcDbLine
 10
8.505718437912435
 20
-22.47448306954719
 30
0.0
 11
8.472413862917174
 21
-22.44117849455192
 31
0.0
  0
ENDBLK
  5
11DD
330
1247
100
AcDbEntity
  8
0
100
AcDbBlockEnd
  0
BLOCK
  5
1248
330
1249
100
AcDbEntity
  8
0
100
AcDbBlockBegin
  2
*X14
 70
     1
 10
0.0
 20
0.0
 30
0.0
  3
*X14
  1

  0
LINE
  5
1189
330
1249
100
AcDbEntity
  8
247
100
AcDbLine
 10
6.219831888421405
 20
-28.27082702901838
 30
0.0
 11
5.187221498929807
 21
-27.23821663952679
 31
0.0
  0
LINE
  5
118A
330
1249
100
AcDbEntity
  8
247
100
AcDbLine
 10
6.986344694474852
 20
-28.58832702901838
 30
0.0
 11
6.296375144608067
 21
-27.8983574791516
 31
0.0
  0
LINE
  5
118B
330
1249
100
AcDbEntity
  8
247
100
AcDbLine
 10
5.559691048796594
 20
-27.16167338334012
 30
0.0
 11
4.869721498929811
 21
-26.47170383347334
 31
0.0
  0
LINE
  5
118C
330
1249
100
AcDbEntity
  8
247
100
AcDbLine
 10
7.306031439822299
 20
-28.45900096831237
 30
0.0
 11
7.020236694643017
 21
-28.17320622313309
 31
0.0
  0
LINE
  5
118D
330
1249
100
AcDbEntity
  8
247
100
AcDbLine
 10
5.272350041153402
 20
-26.42531956964348
 30
0.0
 11
4.868175236465902
 21
-26.02114476495598
 31
0.0
  0
LINE
  5
118E
330
1249
100
AcDbEntity
  8
247
100
AcDbLine
 10
7.623531439822292
 20
-28.32748816225892
 30
0.0
 11
7.337736694643011
 21
-28.04169341707964
 31
0.0
  0
LINE
  5
118F
330
1249
100
AcDbEntity
  8
247
100
AcDbLine
 10
5.2723500411534
 20
-25.97630676359003
 30
0.0
 11
4.953932602236996
 21
-25.65788932467362
 31
0.0
  0
LINE
  5
1190
330
1249
100
AcDbEntity
  8
247
100
AcDbLine
 10
7.941031439822304
 20
-28.19597535620546
 30
0.0
 11
7.655236694643019
 21
-27.91018061102618
 31
0.0
  0
LINE
  5
1191
330
1249
100
AcDbEntity
  8
247
100
AcDbLine
 10
8.258531439822303
 20
-28.064462550152
 30
0.0
 11
7.972736694643025
 21
-27.77866780497272
 31
0.0
  0
LINE
  5
1192
330
1249
100
AcDbEntity
  8
247
100
AcDbLine
 10
8.525922029045644
 20
-27.8828403333219
 30
0.0
 11
8.240127283866363
 21
-27.59704558814262
 31
0.0
  0
LINE
  5
1193
330
1249
100
AcDbEntity
  8
247
100
AcDbLine
 10
8.657434835099101
 20
-27.5653403333219
 30
0.0
 11
8.371640089919824
 21
-27.27954558814262
 31
0.0
  0
LINE
  5
1194
330
1249
100
AcDbEntity
  8
247
100
AcDbLine
 10
8.788947641152562
 20
-27.2478403333219
 30
0.0
 11
8.503152895973281
 21
-26.96204558814262
 31
0.0
  0
LINE
  5
1195
330
1249
100
AcDbEntity
  8
247
100
AcDbLine
 10
8.920460447206018
 20
-26.93034033332189
 30
0.0
 11
8.634665702026737
 21
-26.64454558814261
 31
0.0
  0
LINE
  5
1196
330
1249
100
AcDbEntity
  8
247
100
AcDbLine
 10
9.051973253259481
 20
-26.61284033332189
 30
0.0
 11
8.707805840256187
 21
-26.26867292031859
 31
0.0
  0
LINE
  5
1197
330
1249
100
AcDbEntity
  8
247
100
AcDbLine
 10
9.111980634541794
 20
-26.22383490855075
 30
0.0
 11
8.707805840256185
 21
-25.81966011426514
 31
0.0
  0
LINE
  5
1198
330
1249
100
AcDbEntity
  8
247
100
AcDbLine
 10
9.111980634541794
 20
-25.77482210249729
 30
0.0
 11
8.707805840256185
 21
-25.37064730821168
 31
0.0
  0
LINE
  5
1199
330
1249
100
AcDbEntity
  8
247
100
AcDbLine
 10
9.111980634541792
 20
-25.32580929644383
 30
0.0
 11
8.707805840256183
 21
-24.92163450215822
 31
0.0
  0
LINE
  5
119A
330
1249
100
AcDbEntity
  8
247
100
AcDbLine
 10
9.111980634541792
 20
-24.87679649039037
 30
0.0
 11
8.707805840256183
 21
-24.47262169610476
 31
0.0
  0
LINE
  5
119B
330
1249
100
AcDbEntity
  8
247
100
AcDbLine
 10
9.111980634541794
 20
-24.42778368433692
 30
0.0
 11
8.707805840256185
 21
-24.0236088900513
 31
0.0
  0
LINE
  5
119C
330
1249
100
AcDbEntity
  8
247
100
AcDbLine
 10
9.111980634541794
 20
-23.97877087828346
 30
0.0
 11
8.707805840256185
 21
-23.57459608399785
 31
0.0
  0
LINE
  5
119D
330
1249
100
AcDbEntity
  8
247
100
AcDbLine
 10
9.111980634541794
 20
-23.52975807223
 30
0.0
 11
8.707805840256185
 21
-23.12558327794439
 31
0.0
  0
LINE
  5
119E
330
1249
100
AcDbEntity
  8
247
100
AcDbLine
 10
9.111980634541794
 20
-23.08074526617654
 30
0.0
 11
8.707805840256185
 21
-22.67657047189093
 31
0.0
  0
LINE
  5
119F
330
1249
100
AcDbEntity
  8
247
100
AcDbLine
 10
9.111980634541794
 20
-22.63173246012308
 30
0.0
 11
8.707805840256185
 21
-22.22755766583747
 31
0.0
  0
LINE
  5
11A0
330
1249
100
AcDbEntity
  8
247
100
AcDbLine
 10
5.201506261379579
 20
-18.72125808696087
 30
0.0
 11
4.964630728843272
 21
-18.48438255442456
 31
0.0
  0
LINE
  5
11A1
330
1249
100
AcDbEntity
  8
247
100
AcDbLine
 10
9.111980634541794
 20
-22.18271965406963
 30
0.0
 11
8.707805840256185
 21
-21.77854485978402
 31
0.0
  0
LINE
  5
11A2
330
1249
100
AcDbEntity
  8
247
100
AcDbLine
 10
9.111980634541792
 20
-21.73370684801617
 30
0.0
 11
8.707805840256183
 21
-21.32953205373056
 31
0.0
  0
LINE
  5
11A3
330
1249
100
AcDbEntity
  8
247
100
AcDbLine
 10
5.348646017247975
 20
-18.41938503677581
 30
0.0
 11
4.998784194053038
 21
-18.06952321358087
 31
0.0
  0
LINE
  5
11A4
330
1249
100
AcDbEntity
  8
247
100
AcDbLine
 10
5.386666338522188
 20
-18.00839255199656
 30
0.0
 11
5.032937659262807
 21
-17.65466387273718
 31
0.0
  0
LINE
  5
11A5
330
1249
100
AcDbEntity
  8
247
100
AcDbLine
 10
9.111980634541794
 20
-21.28469404196273
 30
0.0
 11
8.707805840256185
 21
-20.88051924767712
 31
0.0
  0
LINE
  5
11A6
330
1249
100
AcDbEntity
  8
247
100
AcDbLine
 10
5.424686659796401
 20
-17.59740006721733
 30
0.0
 11
5.135899162708593
 21
-17.30861257012953
 31
0.0
  0
LINE
  5
11A7
330
1249
100
AcDbEntity
  8
247
100
AcDbLine
 10
9.111980634541794
 20
-20.83568123590926
 30
0.0
 11
8.707805840256185
 21
-20.43150644162365
 31
0.0
  0
LINE
  5
11A8
330
1249
100
AcDbEntity
  8
247
100
AcDbLine
 10
9.111980634541792
 20
-20.3866684298558
 30
0.0
 11
8.707805840256187
 21
-19.98249363557019
 31
0.0
  0
LINE
  5
11A9
330
1249
100
AcDbEntity
  8
247
100
AcDbLine
 10
9.111980634541792
 20
-19.93765562380234
 30
0.0
 11
8.707805840256183
 21
-19.53348082951673
 31
0.0
  0
LINE
  5
11AA
330
1249
100
AcDbEntity
  8
247
100
AcDbLine
 10
5.622619361249122
 20
-17.34631996261658
 30
0.0
 11
5.355155726061487
 21
-17.07885632742895
 31
0.0
  0
LINE
  5
11AB
330
1249
100
AcDbEntity
  8
247
100
AcDbLine
 10
5.843641242905049
 20
-17.11832903821905
 30
0.0
 11
5.574412289414374
 21
-16.84910008472838
 31
0.0
  0
LINE
  5
11AC
330
1249
100
AcDbEntity
  8
247
100
AcDbLine
 10
6.064663124560978
 20
-16.89033811382152
 30
0.0
 11
5.793668852767262
 21
-16.61934384202781
 31
0.0
  0
LINE
  5
11AD
330
1249
100
AcDbEntity
  8
247
100
AcDbLine
 10
9.111980634541796
 20
-19.48864281774888
 30
0.0
 11
8.707805840256185
 21
-19.08446802346327
 31
0.0
  0
LINE
  5
11AE
330
1249
100
AcDbEntity
  8
247
100
AcDbLine
 10
6.335286426435976
 20
-16.71194860964306
 30
0.0
 11
6.012925416120151
 21
-16.38958759932724
 31
0.0
  0
LINE
  5
11AF
330
1249
100
AcDbEntity
  8
247
100
AcDbLine
 10
9.111980634541794
 20
-19.03963001169543
 30
0.0
 11
8.707805840256185
 21
-18.63545521740982
 31
0.0
  0
LINE
  5
11B0
330
1249
100
AcDbEntity
  8
247
100
AcDbLine
 10
6.734794730410129
 20
-16.66244410756376
 30
0.0
 11
6.395483617550448
 21
-16.32313299470408
 31
0.0
  0
LINE
  5
11B1
330
1249
100
AcDbEntity
  8
247
100
AcDbLine
 10
9.111980634541792
 20
-18.59061720564198
 30
0.0
 11
8.66599507052697
 21
-18.14463164162715
 31
0.0
  0
LINE
  5
11B2
330
1249
100
AcDbEntity
  8
247
100
AcDbLine
 10
7.134303034384279
 20
-16.61293960548446
 30
0.0
 11
6.792974398957439
 21
-16.27161097005762
 31
0.0
  0
LINE
  5
11B3
330
1249
100
AcDbEntity
  8
247
100
AcDbLine
 10
9.045403005519074
 20
-18.07502677056578
 30
0.0
 11
8.42165287846441
 21
-17.45127664351112
 31
0.0
  0
LINE
  5
11B4
330
1249
100
AcDbEntity
  8
247
100
AcDbLine
 10
7.877855603809229
 20
-16.90747936885594
 30
0.0
 11
7.19046518036445
 21
-16.22008894541116
 31
0.0
  0
LINE
  5
11B5
330
1249
100
AcDbEntity
  8
247
100
AcDbLine
 10
8.799706117999602
 20
-17.38031707699287
 30
0.0
 11
7.883983350985235
 21
-16.4645943099785
 31
0.0
  0
ENDBLK
  5
11DF
330
1249
100
AcDbEntity
  8
0
100
AcDbBlockEnd
  0
BLOCK
  5
124A
330
124B
100
AcDbEntity
  8
0
100
AcDbBlockBegin
  2
*X15
 70
     1
 10
0.0
 20
0.0
 30
0.0
  3
*X15
  1

  0
LINE
  5
11B7
330
124B
100
AcDbEntity
  8
247
100
AcDbLine
 10
6.082777079646224
 20
-21.39858012944135
 30
0.0
 11
4.928044480791922
 21
-20.24384753058705
 31
0.0
  0
LINE
  5
11B8
330
124B
100
AcDbEntity
  8
247
100
AcDbLine
 10
6.712303727324288
 20
-21.57909397106595
 30
0.0
 11
4.950147713672173
 21
-19.81693795741383
 31
0.0
  0
LINE
  5
11B9
330
124B
100
AcDbEntity
  8
247
100
AcDbLine
 10
7.185051346675414
 20
-21.60282878436362
 30
0.0
 11
5.927039326802523
 21
-20.34481676449073
 31
0.0
  0
LINE
  5
11BA
330
124B
100
AcDbEntity
  8
247
100
AcDbLine
 10
5.337330443219492
 20
-19.7551078809077
 30
0.0
 11
5.060903084042466
 21
-19.47868052173067
 31
0.0
  0
LINE
  5
11BB
330
124B
100
AcDbEntity
  8
247
100
AcDbLine
 10
7.621712528543528
 20
-21.59047716017828
 30
0.0
 11
6.556567467621402
 21
-20.52533209925616
 31
0.0
  0
LINE
  5
11BC
330
124B
100
AcDbEntity
  8
247
100
AcDbLine
 10
5.533189694495368
 20
-19.50195432613013
 30
0.0
 11
5.021236900973772
 21
-18.99000153260853
 31
0.0
  0
LINE
  5
11BD
330
124B
100
AcDbEntity
  8
247
100
AcDbLine
 10
7.879696312229802
 20
-21.39944813781109
 30
0.0
 11
7.18609560844031
 21
-20.7058474340216
 31
0.0
  0
LINE
  5
11BE
330
124B
100
AcDbEntity
  8
247
100
AcDbLine
 10
5.432818567695277
 20
-18.95257039327656
 30
0.0
 11
5.362604844555388
 21
-18.88235667013667
 31
0.0
  0
LINE
  5
11BF
330
124B
100
AcDbEntity
  8
247
100
AcDbLine
 10
8.136309448921732
 20
-21.20704846844956
 30
0.0
 11
7.723667738563562
 21
-20.7944067580914
 31
0.0
  0
LINE
  5
11C0
330
124B
100
AcDbEntity
  8
247
100
AcDbLine
 10
6.848613468887774
 20
-19.91935248841561
 30
0.0
 11
6.444438664200274
 21
-19.51517768372811
 31
0.0
  0
LINE
  5
11C1
330
124B
100
AcDbEntity
  8
247
100
AcDbLine
 10
8.317531918224077
 20
-20.93925813169846
 30
0.0
 11
7.993164688941716
 21
-20.6148909024161
 31
0.0
  0
LINE
  5
11C2
330
124B
100
AcDbEntity
  8
247
100
AcDbLine
 10
7.20720186368362
 20
-19.828928077158
 30
0.0
 11
6.444438664200275
 21
-19.06616487767466
 31
0.0
  0
LINE
  5
11C3
330
124B
100
AcDbEntity
  8
247
100
AcDbLine
 10
8.427141082976231
 20
-20.59985449039716
 30
0.0
 11
7.977783125568002
 21
-20.15049653298894
 31
0.0
  0
LINE
  5
11C4
330
124B
100
AcDbEntity
  8
247
100
AcDbLine
 10
7.935618685220958
 20
-20.10833209264189
 30
0.0
 11
6.657734539843154
 21
-18.83044794726408
 31
0.0
  0
LINE
  5
11C5
330
124B
100
AcDbEntity
  8
247
100
AcDbLine
 10
8.447989206787565
 20
-20.17168980815503
 30
0.0
 11
7.287262067066941
 21
-19.0109626684344
 31
0.0
  0
LINE
  5
11C6
330
124B
100
AcDbEntity
  8
247
100
AcDbLine
 10
8.295697373240584
 20
-19.57038516855459
 30
0.0
 11
7.9167895942907
 21
-19.19147738960471
 31
0.0
  0
ENDBLK
  5
11E1
330
124B
100
AcDbEntity
  8
0
100
AcDbBlockEnd
  0
BLOCK
  5
124C
330
124D
100
AcDbEntity
  8
0
100
AcDbBlockBegin
  2
*X16
 70
     1
 10
0.0
 20
0.0
 30
0.0
  3
*X16
  1

  0
TEXT
  5
11D8
330
124D
100
AcDbEntity
  8
250
  6
Continuous
 62
    40
100
AcDbText
 10
125.0
 20
-4.223214285714249
 30
0.0
 40
3.0
  1
∅
 50
90.0
100
AcDbText
  0
TEXT
  5
11D9
330
124D
100
AcDbEntity
  8
250
  6
Continuous
 62
    40
100
AcDbText
 10
125.0
 20
-1.508928571428541
 30
0.0
 40
3.0
  1
25
 50
90.0
100
AcDbText
  0
ENDBLK
  5
11E3
330
124D
100
AcDbEntity
  8
0
100
AcDbBlockEnd
  0
ENDSEC
  0
SECTION
  2
ENTITIES
  0
LINE
  5
F53
330
1206
100
AcDbEntity
  8
240
100
AcDbLine
 10
105.0
 20
0.0
 30
0.0
 11
105.0
 21
11.59289321881345
 31
0.0
  0
LINE
  5
F54
330
1206
100
AcDbEntity
  8
241
100
AcDbLine
 10
104.0514718625759
 20
12.13812677388836
 30
0.0
 11
104.0514718625759
 21
-12.18543046357615
 31
0.0
  0
LINE
  5
F56
330
1206
100
AcDbEntity
  8
241
100
AcDbLine
 10
94.30000000000001
 20
9.800000000000011
 30
0.0
 11
94.30000000000001
 21
0.0
 31
0.0
  0
LINE
  5
F57
330
1206
100
AcDbEntity
  8
241
100
AcDbLine
 10
94.0
 20
8.0
 30
0.0
 11
94.0
 21
0.0
 31
0.0
  0
ARC
  5
F5B
330
1206
100
AcDbEntity
  8
240
100
AcDbCircle
 10
104.0514718625759
 20
-11.90000000000014
 30
0.0
 40
0.5999999999999944
100
AcDbArc
 50
269.9999999999967
 51
314.9999999999994
  0
LINE
  5
F65
330
1206
100
AcDbEntity
  8
241
100
AcDbLine
 10
94.30000000000001
 20
-9.800000000000011
 30
0.0
 11
94.30000000000001
 21
0.0
 31
0.0
  0
LINE
  5
F66
330
1206
100
AcDbEntity
  8
241
100
AcDbLine
 10
94.0
 20
-8.0
 30
0.0
 11
94.0
 21
0.0
 31
0.0
  0
LINE
  5
F67
330
1206
100
AcDbEntity
  8
240
100
AcDbLine
 10
94.9
 20
-12.5
 30
0.0
 11
104.0514718625759
 21
-12.50000000000017
 31
0.0
  0
LINE
  5
F68
330
1206
100
AcDbEntity
  8
241
100
AcDbLine
 10
101.0
 20
-9.997092630102372
 30
0.0
 11
94.30000000000001
 21
-9.997092630102372
 31
0.0
  0
LINE
  5
F69
330
1206
100
AcDbEntity
  8
241
100
AcDbLine
 10
101.0
 20
-11.49709263010234
 30
0.0
 11
94.30000000000001
 21
-11.49709263010237
 31
0.0
  0
LINE
  5
F6A
330
1206
100
AcDbEntity
  8
240
100
AcDbLine
 10
94.30000000000001
 20
-11.89999999999997
 30
0.0
 11
94.30000000000001
 21
-9.800000000000011
 31
0.0
  0
ARC
  5
F6B
330
1206
100
AcDbEntity
  8
240
100
AcDbCircle
 10
94.9
 20
-11.89999999999997
 30
0.0
 40
0.5999999999999944
100
AcDbArc
 50
180.0
 51
270.0
  0
LINE
  5
F6C
330
1206
100
AcDbEntity
  8
240
100
AcDbLine
 10
94.0
 20
-9.5
 30
0.0
 11
94.0
 21
-8.0
 31
0.0
  0
LINE
  5
F6D
330
1206
100
AcDbEntity
  8
240
100
AcDbLine
 10
94.0
 20
-9.5
 30
0.0
 11
94.30000000000001
 21
-9.800000000000011
 31
0.0
  0
LINE
  5
F6E
330
1206
100
AcDbEntity
  8
241
100
AcDbLine
 10
101.0
 20
-11.49709263010234
 30
0.0
 11
101.0
 21
-9.997092630102372
 31
0.0
  0
LINE
  5
F6F
330
1206
100
AcDbEntity
  8
241
100
AcDbLine
 10
101.0
 20
1.5
 30
0.0
 11
94.30000000000001
 21
1.5
 31
0.0
  0
LINE
  5
F70
330
1206
100
AcDbEntity
  8
241
100
AcDbLine
 10
101.0
 20
-1.5
 30
0.0
 11
94.30000000000001
 21
-1.5
 31
0.0
  0
LINE
  5
F75
330
1206
100
AcDbEntity
  8
241
100
AcDbLine
 10
101.0
 20
1.5
 30
0.0
 11
101.0
 21
0.0
 31
0.0
  0
LINE
  5
F76
330
1206
100
AcDbEntity
  8
241
100
AcDbLine
 10
101.0
 20
-1.5
 30
0.0
 11
101.0
 21
0.0
 31
0.0
  0
LINE
  5
F77
330
1206
100
AcDbEntity
  8
240
100
AcDbLine
 10
105.0
 20
0.0
 30
0.0
 11
105.0
 21
-11.59289321881345
 31
0.0
  0
ARC
  5
F78
330
1206
100
AcDbEntity
  8
240
100
AcDbCircle
 10
104.4999999999999
 20
-11.59289321881345
 30
0.0
 40
0.500000000000004
100
AcDbArc
 50
315.0
 51
0.0
  0
LINE
  5
F79
330
1206
100
AcDbEntity
  8
240
100
AcDbLine
 10
104.4757359312879
 20
-12.32426406871209
 30
0.0
 11
104.8535533905932
 21
-11.94644660940673
 31
0.0
  0
ARC
  5
F7C
330
1206
100
AcDbEntity
  8
240
100
AcDbCircle
 10
104.0514718625759
 20
11.9000000000002
 30
0.0
 40
0.5999999999999888
100
AcDbArc
 50
45.0
 51
90.00000000000325
  0
LINE
  5
F84
330
1206
100
AcDbEntity
  8
240
100
AcDbLine
 10
94.30000000000001
 20
9.800000000000011
 30
0.0
 11
94.30000000000001
 21
11.90000000000003
 31
0.0
  0
LINE
  5
F85
330
1206
100
AcDbEntity
  8
240
100
AcDbLine
 10
94.0
 20
9.5
 30
0.0
 11
94.0
 21
8.0
 31
0.0
  0
LINE
  5
F86
330
1206
100
AcDbEntity
  8
240
100
AcDbLine
 10
94.0
 20
9.5
 30
0.0
 11
94.30000000000001
 21
9.800000000000011
 31
0.0
  0
LINE
  5
F8B
330
1206
100
AcDbEntity
  8
240
100
AcDbLine
 10
94.9
 20
12.5
 30
0.0
 11
104.0514718625759
 21
12.50000000000017
 31
0.0
  0
LINE
  5
F8C
330
1206
100
AcDbEntity
  8
241
100
AcDbLine
 10
101.0
 20
11.49709263010237
 30
0.0
 11
94.30000000000001
 21
11.49709263010237
 31
0.0
  0
LINE
  5
F8D
330
1206
100
AcDbEntity
  8
241
100
AcDbLine
 10
101.0
 20
9.997092630102372
 30
0.0
 11
94.30000000000001
 21
9.997092630102372
 31
0.0
  0
ARC
  5
F8E
330
1206
100
AcDbEntity
  8
240
100
AcDbCircle
 10
94.9
 20
11.90000000000003
 30
0.0
 40
0.5999999999999944
100
AcDbArc
 50
90.0
 51
180.0
  0
LINE
  5
F8F
330
1206
100
AcDbEntity
  8
241
100
AcDbLine
 10
101.0
 20
11.49709263010237
 30
0.0
 11
101.0
 21
9.997092630102372
 31
0.0
  0
LINE
  5
F90
330
1206
100
AcDbEntity
  8
240
100
AcDbLine
 10
104.8535533905932
 20
11.94644660940673
 30
0.0
 11
104.4757359312878
 21
12.32426406871212
 31
0.0
  0
ARC
  5
F91
330
1206
100
AcDbEntity
  8
240
100
AcDbCircle
 10
104.4999999999999
 20
11.59289321881345
 30
0.0
 40
0.5
100
AcDbArc
 50
0.0
 51
45.0
  0
LINE
  5
FA1
330
1206
100
AcDbEntity
  8
250
  6
Continuous
100
AcDbLine
 10
104.0514718625759
 20
-12.50000000000014
 30
0.0
 11
129.6649852934813
 21
-12.50000000000017
 31
0.0
  0
LINE
  5
FA2
330
1206
100
AcDbEntity
  8
250
  6
Continuous
100
AcDbLine
 10
104.0514718625759
 20
12.50000000000022
 30
0.0
 11
129.6649852934813
 21
12.50000000000022
 31
0.0
  0
LINE
  5
FA3
330
1206
100
AcDbEntity
  8
250
  6
Continuous
100
AcDbLine
 10
128.6649852934813
 20
-10.27000000000017
 30
0.0
 11
128.6649852934813
 21
10.27000000000022
 31
0.0
  0
INSERT
  5
FA4
330
1206
100
AcDbEntity
  8
250
  6
Continuous
100
AcDbBlockReference
  2
_OPEN
 10
128.6649852934813
 20
-12.50000000000017
 30
0.0
 41
2.229999999999999
 42
2.229999999999999
 43
2.229999999999999
 50
270.0
  0
INSERT
  5
FA5
330
1206
100
AcDbEntity
  8
250
  6
Continuous
100
AcDbBlockReference
  2
_OPEN
 10
128.6649852934813
 20
12.50000000000022
 30
0.0
 41
2.229999999999999
 42
2.229999999999999
 43
2.229999999999999
 50
90.0
  0
INSERT
  5
FA6
330
1206
100
AcDbEntity
  8
250
  6
Continuous
 62
    40
100
AcDbBlockReference
  2
*X12
 10
0.0
 20
0.0
 30
0.0
  0
DIMENSION
  5
FAD
330
1206
100
AcDbEntity
  8
250
100
AcDbDimension
280
     0
  2
*D8
 10
104.9999999999999
 20
22.14471704226832
 30
0.0
 11
99.64999999999995
 21
26.14471704226832
 31
0.0
 70
    32
 71
     5
 42
-1.0
 73
     0
 74
     0
 75
     0
  3
BIGT
100
AcDbAlignedDimension
 13
94.30000000000001
 23
11.90000000000003
 33
0.0
 14
104.9999999999999
 24
11.59289321881345
 34
0.0
100
AcDbRotatedDimension
1001
ACAD
1000
DSTYLE
1002
{
1070
   179
1070
     3
1070
    79
1070
     2
1070
   371
1070
    -1
1070
   372
1070
    -1
1070
   279
1070
     2
1070
   140
1040
3.0
1070
    78
1070
     8
1002
}
  0
DIMENSION
  5
FBA
330
1206
100
AcDbEntity
  8
250
100
AcDbDimension
280
     0
  2
*D9
 10
108.8999999999999
 20
16.9740617911449
 30
0.0
 11
110.014732142857
 21
19.4740617911449
 31
0.0
 70
   160
 71
     5
 42
-1.0
 73
     0
 74
     0
 75
     0
  3
BIGT
100
AcDbAlignedDimension
 13
104.9999999999999
 23
11.59289321881345
 33
0.0
 14
108.8999999999999
 24
11.59289321881345
 34
0.0
100
AcDbRotatedDimension
1001
ACAD
1000
DSTYLE
1002
{
1070
   179
1070
     3
1070
    79
1070
     2
1070
   371
1070
    -1
1070
   372
1070
    -1
1070
   279
1070
     2
1070
   140
1040
3.0
1070
    78
1070
     8
1002
}
  0
LINE
  5
FC9
330
1206
100
AcDbEntity
  8
240
100
AcDbLine
 10
108.8999999999999
 20
-6.600000000000001
 30
0.0
 11
108.8999999999999
 21
6.599999999999998
 31
0.0
  0
LINE
  5
FCC
330
1206
100
AcDbEntity
  8
240
100
AcDbLine
 10
105.0
 20
9.6
 30
0.0
 11
108.8999999999999
 21
6.599999999999998
 31
0.0
  0
LINE
  5
FCD
330
1206
100
AcDbEntity
  8
240
100
AcDbLine
 10
105.0
 20
-9.6
 30
0.0
 11
108.8999999999999
 21
-6.600000000000001
 31
0.0
  0
DIMENSION
  5
FCE
330
1206
100
AcDbEntity
  8
250
100
AcDbDimension
280
     0
  2
*D10
 10
122.5642999462896
 20
-9.6
 30
0.0
 11
120.0642999462896
 21
0.0
 31
0.0
 70
    32
  1
∅19.2
 71
     5
 42
-1.0
 73
     0
 74
     0
 75
     0
  3
BIGT
100
AcDbAlignedDimension
 13
105.0
 23
9.6
 33
0.0
 14
105.0
 24
-9.599999999999998
 34
0.0
 50
90.0
100
AcDbRotatedDimension
1001
ACAD
1000
DSTYLE
1002
{
1070
   179
1070
     3
1070
    79
1070
     2
1070
   371
1070
    -1
1070
   372
1070
    -1
1070
   279
1070
     2
1070
   140
1040
3.0
1070
    78
1070
     8
1002
}
  0
DIMENSION
  5
FDB
330
1206
100
AcDbEntity
  8
250
100
AcDbDimension
280
     0
  2
*D11
 10
111.8999999999999
 20
-6.600000000000001
 30
0.0
 11
115.8999999999999
 21
0.0
 31
0.0
 70
    32
  1
∅13.2
 71
     5
 42
-1.0
 73
     0
 74
     0
 75
     0
  3
BIGT
100
AcDbAlignedDimension
 13
108.8999999999999
 23
6.600000000000001
 33
0.0
 14
108.8999999999999
 24
-6.600000000000001
 34
0.0
 50
90.0
100
AcDbRotatedDimension
1001
ACAD
1000
DSTYLE
1002
{
1070
   179
1070
     3
1070
    79
1070
     2
1070
   371
1070
    -1
1070
   372
1070
    -1
1070
   279
1070
     2
1070
   140
1040
3.0
1070
    78
1070
     8
1002
}
  0
VIEWPORT
  5
22
330
1204
100
AcDbEntity
 67
     1
  8
0
100
AcDbViewport
 10
261.5176991150442
 20
148.5
 30
0.0
 40
523.0353982300885
 41
297.0
 68
     1
 69
    -1
 12
261.5176991150442
 22
148.5
 13
0.0
 23
0.0
 14
1.0
 24
1.0
 15
10.0
 25
10.0
 16
0.0
 26
0.0
 36
1.0
 17
0.0
 27
0.0
 37
0.0
 42
50.0
 43
0.0
 44
0.0
 45
297.0
 50
0.0
 51
0.0
 72
   100
 90
   557216
  1

281
     0
 71
     0
 74
     0
110
0.0
120
0.0
130
0.0
111
1.0
121
0.0
131
0.0
112
0.0
122
1.0
132
0.0
 79
     0
146
0.0
170
     0
 61
     5
292
     1
282
     1
141
0.0
142
0.0
 63
   256
  0
ENDSEC
  0
SECTION
  2
OBJECTS
  0
DICTIONARY
  5
11F6
330
0
100
AcDbDictionary
281
     1
  3
ACAD_GROUP
350
11F7
  3
ACAD_IMAGE_VARS
350
1284
  3
ACAD_LAYOUT
350
1203
  3
ACAD_MATERIAL
350
120F
  3
ACAD_MLEADERSTYLE
350
128B
  3
ACAD_MLINESTYLE
350
1200
  3
ACAD_PLOTSETTINGS
350
1202
  3
ACAD_PLOTSTYLENAME
350
11F8
  3
ACAD_SCALELIST
350
124E
  3
ACAD_TABLESTYLE
350
1281
  3
ACAD_VISUALSTYLE
350
1270
  3
ACDB_RECOMPOSE_DATA
350
1289
  3
AcDbVariableDictionary
350
1285
  3
APPDATA
350
1283
  0
DICTIONARY
  5
11F7
102
{ACAD_REACTORS
330
11F6
102
}
330
11F6
100
AcDbDictionary
281
     1
  0
RASTERVARIABLES
  5
1284
102
{ACAD_REACTORS
330
11F6
102
}
330
11F6
100
AcDbRasterVariables
 90
        0
 70
     1
 71
     1
 72
     0
  0
DICTIONARY
  5
1203
102
{ACAD_REACTORS
330
11F6
102
}
330
11F6
100
AcDbDictionary
281
     1
  3
Model
350
1207
  3
Sheet 1
350
1205
  0
DICTIONARY
  5
120F
102
{ACAD_REACTORS
330
11F6
102
}
330
11F6
100
AcDbDictionary
281
     1
  3
ByBlock
350
1211
  3
ByLayer
350
1210
  3
Global
350
1212
  0
DICTIONARY
  5
128B
102
{ACAD_REACTORS
330
11F6
102
}
330
11F6
100
AcDbDictionary
281
     1
  0
DICTIONARY
  5
1200
102
{ACAD_REACTORS
330
11F6
102
}
330
11F6
100
AcDbDictionary
281
     1
  3
Standard
350
1201
  0
DICTIONARY
  5
1202
102
{ACAD_REACTORS
330
11F6
102
}
330
11F6
100
AcDbDictionary
281
     1
  0
ACDBDICTIONARYWDFLT
  5
11F8
102
{ACAD_REACTORS
330
11F6
102
}
330
11F6
100
AcDbDictionary
281
     1
  3
Normal
350
11F9
100
AcDbDictionaryWithDefault
340
11F9
  0
DICTIONARY
  5
124E
102
{ACAD_REACTORS
330
11F6
102
}
330
11F6
100
AcDbDictionary
281
     1
  3
A0
350
124F
  3
A1
350
1250
  3
A2
350
1251
  3
A3
350
1252
  3
A4
350
1253
  3
A5
350
1254
  3
A6
350
1255
  3
A7
350
1256
  3
A8
350
1257
  3
A9
350
1258
  3
B0
350
1259
  3
B1
350
125A
  3
B2
350
125B
  3
B3
350
125C
  3
B4
350
125D
  3
B5
350
125E
  3
B6
350
125F
  3
B7
350
1260
  3
B8
350
1261
  3
B9
350
1262
  3
C0
350
1263
  3
C1
350
1264
  3
C2
350
1265
  3
C3
350
1266
  3
C4
350
1267
  3
C5
350
1268
  3
C6
350
1269
  3
C7
350
126A
  3
C8
350
126B
  3
C9
350
126C
  3
D0
350
126D
  3
D1
350
126E
  3
D2
350
126F
  0
DICTIONARY
  5
1281
102
{ACAD_REACTORS
330
11F6
102
}
330
11F6
100
AcDbDictionary
281
     1
  3
Standard
350
1282
  0
DICTIONARY
  5
1270
102
{ACAD_REACTORS
330
11F6
102
}
330
11F6
100
AcDbDictionary
281
     1
  3
2dWireframe
350
1275
  3
3D Hidden
350
1277
  3
3dWireframe
350
1276
  3
Basic
350
1278
  3
Brighten
350
127C
  3
ColorChange
350
1280
  3
Conceptual
350
127A
  3
Dim
350
127B
  3
Facepattern
350
127F
  3
Flat
350
1271
  3
FlatWithEdges
350
1272
  3
Gouraud
350
1273
  3
GouraudWithEdges
350
1274
  3
Linepattern
350
127E
  3
Realistic
350
1279
  3
Thicken
350
127D
  0
XRECORD
  5
1289
102
{ACAD_REACTORS
330
11F6
102
}
330
11F6
100
AcDbXrecord
280
     1
 90
        1
330
1282
  0
DICTIONARY
  5
1285
102
{ACAD_REACTORS
330
11F6
102
}
330
11F6
100
AcDbDictionary
281
     1
  3
CANNOSCALE
350
1286
  3
CTABLESTYLE
350
128A
  0
DICTIONARY
  5
1283
102
{ACAD_REACTORS
330
11F6
102
}
330
11F6
100
AcDbDictionary
281
     1
  0
LAYOUT
  5
1207
102
{ACAD_REACTORS
330
1203
102
}
330
1203
100
AcDbPlotSettings
  1

  2
none_device
  4

  6

 40
0.0
 41
0.0
 42
0.0
 43
0.0
 44
0.0
 45
0.0
 46
0.0
 47
0.0
 48
0.0
 49
0.0
140
0.0
141
0.0
142
1.0
143
1.0
 70
  1712
 72
     0
 73
     0
 74
     0
  7

 75
     0
 76
     0
 77
     2
 78
   300
147
1.0
148
0.0
149
0.0
100
AcDbLayout
  1
Model
 70
     1
 71
     0
 10
0.0
 20
0.0
 11
12.0
 21
9.0
 12
0.0
 22
0.0
 32
0.0
 14
-76.39858687325318
 24
-43.0
 34
0.0
 15
127.0
 25
68.0
 35
0.0
146
0.0
 13
0.0
 23
0.0
 33
0.0
 16
1.0
 26
0.0
 36
0.0
 17
0.0
 27
1.0
 37
0.0
 76
     0
330
1206
331
1209
  0
LAYOUT
  5
1205
102
{ACAD_REACTORS
330
1203
102
}
330
1203
100
AcDbPlotSettings
  1

  2
none_device
  4

  6

 40
0.0
 41
0.0
 42
0.0
 43
0.0
 44
0.0
 45
0.0
 46
0.0
 47
0.0
 48
0.0
 49
0.0
140
0.0
141
0.0
142
1.0
143
1.0
 70
   688
 72
     0
 73
     0
 74
     5
  7

 75
    16
 76
     0
 77
     2
 78
   300
147
1.0
148
0.0
149
0.0
100
AcDbLayout
  1
Sheet 1
 70
     1
 71
     1
 10
0.0
 20
0.0
 11
420.0
 21
297.0
 12
0.0
 22
0.0
 32
0.0
 14
1.000000000000000E+20
 24
1.000000000000000E+20
 34
1.000000000000000E+20
 15
-1.000000000000000E+20
 25
-1.000000000000000E+20
 35
-1.000000000000000E+20
146
0.0
 13
0.0
 23
0.0
 33
0.0
 16
1.0
 26
0.0
 36
0.0
 17
0.0
 27
1.0
 37
0.0
 76
     0
330
1204
331
22
  0
MATERIAL
  5
1211
102
{ACAD_REACTORS
330
120F
102
}
330
120F
100
AcDbMaterial
  1
ByBlock
 72
     1
 94
      127
  0
MATERIAL
  5
1210
102
{ACAD_REACTORS
330
120F
102
}
330
120F
100
AcDbMaterial
  1
ByLayer
 72
     1
 94
      127
  0
MATERIAL
  5
1212
102
{ACAD_REACTORS
330
120F
102
}
330
120F
100
AcDbMaterial
  1
Global
 72
     1
 94
      127
  0
MLINESTYLE
  5
1201
102
{ACAD_REACTORS
330
1200
102
}
330
1200
100
AcDbMlineStyle
  2
Standard
 70
     0
  3

 62
   256
 51
90.0
 52
90.0
 71
     2
 49
0.5
 62
   256
  6
BYLAYER
 49
-0.5
 62
   256
  6
BYLAYER
  0
ACDBPLACEHOLDER
  5
11F9
102
{ACAD_REACTORS
330
11F8
102
}
330
11F8
  0
SCALE
  5
124F
102
{ACAD_REACTORS
330
124E
102
}
330
124E
100
AcDbScale
 70
     0
300
1:1
140
1.0
141
1.0
290
     1
  0
SCALE
  5
1250
102
{ACAD_REACTORS
330
124E
102
}
330
124E
100
AcDbScale
 70
     0
300
1:2
140
1.0
141
2.0
290
     0
  0
SCALE
  5
1251
102
{ACAD_REACTORS
330
124E
102
}
330
124E
100
AcDbScale
 70
     0
300
1:4
140
1.0
141
4.0
290
     0
  0
SCALE
  5
1252
102
{ACAD_REACTORS
330
124E
102
}
330
124E
100
AcDbScale
 70
     0
300
1:5
140
1.0
141
5.0
290
     0
  0
SCALE
  5
1253
102
{ACAD_REACTORS
330
124E
102
}
330
124E
100
AcDbScale
 70
     0
300
1:8
140
1.0
141
8.0
290
     0
  0
SCALE
  5
1254
102
{ACAD_REACTORS
330
124E
102
}
330
124E
100
AcDbScale
 70
     0
300
1:10
140
1.0
141
10.0
290
     0
  0
SCALE
  5
1255
102
{ACAD_REACTORS
330
124E
102
}
330
124E
100
AcDbScale
 70
     0
300
1:16
140
1.0
141
16.0
290
     0
  0
SCALE
  5
1256
102
{ACAD_REACTORS
330
124E
102
}
330
124E
100
AcDbScale
 70
     0
300
1:20
140
1.0
141
20.0
290
     0
  0
SCALE
  5
1257
102
{ACAD_REACTORS
330
124E
102
}
330
124E
100
AcDbScale
 70
     0
300
1:30
140
1.0
141
30.0
290
     0
  0
SCALE
  5
1258
102
{ACAD_REACTORS
330
124E
102
}
330
124E
100
AcDbScale
 70
     0
300
1:40
140
1.0
141
40.0
290
     0
  0
SCALE
  5
1259
102
{ACAD_REACTORS
330
124E
102
}
330
124E
100
AcDbScale
 70
     0
300
1:50
140
1.0
141
50.0
290
     0
  0
SCALE
  5
125A
102
{ACAD_REACTORS
330
124E
102
}
330
124E
100
AcDbScale
 70
     0
300
1:100
140
1.0
141
100.0
290
     0
  0
SCALE
  5
125B
102
{ACAD_REACTORS
330
124E
102
}
330
124E
100
AcDbScale
 70
     0
300
2:1
140
2.0
141
1.0
290
     0
  0
SCALE
  5
125C
102
{ACAD_REACTORS
330
124E
102
}
330
124E
100
AcDbScale
 70
     0
300
4:1
140
4.0
141
1.0
290
     0
  0
SCALE
  5
125D
102
{ACAD_REACTORS
330
124E
102
}
330
124E
100
AcDbScale
 70
     0
300
8:1
140
8.0
141
1.0
290
     0
  0
SCALE
  5
125E
102
{ACAD_REACTORS
330
124E
102
}
330
124E
100
AcDbScale
 70
     0
300
10:1
140
10.0
141
1.0
290
     0
  0
SCALE
  5
125F
102
{ACAD_REACTORS
330
124E
102
}
330
124E
100
AcDbScale
 70
     0
300
100:1
140
100.0
141
1.0
290
     0
  0
SCALE
  5
1260
102
{ACAD_REACTORS
330
124E
102
}
330
124E
100
AcDbScale
 70
     0
300
1/128" = 1'-0"
140
0.0078125
141
12.0
290
     0
  0
SCALE
  5
1261
102
{ACAD_REACTORS
330
124E
102
}
330
124E
100
AcDbScale
 70
     0
300
1/64" = 1'-0"
140
0.015625
141
12.0
290
     0
  0
SCALE
  5
1262
102
{ACAD_REACTORS
330
124E
102
}
330
124E
100
AcDbScale
 70
     0
300
1/32" = 1'-0"
140
0.03125
141
12.0
290
     0
  0
SCALE
  5
1263
102
{ACAD_REACTORS
330
124E
102
}
330
124E
100
AcDbScale
 70
     0
300
1/16" = 1'-0"
140
0.0625
141
12.0
290
     0
  0
SCALE
  5
1264
102
{ACAD_REACTORS
330
124E
102
}
330
124E
100
AcDbScale
 70
     0
300
3/32" = 1'-0"
140
0.09375
141
12.0
290
     0
  0
SCALE
  5
1265
102
{ACAD_REACTORS
330
124E
102
}
330
124E
100
AcDbScale
 70
     0
300
1/8" = 1'-0"
140
0.125
141
12.0
290
     0
  0
SCALE
  5
1266
102
{ACAD_REACTORS
330
124E
102
}
330
124E
100
AcDbScale
 70
     0
300
3/16" = 1'-0"
140
0.1875
141
12.0
290
     0
  0
SCALE
  5
1267
102
{ACAD_REACTORS
330
124E
102
}
330
124E
100
AcDbScale
 70
     0
300
1/4" = 1'-0"
140
0.25
141
12.0
290
     0
  0
SCALE
  5
1268
102
{ACAD_REACTORS
330
124E
102
}
330
124E
100
AcDbScale
 70
     0
300
3/8" = 1'-0"
140
0.375
141
12.0
290
     0
  0
SCALE
  5
1269
102
{ACAD_REACTORS
330
124E
102
}
330
124E
100
AcDbScale
 70
     0
300
1/2" = 1'-0"
140
0.5
141
12.0
290
     0
  0
SCALE
  5
126A
102
{ACAD_REACTORS
330
124E
102
}
330
124E
100
AcDbScale
 70
     0
300
3/4" = 1'-0"
140
0.75
141
12.0
290
     0
  0
SCALE
  5
126B
102
{ACAD_REACTORS
330
124E
102
}
330
124E
100
AcDbScale
 70
     0
300
1" = 1'-0"
140
1.0
141
12.0
290
     0
  0
SCALE
  5
126C
102
{ACAD_REACTORS
330
124E
102
}
330
124E
100
AcDbScale
 70
     0
300
1-1/2" = 1'-0"
140
1.5
141
12.0
290
     0
  0
SCALE
  5
126D
102
{ACAD_REACTORS
330
124E
102
}
330
124E
100
AcDbScale
 70
     0
300
3" = 1'-0"
140
3.0
141
12.0
290
     0
  0
SCALE
  5
126E
102
{ACAD_REACTORS
330
124E
102
}
330
124E
100
AcDbScale
 70
     0
300
6" = 1'-0"
140
6.0
141
12.0
290
     0
  0
SCALE
  5
126F
102
{ACAD_REACTORS
330
124E
102
}
330
124E
100
AcDbScale
 70
     0
300
1'-0" = 1'-0"
140
12.0
141
12.0
290
     0
  0
TABLESTYLE
  5
1282
102
{ACAD_REACTORS
330
1281
102
}
102
{ACAD_XDICTIONARY
360
1287
102
}
330
1281
100
AcDbTableStyle
  3
Standard
 70
     0
 71
     0
 40
0.06
 41
0.06
280
     0
281
     0
  7
STANDARD
140
0.18
170
     2
 62
     0
 63
   257
283
     0
 90
        4
 91
        0
  1

274
    -2
284
     1
 64
     0
275
    -2
285
     1
 65
     0
276
    -2
286
     1
 66
     0
277
    -2
287
     1
 67
     0
278
    -2
288
     1
 68
     0
279
    -2
289
     1
 69
     0
  7
STANDARD
140
0.25
170
     5
 62
     0
 63
   257
283
     0
 90
        4
 91
        0
  1

274
    -2
284
     1
 64
     0
275
    -2
285
     1
 65
     0
276
    -2
286
     1
 66
     0
277
    -2
287
     1
 67
     0
278
    -2
288
     1
 68
     0
279
    -2
289
     1
 69
     0
  7
STANDARD
140
0.18
170
     5
 62
     0
 63
   257
283
     0
 90
        4
 91
        0
  1

274
    -2
284
     1
 64
     0
275
    -2
285
     1
 65
     0
276
    -2
286
     1
 66
     0
277
    -2
287
     1
 67
     0
278
    -2
288
     1
 68
     0
279
    -2
289
     1
 69
     0
  0
VISUALSTYLE
  5
1275
102
{ACAD_REACTORS
330
1270
102
}
330
1270
100
AcDbVisualStyle
  2
2dWireframe
 70
     4
177
     2
291
     0
 71
     0
176
     1
 72
     2
176
     1
 73
     0
176
     1
 90
        0
176
     1
 40
-0.6
176
     1
 41
-30.0
176
     1
 62
     5
 63
     7
421
 16777215
176
     1
 74
     1
176
     1
 91
        4
176
     1
 64
     7
176
     1
 65
   257
176
     1
 75
     1
176
     1
175
     1
176
     1
 42
1.0
176
     1
 92
        0
176
     1
 66
   257
176
     1
 43
1.0
176
     1
 76
     1
176
     1
 77
     6
176
     1
 78
     2
176
     1
 67
     7
176
     1
 79
     5
176
     1
170
     0
176
     1
171
     0
176
     1
290
     0
176
     1
 93
        1
176
     1
 44
0.0
176
     1
173
     0
176
     1
  0
VISUALSTYLE
  5
1277
102
{ACAD_REACTORS
330
1270
102
}
330
1270
100
AcDbVisualStyle
  2
3D Hidden
 70
     6
177
     2
291
     0
 71
     1
176
     1
 72
     2
176
     1
 73
     2
176
     1
 90
        0
176
     1
 40
-0.6
176
     1
 41
-30.0
176
     1
 62
     5
 63
     7
421
 16777215
176
     1
 74
     2
176
     1
 91
        2
176
     1
 64
     7
176
     1
 65
   257
176
     1
 75
     2
176
     1
175
     1
176
     1
 42
40.0
176
     1
 92
        0
176
     1
 66
   257
176
     1
 43
1.0
176
     1
 76
     1
176
     1
 77
     6
176
     1
 78
     2
176
     1
 67
     7
176
     1
 79
     3
176
     1
170
     0
176
     1
171
     0
176
     1
290
     0
176
     1
 93
        1
176
     1
 44
0.0
176
     1
173
     0
176
     1
  0
VISUALSTYLE
  5
1276
102
{ACAD_REACTORS
330
1270
102
}
330
1270
100
AcDbVisualStyle
  2
3dWireframe
 70
     5
177
     2
291
     0
 71
     0
176
     1
 72
     2
176
     1
 73
     0
176
     1
 90
        0
176
     1
 40
-0.6
176
     1
 41
-30.0
176
     1
 62
     5
 63
     7
421
 16777215
176
     1
 74
     1
176
     1
 91
        4
176
     1
 64
     7
176
     1
 65
   257
176
     1
 75
     1
176
     1
175
     1
176
     1
 42
1.0
176
     1
 92
        0
176
     1
 66
   257
176
     1
 43
1.0
176
     1
 76
     1
176
     1
 77
     6
176
     1
 78
     2
176
     1
 67
     7
176
     1
 79
     5
176
     1
170
     0
176
     1
171
     0
176
     1
290
     0
176
     1
 93
        1
176
     1
 44
0.0
176
     1
173
     0
176
     1
  0
VISUALSTYLE
  5
1278
102
{ACAD_REACTORS
330
1270
102
}
330
1270
100
AcDbVisualStyle
  2
Basic
 70
     7
177
     2
291
     1
 71
     1
176
     1
 72
     0
176
     1
 73
     1
176
     1
 90
        0
176
     1
 40
-0.6
176
     1
 41
-30.0
176
     1
 62
     5
 63
     7
421
 16777215
176
     1
 74
     0
176
     1
 91
        4
176
     1
 64
     7
176
     1
 65
   257
176
     1
 75
     1
176
     1
175
     1
176
     1
 42
1.0
176
     1
 92
        8
176
     1
 66
     7
176
     1
 43
1.0
176
     1
 76
     1
176
     1
 77
     6
176
     1
 78
     2
176
     1
 67
     7
176
     1
 79
     5
176
     1
170
     0
176
     1
171
     0
176
     1
290
     0
176
     1
 93
        1
176
     1
 44
0.0
176
     1
173
     0
176
     1
  0
VISUALSTYLE
  5
127C
102
{ACAD_REACTORS
330
1270
102
}
330
1270
100
AcDbVisualStyle
  2
Brighten
 70
    12
177
     2
291
     1
 71
     2
176
     1
 72
     2
176
     1
 73
     0
176
     1
 90
        0
176
     1
 40
-0.6
176
     1
 41
-30.0
176
     1
 62
     5
 63
     7
421
 16777215
176
     1
 74
     1
176
     1
 91
        4
176
     1
 64
     7
176
     1
 65
   257
176
     1
 75
     1
176
     1
175
     1
176
     1
 42
1.0
176
     1
 92
        8
176
     1
 66
     7
176
     1
 43
1.0
176
     1
 76
     1
176
     1
 77
     6
176
     1
 78
     2
176
     1
 67
     7
176
     1
 79
     5
176
     1
170
     0
176
     1
171
     0
176
     1
290
     0
176
     1
 93
        1
176
     1
 44
50.0
176
     1
173
     0
176
     1
  0
VISUALSTYLE
  5
1280
102
{ACAD_REACTORS
330
1270
102
}
330
1270
100
AcDbVisualStyle
  2
ColorChange
 70
    16
177
     2
291
     1
 71
     2
176
     1
 72
     2
176
     1
 73
     3
176
     1
 90
        0
176
     1
 40
-0.6
176
     1
 41
-30.0
176
     1
 62
     5
 63
     8
421
  8421504
176
     1
 74
     1
176
     1
 91
        4
176
     1
 64
     7
176
     1
 65
   257
176
     1
 75
     1
176
     1
175
     1
176
     1
 42
1.0
176
     1
 92
        8
176
     1
 66
     8
424
  8421504
176
     1
 43
1.0
176
     1
 76
     1
176
     1
 77
     6
176
     1
 78
     2
176
     1
 67
     7
176
     1
 79
     5
176
     1
170
     0
176
     1
171
     0
176
     1
290
     0
176
     1
 93
        1
176
     1
 44
0.0
176
     1
173
     0
176
     1
  0
VISUALSTYLE
  5
127A
102
{ACAD_REACTORS
330
1270
102
}
330
1270
100
AcDbVisualStyle
  2
Conceptual
 70
     9
177
     2
291
     0
 71
     3
176
     1
 72
     2
176
     1
 73
     0
176
     1
 90
        0
176
     1
 40
-0.6
176
     1
 41
-30.0
176
     1
 62
     5
 63
     7
421
 16777215
176
     1
 74
     2
176
     1
 91
        2
176
     1
 64
     7
176
     1
 65
   257
176
     1
 75
     1
176
     1
175
     1
176
     1
 42
40.0
176
     1
 92
        8
176
     1
 66
     7
176
     1
 43
1.0
176
     1
 76
     1
176
     1
 77
     6
176
     1
 78
     2
176
     1
 67
     7
176
     1
 79
     3
176
     1
170
     0
176
     1
171
     0
176
     1
290
     0
176
     1
 93
        1
176
     1
 44
0.0
176
     1
173
     0
176
     1
  0
VISUALSTYLE
  5
127B
102
{ACAD_REACTORS
330
1270
102
}
330
1270
100
AcDbVisualStyle
  2
Dim
 70
    11
177
     2
291
     1
 71
     2
176
     1
 72
     2
176
     1
 73
     0
176
     1
 90
        0
176
     1
 40
-0.6
176
     1
 41
-30.0
176
     1
 62
     5
 63
     7
421
 16777215
176
     1
 74
     1
176
     1
 91
        4
176
     1
 64
     7
176
     1
 65
   257
176
     1
 75
     1
176
     1
175
     1
176
     1
 42
1.0
176
     1
 92
        8
176
     1
 66
     7
176
     1
 43
1.0
176
     1
 76
     1
176
     1
 77
     6
176
     1
 78
     2
176
     1
 67
     7
176
     1
 79
     5
176
     1
170
     0
176
     1
171
     0
176
     1
290
     0
176
     1
 93
        1
176
     1
 44
-50.0
176
     1
173
     0
176
     1
  0
VISUALSTYLE
  5
127F
102
{ACAD_REACTORS
330
1270
102
}
330
1270
100
AcDbVisualStyle
  2
Facepattern
 70
    15
177
     2
291
     1
 71
     2
176
     1
 72
     2
176
     1
 73
     0
176
     1
 90
        0
176
     1
 40
-0.6
176
     1
 41
-30.0
176
     1
 62
     5
 63
     7
421
 16777215
176
     1
 74
     1
176
     1
 91
        4
176
     1
 64
     7
176
     1
 65
   257
176
     1
 75
     1
176
     1
175
     1
176
     1
 42
1.0
176
     1
 92
        8
176
     1
 66
     7
176
     1
 43
1.0
176
     1
 76
     1
176
     1
 77
     6
176
     1
 78
     2
176
     1
 67
     7
176
     1
 79
     5
176
     1
170
     0
176
     1
171
     0
176
     1
290
     0
176
     1
 93
        1
176
     1
 44
0.0
176
     1
173
     0
176
     1
  0
VISUALSTYLE
  5
1271
102
{ACAD_REACTORS
330
1270
102
}
330
1270
100
AcDbVisualStyle
  2
Flat
 70
     0
177
     2
291
     1
 71
     2
176
     1
 72
     1
176
     1
 73
     1
176
     1
 90
        2
176
     1
 40
-0.6
176
     1
 41
30.0
176
     1
 62
     5
 63
     7
421
 16777215
176
     1
 74
     0
176
     1
 91
        4
176
     1
 64
     7
176
     1
 65
   257
176
     1
 75
     1
176
     1
175
     1
176
     1
 42
1.0
176
     1
 92
        8
176
     1
 66
     7
176
     1
 43
1.0
176
     1
 76
     1
176
     1
 77
     6
176
     1
 78
     2
176
     1
 67
     7
176
     1
 79
     5
176
     1
170
     0
176
     1
171
     0
176
     1
290
     0
176
     1
 93
       13
176
     1
 44
0.0
176
     1
173
     0
176
     1
  0
VISUALSTYLE
  5
1272
102
{ACAD_REACTORS
330
1270
102
}
330
1270
100
AcDbVisualStyle
  2
FlatWithEdges
 70
     1
177
     2
291
     1
 71
     2
176
     1
 72
     1
176
     1
 73
     1
176
     1
 90
        2
176
     1
 40
-0.6
176
     1
 41
30.0
176
     1
 62
     5
 63
     7
421
 16777215
176
     1
 74
     1
176
     1
 91
        4
176
     1
 64
     7
176
     1
 65
   257
176
     1
 75
     1
176
     1
175
     1
176
     1
 42
1.0
176
     1
 92
        0
176
     1
 66
   257
176
     1
 43
1.0
176
     1
 76
     1
176
     1
 77
     6
176
     1
 78
     2
176
     1
 67
     7
176
     1
 79
     5
176
     1
170
     0
176
     1
171
     0
176
     1
290
     0
176
     1
 93
       13
176
     1
 44
0.0
176
     1
173
     0
176
     1
  0
VISUALSTYLE
  5
1273
102
{ACAD_REACTORS
330
1270
102
}
330
1270
100
AcDbVisualStyle
  2
Gouraud
 70
     2
177
     2
291
     1
 71
     2
176
     1
 72
     2
176
     1
 73
     1
176
     1
 90
        2
176
     1
 40
-0.6
176
     1
 41
30.0
176
     1
 62
     5
 63
     7
421
 16777215
176
     1
 74
     0
176
     1
 91
        4
176
     1
 64
     7
176
     1
 65
   257
176
     1
 75
     1
176
     1
175
     1
176
     1
 42
1.0
176
     1
 92
        0
176
     1
 66
     7
176
     1
 43
1.0
176
     1
 76
     1
176
     1
 77
     6
176
     1
 78
     2
176
     1
 67
     7
176
     1
 79
     5
176
     1
170
     0
176
     1
171
     0
176
     1
290
     0
176
     1
 93
       13
176
     1
 44
0.0
176
     1
173
     0
176
     1
  0
VISUALSTYLE
  5
1274
102
{ACAD_REACTORS
330
1270
102
}
330
1270
100
AcDbVisualStyle
  2
GouraudWithEdges
 70
     3
177
     2
291
     1
 71
     2
176
     1
 72
     2
176
     1
 73
     1
176
     1
 90
        2
176
     1
 40
-0.6
176
     1
 41
30.0
176
     1
 62
     5
 63
     7
421
 16777215
176
     1
 74
     1
176
     1
 91
        4
176
     1
 64
     7
176
     1
 65
   257
176
     1
 75
     1
176
     1
175
     1
176
     1
 42
1.0
176
     1
 92
        0
176
     1
 66
   257
176
     1
 43
1.0
176
     1
 76
     1
176
     1
 77
     6
176
     1
 78
     2
176
     1
 67
     7
176
     1
 79
     5
176
     1
170
     0
176
     1
171
     0
176
     1
290
     0
176
     1
 93
       13
176
     1
 44
0.0
176
     1
173
     0
176
     1
  0
VISUALSTYLE
  5
127E
102
{ACAD_REACTORS
330
1270
102
}
330
1270
100
AcDbVisualStyle
  2
Linepattern
 70
    14
177
     2
291
     1
 71
     2
176
     1
 72
     2
176
     1
 73
     0
176
     1
 90
        0
176
     1
 40
-0.6
176
     1
 41
-30.0
176
     1
 62
     5
 63
     7
421
 16777215
176
     1
 74
     1
176
     1
 91
        4
176
     1
 64
     7
176
     1
 65
   257
176
     1
 75
     7
176
     1
175
     7
176
     1
 42
1.0
176
     1
 92
        8
176
     1
 66
     7
176
     1
 43
1.0
176
     1
 76
     1
176
     1
 77
     6
176
     1
 78
     2
176
     1
 67
     7
176
     1
 79
     5
176
     1
170
     0
176
     1
171
     0
176
     1
290
     0
176
     1
 93
        1
176
     1
 44
0.0
176
     1
173
     0
176
     1
  0
VISUALSTYLE
  5
1279
102
{ACAD_REACTORS
330
1270
102
}
330
1270
100
AcDbVisualStyle
  2
Realistic
 70
     8
177
     2
291
     0
 71
     2
176
     1
 72
     2
176
     1
 73
     0
176
     1
 90
        0
176
     1
 40
-0.6
176
     1
 41
-30.0
176
     1
 62
     5
 63
     7
421
 16777215
176
     1
 74
     1
176
     1
 91
        0
176
     1
 64
     7
176
     1
 65
   257
176
     1
 75
     1
176
     1
175
     1
176
     1
 42
1.0
176
     1
 92
        8
176
     1
 66
     8
424
  7895160
176
     1
 43
1.0
176
     1
 76
     1
176
     1
 77
     6
176
     1
 78
     2
176
     1
 67
     7
176
     1
 79
     5
176
     1
170
     0
176
     1
171
     0
176
     1
290
     0
176
     1
 93
       13
176
     1
 44
0.0
176
     1
173
     0
176
     1
  0
VISUALSTYLE
  5
127D
102
{ACAD_REACTORS
330
1270
102
}
330
1270
100
AcDbVisualStyle
  2
Thicken
 70
    13
177
     2
291
     1
 71
     2
176
     1
 72
     2
176
     1
 73
     0
176
     1
 90
        0
176
     1
 40
-0.6
176
     1
 41
-30.0
176
     1
 62
     5
 63
     7
421
 16777215
176
     1
 74
     1
176
     1
 91
        4
176
     1
 64
     7
176
     1
 65
   257
176
     1
 75
     1
176
     1
175
     1
176
     1
 42
1.0
176
     1
 92
       12
176
     1
 66
     7
176
     1
 43
1.0
176
     1
 76
     1
176
     1
 77
     6
176
     1
 78
     2
176
     1
 67
     7
176
     1
 79
     5
176
     1
170
     0
176
     1
171
     0
176
     1
290
     0
176
     1
 93
        1
176
     1
 44
0.0
176
     1
173
     0
176
     1
  0
DICTIONARYVAR
  5
1286
102
{ACAD_REACTORS
330
1285
102
}
330
1285
100
DictionaryVariables
280
     0
  1
1:1
  0
DICTIONARYVAR
  5
128A
102
{ACAD_REACTORS
330
1285
102
}
330
1285
100
DictionaryVariables
280
     0
  1
Standard
  0
DICTIONARY
  5
1287
330
1282
100
AcDbDictionary
280
     1
281
     1
  3
ACAD_ROUNDTRIP_2008_TABLESTYLE_CELLSTYLEMAP
360
1288
  0
CELLSTYLEMAP
  5
1288
102
{ACAD_REACTORS
330
1287
102
}
330
1287
100
AcDbCellStyleMap
 90
        3
300
CELLSTYLE
  1
TABLEFORMAT_BEGIN
 90
        5
170
     1
 91
        0
 92
        0
 62
   257
 93
        1
300
CONTENTFORMAT
  1
CONTENTFORMAT_BEGIN
 90
        0
 91
        0
 92
        4
 93
        0
300

 40
0.0
140
1.0
 94
        5
 62
     0
340
11FB
144
0.25
309
CONTENTFORMAT_END
171
     1
301
MARGIN
  1
CELLMARGIN_BEGIN
 40
0.06
 40
0.06
 40
0.06
 40
0.06
 40
0.06
 40
0.06
309
CELLMARGIN_END
 94
        6
 95
        1
302
GRIDFORMAT
  1
GRIDFORMAT_BEGIN
 90
        0
 91
        1
 62
     0
 92
       -2
340
11FD
 93
        0
 40
0.045
309
GRIDFORMAT_END
 95
        2
302
GRIDFORMAT
  1
GRIDFORMAT_BEGIN
 90
        0
 91
        1
 62
     0
 92
       -2
340
11FD
 93
        0
 40
0.045
309
GRIDFORMAT_END
 95
        4
302
GRIDFORMAT
  1
GRIDFORMAT_BEGIN
 90
        0
 91
        1
 62
     0
 92
       -2
340
11FD
 93
        0
 40
0.045
309
GRIDFORMAT_END
 95
        8
302
GRIDFORMAT
  1
GRIDFORMAT_BEGIN
 90
        0
 91
        1
 62
     0
 92
       -2
340
11FD
 93
        0
 40
0.045
309
GRIDFORMAT_END
 95
       16
302
GRIDFORMAT
  1
GRIDFORMAT_BEGIN
 90
        0
 91
        1
 62
     0
 92
       -2
340
11FD
 93
        0
 40
0.045
309
GRIDFORMAT_END
 95
       32
302
GRIDFORMAT
  1
GRIDFORMAT_BEGIN
 90
        0
 91
        1
 62
     0
 92
       -2
340
11FD
 93
        0
 40
0.045
309
GRIDFORMAT_END
309
TABLEFORMAT_END
  1
CELLSTYLE_BEGIN
 90
        1
 91
        1
300
_TITLE
309
CELLSTYLE_END
300
CELLSTYLE
  1
TABLEFORMAT_BEGIN
 90
        5
170
     1
 91
        0
 92
        0
 62
   257
 93
        1
300
CONTENTFORMAT
  1
CONTENTFORMAT_BEGIN
 90
        0
 91
        0
 92
        4
 93
        0
300

 40
0.0
140
1.0
 94
        5
 62
     0
340
11FB
144
0.18
309
CONTENTFORMAT_END
171
     1
301
MARGIN
  1
CELLMARGIN_BEGIN
 40
0.06
 40
0.06
 40
0.06
 40
0.06
 40
0.06
 40
0.06
309
CELLMARGIN_END
 94
        6
 95
        1
302
GRIDFORMAT
  1
GRIDFORMAT_BEGIN
 90
        0
 91
        1
 62
     0
 92
       -2
340
11FD
 93
        0
 40
0.045
309
GRIDFORMAT_END
 95
        2
302
GRIDFORMAT
  1
GRIDFORMAT_BEGIN
 90
        0
 91
        1
 62
     0
 92
       -2
340
11FD
 93
        0
 40
0.045
309
GRIDFORMAT_END
 95
        4
302
GRIDFORMAT
  1
GRIDFORMAT_BEGIN
 90
        0
 91
        1
 62
     0
 92
       -2
340
11FD
 93
        0
 40
0.045
309
GRIDFORMAT_END
 95
        8
302
GRIDFORMAT
  1
GRIDFORMAT_BEGIN
 90
        0
 91
        1
 62
     0
 92
       -2
340
11FD
 93
        0
 40
0.045
309
GRIDFORMAT_END
 95
       16
302
GRIDFORMAT
  1
GRIDFORMAT_BEGIN
 90
        0
 91
        1
 62
     0
 92
       -2
340
11FD
 93
        0
 40
0.045
309
GRIDFORMAT_END
 95
       32
302
GRIDFORMAT
  1
GRIDFORMAT_BEGIN
 90
        0
 91
        1
 62
     0
 92
       -2
340
11FD
 93
        0
 40
0.045
309
GRIDFORMAT_END
309
TABLEFORMAT_END
  1
CELLSTYLE_BEGIN
 90
        2
 91
        1
300
_HEADER
309
CELLSTYLE_END
300
CELLSTYLE
  1
TABLEFORMAT_BEGIN
 90
        5
170
     1
 91
        0
 92
        0
 62
   257
 93
        1
300
CONTENTFORMAT
  1
CONTENTFORMAT_BEGIN
 90
        0
 91
        0
 92
        4
 93
        0
300

 40
0.0
140
1.0
 94
        2
 62
     0
340
11FB
144
0.18
309
CONTENTFORMAT_END
171
     1
301
MARGIN
  1
CELLMARGIN_BEGIN
 40
0.06
 40
0.06
 40
0.06
 40
0.06
 40
0.06
 40
0.06
309
CELLMARGIN_END
 94
        6
 95
        1
302
GRIDFORMAT
  1
GRIDFORMAT_BEGIN
 90
        0
 91
        1
 62
     0
 92
       -2
340
11FD
 93
        0
 40
0.045
309
GRIDFORMAT_END
 95
        2
302
GRIDFORMAT
  1
GRIDFORMAT_BEGIN
 90
        0
 91
        1
 62
     0
 92
       -2
340
11FD
 93
        0
 40
0.045
309
GRIDFORMAT_END
 95
        4
302
GRIDFORMAT
  1
GRIDFORMAT_BEGIN
 90
        0
 91
        1
 62
     0
 92
       -2
340
11FD
 93
        0
 40
0.045
309
GRIDFORMAT_END
 95
        8
302
GRIDFORMAT
  1
GRIDFORMAT_BEGIN
 90
        0
 91
        1
 62
     0
 92
       -2
340
11FD
 93
        0
 40
0.045
309
GRIDFORMAT_END
 95
       16
302
GRIDFORMAT
  1
GRIDFORMAT_BEGIN
 90
        0
 91
        1
 62
     0
 92
       -2
340
11FD
 93
        0
 40
0.045
309
GRIDFORMAT_END
 95
       32
302
GRIDFORMAT
  1
GRIDFORMAT_BEGIN
 90
        0
 91
        1
 62
     0
 92
       -2
340
11FD
 93
        0
 40
0.045
309
GRIDFORMAT_END
309
TABLEFORMAT_END
  1
CELLSTYLE_BEGIN
 90
        3
 91
        2
300
_DATA
309
CELLSTYLE_END
  0
ENDSEC
  0
EOF
