  0
SECTION
  2
HEADER
  9
$ACADVER
  1
AC1009
  9
$DWGCODEPAGE
  3
ansi_932
  9
$INSBASE
 10
0.0
 20
0.0
 30
0.0
  9
$EXTMIN
 10
-76.39858687325318
 20
-43.0
 30
0.0
  9
$EXTMAX
 10
127.0
 20
68.0
 30
0.0
  9
$LIMMIN
 10
0.0
 20
0.0
  9
$LIMMAX
 10
297.0
 20
210.0
  9
$ORTHOMODE
 70
     0
  9
$REGENMODE
 70
     1
  9
$FILLMODE
 70
     1
  9
$QTEXTMODE
 70
     0
  9
$MIRRTEXT
 70
     1
  9
$DRAGMODE
 70
     2
  9
$LTSCALE
 40
10.0
  9
$OSMODE
 70
   511
  9
$ATTMODE
 70
     1
  9
$TEXTSIZE
 40
3.0
  9
$TRACEWID
 40
1.0
  9
$TEXTSTYLE
  7
YOKO
  9
$CLAYER
  8
245
  9
$CELTYPE
  6
BYLAYER
  9
$CECOLOR
 62
   256
  9
$DIMSCALE
 40
1.0
  9
$DIMASZ
 40
2.229999999999999
  9
$DIMEXO
 40
0.5
  9
$DIMDLI
 40
2.5
  9
$DIMRND
 40
0.0
  9
$DIMDLE
 40
0.0
  9
$DIMEXE
 40
1.0
  9
$DIMTP
 40
0.0
  9
$DIMTM
 40
0.0
  9
$DIMTXT
 40
3.0
  9
$DIMCEN
 40
0.0
  9
$DIMTSZ
 40
0.0
  9
$DIMTOL
 70
     0
  9
$DIMLIM
 70
     0
  9
$DIMTIH
 70
     0
  9
$DIMTOH
 70
     0
  9
$DIMSE1
 70
     0
  9
$DIMSE2
 70
     0
  9
$DIMTAD
 70
     3
  9
$DIMZIN
 70
     8
  9
$DIMBLK
  1
OPEN
  9
$DIMASO
 70
     1
  9
$DIMSHO
 70
     1
  9
$DIMPOST
  1

  9
$DIMAPOST
  1

  9
$DIMALT
 70
     0
  9
$DIMALTD
 70
     2
  9
$DIMALTF
 40
25.4
  9
$DIMLFAC
 40
1.0
  9
$DIMTOFL
 70
     1
  9
$DIMTVP
 40
0.0
  9
$DIMTIX
 70
     0
  9
$DIMSOXD
 70
     0
  9
$DIMSAH
 70
     0
  9
$DIMBLK1
  1

  9
$DIMBLK2
  1

  9
$DIMSTYLE
  2
BIGT
  9
$DIMCLRD
 70
   256
  9
$DIMCLRE
 70
   256
  9
$DIMCLRT
 70
    40
  9
$DIMTFAC
 40
1.0
  9
$DIMGAP
 40
1.0
  9
$LUNITS
 70
     2
  9
$LUPREC
 70
     3
  9
$SKETCHINC
 40
1.0
  9
$FILLETRAD
 40
10.0
  9
$AUNITS
 70
     0
  9
$AUPREC
 70
     3
  9
$MENU
  1
.
  9
$ELEVATION
 40
0.0
  9
$PELEVATION
 40
0.0
  9
$THICKNESS
 40
0.0
  9
$LIMCHECK
 70
     0
  9
$CHAMFERA
 40
10.0
  9
$CHAMFERB
 40
10.0
  9
$SKPOLY
 70
     0
  9
$TDCREATE
 40
2452173.411575521
  9
$TDUPDATE
 40
2452370.274256886
  9
$TDINDWG
 40
0.0634982639
  9
$TDUSRTIMER
 40
2455749.57936816
  9
$USRTIMER
 70
     1
  9
$ANGBASE
 50
0.0
  9
$ANGDIR
 70
     0
  9
$PDMODE
 70
    35
  9
$PDSIZE
 40
-5.0
  9
$PLINEWID
 40
0.0
  9
$COORDS
 70
     1
  9
$SPLFRAME
 70
     0
  9
$SPLINETYPE
 70
     6
  9
$SPLINESEGS
 70
     8
  9
$ATTDIA
 70
     0
  9
$ATTREQ
 70
     1
  9
$HANDLING
 70
     1
  9
$HANDSEED
  5
1169
  9
$SURFTAB1
 70
     6
  9
$SURFTAB2
 70
     6
  9
$SURFTYPE
 70
     6
  9
$SURFU
 70
     6
  9
$SURFV
 70
     6
  9
$UCSNAME
  2

  9
$UCSORG
 10
0.0
 20
0.0
 30
0.0
  9
$UCSXDIR
 10
1.0
 20
0.0
 30
0.0
  9
$UCSYDIR
 10
0.0
 20
1.0
 30
0.0
  9
$PUCSNAME
  2

  9
$PUCSORG
 10
0.0
 20
0.0
 30
0.0
  9
$PUCSXDIR
 10
1.0
 20
0.0
 30
0.0
  9
$PUCSYDIR
 10
0.0
 20
1.0
 30
0.0
  9
$USERI1
 70
     1
  9
$USERI2
 70
     0
  9
$USERI3
 70
     0
  9
$USERI4
 70
     0
  9
$USERI5
 70
     0
  9
$USERR1
 40
0.0
  9
$USERR2
 40
0.0
  9
$USERR3
 40
0.0
  9
$USERR4
 40
0.0
  9
$USERR5
 40
0.0
  9
$WORLDVIEW
 70
     1
  9
$SHADEDGE
 70
     3
  9
$SHADEDIF
 70
    70
  9
$TILEMODE
 70
     1
  9
$MAXACTVP
 70
    16
  9
$PLIMCHECK
 70
     0
  9
$PEXTMIN
 10
1.000000000000000E+20
 20
1.000000000000000E+20
 30
1.000000000000000E+20
  9
$PEXTMAX
 10
-1.000000000000000E+20
 20
-1.000000000000000E+20
 30
-1.000000000000000E+20
  9
$PLIMMIN
 10
0.0
 20
0.0
  9
$PLIMMAX
 10
420.0
 20
297.0
  9
$UNITMODE
 70
     0
  9
$VISRETAIN
 70
     0
  9
$PLINEGEN
 70
     0
  9
$PSLTSCALE
 70
     1
  0
ENDSEC
  0
SECTION
  2
TABLES
  0
TABLE
  2
VPORT
 70
     1
  0
VPORT
  2
*ACTIVE
 70
     0
 10
0.0
 20
0.0
 11
1.0
 21
1.0
 12
110.5413331991594
 22
-3.90985054824332
 13
0.0
 23
0.0
 14
7.0
 24
7.0
 15
7.0
 25
7.0
 16
0.0
 26
0.0
 36
1.0
 17
0.0
 27
0.0
 37
0.0
 40
90.56303576110483
 41
1.987603305785124
 42
50.0
 43
0.0
 44
0.0
 50
0.0
 51
0.0
 71
    16
 72
  2000
 73
     1
 74
     0
 75
     0
 76
     0
 77
     0
 78
     0
  0
ENDTAB
  0
TABLE
  2
LTYPE
 70
     4
  0
LTYPE
  2
CONTINUOUS
 70
     0
  3
Solid line
 72
    65
 73
     0
 40
0.0
  0
LTYPE
  2
CENTER2
 70
     0
  3
___ _ ___ _ ___ _ ___ _ ___ _ ___ _ ___ _ ___ _
 72
    65
 73
     4
 40
1.125
 49
0.75
 49
-0.125
 49
0.125
 49
-0.125
  0
LTYPE
  2
HIDDEN2
 70
     0
  3
_ _ _ _ _ _ _ _ _ _ _ _ _ _ _ _ _ _ _ _ _ _ _ _
 72
    65
 73
     2
 40
0.1875
 49
0.125
 49
-0.0625
  0
LTYPE
  2
PHANTOM2
 70
     0
  3
___ _ _ ___ _ _ ___ _ _ ___ _ _ ___ _ _ ___ _ _
 72
    65
 73
     6
 40
1.25
 49
0.625
 49
-0.125
 49
0.125
 49
-0.125
 49
0.125
 49
-0.125
  0
ENDTAB
  0
TABLE
  2
LAYER
 70
    10
  0
LAYER
  2
0
 70
     0
 62
     7
  6
CONTINUOUS
  0
LAYER
  2
240
 70
     0
 62
     4
  6
CONTINUOUS
  0
LAYER
  2
241
 70
     0
 62
   211
  6
CONTINUOUS
  0
LAYER
  2
242
 70
     0
 62
     3
  6
CONTINUOUS
  0
LAYER
  2
243
 70
     0
 62
   211
  6
HIDDEN2
  0
LAYER
  2
245
 70
     0
 62
     2
  6
CENTER2
  0
LAYER
  2
246
 70
     0
 62
     3
  6
PHANTOM2
  0
LAYER
  2
247
 70
     0
 62
    60
  6
CONTINUOUS
  0
LAYER
  2
250
 70
     0
 62
     3
  6
CONTINUOUS
  0
LAYER
  2
DEFPOINTS
 70
     0
 62
     7
  6
CONTINUOUS
  0
ENDTAB
  0
TABLE
  2
STYLE
 70
     2
  0
STYLE
  2
STANDARD
 70
     0
 40
0.0
 41
1.0
 50
0.0
 71
     0
 42
3.0
  3
romans.shx
  4
BIGFONT.SHX
  0
STYLE
  2
YOKO
 70
     0
 40
0.0
 41
1.0
 50
0.0
 71
     0
 42
3.0
  3
romans.shx
  4
extfont.shx
  0
ENDTAB
  0
TABLE
  2
VIEW
 70
     0
  0
ENDTAB
  0
TABLE
  2
UCS
 70
     0
  0
ENDTAB
  0
TABLE
  2
APPID
 70
    11
  0
APPID
  2
ACAD
 70
     0
  0
APPID
  2
GLOBAL
 70
     0
  0
APPID
  2
DETAIL
 70
     0
  0
APPID
  2
GRPNAME
 70
     0
  0
APPID
  2
GPARA
 70
     0
  0
APPID
  2
ITEMNAME
 70
     0
  0
APPID
  2
HATCH_TYPE
 70
     0
  0
APPID
  2
HATCH_DISPLAY
 70
     0
  0
APPID
  2
HATCH_DISTANCE
 70
     0
  0
APPID
  2
INSERT_PATH
 70
     0
  0
APPID
  2
INSERT_NAME
 70
     0
  0
ENDTAB
  0
TABLE
  2
DIMSTYLE
 70
     2
  0
DIMSTYLE
  2
STANDARD
 70
     0
  3

  4

  5

  6

  7

 40
1.0
 41
2.0
 42
2.0
 43
3.75
 44
2.0
 45
0.0
 46
0.0
 47
0.0
 48
0.0
140
4.0
141
0.09
142
0.0
143
25.4
144
1.0
145
0.0
146
1.0
147
1.0
 71
     0
 72
     0
 73
     1
 74
     1
 75
     0
 76
     0
 77
     0
 78
     8
170
     0
171
     2
172
     0
173
     1
174
     0
175
     0
176
   256
177
   256
178
   256
  0
DIMSTYLE
  2
BIGT
 70
     0
  3

  4

  5
OPEN
  6

  7

 40
1.0
 41
2.229999999999999
 42
0.5
 43
2.5
 44
1.0
 45
0.0
 46
0.0
 47
0.0
 48
0.0
140
3.5
141
0.0
142
0.0
143
25.4
144
1.0
145
0.0
146
1.0
147
1.0
 71
     0
 72
     0
 73
     0
 74
     0
 75
     0
 76
     0
 77
     3
 78
     9
170
     0
171
     2
172
     1
173
     0
174
     0
175
     0
176
   256
177
   256
178
    40
  0
ENDTAB
  0
ENDSEC
  0
SECTION
  2
BLOCKS
  0
BLOCK
  8
0
  2
$MODEL_SPACE
 70
     0
 10
0.0
 20
0.0
 30
0.0
  3
$MODEL_SPACE
  1

  0
ENDBLK
  5
1C
  8
0
  0
BLOCK
 67
     1
  8
0
  2
$PAPER_SPACE
 70
     0
 10
0.0
 20
0.0
 30
0.0
  3
$PAPER_SPACE
  1

  0
ENDBLK
  5
19
 67
     1
  8
0
  0
BLOCK
  8
0
  2
_OPEN
 70
     0
 10
0.0
 20
0.0
 30
0.0
  3
_OPEN
  1

  0
LINE
  5
595
  8
0
  6
BYBLOCK
 62
     0
 10
-1.0
 20
0.1666666666666666
 30
0.0
 11
0.0
 21
0.0
 31
0.0
  0
LINE
  5
596
  8
0
  6
BYBLOCK
 62
     0
 10
-1.0
 20
-0.1666666666666666
 30
0.0
 11
0.0
 21
0.0
 31
0.0
  0
LINE
  5
597
  8
0
  6
BYBLOCK
 62
     0
 10
0.0
 20
0.0
 30
0.0
 11
-1.0
 21
0.0
 31
0.0
  0
ENDBLK
  5
599
  8
0
  0
BLOCK
  8
0
  2
A$C370566AD
 70
     0
 10
0.0
 20
0.0
 30
0.0
  3
A$C370566AD
  1

  0
ARC
  5
B95
  8
240
 10
37.0
 20
-22.25000000000002
 30
0.0
 40
10.0
 50
90.0
 51
180.0
  0
ARC
  5
B96
  8
240
 10
37.00000000000002
 20
22.25
 30
0.0
 40
10.0
 50
180.0
 51
270.0
  0
LINE
  5
B97
  8
245
 10
-76.39858687325318
 20
0.0
 30
0.0
 11
108.6790978728599
 21
0.0
 31
0.0
  0
ARC
  5
B98
  8
240
 10
26.0
 20
-30.5
 30
0.0
 40
1.0
 50
270.0
 51
0.0
  0
ARC
  5
B99
  8
240
 10
3.0
 20
-30.5
 30
0.0
 40
1.0
 50
180.0
 51
270.0
  0
LINE
  5
B9A
  8
243
 10
23.00000000000005
 20
-22.49999999999994
 30
0.0
 11
23.00000000000005
 21
-31.5
 31
0.0
  0
LINE
  5
B9B
  8
241
 10
11.59999999999996
 20
-31.32679491924312
 30
0.0
 11
11.59999999999996
 21
31.32679491924312
 31
0.0
  0
LINE
  5
B9C
  8
241
 10
21.59999999999996
 20
-31.3267949192431
 30
0.0
 11
21.59999999999996
 21
31.32679491924312
 31
0.0
  0
LINE
  5
B9D
  8
240
 10
14.4001488055697
 20
-26.65
 30
0.0
 11
11.75
 21
-31.24019237886466
 31
0.0
  0
LINE
  5
B9E
  8
240
 10
18.79985119443034
 20
-26.65
 30
0.0
 11
21.44999999999999
 21
-31.24019237886466
 31
0.0
  0
LINE
  5
B9F
  8
240
 10
11.30000000000001
 20
-31.5
 30
0.0
 11
11.75
 21
-31.24019237886466
 31
0.0
  0
LINE
  5
BA0
  8
240
 10
3.0
 20
-31.5
 30
0.0
 11
11.30000000000001
 21
-31.5
 31
0.0
  0
LINE
  5
BA1
  8
240
 10
21.90000000000003
 20
-31.5
 30
0.0
 11
26.0
 21
-31.5
 31
0.0
  0
LINE
  5
BA2
  8
240
 10
21.44999999999999
 20
-31.24019237886466
 30
0.0
 11
21.90000000000003
 21
-31.5
 31
0.0
  0
LINE
  5
BA3
  8
240
 10
-0.0000000000000853
 20
22.22499999999996
 30
0.0
 11
-63.68861378614349
 21
12.93707715618739
 31
0.0
  0
LINE
  5
BA4
  8
240
 10
-0.0000000000000853
 20
-22.22499999999999
 30
0.0
 11
-63.68861378614349
 21
-12.93707715618742
 31
0.0
  0
LINE
  5
BA5
  8
240
 10
-65.40000000000003
 20
0.0
 30
0.0
 11
-65.4
 21
10.95801119406081
 31
0.0
  0
LINE
  5
BA6
  8
240
 10
-65.40000000000003
 20
0.0
 30
0.0
 11
-65.4
 21
-10.95801119406081
 31
0.0
  0
ARC
  5
BA7
  8
240
 10
-63.40000000000003
 20
-10.95801119406081
 30
0.0
 40
2.0
 50
180.0
 51
261.7028550301632
  0
ARC
  5
BA8
  8
240
 10
-63.40000000000003
 20
10.95801119406081
 30
0.0
 40
1.999999999999991
 50
98.29714496983684
 51
180.0
  0
LINE
  5
BA9
  8
241
 10
26.99999999999997
 20
22.25
 30
0.0
 11
26.99999999999985
 21
-22.25000000000002
 31
0.0
  0
TEXT
  5
BAA
  8
247
 10
7.599999999999937
 20
-13.17886170252697
 30
0.0
 40
3.0
  1
BT40-NBS8-105
 50
90.0
  7
YOKO
 11
8.599999999999937
 21
-13.17886170252697
 31
0.0
 73
     1
  0
LINE
  5
BAB
  8
241
 10
14.4867513459481
 20
-26.5
 30
0.0
 11
14.4867513459481
 21
26.55505102571902
 31
0.0
  0
LINE
  5
BAC
  8
241
 10
18.71324865405193
 20
-26.5
 30
0.0
 11
18.71324865405193
 21
26.55505102571902
 31
0.0
  0
LINE
  5
BAD
  8
241
 10
0.0
 20
22.22499999999996
 30
0.0
 11
0.0
 21
-22.22499999999999
 31
0.0
  0
LINE
  5
BAE
  8
241
 10
2.000000000000028
 20
22.22499999999996
 30
0.0
 11
2.000000000000028
 21
-22.22499999999999
 31
0.0
  0
LINE
  5
BAF
  8
243
 10
2.000000000000028
 20
-22.49999999999994
 30
0.0
 11
23.00000000000005
 21
-22.49999999999994
 31
0.0
  0
LINE
  5
BB0
  8
240
 10
0.0
 20
-22.22499999999999
 30
0.0
 11
2.000000000000028
 21
-22.22500000000044
 31
0.0
  0
LINE
  5
BB1
  8
247
 10
8.505718437912435
 20
-23.3547200932401
 30
0.0
 11
8.505718437912435
 21
-22.45072839402135
 31
0.0
  0
LINE
  5
BB2
  8
247
 10
9.111980634541794
 20
-26.46797082566198
 30
0.0
 11
9.111980634541794
 21
-18.26327417038854
 31
0.0
  0
LINE
  5
BB3
  8
247
 10
8.707805840256185
 20
-26.46797082566198
 30
0.0
 11
8.707805840256185
 21
-18.26327417038854
 31
0.0
  0
LINE
  5
BB4
  8
247
 10
8.505718437912435
 20
-23.3547200932401
 30
0.0
 11
5.312755314590901
 21
-22.43914697312291
 31
0.0
  0
INSERT
  5
BB5
  8
247
  2
*X13
 10
0.0
 20
0.0
 30
0.0
  0
POLYLINE
  5
BB6
  8
247
 66
     1
 10
0.0
 20
0.0
 30
0.0
 70
     1
1001
HATCH_DISTANCE
1040
1.0
1001
HATCH_DISPLAY
1070
     0
1001
HATCH_TYPE
1070
     7
  0
VERTEX
  5
10FA
  8
247
 10
4.868175236465901
 20
-22.45883081101354
 30
0.0
  0
VERTEX
  5
10FB
  8
247
 10
5.312755314590901
 20
-22.58631799363072
 30
0.0
  0
VERTEX
  5
10FC
  8
247
 10
5.312755314590901
 20
-22.43914697312291
 30
0.0
  0
VERTEX
  5
10FD
  8
247
 10
8.505718437912435
 20
-23.3547200932401
 30
0.0
  0
VERTEX
  5
10FE
  8
247
 10
8.505718437912435
 20
-22.45072839402135
 30
0.0
  0
VERTEX
  5
10FF
  8
247
 10
4.868175236465901
 20
-21.40768335007604
 30
0.0
  0
SEQEND
  5
1168
  8
247
  0
POLYLINE
  5
BBE
  8
247
 66
     1
 10
0.0
 20
0.0
 30
0.0
 70
     1
  0
VERTEX
  5
1100
  8
247
 10
4.868175236465901
 20
-22.45883081101354
 30
0.0
  0
VERTEX
  5
1101
  8
247
 10
5.312755314590901
 20
-22.58631799363072
 30
0.0
  0
VERTEX
  5
1102
  8
247
 10
5.312755314590901
 20
-22.43914697312291
 30
0.0
  0
VERTEX
  5
1103
  8
247
 10
8.505718437912435
 20
-23.3547200932401
 30
0.0
  0
VERTEX
  5
1104
  8
247
 10
8.505718437912435
 20
-22.45072839402135
 30
0.0
  0
VERTEX
  5
1105
  8
247
 10
4.868175236465901
 20
-21.40768335007604
 30
0.0
  0
SEQEND
  5
1167
  8
247
  0
LINE
  5
BC6
  8
240
 10
2.000000000000028
 20
-22.22499999999999
 30
0.0
 11
2.0
 21
-30.5
 31
0.0
  0
INSERT
  5
BC7
  8
247
  2
*X14
 10
0.0
 20
0.0
 30
0.0
  0
LINE
  5
BC8
  8
247
 10
6.882545541329307
 20
-25.79045103955215
 30
0.0
 11
5.467765893925644
 21
-24.37567139214846
 31
0.0
  0
LINE
  5
BC9
  8
247
 10
7.033145168207965
 20
-24.59401224827038
 30
0.0
 11
5.586814224741658
 21
-23.14768130480413
 31
0.0
  0
LINE
  5
BCA
  8
247
 10
8.505718437912435
 20
-26.25588891648223
 30
0.0
 11
5.272350041154595
 21
-25.32873437546706
 31
0.0
  0
ARC
  5
BCB
  8
247
 10
5.878596989395589
 20
-24.11506555222448
 30
0.0
 40
1.010430335998535
 50
17.66957754739792
 51
180.2361598426716
  0
ARC
  5
BCC
  8
247
 10
5.838191715958089
 20
-24.56597802781042
 30
0.0
 40
0.6062452793121338
 50
351.6626016879293
 51
156.3381550951899
  0
LINE
  5
BCD
  8
247
 10
5.282914148698012
 20
-24.32266719371964
 30
0.0
 11
6.438029940731894
 21
-24.65388390240625
 31
0.0
  0
LINE
  5
BCE
  8
247
 10
6.253018573039867
 20
-25.60993687731619
 30
0.0
 11
4.868175236466043
 21
-24.22509354074233
 31
0.0
  0
LINE
  5
BCF
  8
247
 10
5.962796341641023
 20
-23.97267622775697
 30
0.0
 11
5.286448824886349
 21
-23.2963287110023
 31
0.0
  0
ARC
  5
BD0
  8
247
 10
6.990077702286214
 20
-26.46797082566198
 30
0.0
 40
1.717727661132812
 50
180.0
 51
0.0
  0
ARC
  5
BD1
  8
247
 10
6.990077702286214
 20
-26.46797082566198
 30
0.0
 40
2.121902465820312
 50
180.0
 51
0.0
  0
LINE
  5
BD2
  8
247
 10
5.272350041153401
 20
-26.46797082566198
 30
0.0
 11
5.272350041153401
 21
-25.74919030808385
 31
0.0
  0
LINE
  5
BD3
  8
247
 10
4.868175236465901
 20
-26.46797082566198
 30
0.0
 11
4.868175236465901
 21
-25.63329980515416
 31
0.0
  0
LINE
  5
BD4
  8
247
 10
5.272350041153401
 20
-25.53896997117024
 30
0.0
 11
5.272350041154595
 21
-25.32873437546706
 31
0.0
  0
LINE
  5
BD5
  8
247
 10
5.272350041153458
 20
-25.52729395753667
 30
0.0
 11
4.86817523646593
 21
-25.12311915284917
 31
0.0
  0
LINE
  5
BD6
  8
247
 10
4.868175236465901
 20
-25.42307946823987
 30
0.0
 11
5.272350041153401
 21
-25.53896997117024
 31
0.0
  0
LINE
  5
BD7
  8
247
 10
4.868175236465901
 20
-25.42307946823987
 30
0.0
 11
4.868175236466043
 21
-24.11923029866042
 31
0.0
  0
LINE
  5
BD8
  8
247
 10
4.868175236465901
 20
-25.63329980515416
 30
0.0
 11
5.272350041153401
 21
-25.74919030808385
 31
0.0
  0
LINE
  5
BD9
  8
247
 10
5.329018845699181
 20
-24.23692434392203
 30
0.0
 11
4.912182206186741
 21
-23.82008770440958
 31
0.0
  0
LINE
  5
BDA
  8
247
 10
5.623491604750427
 20
-25.42942271508022
 30
0.0
 11
4.868175236465987
 21
-24.67410634679575
 31
0.0
  0
LINE
  5
BDB
  8
247
 10
5.565587270221612
 20
-24.02447996239098
 30
0.0
 11
5.061611158830885
 21
-23.52050385100025
 31
0.0
  0
ARC
  5
BDC
  8
247
 10
7.495296208145589
 20
-24.57864282273229
 30
0.0
 40
1.010421752929687
 50
0.0
 51
130.3298406541676
  0
LINE
  5
BDD
  8
247
 10
8.505718437912435
 20
-26.25588891648223
 30
0.0
 11
8.505718437912435
 21
-24.57864282273229
 31
0.0
  0
LINE
  5
BDE
  8
247
 10
7.512072509618747
 20
-25.97096520178812
 30
0.0
 11
6.097286903938936
 21
-24.5561795961083
 31
0.0
  0
LINE
  5
BDF
  8
247
 10
8.141599477908159
 20
-26.15147936402408
 30
0.0
 11
6.431493516011528
 21
-24.44137340212748
 31
0.0
  0
LINE
  5
BE0
  8
247
 10
6.899581285387711
 20
-24.78623964032718
 30
0.0
 11
8.054731339309939
 21
-25.1174617979473
 31
0.0
  0
ARC
  5
BE1
  8
247
 10
7.454875675919026
 20
-25.02955529831822
 30
0.0
 40
0.6062626242637635
 50
351.6628542111488
 51
156.3381921591134
  0
LINE
  5
BE2
  8
247
 10
8.505718437912435
 20
-26.06658551797491
 30
0.0
 11
7.356341895667583
 21
-24.91720897573006
 31
0.0
  0
LINE
  5
BE3
  8
247
 10
8.505718437912435
 20
-25.61757271192149
 30
0.0
 11
7.985859562750221
 21
-25.09771383675925
 31
0.0
  0
LINE
  5
BE4
  8
247
 10
8.429961694562849
 20
-24.19477755041148
 30
0.0
 11
7.879161480466393
 21
-23.64397733631503
 31
0.0
  0
LINE
  5
BE5
  8
247
 10
8.505718437912435
 20
-25.16855990586802
 30
0.0
 11
7.022709184768814
 21
-23.6855506527244
 31
0.0
  0
LINE
  5
BE6
  8
247
 10
8.505718437912464
 20
-24.71954709981455
 30
0.0
 11
7.363080148100436
 21
-23.57690881000255
 31
0.0
  0
LINE
  5
BE7
  8
247
 10
7.325420841170057
 20
-24.43727511517912
 30
0.0
 11
6.00011460659482
 21
-23.11196888060388
 31
0.0
  0
LINE
  5
BE8
  8
247
 10
7.519771305801839
 20
-20.80152795456823
 30
0.0
 11
5.620158879044026
 21
-20.2568197026151
 31
0.0
  0
ARC
  5
BE9
  8
247
 10
6.990077702286214
 20
-18.26327417038854
 30
0.0
 40
1.717727661132812
 50
0.0
 51
194.1274364964119
  0
ARC
  5
BEA
  8
247
 10
6.990077702286214
 20
-18.26327417038854
 30
0.0
 40
2.121902465820312
 50
0.0
 51
194.7707939660941
  0
INSERT
  5
BEB
  8
247
  2
*X15
 10
0.0
 20
0.0
 30
0.0
  0
LINE
  5
BEC
  8
247
 10
8.505718437912435
 20
-22.45072839402135
 30
0.0
 11
4.868175236465901
 21
-21.40768335007604
 31
0.0
  0
ARC
  5
BED
  8
247
 10
6.181728092911214
 20
-20.06045434616979
 30
0.0
 40
1.313554763793945
 50
143.4440121970573
 51
254.0001843876854
  0
LINE
  5
BEE
  8
247
 10
5.385066715958089
 20
-18.87527368210729
 30
0.0
 11
4.999065129044026
 21
-18.99699304245885
 31
0.0
  0
ARC
  5
BEF
  8
247
 10
6.990077702286214
 20
-18.26327417038854
 30
0.0
 40
2.121903419494628
 50
200.2296450633201
 51
208.5716889237166
  0
LINE
  5
BF0
  8
247
 10
4.868175236465901
 20
-22.45883081101354
 30
0.0
 11
4.868175236465901
 21
-21.40768335007604
 31
0.0
  0
LINE
  5
BF1
  8
247
 10
5.312755314590901
 20
-22.58631799363072
 30
0.0
 11
5.312755314590901
 21
-22.43914697312291
 31
0.0
  0
LINE
  5
BF2
  8
247
 10
5.312755314590901
 20
-22.58631799363072
 30
0.0
 11
4.868175236465901
 21
-22.45883081101354
 31
0.0
  0
ARC
  5
BF3
  8
247
 10
6.990077702286214
 20
-18.26327417038854
 30
0.0
 40
1.717732429504394
 50
200.8721834020736
 51
222.5419489373875
  0
ARC
  5
BF4
  8
247
 10
5.737148014786214
 20
-19.84887597702916
 30
0.0
 40
0.4243833422660828
 50
91.71012138206433
 51
253.9983983544486
  0
POLYLINE
  5
BF5
  8
247
 66
     1
 10
0.0
 20
0.0
 30
0.0
 70
     1
1001
HATCH_DISTANCE
1040
1.0
1001
HATCH_DISPLAY
1070
     0
1001
HATCH_TYPE
1070
     7
  0
VERTEX
  5
1145
  8
247
 10
5.324290959122151
 20
-18.68253991745885
 30
0.0
  0
VERTEX
  5
1146
  8
247
 10
4.938289372208089
 20
-18.80425927781041
 30
0.0
  0
VERTEX
  5
1147
  8
247
 10
4.938289372208089
 20
-18.80425927781041
 30
0.0
  0
VERTEX
  5
1148
  8
247
 10
5.324290959122151
 20
-18.68253991745885
 30
0.0
  0
SEQEND
  5
1166
  8
247
  0
POLYLINE
  5
BFB
  8
247
 66
     1
 10
0.0
 20
0.0
 30
0.0
 70
     1
  0
VERTEX
  5
1149
  8
247
 10
5.324290959122151
 20
-18.68253991745885
 30
0.0
  0
VERTEX
  5
114A
  8
247
 10
4.938289372208089
 20
-18.80425927781041
 30
0.0
  0
VERTEX
  5
114B
  8
247
 10
4.938289372208089
 20
-18.80425927781041
 30
0.0
  0
VERTEX
  5
114C
  8
247
 10
5.324290959122151
 20
-18.68253991745885
 30
0.0
  0
SEQEND
  5
1165
  8
247
  0
POLYLINE
  5
C01
  8
247
 66
     1
 10
0.0
 20
0.0
 30
0.0
 70
     1
1001
HATCH_DISTANCE
1040
1.0
1001
HATCH_DISPLAY
1070
     0
1001
HATCH_TYPE
1070
     7
  0
VERTEX
  5
114D
  8
247
 10
5.324290959122151
 20
-18.68253991745885
 30
0.0
  0
VERTEX
  5
114E
  8
247
 10
4.938289372208089
 20
-18.80425927781041
 30
0.0
  0
VERTEX
  5
114F
  8
247
 10
4.938289372208089
 20
-18.80425927781041
 30
0.0
  0
VERTEX
  5
1150
  8
247
 10
5.324290959122151
 20
-18.68253991745885
 30
0.0
  0
SEQEND
  5
1164
  8
247
  0
POLYLINE
  5
C07
  8
247
 66
     1
 10
0.0
 20
0.0
 30
0.0
 70
     1
  0
VERTEX
  5
1151
  8
247
 10
5.324290959122151
 20
-18.68253991745885
 30
0.0
  0
VERTEX
  5
1152
  8
247
 10
4.938289372208089
 20
-18.80425927781041
 30
0.0
  0
VERTEX
  5
1153
  8
247
 10
4.938289372208089
 20
-18.80425927781041
 30
0.0
  0
VERTEX
  5
1154
  8
247
 10
5.324290959122151
 20
-18.68253991745885
 30
0.0
  0
SEQEND
  5
1163
  8
247
  0
LINE
  5
C0D
  8
247
 10
5.324290959122151
 20
-18.68253991745885
 30
0.0
 11
4.938289372208089
 21
-18.80425927781041
 31
0.0
  0
LINE
  5
C0E
  8
247
 10
8.505718437912435
 20
-19.36035058640416
 30
0.0
 11
6.444438664200276
 21
-18.76928613327916
 31
0.0
  0
LINE
  5
C0F
  8
247
 10
6.444438664200276
 20
-19.94657800339635
 30
0.0
 11
6.444438664200276
 21
-18.76928613327916
 31
0.0
  0
ARC
  5
C10
  8
247
 10
7.192165104629964
 20
-20.35018823288854
 30
0.0
 40
1.313568115234375
 50
253.9997507017277
 51
34.96387329163082
  0
LINE
  5
C11
  8
247
 10
8.268642632248373
 20
-19.59744165085729
 30
0.0
 11
8.505718437912435
 21
-19.36035058640416
 31
0.0
  0
ARC
  5
C12
  8
247
 10
7.636745182754964
 20
-20.39358422898229
 30
0.0
 40
0.4243830442428589
 50
254.0002730571842
 51
74.00027305718427
  0
LINE
  5
C13
  8
247
 10
6.848613468887776
 20
-20.06246850632604
 30
0.0
 11
6.444438664200276
 21
-19.94657800339635
 31
0.0
  0
LINE
  5
C14
  8
247
 10
6.848613468887776
 20
-20.06246850632604
 30
0.0
 11
6.848613468887776
 21
-19.72610376023229
 31
0.0
  0
LINE
  5
C15
  8
247
 10
7.753719059708089
 20
-19.98564050339635
 30
0.0
 11
6.848613468887776
 21
-19.72610376023229
 31
0.0
  0
ARC
  5
C16
  8
247
 10
7.261226383926839
 20
-18.20257470749791
 30
0.0
 40
3.43743896484375
 50
245.2051773698423
 51
262.7948259620506
  0
LINE
  5
C17
  8
240
 10
14.65995642670498
 20
-26.5
 30
0.0
 11
18.540043573295
 21
-26.5
 31
0.0
  0
ARC
  5
C18
  8
240
 10
14.65995642670503
 20
-26.80000000000001
 30
0.0
 40
0.3000000000000114
 50
90.0000000000114
 51
149.9999999999998
  0
ARC
  5
C19
  8
240
 10
18.540043573295
 20
-26.80000000000001
 30
0.0
 40
0.3000000000000078
 50
29.99999999999973
 51
90.0
  0
LINE
  5
C1A
  8
240
 10
27.0
 20
-22.25000000000002
 30
0.0
 11
27.0
 21
-30.5
 31
0.0
  0
LINE
  5
C1B
  8
240
 10
11.30000000000001
 20
31.49999999999994
 30
0.0
 11
11.75
 21
31.2401923788646
 31
0.0
  0
LINE
  5
C1C
  8
243
 10
2.000000000000028
 20
22.50000000000005
 30
0.0
 11
23.00000000000005
 21
22.50000000000005
 31
0.0
  0
LINE
  5
C1D
  8
240
 10
0.0
 20
22.22499999999985
 30
0.0
 11
2.000000000000028
 21
22.22499999999985
 31
0.0
  0
LINE
  5
C1E
  8
240
 10
2.000000000000028
 20
22.22499999999996
 30
0.0
 11
2.0
 21
30.49999999999994
 31
0.0
  0
LINE
  5
C1F
  8
240
 10
3.0
 20
31.49999999999994
 30
0.0
 11
11.30000000000001
 21
31.49999999999994
 31
0.0
  0
ARC
  5
C20
  8
240
 10
3.0
 20
30.49999999999994
 30
0.0
 40
1.0
 50
90.0
 51
180.0
  0
LINE
  5
C21
  8
240
 10
21.90000000000003
 20
31.49999999999994
 30
0.0
 11
26.0
 21
31.49999999999994
 31
0.0
  0
LINE
  5
C22
  8
243
 10
23.00000000000005
 20
31.49999999999994
 30
0.0
 11
23.00000000000005
 21
22.50000000000005
 31
0.0
  0
LINE
  5
C23
  8
240
 10
14.65995642670498
 20
26.49999999999994
 30
0.0
 11
18.540043573295
 21
26.49999999999994
 31
0.0
  0
LINE
  5
C24
  8
240
 10
14.4001488055697
 20
26.65000000000003
 30
0.0
 11
11.75
 21
31.2401923788646
 31
0.0
  0
ARC
  5
C25
  8
240
 10
14.65995642670503
 20
26.80000000000001
 30
0.0
 40
0.3000000000000078
 50
209.9999999999997
 51
269.9999999999885
  0
LINE
  5
C26
  8
240
 10
18.79985119443034
 20
26.65000000000003
 30
0.0
 11
21.44999999999999
 21
31.2401923788646
 31
0.0
  0
ARC
  5
C27
  8
240
 10
18.540043573295
 20
26.80000000000001
 30
0.0
 40
0.3000000000000114
 50
270.0
 51
330.0000000000002
  0
LINE
  5
C28
  8
240
 10
21.44999999999999
 20
31.2401923788646
 30
0.0
 11
21.90000000000003
 21
31.49999999999994
 31
0.0
  0
LINE
  5
C29
  8
240
 10
27.00000000000002
 20
22.25
 30
0.0
 11
27.0
 21
30.49999999999994
 31
0.0
  0
ARC
  5
C2A
  8
240
 10
26.0
 20
30.49999999999994
 30
0.0
 40
1.0
 50
0.0
 51
90.0
  0
LINE
  5
C2B
  8
240
 10
37.00000000000002
 20
12.25
 30
0.0
 11
88.49999999999999
 21
12.25
 31
0.0
  0
LINE
  5
C2C
  8
240
 10
37.0
 20
-12.25000000000002
 30
0.0
 11
88.49999999999999
 21
-12.25
 31
0.0
  0
LINE
  5
C2D
  8
246
 10
57.0
 20
-2.899999999999977
 30
0.0
 11
57.0
 21
2.900000000000034
 31
0.0
  0
LINE
  5
C2E
  8
246
 10
70.0
 20
4.0
 30
0.0
 11
70.0
 21
-4.0
 31
0.0
  0
LINE
  5
C2F
  8
246
 10
65.49999999999997
 20
2.0
 30
0.0
 11
65.82136720504587
 21
1.44337567297407
 31
0.0
  0
LINE
  5
C30
  8
246
 10
65.5
 20
2.0
 30
0.0
 11
65.5
 21
1.029999694814875
 31
0.0
  0
LINE
  5
C31
  8
246
 10
67.69337567297407
 20
1.44337567297407
 30
0.0
 11
70.0
 21
3.75
 31
0.0
  0
LINE
  5
C32
  8
246
 10
57.0
 20
-2.0
 30
0.0
 11
65.5
 21
-1.999999999999943
 31
0.0
  0
LINE
  5
C33
  8
246
 10
58.0
 20
-3.899999999999977
 30
0.0
 11
59.99999999999997
 21
-3.899999999999977
 31
0.0
  0
ARC
  5
C34
  8
246
 10
58.0
 20
-2.899999999999977
 30
0.0
 40
1.0
 50
180.0
 51
270.0
  0
LINE
  5
C35
  8
246
 10
60.30000000000001
 20
-4.199999999999988
 30
0.0
 11
69.79999999999998
 21
-4.199999999999988
 31
0.0
  0
LINE
  5
C36
  8
246
 10
69.5
 20
-4.5
 30
0.0
 11
70.0
 21
-4.0
 31
0.0
  0
LINE
  5
C37
  8
246
 10
67.69337567297407
 20
-1.443375672974013
 30
0.0
 11
70.0
 21
-3.75
 31
0.0
  0
LINE
  5
C38
  8
246
 10
60.59999999999999
 20
-4.5
 30
0.0
 11
69.5
 21
-4.5
 31
0.0
  0
LINE
  5
C39
  8
246
 10
60.59999999999999
 20
-4.5
 30
0.0
 11
59.99999999999997
 21
-3.899999999999977
 31
0.0
  0
LINE
  5
C3A
  8
246
 10
67.69337567297404
 20
-0.7216878364869787
 30
0.0
 11
65.82136720504587
 21
-0.7216878364869787
 31
0.0
  0
LINE
  5
C3B
  8
246
 10
67.69337567297404
 20
-1.443375672974013
 30
0.0
 11
65.82136720504587
 21
-1.443375672974013
 31
0.0
  0
LINE
  5
C3C
  8
246
 10
67.69337567297404
 20
0.7216878364870354
 30
0.0
 11
65.82136720504587
 21
0.7216878364870354
 31
0.0
  0
LINE
  5
C3D
  8
246
 10
67.69337567297404
 20
1.44337567297407
 30
0.0
 11
65.82136720504587
 21
1.44337567297407
 31
0.0
  0
LINE
  5
C3E
  8
246
 10
65.82136720504587
 20
1.44337567297407
 30
0.0
 11
65.82136720504587
 21
-1.443375672974013
 31
0.0
  0
LINE
  5
C3F
  8
246
 10
65.49999999999997
 20
-1.999999999999943
 30
0.0
 11
65.82136720504587
 21
-1.443375672974013
 31
0.0
  0
LINE
  5
C40
  8
246
 10
65.5
 20
-1.999999999999943
 30
0.0
 11
65.5
 21
-1.029999694814875
 31
0.0
  0
LINE
  5
C41
  8
246
 10
67.69337567297404
 20
1.44337567297407
 30
0.0
 11
67.69337567297404
 21
-1.443375672974013
 31
0.0
  0
LINE
  5
C42
  8
246
 10
57.0
 20
2.000000000000056
 30
0.0
 11
65.5
 21
2.0
 31
0.0
  0
LINE
  5
C43
  8
246
 10
58.0
 20
3.900000000000034
 30
0.0
 11
59.99999999999997
 21
3.900000000000034
 31
0.0
  0
ARC
  5
C44
  8
246
 10
58.0
 20
2.900000000000034
 30
0.0
 40
1.0
 50
90.0
 51
180.0
  0
LINE
  5
C45
  8
246
 10
60.29999999999998
 20
4.199999999999988
 30
0.0
 11
69.79999999999998
 21
4.199999999999988
 31
0.0
  0
LINE
  5
C46
  8
246
 10
70.0
 20
4.0
 30
0.0
 11
69.5
 21
4.5
 31
0.0
  0
LINE
  5
C47
  8
246
 10
60.59999999999999
 20
4.5
 30
0.0
 11
69.5
 21
4.5
 31
0.0
  0
LINE
  5
C48
  8
246
 10
60.59999999999999
 20
4.5
 30
0.0
 11
59.99999999999997
 21
3.900000000000034
 31
0.0
  0
LINE
  5
C49
  8
246
 10
86.99999999999977
 20
4.736499012174476
 30
0.0
 11
87.00000000000031
 21
-4.736499012174192
 31
0.0
  0
LINE
  5
C4A
  8
240
 10
105.0
 20
0.0
 30
0.0
 11
105.0
 21
11.59289321881345
 31
0.0
  0
LINE
  5
C4B
  8
241
 10
104.0514718625759
 20
12.13812677388836
 30
0.0
 11
104.0514718625759
 21
-12.18543046357615
 31
0.0
  0
LINE
  5
C4C
  8
241
 10
91.5
 20
7.5
 30
0.0
 11
91.5
 21
0.0
 31
0.0
  0
LINE
  5
C4D
  8
241
 10
94.30000000000001
 20
9.800000000000011
 30
0.0
 11
94.30000000000001
 21
0.0
 31
0.0
  0
LINE
  5
C4E
  8
241
 10
94.0
 20
8.0
 30
0.0
 11
94.0
 21
0.0
 31
0.0
  0
LINE
  5
C4F
  8
241
 10
89.50000000000001
 20
9.0
 30
0.0
 11
89.50000000000001
 21
0.0
 31
0.0
  0
LINE
  5
C50
  8
246
 10
105.0
 20
-4.0
 30
0.0
 11
87.0
 21
-4.0
 31
0.0
  0
LINE
  5
C51
  8
246
 10
105.0
 20
-5.326239569296603
 30
0.0
 11
103.3999999999999
 21
-6.25
 31
0.0
  0
ARC
  5
C52
  8
240
 10
104.0514718625759
 20
-11.90000000000014
 30
0.0
 40
0.5999999999999944
 50
269.9999999999967
 51
314.9999999999994
  0
LINE
  5
C53
  8
246
 10
101.3999999999999
 20
-6.249999999999943
 30
0.0
 11
87.0
 21
-4.736499012174249
 31
0.0
  0
LINE
  5
C54
  8
240
 10
94.0
 20
-8.0
 30
0.0
 11
90.5
 21
-8.0
 31
0.0
  0
LINE
  5
C55
  8
242
 10
94.0
 20
-7.5
 30
0.0
 11
91.5
 21
-7.5
 31
0.0
  0
LINE
  5
C56
  8
241
 10
91.5
 20
-7.5
 30
0.0
 11
91.5
 21
0.0
 31
0.0
  0
LINE
  5
C57
  8
241
 10
89.50000000000001
 20
-9.0
 30
0.0
 11
89.50000000000001
 21
0.0
 31
0.0
  0
LINE
  5
C58
  8
240
 10
89.50000000000001
 20
-11.25
 30
0.0
 11
89.50000000000001
 21
-9.0
 31
0.0
  0
ARC
  5
C59
  8
240
 10
88.49999999999999
 20
-11.25
 30
0.0
 40
0.9999999999999857
 50
270.0
 51
0.0
  0
ARC
  5
C5A
  8
240
 10
90.5
 20
-9.0
 30
0.0
 40
1.0
 50
90.0
 51
180.0
  0
LINE
  5
C5B
  8
242
 10
91.50000000000003
 20
-7.5
 30
0.0
 11
91.00000000000003
 21
-8.0
 31
0.0
  0
LINE
  5
C5C
  8
241
 10
94.30000000000001
 20
-9.800000000000011
 30
0.0
 11
94.30000000000001
 21
0.0
 31
0.0
  0
LINE
  5
C5D
  8
241
 10
94.0
 20
-8.0
 30
0.0
 11
94.0
 21
0.0
 31
0.0
  0
LINE
  5
C5E
  8
240
 10
94.9
 20
-12.5
 30
0.0
 11
104.0514718625759
 21
-12.50000000000017
 31
0.0
  0
LINE
  5
C5F
  8
241
 10
101.0
 20
-9.997092630102372
 30
0.0
 11
94.30000000000001
 21
-9.997092630102372
 31
0.0
  0
LINE
  5
C60
  8
241
 10
101.0
 20
-11.49709263010234
 30
0.0
 11
94.30000000000001
 21
-11.49709263010237
 31
0.0
  0
LINE
  5
C61
  8
240
 10
94.30000000000001
 20
-11.89999999999997
 30
0.0
 11
94.30000000000001
 21
-9.800000000000011
 31
0.0
  0
ARC
  5
C62
  8
240
 10
94.9
 20
-11.89999999999997
 30
0.0
 40
0.5999999999999944
 50
180.0
 51
270.0
  0
LINE
  5
C63
  8
240
 10
94.0
 20
-9.5
 30
0.0
 11
94.0
 21
-8.0
 31
0.0
  0
LINE
  5
C64
  8
240
 10
94.0
 20
-9.5
 30
0.0
 11
94.30000000000001
 21
-9.800000000000011
 31
0.0
  0
LINE
  5
C65
  8
241
 10
101.0
 20
-11.49709263010234
 30
0.0
 11
101.0
 21
-9.997092630102372
 31
0.0
  0
LINE
  5
C66
  8
241
 10
101.0
 20
1.5
 30
0.0
 11
94.30000000000001
 21
1.5
 31
0.0
  0
LINE
  5
C67
  8
241
 10
101.0
 20
-1.5
 30
0.0
 11
94.30000000000001
 21
-1.5
 31
0.0
  0
LINE
  5
C68
  8
246
 10
101.3999999999999
 20
-5.25
 30
0.0
 11
103.3
 21
-5.25
 31
0.0
  0
LINE
  5
C69
  8
246
 10
101.3999999999999
 20
-5.25
 30
0.0
 11
101.3999999999999
 21
-6.249999999999943
 31
0.0
  0
LINE
  5
C6A
  8
246
 10
103.3
 20
-6.25
 30
0.0
 11
103.3999999999999
 21
-6.25
 31
0.0
  0
LINE
  5
C6B
  8
246
 10
103.3
 20
-5.25
 30
0.0
 11
103.3
 21
-6.25
 31
0.0
  0
LINE
  5
C6C
  8
241
 10
101.0
 20
1.5
 30
0.0
 11
101.0
 21
0.0
 31
0.0
  0
LINE
  5
C6D
  8
241
 10
101.0
 20
-1.5
 30
0.0
 11
101.0
 21
0.0
 31
0.0
  0
LINE
  5
C6E
  8
240
 10
105.0
 20
0.0
 30
0.0
 11
105.0
 21
-11.59289321881345
 31
0.0
  0
ARC
  5
C6F
  8
240
 10
104.4999999999999
 20
-11.59289321881345
 30
0.0
 40
0.500000000000004
 50
315.0
 51
0.0
  0
LINE
  5
C70
  8
240
 10
104.4757359312879
 20
-12.32426406871209
 30
0.0
 11
104.8535533905932
 21
-11.94644660940673
 31
0.0
  0
LINE
  5
C71
  8
246
 10
105.0
 20
4.0
 30
0.0
 11
87.0
 21
4.0
 31
0.0
  0
LINE
  5
C72
  8
246
 10
105.0
 20
5.326239569296603
 30
0.0
 11
103.3999999999999
 21
6.25
 31
0.0
  0
ARC
  5
C73
  8
240
 10
104.0514718625759
 20
11.9000000000002
 30
0.0
 40
0.5999999999999888
 50
45.0
 51
90.00000000000325
  0
LINE
  5
C74
  8
246
 10
101.3999999999999
 20
6.249999999999943
 30
0.0
 11
87.0
 21
4.736499012174249
 31
0.0
  0
LINE
  5
C75
  8
240
 10
94.0
 20
8.0
 30
0.0
 11
90.5
 21
8.0
 31
0.0
  0
LINE
  5
C76
  8
242
 10
94.0
 20
7.5
 30
0.0
 11
91.5
 21
7.5
 31
0.0
  0
LINE
  5
C77
  8
240
 10
89.50000000000001
 20
11.25
 30
0.0
 11
89.50000000000001
 21
9.0
 31
0.0
  0
ARC
  5
C78
  8
240
 10
90.5
 20
9.0
 30
0.0
 40
1.0
 50
180.0
 51
270.0
  0
LINE
  5
C79
  8
242
 10
91.50000000000003
 20
7.5
 30
0.0
 11
91.00000000000003
 21
8.0
 31
0.0
  0
ARC
  5
C7A
  8
240
 10
88.49999999999999
 20
11.25
 30
0.0
 40
1.0
 50
0.0
 51
90.0
  0
LINE
  5
C7B
  8
240
 10
94.30000000000001
 20
9.800000000000011
 30
0.0
 11
94.30000000000001
 21
11.90000000000003
 31
0.0
  0
LINE
  5
C7C
  8
240
 10
94.0
 20
9.5
 30
0.0
 11
94.0
 21
8.0
 31
0.0
  0
LINE
  5
C7D
  8
240
 10
94.0
 20
9.5
 30
0.0
 11
94.30000000000001
 21
9.800000000000011
 31
0.0
  0
LINE
  5
C7E
  8
246
 10
101.3999999999999
 20
5.25
 30
0.0
 11
101.3999999999999
 21
6.249999999999943
 31
0.0
  0
LINE
  5
C7F
  8
246
 10
103.3
 20
5.25
 30
0.0
 11
103.3
 21
6.25
 31
0.0
  0
LINE
  5
C80
  8
246
 10
101.3999999999999
 20
5.25
 30
0.0
 11
103.3
 21
5.25
 31
0.0
  0
LINE
  5
C81
  8
246
 10
103.3
 20
6.25
 30
0.0
 11
103.3999999999999
 21
6.25
 31
0.0
  0
LINE
  5
C82
  8
240
 10
94.9
 20
12.5
 30
0.0
 11
104.0514718625759
 21
12.50000000000017
 31
0.0
  0
LINE
  5
C83
  8
241
 10
101.0
 20
11.49709263010237
 30
0.0
 11
94.30000000000001
 21
11.49709263010237
 31
0.0
  0
LINE
  5
C84
  8
241
 10
101.0
 20
9.997092630102372
 30
0.0
 11
94.30000000000001
 21
9.997092630102372
 31
0.0
  0
ARC
  5
C85
  8
240
 10
94.9
 20
11.90000000000003
 30
0.0
 40
0.5999999999999944
 50
90.0
 51
180.0
  0
LINE
  5
C86
  8
241
 10
101.0
 20
11.49709263010237
 30
0.0
 11
101.0
 21
9.997092630102372
 31
0.0
  0
LINE
  5
C87
  8
240
 10
104.8535533905932
 20
11.94644660940673
 30
0.0
 11
104.4757359312878
 21
12.32426406871212
 31
0.0
  0
ARC
  5
C88
  8
240
 10
104.4999999999999
 20
11.59289321881345
 30
0.0
 40
0.5
 50
0.0
 51
45.0
  0
ENDBLK
  5
C8A
  8
0
  0
BLOCK
  8
0
  2
*D2
 70
     1
 10
0.0
 20
0.0
 30
0.0
  3
*D2
  1

  0
LINE
  5
E1F
  8
250
  6
CONTINUOUS
 10
0.0
 20
22.72499999999985
 30
0.0
 11
0.0000000000000017
 21
50.0
 31
0.0
  0
LINE
  5
E20
  8
250
  6
CONTINUOUS
 10
105.0
 20
9.592893218813401
 30
0.0
 11
105.0
 21
50.0
 31
0.0
  0
LINE
  5
E21
  8
250
  6
CONTINUOUS
 10
2.230000000000001
 20
49.0
 30
0.0
 11
102.77
 21
49.0
 31
0.0
  0
INSERT
  5
E22
  8
250
  6
CONTINUOUS
  2
_OPEN
 10
0.0000000000000016
 20
49.0
 30
0.0
 41
2.229999999999999
 42
2.229999999999999
 43
2.229999999999999
 50
180.0
  0
INSERT
  5
E23
  8
250
  6
CONTINUOUS
  2
_OPEN
 10
105.0
 20
49.0
 30
0.0
 41
2.229999999999999
 42
2.229999999999999
 43
2.229999999999999
  0
TEXT
  5
E24
  8
250
  6
CONTINUOUS
 62
    40
 10
48.00223214285715
 20
50.0
 30
0.0
 40
3.0
  1
105
  0
POINT
  5
E25
  8
DEFPOINTS
  6
CONTINUOUS
 62
     0
 10
0.0
 20
22.22499999999985
 30
0.0
  0
POINT
  5
E26
  8
DEFPOINTS
  6
CONTINUOUS
 62
     0
 10
105.0
 20
9.092893218813401
 30
0.0
  0
POINT
  5
E27
  8
DEFPOINTS
  6
CONTINUOUS
 62
     0
 10
105.0
 20
49.0
 30
0.0
  0
ENDBLK
  5
DE2
  8
0
  0
BLOCK
  8
0
  2
*D3
 70
     1
 10
0.0
 20
0.0
 30
0.0
  3
*D3
  1

  0
LINE
  5
E28
  8
250
  6
CONTINUOUS
 10
27.0
 20
30.99999999999994
 30
0.0
 11
27.0
 21
43.0
 31
0.0
  0
LINE
  5
E29
  8
250
  6
CONTINUOUS
 10
105.0
 20
9.592893218813401
 30
0.0
 11
105.0
 21
43.0
 31
0.0
  0
LINE
  5
E2A
  8
250
  6
CONTINUOUS
 10
29.23
 20
42.0
 30
0.0
 11
102.77
 21
42.0
 31
0.0
  0
INSERT
  5
E2B
  8
250
  6
CONTINUOUS
  2
_OPEN
 10
27.0
 20
42.0
 30
0.0
 41
2.229999999999999
 42
2.229999999999999
 43
2.229999999999999
 50
180.0
  0
INSERT
  5
E2C
  8
250
  6
CONTINUOUS
  2
_OPEN
 10
105.0
 20
42.0
 30
0.0
 41
2.229999999999999
 42
2.229999999999999
 43
2.229999999999999
  0
TEXT
  5
E2D
  8
250
  6
CONTINUOUS
 62
    40
 10
63.13392857142857
 20
43.0
 30
0.0
 40
3.0
  1
78
  0
POINT
  5
E2E
  8
DEFPOINTS
  6
CONTINUOUS
 62
     0
 10
27.0
 20
30.49999999999994
 30
0.0
  0
POINT
  5
E2F
  8
DEFPOINTS
  6
CONTINUOUS
 62
     0
 10
105.0
 20
9.092893218813401
 30
0.0
  0
POINT
  5
E30
  8
DEFPOINTS
  6
CONTINUOUS
 62
     0
 10
105.0
 20
42.0
 30
0.0
  0
ENDBLK
  5
DEE
  8
0
  0
BLOCK
  8
0
  2
*D4
 70
     1
 10
0.0
 20
0.0
 30
0.0
  3
*D4
  1

  0
LINE
  5
E31
  8
250
  6
CONTINUOUS
 10
0.0
 20
22.72499999999985
 30
0.0
 11
0.0000000000000013
 21
43.0
 31
0.0
  0
LINE
  5
E32
  8
250
  6
CONTINUOUS
 10
27.0
 20
30.99999999999994
 30
0.0
 11
27.0
 21
43.0
 31
0.0
  0
LINE
  5
E33
  8
250
  6
CONTINUOUS
 10
2.230000000000001
 20
42.0
 30
0.0
 11
24.77
 21
42.0
 31
0.0
  0
INSERT
  5
E34
  8
250
  6
CONTINUOUS
  2
_OPEN
 10
0.0000000000000012
 20
42.0
 30
0.0
 41
2.229999999999999
 42
2.229999999999999
 43
2.229999999999999
 50
180.0
  0
INSERT
  5
E35
  8
250
  6
CONTINUOUS
  2
_OPEN
 10
27.0
 20
42.0
 30
0.0
 41
2.229999999999999
 42
2.229999999999999
 43
2.229999999999999
  0
TEXT
  5
E36
  8
250
  6
CONTINUOUS
 62
    40
 10
10.63392857142857
 20
43.0
 30
0.0
 40
3.0
  1
27
  0
POINT
  5
E37
  8
DEFPOINTS
  6
CONTINUOUS
 62
     0
 10
0.0
 20
22.22499999999985
 30
0.0
  0
POINT
  5
E38
  8
DEFPOINTS
  6
CONTINUOUS
 62
     0
 10
27.0
 20
30.49999999999994
 30
0.0
  0
POINT
  5
E39
  8
DEFPOINTS
  6
CONTINUOUS
 62
     0
 10
27.0
 20
42.0
 30
0.0
  0
ENDBLK
  5
DFA
  8
0
  0
BLOCK
  8
0
  2
*D5
 70
     1
 10
0.0
 20
0.0
 30
0.0
  3
*D5
  1

  0
LINE
  5
E83
  8
250
  6
CONTINUOUS
 10
105.4999999999999
 20
-4.0
 30
0.0
 11
120.0
 21
-4.000000000000004
 31
0.0
  0
LINE
  5
E84
  8
250
  6
CONTINUOUS
 10
105.4999999999999
 20
3.999999999999999
 30
0.0
 11
120.0
 21
3.999999999999995
 31
0.0
  0
LINE
  5
E85
  8
250
  6
CONTINUOUS
 10
119.0
 20
-1.770000000000004
 30
0.0
 11
119.0
 21
1.769999999999995
 31
0.0
  0
TEXT
  5
E86
  8
250
  6
CONTINUOUS
 62
    40
 10
118.267814871422
 20
-6.745343875531617
 30
0.0
 40
3.0
  1
MAX.\U+00F88
 50
90.0
  0
INSERT
  5
E87
  8
250
  6
CONTINUOUS
  2
_OPEN
 10
119.0
 20
-4.000000000000004
 30
0.0
 41
2.229999999999999
 42
2.229999999999999
 43
2.229999999999999
 50
270.0
  0
INSERT
  5
E88
  8
250
  6
CONTINUOUS
  2
_OPEN
 10
119.0
 20
3.999999999999995
 30
0.0
 41
2.229999999999999
 42
2.229999999999999
 43
2.229999999999999
 50
90.0
  0
POINT
  5
E89
  8
DEFPOINTS
  6
CONTINUOUS
 62
     0
 10
105.0
 20
-4.0
 30
0.0
  0
POINT
  5
E8A
  8
DEFPOINTS
  6
CONTINUOUS
 62
     0
 10
105.0
 20
4.0
 30
0.0
  0
POINT
  5
E8B
  8
DEFPOINTS
  6
CONTINUOUS
 62
     0
 10
119.0
 20
3.999999999999995
 30
0.0
  0
ENDBLK
  5
E06
  8
0
  0
BLOCK
  8
0
  2
*D6
 70
     1
 10
0.0
 20
0.0
 30
0.0
  3
*D6
  1

  0
LINE
  5
E43
  8
250
  6
CONTINUOUS
 10
104.5514718625759
 20
-12.50000000000017
 30
0.0
 11
127.0
 21
-12.50000000000017
 31
0.0
  0
LINE
  5
E44
  8
250
  6
CONTINUOUS
 10
104.5514718625759
 20
12.50000000000022
 30
0.0
 11
127.0
 21
12.50000000000022
 31
0.0
  0
LINE
  5
E45
  8
250
  6
CONTINUOUS
 10
126.0
 20
-10.27000000000017
 30
0.0
 11
126.0
 21
10.27000000000022
 31
0.0
  0
INSERT
  5
E46
  8
250
  6
CONTINUOUS
  2
_OPEN
 10
126.0
 20
-12.50000000000017
 30
0.0
 41
2.229999999999999
 42
2.229999999999999
 43
2.229999999999999
 50
270.0
  0
INSERT
  5
E47
  8
250
  6
CONTINUOUS
  2
_OPEN
 10
126.0
 20
12.50000000000022
 30
0.0
 41
2.229999999999999
 42
2.229999999999999
 43
2.229999999999999
 50
90.0
  0
INSERT
  5
E48
  8
250
  6
CONTINUOUS
 62
    40
  2
*X16
 10
0.0
 20
0.0
 30
0.0
  0
POINT
  5
E49
  8
DEFPOINTS
  6
CONTINUOUS
 62
     0
 10
104.0514718625759
 20
-12.50000000000017
 30
0.0
  0
POINT
  5
E4A
  8
DEFPOINTS
  6
CONTINUOUS
 62
     0
 10
104.0514718625759
 20
12.50000000000022
 30
0.0
  0
POINT
  5
E4B
  8
DEFPOINTS
  6
CONTINUOUS
 62
     0
 10
126.0
 20
12.50000000000022
 30
0.0
  0
ENDBLK
  5
E12
  8
0
  0
BLOCK
  8
0
  2
*D7
 70
     1
 10
0.0
 20
0.0
 30
0.0
  3
*D7
  1

  0
LINE
  5
E4C
  8
250
  6
CONTINUOUS
 10
70.0
 20
-4.5
 30
0.0
 11
70.0
 21
-43.0
 31
0.0
  0
LINE
  5
E4D
  8
250
  6
CONTINUOUS
 10
105.0
 20
-12.09289321881345
 30
0.0
 11
105.0
 21
-43.0
 31
0.0
  0
LINE
  5
E4E
  8
250
  6
CONTINUOUS
 10
72.23
 20
-42.0
 30
0.0
 11
102.77
 21
-42.0
 31
0.0
  0
INSERT
  5
E4F
  8
250
  6
CONTINUOUS
  2
_OPEN
 10
70.0
 20
-42.0
 30
0.0
 41
2.229999999999999
 42
2.229999999999999
 43
2.229999999999999
 50
180.0
  0
INSERT
  5
E50
  8
250
  6
CONTINUOUS
  2
_OPEN
 10
105.0
 20
-42.0
 30
0.0
 41
2.229999999999999
 42
2.229999999999999
 43
2.229999999999999
  0
TEXT
  5
E51
  8
250
  6
CONTINUOUS
 62
    40
 10
79.97678571428571
 20
-41.0
 30
0.0
 40
3.0
  1
26～42
  0
POINT
  5
E52
  8
DEFPOINTS
  6
CONTINUOUS
 62
     0
 10
70.0
 20
-4.0
 30
0.0
  0
POINT
  5
E53
  8
DEFPOINTS
  6
CONTINUOUS
 62
     0
 10
105.0
 20
-11.59289321881345
 30
0.0
  0
POINT
  5
E54
  8
DEFPOINTS
  6
CONTINUOUS
 62
     0
 10
105.0
 20
-42.0
 30
0.0
  0
ENDBLK
  5
E1E
  8
0
  0
BLOCK
  8
0
  2
*D8
 70
     1
 10
0.0
 20
0.0
 30
0.0
  3
*D8
  1

  0
LINE
  5
FAF
  8
250
 10
94.30000000000001
 20
12.40000000000003
 30
0.0
 11
94.30000000000001
 21
23.14471704226832
 31
0.0
  0
LINE
  5
FB0
  8
250
 10
104.9999999999999
 20
12.09289321881345
 30
0.0
 11
104.9999999999999
 21
23.14471704226832
 31
0.0
  0
LINE
  5
FB1
  8
250
 10
96.53000000000002
 20
22.14471704226832
 30
0.0
 11
102.7699999999999
 21
22.14471704226832
 31
0.0
  0
INSERT
  5
FB2
  8
250
  2
_OPEN
 10
94.30000000000001
 20
22.14471704226832
 30
0.0
 41
2.229999999999999
 42
2.229999999999999
 43
2.229999999999999
 50
180.0
  0
INSERT
  5
FB3
  8
250
  2
_OPEN
 10
104.9999999999999
 20
22.14471704226832
 30
0.0
 41
2.229999999999999
 42
2.229999999999999
 43
2.229999999999999
  0
TEXT
  5
FB4
  8
250
  6
CONTINUOUS
 62
    40
 10
94.43794642857138
 20
24.64471704226832
 30
0.0
 40
3.0
  1
10.7
  0
POINT
  5
FB5
  8
DEFPOINTS
 62
     0
 10
94.30000000000001
 20
11.90000000000003
 30
0.0
  0
POINT
  5
FB6
  8
DEFPOINTS
 62
     0
 10
104.9999999999999
 20
11.59289321881345
 30
0.0
  0
POINT
  5
FB7
  8
DEFPOINTS
 62
     0
 10
104.9999999999999
 20
22.14471704226832
 30
0.0
  0
ENDBLK
  5
FB9
  8
0
  0
BLOCK
  8
0
  2
*D9
 70
     1
 10
0.0
 20
0.0
 30
0.0
  3
*D9
  1

  0
LINE
  5
FBC
  8
250
 10
104.9999999999999
 20
12.09289321881345
 30
0.0
 11
104.9999999999999
 21
17.9740617911449
 31
0.0
  0
LINE
  5
FBD
  8
250
 10
108.8999999999999
 20
12.09289321881345
 30
0.0
 11
108.8999999999999
 21
17.9740617911449
 31
0.0
  0
LINE
  5
FBE
  8
250
 10
104.9999999999999
 20
16.9740617911449
 30
0.0
 11
108.8999999999999
 21
16.9740617911449
 31
0.0
  0
LINE
  5
FBF
  8
250
 10
102.7699999999999
 20
16.9740617911449
 30
0.0
 11
100.5399999999999
 21
16.9740617911449
 31
0.0
  0
LINE
  5
FC0
  8
250
 10
111.1299999999999
 20
16.9740617911449
 30
0.0
 11
113.3599999999999
 21
16.9740617911449
 31
0.0
  0
INSERT
  5
FC1
  8
250
  2
_OPEN
 10
104.9999999999999
 20
16.9740617911449
 30
0.0
 41
2.229999999999999
 42
2.229999999999999
 43
2.229999999999999
  0
INSERT
  5
FC2
  8
250
  2
_OPEN
 10
108.8999999999999
 20
16.9740617911449
 30
0.0
 41
2.229999999999999
 42
2.229999999999999
 43
2.229999999999999
 50
180.0
  0
TEXT
  5
FC3
  8
250
  6
CONTINUOUS
 62
    40
 10
106.5124999999999
 20
17.9740617911449
 30
0.0
 40
3.0
  1
3.9
  0
POINT
  5
FC4
  8
DEFPOINTS
 62
     0
 10
104.9999999999999
 20
11.59289321881345
 30
0.0
  0
POINT
  5
FC5
  8
DEFPOINTS
 62
     0
 10
108.8999999999999
 20
11.59289321881345
 30
0.0
  0
POINT
  5
FC6
  8
DEFPOINTS
 62
     0
 10
108.8999999999999
 20
16.9740617911449
 30
0.0
  0
ENDBLK
  5
FC8
  8
0
  0
BLOCK
  8
0
  2
*D10
 70
     1
 10
0.0
 20
0.0
 30
0.0
  3
*D10
  1

  0
LINE
  5
FD0
  8
250
 10
105.5
 20
9.6
 30
0.0
 11
123.5642999462896
 21
9.6
 31
0.0
  0
LINE
  5
FD1
  8
250
 10
105.5
 20
-9.599999999999998
 30
0.0
 11
123.5642999462896
 21
-9.6
 31
0.0
  0
LINE
  5
FD2
  8
250
 10
122.5642999462896
 20
7.370000000000001
 30
0.0
 11
122.5642999462896
 21
-7.370000000000001
 31
0.0
  0
INSERT
  5
FD3
  8
250
  2
_OPEN
 10
122.5642999462896
 20
9.6
 30
0.0
 41
2.229999999999999
 42
2.229999999999999
 43
2.229999999999999
 50
90.0
  0
INSERT
  5
FD4
  8
250
  2
_OPEN
 10
122.5642999462896
 20
-9.6
 30
0.0
 41
2.229999999999999
 42
2.229999999999999
 43
2.229999999999999
 50
270.0
  0
TEXT
  5
FD5
  8
250
  6
CONTINUOUS
 62
    40
 10
121.5642999462896
 20
-6.366071428571431
 30
0.0
 40
3.0
  1
\U+220519.2
 50
90.0
  0
POINT
  5
FD6
  8
DEFPOINTS
 62
     0
 10
105.0
 20
9.6
 30
0.0
  0
POINT
  5
FD7
  8
DEFPOINTS
 62
     0
 10
105.0
 20
-9.599999999999998
 30
0.0
  0
POINT
  5
FD8
  8
DEFPOINTS
 62
     0
 10
122.5642999462896
 20
-9.6
 30
0.0
  0
ENDBLK
  5
FDA
  8
0
  0
BLOCK
  8
0
  2
*D11
 70
     1
 10
0.0
 20
0.0
 30
0.0
  3
*D11
  1

  0
LINE
  5
FDD
  8
250
 10
109.3999999999999
 20
6.600000000000001
 30
0.0
 11
112.8999999999999
 21
6.600000000000001
 31
0.0
  0
LINE
  5
FDE
  8
250
 10
109.3999999999999
 20
-6.600000000000001
 30
0.0
 11
112.8999999999999
 21
-6.600000000000001
 31
0.0
  0
LINE
  5
FDF
  8
250
 10
111.8999999999999
 20
4.370000000000003
 30
0.0
 11
111.8999999999999
 21
-4.370000000000003
 31
0.0
  0
INSERT
  5
FE0
  8
250
  2
_OPEN
 10
111.8999999999999
 20
6.600000000000001
 30
0.0
 41
2.229999999999999
 42
2.229999999999999
 43
2.229999999999999
 50
90.0
  0
INSERT
  5
FE1
  8
250
  2
_OPEN
 10
111.8999999999999
 20
-6.600000000000001
 30
0.0
 41
2.229999999999999
 42
2.229999999999999
 43
2.229999999999999
 50
270.0
  0
TEXT
  5
FE2
  8
250
  6
CONTINUOUS
 62
    40
 10
117.3999999999999
 20
-6.366071428571431
 30
0.0
 40
3.0
  1
\U+220513.2
 50
90.0
  0
POINT
  5
FE3
  8
DEFPOINTS
 62
     0
 10
108.8999999999999
 20
6.600000000000001
 30
0.0
  0
POINT
  5
FE4
  8
DEFPOINTS
 62
     0
 10
108.8999999999999
 20
-6.600000000000001
 30
0.0
  0
POINT
  5
FE5
  8
DEFPOINTS
 62
     0
 10
111.8999999999999
 20
-6.600000000000001
 30
0.0
  0
ENDBLK
  5
FE7
  8
0
  0
BLOCK
  8
0
  2
*X12
 70
     1
 10
0.0
 20
0.0
 30
0.0
  3
*X12
  1

  0
TEXT
  5
10EE
  8
250
  6
CONTINUOUS
 62
    40
 10
127.6649852934813
 20
-4.223214285714249
 30
0.0
 40
3.0
  1
\U+2205
 50
90.0
  0
TEXT
  5
10EF
  8
250
  6
CONTINUOUS
 62
    40
 10
127.6649852934813
 20
-1.508928571428541
 30
0.0
 40
3.0
  1
25
 50
90.0
  0
ENDBLK
  5
1159
  8
0
  0
BLOCK
  8
0
  2
*X13
 70
     1
 10
0.0
 20
0.0
 30
0.0
  3
*X13
  1

  0
LINE
  5
10F1
  8
247
 10
4.909940193653803
 20
-22.47080727371621
 30
0.0
 11
4.868175236465902
 21
-22.42904231652831
 31
0.0
  0
LINE
  5
10F2
  8
247
 10
5.333137125622976
 20
-22.44499139963193
 30
0.0
 11
4.868175236465902
 21
-21.98002951047486
 31
0.0
  0
LINE
  5
10F3
  8
247
 10
5.962665370504439
 20
-22.62550683845993
 30
0.0
 11
4.868175236465902
 21
-21.5310167044214
 31
0.0
  0
LINE
  5
10F4
  8
247
 10
6.592193615385908
 20
-22.80602227728794
 30
0.0
 11
5.324784955762302
 21
-21.53861361766434
 31
0.0
  0
LINE
  5
10F5
  8
247
 10
7.22172186026737
 20
-22.98653771611594
 30
0.0
 11
5.954310737193279
 21
-21.71912659304185
 31
0.0
  0
LINE
  5
10F6
  8
247
 10
7.851250105148834
 20
-23.16705315494395
 30
0.0
 11
6.583836518624254
 21
-21.89963956841937
 31
0.0
  0
LINE
  5
10F7
  8
247
 10
8.480778350030295
 20
-23.34756859377195
 30
0.0
 11
7.213362300055233
 21
-22.08015254379689
 31
0.0
  0
LINE
  5
10F8
  8
247
 10
8.505718437912439
 20
-22.92349587560064
 30
0.0
 11
7.842888081486195
 21
-22.2606655191744
 31
0.0
  0
LINE
  5
10F9
  8
247
 10
8.505718437912435
 20
-22.47448306954719
 30
0.0
 11
8.472413862917174
 21
-22.44117849455192
 31
0.0
  0
ENDBLK
  5
115B
  8
0
  0
BLOCK
  8
0
  2
*X14
 70
     1
 10
0.0
 20
0.0
 30
0.0
  3
*X14
  1

  0
LINE
  5
1107
  8
247
 10
6.219831888421405
 20
-28.27082702901838
 30
0.0
 11
5.187221498929807
 21
-27.23821663952679
 31
0.0
  0
LINE
  5
1108
  8
247
 10
6.986344694474852
 20
-28.58832702901838
 30
0.0
 11
6.296375144608067
 21
-27.8983574791516
 31
0.0
  0
LINE
  5
1109
  8
247
 10
5.559691048796594
 20
-27.16167338334012
 30
0.0
 11
4.869721498929811
 21
-26.47170383347334
 31
0.0
  0
LINE
  5
110A
  8
247
 10
7.306031439822299
 20
-28.45900096831237
 30
0.0
 11
7.020236694643017
 21
-28.17320622313309
 31
0.0
  0
LINE
  5
110B
  8
247
 10
5.272350041153402
 20
-26.42531956964348
 30
0.0
 11
4.868175236465902
 21
-26.02114476495598
 31
0.0
  0
LINE
  5
110C
  8
247
 10
7.623531439822292
 20
-28.32748816225892
 30
0.0
 11
7.337736694643011
 21
-28.04169341707964
 31
0.0
  0
LINE
  5
110D
  8
247
 10
5.2723500411534
 20
-25.97630676359003
 30
0.0
 11
4.953932602236996
 21
-25.65788932467362
 31
0.0
  0
LINE
  5
110E
  8
247
 10
7.941031439822304
 20
-28.19597535620546
 30
0.0
 11
7.655236694643019
 21
-27.91018061102618
 31
0.0
  0
LINE
  5
110F
  8
247
 10
8.258531439822303
 20
-28.064462550152
 30
0.0
 11
7.972736694643025
 21
-27.77866780497272
 31
0.0
  0
LINE
  5
1110
  8
247
 10
8.525922029045644
 20
-27.8828403333219
 30
0.0
 11
8.240127283866363
 21
-27.59704558814262
 31
0.0
  0
LINE
  5
1111
  8
247
 10
8.657434835099101
 20
-27.5653403333219
 30
0.0
 11
8.371640089919824
 21
-27.27954558814262
 31
0.0
  0
LINE
  5
1112
  8
247
 10
8.788947641152562
 20
-27.2478403333219
 30
0.0
 11
8.503152895973281
 21
-26.96204558814262
 31
0.0
  0
LINE
  5
1113
  8
247
 10
8.920460447206018
 20
-26.93034033332189
 30
0.0
 11
8.634665702026737
 21
-26.64454558814261
 31
0.0
  0
LINE
  5
1114
  8
247
 10
9.051973253259481
 20
-26.61284033332189
 30
0.0
 11
8.707805840256187
 21
-26.26867292031859
 31
0.0
  0
LINE
  5
1115
  8
247
 10
9.111980634541794
 20
-26.22383490855075
 30
0.0
 11
8.707805840256185
 21
-25.81966011426514
 31
0.0
  0
LINE
  5
1116
  8
247
 10
9.111980634541794
 20
-25.77482210249729
 30
0.0
 11
8.707805840256185
 21
-25.37064730821168
 31
0.0
  0
LINE
  5
1117
  8
247
 10
9.111980634541792
 20
-25.32580929644383
 30
0.0
 11
8.707805840256183
 21
-24.92163450215822
 31
0.0
  0
LINE
  5
1118
  8
247
 10
9.111980634541792
 20
-24.87679649039037
 30
0.0
 11
8.707805840256183
 21
-24.47262169610476
 31
0.0
  0
LINE
  5
1119
  8
247
 10
9.111980634541794
 20
-24.42778368433692
 30
0.0
 11
8.707805840256185
 21
-24.0236088900513
 31
0.0
  0
LINE
  5
111A
  8
247
 10
9.111980634541794
 20
-23.97877087828346
 30
0.0
 11
8.707805840256185
 21
-23.57459608399785
 31
0.0
  0
LINE
  5
111B
  8
247
 10
9.111980634541794
 20
-23.52975807223
 30
0.0
 11
8.707805840256185
 21
-23.12558327794439
 31
0.0
  0
LINE
  5
111C
  8
247
 10
9.111980634541794
 20
-23.08074526617654
 30
0.0
 11
8.707805840256185
 21
-22.67657047189093
 31
0.0
  0
LINE
  5
111D
  8
247
 10
9.111980634541794
 20
-22.63173246012308
 30
0.0
 11
8.707805840256185
 21
-22.22755766583747
 31
0.0
  0
LINE
  5
111E
  8
247
 10
5.201506261379579
 20
-18.72125808696087
 30
0.0
 11
4.964630728843272
 21
-18.48438255442456
 31
0.0
  0
LINE
  5
111F
  8
247
 10
9.111980634541794
 20
-22.18271965406963
 30
0.0
 11
8.707805840256185
 21
-21.77854485978402
 31
0.0
  0
LINE
  5
1120
  8
247
 10
9.111980634541792
 20
-21.73370684801617
 30
0.0
 11
8.707805840256183
 21
-21.32953205373056
 31
0.0
  0
LINE
  5
1121
  8
247
 10
5.348646017247975
 20
-18.41938503677581
 30
0.0
 11
4.998784194053038
 21
-18.06952321358087
 31
0.0
  0
LINE
  5
1122
  8
247
 10
5.386666338522188
 20
-18.00839255199656
 30
0.0
 11
5.032937659262807
 21
-17.65466387273718
 31
0.0
  0
LINE
  5
1123
  8
247
 10
9.111980634541794
 20
-21.28469404196273
 30
0.0
 11
8.707805840256185
 21
-20.88051924767712
 31
0.0
  0
LINE
  5
1124
  8
247
 10
5.424686659796401
 20
-17.59740006721733
 30
0.0
 11
5.135899162708593
 21
-17.30861257012953
 31
0.0
  0
LINE
  5
1125
  8
247
 10
9.111980634541794
 20
-20.83568123590926
 30
0.0
 11
8.707805840256185
 21
-20.43150644162365
 31
0.0
  0
LINE
  5
1126
  8
247
 10
9.111980634541792
 20
-20.3866684298558
 30
0.0
 11
8.707805840256187
 21
-19.98249363557019
 31
0.0
  0
LINE
  5
1127
  8
247
 10
9.111980634541792
 20
-19.93765562380234
 30
0.0
 11
8.707805840256183
 21
-19.53348082951673
 31
0.0
  0
LINE
  5
1128
  8
247
 10
5.622619361249122
 20
-17.34631996261658
 30
0.0
 11
5.355155726061487
 21
-17.07885632742895
 31
0.0
  0
LINE
  5
1129
  8
247
 10
5.843641242905049
 20
-17.11832903821905
 30
0.0
 11
5.574412289414374
 21
-16.84910008472838
 31
0.0
  0
LINE
  5
112A
  8
247
 10
6.064663124560978
 20
-16.89033811382152
 30
0.0
 11
5.793668852767262
 21
-16.61934384202781
 31
0.0
  0
LINE
  5
112B
  8
247
 10
9.111980634541796
 20
-19.48864281774888
 30
0.0
 11
8.707805840256185
 21
-19.08446802346327
 31
0.0
  0
LINE
  5
112C
  8
247
 10
6.335286426435976
 20
-16.71194860964306
 30
0.0
 11
6.012925416120151
 21
-16.38958759932724
 31
0.0
  0
LINE
  5
112D
  8
247
 10
9.111980634541794
 20
-19.03963001169543
 30
0.0
 11
8.707805840256185
 21
-18.63545521740982
 31
0.0
  0
LINE
  5
112E
  8
247
 10
6.734794730410129
 20
-16.66244410756376
 30
0.0
 11
6.395483617550448
 21
-16.32313299470408
 31
0.0
  0
LINE
  5
112F
  8
247
 10
9.111980634541792
 20
-18.59061720564198
 30
0.0
 11
8.66599507052697
 21
-18.14463164162715
 31
0.0
  0
LINE
  5
1130
  8
247
 10
7.134303034384279
 20
-16.61293960548446
 30
0.0
 11
6.792974398957439
 21
-16.27161097005762
 31
0.0
  0
LINE
  5
1131
  8
247
 10
9.045403005519074
 20
-18.07502677056578
 30
0.0
 11
8.42165287846441
 21
-17.45127664351112
 31
0.0
  0
LINE
  5
1132
  8
247
 10
7.877855603809229
 20
-16.90747936885594
 30
0.0
 11
7.19046518036445
 21
-16.22008894541116
 31
0.0
  0
LINE
  5
1133
  8
247
 10
8.799706117999602
 20
-17.38031707699287
 30
0.0
 11
7.883983350985235
 21
-16.4645943099785
 31
0.0
  0
ENDBLK
  5
115D
  8
0
  0
BLOCK
  8
0
  2
*X15
 70
     1
 10
0.0
 20
0.0
 30
0.0
  3
*X15
  1

  0
LINE
  5
1135
  8
247
 10
6.082777079646224
 20
-21.39858012944135
 30
0.0
 11
4.928044480791922
 21
-20.24384753058705
 31
0.0
  0
LINE
  5
1136
  8
247
 10
6.712303727324288
 20
-21.57909397106595
 30
0.0
 11
4.950147713672173
 21
-19.81693795741383
 31
0.0
  0
LINE
  5
1137
  8
247
 10
7.185051346675414
 20
-21.60282878436362
 30
0.0
 11
5.927039326802523
 21
-20.34481676449073
 31
0.0
  0
LINE
  5
1138
  8
247
 10
5.337330443219492
 20
-19.7551078809077
 30
0.0
 11
5.060903084042466
 21
-19.47868052173067
 31
0.0
  0
LINE
  5
1139
  8
247
 10
7.621712528543528
 20
-21.59047716017828
 30
0.0
 11
6.556567467621402
 21
-20.52533209925616
 31
0.0
  0
LINE
  5
113A
  8
247
 10
5.533189694495368
 20
-19.50195432613013
 30
0.0
 11
5.021236900973772
 21
-18.99000153260853
 31
0.0
  0
LINE
  5
113B
  8
247
 10
7.879696312229802
 20
-21.39944813781109
 30
0.0
 11
7.18609560844031
 21
-20.7058474340216
 31
0.0
  0
LINE
  5
113C
  8
247
 10
5.432818567695277
 20
-18.95257039327656
 30
0.0
 11
5.362604844555388
 21
-18.88235667013667
 31
0.0
  0
LINE
  5
113D
  8
247
 10
8.136309448921732
 20
-21.20704846844956
 30
0.0
 11
7.723667738563562
 21
-20.7944067580914
 31
0.0
  0
LINE
  5
113E
  8
247
 10
6.848613468887774
 20
-19.91935248841561
 30
0.0
 11
6.444438664200274
 21
-19.51517768372811
 31
0.0
  0
LINE
  5
113F
  8
247
 10
8.317531918224077
 20
-20.93925813169846
 30
0.0
 11
7.993164688941716
 21
-20.6148909024161
 31
0.0
  0
LINE
  5
1140
  8
247
 10
7.20720186368362
 20
-19.828928077158
 30
0.0
 11
6.444438664200275
 21
-19.06616487767466
 31
0.0
  0
LINE
  5
1141
  8
247
 10
8.427141082976231
 20
-20.59985449039716
 30
0.0
 11
7.977783125568002
 21
-20.15049653298894
 31
0.0
  0
LINE
  5
1142
  8
247
 10
7.935618685220958
 20
-20.10833209264189
 30
0.0
 11
6.657734539843154
 21
-18.83044794726408
 31
0.0
  0
LINE
  5
1143
  8
247
 10
8.447989206787565
 20
-20.17168980815503
 30
0.0
 11
7.287262067066941
 21
-19.0109626684344
 31
0.0
  0
LINE
  5
1144
  8
247
 10
8.295697373240584
 20
-19.57038516855459
 30
0.0
 11
7.9167895942907
 21
-19.19147738960471
 31
0.0
  0
ENDBLK
  5
115F
  8
0
  0
BLOCK
  8
0
  2
*X16
 70
     1
 10
0.0
 20
0.0
 30
0.0
  3
*X16
  1

  0
TEXT
  5
1156
  8
250
  6
CONTINUOUS
 62
    40
 10
125.0
 20
-4.223214285714249
 30
0.0
 40
3.0
  1
\U+2205
 50
90.0
  0
TEXT
  5
1157
  8
250
  6
CONTINUOUS
 62
    40
 10
125.0
 20
-1.508928571428541
 30
0.0
 40
3.0
  1
25
 50
90.0
  0
ENDBLK
  5
1161
  8
0
  0
ENDSEC
  0
SECTION
  2
ENTITIES
  0
LINE
  5
F53
  8
240
 10
105.0
 20
0.0
 30
0.0
 11
105.0
 21
11.59289321881345
 31
0.0
  0
LINE
  5
F54
  8
241
 10
104.0514718625759
 20
12.13812677388836
 30
0.0
 11
104.0514718625759
 21
-12.18543046357615
 31
0.0
  0
LINE
  5
F56
  8
241
 10
94.30000000000001
 20
9.800000000000011
 30
0.0
 11
94.30000000000001
 21
0.0
 31
0.0
  0
LINE
  5
F57
  8
241
 10
94.0
 20
8.0
 30
0.0
 11
94.0
 21
0.0
 31
0.0
  0
ARC
  5
F5B
  8
240
 10
104.0514718625759
 20
-11.90000000000014
 30
0.0
 40
0.5999999999999944
 50
269.9999999999967
 51
314.9999999999994
  0
LINE
  5
F65
  8
241
 10
94.30000000000001
 20
-9.800000000000011
 30
0.0
 11
94.30000000000001
 21
0.0
 31
0.0
  0
LINE
  5
F66
  8
241
 10
94.0
 20
-8.0
 30
0.0
 11
94.0
 21
0.0
 31
0.0
  0
LINE
  5
F67
  8
240
 10
94.9
 20
-12.5
 30
0.0
 11
104.0514718625759
 21
-12.50000000000017
 31
0.0
  0
LINE
  5
F68
  8
241
 10
101.0
 20
-9.997092630102372
 30
0.0
 11
94.30000000000001
 21
-9.997092630102372
 31
0.0
  0
LINE
  5
F69
  8
241
 10
101.0
 20
-11.49709263010234
 30
0.0
 11
94.30000000000001
 21
-11.49709263010237
 31
0.0
  0
LINE
  5
F6A
  8
240
 10
94.30000000000001
 20
-11.89999999999997
 30
0.0
 11
94.30000000000001
 21
-9.800000000000011
 31
0.0
  0
ARC
  5
F6B
  8
240
 10
94.9
 20
-11.89999999999997
 30
0.0
 40
0.5999999999999944
 50
180.0
 51
270.0
  0
LINE
  5
F6C
  8
240
 10
94.0
 20
-9.5
 30
0.0
 11
94.0
 21
-8.0
 31
0.0
  0
LINE
  5
F6D
  8
240
 10
94.0
 20
-9.5
 30
0.0
 11
94.30000000000001
 21
-9.800000000000011
 31
0.0
  0
LINE
  5
F6E
  8
241
 10
101.0
 20
-11.49709263010234
 30
0.0
 11
101.0
 21
-9.997092630102372
 31
0.0
  0
LINE
  5
F6F
  8
241
 10
101.0
 20
1.5
 30
0.0
 11
94.30000000000001
 21
1.5
 31
0.0
  0
LINE
  5
F70
  8
241
 10
101.0
 20
-1.5
 30
0.0
 11
94.30000000000001
 21
-1.5
 31
0.0
  0
LINE
  5
F75
  8
241
 10
101.0
 20
1.5
 30
0.0
 11
101.0
 21
0.0
 31
0.0
  0
LINE
  5
F76
  8
241
 10
101.0
 20
-1.5
 30
0.0
 11
101.0
 21
0.0
 31
0.0
  0
LINE
  5
F77
  8
240
 10
105.0
 20
0.0
 30
0.0
 11
105.0
 21
-11.59289321881345
 31
0.0
  0
ARC
  5
F78
  8
240
 10
104.4999999999999
 20
-11.59289321881345
 30
0.0
 40
0.500000000000004
 50
315.0
 51
0.0
  0
LINE
  5
F79
  8
240
 10
104.4757359312879
 20
-12.32426406871209
 30
0.0
 11
104.8535533905932
 21
-11.94644660940673
 31
0.0
  0
ARC
  5
F7C
  8
240
 10
104.0514718625759
 20
11.9000000000002
 30
0.0
 40
0.5999999999999888
 50
45.0
 51
90.00000000000325
  0
LINE
  5
F84
  8
240
 10
94.30000000000001
 20
9.800000000000011
 30
0.0
 11
94.30000000000001
 21
11.90000000000003
 31
0.0
  0
LINE
  5
F85
  8
240
 10
94.0
 20
9.5
 30
0.0
 11
94.0
 21
8.0
 31
0.0
  0
LINE
  5
F86
  8
240
 10
94.0
 20
9.5
 30
0.0
 11
94.30000000000001
 21
9.800000000000011
 31
0.0
  0
LINE
  5
F8B
  8
240
 10
94.9
 20
12.5
 30
0.0
 11
104.0514718625759
 21
12.50000000000017
 31
0.0
  0
LINE
  5
F8C
  8
241
 10
101.0
 20
11.49709263010237
 30
0.0
 11
94.30000000000001
 21
11.49709263010237
 31
0.0
  0
LINE
  5
F8D
  8
241
 10
101.0
 20
9.997092630102372
 30
0.0
 11
94.30000000000001
 21
9.997092630102372
 31
0.0
  0
ARC
  5
F8E
  8
240
 10
94.9
 20
11.90000000000003
 30
0.0
 40
0.5999999999999944
 50
90.0
 51
180.0
  0
LINE
  5
F8F
  8
241
 10
101.0
 20
11.49709263010237
 30
0.0
 11
101.0
 21
9.997092630102372
 31
0.0
  0
LINE
  5
F90
  8
240
 10
104.8535533905932
 20
11.94644660940673
 30
0.0
 11
104.4757359312878
 21
12.32426406871212
 31
0.0
  0
ARC
  5
F91
  8
240
 10
104.4999999999999
 20
11.59289321881345
 30
0.0
 40
0.5
 50
0.0
 51
45.0
  0
LINE
  5
FA1
  8
250
  6
CONTINUOUS
 10
104.0514718625759
 20
-12.50000000000014
 30
0.0
 11
129.6649852934813
 21
-12.50000000000017
 31
0.0
  0
LINE
  5
FA2
  8
250
  6
CONTINUOUS
 10
104.0514718625759
 20
12.50000000000022
 30
0.0
 11
129.6649852934813
 21
12.50000000000022
 31
0.0
  0
LINE
  5
FA3
  8
250
  6
CONTINUOUS
 10
128.6649852934813
 20
-10.27000000000017
 30
0.0
 11
128.6649852934813
 21
10.27000000000022
 31
0.0
  0
INSERT
  5
FA4
  8
250
  6
CONTINUOUS
  2
_OPEN
 10
128.6649852934813
 20
-12.50000000000017
 30
0.0
 41
2.229999999999999
 42
2.229999999999999
 43
2.229999999999999
 50
-90.00000000000001
  0
INSERT
  5
FA5
  8
250
  6
CONTINUOUS
  2
_OPEN
 10
128.6649852934813
 20
12.50000000000022
 30
0.0
 41
2.229999999999999
 42
2.229999999999999
 43
2.229999999999999
 50
90.0
  0
INSERT
  5
FA6
  8
250
  6
CONTINUOUS
 62
    40
  2
*X12
 10
0.0
 20
0.0
 30
0.0
  0
DIMENSION
  5
FAD
  8
250
  2
*D8
 10
104.9999999999999
 20
22.14471704226832
 30
0.0
 11
99.64999999999995
 21
26.14471704226832
 31
0.0
 70
    32
  3
BIGT
 13
94.30000000000001
 23
11.90000000000003
 33
0.0
 14
104.9999999999999
 24
11.59289321881345
 34
0.0
1001
ACAD
1000
DSTYLE
1002
{
1070
   287
1070
     5
1070
   179
1070
     3
1070
    79
1070
     2
1070
   371
1070
    -1
1070
   372
1070
    -1
1070
   279
1070
     2
1070
   140
1040
3.0
1070
    78
1070
     8
1002
}
  0
DIMENSION
  5
FBA
  8
250
  2
*D9
 10
108.8999999999999
 20
16.9740617911449
 30
0.0
 11
110.014732142857
 21
19.4740617911449
 31
0.0
 70
   160
  3
BIGT
 13
104.9999999999999
 23
11.59289321881345
 33
0.0
 14
108.8999999999999
 24
11.59289321881345
 34
0.0
1001
ACAD
1000
DSTYLE
1002
{
1070
   287
1070
     5
1070
   179
1070
     3
1070
    79
1070
     2
1070
   371
1070
    -1
1070
   372
1070
    -1
1070
   279
1070
     2
1070
   140
1040
3.0
1070
    78
1070
     8
1002
}
  0
LINE
  5
FC9
  8
240
 10
108.8999999999999
 20
-6.600000000000001
 30
0.0
 11
108.8999999999999
 21
6.599999999999998
 31
0.0
  0
LINE
  5
FCC
  8
240
 10
105.0
 20
9.6
 30
0.0
 11
108.8999999999999
 21
6.599999999999998
 31
0.0
  0
LINE
  5
FCD
  8
240
 10
105.0
 20
-9.6
 30
0.0
 11
108.8999999999999
 21
-6.600000000000001
 31
0.0
  0
DIMENSION
  5
FCE
  8
250
  2
*D10
 10
122.5642999462896
 20
-9.6
 30
0.0
 11
120.0642999462896
 21
0.0
 31
0.0
 70
    32
  1
\U+220519.2
  3
BIGT
 13
105.0
 23
9.6
 33
0.0
 14
105.0
 24
-9.599999999999998
 34
0.0
 50
90.0
1001
ACAD
1000
DSTYLE
1002
{
1070
   287
1070
     5
1070
   179
1070
     3
1070
    79
1070
     2
1070
   371
1070
    -1
1070
   372
1070
    -1
1070
   279
1070
     2
1070
   140
1040
3.0
1070
    78
1070
     8
1002
}
  0
DIMENSION
  5
FDB
  8
250
  2
*D11
 10
111.8999999999999
 20
-6.600000000000001
 30
0.0
 11
115.8999999999999
 21
0.0
 31
0.0
 70
    32
  1
\U+220513.2
  3
BIGT
 13
108.8999999999999
 23
6.600000000000001
 33
0.0
 14
108.8999999999999
 24
-6.600000000000001
 34
0.0
 50
90.0
1001
ACAD
1000
DSTYLE
1002
{
1070
   287
1070
     5
1070
   179
1070
     3
1070
    79
1070
     2
1070
   371
1070
    -1
1070
   372
1070
    -1
1070
   279
1070
     2
1070
   140
1040
3.0
1070
    78
1070
     8
1002
}
  0
VIEWPORT
  5
22
 67
     1
  8
0
 10
261.5176991150442
 20
148.5
 30
0.0
 40
523.0353982300885
 41
297.0
 68
     1
 69
    -1
1001
ACAD
1000
MVIEW
1002
{
1070
    16
1010
0.0
1020
0.0
1030
0.0
1020
0.0
1030
0.0
1010
0.0
1020
0.0
1030
1.0
1020
0.0
1030
1.0
1040
0.0
1040
297.0
1040
261.5176991150442
1040
148.5
1040
50.0
1040
0.0
1040
0.0
1070
     0
1070
   100
1070
     1
1070
     1
1070
     0
1070
     0
1070
     0
1070
     0
1040
0.0
1040
0.0
1040
0.0
1040
1.0
1040
1.0
1040
10.0
1040
10.0
1070
     0
1002
{
1002
}
1002
}
  0
ENDSEC
  0
EOF
