  0
SECTION
  2
HEADER
  9
$ACADVER
  1
AC1024
  9
$ACADMAINTVER
 70
     6
  9
$DWGCODEPAGE
  3
ANSI_932
  9
$INSBASE
 10
0.0
 20
0.0
 30
0.0
  9
$EXTMIN
 10
-76.39858687325318
 20
-43.0
 30
0.0
  9
$EXTMAX
 10
141.0
 20
68.0
 30
0.0
  9
$LIMMIN
 10
0.0
 20
0.0
  9
$LIMMAX
 10
297.0
 20
210.0
  9
$ORTHOMODE
 70
     0
  9
$REGENMODE
 70
     1
  9
$FILLMODE
 70
     1
  9
$QTEXTMODE
 70
     0
  9
$MIRRTEXT
 70
     1
  9
$LTSCALE
 40
10.0
  9
$ATTMODE
 70
     1
  9
$TEXTSIZE
 40
3.0
  9
$TRACEWID
 40
1.0
  9
$TEXTSTYLE
  7
YOKO
  9
$CLAYER
  8
240
  9
$CELTYPE
  6
ByLayer
  9
$CECOLOR
 62
   256
  9
$CELTSCALE
 40
1.0
  9
$DISPSILH
 70
     0
  9
$DIMSCALE
 40
1.0
  9
$DIMASZ
 40
2.229999999999999
  9
$DIMEXO
 40
0.5
  9
$DIMDLI
 40
2.5
  9
$DIMRND
 40
0.0
  9
$DIMDLE
 40
0.0
  9
$DIMEXE
 40
1.0
  9
$DIMTP
 40
0.0
  9
$DIMTM
 40
0.0
  9
$DIMTXT
 40
3.0
  9
$DIMCEN
 40
0.0
  9
$DIMTSZ
 40
0.0
  9
$DIMTOL
 70
     0
  9
$DIMLIM
 70
     0
  9
$DIMTIH
 70
     0
  9
$DIMTOH
 70
     0
  9
$DIMSE1
 70
     0
  9
$DIMSE2
 70
     0
  9
$DIMTAD
 70
     3
  9
$DIMZIN
 70
     8
  9
$DIMBLK
  1
OPEN
  9
$DIMASO
 70
     1
  9
$DIMSHO
 70
     1
  9
$DIMPOST
  1

  9
$DIMAPOST
  1

  9
$DIMALT
 70
     0
  9
$DIMALTD
 70
     2
  9
$DIMALTF
 40
25.4
  9
$DIMLFAC
 40
1.0
  9
$DIMTOFL
 70
     1
  9
$DIMTVP
 40
0.0
  9
$DIMTIX
 70
     0
  9
$DIMSOXD
 70
     0
  9
$DIMSAH
 70
     0
  9
$DIMBLK1
  1

  9
$DIMBLK2
  1

  9
$DIMSTYLE
  2
BIGT
  9
$DIMCLRD
 70
   256
  9
$DIMCLRE
 70
   256
  9
$DIMCLRT
 70
    40
  9
$DIMTFAC
 40
1.0
  9
$DIMGAP
 40
1.0
  9
$DIMJUST
 70
     0
  9
$DIMSD1
 70
     0
  9
$DIMSD2
 70
     0
  9
$DIMTOLJ
 70
     1
  9
$DIMTZIN
 70
     0
  9
$DIMALTZ
 70
     0
  9
$DIMALTTZ
 70
     0
  9
$DIMUPT
 70
     0
  9
$DIMDEC
 70
     3
  9
$DIMTDEC
 70
     3
  9
$DIMALTU
 70
     2
  9
$DIMALTTD
 70
     2
  9
$DIMTXSTY
  7
STANDARD
  9
$DIMAUNIT
 70
     0
  9
$DIMADEC
 70
     0
  9
$DIMALTRND
 40
0.0
  9
$DIMAZIN
 70
     0
  9
$DIMDSEP
 70
    46
  9
$DIMATFIT
 70
     3
  9
$DIMFRAC
 70
     0
  9
$DIMLDRBLK
  1

  9
$DIMLUNIT
 70
     2
  9
$DIMLWD
 70
    -2
  9
$DIMLWE
 70
    -2
  9
$DIMTMOVE
 70
     2
  9
$DIMFXL
 40
1.0
  9
$DIMFXLON
 70
     0
  9
$DIMJOGANG
 40
0.7853981633974483
  9
$DIMTFILL
 70
     0
  9
$DIMTFILLCLR
 70
     0
  9
$DIMARCSYM
 70
     0
  9
$DIMLTYPE
  6

  9
$DIMLTEX1
  6

  9
$DIMLTEX2
  6

  9
$DIMTXTDIRECTION
 70
     0
  9
$LUNITS
 70
     2
  9
$LUPREC
 70
     3
  9
$SKETCHINC
 40
1.0
  9
$FILLETRAD
 40
0.0
  9
$AUNITS
 70
     0
  9
$AUPREC
 70
     3
  9
$MENU
  1
.
  9
$ELEVATION
 40
0.0
  9
$PELEVATION
 40
0.0
  9
$THICKNESS
 40
0.0
  9
$LIMCHECK
 70
     0
  9
$CHAMFERA
 40
10.0
  9
$CHAMFERB
 40
10.0
  9
$CHAMFERC
 40
1.0
  9
$CHAMFERD
 40
0.0
  9
$SKPOLY
 70
     0
  9
$TDCREATE
 40
2452173.379612963
  9
$TDUCREATE
 40
2452173.587946296
  9
$TDUPDATE
 40
2456155.355507442
  9
$TDUUPDATE
 40
2456155.563840775
  9
$TDINDWG
 40
0.0360924769
  9
$TDUSRTIMER
 40
2456155.563240914
  9
$USRTIMER
 70
     1
  9
$ANGBASE
 50
0.0
  9
$ANGDIR
 70
     0
  9
$PDMODE
 70
    35
  9
$PDSIZE
 40
-5.0
  9
$PLINEWID
 40
0.0
  9
$SPLFRAME
 70
     0
  9
$SPLINETYPE
 70
     6
  9
$SPLINESEGS
 70
     8
  9
$HANDSEED
  5
F09
  9
$SURFTAB1
 70
     6
  9
$SURFTAB2
 70
     6
  9
$SURFTYPE
 70
     6
  9
$SURFU
 70
     6
  9
$SURFV
 70
     6
  9
$UCSBASE
  2

  9
$UCSNAME
  2

  9
$UCSORG
 10
0.0
 20
0.0
 30
0.0
  9
$UCSXDIR
 10
1.0
 20
0.0
 30
0.0
  9
$UCSYDIR
 10
0.0
 20
1.0
 30
0.0
  9
$UCSORTHOREF
  2

  9
$UCSORTHOVIEW
 70
     0
  9
$UCSORGTOP
 10
0.0
 20
0.0
 30
0.0
  9
$UCSORGBOTTOM
 10
0.0
 20
0.0
 30
0.0
  9
$UCSORGLEFT
 10
0.0
 20
0.0
 30
0.0
  9
$UCSORGRIGHT
 10
0.0
 20
0.0
 30
0.0
  9
$UCSORGFRONT
 10
0.0
 20
0.0
 30
0.0
  9
$UCSORGBACK
 10
0.0
 20
0.0
 30
0.0
  9
$PUCSBASE
  2

  9
$PUCSNAME
  2

  9
$PUCSORG
 10
0.0
 20
0.0
 30
0.0
  9
$PUCSXDIR
 10
1.0
 20
0.0
 30
0.0
  9
$PUCSYDIR
 10
0.0
 20
1.0
 30
0.0
  9
$PUCSORTHOREF
  2

  9
$PUCSORTHOVIEW
 70
     0
  9
$PUCSORGTOP
 10
0.0
 20
0.0
 30
0.0
  9
$PUCSORGBOTTOM
 10
0.0
 20
0.0
 30
0.0
  9
$PUCSORGLEFT
 10
0.0
 20
0.0
 30
0.0
  9
$PUCSORGRIGHT
 10
0.0
 20
0.0
 30
0.0
  9
$PUCSORGFRONT
 10
0.0
 20
0.0
 30
0.0
  9
$PUCSORGBACK
 10
0.0
 20
0.0
 30
0.0
  9
$USERI1
 70
     1
  9
$USERI2
 70
     0
  9
$USERI3
 70
     0
  9
$USERI4
 70
     0
  9
$USERI5
 70
     0
  9
$USERR1
 40
0.0
  9
$USERR2
 40
0.0
  9
$USERR3
 40
0.0
  9
$USERR4
 40
0.0
  9
$USERR5
 40
0.0
  9
$WORLDVIEW
 70
     1
  9
$SHADEDGE
 70
     3
  9
$SHADEDIF
 70
    70
  9
$TILEMODE
 70
     1
  9
$MAXACTVP
 70
    16
  9
$PINSBASE
 10
0.0
 20
0.0
 30
0.0
  9
$PLIMCHECK
 70
     0
  9
$PEXTMIN
 10
1.000000000000000E+20
 20
1.000000000000000E+20
 30
1.000000000000000E+20
  9
$PEXTMAX
 10
-1.000000000000000E+20
 20
-1.000000000000000E+20
 30
-1.000000000000000E+20
  9
$PLIMMIN
 10
0.0
 20
0.0
  9
$PLIMMAX
 10
420.0
 20
297.0
  9
$UNITMODE
 70
     0
  9
$VISRETAIN
 70
     0
  9
$PLINEGEN
 70
     0
  9
$PSLTSCALE
 70
     1
  9
$TREEDEPTH
 70
  3020
  9
$CMLSTYLE
  2
Standard
  9
$CMLJUST
 70
     0
  9
$CMLSCALE
 40
1.0
  9
$PROXYGRAPHICS
 70
     1
  9
$MEASUREMENT
 70
     0
  9
$CELWEIGHT
370
    -1
  9
$ENDCAPS
280
     0
  9
$JOINSTYLE
280
     0
  9
$LWDISPLAY
290
     0
  9
$INSUNITS
 70
     0
  9
$HYPERLINKBASE
  1

  9
$STYLESHEET
  1

  9
$XEDIT
290
     1
  9
$CEPSNTYPE
380
     0
  9
$PSTYLEMODE
290
     1
  9
$FINGERPRINTGUID
  2
{B8EF84DA-7AE6-49E2-A3B8-4B3C2EDFB1BF}
  9
$VERSIONGUID
  2
{FAEB1C32-E019-11D5-929B-00C0DF256EC4}
  9
$EXTNAMES
290
     1
  9
$PSVPSCALE
 40
0.0
  9
$OLESTARTUP
290
     0
  9
$SORTENTS
280
   127
  9
$INDEXCTL
280
     0
  9
$HIDETEXT
280
     1
  9
$XCLIPFRAME
280
     2
  9
$HALOGAP
280
     0
  9
$OBSCOLOR
 70
   257
  9
$OBSLTYPE
280
     0
  9
$INTERSECTIONDISPLAY
280
     0
  9
$INTERSECTIONCOLOR
 70
   257
  9
$DIMASSOC
280
     2
  9
$PROJECTNAME
  1

  9
$CAMERADISPLAY
290
     0
  9
$LENSLENGTH
 40
50.0
  9
$CAMERAHEIGHT
 40
0.0
  9
$STEPSPERSEC
 40
2.0
  9
$STEPSIZE
 40
6.0
  9
$3DDWFPREC
 40
2.0
  9
$PSOLWIDTH
 40
0.25
  9
$PSOLHEIGHT
 40
4.0
  9
$LOFTANG1
 40
1.570796326794897
  9
$LOFTANG2
 40
1.570796326794897
  9
$LOFTMAG1
 40
0.0
  9
$LOFTMAG2
 40
0.0
  9
$LOFTPARAM
 70
     7
  9
$LOFTNORMALS
280
     1
  9
$LATITUDE
 40
37.795
  9
$LONGITUDE
 40
-122.394
  9
$NORTHDIRECTION
 40
0.0
  9
$TIMEZONE
 70
 -8000
  9
$LIGHTGLYPHDISPLAY
280
     1
  9
$TILEMODELIGHTSYNCH
280
     1
  9
$SOLIDHIST
280
     1
  9
$SHOWHIST
280
     1
  9
$DWFFRAME
280
     2
  9
$DGNFRAME
280
     2
  9
$REALWORLDSCALE
290
     1
  9
$INTERFERECOLOR
 62
   256
  9
$CSHADOW
280
     0
  9
$SHADOWPLANELOCATION
 40
0.0
  0
ENDSEC
  0
SECTION
  2
CLASSES
  0
CLASS
  1
ACDBDICTIONARYWDFLT
  2
AcDbDictionaryWithDefault
  3
ObjectDBX Classes
 90
        0
 91
        7
280
     0
281
     0
  0
CLASS
  1
MATERIAL
  2
AcDbMaterial
  3
ObjectDBX Classes
 90
     1153
 91
        7
280
     0
281
     0
  0
CLASS
  1
SCALE
  2
AcDbScale
  3
ObjectDBX Classes
 90
     1153
 91
        7
280
     0
281
     0
  0
CLASS
  1
VISUALSTYLE
  2
AcDbVisualStyle
  3
ObjectDBX Classes
 90
     4095
 91
        7
280
     0
281
     0
  0
CLASS
  1
TABLESTYLE
  2
AcDbTableStyle
  3
ObjectDBX Classes
 90
     4095
 91
        7
280
     0
281
     0
  0
CLASS
  1
RASTERVARIABLES
  2
AcDbRasterVariables
  3
ISM
 90
        0
 91
        7
280
     0
281
     0
  0
CLASS
  1
DICTIONARYVAR
  2
AcDbDictionaryVar
  3
ObjectDBX Classes
 90
        0
 91
        4
280
     0
281
     0
  0
CLASS
  1
CELLSTYLEMAP
  2
AcDbCellStyleMap
  3
ObjectDBX Classes
 90
     1152
 91
        4
280
     0
281
     0
  0
ENDSEC
  0
SECTION
  2
TABLES
  0
TABLE
  2
VPORT
  5
E8E
330
0
100
AcDbSymbolTable
 70
     1
  0
VPORT
  5
EA5
330
E8E
100
AcDbSymbolTableRecord
100
AcDbViewportTableRecord
  2
*ACTIVE
 70
     0
 10
0.0
 20
0.0
 11
1.0
 21
1.0
 12
130.566127129296
 22
0.1363793541801446
 13
0.0
 23
0.0
 14
7.0
 24
7.0
 15
7.0
 25
7.0
 16
0.0
 26
0.0
 36
1.0
 17
0.0
 27
0.0
 37
0.0
 40
47.45736758129073
 41
1.328822733423545
 42
50.0
 43
0.0
 44
0.0
 50
0.0
 51
0.0
 71
    16
 72
  2000
 73
     1
 74
     0
 75
     0
 76
     0
 77
     0
 78
     0
281
     0
 65
     0
110
0.0
120
0.0
130
0.0
111
1.0
121
0.0
131
0.0
112
0.0
122
1.0
132
0.0
 79
     0
146
0.0
 60
     3
 61
     5
292
     1
282
     1
141
0.0
142
0.0
 63
   256
  0
ENDTAB
  0
TABLE
  2
LTYPE
  5
E8B
330
0
100
AcDbSymbolTable
 70
     2
  0
LTYPE
  5
E99
330
E8B
100
AcDbSymbolTableRecord
100
AcDbLinetypeTableRecord
  2
ByBlock
 70
     0
  3

 72
    65
 73
     0
 40
0.0
  0
LTYPE
  5
E9A
330
E8B
100
AcDbSymbolTableRecord
100
AcDbLinetypeTableRecord
  2
ByLayer
 70
     0
  3

 72
    65
 73
     0
 40
0.0
  0
LTYPE
  5
E9B
330
E8B
100
AcDbSymbolTableRecord
100
AcDbLinetypeTableRecord
  2
CONTINUOUS
 70
     0
  3
Solid line
 72
    65
 73
     0
 40
0.0
  0
LTYPE
  5
EA7
330
E8B
100
AcDbSymbolTableRecord
100
AcDbLinetypeTableRecord
  2
PHANTOM2
 70
     0
  3
___ _ _ ___ _ _ ___ _ _ ___ _ _ ___ _ _ ___ _ _
 72
    65
 73
     6
 40
1.25
 49
0.625
 74
     0
 49
-0.125
 74
     0
 49
0.125
 74
     0
 49
-0.125
 74
     0
 49
0.125
 74
     0
 49
-0.125
 74
     0
  0
ENDTAB
  0
TABLE
  2
LAYER
  5
E88
330
0
100
AcDbSymbolTable
 70
     6
  0
LAYER
  5
E96
330
E88
100
AcDbSymbolTableRecord
100
AcDbLayerTableRecord
  2
0
 70
     0
 62
     7
  6
CONTINUOUS
370
    -3
390
E95
347
EAC
  0
LAYER
  5
EAD
330
E88
100
AcDbSymbolTableRecord
100
AcDbLayerTableRecord
  2
240
 70
     0
 62
     4
  6
CONTINUOUS
370
    -3
390
E95
347
EAC
  0
LAYER
  5
EAE
330
E88
100
AcDbSymbolTableRecord
100
AcDbLayerTableRecord
  2
241
 70
     0
 62
   211
  6
CONTINUOUS
370
    -3
390
E95
347
EAC
  0
LAYER
  5
EAF
330
E88
100
AcDbSymbolTableRecord
100
AcDbLayerTableRecord
  2
246
 70
     0
 62
     3
  6
PHANTOM2
370
    -3
390
E95
347
EAC
  0
LAYER
  5
EB0
330
E88
100
AcDbSymbolTableRecord
100
AcDbLayerTableRecord
  2
250
 70
     0
 62
     3
  6
CONTINUOUS
370
    -3
390
E95
347
EAC
  0
LAYER
  5
EB1
330
E88
100
AcDbSymbolTableRecord
100
AcDbLayerTableRecord
  2
DEFPOINTS
 70
     0
 62
     7
  6
CONTINUOUS
290
     0
370
    -3
390
E95
347
EAC
  0
ENDTAB
  0
TABLE
  2
STYLE
  5
E89
330
0
100
AcDbSymbolTable
 70
     2
  0
STYLE
  5
E97
330
E89
100
AcDbSymbolTableRecord
100
AcDbTextStyleTableRecord
  2
STANDARD
 70
     0
 40
0.0
 41
1.0
 50
0.0
 71
     0
 42
3.0
  3
romans.shx
  4
BIGFONT.SHX
  0
STYLE
  5
EB3
330
E89
100
AcDbSymbolTableRecord
100
AcDbTextStyleTableRecord
  2
YOKO
 70
     0
 40
0.0
 41
1.0
 50
0.0
 71
     0
 42
3.0
  3
romans.shx
  4
extfont.shx
  0
ENDTAB
  0
TABLE
  2
VIEW
  5
E8C
330
0
100
AcDbSymbolTable
 70
     0
  0
ENDTAB
  0
TABLE
  2
UCS
  5
E8D
330
0
100
AcDbSymbolTable
 70
     0
  0
ENDTAB
  0
TABLE
  2
APPID
  5
E8F
330
0
100
AcDbSymbolTable
 70
     9
  0
APPID
  5
E98
330
E8F
100
AcDbSymbolTableRecord
100
AcDbRegAppTableRecord
  2
ACAD
 70
     0
  0
APPID
  5
EB5
330
E8F
100
AcDbSymbolTableRecord
100
AcDbRegAppTableRecord
  2
GLOBAL
 70
     0
  0
APPID
  5
EB6
330
E8F
100
AcDbSymbolTableRecord
100
AcDbRegAppTableRecord
  2
DETAIL
 70
     0
  0
APPID
  5
EB7
330
E8F
100
AcDbSymbolTableRecord
100
AcDbRegAppTableRecord
  2
GRPNAME
 70
     0
  0
APPID
  5
EB8
330
E8F
100
AcDbSymbolTableRecord
100
AcDbRegAppTableRecord
  2
GPARA
 70
     0
  0
APPID
  5
EB9
330
E8F
100
AcDbSymbolTableRecord
100
AcDbRegAppTableRecord
  2
ITEMNAME
 70
     0
  0
APPID
  5
EBA
330
E8F
100
AcDbSymbolTableRecord
100
AcDbRegAppTableRecord
  2
HATCH_TYPE
 70
     0
  0
APPID
  5
EBB
330
E8F
100
AcDbSymbolTableRecord
100
AcDbRegAppTableRecord
  2
HATCH_DISPLAY
 70
     0
  0
APPID
  5
EBC
330
E8F
100
AcDbSymbolTableRecord
100
AcDbRegAppTableRecord
  2
HATCH_DISTANCE
 70
     0
  0
ENDTAB
  0
TABLE
  2
DIMSTYLE
  5
E90
330
0
100
AcDbSymbolTable
 70
     1
100
AcDbDimStyleTable
  0
DIMSTYLE
105
E0
330
E90
100
AcDbSymbolTableRecord
100
AcDbDimStyleTableRecord
  2
BIGT
 70
     0
 41
2.229999999999999
 42
0.5
 43
2.5
 44
1.0
 73
     0
 74
     0
 77
     3
 78
     9
140
3.5
141
0.0
147
1.0
172
     1
176
   256
177
   256
178
    40
340
EB3
341
EC0
342
EC0
  0
ENDTAB
  0
TABLE
  2
BLOCK_RECORD
  5
E87
330
0
100
AcDbSymbolTable
 70
     6
  0
BLOCK_RECORD
  5
EA2
330
E87
100
AcDbSymbolTableRecord
100
AcDbBlockTableRecord
  2
*Model_Space
340
EA3
 70
     0
280
     1
281
     0
  0
BLOCK_RECORD
  5
EA0
330
E87
100
AcDbSymbolTableRecord
100
AcDbBlockTableRecord
  2
*Paper_Space
340
EA1
 70
     0
280
     1
281
     0
  0
BLOCK_RECORD
  5
EC0
330
E87
100
AcDbSymbolTableRecord
100
AcDbBlockTableRecord
  2
_OPEN
340
0
102
{BLKREFS
331
DCC
331
DCD
331
DDB
331
DDC
331
DFA
331
DFB
331
E07
331
E08
331
E14
331
E15
102
}
 70
     0
280
     1
281
     0
  0
BLOCK_RECORD
  5
EC2
330
E87
100
AcDbSymbolTableRecord
100
AcDbBlockTableRecord
  2
*D1
340
0
 70
     0
280
     1
281
     0
  0
BLOCK_RECORD
  5
EC4
330
E87
100
AcDbSymbolTableRecord
100
AcDbBlockTableRecord
  2
*D2
340
0
 70
     0
280
     1
281
     0
  0
BLOCK_RECORD
  5
EC6
330
E87
100
AcDbSymbolTableRecord
100
AcDbBlockTableRecord
  2
*D3
340
0
 70
     0
280
     1
281
     0
  0
BLOCK_RECORD
  5
EC8
330
E87
100
AcDbSymbolTableRecord
100
AcDbBlockTableRecord
  2
*D4
340
0
 70
     0
280
     1
281
     0
  0
BLOCK_RECORD
  5
ECA
330
E87
100
AcDbSymbolTableRecord
100
AcDbBlockTableRecord
  2
*D5
340
0
 70
     0
280
     1
281
     0
  0
ENDTAB
  0
ENDSEC
  0
SECTION
  2
BLOCKS
  0
BLOCK
  5
EBD
330
EA2
100
AcDbEntity
  8
0
100
AcDbBlockBegin
  2
*Model_Space
 70
     0
 10
0.0
 20
0.0
 30
0.0
  3
*Model_Space
  1

  0
ENDBLK
  5
1C
330
EA2
100
AcDbEntity
  8
0
100
AcDbBlockEnd
  0
BLOCK
  5
EBE
330
EA0
100
AcDbEntity
 67
     1
  8
0
100
AcDbBlockBegin
  2
*Paper_Space
 70
     0
 10
0.0
 20
0.0
 30
0.0
  3
*Paper_Space
  1

  0
ENDBLK
  5
19
330
EA0
100
AcDbEntity
 67
     1
  8
0
100
AcDbBlockEnd
  0
BLOCK
  5
EBF
330
EC0
100
AcDbEntity
  8
0
100
AcDbBlockBegin
  2
_OPEN
 70
     0
 10
0.0
 20
0.0
 30
0.0
  3
_OPEN
  1

  0
LINE
  5
595
330
EC0
100
AcDbEntity
  8
0
  6
ByBlock
 62
     0
100
AcDbLine
 10
-1.0
 20
0.1666666666666666
 30
0.0
 11
0.0
 21
0.0
 31
0.0
  0
LINE
  5
596
330
EC0
100
AcDbEntity
  8
0
  6
ByBlock
 62
     0
100
AcDbLine
 10
-1.0
 20
-0.1666666666666666
 30
0.0
 11
0.0
 21
0.0
 31
0.0
  0
LINE
  5
597
330
EC0
100
AcDbEntity
  8
0
  6
ByBlock
 62
     0
100
AcDbLine
 10
0.0
 20
0.0
 30
0.0
 11
-1.0
 21
0.0
 31
0.0
  0
ENDBLK
  5
599
330
EC0
100
AcDbEntity
  8
0
100
AcDbBlockEnd
  0
BLOCK
  5
EC1
330
EC2
100
AcDbEntity
  8
0
100
AcDbBlockBegin
  2
*D1
 70
     1
 10
0.0
 20
0.0
 30
0.0
  3
*D1
  1

  0
LINE
  5
DC9
330
EC2
100
AcDbEntity
  8
250
100
AcDbLine
 10
110.8
 20
9.899999999999977
 30
0.0
 11
110.8
 21
17.76990224158955
 31
0.0
  0
LINE
  5
DCA
330
EC2
100
AcDbEntity
  8
250
100
AcDbLine
 10
120.0
 20
9.474999999999994
 30
0.0
 11
120.0
 21
17.76990224158955
 31
0.0
  0
LINE
  5
DCB
330
EC2
100
AcDbEntity
  8
250
100
AcDbLine
 10
113.03
 20
16.76990224158955
 30
0.0
 11
117.77
 21
16.76990224158955
 31
0.0
  0
INSERT
  5
DCC
330
EC2
100
AcDbEntity
  8
250
100
AcDbBlockReference
  2
_OPEN
 10
110.8
 20
16.76990224158955
 30
0.0
 41
2.229999999999999
 42
2.229999999999999
 43
2.229999999999999
 50
180.0
  0
INSERT
  5
DCD
330
EC2
100
AcDbEntity
  8
250
100
AcDbBlockReference
  2
_OPEN
 10
120.0
 20
16.76990224158955
 30
0.0
 41
2.229999999999999
 42
2.229999999999999
 43
2.229999999999999
  0
TEXT
  5
DCE
330
EC2
100
AcDbEntity
  8
250
  6
Continuous
 62
    40
100
AcDbText
 10
111.8196428571429
 20
17.76990224158955
 30
0.0
 40
3.0
  1
9.2
100
AcDbText
  0
POINT
  5
DCF
330
EC2
100
AcDbEntity
  8
DEFPOINTS
 62
     0
100
AcDbPoint
 10
110.8
 20
9.399999999999977
 30
0.0
  0
POINT
  5
DD0
330
EC2
100
AcDbEntity
  8
DEFPOINTS
 62
     0
100
AcDbPoint
 10
120.0
 20
8.974999999999994
 30
0.0
  0
POINT
  5
DD1
330
EC2
100
AcDbEntity
  8
DEFPOINTS
 62
     0
100
AcDbPoint
 10
120.0
 20
16.76990224158955
 30
0.0
  0
ENDBLK
  5
DD3
330
EC2
100
AcDbEntity
  8
0
100
AcDbBlockEnd
  0
BLOCK
  5
EC3
330
EC4
100
AcDbEntity
  8
0
100
AcDbBlockBegin
  2
*D2
 70
     1
 10
0.0
 20
0.0
 30
0.0
  3
*D2
  1

  0
LINE
  5
DD6
330
EC4
100
AcDbEntity
  8
250
100
AcDbLine
 10
120.0
 20
9.592893218813401
 30
0.0
 11
120.0
 21
13.73779781380739
 31
0.0
  0
LINE
  5
DD7
330
EC4
100
AcDbEntity
  8
250
100
AcDbLine
 10
122.3
 20
9.592893218813401
 30
0.0
 11
122.3
 21
13.73779781380739
 31
0.0
  0
LINE
  5
DD8
330
EC4
100
AcDbEntity
  8
250
100
AcDbLine
 10
120.0
 20
12.73779781380739
 30
0.0
 11
122.3
 21
12.73779781380739
 31
0.0
  0
LINE
  5
DD9
330
EC4
100
AcDbEntity
  8
250
100
AcDbLine
 10
117.77
 20
12.73779781380739
 30
0.0
 11
115.54
 21
12.73779781380739
 31
0.0
  0
LINE
  5
DDA
330
EC4
100
AcDbEntity
  8
250
100
AcDbLine
 10
124.53
 20
12.73779781380739
 30
0.0
 11
126.76
 21
12.73779781380739
 31
0.0
  0
INSERT
  5
DDB
330
EC4
100
AcDbEntity
  8
250
100
AcDbBlockReference
  2
_OPEN
 10
120.0
 20
12.73779781380739
 30
0.0
 41
2.229999999999999
 42
2.229999999999999
 43
2.229999999999999
  0
INSERT
  5
DDC
330
EC4
100
AcDbEntity
  8
250
100
AcDbBlockReference
  2
_OPEN
 10
122.3
 20
12.73779781380739
 30
0.0
 41
2.229999999999999
 42
2.229999999999999
 43
2.229999999999999
 50
180.0
  0
TEXT
  5
DDD
330
EC4
100
AcDbEntity
  8
250
  6
Continuous
 62
    40
100
AcDbText
 10
120.7125
 20
13.73779781380739
 30
0.0
 40
3.0
  1
2.3
100
AcDbText
  0
POINT
  5
DDE
330
EC4
100
AcDbEntity
  8
DEFPOINTS
 62
     0
100
AcDbPoint
 10
120.0
 20
9.092893218813401
 30
0.0
  0
POINT
  5
DDF
330
EC4
100
AcDbEntity
  8
DEFPOINTS
 62
     0
100
AcDbPoint
 10
122.3
 20
9.092893218813401
 30
0.0
  0
POINT
  5
DE0
330
EC4
100
AcDbEntity
  8
DEFPOINTS
 62
     0
100
AcDbPoint
 10
122.3
 20
12.73779781380739
 30
0.0
  0
ENDBLK
  5
DE2
330
EC4
100
AcDbEntity
  8
0
100
AcDbBlockEnd
  0
BLOCK
  5
EC5
330
EC6
100
AcDbEntity
  8
0
100
AcDbBlockBegin
  2
*D3
 70
     1
 10
0.0
 20
0.0
 30
0.0
  3
*D3
  1

  0
LINE
  5
DF7
330
EC6
100
AcDbEntity
  8
250
100
AcDbLine
 10
120.5
 20
7.35
 30
0.0
 11
140.9027154046178
 21
7.349999999999999
 31
0.0
  0
LINE
  5
DF8
330
EC6
100
AcDbEntity
  8
250
100
AcDbLine
 10
120.5
 20
-7.35
 30
0.0
 11
140.9027154046178
 21
-7.350000000000001
 31
0.0
  0
LINE
  5
DF9
330
EC6
100
AcDbEntity
  8
250
100
AcDbLine
 10
139.9027154046178
 20
5.119999999999999
 30
0.0
 11
139.9027154046178
 21
-5.120000000000001
 31
0.0
  0
INSERT
  5
DFA
330
EC6
100
AcDbEntity
  8
250
100
AcDbBlockReference
  2
_OPEN
 10
139.9027154046178
 20
7.349999999999999
 30
0.0
 41
2.229999999999999
 42
2.229999999999999
 43
2.229999999999999
 50
90.0
  0
INSERT
  5
DFB
330
EC6
100
AcDbEntity
  8
250
100
AcDbBlockReference
  2
_OPEN
 10
139.9027154046178
 20
-7.350000000000001
 30
0.0
 41
2.229999999999999
 42
2.229999999999999
 43
2.229999999999999
 50
270.0
  0
TEXT
  5
DFC
330
EC6
100
AcDbEntity
  8
250
  6
Continuous
 62
    40
100
AcDbText
 10
144.8038974134624
 20
-6.366071428571416
 30
0.0
 40
3.0
  1
∅14.7
 50
90.0
100
AcDbText
  0
POINT
  5
DFD
330
EC6
100
AcDbEntity
  8
DEFPOINTS
 62
     0
100
AcDbPoint
 10
120.0
 20
7.35
 30
0.0
  0
POINT
  5
DFE
330
EC6
100
AcDbEntity
  8
DEFPOINTS
 62
     0
100
AcDbPoint
 10
120.0
 20
-7.35
 30
0.0
  0
POINT
  5
DFF
330
EC6
100
AcDbEntity
  8
DEFPOINTS
 62
     0
100
AcDbPoint
 10
139.9027154046178
 20
-7.350000000000001
 30
0.0
  0
ENDBLK
  5
E01
330
EC6
100
AcDbEntity
  8
0
100
AcDbBlockEnd
  0
BLOCK
  5
EC7
330
EC8
100
AcDbEntity
  8
0
100
AcDbBlockBegin
  2
*D4
 70
     1
 10
0.0
 20
0.0
 30
0.0
  3
*D4
  1

  0
LINE
  5
E04
330
EC8
100
AcDbEntity
  8
250
100
AcDbLine
 10
122.8
 20
5.6
 30
0.0
 11
133.8684526135983
 21
5.599999999999999
 31
0.0
  0
LINE
  5
E05
330
EC8
100
AcDbEntity
  8
250
100
AcDbLine
 10
122.8
 20
-5.6
 30
0.0
 11
133.8684526135983
 21
-5.600000000000001
 31
0.0
  0
LINE
  5
E06
330
EC8
100
AcDbEntity
  8
250
100
AcDbLine
 10
132.8684526135983
 20
3.37
 30
0.0
 11
132.8684526135983
 21
-3.370000000000001
 31
0.0
  0
INSERT
  5
E07
330
EC8
100
AcDbEntity
  8
250
100
AcDbBlockReference
  2
_OPEN
 10
132.8684526135983
 20
5.599999999999999
 30
0.0
 41
2.229999999999999
 42
2.229999999999999
 43
2.229999999999999
 50
90.0
  0
INSERT
  5
E08
330
EC8
100
AcDbEntity
  8
250
100
AcDbBlockReference
  2
_OPEN
 10
132.8684526135983
 20
-5.600000000000001
 30
0.0
 41
2.229999999999999
 42
2.229999999999999
 43
2.229999999999999
 50
270.0
  0
TEXT
  5
E09
330
EC8
100
AcDbEntity
  8
250
  6
Continuous
 62
    40
100
AcDbText
 10
138.0015333957732
 20
-6.283020595235655
 30
0.0
 40
3.0
  1
∅11.2
 50
90.0
100
AcDbText
  0
POINT
  5
E0A
330
EC8
100
AcDbEntity
  8
DEFPOINTS
 62
     0
100
AcDbPoint
 10
122.3
 20
5.6
 30
0.0
  0
POINT
  5
E0B
330
EC8
100
AcDbEntity
  8
DEFPOINTS
 62
     0
100
AcDbPoint
 10
122.3
 20
-5.6
 30
0.0
  0
POINT
  5
E0C
330
EC8
100
AcDbEntity
  8
DEFPOINTS
 62
     0
100
AcDbPoint
 10
132.8684526135983
 20
-5.600000000000001
 30
0.0
  0
ENDBLK
  5
E0E
330
EC8
100
AcDbEntity
  8
0
100
AcDbBlockEnd
  0
BLOCK
  5
EC9
330
ECA
100
AcDbEntity
  8
0
100
AcDbBlockBegin
  2
*D5
 70
     1
 10
0.0
 20
0.0
 30
0.0
  3
*D5
  1

  0
LINE
  5
E11
330
ECA
100
AcDbEntity
  8
250
100
AcDbLine
 10
119.5514718625761
 20
10.0
 30
0.0
 11
153.5025487555648
 21
9.999999999999998
 31
0.0
  0
LINE
  5
E12
330
ECA
100
AcDbEntity
  8
250
100
AcDbLine
 10
119.5514718625761
 20
-10.00000000000003
 30
0.0
 11
153.5025487555648
 21
-10.00000000000003
 31
0.0
  0
LINE
  5
E13
330
ECA
100
AcDbEntity
  8
250
100
AcDbLine
 10
152.5025487555648
 20
7.77
 30
0.0
 11
152.5025487555648
 21
-7.770000000000032
 31
0.0
  0
INSERT
  5
E14
330
ECA
100
AcDbEntity
  8
250
100
AcDbBlockReference
  2
_OPEN
 10
152.5025487555648
 20
9.999999999999998
 30
0.0
 41
2.229999999999999
 42
2.229999999999999
 43
2.229999999999999
 50
90.0
  0
INSERT
  5
E15
330
ECA
100
AcDbEntity
  8
250
100
AcDbBlockReference
  2
_OPEN
 10
152.5025487555648
 20
-10.00000000000003
 30
0.0
 41
2.229999999999999
 42
2.229999999999999
 43
2.229999999999999
 50
270.0
  0
TEXT
  5
E16
330
ECA
100
AcDbEntity
  8
250
  6
Continuous
 62
    40
100
AcDbText
 10
151.5025487555648
 20
-4.223214285714306
 30
0.0
 40
3.0
  1
∅20
 50
90.0
100
AcDbText
  0
POINT
  5
E17
330
ECA
100
AcDbEntity
  8
DEFPOINTS
 62
     0
100
AcDbPoint
 10
119.0514718625761
 20
10.0
 30
0.0
  0
POINT
  5
E18
330
ECA
100
AcDbEntity
  8
DEFPOINTS
 62
     0
100
AcDbPoint
 10
119.0514718625761
 20
-10.00000000000003
 30
0.0
  0
POINT
  5
E19
330
ECA
100
AcDbEntity
  8
DEFPOINTS
 62
     0
100
AcDbPoint
 10
152.5025487555648
 20
-10.00000000000003
 30
0.0
  0
ENDBLK
  5
E1B
330
ECA
100
AcDbEntity
  8
0
100
AcDbBlockEnd
  0
ENDSEC
  0
SECTION
  2
ENTITIES
  0
LINE
  5
D48
330
EA2
100
AcDbEntity
  8
240
100
AcDbLine
 10
111.3999999999999
 20
10.0
 30
0.0
 11
119.0514718625761
 21
10.0
 31
0.0
  0
LINE
  5
D4D
330
EA2
100
AcDbEntity
  8
240
100
AcDbLine
 10
111.3999999999999
 20
-10.0
 30
0.0
 11
119.0514718625761
 21
-10.0
 31
0.0
  0
LINE
  5
D53
330
EA2
100
AcDbEntity
  8
241
100
AcDbLine
 10
110.8
 20
7.550000000000011
 30
0.0
 11
110.8
 21
0.0
 31
0.0
  0
LINE
  5
D55
330
EA2
100
AcDbEntity
  8
240
100
AcDbLine
 10
110.4999999999999
 20
7.25
 30
0.0
 11
110.4999999999999
 21
5.999999999999943
 31
0.0
  0
LINE
  5
D75
330
EA2
100
AcDbEntity
  8
240
100
AcDbLine
 10
110.8
 20
-9.400000000000034
 30
0.0
 11
110.8
 21
-7.550000000000011
 31
0.0
  0
ARC
  5
D76
330
EA2
100
AcDbEntity
  8
240
100
AcDbCircle
 10
111.3999999999999
 20
-9.400000000000034
 30
0.0
 40
0.5999999999999944
100
AcDbArc
 50
180.0
 51
270.0
  0
LINE
  5
D7E
330
EA2
100
AcDbEntity
  8
241
100
AcDbLine
 10
116.5
 20
-1.25
 30
0.0
 11
116.5
 21
0.0
 31
0.0
  0
LINE
  5
D80
330
EA2
100
AcDbEntity
  8
241
100
AcDbLine
 10
110.4999999999999
 20
-6.000000000000056
 30
0.0
 11
110.4999999999999
 21
0.0
 31
0.0
  0
LINE
  5
D81
330
EA2
100
AcDbEntity
  8
241
100
AcDbLine
 10
110.8
 20
-7.550000000000011
 30
0.0
 11
110.8
 21
0.0
 31
0.0
  0
LINE
  5
D82
330
EA2
100
AcDbEntity
  8
241
100
AcDbLine
 10
116.5
 20
-1.25
 30
0.0
 11
110.8
 21
-1.25
 31
0.0
  0
LINE
  5
D83
330
EA2
100
AcDbEntity
  8
241
100
AcDbLine
 10
116.5
 20
-7.967329428042262
 30
0.0
 11
110.8
 21
-7.967329428042262
 31
0.0
  0
LINE
  5
D84
330
EA2
100
AcDbEntity
  8
241
100
AcDbLine
 10
116.5
 20
-9.217329428042262
 30
0.0
 11
110.8
 21
-9.217329428042262
 31
0.0
  0
LINE
  5
D88
330
EA2
100
AcDbEntity
  8
240
100
AcDbLine
 10
110.4999999999999
 20
-7.25
 30
0.0
 11
110.8
 21
-7.550000000000011
 31
0.0
  0
LINE
  5
D89
330
EA2
100
AcDbEntity
  8
240
100
AcDbLine
 10
110.4999999999999
 20
-7.25
 30
0.0
 11
110.4999999999999
 21
-6.000000000000056
 31
0.0
  0
LINE
  5
D8A
330
EA2
100
AcDbEntity
  8
241
100
AcDbLine
 10
116.5
 20
-9.217329428042262
 30
0.0
 11
116.5
 21
-7.967329428042262
 31
0.0
  0
LINE
  5
D8C
330
EA2
100
AcDbEntity
  8
241
100
AcDbLine
 10
116.5
 20
1.25
 30
0.0
 11
110.8
 21
1.25
 31
0.0
  0
LINE
  5
D8D
330
EA2
100
AcDbEntity
  8
241
100
AcDbLine
 10
110.4999999999999
 20
5.999999999999943
 30
0.0
 11
110.4999999999999
 21
0.0
 31
0.0
  0
LINE
  5
D92
330
EA2
100
AcDbEntity
  8
241
100
AcDbLine
 10
116.5
 20
1.25
 30
0.0
 11
116.5
 21
0.0
 31
0.0
  0
LINE
  5
D95
330
EA2
100
AcDbEntity
  8
241
100
AcDbLine
 10
116.5
 20
9.217329428042206
 30
0.0
 11
110.8
 21
9.217329428042206
 31
0.0
  0
LINE
  5
D96
330
EA2
100
AcDbEntity
  8
241
100
AcDbLine
 10
116.5
 20
7.967329428042205
 30
0.0
 11
110.8
 21
7.967329428042205
 31
0.0
  0
ARC
  5
D97
330
EA2
100
AcDbEntity
  8
240
100
AcDbCircle
 10
111.3999999999999
 20
9.399999999999977
 30
0.0
 40
0.6000000000000086
100
AcDbArc
 50
90.0
 51
180.0
  0
LINE
  5
D98
330
EA2
100
AcDbEntity
  8
240
100
AcDbLine
 10
110.8
 20
9.399999999999977
 30
0.0
 11
110.8
 21
7.550000000000011
 31
0.0
  0
LINE
  5
D99
330
EA2
100
AcDbEntity
  8
240
100
AcDbLine
 10
110.4999999999999
 20
7.25
 30
0.0
 11
110.8
 21
7.550000000000011
 31
0.0
  0
LINE
  5
D9A
330
EA2
100
AcDbEntity
  8
241
100
AcDbLine
 10
116.5
 20
9.217329428042206
 30
0.0
 11
116.5
 21
7.967329428042205
 31
0.0
  0
LINE
  5
D9B
330
EA2
100
AcDbEntity
  8
241
100
AcDbLine
 10
119.0514718625761
 20
-9.649952696310322
 30
0.0
 11
119.0514718625761
 21
9.602649006622471
 31
0.0
  0
LINE
  5
D9C
330
EA2
100
AcDbEntity
  8
240
100
AcDbLine
 10
120.0
 20
9.092893218813401
 30
0.0
 11
120.0
 21
0.0
 31
0.0
  0
ARC
  5
D9D
330
EA2
100
AcDbEntity
  8
240
100
AcDbCircle
 10
119.5
 20
-9.092893218813458
 30
0.0
 40
0.500000000000004
100
AcDbArc
 50
315.0
 51
0.0
  0
LINE
  5
D9E
330
EA2
100
AcDbEntity
  8
240
100
AcDbLine
 10
119.4757359312879
 20
-9.824264068711955
 30
0.0
 11
119.8535533905932
 21
-9.446446609406735
 31
0.0
  0
ARC
  5
D9F
330
EA2
100
AcDbEntity
  8
240
100
AcDbCircle
 10
119.0514718625761
 20
-9.400000000000034
 30
0.0
 40
0.5999999999999944
100
AcDbArc
 50
270.0
 51
314.9999999999994
  0
LINE
  5
DA0
330
EA2
100
AcDbEntity
  8
240
100
AcDbLine
 10
120.0
 20
-9.092893218813458
 30
0.0
 11
120.0
 21
0.0
 31
0.0
  0
LINE
  5
DA5
330
EA2
100
AcDbEntity
  8
246
100
AcDbLine
 10
118.6999999999999
 20
4.749999999999943
 30
0.0
 11
118.8
 21
4.749999999999943
 31
0.0
  0
LINE
  5
DA7
330
EA2
100
AcDbEntity
  8
240
100
AcDbLine
 10
119.8535533905932
 20
9.446446609406676
 30
0.0
 11
119.4757359312879
 21
9.824264068711898
 31
0.0
  0
ARC
  5
DA8
330
EA2
100
AcDbEntity
  8
240
100
AcDbCircle
 10
119.0514718625761
 20
9.399999999999977
 30
0.0
 40
0.6000000000000089
100
AcDbArc
 50
45.00000000000057
 51
90.0
  0
ARC
  5
DA9
330
EA2
100
AcDbEntity
  8
240
100
AcDbCircle
 10
119.5
 20
9.092893218813401
 30
0.0
 40
0.5
100
AcDbArc
 50
0.0
 51
45.0
  0
DIMENSION
  5
DC7
330
EA2
100
AcDbEntity
  8
250
100
AcDbDimension
280
     0
  2
*D1
 10
120.0
 20
16.76990224158955
 30
0.0
 11
115.4
 21
19.26990224158955
 31
0.0
 70
    32
 71
     5
 42
-1.0
 73
     0
 74
     0
 75
     0
  3
BIGT
100
AcDbAlignedDimension
 13
110.8
 23
9.399999999999977
 33
0.0
 14
120.0
 24
8.974999999999994
 34
0.0
100
AcDbRotatedDimension
1001
ACAD
1000
DSTYLE
1002
{
1070
   179
1070
     3
1070
    79
1070
     2
1070
   371
1070
    -1
1070
   372
1070
    -1
1070
   279
1070
     2
1070
   140
1040
3.0
1070
    78
1070
     8
1002
}
  0
DIMENSION
  5
DD4
330
EA2
100
AcDbEntity
  8
250
100
AcDbDimension
280
     0
  2
*D2
 10
122.3
 20
12.73779781380739
 30
0.0
 11
124.2928571428571
 21
15.23779781380739
 31
0.0
 70
   160
 71
     5
 42
-1.0
 73
     0
 74
     0
 75
     0
  3
BIGT
100
AcDbAlignedDimension
 13
120.0
 23
9.092893218813401
 33
0.0
 14
122.3
 24
9.092893218813401
 34
0.0
100
AcDbRotatedDimension
1001
ACAD
1000
DSTYLE
1002
{
1070
   179
1070
     3
1070
    79
1070
     2
1070
   371
1070
    -1
1070
   372
1070
    -1
1070
   279
1070
     2
1070
   140
1040
3.0
1070
    78
1070
     8
1002
}
  0
LINE
  5
DE3
330
EA2
100
AcDbEntity
  8
240
100
AcDbLine
 10
122.3
 20
5.6
 30
0.0
 11
122.3
 21
-5.6
 31
0.0
  0
LINE
  5
DE6
330
EA2
100
AcDbEntity
  8
240
100
AcDbLine
 10
120.0
 20
7.35
 30
0.0
 11
122.3
 21
5.6
 31
0.0
  0
LINE
  5
DE7
330
EA2
100
AcDbEntity
  8
240
100
AcDbLine
 10
120.0
 20
-7.35
 30
0.0
 11
122.3
 21
-5.6
 31
0.0
  0
DIMENSION
  5
DF5
330
EA2
100
AcDbEntity
  8
250
100
AcDbDimension
280
     0
  2
*D3
 10
139.9027154046178
 20
-7.350000000000001
 30
0.0
 11
143.3038974134624
 21
-0.0000000000000009
 31
0.0
 70
   160
  1
∅14.7
 71
     5
 42
-1.0
 73
     0
 74
     0
 75
     0
  3
BIGT
100
AcDbAlignedDimension
 13
120.0
 23
7.35
 33
0.0
 14
120.0
 24
-7.35
 34
0.0
 50
90.0
100
AcDbRotatedDimension
1001
ACAD
1000
DSTYLE
1002
{
1070
   179
1070
     3
1070
    79
1070
     2
1070
   371
1070
    -1
1070
   372
1070
    -1
1070
   279
1070
     2
1070
   140
1040
3.0
1070
    78
1070
     8
1002
}
  0
DIMENSION
  5
E02
330
EA2
100
AcDbEntity
  8
250
100
AcDbDimension
280
     0
  2
*D4
 10
132.8684526135983
 20
-5.600000000000001
 30
0.0
 11
136.5015333957732
 21
0.0830508333357641
 31
0.0
 70
   160
  1
∅11.2
 71
     5
 42
-1.0
 73
     0
 74
     0
 75
     0
  3
BIGT
100
AcDbAlignedDimension
 13
122.3
 23
5.6
 33
0.0
 14
122.3
 24
-5.6
 34
0.0
 50
90.0
100
AcDbRotatedDimension
1001
ACAD
1000
DSTYLE
1002
{
1070
   179
1070
     3
1070
    79
1070
     2
1070
   371
1070
    -1
1070
   372
1070
    -1
1070
   279
1070
     2
1070
   140
1040
3.0
1070
    78
1070
     8
1002
}
  0
DIMENSION
  5
E0F
330
EA2
100
AcDbEntity
  8
250
100
AcDbDimension
280
     0
  2
*D5
 10
152.5025487555648
 20
-10.00000000000003
 30
0.0
 11
150.0025487555648
 21
-0.000000000000016
 31
0.0
 70
    32
  1
∅20
 71
     5
 42
-1.0
 73
     0
 74
     0
 75
     0
  3
BIGT
100
AcDbAlignedDimension
 13
119.0514718625761
 23
10.0
 33
0.0
 14
119.0514718625761
 24
-10.00000000000003
 34
0.0
 50
90.0
100
AcDbRotatedDimension
1001
ACAD
1000
DSTYLE
1002
{
1070
   179
1070
     3
1070
    79
1070
     2
1070
   371
1070
    -1
1070
   372
1070
    -1
1070
   279
1070
     2
1070
   140
1040
3.0
1070
    78
1070
     8
1002
}
  0
VIEWPORT
  5
22
330
EA0
100
AcDbEntity
 67
     1
  8
0
100
AcDbViewport
 10
261.5176991150442
 20
148.5
 30
0.0
 40
523.0353982300885
 41
297.0
 68
     1
 69
    -1
 12
261.5176991150442
 22
148.5
 13
0.0
 23
0.0
 14
1.0
 24
1.0
 15
10.0
 25
10.0
 16
0.0
 26
0.0
 36
1.0
 17
0.0
 27
0.0
 37
0.0
 42
50.0
 43
0.0
 44
0.0
 45
297.0
 50
0.0
 51
0.0
 72
   100
 90
   557216
  1

281
     0
 71
     0
 74
     0
110
0.0
120
0.0
130
0.0
111
1.0
121
0.0
131
0.0
112
0.0
122
1.0
132
0.0
 79
     0
146
0.0
170
     0
 61
     5
292
     1
282
     1
141
0.0
142
0.0
 63
   256
  0
ENDSEC
  0
SECTION
  2
OBJECTS
  0
DICTIONARY
  5
E92
330
0
100
AcDbDictionary
281
     1
  3
ACAD_GROUP
350
E93
  3
ACAD_IMAGE_VARS
350
F01
  3
ACAD_LAYOUT
350
E9F
  3
ACAD_MATERIAL
350
EA9
  3
ACAD_MLEADERSTYLE
350
F08
  3
ACAD_MLINESTYLE
350
E9C
  3
ACAD_PLOTSETTINGS
350
E9E
  3
ACAD_PLOTSTYLENAME
350
E94
  3
ACAD_SCALELIST
350
ECB
  3
ACAD_TABLESTYLE
350
EFE
  3
ACAD_VISUALSTYLE
350
EED
  3
ACDB_RECOMPOSE_DATA
350
F06
  3
AcDbVariableDictionary
350
F02
  3
APPDATA
350
F00
  0
DICTIONARY
  5
E93
102
{ACAD_REACTORS
330
E92
102
}
330
E92
100
AcDbDictionary
281
     1
  0
RASTERVARIABLES
  5
F01
102
{ACAD_REACTORS
330
E92
102
}
330
E92
100
AcDbRasterVariables
 90
        0
 70
     1
 71
     1
 72
     0
  0
DICTIONARY
  5
E9F
102
{ACAD_REACTORS
330
E92
102
}
330
E92
100
AcDbDictionary
281
     1
  3
Model
350
EA3
  3
Sheet 1
350
EA1
  0
DICTIONARY
  5
EA9
102
{ACAD_REACTORS
330
E92
102
}
330
E92
100
AcDbDictionary
281
     1
  3
ByBlock
350
EAB
  3
ByLayer
350
EAA
  3
Global
350
EAC
  0
DICTIONARY
  5
F08
102
{ACAD_REACTORS
330
E92
102
}
330
E92
100
AcDbDictionary
281
     1
  0
DICTIONARY
  5
E9C
102
{ACAD_REACTORS
330
E92
102
}
330
E92
100
AcDbDictionary
281
     1
  3
Standard
350
E9D
  0
DICTIONARY
  5
E9E
102
{ACAD_REACTORS
330
E92
102
}
330
E92
100
AcDbDictionary
281
     1
  0
ACDBDICTIONARYWDFLT
  5
E94
102
{ACAD_REACTORS
330
E92
102
}
330
E92
100
AcDbDictionary
281
     1
  3
Normal
350
E95
100
AcDbDictionaryWithDefault
340
E95
  0
DICTIONARY
  5
ECB
102
{ACAD_REACTORS
330
E92
102
}
330
E92
100
AcDbDictionary
281
     1
  3
A0
350
ECC
  3
A1
350
ECD
  3
A2
350
ECE
  3
A3
350
ECF
  3
A4
350
ED0
  3
A5
350
ED1
  3
A6
350
ED2
  3
A7
350
ED3
  3
A8
350
ED4
  3
A9
350
ED5
  3
B0
350
ED6
  3
B1
350
ED7
  3
B2
350
ED8
  3
B3
350
ED9
  3
B4
350
EDA
  3
B5
350
EDB
  3
B6
350
EDC
  3
B7
350
EDD
  3
B8
350
EDE
  3
B9
350
EDF
  3
C0
350
EE0
  3
C1
350
EE1
  3
C2
350
EE2
  3
C3
350
EE3
  3
C4
350
EE4
  3
C5
350
EE5
  3
C6
350
EE6
  3
C7
350
EE7
  3
C8
350
EE8
  3
C9
350
EE9
  3
D0
350
EEA
  3
D1
350
EEB
  3
D2
350
EEC
  0
DICTIONARY
  5
EFE
102
{ACAD_REACTORS
330
E92
102
}
330
E92
100
AcDbDictionary
281
     1
  3
Standard
350
EFF
  0
DICTIONARY
  5
EED
102
{ACAD_REACTORS
330
E92
102
}
330
E92
100
AcDbDictionary
281
     1
  3
2dWireframe
350
EF2
  3
3D Hidden
350
EF4
  3
3dWireframe
350
EF3
  3
Basic
350
EF5
  3
Brighten
350
EF9
  3
ColorChange
350
EFD
  3
Conceptual
350
EF7
  3
Dim
350
EF8
  3
Facepattern
350
EFC
  3
Flat
350
EEE
  3
FlatWithEdges
350
EEF
  3
Gouraud
350
EF0
  3
GouraudWithEdges
350
EF1
  3
Linepattern
350
EFB
  3
Realistic
350
EF6
  3
Thicken
350
EFA
  0
XRECORD
  5
F06
102
{ACAD_REACTORS
330
E92
102
}
330
E92
100
AcDbXrecord
280
     1
 90
        1
330
EFF
  0
DICTIONARY
  5
F02
102
{ACAD_REACTORS
330
E92
102
}
330
E92
100
AcDbDictionary
281
     1
  3
CANNOSCALE
350
F03
  3
CTABLESTYLE
350
F07
  0
DICTIONARY
  5
F00
102
{ACAD_REACTORS
330
E92
102
}
330
E92
100
AcDbDictionary
281
     1
  0
LAYOUT
  5
EA3
102
{ACAD_REACTORS
330
E9F
102
}
330
E9F
100
AcDbPlotSettings
  1

  2
none_device
  4

  6

 40
0.0
 41
0.0
 42
0.0
 43
0.0
 44
0.0
 45
0.0
 46
0.0
 47
0.0
 48
0.0
 49
0.0
140
0.0
141
0.0
142
1.0
143
1.0
 70
  1712
 72
     0
 73
     0
 74
     0
  7

 75
     0
 76
     0
 77
     2
 78
   300
147
1.0
148
0.0
149
0.0
100
AcDbLayout
  1
Model
 70
     1
 71
     0
 10
0.0
 20
0.0
 11
12.0
 21
9.0
 12
0.0
 22
0.0
 32
0.0
 14
-76.39858687325318
 24
-43.0
 34
0.0
 15
141.0
 25
68.0
 35
0.0
146
0.0
 13
0.0
 23
0.0
 33
0.0
 16
1.0
 26
0.0
 36
0.0
 17
0.0
 27
1.0
 37
0.0
 76
     0
330
EA2
331
EA5
  0
LAYOUT
  5
EA1
102
{ACAD_REACTORS
330
E9F
102
}
330
E9F
100
AcDbPlotSettings
  1

  2
none_device
  4

  6

 40
0.0
 41
0.0
 42
0.0
 43
0.0
 44
0.0
 45
0.0
 46
0.0
 47
0.0
 48
0.0
 49
0.0
140
0.0
141
0.0
142
1.0
143
1.0
 70
   688
 72
     0
 73
     0
 74
     5
  7

 75
    16
 76
     0
 77
     2
 78
   300
147
1.0
148
0.0
149
0.0
100
AcDbLayout
  1
Sheet 1
 70
     1
 71
     1
 10
0.0
 20
0.0
 11
420.0
 21
297.0
 12
0.0
 22
0.0
 32
0.0
 14
1.000000000000000E+20
 24
1.000000000000000E+20
 34
1.000000000000000E+20
 15
-1.000000000000000E+20
 25
-1.000000000000000E+20
 35
-1.000000000000000E+20
146
0.0
 13
0.0
 23
0.0
 33
0.0
 16
1.0
 26
0.0
 36
0.0
 17
0.0
 27
1.0
 37
0.0
 76
     0
330
EA0
331
22
  0
MATERIAL
  5
EAB
102
{ACAD_REACTORS
330
EA9
102
}
330
EA9
100
AcDbMaterial
  1
ByBlock
 72
     1
 94
      127
  0
MATERIAL
  5
EAA
102
{ACAD_REACTORS
330
EA9
102
}
330
EA9
100
AcDbMaterial
  1
ByLayer
 72
     1
 94
      127
  0
MATERIAL
  5
EAC
102
{ACAD_REACTORS
330
EA9
102
}
330
EA9
100
AcDbMaterial
  1
Global
 72
     1
 94
      127
  0
MLINESTYLE
  5
E9D
102
{ACAD_REACTORS
330
E9C
102
}
330
E9C
100
AcDbMlineStyle
  2
Standard
 70
     0
  3

 62
   256
 51
90.0
 52
90.0
 71
     2
 49
0.5
 62
   256
  6
BYLAYER
 49
-0.5
 62
   256
  6
BYLAYER
  0
ACDBPLACEHOLDER
  5
E95
102
{ACAD_REACTORS
330
E94
102
}
330
E94
  0
SCALE
  5
ECC
102
{ACAD_REACTORS
330
ECB
102
}
330
ECB
100
AcDbScale
 70
     0
300
1:1
140
1.0
141
1.0
290
     1
  0
SCALE
  5
ECD
102
{ACAD_REACTORS
330
ECB
102
}
330
ECB
100
AcDbScale
 70
     0
300
1:2
140
1.0
141
2.0
290
     0
  0
SCALE
  5
ECE
102
{ACAD_REACTORS
330
ECB
102
}
330
ECB
100
AcDbScale
 70
     0
300
1:4
140
1.0
141
4.0
290
     0
  0
SCALE
  5
ECF
102
{ACAD_REACTORS
330
ECB
102
}
330
ECB
100
AcDbScale
 70
     0
300
1:5
140
1.0
141
5.0
290
     0
  0
SCALE
  5
ED0
102
{ACAD_REACTORS
330
ECB
102
}
330
ECB
100
AcDbScale
 70
     0
300
1:8
140
1.0
141
8.0
290
     0
  0
SCALE
  5
ED1
102
{ACAD_REACTORS
330
ECB
102
}
330
ECB
100
AcDbScale
 70
     0
300
1:10
140
1.0
141
10.0
290
     0
  0
SCALE
  5
ED2
102
{ACAD_REACTORS
330
ECB
102
}
330
ECB
100
AcDbScale
 70
     0
300
1:16
140
1.0
141
16.0
290
     0
  0
SCALE
  5
ED3
102
{ACAD_REACTORS
330
ECB
102
}
330
ECB
100
AcDbScale
 70
     0
300
1:20
140
1.0
141
20.0
290
     0
  0
SCALE
  5
ED4
102
{ACAD_REACTORS
330
ECB
102
}
330
ECB
100
AcDbScale
 70
     0
300
1:30
140
1.0
141
30.0
290
     0
  0
SCALE
  5
ED5
102
{ACAD_REACTORS
330
ECB
102
}
330
ECB
100
AcDbScale
 70
     0
300
1:40
140
1.0
141
40.0
290
     0
  0
SCALE
  5
ED6
102
{ACAD_REACTORS
330
ECB
102
}
330
ECB
100
AcDbScale
 70
     0
300
1:50
140
1.0
141
50.0
290
     0
  0
SCALE
  5
ED7
102
{ACAD_REACTORS
330
ECB
102
}
330
ECB
100
AcDbScale
 70
     0
300
1:100
140
1.0
141
100.0
290
     0
  0
SCALE
  5
ED8
102
{ACAD_REACTORS
330
ECB
102
}
330
ECB
100
AcDbScale
 70
     0
300
2:1
140
2.0
141
1.0
290
     0
  0
SCALE
  5
ED9
102
{ACAD_REACTORS
330
ECB
102
}
330
ECB
100
AcDbScale
 70
     0
300
4:1
140
4.0
141
1.0
290
     0
  0
SCALE
  5
EDA
102
{ACAD_REACTORS
330
ECB
102
}
330
ECB
100
AcDbScale
 70
     0
300
8:1
140
8.0
141
1.0
290
     0
  0
SCALE
  5
EDB
102
{ACAD_REACTORS
330
ECB
102
}
330
ECB
100
AcDbScale
 70
     0
300
10:1
140
10.0
141
1.0
290
     0
  0
SCALE
  5
EDC
102
{ACAD_REACTORS
330
ECB
102
}
330
ECB
100
AcDbScale
 70
     0
300
100:1
140
100.0
141
1.0
290
     0
  0
SCALE
  5
EDD
102
{ACAD_REACTORS
330
ECB
102
}
330
ECB
100
AcDbScale
 70
     0
300
1/128" = 1'-0"
140
0.0078125
141
12.0
290
     0
  0
SCALE
  5
EDE
102
{ACAD_REACTORS
330
ECB
102
}
330
ECB
100
AcDbScale
 70
     0
300
1/64" = 1'-0"
140
0.015625
141
12.0
290
     0
  0
SCALE
  5
EDF
102
{ACAD_REACTORS
330
ECB
102
}
330
ECB
100
AcDbScale
 70
     0
300
1/32" = 1'-0"
140
0.03125
141
12.0
290
     0
  0
SCALE
  5
EE0
102
{ACAD_REACTORS
330
ECB
102
}
330
ECB
100
AcDbScale
 70
     0
300
1/16" = 1'-0"
140
0.0625
141
12.0
290
     0
  0
SCALE
  5
EE1
102
{ACAD_REACTORS
330
ECB
102
}
330
ECB
100
AcDbScale
 70
     0
300
3/32" = 1'-0"
140
0.09375
141
12.0
290
     0
  0
SCALE
  5
EE2
102
{ACAD_REACTORS
330
ECB
102
}
330
ECB
100
AcDbScale
 70
     0
300
1/8" = 1'-0"
140
0.125
141
12.0
290
     0
  0
SCALE
  5
EE3
102
{ACAD_REACTORS
330
ECB
102
}
330
ECB
100
AcDbScale
 70
     0
300
3/16" = 1'-0"
140
0.1875
141
12.0
290
     0
  0
SCALE
  5
EE4
102
{ACAD_REACTORS
330
ECB
102
}
330
ECB
100
AcDbScale
 70
     0
300
1/4" = 1'-0"
140
0.25
141
12.0
290
     0
  0
SCALE
  5
EE5
102
{ACAD_REACTORS
330
ECB
102
}
330
ECB
100
AcDbScale
 70
     0
300
3/8" = 1'-0"
140
0.375
141
12.0
290
     0
  0
SCALE
  5
EE6
102
{ACAD_REACTORS
330
ECB
102
}
330
ECB
100
AcDbScale
 70
     0
300
1/2" = 1'-0"
140
0.5
141
12.0
290
     0
  0
SCALE
  5
EE7
102
{ACAD_REACTORS
330
ECB
102
}
330
ECB
100
AcDbScale
 70
     0
300
3/4" = 1'-0"
140
0.75
141
12.0
290
     0
  0
SCALE
  5
EE8
102
{ACAD_REACTORS
330
ECB
102
}
330
ECB
100
AcDbScale
 70
     0
300
1" = 1'-0"
140
1.0
141
12.0
290
     0
  0
SCALE
  5
EE9
102
{ACAD_REACTORS
330
ECB
102
}
330
ECB
100
AcDbScale
 70
     0
300
1-1/2" = 1'-0"
140
1.5
141
12.0
290
     0
  0
SCALE
  5
EEA
102
{ACAD_REACTORS
330
ECB
102
}
330
ECB
100
AcDbScale
 70
     0
300
3" = 1'-0"
140
3.0
141
12.0
290
     0
  0
SCALE
  5
EEB
102
{ACAD_REACTORS
330
ECB
102
}
330
ECB
100
AcDbScale
 70
     0
300
6" = 1'-0"
140
6.0
141
12.0
290
     0
  0
SCALE
  5
EEC
102
{ACAD_REACTORS
330
ECB
102
}
330
ECB
100
AcDbScale
 70
     0
300
1'-0" = 1'-0"
140
12.0
141
12.0
290
     0
  0
TABLESTYLE
  5
EFF
102
{ACAD_REACTORS
330
EFE
102
}
102
{ACAD_XDICTIONARY
360
F04
102
}
330
EFE
100
AcDbTableStyle
  3
Standard
 70
     0
 71
     0
 40
0.06
 41
0.06
280
     0
281
     0
  7
STANDARD
140
0.18
170
     2
 62
     0
 63
   257
283
     0
 90
        4
 91
        0
  1

274
    -2
284
     1
 64
     0
275
    -2
285
     1
 65
     0
276
    -2
286
     1
 66
     0
277
    -2
287
     1
 67
     0
278
    -2
288
     1
 68
     0
279
    -2
289
     1
 69
     0
  7
STANDARD
140
0.25
170
     5
 62
     0
 63
   257
283
     0
 90
        4
 91
        0
  1

274
    -2
284
     1
 64
     0
275
    -2
285
     1
 65
     0
276
    -2
286
     1
 66
     0
277
    -2
287
     1
 67
     0
278
    -2
288
     1
 68
     0
279
    -2
289
     1
 69
     0
  7
STANDARD
140
0.18
170
     5
 62
     0
 63
   257
283
     0
 90
        4
 91
        0
  1

274
    -2
284
     1
 64
     0
275
    -2
285
     1
 65
     0
276
    -2
286
     1
 66
     0
277
    -2
287
     1
 67
     0
278
    -2
288
     1
 68
     0
279
    -2
289
     1
 69
     0
  0
VISUALSTYLE
  5
EF2
102
{ACAD_REACTORS
330
EED
102
}
330
EED
100
AcDbVisualStyle
  2
2dWireframe
 70
     4
177
     2
291
     0
 71
     0
176
     1
 72
     2
176
     1
 73
     0
176
     1
 90
        0
176
     1
 40
-0.6
176
     1
 41
-30.0
176
     1
 62
     5
 63
     7
421
 16777215
176
     1
 74
     1
176
     1
 91
        4
176
     1
 64
     7
176
     1
 65
   257
176
     1
 75
     1
176
     1
175
     1
176
     1
 42
1.0
176
     1
 92
        0
176
     1
 66
   257
176
     1
 43
1.0
176
     1
 76
     1
176
     1
 77
     6
176
     1
 78
     2
176
     1
 67
     7
176
     1
 79
     5
176
     1
170
     0
176
     1
171
     0
176
     1
290
     0
176
     1
 93
        1
176
     1
 44
0.0
176
     1
173
     0
176
     1
  0
VISUALSTYLE
  5
EF4
102
{ACAD_REACTORS
330
EED
102
}
330
EED
100
AcDbVisualStyle
  2
3D Hidden
 70
     6
177
     2
291
     0
 71
     1
176
     1
 72
     2
176
     1
 73
     2
176
     1
 90
        0
176
     1
 40
-0.6
176
     1
 41
-30.0
176
     1
 62
     5
 63
     7
421
 16777215
176
     1
 74
     2
176
     1
 91
        2
176
     1
 64
     7
176
     1
 65
   257
176
     1
 75
     2
176
     1
175
     1
176
     1
 42
40.0
176
     1
 92
        0
176
     1
 66
   257
176
     1
 43
1.0
176
     1
 76
     1
176
     1
 77
     6
176
     1
 78
     2
176
     1
 67
     7
176
     1
 79
     3
176
     1
170
     0
176
     1
171
     0
176
     1
290
     0
176
     1
 93
        1
176
     1
 44
0.0
176
     1
173
     0
176
     1
  0
VISUALSTYLE
  5
EF3
102
{ACAD_REACTORS
330
EED
102
}
330
EED
100
AcDbVisualStyle
  2
3dWireframe
 70
     5
177
     2
291
     0
 71
     0
176
     1
 72
     2
176
     1
 73
     0
176
     1
 90
        0
176
     1
 40
-0.6
176
     1
 41
-30.0
176
     1
 62
     5
 63
     7
421
 16777215
176
     1
 74
     1
176
     1
 91
        4
176
     1
 64
     7
176
     1
 65
   257
176
     1
 75
     1
176
     1
175
     1
176
     1
 42
1.0
176
     1
 92
        0
176
     1
 66
   257
176
     1
 43
1.0
176
     1
 76
     1
176
     1
 77
     6
176
     1
 78
     2
176
     1
 67
     7
176
     1
 79
     5
176
     1
170
     0
176
     1
171
     0
176
     1
290
     0
176
     1
 93
        1
176
     1
 44
0.0
176
     1
173
     0
176
     1
  0
VISUALSTYLE
  5
EF5
102
{ACAD_REACTORS
330
EED
102
}
330
EED
100
AcDbVisualStyle
  2
Basic
 70
     7
177
     2
291
     1
 71
     1
176
     1
 72
     0
176
     1
 73
     1
176
     1
 90
        0
176
     1
 40
-0.6
176
     1
 41
-30.0
176
     1
 62
     5
 63
     7
421
 16777215
176
     1
 74
     0
176
     1
 91
        4
176
     1
 64
     7
176
     1
 65
   257
176
     1
 75
     1
176
     1
175
     1
176
     1
 42
1.0
176
     1
 92
        8
176
     1
 66
     7
176
     1
 43
1.0
176
     1
 76
     1
176
     1
 77
     6
176
     1
 78
     2
176
     1
 67
     7
176
     1
 79
     5
176
     1
170
     0
176
     1
171
     0
176
     1
290
     0
176
     1
 93
        1
176
     1
 44
0.0
176
     1
173
     0
176
     1
  0
VISUALSTYLE
  5
EF9
102
{ACAD_REACTORS
330
EED
102
}
330
EED
100
AcDbVisualStyle
  2
Brighten
 70
    12
177
     2
291
     1
 71
     2
176
     1
 72
     2
176
     1
 73
     0
176
     1
 90
        0
176
     1
 40
-0.6
176
     1
 41
-30.0
176
     1
 62
     5
 63
     7
421
 16777215
176
     1
 74
     1
176
     1
 91
        4
176
     1
 64
     7
176
     1
 65
   257
176
     1
 75
     1
176
     1
175
     1
176
     1
 42
1.0
176
     1
 92
        8
176
     1
 66
     7
176
     1
 43
1.0
176
     1
 76
     1
176
     1
 77
     6
176
     1
 78
     2
176
     1
 67
     7
176
     1
 79
     5
176
     1
170
     0
176
     1
171
     0
176
     1
290
     0
176
     1
 93
        1
176
     1
 44
50.0
176
     1
173
     0
176
     1
  0
VISUALSTYLE
  5
EFD
102
{ACAD_REACTORS
330
EED
102
}
330
EED
100
AcDbVisualStyle
  2
ColorChange
 70
    16
177
     2
291
     1
 71
     2
176
     1
 72
     2
176
     1
 73
     3
176
     1
 90
        0
176
     1
 40
-0.6
176
     1
 41
-30.0
176
     1
 62
     5
 63
     8
421
  8421504
176
     1
 74
     1
176
     1
 91
        4
176
     1
 64
     7
176
     1
 65
   257
176
     1
 75
     1
176
     1
175
     1
176
     1
 42
1.0
176
     1
 92
        8
176
     1
 66
     8
424
  8421504
176
     1
 43
1.0
176
     1
 76
     1
176
     1
 77
     6
176
     1
 78
     2
176
     1
 67
     7
176
     1
 79
     5
176
     1
170
     0
176
     1
171
     0
176
     1
290
     0
176
     1
 93
        1
176
     1
 44
0.0
176
     1
173
     0
176
     1
  0
VISUALSTYLE
  5
EF7
102
{ACAD_REACTORS
330
EED
102
}
330
EED
100
AcDbVisualStyle
  2
Conceptual
 70
     9
177
     2
291
     0
 71
     3
176
     1
 72
     2
176
     1
 73
     0
176
     1
 90
        0
176
     1
 40
-0.6
176
     1
 41
-30.0
176
     1
 62
     5
 63
     7
421
 16777215
176
     1
 74
     2
176
     1
 91
        2
176
     1
 64
     7
176
     1
 65
   257
176
     1
 75
     1
176
     1
175
     1
176
     1
 42
40.0
176
     1
 92
        8
176
     1
 66
     7
176
     1
 43
1.0
176
     1
 76
     1
176
     1
 77
     6
176
     1
 78
     2
176
     1
 67
     7
176
     1
 79
     3
176
     1
170
     0
176
     1
171
     0
176
     1
290
     0
176
     1
 93
        1
176
     1
 44
0.0
176
     1
173
     0
176
     1
  0
VISUALSTYLE
  5
EF8
102
{ACAD_REACTORS
330
EED
102
}
330
EED
100
AcDbVisualStyle
  2
Dim
 70
    11
177
     2
291
     1
 71
     2
176
     1
 72
     2
176
     1
 73
     0
176
     1
 90
        0
176
     1
 40
-0.6
176
     1
 41
-30.0
176
     1
 62
     5
 63
     7
421
 16777215
176
     1
 74
     1
176
     1
 91
        4
176
     1
 64
     7
176
     1
 65
   257
176
     1
 75
     1
176
     1
175
     1
176
     1
 42
1.0
176
     1
 92
        8
176
     1
 66
     7
176
     1
 43
1.0
176
     1
 76
     1
176
     1
 77
     6
176
     1
 78
     2
176
     1
 67
     7
176
     1
 79
     5
176
     1
170
     0
176
     1
171
     0
176
     1
290
     0
176
     1
 93
        1
176
     1
 44
-50.0
176
     1
173
     0
176
     1
  0
VISUALSTYLE
  5
EFC
102
{ACAD_REACTORS
330
EED
102
}
330
EED
100
AcDbVisualStyle
  2
Facepattern
 70
    15
177
     2
291
     1
 71
     2
176
     1
 72
     2
176
     1
 73
     0
176
     1
 90
        0
176
     1
 40
-0.6
176
     1
 41
-30.0
176
     1
 62
     5
 63
     7
421
 16777215
176
     1
 74
     1
176
     1
 91
        4
176
     1
 64
     7
176
     1
 65
   257
176
     1
 75
     1
176
     1
175
     1
176
     1
 42
1.0
176
     1
 92
        8
176
     1
 66
     7
176
     1
 43
1.0
176
     1
 76
     1
176
     1
 77
     6
176
     1
 78
     2
176
     1
 67
     7
176
     1
 79
     5
176
     1
170
     0
176
     1
171
     0
176
     1
290
     0
176
     1
 93
        1
176
     1
 44
0.0
176
     1
173
     0
176
     1
  0
VISUALSTYLE
  5
EEE
102
{ACAD_REACTORS
330
EED
102
}
330
EED
100
AcDbVisualStyle
  2
Flat
 70
     0
177
     2
291
     1
 71
     2
176
     1
 72
     1
176
     1
 73
     1
176
     1
 90
        2
176
     1
 40
-0.6
176
     1
 41
30.0
176
     1
 62
     5
 63
     7
421
 16777215
176
     1
 74
     0
176
     1
 91
        4
176
     1
 64
     7
176
     1
 65
   257
176
     1
 75
     1
176
     1
175
     1
176
     1
 42
1.0
176
     1
 92
        8
176
     1
 66
     7
176
     1
 43
1.0
176
     1
 76
     1
176
     1
 77
     6
176
     1
 78
     2
176
     1
 67
     7
176
     1
 79
     5
176
     1
170
     0
176
     1
171
     0
176
     1
290
     0
176
     1
 93
       13
176
     1
 44
0.0
176
     1
173
     0
176
     1
  0
VISUALSTYLE
  5
EEF
102
{ACAD_REACTORS
330
EED
102
}
330
EED
100
AcDbVisualStyle
  2
FlatWithEdges
 70
     1
177
     2
291
     1
 71
     2
176
     1
 72
     1
176
     1
 73
     1
176
     1
 90
        2
176
     1
 40
-0.6
176
     1
 41
30.0
176
     1
 62
     5
 63
     7
421
 16777215
176
     1
 74
     1
176
     1
 91
        4
176
     1
 64
     7
176
     1
 65
   257
176
     1
 75
     1
176
     1
175
     1
176
     1
 42
1.0
176
     1
 92
        0
176
     1
 66
   257
176
     1
 43
1.0
176
     1
 76
     1
176
     1
 77
     6
176
     1
 78
     2
176
     1
 67
     7
176
     1
 79
     5
176
     1
170
     0
176
     1
171
     0
176
     1
290
     0
176
     1
 93
       13
176
     1
 44
0.0
176
     1
173
     0
176
     1
  0
VISUALSTYLE
  5
EF0
102
{ACAD_REACTORS
330
EED
102
}
330
EED
100
AcDbVisualStyle
  2
Gouraud
 70
     2
177
     2
291
     1
 71
     2
176
     1
 72
     2
176
     1
 73
     1
176
     1
 90
        2
176
     1
 40
-0.6
176
     1
 41
30.0
176
     1
 62
     5
 63
     7
421
 16777215
176
     1
 74
     0
176
     1
 91
        4
176
     1
 64
     7
176
     1
 65
   257
176
     1
 75
     1
176
     1
175
     1
176
     1
 42
1.0
176
     1
 92
        0
176
     1
 66
     7
176
     1
 43
1.0
176
     1
 76
     1
176
     1
 77
     6
176
     1
 78
     2
176
     1
 67
     7
176
     1
 79
     5
176
     1
170
     0
176
     1
171
     0
176
     1
290
     0
176
     1
 93
       13
176
     1
 44
0.0
176
     1
173
     0
176
     1
  0
VISUALSTYLE
  5
EF1
102
{ACAD_REACTORS
330
EED
102
}
330
EED
100
AcDbVisualStyle
  2
GouraudWithEdges
 70
     3
177
     2
291
     1
 71
     2
176
     1
 72
     2
176
     1
 73
     1
176
     1
 90
        2
176
     1
 40
-0.6
176
     1
 41
30.0
176
     1
 62
     5
 63
     7
421
 16777215
176
     1
 74
     1
176
     1
 91
        4
176
     1
 64
     7
176
     1
 65
   257
176
     1
 75
     1
176
     1
175
     1
176
     1
 42
1.0
176
     1
 92
        0
176
     1
 66
   257
176
     1
 43
1.0
176
     1
 76
     1
176
     1
 77
     6
176
     1
 78
     2
176
     1
 67
     7
176
     1
 79
     5
176
     1
170
     0
176
     1
171
     0
176
     1
290
     0
176
     1
 93
       13
176
     1
 44
0.0
176
     1
173
     0
176
     1
  0
VISUALSTYLE
  5
EFB
102
{ACAD_REACTORS
330
EED
102
}
330
EED
100
AcDbVisualStyle
  2
Linepattern
 70
    14
177
     2
291
     1
 71
     2
176
     1
 72
     2
176
     1
 73
     0
176
     1
 90
        0
176
     1
 40
-0.6
176
     1
 41
-30.0
176
     1
 62
     5
 63
     7
421
 16777215
176
     1
 74
     1
176
     1
 91
        4
176
     1
 64
     7
176
     1
 65
   257
176
     1
 75
     7
176
     1
175
     7
176
     1
 42
1.0
176
     1
 92
        8
176
     1
 66
     7
176
     1
 43
1.0
176
     1
 76
     1
176
     1
 77
     6
176
     1
 78
     2
176
     1
 67
     7
176
     1
 79
     5
176
     1
170
     0
176
     1
171
     0
176
     1
290
     0
176
     1
 93
        1
176
     1
 44
0.0
176
     1
173
     0
176
     1
  0
VISUALSTYLE
  5
EF6
102
{ACAD_REACTORS
330
EED
102
}
330
EED
100
AcDbVisualStyle
  2
Realistic
 70
     8
177
     2
291
     0
 71
     2
176
     1
 72
     2
176
     1
 73
     0
176
     1
 90
        0
176
     1
 40
-0.6
176
     1
 41
-30.0
176
     1
 62
     5
 63
     7
421
 16777215
176
     1
 74
     1
176
     1
 91
        0
176
     1
 64
     7
176
     1
 65
   257
176
     1
 75
     1
176
     1
175
     1
176
     1
 42
1.0
176
     1
 92
        8
176
     1
 66
     8
424
  7895160
176
     1
 43
1.0
176
     1
 76
     1
176
     1
 77
     6
176
     1
 78
     2
176
     1
 67
     7
176
     1
 79
     5
176
     1
170
     0
176
     1
171
     0
176
     1
290
     0
176
     1
 93
       13
176
     1
 44
0.0
176
     1
173
     0
176
     1
  0
VISUALSTYLE
  5
EFA
102
{ACAD_REACTORS
330
EED
102
}
330
EED
100
AcDbVisualStyle
  2
Thicken
 70
    13
177
     2
291
     1
 71
     2
176
     1
 72
     2
176
     1
 73
     0
176
     1
 90
        0
176
     1
 40
-0.6
176
     1
 41
-30.0
176
     1
 62
     5
 63
     7
421
 16777215
176
     1
 74
     1
176
     1
 91
        4
176
     1
 64
     7
176
     1
 65
   257
176
     1
 75
     1
176
     1
175
     1
176
     1
 42
1.0
176
     1
 92
       12
176
     1
 66
     7
176
     1
 43
1.0
176
     1
 76
     1
176
     1
 77
     6
176
     1
 78
     2
176
     1
 67
     7
176
     1
 79
     5
176
     1
170
     0
176
     1
171
     0
176
     1
290
     0
176
     1
 93
        1
176
     1
 44
0.0
176
     1
173
     0
176
     1
  0
DICTIONARYVAR
  5
F03
102
{ACAD_REACTORS
330
F02
102
}
330
F02
100
DictionaryVariables
280
     0
  1
1:1
  0
DICTIONARYVAR
  5
F07
102
{ACAD_REACTORS
330
F02
102
}
330
F02
100
DictionaryVariables
280
     0
  1
Standard
  0
DICTIONARY
  5
F04
330
EFF
100
AcDbDictionary
280
     1
281
     1
  3
ACAD_ROUNDTRIP_2008_TABLESTYLE_CELLSTYLEMAP
360
F05
  0
CELLSTYLEMAP
  5
F05
102
{ACAD_REACTORS
330
F04
102
}
330
F04
100
AcDbCellStyleMap
 90
        3
300
CELLSTYLE
  1
TABLEFORMAT_BEGIN
 90
        5
170
     1
 91
        0
 92
        0
 62
   257
 93
        1
300
CONTENTFORMAT
  1
CONTENTFORMAT_BEGIN
 90
        0
 91
        0
 92
        4
 93
        0
300

 40
0.0
140
1.0
 94
        5
 62
     0
340
E97
144
0.25
309
CONTENTFORMAT_END
171
     1
301
MARGIN
  1
CELLMARGIN_BEGIN
 40
0.06
 40
0.06
 40
0.06
 40
0.06
 40
0.06
 40
0.06
309
CELLMARGIN_END
 94
        6
 95
        1
302
GRIDFORMAT
  1
GRIDFORMAT_BEGIN
 90
        0
 91
        1
 62
     0
 92
       -2
340
E99
 93
        0
 40
0.045
309
GRIDFORMAT_END
 95
        2
302
GRIDFORMAT
  1
GRIDFORMAT_BEGIN
 90
        0
 91
        1
 62
     0
 92
       -2
340
E99
 93
        0
 40
0.045
309
GRIDFORMAT_END
 95
        4
302
GRIDFORMAT
  1
GRIDFORMAT_BEGIN
 90
        0
 91
        1
 62
     0
 92
       -2
340
E99
 93
        0
 40
0.045
309
GRIDFORMAT_END
 95
        8
302
GRIDFORMAT
  1
GRIDFORMAT_BEGIN
 90
        0
 91
        1
 62
     0
 92
       -2
340
E99
 93
        0
 40
0.045
309
GRIDFORMAT_END
 95
       16
302
GRIDFORMAT
  1
GRIDFORMAT_BEGIN
 90
        0
 91
        1
 62
     0
 92
       -2
340
E99
 93
        0
 40
0.045
309
GRIDFORMAT_END
 95
       32
302
GRIDFORMAT
  1
GRIDFORMAT_BEGIN
 90
        0
 91
        1
 62
     0
 92
       -2
340
E99
 93
        0
 40
0.045
309
GRIDFORMAT_END
309
TABLEFORMAT_END
  1
CELLSTYLE_BEGIN
 90
        1
 91
        1
300
_TITLE
309
CELLSTYLE_END
300
CELLSTYLE
  1
TABLEFORMAT_BEGIN
 90
        5
170
     1
 91
        0
 92
        0
 62
   257
 93
        1
300
CONTENTFORMAT
  1
CONTENTFORMAT_BEGIN
 90
        0
 91
        0
 92
        4
 93
        0
300

 40
0.0
140
1.0
 94
        5
 62
     0
340
E97
144
0.18
309
CONTENTFORMAT_END
171
     1
301
MARGIN
  1
CELLMARGIN_BEGIN
 40
0.06
 40
0.06
 40
0.06
 40
0.06
 40
0.06
 40
0.06
309
CELLMARGIN_END
 94
        6
 95
        1
302
GRIDFORMAT
  1
GRIDFORMAT_BEGIN
 90
        0
 91
        1
 62
     0
 92
       -2
340
E99
 93
        0
 40
0.045
309
GRIDFORMAT_END
 95
        2
302
GRIDFORMAT
  1
GRIDFORMAT_BEGIN
 90
        0
 91
        1
 62
     0
 92
       -2
340
E99
 93
        0
 40
0.045
309
GRIDFORMAT_END
 95
        4
302
GRIDFORMAT
  1
GRIDFORMAT_BEGIN
 90
        0
 91
        1
 62
     0
 92
       -2
340
E99
 93
        0
 40
0.045
309
GRIDFORMAT_END
 95
        8
302
GRIDFORMAT
  1
GRIDFORMAT_BEGIN
 90
        0
 91
        1
 62
     0
 92
       -2
340
E99
 93
        0
 40
0.045
309
GRIDFORMAT_END
 95
       16
302
GRIDFORMAT
  1
GRIDFORMAT_BEGIN
 90
        0
 91
        1
 62
     0
 92
       -2
340
E99
 93
        0
 40
0.045
309
GRIDFORMAT_END
 95
       32
302
GRIDFORMAT
  1
GRIDFORMAT_BEGIN
 90
        0
 91
        1
 62
     0
 92
       -2
340
E99
 93
        0
 40
0.045
309
GRIDFORMAT_END
309
TABLEFORMAT_END
  1
CELLSTYLE_BEGIN
 90
        2
 91
        1
300
_HEADER
309
CELLSTYLE_END
300
CELLSTYLE
  1
TABLEFORMAT_BEGIN
 90
        5
170
     1
 91
        0
 92
        0
 62
   257
 93
        1
300
CONTENTFORMAT
  1
CONTENTFORMAT_BEGIN
 90
        0
 91
        0
 92
        4
 93
        0
300

 40
0.0
140
1.0
 94
        2
 62
     0
340
E97
144
0.18
309
CONTENTFORMAT_END
171
     1
301
MARGIN
  1
CELLMARGIN_BEGIN
 40
0.06
 40
0.06
 40
0.06
 40
0.06
 40
0.06
 40
0.06
309
CELLMARGIN_END
 94
        6
 95
        1
302
GRIDFORMAT
  1
GRIDFORMAT_BEGIN
 90
        0
 91
        1
 62
     0
 92
       -2
340
E99
 93
        0
 40
0.045
309
GRIDFORMAT_END
 95
        2
302
GRIDFORMAT
  1
GRIDFORMAT_BEGIN
 90
        0
 91
        1
 62
     0
 92
       -2
340
E99
 93
        0
 40
0.045
309
GRIDFORMAT_END
 95
        4
302
GRIDFORMAT
  1
GRIDFORMAT_BEGIN
 90
        0
 91
        1
 62
     0
 92
       -2
340
E99
 93
        0
 40
0.045
309
GRIDFORMAT_END
 95
        8
302
GRIDFORMAT
  1
GRIDFORMAT_BEGIN
 90
        0
 91
        1
 62
     0
 92
       -2
340
E99
 93
        0
 40
0.045
309
GRIDFORMAT_END
 95
       16
302
GRIDFORMAT
  1
GRIDFORMAT_BEGIN
 90
        0
 91
        1
 62
     0
 92
       -2
340
E99
 93
        0
 40
0.045
309
GRIDFORMAT_END
 95
       32
302
GRIDFORMAT
  1
GRIDFORMAT_BEGIN
 90
        0
 91
        1
 62
     0
 92
       -2
340
E99
 93
        0
 40
0.045
309
GRIDFORMAT_END
309
TABLEFORMAT_END
  1
CELLSTYLE_BEGIN
 90
        3
 91
        2
300
_DATA
309
CELLSTYLE_END
  0
ENDSEC
  0
EOF
