  0
SECTION
  2
HEADER
  9
$ACADVER
  1
AC1009
  9
$DWGCODEPAGE
  3
ansi_932
  9
$INSBASE
 10
0.0
 20
0.0
 30
0.0
  9
$EXTMIN
 10
-76.39913413765657
 20
-43.01644821300579
 30
-0.0000000349181948
  9
$EXTMAX
 10
127.0151625797847
 20
68.01460334052672
 30
0.0000000814935746
  9
$LIMMIN
 10
0.0
 20
0.0
  9
$LIMMAX
 10
297.0
 20
210.0
  9
$ORTHOMODE
 70
     0
  9
$REGENMODE
 70
     1
  9
$FILLMODE
 70
     1
  9
$QTEXTMODE
 70
     0
  9
$MIRRTEXT
 70
     1
  9
$DRAGMODE
 70
     2
  9
$LTSCALE
 40
10.0
  9
$OSMODE
 70
   511
  9
$ATTMODE
 70
     1
  9
$TEXTSIZE
 40
3.0
  9
$TRACEWID
 40
1.0
  9
$TEXTSTYLE
  7
YOKO
  9
$CLAYER
  8
240
  9
$CELTYPE
  6
BYLAYER
  9
$CECOLOR
 62
   256
  9
$DIMSCALE
 40
1.0
  9
$DIMASZ
 40
2.229999999999999
  9
$DIMEXO
 40
0.5
  9
$DIMDLI
 40
2.5
  9
$DIMRND
 40
0.0
  9
$DIMDLE
 40
0.0
  9
$DIMEXE
 40
1.0
  9
$DIMTP
 40
0.0
  9
$DIMTM
 40
0.0
  9
$DIMTXT
 40
3.0
  9
$DIMCEN
 40
0.0
  9
$DIMTSZ
 40
0.0
  9
$DIMTOL
 70
     0
  9
$DIMLIM
 70
     0
  9
$DIMTIH
 70
     0
  9
$DIMTOH
 70
     0
  9
$DIMSE1
 70
     0
  9
$DIMSE2
 70
     0
  9
$DIMTAD
 70
     3
  9
$DIMZIN
 70
     8
  9
$DIMBLK
  1
OPEN
  9
$DIMASO
 70
     1
  9
$DIMSHO
 70
     1
  9
$DIMPOST
  1

  9
$DIMAPOST
  1

  9
$DIMALT
 70
     0
  9
$DIMALTD
 70
     2
  9
$DIMALTF
 40
25.4
  9
$DIMLFAC
 40
1.0
  9
$DIMTOFL
 70
     1
  9
$DIMTVP
 40
0.0
  9
$DIMTIX
 70
     0
  9
$DIMSOXD
 70
     0
  9
$DIMSAH
 70
     0
  9
$DIMBLK1
  1

  9
$DIMBLK2
  1

  9
$DIMSTYLE
  2
BIGT
  9
$DIMCLRD
 70
   256
  9
$DIMCLRE
 70
   256
  9
$DIMCLRT
 70
    40
  9
$DIMTFAC
 40
1.0
  9
$DIMGAP
 40
1.0
  9
$LUNITS
 70
     2
  9
$LUPREC
 70
     3
  9
$SKETCHINC
 40
1.0
  9
$FILLETRAD
 40
6.0
  9
$AUNITS
 70
     0
  9
$AUPREC
 70
     3
  9
$MENU
  1
.
  9
$ELEVATION
 40
0.0
  9
$PELEVATION
 40
0.0
  9
$THICKNESS
 40
0.0
  9
$LIMCHECK
 70
     0
  9
$CHAMFERA
 40
10.0
  9
$CHAMFERB
 40
10.0
  9
$SKPOLY
 70
     0
  9
$TDCREATE
 40
2452173.6506664
  9
$TDUPDATE
 40
2452408.963136921
  9
$TDINDWG
 40
0.0669558218
  9
$TDUSRTIMER
 40
2455749.672586227
  9
$USRTIMER
 70
     1
  9
$ANGBASE
 50
0.0
  9
$ANGDIR
 70
     0
  9
$PDMODE
 70
    35
  9
$PDSIZE
 40
-5.0
  9
$PLINEWID
 40
0.0
  9
$COORDS
 70
     1
  9
$SPLFRAME
 70
     0
  9
$SPLINETYPE
 70
     6
  9
$SPLINESEGS
 70
     8
  9
$ATTDIA
 70
     0
  9
$ATTREQ
 70
     1
  9
$HANDLING
 70
     1
  9
$HANDSEED
  5
1011
  9
$SURFTAB1
 70
     6
  9
$SURFTAB2
 70
     6
  9
$SURFTYPE
 70
     6
  9
$SURFU
 70
     6
  9
$SURFV
 70
     6
  9
$UCSNAME
  2

  9
$UCSORG
 10
0.0
 20
0.0
 30
0.0
  9
$UCSXDIR
 10
1.0
 20
0.0
 30
0.0
  9
$UCSYDIR
 10
0.0
 20
1.0
 30
0.0
  9
$PUCSNAME
  2

  9
$PUCSORG
 10
0.0
 20
0.0
 30
0.0
  9
$PUCSXDIR
 10
1.0
 20
0.0
 30
0.0
  9
$PUCSYDIR
 10
0.0
 20
1.0
 30
0.0
  9
$USERI1
 70
     1
  9
$USERI2
 70
     0
  9
$USERI3
 70
     0
  9
$USERI4
 70
     0
  9
$USERI5
 70
     0
  9
$USERR1
 40
0.0
  9
$USERR2
 40
0.0
  9
$USERR3
 40
0.0
  9
$USERR4
 40
0.0
  9
$USERR5
 40
0.0
  9
$WORLDVIEW
 70
     1
  9
$SHADEDGE
 70
     3
  9
$SHADEDIF
 70
    70
  9
$TILEMODE
 70
     1
  9
$MAXACTVP
 70
    16
  9
$PLIMCHECK
 70
     0
  9
$PEXTMIN
 10
1.000000000000000E+20
 20
1.000000000000000E+20
 30
1.000000000000000E+20
  9
$PEXTMAX
 10
-1.000000000000000E+20
 20
-1.000000000000000E+20
 30
-1.000000000000000E+20
  9
$PLIMMIN
 10
0.0
 20
0.0
  9
$PLIMMAX
 10
420.0
 20
297.0
  9
$UNITMODE
 70
     0
  9
$VISRETAIN
 70
     0
  9
$PLINEGEN
 70
     0
  9
$PSLTSCALE
 70
     1
  0
ENDSEC
  0
SECTION
  2
TABLES
  0
TABLE
  2
VPORT
 70
     1
  0
VPORT
  2
*ACTIVE
 70
     0
 10
0.0
 20
0.0
 11
1.0
 21
1.0
 12
121.145445612325
 22
9.863693371029168
 13
0.0
 23
0.0
 14
7.0
 24
7.0
 15
7.0
 25
7.0
 16
0.0
 26
0.0
 36
1.0
 17
0.0
 27
0.0
 37
0.0
 40
79.60921948266567
 41
1.5
 42
50.0
 43
0.0
 44
0.0
 50
0.0
 51
0.0
 71
    16
 72
  2000
 73
     1
 74
     0
 75
     0
 76
     0
 77
     0
 78
     0
  0
ENDTAB
  0
TABLE
  2
LTYPE
 70
     4
  0
LTYPE
  2
CONTINUOUS
 70
     0
  3
Solid line
 72
    65
 73
     0
 40
0.0
  0
LTYPE
  2
PHANTOM2
 70
     0
  3
___ _ _ ___ _ _ ___ _ _ ___ _ _ ___ _ _ ___ _ _
 72
    65
 73
     6
 40
1.25
 49
0.625
 49
-0.125
 49
0.125
 49
-0.125
 49
0.125
 49
-0.125
  0
ENDTAB
  0
TABLE
  2
LAYER
 70
    10
  0
LAYER
  2
0
 70
     0
 62
     7
  6
CONTINUOUS
  0
LAYER
  2
240
 70
     0
 62
     4
  6
CONTINUOUS
  0
LAYER
  2
241
 70
     0
 62
   211
  6
CONTINUOUS
  0
LAYER
  2
246
 70
     0
 62
     3
  6
PHANTOM2
  0
LAYER
  2
250
 70
     0
 62
     3
  6
CONTINUOUS
  0
LAYER
  2
DEFPOINTS
 70
     0
 62
     7
  6
CONTINUOUS
  0
ENDTAB
  0
TABLE
  2
STYLE
 70
     2
  0
STYLE
  2
STANDARD
 70
     0
 40
0.0
 41
1.0
 50
0.0
 71
     0
 42
3.0
  3
romans.shx
  4
BIGFONT.SHX
  0
STYLE
  2
YOKO
 70
     0
 40
0.0
 41
1.0
 50
0.0
 71
     0
 42
3.0
  3
romans.shx
  4
extfont.shx
  0
ENDTAB
  0
TABLE
  2
VIEW
 70
     0
  0
ENDTAB
  0
TABLE
  2
UCS
 70
     0
  0
ENDTAB
  0
TABLE
  2
APPID
 70
    11
  0
APPID
  2
ACAD
 70
     0
  0
APPID
  2
GLOBAL
 70
     0
  0
APPID
  2
DETAIL
 70
     0
  0
APPID
  2
GRPNAME
 70
     0
  0
APPID
  2
GPARA
 70
     0
  0
APPID
  2
ITEMNAME
 70
     0
  0
APPID
  2
HATCH_TYPE
 70
     0
  0
APPID
  2
HATCH_DISPLAY
 70
     0
  0
APPID
  2
HATCH_DISTANCE
 70
     0
  0
APPID
  2
INSERT_PATH
 70
     0
  0
APPID
  2
INSERT_NAME
 70
     0
  0
ENDTAB
  0
TABLE
  2
DIMSTYLE
 70
     2
  0
DIMSTYLE
  2
STANDARD
 70
     0
  3

  4

  5

  6

  7

 40
1.0
 41
2.0
 42
2.0
 43
3.75
 44
2.0
 45
0.0
 46
0.0
 47
0.0
 48
0.0
140
4.0
141
0.09
142
0.0
143
25.4
144
1.0
145
0.0
146
1.0
147
1.0
 71
     0
 72
     0
 73
     1
 74
     1
 75
     0
 76
     0
 77
     0
 78
     8
170
     0
171
     2
172
     0
173
     1
174
     0
175
     0
176
   256
177
   256
178
   256
  0
DIMSTYLE
  2
BIGT
 70
     0
  3

  4

  5
OPEN
  6

  7

 40
1.0
 41
2.229999999999999
 42
0.5
 43
2.5
 44
1.0
 45
0.0
 46
0.0
 47
0.0
 48
0.0
140
3.5
141
0.0
142
0.0
143
25.4
144
1.0
145
0.0
146
1.0
147
1.0
 71
     0
 72
     0
 73
     0
 74
     0
 75
     0
 76
     0
 77
     3
 78
     9
170
     0
171
     2
172
     1
173
     0
174
     0
175
     0
176
   256
177
   256
178
    40
  0
ENDTAB
  0
ENDSEC
  0
SECTION
  2
BLOCKS
  0
BLOCK
  8
0
  2
$MODEL_SPACE
 70
     0
 10
0.0
 20
0.0
 30
0.0
  3
$MODEL_SPACE
  1

  0
ENDBLK
  5
1C
  8
0
  0
BLOCK
 67
     1
  8
0
  2
$PAPER_SPACE
 70
     0
 10
0.0
 20
0.0
 30
0.0
  3
$PAPER_SPACE
  1

  0
ENDBLK
  5
19
 67
     1
  8
0
  0
BLOCK
  8
0
  2
_OPEN
 70
     0
 10
0.0
 20
0.0
 30
0.0
  3
_OPEN
  1

  0
LINE
  5
595
  8
0
  6
BYBLOCK
 62
     0
 10
-1.0
 20
0.1666666666666666
 30
0.0
 11
0.0
 21
0.0
 31
0.0
  0
LINE
  5
596
  8
0
  6
BYBLOCK
 62
     0
 10
-1.0
 20
-0.1666666666666666
 30
0.0
 11
0.0
 21
0.0
 31
0.0
  0
LINE
  5
597
  8
0
  6
BYBLOCK
 62
     0
 10
0.0
 20
0.0
 30
0.0
 11
-1.0
 21
0.0
 31
0.0
  0
ENDBLK
  5
599
  8
0
  0
BLOCK
  8
0
  2
*D8
 70
     1
 10
0.0
 20
0.0
 30
0.0
  3
*D8
  1

  0
LINE
  5
EE9
  8
250
 10
89.50000000000001
 20
21.5
 30
0.0
 11
89.50000000000001
 21
37.16114346653781
 31
0.0
  0
LINE
  5
EEA
  8
250
 10
105.0
 20
21.5
 30
0.0
 11
105.0
 21
37.16114346653781
 31
0.0
  0
LINE
  5
EEB
  8
250
 10
91.73000000000002
 20
36.16114346653781
 30
0.0
 11
102.77
 21
36.16114346653781
 31
0.0
  0
INSERT
  5
EEC
  8
250
  2
_OPEN
 10
89.50000000000001
 20
36.16114346653781
 30
0.0
 41
2.229999999999999
 42
2.229999999999999
 43
2.229999999999999
 50
180.0
  0
INSERT
  5
EED
  8
250
  2
_OPEN
 10
105.0
 20
36.16114346653781
 30
0.0
 41
2.229999999999999
 42
2.229999999999999
 43
2.229999999999999
  0
TEXT
  5
EEE
  8
250
  6
CONTINUOUS
 62
    40
 10
92.03794642857143
 20
37.16114346653781
 30
0.0
 40
3.0
  1
15.5
  0
POINT
  5
EEF
  8
DEFPOINTS
 62
     0
 10
89.50000000000001
 20
21.0
 30
0.0
  0
POINT
  5
EF0
  8
DEFPOINTS
 62
     0
 10
105.0
 20
21.0
 30
0.0
  0
POINT
  5
EF1
  8
DEFPOINTS
 62
     0
 10
105.0
 20
36.16114346653781
 30
0.0
  0
ENDBLK
  5
EF3
  8
0
  0
BLOCK
  8
0
  2
*D9
 70
     1
 10
0.0
 20
0.0
 30
0.0
  3
*D9
  1

  0
LINE
  5
EF6
  8
250
 10
105.0
 20
21.5
 30
0.0
 11
105.0
 21
31.722453117578
 31
0.0
  0
LINE
  5
EF7
  8
250
 10
110.1003904899759
 20
21.56767667948749
 30
0.0
 11
110.1003904899759
 21
31.722453117578
 31
0.0
  0
LINE
  5
EF8
  8
250
 10
105.0
 20
30.722453117578
 30
0.0
 11
110.1003904899759
 21
30.722453117578
 31
0.0
  0
LINE
  5
EF9
  8
250
 10
102.77
 20
30.722453117578
 30
0.0
 11
100.54
 21
30.722453117578
 31
0.0
  0
LINE
  5
EFA
  8
250
 10
112.3303904899759
 20
30.722453117578
 30
0.0
 11
114.5603904899759
 21
30.722453117578
 31
0.0
  0
INSERT
  5
EFB
  8
250
  2
_OPEN
 10
105.0
 20
30.722453117578
 30
0.0
 41
2.229999999999999
 42
2.229999999999999
 43
2.229999999999999
  0
INSERT
  5
EFC
  8
250
  2
_OPEN
 10
110.1003904899759
 20
30.722453117578
 30
0.0
 41
2.229999999999999
 42
2.229999999999999
 43
2.229999999999999
 50
180.0
  0
TEXT
  5
EFD
  8
250
  6
CONTINUOUS
 62
    40
 10
107.1499826074858
 20
34.722453117578
 30
0.0
 40
3.0
  1
5.1
  0
POINT
  5
EFE
  8
DEFPOINTS
 62
     0
 10
105.0
 20
21.0
 30
0.0
  0
POINT
  5
EFF
  8
DEFPOINTS
 62
     0
 10
110.1003904899759
 20
21.06767667948749
 30
0.0
  0
POINT
  5
F00
  8
DEFPOINTS
 62
     0
 10
110.1003904899759
 20
30.722453117578
 30
0.0
  0
ENDBLK
  5
F02
  8
0
  0
BLOCK
  8
0
  2
*D10
 70
     1
 10
0.0
 20
0.0
 30
0.0
  3
*D10
  1

  0
LINE
  5
F0A
  8
250
 10
110.6003904899759
 20
10.09999940404459
 30
0.0
 11
116.6623462676373
 21
10.09999940404459
 31
0.0
  0
LINE
  5
F0B
  8
250
 10
110.6038601151664
 20
-10.1
 30
0.0
 11
116.6623462676373
 21
-10.1
 31
0.0
  0
LINE
  5
F0C
  8
250
 10
115.6623462676373
 20
7.869999404044592
 30
0.0
 11
115.6623462676373
 21
-7.870000000000001
 31
0.0
  0
INSERT
  5
F0D
  8
250
  2
_OPEN
 10
115.6623462676373
 20
10.09999940404459
 30
0.0
 41
2.229999999999999
 42
2.229999999999999
 43
2.229999999999999
 50
90.0
  0
INSERT
  5
F0E
  8
250
  2
_OPEN
 10
115.6623462676373
 20
-10.1
 30
0.0
 41
2.229999999999999
 42
2.229999999999999
 43
2.229999999999999
 50
270.0
  0
TEXT
  5
F0F
  8
250
  6
CONTINUOUS
 62
    40
 10
113.8562879525541
 20
-6.366071428571431
 30
0.0
 40
3.0
  1
\U+220520.2
 50
90.0
  0
POINT
  5
F10
  8
DEFPOINTS
 62
     0
 10
110.1003904899759
 20
10.09999940404459
 30
0.0
  0
POINT
  5
F11
  8
DEFPOINTS
 62
     0
 10
110.1038601151664
 20
-10.1
 30
0.0
  0
POINT
  5
F12
  8
DEFPOINTS
 62
     0
 10
115.6623462676373
 20
-10.1
 30
0.0
  0
ENDBLK
  5
F14
  8
0
  0
BLOCK
  8
0
  2
*D11
 70
     1
 10
0.0
 20
0.0
 30
0.0
  3
*D11
  1

  0
LINE
  5
F17
  8
250
 10
105.5
 20
19.15
 30
0.0
 11
121.2153255507257
 21
19.15
 31
0.0
  0
LINE
  5
F18
  8
250
 10
105.5
 20
-19.15
 30
0.0
 11
121.2153255507257
 21
-19.15
 31
0.0
  0
LINE
  5
F19
  8
250
 10
120.2153255507257
 20
16.92
 30
0.0
 11
120.2153255507257
 21
-16.92
 31
0.0
  0
INSERT
  5
F1A
  8
250
  2
_OPEN
 10
120.2153255507257
 20
19.15
 30
0.0
 41
2.229999999999999
 42
2.229999999999999
 43
2.229999999999999
 50
90.0
  0
INSERT
  5
F1B
  8
250
  2
_OPEN
 10
120.2153255507257
 20
-19.15
 30
0.0
 41
2.229999999999999
 42
2.229999999999999
 43
2.229999999999999
 50
270.0
  0
TEXT
  5
F1C
  8
250
  6
CONTINUOUS
 62
    40
 10
119.2153255507257
 20
-6.366071428571431
 30
0.0
 40
3.0
  1
\U+220538.3
 50
90.0
  0
POINT
  5
F1D
  8
DEFPOINTS
 62
     0
 10
105.0
 20
19.15
 30
0.0
  0
POINT
  5
F1E
  8
DEFPOINTS
 62
     0
 10
105.0
 20
-19.15
 30
0.0
  0
POINT
  5
F1F
  8
DEFPOINTS
 62
     0
 10
120.2153255507257
 20
-19.15
 30
0.0
  0
ENDBLK
  5
F21
  8
0
  0
BLOCK
  8
0
  2
*X12
 70
     1
 10
0.0
 20
0.0
 30
0.0
  3
*X12
  1

  0
TEXT
  5
100C
  8
250
  6
CONTINUOUS
 62
    40
 10
125.0
 20
-4.223214285714278
 30
0.0
 40
3.0
  1
\U+2205
 50
90.0
  0
TEXT
  5
100D
  8
250
  6
CONTINUOUS
 62
    40
 10
125.0
 20
-1.508928571428569
 30
0.0
 40
3.0
  1
46
 50
90.0
  0
ENDBLK
  5
100F
  8
0
  0
ENDSEC
  0
SECTION
  2
ENTITIES
  0
LINE
  5
E8C
  8
241
 10
98.50000000000001
 20
2.0
 30
0.0
 11
98.50000000000001
 21
0.0
 31
0.0
  0
LINE
  5
E8D
  8
241
 10
103.0857864376268
 20
22.21381267738883
 30
0.0
 11
103.0857864376268
 21
-22.34626300851465
 31
0.0
  0
LINE
  5
E8E
  8
240
 10
105.0
 20
0.0
 30
0.0
 11
105.0
 21
21.12720779386421
 31
0.0
  0
LINE
  5
E8F
  8
241
 10
89.0
 20
18.0
 30
0.0
 11
89.0
 21
-18.0
 31
0.0
  0
LINE
  5
E91
  8
241
 10
89.50000000000001
 20
0.0
 30
0.0
 11
89.50000000000001
 21
20.0
 31
0.0
  0
LINE
  5
E9E
  8
240
 10
90.5
 20
-23.0
 30
0.0
 11
103.0857864376268
 21
-23.0
 31
0.0
  0
LINE
  5
E9F
  8
241
 10
89.50000000000001
 20
0.0
 30
0.0
 11
89.50000000000001
 21
-20.0
 31
0.0
  0
LINE
  5
EA0
  8
241
 10
98.50000000000001
 20
-18.84313483298447
 30
0.0
 11
89.50000000000001
 21
-18.84313483298447
 31
0.0
  0
LINE
  5
EA1
  8
241
 10
98.50000000000001
 20
-20.84313483298444
 30
0.0
 11
89.50000000000001
 21
-20.84313483298444
 31
0.0
  0
LINE
  5
EA2
  8
240
 10
89.0
 20
-18.0
 30
0.0
 11
89.0
 21
-19.5
 31
0.0
  0
ARC
  5
EA3
  8
240
 10
90.5
 20
-22.0
 30
0.0
 40
1.0
 50
180.0
 51
270.0
  0
LINE
  5
EA4
  8
240
 10
89.0
 20
-19.5
 30
0.0
 11
89.50000000000001
 21
-20.0
 31
0.0
  0
LINE
  5
EA5
  8
240
 10
89.50000000000001
 20
-22.0
 30
0.0
 11
89.50000000000001
 21
-20.0
 31
0.0
  0
LINE
  5
EA6
  8
241
 10
98.50000000000001
 20
-20.84313483298444
 30
0.0
 11
98.50000000000001
 21
-18.84313483298447
 31
0.0
  0
LINE
  5
EA7
  8
241
 10
98.50000000000001
 20
-2.0
 30
0.0
 11
89.50000000000001
 21
-2.0
 31
0.0
  0
LINE
  5
EA8
  8
241
 10
98.50000000000001
 20
-2.0
 30
0.0
 11
98.50000000000001
 21
0.0
 31
0.0
  0
LINE
  5
EA9
  8
240
 10
105.0
 20
0.0
 30
0.0
 11
105.0
 21
-21.12720779386418
 31
0.0
  0
ARC
  5
EAB
  8
240
 10
104.1
 20
-21.12720779386418
 30
0.0
 40
0.9000000000000031
 50
314.9999999999994
 51
0.0
  0
LINE
  5
EAC
  8
240
 10
103.7928932188134
 20
-22.70710678118655
 30
0.0
 11
104.7363961030679
 21
-21.76360389693209
 31
0.0
  0
ARC
  5
EAD
  8
240
 10
103.0857864376268
 20
-22.0
 30
0.0
 40
0.9999999999999857
 50
270.0
 51
314.9999999999994
  0
LINE
  5
EB0
  8
246
 10
101.8
 20
-14.25
 30
0.0
 11
101.9999999999999
 21
-14.25
 31
0.0
  0
LINE
  5
EBB
  8
240
 10
90.5
 20
23.0
 30
0.0
 11
103.0857864376268
 21
23.0
 31
0.0
  0
LINE
  5
EBC
  8
241
 10
98.50000000000001
 20
2.0
 30
0.0
 11
89.50000000000001
 21
2.0
 31
0.0
  0
LINE
  5
EBD
  8
241
 10
98.50000000000001
 20
18.8431348329845
 30
0.0
 11
89.50000000000001
 21
18.8431348329845
 31
0.0
  0
LINE
  5
EBE
  8
241
 10
98.50000000000001
 20
20.8431348329845
 30
0.0
 11
89.50000000000001
 21
20.8431348329845
 31
0.0
  0
LINE
  5
EBF
  8
240
 10
89.0
 20
19.5
 30
0.0
 11
89.0
 21
18.0
 31
0.0
  0
ARC
  5
EC0
  8
240
 10
90.5
 20
22.0
 30
0.0
 40
1.0
 50
90.0
 51
180.0
  0
LINE
  5
EC1
  8
240
 10
89.50000000000001
 20
22.0
 30
0.0
 11
89.50000000000001
 21
20.0
 31
0.0
  0
LINE
  5
EC2
  8
240
 10
89.0
 20
19.5
 30
0.0
 11
89.50000000000001
 21
20.0
 31
0.0
  0
LINE
  5
EC3
  8
241
 10
98.50000000000001
 20
20.8431348329845
 30
0.0
 11
98.50000000000001
 21
18.8431348329845
 31
0.0
  0
ARC
  5
EC8
  8
240
 10
104.1
 20
21.12720779386421
 30
0.0
 40
0.9000000000000056
 50
0.0
 51
45.00000000000057
  0
LINE
  5
ECA
  8
240
 10
104.7363961030679
 20
21.76360389693212
 30
0.0
 11
103.7928932188134
 21
22.70710678118661
 31
0.0
  0
ARC
  5
ECB
  8
240
 10
103.0857864376268
 20
22.0
 30
0.0
 40
1.000000000000028
 50
45.00000000000057
 51
90.0
  0
LINE
  5
EDB
  8
250
  6
CONTINUOUS
 10
103.5857864376269
 20
-23.0
 30
0.0
 11
127.0
 21
-23.0
 31
0.0
  0
LINE
  5
EDC
  8
250
  6
CONTINUOUS
 10
103.5857864376269
 20
23.0
 30
0.0
 11
127.0
 21
22.99999999999999
 31
0.0
  0
LINE
  5
EDD
  8
250
  6
CONTINUOUS
 10
126.0
 20
-20.77
 30
0.0
 11
126.0
 21
20.76999999999999
 31
0.0
  0
INSERT
  5
EDE
  8
250
  6
CONTINUOUS
  2
_OPEN
 10
126.0
 20
-23.0
 30
0.0
 41
2.229999999999999
 42
2.229999999999999
 43
2.229999999999999
 50
-90.00000000000001
  0
INSERT
  5
EDF
  8
250
  6
CONTINUOUS
  2
_OPEN
 10
126.0
 20
22.99999999999999
 30
0.0
 41
2.229999999999999
 42
2.229999999999999
 43
2.229999999999999
 50
90.0
  0
INSERT
  5
EE0
  8
250
  6
CONTINUOUS
 62
    40
  2
*X12
 10
0.0
 20
0.0
 30
0.0
  0
DIMENSION
  5
EE7
  8
250
  2
*D8
 10
105.0
 20
36.16114346653781
 30
0.0
 11
97.25
 21
38.66114346653781
 31
0.0
 70
    32
  3
BIGT
 13
89.50000000000001
 23
21.0
 33
0.0
 14
105.0
 24
21.0
 34
0.0
1001
ACAD
1000
DSTYLE
1002
{
1070
   287
1070
     5
1070
   179
1070
     3
1070
    79
1070
     2
1070
   371
1070
    -1
1070
   372
1070
    -1
1070
   279
1070
     2
1070
   140
1040
3.0
1070
    78
1070
     8
1002
}
  0
DIMENSION
  5
EF4
  8
250
  2
*D9
 10
110.1003904899759
 20
30.722453117578
 30
0.0
 11
110.2928397503429
 21
36.222453117578
 31
0.0
 70
   160
  3
BIGT
 13
105.0
 23
21.0
 33
0.0
 14
110.1003904899759
 24
21.06767667948749
 34
0.0
1001
ACAD
1000
DSTYLE
1002
{
1070
   287
1070
     5
1070
   179
1070
     3
1070
    79
1070
     2
1070
   371
1070
    -1
1070
   372
1070
    -1
1070
   279
1070
     2
1070
   140
1040
3.0
1070
    78
1070
     8
1002
}
  0
LINE
  5
F06
  8
240
 10
105.0
 20
19.15
 30
0.0
 11
110.1003904899759
 21
10.09999940404459
 31
0.0
  0
LINE
  5
F07
  8
240
 10
105.0
 20
-19.15
 30
0.0
 11
110.1038601151664
 21
-10.1
 31
0.0
  0
DIMENSION
  5
F08
  8
250
  2
*D10
 10
115.6623462676373
 20
-10.1
 30
0.0
 11
112.3562879525541
 21
-0.0000000000000009
 31
0.0
 70
   160
  1
\U+220520.2
  3
BIGT
 13
110.1003904899759
 23
10.09999940404459
 33
0.0
 14
110.1038601151664
 24
-10.1
 34
0.0
 50
90.0
1001
ACAD
1000
DSTYLE
1002
{
1070
   287
1070
     5
1070
   179
1070
     3
1070
    79
1070
     2
1070
   371
1070
    -1
1070
   372
1070
    -1
1070
   279
1070
     2
1070
   140
1040
3.0
1070
    78
1070
     8
1002
}
  0
DIMENSION
  5
F15
  8
250
  2
*D11
 10
120.2153255507257
 20
-19.15
 30
0.0
 11
117.7153255507257
 21
0.0
 31
0.0
 70
    32
  1
\U+220538.3
  3
BIGT
 13
105.0
 23
19.15
 33
0.0
 14
105.0
 24
-19.15
 34
0.0
 50
90.0
1001
ACAD
1000
DSTYLE
1002
{
1070
   287
1070
     5
1070
   179
1070
     3
1070
    79
1070
     2
1070
   371
1070
    -1
1070
   372
1070
    -1
1070
   279
1070
     2
1070
   140
1040
3.0
1070
    78
1070
     8
1002
}
  0
LINE
  5
1001
  8
240
 10
110.1003904899759
 20
-10.1061522273858
 30
0.0
 11
110.1003904899759
 21
10.09999940404459
 31
0.0
  0
VIEWPORT
  5
22
 67
     1
  8
0
 10
261.5176991150442
 20
148.5
 30
0.0
 40
523.0353982300885
 41
297.0
 68
     1
 69
    -1
1001
ACAD
1000
MVIEW
1002
{
1070
    16
1010
0.0
1020
0.0
1030
0.0
1020
0.0
1030
0.0
1010
0.0
1020
0.0
1030
1.0
1020
0.0
1030
1.0
1040
0.0
1040
297.0
1040
261.5176991150442
1040
148.5
1040
50.0
1040
0.0
1040
0.0
1070
     0
1070
   100
1070
     1
1070
     1
1070
     0
1070
     0
1070
     0
1070
     0
1040
0.0
1040
0.0
1040
0.0
1040
1.0
1040
1.0
1040
10.0
1040
10.0
1070
     0
1002
{
1002
}
1002
}
  0
ENDSEC
  0
EOF
