  0
SECTION
  2
HEADER
  9
$ACADVER
  1
AC1024
  9
$ACADMAINTVER
 70
     6
  9
$DWGCODEPAGE
  3
ANSI_932
  9
$INSBASE
 10
0.0
 20
0.0
 30
0.0
  9
$EXTMIN
 10
-76.39858687325318
 20
-43.0
 30
0.0
  9
$EXTMAX
 10
127.0
 20
68.0
 30
0.0
  9
$LIMMIN
 10
0.0
 20
0.0
  9
$LIMMAX
 10
297.0
 20
210.0
  9
$ORTHOMODE
 70
     0
  9
$REGENMODE
 70
     1
  9
$FILLMODE
 70
     1
  9
$QTEXTMODE
 70
     0
  9
$MIRRTEXT
 70
     1
  9
$LTSCALE
 40
10.0
  9
$ATTMODE
 70
     1
  9
$TEXTSIZE
 40
3.0
  9
$TRACEWID
 40
1.0
  9
$TEXTSTYLE
  7
YOKO
  9
$CLAYER
  8
240
  9
$CELTYPE
  6
ByLayer
  9
$CECOLOR
 62
   256
  9
$CELTSCALE
 40
1.0
  9
$DISPSILH
 70
     0
  9
$DIMSCALE
 40
1.0
  9
$DIMASZ
 40
2.229999999999999
  9
$DIMEXO
 40
0.5
  9
$DIMDLI
 40
2.5
  9
$DIMRND
 40
0.0
  9
$DIMDLE
 40
0.0
  9
$DIMEXE
 40
1.0
  9
$DIMTP
 40
0.0
  9
$DIMTM
 40
0.0
  9
$DIMTXT
 40
3.0
  9
$DIMCEN
 40
0.0
  9
$DIMTSZ
 40
0.0
  9
$DIMTOL
 70
     0
  9
$DIMLIM
 70
     0
  9
$DIMTIH
 70
     0
  9
$DIMTOH
 70
     0
  9
$DIMSE1
 70
     0
  9
$DIMSE2
 70
     0
  9
$DIMTAD
 70
     3
  9
$DIMZIN
 70
     8
  9
$DIMBLK
  1
OPEN
  9
$DIMASO
 70
     1
  9
$DIMSHO
 70
     1
  9
$DIMPOST
  1

  9
$DIMAPOST
  1

  9
$DIMALT
 70
     0
  9
$DIMALTD
 70
     2
  9
$DIMALTF
 40
25.4
  9
$DIMLFAC
 40
1.0
  9
$DIMTOFL
 70
     1
  9
$DIMTVP
 40
0.0
  9
$DIMTIX
 70
     0
  9
$DIMSOXD
 70
     0
  9
$DIMSAH
 70
     0
  9
$DIMBLK1
  1

  9
$DIMBLK2
  1

  9
$DIMSTYLE
  2
BIGT
  9
$DIMCLRD
 70
   256
  9
$DIMCLRE
 70
   256
  9
$DIMCLRT
 70
    40
  9
$DIMTFAC
 40
1.0
  9
$DIMGAP
 40
1.0
  9
$DIMJUST
 70
     0
  9
$DIMSD1
 70
     0
  9
$DIMSD2
 70
     0
  9
$DIMTOLJ
 70
     1
  9
$DIMTZIN
 70
     0
  9
$DIMALTZ
 70
     0
  9
$DIMALTTZ
 70
     0
  9
$DIMUPT
 70
     0
  9
$DIMDEC
 70
     3
  9
$DIMTDEC
 70
     3
  9
$DIMALTU
 70
     2
  9
$DIMALTTD
 70
     2
  9
$DIMTXSTY
  7
STANDARD
  9
$DIMAUNIT
 70
     0
  9
$DIMADEC
 70
     0
  9
$DIMALTRND
 40
0.0
  9
$DIMAZIN
 70
     0
  9
$DIMDSEP
 70
    46
  9
$DIMATFIT
 70
     3
  9
$DIMFRAC
 70
     0
  9
$DIMLDRBLK
  1

  9
$DIMLUNIT
 70
     2
  9
$DIMLWD
 70
    -2
  9
$DIMLWE
 70
    -2
  9
$DIMTMOVE
 70
     2
  9
$DIMFXL
 40
1.0
  9
$DIMFXLON
 70
     0
  9
$DIMJOGANG
 40
0.7853981633974483
  9
$DIMTFILL
 70
     0
  9
$DIMTFILLCLR
 70
     0
  9
$DIMARCSYM
 70
     0
  9
$DIMLTYPE
  6

  9
$DIMLTEX1
  6

  9
$DIMLTEX2
  6

  9
$DIMTXTDIRECTION
 70
     0
  9
$LUNITS
 70
     2
  9
$LUPREC
 70
     3
  9
$SKETCHINC
 40
1.0
  9
$FILLETRAD
 40
8.0
  9
$AUNITS
 70
     0
  9
$AUPREC
 70
     3
  9
$MENU
  1
.
  9
$ELEVATION
 40
0.0
  9
$PELEVATION
 40
0.0
  9
$THICKNESS
 40
0.0
  9
$LIMCHECK
 70
     0
  9
$CHAMFERA
 40
10.0
  9
$CHAMFERB
 40
10.0
  9
$CHAMFERC
 40
1.0
  9
$CHAMFERD
 40
0.0
  9
$SKPOLY
 70
     0
  9
$TDCREATE
 40
2452173.537410463
  9
$TDUCREATE
 40
2452173.745743796
  9
$TDUPDATE
 40
2456155.373582894
  9
$TDUUPDATE
 40
2456155.581916227
  9
$TDINDWG
 40
0.0667733681
  9
$TDUSRTIMER
 40
2456155.581807905
  9
$USRTIMER
 70
     1
  9
$ANGBASE
 50
0.0
  9
$ANGDIR
 70
     0
  9
$PDMODE
 70
    35
  9
$PDSIZE
 40
-5.0
  9
$PLINEWID
 40
0.0
  9
$SPLFRAME
 70
     0
  9
$SPLINETYPE
 70
     6
  9
$SPLINESEGS
 70
     8
  9
$HANDSEED
  5
11B5
  9
$SURFTAB1
 70
     6
  9
$SURFTAB2
 70
     6
  9
$SURFTYPE
 70
     6
  9
$SURFU
 70
     6
  9
$SURFV
 70
     6
  9
$UCSBASE
  2

  9
$UCSNAME
  2

  9
$UCSORG
 10
0.0
 20
0.0
 30
0.0
  9
$UCSXDIR
 10
1.0
 20
0.0
 30
0.0
  9
$UCSYDIR
 10
0.0
 20
1.0
 30
0.0
  9
$UCSORTHOREF
  2

  9
$UCSORTHOVIEW
 70
     0
  9
$UCSORGTOP
 10
0.0
 20
0.0
 30
0.0
  9
$UCSORGBOTTOM
 10
0.0
 20
0.0
 30
0.0
  9
$UCSORGLEFT
 10
0.0
 20
0.0
 30
0.0
  9
$UCSORGRIGHT
 10
0.0
 20
0.0
 30
0.0
  9
$UCSORGFRONT
 10
0.0
 20
0.0
 30
0.0
  9
$UCSORGBACK
 10
0.0
 20
0.0
 30
0.0
  9
$PUCSBASE
  2

  9
$PUCSNAME
  2

  9
$PUCSORG
 10
0.0
 20
0.0
 30
0.0
  9
$PUCSXDIR
 10
1.0
 20
0.0
 30
0.0
  9
$PUCSYDIR
 10
0.0
 20
1.0
 30
0.0
  9
$PUCSORTHOREF
  2

  9
$PUCSORTHOVIEW
 70
     0
  9
$PUCSORGTOP
 10
0.0
 20
0.0
 30
0.0
  9
$PUCSORGBOTTOM
 10
0.0
 20
0.0
 30
0.0
  9
$PUCSORGLEFT
 10
0.0
 20
0.0
 30
0.0
  9
$PUCSORGRIGHT
 10
0.0
 20
0.0
 30
0.0
  9
$PUCSORGFRONT
 10
0.0
 20
0.0
 30
0.0
  9
$PUCSORGBACK
 10
0.0
 20
0.0
 30
0.0
  9
$USERI1
 70
     1
  9
$USERI2
 70
     0
  9
$USERI3
 70
     0
  9
$USERI4
 70
     0
  9
$USERI5
 70
     0
  9
$USERR1
 40
0.0
  9
$USERR2
 40
0.0
  9
$USERR3
 40
0.0
  9
$USERR4
 40
0.0
  9
$USERR5
 40
0.0
  9
$WORLDVIEW
 70
     1
  9
$SHADEDGE
 70
     3
  9
$SHADEDIF
 70
    70
  9
$TILEMODE
 70
     1
  9
$MAXACTVP
 70
    16
  9
$PINSBASE
 10
0.0
 20
0.0
 30
0.0
  9
$PLIMCHECK
 70
     0
  9
$PEXTMIN
 10
1.000000000000000E+20
 20
1.000000000000000E+20
 30
1.000000000000000E+20
  9
$PEXTMAX
 10
-1.000000000000000E+20
 20
-1.000000000000000E+20
 30
-1.000000000000000E+20
  9
$PLIMMIN
 10
0.0
 20
0.0
  9
$PLIMMAX
 10
420.0
 20
297.0
  9
$UNITMODE
 70
     0
  9
$VISRETAIN
 70
     0
  9
$PLINEGEN
 70
     0
  9
$PSLTSCALE
 70
     1
  9
$TREEDEPTH
 70
  3020
  9
$CMLSTYLE
  2
Standard
  9
$CMLJUST
 70
     0
  9
$CMLSCALE
 40
1.0
  9
$PROXYGRAPHICS
 70
     1
  9
$MEASUREMENT
 70
     0
  9
$CELWEIGHT
370
    -1
  9
$ENDCAPS
280
     0
  9
$JOINSTYLE
280
     0
  9
$LWDISPLAY
290
     0
  9
$INSUNITS
 70
     0
  9
$HYPERLINKBASE
  1

  9
$STYLESHEET
  1

  9
$XEDIT
290
     1
  9
$CEPSNTYPE
380
     0
  9
$PSTYLEMODE
290
     1
  9
$FINGERPRINTGUID
  2
{3412412A-7702-4B60-86BF-F15240C1A917}
  9
$VERSIONGUID
  2
{FAEB1C32-E019-11D5-929B-00C0DF256EC4}
  9
$EXTNAMES
290
     1
  9
$PSVPSCALE
 40
0.0
  9
$OLESTARTUP
290
     0
  9
$SORTENTS
280
   127
  9
$INDEXCTL
280
     0
  9
$HIDETEXT
280
     1
  9
$XCLIPFRAME
280
     2
  9
$HALOGAP
280
     0
  9
$OBSCOLOR
 70
   257
  9
$OBSLTYPE
280
     0
  9
$INTERSECTIONDISPLAY
280
     0
  9
$INTERSECTIONCOLOR
 70
   257
  9
$DIMASSOC
280
     2
  9
$PROJECTNAME
  1

  9
$CAMERADISPLAY
290
     0
  9
$LENSLENGTH
 40
50.0
  9
$CAMERAHEIGHT
 40
0.0
  9
$STEPSPERSEC
 40
2.0
  9
$STEPSIZE
 40
6.0
  9
$3DDWFPREC
 40
2.0
  9
$PSOLWIDTH
 40
0.25
  9
$PSOLHEIGHT
 40
4.0
  9
$LOFTANG1
 40
1.570796326794897
  9
$LOFTANG2
 40
1.570796326794897
  9
$LOFTMAG1
 40
0.0
  9
$LOFTMAG2
 40
0.0
  9
$LOFTPARAM
 70
     7
  9
$LOFTNORMALS
280
     1
  9
$LATITUDE
 40
37.795
  9
$LONGITUDE
 40
-122.394
  9
$NORTHDIRECTION
 40
0.0
  9
$TIMEZONE
 70
 -8000
  9
$LIGHTGLYPHDISPLAY
280
     1
  9
$TILEMODELIGHTSYNCH
280
     1
  9
$SOLIDHIST
280
     1
  9
$SHOWHIST
280
     1
  9
$DWFFRAME
280
     2
  9
$DGNFRAME
280
     2
  9
$REALWORLDSCALE
290
     1
  9
$INTERFERECOLOR
 62
   256
  9
$CSHADOW
280
     0
  9
$SHADOWPLANELOCATION
 40
0.0
  0
ENDSEC
  0
SECTION
  2
CLASSES
  0
CLASS
  1
ACDBDICTIONARYWDFLT
  2
AcDbDictionaryWithDefault
  3
ObjectDBX Classes
 90
        0
 91
        8
280
     0
281
     0
  0
CLASS
  1
MATERIAL
  2
AcDbMaterial
  3
ObjectDBX Classes
 90
     1153
 91
        8
280
     0
281
     0
  0
CLASS
  1
SCALE
  2
AcDbScale
  3
ObjectDBX Classes
 90
     1153
 91
        8
280
     0
281
     0
  0
CLASS
  1
VISUALSTYLE
  2
AcDbVisualStyle
  3
ObjectDBX Classes
 90
     4095
 91
        8
280
     0
281
     0
  0
CLASS
  1
TABLESTYLE
  2
AcDbTableStyle
  3
ObjectDBX Classes
 90
     4095
 91
        8
280
     0
281
     0
  0
CLASS
  1
RASTERVARIABLES
  2
AcDbRasterVariables
  3
ISM
 90
        0
 91
        8
280
     0
281
     0
  0
CLASS
  1
DICTIONARYVAR
  2
AcDbDictionaryVar
  3
ObjectDBX Classes
 90
        0
 91
        4
280
     0
281
     0
  0
CLASS
  1
CELLSTYLEMAP
  2
AcDbCellStyleMap
  3
ObjectDBX Classes
 90
     1152
 91
        4
280
     0
281
     0
  0
ENDSEC
  0
SECTION
  2
TABLES
  0
TABLE
  2
VPORT
  5
1135
330
0
100
AcDbSymbolTable
 70
     1
  0
VPORT
  5
114C
330
1135
100
AcDbSymbolTableRecord
100
AcDbViewportTableRecord
  2
*ACTIVE
 70
     0
 10
0.0
 20
0.0
 11
1.0
 21
1.0
 12
117.3670650699817
 22
4.064664079645475
 13
0.0
 23
0.0
 14
7.0
 24
7.0
 15
7.0
 25
7.0
 16
0.0
 26
0.0
 36
1.0
 17
0.0
 27
0.0
 37
0.0
 40
57.96548866908459
 41
1.987603305785124
 42
50.0
 43
0.0
 44
0.0
 50
0.0
 51
0.0
 71
    16
 72
  2000
 73
     1
 74
     0
 75
     0
 76
     0
 77
     0
 78
     0
281
     0
 65
     0
110
0.0
120
0.0
130
0.0
111
1.0
121
0.0
131
0.0
112
0.0
122
1.0
132
0.0
 79
     0
146
0.0
 60
     3
 61
     5
292
     1
282
     1
141
0.0
142
0.0
 63
   256
  0
ENDTAB
  0
TABLE
  2
LTYPE
  5
1132
330
0
100
AcDbSymbolTable
 70
     1
  0
LTYPE
  5
1140
330
1132
100
AcDbSymbolTableRecord
100
AcDbLinetypeTableRecord
  2
ByBlock
 70
     0
  3

 72
    65
 73
     0
 40
0.0
  0
LTYPE
  5
1141
330
1132
100
AcDbSymbolTableRecord
100
AcDbLinetypeTableRecord
  2
ByLayer
 70
     0
  3

 72
    65
 73
     0
 40
0.0
  0
LTYPE
  5
1142
330
1132
100
AcDbSymbolTableRecord
100
AcDbLinetypeTableRecord
  2
CONTINUOUS
 70
     0
  3
Solid line
 72
    65
 73
     0
 40
0.0
  0
ENDTAB
  0
TABLE
  2
LAYER
  5
112F
330
0
100
AcDbSymbolTable
 70
     5
  0
LAYER
  5
113D
330
112F
100
AcDbSymbolTableRecord
100
AcDbLayerTableRecord
  2
0
 70
     0
 62
     7
  6
CONTINUOUS
370
    -3
390
113C
347
1152
  0
LAYER
  5
1153
330
112F
100
AcDbSymbolTableRecord
100
AcDbLayerTableRecord
  2
240
 70
     0
 62
     4
  6
CONTINUOUS
370
    -3
390
113C
347
1152
  0
LAYER
  5
1154
330
112F
100
AcDbSymbolTableRecord
100
AcDbLayerTableRecord
  2
241
 70
     0
 62
   211
  6
CONTINUOUS
370
    -3
390
113C
347
1152
  0
LAYER
  5
1155
330
112F
100
AcDbSymbolTableRecord
100
AcDbLayerTableRecord
  2
250
 70
     0
 62
     3
  6
CONTINUOUS
370
    -3
390
113C
347
1152
  0
LAYER
  5
1156
330
112F
100
AcDbSymbolTableRecord
100
AcDbLayerTableRecord
  2
DEFPOINTS
 70
     0
 62
     7
  6
CONTINUOUS
290
     0
370
    -3
390
113C
347
1152
  0
ENDTAB
  0
TABLE
  2
STYLE
  5
1130
330
0
100
AcDbSymbolTable
 70
     2
  0
STYLE
  5
113E
330
1130
100
AcDbSymbolTableRecord
100
AcDbTextStyleTableRecord
  2
STANDARD
 70
     0
 40
0.0
 41
1.0
 50
0.0
 71
     0
 42
3.0
  3
romans.shx
  4
BIGFONT.SHX
  0
STYLE
  5
1158
330
1130
100
AcDbSymbolTableRecord
100
AcDbTextStyleTableRecord
  2
YOKO
 70
     0
 40
0.0
 41
1.0
 50
0.0
 71
     0
 42
3.0
  3
romans.shx
  4
extfont.shx
  0
ENDTAB
  0
TABLE
  2
VIEW
  5
1133
330
0
100
AcDbSymbolTable
 70
     0
  0
ENDTAB
  0
TABLE
  2
UCS
  5
1134
330
0
100
AcDbSymbolTable
 70
     0
  0
ENDTAB
  0
TABLE
  2
APPID
  5
1136
330
0
100
AcDbSymbolTable
 70
    11
  0
APPID
  5
113F
330
1136
100
AcDbSymbolTableRecord
100
AcDbRegAppTableRecord
  2
ACAD
 70
     0
  0
APPID
  5
115A
330
1136
100
AcDbSymbolTableRecord
100
AcDbRegAppTableRecord
  2
GLOBAL
 70
     0
  0
APPID
  5
115B
330
1136
100
AcDbSymbolTableRecord
100
AcDbRegAppTableRecord
  2
DETAIL
 70
     0
  0
APPID
  5
115C
330
1136
100
AcDbSymbolTableRecord
100
AcDbRegAppTableRecord
  2
GRPNAME
 70
     0
  0
APPID
  5
115D
330
1136
100
AcDbSymbolTableRecord
100
AcDbRegAppTableRecord
  2
GPARA
 70
     0
  0
APPID
  5
115E
330
1136
100
AcDbSymbolTableRecord
100
AcDbRegAppTableRecord
  2
ITEMNAME
 70
     0
  0
APPID
  5
115F
330
1136
100
AcDbSymbolTableRecord
100
AcDbRegAppTableRecord
  2
HATCH_TYPE
 70
     0
  0
APPID
  5
1160
330
1136
100
AcDbSymbolTableRecord
100
AcDbRegAppTableRecord
  2
HATCH_DISPLAY
 70
     0
  0
APPID
  5
1161
330
1136
100
AcDbSymbolTableRecord
100
AcDbRegAppTableRecord
  2
HATCH_DISTANCE
 70
     0
  0
APPID
  5
1162
330
1136
100
AcDbSymbolTableRecord
100
AcDbRegAppTableRecord
  2
INSERT_PATH
 70
     0
  0
APPID
  5
1163
330
1136
100
AcDbSymbolTableRecord
100
AcDbRegAppTableRecord
  2
INSERT_NAME
 70
     0
  0
ENDTAB
  0
TABLE
  2
DIMSTYLE
  5
1137
330
0
100
AcDbSymbolTable
 70
     2
100
AcDbDimStyleTable
  0
DIMSTYLE
105
1164
330
1137
100
AcDbSymbolTableRecord
100
AcDbDimStyleTableRecord
  2
STANDARD
 70
     0
 41
2.0
 42
2.0
 43
3.75
 44
2.0
 78
     8
140
4.0
147
1.0
173
     1
176
   256
177
   256
178
   256
340
1158
  0
DIMSTYLE
105
E0
330
1137
100
AcDbSymbolTableRecord
100
AcDbDimStyleTableRecord
  2
BIGT
 70
     0
 41
2.229999999999999
 42
0.5
 43
2.5
 44
1.0
 73
     0
 74
     0
 77
     3
 78
     9
140
3.5
141
0.0
147
1.0
172
     1
176
   256
177
   256
178
    40
340
1158
341
1168
342
1168
  0
ENDTAB
  0
TABLE
  2
BLOCK_RECORD
  5
112E
330
0
100
AcDbSymbolTable
 70
     8
  0
BLOCK_RECORD
  5
1149
330
112E
100
AcDbSymbolTableRecord
100
AcDbBlockTableRecord
  2
*Model_Space
340
114A
 70
     0
280
     1
281
     0
  0
BLOCK_RECORD
  5
1147
330
112E
100
AcDbSymbolTableRecord
100
AcDbBlockTableRecord
  2
*Paper_Space
340
1148
 70
     0
280
     1
281
     0
  0
BLOCK_RECORD
  5
1168
330
112E
100
AcDbSymbolTableRecord
100
AcDbBlockTableRecord
  2
_OPEN
340
0
102
{BLKREFS
331
E2B
331
E2C
331
F9F
331
FA0
331
FB1
331
FB2
331
FBE
331
FBF
331
1106
331
1107
331
1113
331
1114
102
}
 70
     0
280
     1
281
     0
  0
BLOCK_RECORD
  5
116A
330
112E
100
AcDbSymbolTableRecord
100
AcDbBlockTableRecord
  2
*D1
340
0
 70
     0
280
     1
281
     0
  0
BLOCK_RECORD
  5
116C
330
112E
100
AcDbSymbolTableRecord
100
AcDbBlockTableRecord
  2
*D2
340
0
 70
     0
280
     1
281
     0
  0
BLOCK_RECORD
  5
116E
330
112E
100
AcDbSymbolTableRecord
100
AcDbBlockTableRecord
  2
*D3
340
0
 70
     0
280
     1
281
     0
  0
BLOCK_RECORD
  5
1170
330
112E
100
AcDbSymbolTableRecord
100
AcDbBlockTableRecord
  2
*D4
340
0
 70
     0
280
     1
281
     0
  0
BLOCK_RECORD
  5
1172
330
112E
100
AcDbSymbolTableRecord
100
AcDbBlockTableRecord
  2
*D5
340
0
 70
     0
280
     1
281
     0
  0
BLOCK_RECORD
  5
1174
330
112E
100
AcDbSymbolTableRecord
100
AcDbBlockTableRecord
  2
*D6
340
0
 70
     0
280
     1
281
     0
  0
BLOCK_RECORD
  5
1176
330
112E
100
AcDbSymbolTableRecord
100
AcDbBlockTableRecord
  2
*X7
340
0
102
{BLKREFS
331
E2D
102
}
 70
     0
280
     1
281
     0
  0
ENDTAB
  0
ENDSEC
  0
SECTION
  2
BLOCKS
  0
BLOCK
  5
1165
330
1149
100
AcDbEntity
  8
0
100
AcDbBlockBegin
  2
*Model_Space
 70
     0
 10
0.0
 20
0.0
 30
0.0
  3
*Model_Space
  1

  0
ENDBLK
  5
1C
330
1149
100
AcDbEntity
  8
0
100
AcDbBlockEnd
  0
BLOCK
  5
1166
330
1147
100
AcDbEntity
 67
     1
  8
0
100
AcDbBlockBegin
  2
*Paper_Space
 70
     0
 10
0.0
 20
0.0
 30
0.0
  3
*Paper_Space
  1

  0
ENDBLK
  5
19
330
1147
100
AcDbEntity
 67
     1
  8
0
100
AcDbBlockEnd
  0
BLOCK
  5
1167
330
1168
100
AcDbEntity
  8
0
100
AcDbBlockBegin
  2
_OPEN
 70
     0
 10
0.0
 20
0.0
 30
0.0
  3
_OPEN
  1

  0
LINE
  5
595
330
1168
100
AcDbEntity
  8
0
  6
ByBlock
 62
     0
100
AcDbLine
 10
-1.0
 20
0.1666666666666666
 30
0.0
 11
0.0
 21
0.0
 31
0.0
  0
LINE
  5
596
330
1168
100
AcDbEntity
  8
0
  6
ByBlock
 62
     0
100
AcDbLine
 10
-1.0
 20
-0.1666666666666666
 30
0.0
 11
0.0
 21
0.0
 31
0.0
  0
LINE
  5
597
330
1168
100
AcDbEntity
  8
0
  6
ByBlock
 62
     0
100
AcDbLine
 10
0.0
 20
0.0
 30
0.0
 11
-1.0
 21
0.0
 31
0.0
  0
ENDBLK
  5
599
330
1168
100
AcDbEntity
  8
0
100
AcDbBlockEnd
  0
BLOCK
  5
1169
330
116A
100
AcDbEntity
  8
0
100
AcDbBlockBegin
  2
*D1
 70
     1
 10
0.0
 20
0.0
 30
0.0
  3
*D1
  1

  0
LINE
  5
E28
330
116A
100
AcDbEntity
  8
250
  6
Continuous
100
AcDbLine
 10
103.9186291501014
 20
-17.50000000000002
 30
0.0
 11
137.2913760407789
 21
-17.50000000000002
 31
0.0
  0
LINE
  5
E29
330
116A
100
AcDbEntity
  8
250
  6
Continuous
100
AcDbLine
 10
103.9186291501014
 20
17.5
 30
0.0
 11
137.2913760407789
 21
17.5
 31
0.0
  0
LINE
  5
E2A
330
116A
100
AcDbEntity
  8
250
  6
Continuous
100
AcDbLine
 10
136.2913760407789
 20
-15.27000000000002
 30
0.0
 11
136.2913760407789
 21
15.27
 31
0.0
  0
INSERT
  5
E2B
330
116A
100
AcDbEntity
  8
250
100
AcDbBlockReference
  2
_OPEN
 10
136.2913760407789
 20
-17.50000000000002
 30
0.0
 41
2.229999999999999
 42
2.229999999999999
 43
2.229999999999999
 50
270.0
  0
INSERT
  5
E2C
330
116A
100
AcDbEntity
  8
250
100
AcDbBlockReference
  2
_OPEN
 10
136.2913760407789
 20
17.5
 30
0.0
 41
2.229999999999999
 42
2.229999999999999
 43
2.229999999999999
 50
90.0
  0
INSERT
  5
E2D
330
116A
100
AcDbEntity
  8
250
 62
    40
100
AcDbBlockReference
  2
*X7
 10
0.0
 20
0.0
 30
0.0
  0
POINT
  5
E2E
330
116A
100
AcDbEntity
  8
DEFPOINTS
 62
     0
100
AcDbPoint
 10
103.4186291501014
 20
-17.50000000000002
 30
0.0
  0
POINT
  5
E2F
330
116A
100
AcDbEntity
  8
DEFPOINTS
 62
     0
100
AcDbPoint
 10
103.4186291501014
 20
17.5
 30
0.0
  0
POINT
  5
E30
330
116A
100
AcDbEntity
  8
DEFPOINTS
 62
     0
100
AcDbPoint
 10
136.2913760407789
 20
17.5
 30
0.0
  0
ENDBLK
  5
DF1
330
116A
100
AcDbEntity
  8
0
100
AcDbBlockEnd
  0
BLOCK
  5
116B
330
116C
100
AcDbEntity
  8
0
100
AcDbBlockBegin
  2
*D2
 70
     1
 10
0.0
 20
0.0
 30
0.0
  3
*D2
  1

  0
LINE
  5
F9A
330
116C
100
AcDbEntity
  8
250
100
AcDbLine
 10
105.0
 20
16.4600505063388
 30
0.0
 11
105.0
 21
23.73845004377072
 31
0.0
  0
LINE
  5
F9B
330
116C
100
AcDbEntity
  8
250
100
AcDbLine
 10
109.8996267980589
 20
16.55666823381377
 30
0.0
 11
109.8996267980589
 21
23.73845004377072
 31
0.0
  0
LINE
  5
F9C
330
116C
100
AcDbEntity
  8
250
100
AcDbLine
 10
105.0
 20
22.73845004377072
 30
0.0
 11
109.8996267980589
 21
22.73845004377072
 31
0.0
  0
LINE
  5
F9D
330
116C
100
AcDbEntity
  8
250
100
AcDbLine
 10
105.0
 20
22.73845004377072
 30
0.0
 11
100.54
 21
22.73845004377072
 31
0.0
  0
LINE
  5
F9E
330
116C
100
AcDbEntity
  8
250
100
AcDbLine
 10
109.8996267980589
 20
22.73845004377072
 30
0.0
 11
114.3596267980589
 21
22.73845004377072
 31
0.0
  0
INSERT
  5
F9F
330
116C
100
AcDbEntity
  8
250
100
AcDbBlockReference
  2
_OPEN
 10
105.0
 20
22.73845004377072
 30
0.0
 41
2.229999999999999
 42
2.229999999999999
 43
2.229999999999999
  0
INSERT
  5
FA0
330
116C
100
AcDbEntity
  8
250
100
AcDbBlockReference
  2
_OPEN
 10
109.8996267980589
 20
22.73845004377072
 30
0.0
 41
2.229999999999999
 42
2.229999999999999
 43
2.229999999999999
 50
180.0
  0
MTEXT
  5
FA1
330
116C
100
AcDbEntity
  8
250
 62
    40
100
AcDbMText
 10
114.5512834756813
 20
26.6495789505962
 30
0.0
 40
3.0
 41
0.0
 46
0.0
 71
     5
 72
     1
  1
\A1;4.9
  7
YOKO
 73
     1
 44
1.0
  0
POINT
  5
FA2
330
116C
100
AcDbEntity
  8
DEFPOINTS
 62
     0
100
AcDbPoint
 10
105.0
 20
15.9600505063388
 30
0.0
  0
POINT
  5
FA3
330
116C
100
AcDbEntity
  8
DEFPOINTS
 62
     0
100
AcDbPoint
 10
109.8996267980589
 20
16.05666823381377
 30
0.0
  0
POINT
  5
FA4
330
116C
100
AcDbEntity
  8
DEFPOINTS
 62
     0
100
AcDbPoint
 10
109.8996267980589
 20
22.73845004377072
 30
0.0
  0
ENDBLK
  5
FA6
330
116C
100
AcDbEntity
  8
0
100
AcDbBlockEnd
  0
BLOCK
  5
116D
330
116E
100
AcDbEntity
  8
0
100
AcDbBlockBegin
  2
*D3
 70
     1
 10
0.0
 20
0.0
 30
0.0
  3
*D3
  1

  0
LINE
  5
FAE
330
116E
100
AcDbEntity
  8
250
100
AcDbLine
 10
105.4999999999999
 20
14.34999999999999
 30
0.0
 11
131.4527801286043
 21
14.34999999999999
 31
0.0
  0
LINE
  5
FAF
330
116E
100
AcDbEntity
  8
250
100
AcDbLine
 10
105.4999999999999
 20
-14.35
 30
0.0
 11
131.4527801286043
 21
-14.35000000000001
 31
0.0
  0
LINE
  5
FB0
330
116E
100
AcDbEntity
  8
250
100
AcDbLine
 10
130.4527801286043
 20
12.11999999999999
 30
0.0
 11
130.4527801286043
 21
-12.12000000000001
 31
0.0
  0
INSERT
  5
FB1
330
116E
100
AcDbEntity
  8
250
100
AcDbBlockReference
  2
_OPEN
 10
130.4527801286043
 20
14.34999999999999
 30
0.0
 41
2.229999999999999
 42
2.229999999999999
 43
2.229999999999999
 50
90.0
  0
INSERT
  5
FB2
330
116E
100
AcDbEntity
  8
250
100
AcDbBlockReference
  2
_OPEN
 10
130.4527801286043
 20
-14.35000000000001
 30
0.0
 41
2.229999999999999
 42
2.229999999999999
 43
2.229999999999999
 50
270.0
  0
TEXT
  5
FB3
330
116E
100
AcDbEntity
  8
250
  6
Continuous
 62
    40
100
AcDbText
 10
129.4527801286043
 20
-6.366071428571445
 30
0.0
 40
3.0
  1
∅28.7
 50
90.0
100
AcDbText
  0
POINT
  5
FB4
330
116E
100
AcDbEntity
  8
DEFPOINTS
 62
     0
100
AcDbPoint
 10
104.9999999999999
 20
14.34999999999999
 30
0.0
  0
POINT
  5
FB5
330
116E
100
AcDbEntity
  8
DEFPOINTS
 62
     0
100
AcDbPoint
 10
104.9999999999999
 20
-14.35
 30
0.0
  0
POINT
  5
FB6
330
116E
100
AcDbEntity
  8
DEFPOINTS
 62
     0
100
AcDbPoint
 10
130.4527801286043
 20
-14.35000000000001
 30
0.0
  0
ENDBLK
  5
FB8
330
116E
100
AcDbEntity
  8
0
100
AcDbBlockEnd
  0
BLOCK
  5
116F
330
1170
100
AcDbEntity
  8
0
100
AcDbBlockBegin
  2
*D4
 70
     1
 10
0.0
 20
0.0
 30
0.0
  3
*D4
  1

  0
LINE
  5
FBB
330
1170
100
AcDbEntity
  8
250
100
AcDbLine
 10
110.0997181650902
 20
8.099879092366221
 30
0.0
 11
122.3015237963619
 21
8.099879092366221
 31
0.0
  0
LINE
  5
FBC
330
1170
100
AcDbEntity
  8
250
100
AcDbLine
 10
110.0997181650902
 20
-8.100120907633778
 30
0.0
 11
122.3015237963619
 21
-8.100120907633778
 31
0.0
  0
LINE
  5
FBD
330
1170
100
AcDbEntity
  8
250
100
AcDbLine
 10
121.3015237963619
 20
5.869879092366222
 30
0.0
 11
121.3015237963619
 21
-5.87012090763378
 31
0.0
  0
INSERT
  5
FBE
330
1170
100
AcDbEntity
  8
250
100
AcDbBlockReference
  2
_OPEN
 10
121.3015237963619
 20
8.099879092366221
 30
0.0
 41
2.229999999999999
 42
2.229999999999999
 43
2.229999999999999
 50
90.0
  0
INSERT
  5
FBF
330
1170
100
AcDbEntity
  8
250
100
AcDbBlockReference
  2
_OPEN
 10
121.3015237963619
 20
-8.100120907633778
 30
0.0
 41
2.229999999999999
 42
2.229999999999999
 43
2.229999999999999
 50
270.0
  0
TEXT
  5
FC0
330
1170
100
AcDbEntity
  8
250
  6
Continuous
 62
    40
100
AcDbText
 10
118.7891259990535
 20
-6.366071428571445
 30
0.0
 40
3.0
  1
∅16.2
 50
90.0
100
AcDbText
  0
POINT
  5
FC1
330
1170
100
AcDbEntity
  8
DEFPOINTS
 62
     0
100
AcDbPoint
 10
109.5997181650902
 20
8.099879092366221
 30
0.0
  0
POINT
  5
FC2
330
1170
100
AcDbEntity
  8
DEFPOINTS
 62
     0
100
AcDbPoint
 10
109.5997181650902
 20
-8.100120907633778
 30
0.0
  0
POINT
  5
FC3
330
1170
100
AcDbEntity
  8
DEFPOINTS
 62
     0
100
AcDbPoint
 10
121.3015237963619
 20
-8.100120907633778
 30
0.0
  0
ENDBLK
  5
FC5
330
1170
100
AcDbEntity
  8
0
100
AcDbBlockEnd
  0
BLOCK
  5
1171
330
1172
100
AcDbEntity
  8
0
100
AcDbBlockBegin
  2
*D5
 70
     1
 10
0.0
 20
0.0
 30
0.0
  3
*D5
  1

  0
LINE
  5
1103
330
1172
100
AcDbEntity
  8
250
100
AcDbLine
 10
110.3996267980589
 20
9.699959406777678
 30
0.0
 11
120.2847287086558
 21
9.699959406777678
 31
0.0
  0
LINE
  5
1104
330
1172
100
AcDbEntity
  8
250
100
AcDbLine
 10
110.3996267980589
 20
-9.70004059322232
 30
0.0
 11
120.2847287086558
 21
-9.70004059322232
 31
0.0
  0
LINE
  5
1105
330
1172
100
AcDbEntity
  8
250
100
AcDbLine
 10
119.2847287086558
 20
7.469959406777679
 30
0.0
 11
119.2847287086558
 21
-7.470040593222322
 31
0.0
  0
INSERT
  5
1106
330
1172
100
AcDbEntity
  8
250
100
AcDbBlockReference
  2
_OPEN
 10
119.2847287086558
 20
9.699959406777678
 30
0.0
 41
2.229999999999999
 42
2.229999999999999
 43
2.229999999999999
 50
90.0
  0
INSERT
  5
1107
330
1172
100
AcDbEntity
  8
250
100
AcDbBlockReference
  2
_OPEN
 10
119.2847287086558
 20
-9.70004059322232
 30
0.0
 41
2.229999999999999
 42
2.229999999999999
 43
2.229999999999999
 50
270.0
  0
TEXT
  5
1108
330
1172
100
AcDbEntity
  8
250
  6
Continuous
 62
    40
100
AcDbText
 10
118.2847287086558
 20
-6.428612021793754
 30
0.0
 40
3.0
  1
∅19.4
 50
90.0
100
AcDbText
  0
POINT
  5
1109
330
1172
100
AcDbEntity
  8
DEFPOINTS
 62
     0
100
AcDbPoint
 10
109.8996267980589
 20
9.699959406777678
 30
0.0
  0
POINT
  5
110A
330
1172
100
AcDbEntity
  8
DEFPOINTS
 62
     0
100
AcDbPoint
 10
109.8996267980589
 20
-9.70004059322232
 30
0.0
  0
POINT
  5
110B
330
1172
100
AcDbEntity
  8
DEFPOINTS
 62
     0
100
AcDbPoint
 10
119.2847287086558
 20
-9.70004059322232
 30
0.0
  0
ENDBLK
  5
110D
330
1172
100
AcDbEntity
  8
0
100
AcDbBlockEnd
  0
BLOCK
  5
1173
330
1174
100
AcDbEntity
  8
0
100
AcDbBlockBegin
  2
*D6
 70
     1
 10
0.0
 20
0.0
 30
0.0
  3
*D6
  1

  0
LINE
  5
1110
330
1174
100
AcDbEntity
  8
250
100
AcDbLine
 10
89.49999999999997
 20
15.5
 30
0.0
 11
89.49999999999997
 21
35.45389788191682
 31
0.0
  0
LINE
  5
1111
330
1174
100
AcDbEntity
  8
250
100
AcDbLine
 10
105.0
 20
15.49999999999995
 30
0.0
 11
105.0
 21
35.45389788191682
 31
0.0
  0
LINE
  5
1112
330
1174
100
AcDbEntity
  8
250
100
AcDbLine
 10
91.72999999999998
 20
34.45389788191682
 30
0.0
 11
102.77
 21
34.45389788191682
 31
0.0
  0
INSERT
  5
1113
330
1174
100
AcDbEntity
  8
250
100
AcDbBlockReference
  2
_OPEN
 10
89.49999999999997
 20
34.45389788191682
 30
0.0
 41
2.229999999999999
 42
2.229999999999999
 43
2.229999999999999
 50
180.0
  0
INSERT
  5
1114
330
1174
100
AcDbEntity
  8
250
100
AcDbBlockReference
  2
_OPEN
 10
105.0
 20
34.45389788191682
 30
0.0
 41
2.229999999999999
 42
2.229999999999999
 43
2.229999999999999
  0
TEXT
  5
1115
330
1174
100
AcDbEntity
  8
250
  6
Continuous
 62
    40
100
AcDbText
 10
92.03794642857142
 20
35.45389788191682
 30
0.0
 40
3.0
  1
15.5
100
AcDbText
  0
POINT
  5
1116
330
1174
100
AcDbEntity
  8
DEFPOINTS
 62
     0
100
AcDbPoint
 10
89.49999999999997
 20
15.0
 30
0.0
  0
POINT
  5
1117
330
1174
100
AcDbEntity
  8
DEFPOINTS
 62
     0
100
AcDbPoint
 10
105.0
 20
14.99999999999995
 30
0.0
  0
POINT
  5
1118
330
1174
100
AcDbEntity
  8
DEFPOINTS
 62
     0
100
AcDbPoint
 10
105.0
 20
34.45389788191682
 30
0.0
  0
ENDBLK
  5
111A
330
1174
100
AcDbEntity
  8
0
100
AcDbBlockEnd
  0
BLOCK
  5
1175
330
1176
100
AcDbEntity
  8
0
100
AcDbBlockBegin
  2
*X7
 70
     1
 10
0.0
 20
0.0
 30
0.0
  3
*X7
  1

  0
TEXT
  5
1129
330
1176
100
AcDbEntity
  8
250
  6
Continuous
 62
    40
100
AcDbText
 10
135.2913760407789
 20
-5.569063252833871
 30
0.0
 40
3.0
  1
∅
 50
90.0
100
AcDbText
  0
TEXT
  5
112A
330
1176
100
AcDbEntity
  8
250
  6
Continuous
 62
    40
100
AcDbText
 10
135.2913760407789
 20
-2.854777538548149
 30
0.0
 40
3.0
  1
35
 50
90.0
100
AcDbText
  0
ENDBLK
  5
112C
330
1176
100
AcDbEntity
  8
0
100
AcDbBlockEnd
  0
ENDSEC
  0
SECTION
  2
ENTITIES
  0
DIMENSION
  5
DCA
330
1149
100
AcDbEntity
  8
250
  6
Continuous
100
AcDbDimension
280
     0
  2
*D1
 10
136.2913760407789
 20
17.5
 30
0.0
 11
136.2913760407789
 21
-1.345848967119583
 31
0.0
 70
   160
  1
{\H3;∅}<>
 71
     5
 42
-1.0
 73
     0
 74
     0
 75
     0
  3
BIGT
100
AcDbAlignedDimension
 13
103.4186291501014
 23
-17.50000000000002
 33
0.0
 14
103.4186291501014
 24
17.5
 34
0.0
 50
90.0
100
AcDbRotatedDimension
1001
ACAD
1000
DSTYLE
1002
{
1070
    78
1070
     8
1070
   140
1040
3.0
1002
}
  0
LINE
  5
F20
330
1149
100
AcDbEntity
  8
241
100
AcDbLine
 10
98.49999999999997
 20
-2.0
 30
0.0
 11
98.49999999999997
 21
0.0
 31
0.0
  0
LINE
  5
F21
330
1149
100
AcDbEntity
  8
240
100
AcDbLine
 10
105.0
 20
15.9600505063388
 30
0.0
 11
104.9999999999999
 21
-15.96005050633883
 31
0.0
  0
LINE
  5
F22
330
1149
100
AcDbEntity
  8
241
100
AcDbLine
 10
103.4186291501014
 20
17.00094607379372
 30
0.0
 11
103.4186291501014
 21
-17.15231788079469
 31
0.0
  0
LINE
  5
F23
330
1149
100
AcDbEntity
  8
241
100
AcDbLine
 10
89.49999999999991
 20
-14.99999999999994
 30
0.0
 11
89.49999999999997
 21
0.0
 31
0.0
  0
LINE
  5
F26
330
1149
100
AcDbEntity
  8
241
100
AcDbLine
 10
88.99999999999996
 20
-13.0
 30
0.0
 11
88.99999999999996
 21
0.0
 31
0.0
  0
LINE
  5
F3E
330
1149
100
AcDbEntity
  8
240
100
AcDbLine
 10
90.29999999999993
 20
-17.5
 30
0.0
 11
103.4186291501014
 21
-17.50000000000002
 31
0.0
  0
LINE
  5
F3F
330
1149
100
AcDbEntity
  8
241
100
AcDbLine
 10
98.49999999999997
 20
-2.0
 30
0.0
 11
89.49999999999991
 21
-2.0
 31
0.0
  0
LINE
  5
F40
330
1149
100
AcDbEntity
  8
241
100
AcDbLine
 10
98.49999999999997
 20
-14.05614492491355
 30
0.0
 11
89.49999999999991
 21
-14.05614492491355
 31
0.0
  0
LINE
  5
F41
330
1149
100
AcDbEntity
  8
241
100
AcDbLine
 10
98.49999999999997
 20
-16.05614492491355
 30
0.0
 11
89.49999999999991
 21
-16.05614492491355
 31
0.0
  0
LINE
  5
F44
330
1149
100
AcDbEntity
  8
240
100
AcDbLine
 10
88.99999999999996
 20
-14.49999999999997
 30
0.0
 11
88.99999999999996
 21
-13.0
 31
0.0
  0
LINE
  5
F47
330
1149
100
AcDbEntity
  8
240
100
AcDbLine
 10
88.99999999999996
 20
-14.49999999999997
 30
0.0
 11
89.49999999999997
 21
-14.99999999999997
 31
0.0
  0
LINE
  5
F48
330
1149
100
AcDbEntity
  8
240
100
AcDbLine
 10
89.49999999999991
 20
-16.69999999999999
 30
0.0
 11
89.49999999999991
 21
-14.99999999999994
 31
0.0
  0
ARC
  5
F49
330
1149
100
AcDbEntity
  8
240
100
AcDbCircle
 10
90.29999999999993
 20
-16.69999999999999
 30
0.0
 40
0.8000000000000113
100
AcDbArc
 50
180.0
 51
270.0
  0
LINE
  5
F4F
330
1149
100
AcDbEntity
  8
241
100
AcDbLine
 10
98.49999999999997
 20
-16.05614492491355
 30
0.0
 11
98.49999999999997
 21
-14.05614492491355
 31
0.0
  0
LINE
  5
F54
330
1149
100
AcDbEntity
  8
240
100
AcDbLine
 10
103.9843145750506
 20
-17.26568542494925
 30
0.0
 11
104.7949747468305
 21
-16.45502525316942
 31
0.0
  0
ARC
  5
F55
330
1149
100
AcDbEntity
  8
240
100
AcDbCircle
 10
104.2999999999999
 20
-15.96005050633883
 30
0.0
 40
0.7000000000000137
100
AcDbArc
 50
315.0
 51
0.0
  0
ARC
  5
F56
330
1149
100
AcDbEntity
  8
240
100
AcDbCircle
 10
103.4186291501014
 20
-16.70000000000001
 30
0.0
 40
0.7999999999999972
100
AcDbArc
 50
270.0
 51
314.9999999999994
  0
LINE
  5
F6A
330
1149
100
AcDbEntity
  8
240
100
AcDbLine
 10
90.29999999999993
 20
17.5
 30
0.0
 11
103.4186291501014
 21
17.5
 31
0.0
  0
LINE
  5
F6B
330
1149
100
AcDbEntity
  8
241
100
AcDbLine
 10
98.49999999999997
 20
2.0
 30
0.0
 11
89.49999999999991
 21
2.0
 31
0.0
  0
LINE
  5
F6C
330
1149
100
AcDbEntity
  8
241
100
AcDbLine
 10
98.49999999999997
 20
16.05614492491355
 30
0.0
 11
89.49999999999991
 21
16.05614492491355
 31
0.0
  0
LINE
  5
F6D
330
1149
100
AcDbEntity
  8
241
100
AcDbLine
 10
98.49999999999997
 20
14.05614492491361
 30
0.0
 11
89.49999999999991
 21
14.05614492491361
 31
0.0
  0
LINE
  5
F70
330
1149
100
AcDbEntity
  8
241
100
AcDbLine
 10
89.49999999999991
 20
14.99999999999994
 30
0.0
 11
89.49999999999997
 21
0.0
 31
0.0
  0
LINE
  5
F73
330
1149
100
AcDbEntity
  8
241
100
AcDbLine
 10
88.99999999999996
 20
13.0
 30
0.0
 11
88.99999999999996
 21
0.0
 31
0.0
  0
ARC
  5
F7A
330
1149
100
AcDbEntity
  8
240
100
AcDbCircle
 10
90.29999999999993
 20
16.69999999999999
 30
0.0
 40
0.799999999999983
100
AcDbArc
 50
90.0
 51
180.0
  0
LINE
  5
F7B
330
1149
100
AcDbEntity
  8
240
100
AcDbLine
 10
88.99999999999996
 20
14.5
 30
0.0
 11
89.49999999999997
 21
15.0
 31
0.0
  0
LINE
  5
F7C
330
1149
100
AcDbEntity
  8
240
100
AcDbLine
 10
88.99999999999996
 20
14.5
 30
0.0
 11
88.99999999999996
 21
13.0
 31
0.0
  0
LINE
  5
F7D
330
1149
100
AcDbEntity
  8
240
100
AcDbLine
 10
89.49999999999991
 20
16.69999999999999
 30
0.0
 11
89.49999999999991
 21
14.99999999999994
 31
0.0
  0
LINE
  5
F7F
330
1149
100
AcDbEntity
  8
241
100
AcDbLine
 10
98.49999999999997
 20
2.0
 30
0.0
 11
98.49999999999997
 21
0.0
 31
0.0
  0
LINE
  5
F84
330
1149
100
AcDbEntity
  8
241
100
AcDbLine
 10
98.49999999999997
 20
16.05614492491355
 30
0.0
 11
98.49999999999997
 21
14.05614492491361
 31
0.0
  0
LINE
  5
F85
330
1149
100
AcDbEntity
  8
240
100
AcDbLine
 10
104.7949747468305
 20
16.45502525316942
 30
0.0
 11
103.9843145750506
 21
17.26568542494925
 31
0.0
  0
ARC
  5
F86
330
1149
100
AcDbEntity
  8
240
100
AcDbCircle
 10
104.2999999999999
 20
15.9600505063388
 30
0.0
 40
0.700000000000017
100
AcDbArc
 50
0.0
 51
45.00000000000057
  0
ARC
  5
F87
330
1149
100
AcDbEntity
  8
240
100
AcDbCircle
 10
103.4186291501014
 20
16.69999999999999
 30
0.0
 40
0.7999999999999984
100
AcDbArc
 50
45.0
 51
90.0
  0
DIMENSION
  5
F98
330
1149
100
AcDbEntity
  8
250
100
AcDbDimension
280
     0
  2
*D2
 10
109.8996267980589
 20
22.73845004377072
 30
0.0
 11
114.5512834756813
 21
26.6495789505962
 31
0.0
 70
   160
 71
     5
 42
4.899626798058904
 73
     0
 74
     0
 75
     0
  3
BIGT
100
AcDbAlignedDimension
 13
105.0
 23
15.9600505063388
 33
0.0
 14
109.8996267980589
 24
16.05666823381377
 34
0.0
100
AcDbRotatedDimension
1001
ACAD
1000
DSTYLE
1002
{
1070
   271
1070
     1
1070
   179
1070
     3
1070
    79
1070
     2
1070
   371
1070
    -1
1070
   372
1070
    -1
1070
   279
1070
     2
1070
   140
1040
3.0
1070
    78
1070
     8
1002
}
  0
LINE
  5
FA9
330
1149
100
AcDbEntity
  8
240
100
AcDbLine
 10
104.9999999999999
 20
14.34999999999999
 30
0.0
 11
109.8996267980589
 21
9.699959406777678
 31
0.0
  0
LINE
  5
FAA
330
1149
100
AcDbEntity
  8
240
100
AcDbLine
 10
104.9999999999999
 20
-14.35000000000001
 30
0.0
 11
109.8996267980589
 21
-9.70004059322232
 31
0.0
  0
DIMENSION
  5
FAC
330
1149
100
AcDbEntity
  8
250
100
AcDbDimension
280
     0
  2
*D3
 10
130.4527801286043
 20
-14.35000000000001
 30
0.0
 11
127.9527801286043
 21
-0.0000000000000107
 31
0.0
 70
    32
  1
∅28.7
 71
     5
 42
-1.0
 73
     0
 74
     0
 75
     0
  3
BIGT
100
AcDbAlignedDimension
 13
104.9999999999999
 23
14.34999999999999
 33
0.0
 14
104.9999999999999
 24
-14.35
 34
0.0
 50
90.0
100
AcDbRotatedDimension
1001
ACAD
1000
DSTYLE
1002
{
1070
   179
1070
     3
1070
    79
1070
     2
1070
   371
1070
    -1
1070
   372
1070
    -1
1070
   279
1070
     2
1070
   140
1040
3.0
1070
    78
1070
     8
1002
}
  0
LINE
  5
1100
330
1149
100
AcDbEntity
  8
240
100
AcDbLine
 10
109.8996267980589
 20
9.699959406777678
 30
0.0
 11
109.8996267980589
 21
-9.70004059322232
 31
0.0
  0
DIMENSION
  5
1101
330
1149
100
AcDbEntity
  8
250
100
AcDbDimension
280
     0
  2
*D5
 10
119.2847287086558
 20
-9.70004059322232
 30
0.0
 11
116.7847287086558
 21
-0.0000405932223213
 31
0.0
 70
    32
  1
∅19.4
 71
     5
 42
-1.0
 73
     0
 74
     0
 75
     0
  3
BIGT
100
AcDbAlignedDimension
 13
109.8996267980589
 23
9.699959406777678
 33
0.0
 14
109.8996267980589
 24
-9.70004059322232
 34
0.0
 50
90.0
100
AcDbRotatedDimension
1001
ACAD
1000
DSTYLE
1002
{
1070
   179
1070
     3
1070
    79
1070
     2
1070
   371
1070
    -1
1070
   372
1070
    -1
1070
   279
1070
     2
1070
   140
1040
3.0
1070
    78
1070
     8
1002
}
  0
DIMENSION
  5
110E
330
1149
100
AcDbEntity
  8
250
100
AcDbDimension
280
     0
  2
*D6
 10
105.0
 20
34.45389788191682
 30
0.0
 11
97.24999999999999
 21
36.95389788191682
 31
0.0
 70
    32
 71
     5
 42
-1.0
 73
     0
 74
     0
 75
     0
  3
BIGT
100
AcDbAlignedDimension
 13
89.49999999999997
 23
15.0
 33
0.0
 14
105.0
 24
14.99999999999995
 34
0.0
100
AcDbRotatedDimension
1001
ACAD
1000
DSTYLE
1002
{
1070
   179
1070
     3
1070
    79
1070
     2
1070
   371
1070
    -1
1070
   372
1070
    -1
1070
   279
1070
     2
1070
   140
1040
3.0
1070
    78
1070
     8
1002
}
  0
VIEWPORT
  5
22
330
1147
100
AcDbEntity
 67
     1
  8
0
100
AcDbViewport
 10
261.5176991150442
 20
148.5
 30
0.0
 40
523.0353982300885
 41
297.0
 68
     1
 69
    -1
 12
261.5176991150442
 22
148.5
 13
0.0
 23
0.0
 14
1.0
 24
1.0
 15
10.0
 25
10.0
 16
0.0
 26
0.0
 36
1.0
 17
0.0
 27
0.0
 37
0.0
 42
50.0
 43
0.0
 44
0.0
 45
297.0
 50
0.0
 51
0.0
 72
   100
 90
   557216
  1

281
     0
 71
     0
 74
     0
110
0.0
120
0.0
130
0.0
111
1.0
121
0.0
131
0.0
112
0.0
122
1.0
132
0.0
 79
     0
146
0.0
170
     0
 61
     5
292
     1
282
     1
141
0.0
142
0.0
 63
   256
  0
ENDSEC
  0
SECTION
  2
OBJECTS
  0
DICTIONARY
  5
1139
330
0
100
AcDbDictionary
281
     1
  3
ACAD_GROUP
350
113A
  3
ACAD_IMAGE_VARS
350
11AD
  3
ACAD_LAYOUT
350
1146
  3
ACAD_MATERIAL
350
114F
  3
ACAD_MLEADERSTYLE
350
11B4
  3
ACAD_MLINESTYLE
350
1143
  3
ACAD_PLOTSETTINGS
350
1145
  3
ACAD_PLOTSTYLENAME
350
113B
  3
ACAD_SCALELIST
350
1177
  3
ACAD_TABLESTYLE
350
11AA
  3
ACAD_VISUALSTYLE
350
1199
  3
ACDB_RECOMPOSE_DATA
350
11B2
  3
AcDbVariableDictionary
350
11AE
  3
APPDATA
350
11AC
  0
DICTIONARY
  5
113A
102
{ACAD_REACTORS
330
1139
102
}
330
1139
100
AcDbDictionary
281
     1
  0
RASTERVARIABLES
  5
11AD
102
{ACAD_REACTORS
330
1139
102
}
330
1139
100
AcDbRasterVariables
 90
        0
 70
     1
 71
     1
 72
     0
  0
DICTIONARY
  5
1146
102
{ACAD_REACTORS
330
1139
102
}
330
1139
100
AcDbDictionary
281
     1
  3
Model
350
114A
  3
Sheet 1
350
1148
  0
DICTIONARY
  5
114F
102
{ACAD_REACTORS
330
1139
102
}
330
1139
100
AcDbDictionary
281
     1
  3
ByBlock
350
1151
  3
ByLayer
350
1150
  3
Global
350
1152
  0
DICTIONARY
  5
11B4
102
{ACAD_REACTORS
330
1139
102
}
330
1139
100
AcDbDictionary
281
     1
  0
DICTIONARY
  5
1143
102
{ACAD_REACTORS
330
1139
102
}
330
1139
100
AcDbDictionary
281
     1
  3
Standard
350
1144
  0
DICTIONARY
  5
1145
102
{ACAD_REACTORS
330
1139
102
}
330
1139
100
AcDbDictionary
281
     1
  0
ACDBDICTIONARYWDFLT
  5
113B
102
{ACAD_REACTORS
330
1139
102
}
330
1139
100
AcDbDictionary
281
     1
  3
Normal
350
113C
100
AcDbDictionaryWithDefault
340
113C
  0
DICTIONARY
  5
1177
102
{ACAD_REACTORS
330
1139
102
}
330
1139
100
AcDbDictionary
281
     1
  3
A0
350
1178
  3
A1
350
1179
  3
A2
350
117A
  3
A3
350
117B
  3
A4
350
117C
  3
A5
350
117D
  3
A6
350
117E
  3
A7
350
117F
  3
A8
350
1180
  3
A9
350
1181
  3
B0
350
1182
  3
B1
350
1183
  3
B2
350
1184
  3
B3
350
1185
  3
B4
350
1186
  3
B5
350
1187
  3
B6
350
1188
  3
B7
350
1189
  3
B8
350
118A
  3
B9
350
118B
  3
C0
350
118C
  3
C1
350
118D
  3
C2
350
118E
  3
C3
350
118F
  3
C4
350
1190
  3
C5
350
1191
  3
C6
350
1192
  3
C7
350
1193
  3
C8
350
1194
  3
C9
350
1195
  3
D0
350
1196
  3
D1
350
1197
  3
D2
350
1198
  0
DICTIONARY
  5
11AA
102
{ACAD_REACTORS
330
1139
102
}
330
1139
100
AcDbDictionary
281
     1
  3
Standard
350
11AB
  0
DICTIONARY
  5
1199
102
{ACAD_REACTORS
330
1139
102
}
330
1139
100
AcDbDictionary
281
     1
  3
2dWireframe
350
119E
  3
3D Hidden
350
11A0
  3
3dWireframe
350
119F
  3
Basic
350
11A1
  3
Brighten
350
11A5
  3
ColorChange
350
11A9
  3
Conceptual
350
11A3
  3
Dim
350
11A4
  3
Facepattern
350
11A8
  3
Flat
350
119A
  3
FlatWithEdges
350
119B
  3
Gouraud
350
119C
  3
GouraudWithEdges
350
119D
  3
Linepattern
350
11A7
  3
Realistic
350
11A2
  3
Thicken
350
11A6
  0
XRECORD
  5
11B2
102
{ACAD_REACTORS
330
1139
102
}
330
1139
100
AcDbXrecord
280
     1
 90
        1
330
11AB
  0
DICTIONARY
  5
11AE
102
{ACAD_REACTORS
330
1139
102
}
330
1139
100
AcDbDictionary
281
     1
  3
CANNOSCALE
350
11AF
  3
CTABLESTYLE
350
11B3
  0
DICTIONARY
  5
11AC
102
{ACAD_REACTORS
330
1139
102
}
330
1139
100
AcDbDictionary
281
     1
  0
LAYOUT
  5
114A
102
{ACAD_REACTORS
330
1146
102
}
330
1146
100
AcDbPlotSettings
  1

  2
none_device
  4

  6

 40
0.0
 41
0.0
 42
0.0
 43
0.0
 44
0.0
 45
0.0
 46
0.0
 47
0.0
 48
0.0
 49
0.0
140
0.0
141
0.0
142
1.0
143
1.0
 70
  1712
 72
     0
 73
     0
 74
     0
  7

 75
     0
 76
     0
 77
     2
 78
   300
147
1.0
148
0.0
149
0.0
100
AcDbLayout
  1
Model
 70
     1
 71
     0
 10
0.0
 20
0.0
 11
12.0
 21
9.0
 12
0.0
 22
0.0
 32
0.0
 14
-76.39858687325318
 24
-43.0
 34
0.0
 15
127.0
 25
68.0
 35
0.0
146
0.0
 13
0.0
 23
0.0
 33
0.0
 16
1.0
 26
0.0
 36
0.0
 17
0.0
 27
1.0
 37
0.0
 76
     0
330
1149
331
114C
  0
LAYOUT
  5
1148
102
{ACAD_REACTORS
330
1146
102
}
330
1146
100
AcDbPlotSettings
  1

  2
none_device
  4

  6

 40
0.0
 41
0.0
 42
0.0
 43
0.0
 44
0.0
 45
0.0
 46
0.0
 47
0.0
 48
0.0
 49
0.0
140
0.0
141
0.0
142
1.0
143
1.0
 70
   688
 72
     0
 73
     0
 74
     5
  7

 75
    16
 76
     0
 77
     2
 78
   300
147
1.0
148
0.0
149
0.0
100
AcDbLayout
  1
Sheet 1
 70
     1
 71
     1
 10
0.0
 20
0.0
 11
420.0
 21
297.0
 12
0.0
 22
0.0
 32
0.0
 14
1.000000000000000E+20
 24
1.000000000000000E+20
 34
1.000000000000000E+20
 15
-1.000000000000000E+20
 25
-1.000000000000000E+20
 35
-1.000000000000000E+20
146
0.0
 13
0.0
 23
0.0
 33
0.0
 16
1.0
 26
0.0
 36
0.0
 17
0.0
 27
1.0
 37
0.0
 76
     0
330
1147
331
22
  0
MATERIAL
  5
1151
102
{ACAD_REACTORS
330
114F
102
}
330
114F
100
AcDbMaterial
  1
ByBlock
 72
     1
 94
      127
  0
MATERIAL
  5
1150
102
{ACAD_REACTORS
330
114F
102
}
330
114F
100
AcDbMaterial
  1
ByLayer
 72
     1
 94
      127
  0
MATERIAL
  5
1152
102
{ACAD_REACTORS
330
114F
102
}
330
114F
100
AcDbMaterial
  1
Global
 72
     1
 94
      127
  0
MLINESTYLE
  5
1144
102
{ACAD_REACTORS
330
1143
102
}
330
1143
100
AcDbMlineStyle
  2
Standard
 70
     0
  3

 62
   256
 51
90.0
 52
90.0
 71
     2
 49
0.5
 62
   256
  6
BYLAYER
 49
-0.5
 62
   256
  6
BYLAYER
  0
ACDBPLACEHOLDER
  5
113C
102
{ACAD_REACTORS
330
113B
102
}
330
113B
  0
SCALE
  5
1178
102
{ACAD_REACTORS
330
1177
102
}
330
1177
100
AcDbScale
 70
     0
300
1:1
140
1.0
141
1.0
290
     1
  0
SCALE
  5
1179
102
{ACAD_REACTORS
330
1177
102
}
330
1177
100
AcDbScale
 70
     0
300
1:2
140
1.0
141
2.0
290
     0
  0
SCALE
  5
117A
102
{ACAD_REACTORS
330
1177
102
}
330
1177
100
AcDbScale
 70
     0
300
1:4
140
1.0
141
4.0
290
     0
  0
SCALE
  5
117B
102
{ACAD_REACTORS
330
1177
102
}
330
1177
100
AcDbScale
 70
     0
300
1:5
140
1.0
141
5.0
290
     0
  0
SCALE
  5
117C
102
{ACAD_REACTORS
330
1177
102
}
330
1177
100
AcDbScale
 70
     0
300
1:8
140
1.0
141
8.0
290
     0
  0
SCALE
  5
117D
102
{ACAD_REACTORS
330
1177
102
}
330
1177
100
AcDbScale
 70
     0
300
1:10
140
1.0
141
10.0
290
     0
  0
SCALE
  5
117E
102
{ACAD_REACTORS
330
1177
102
}
330
1177
100
AcDbScale
 70
     0
300
1:16
140
1.0
141
16.0
290
     0
  0
SCALE
  5
117F
102
{ACAD_REACTORS
330
1177
102
}
330
1177
100
AcDbScale
 70
     0
300
1:20
140
1.0
141
20.0
290
     0
  0
SCALE
  5
1180
102
{ACAD_REACTORS
330
1177
102
}
330
1177
100
AcDbScale
 70
     0
300
1:30
140
1.0
141
30.0
290
     0
  0
SCALE
  5
1181
102
{ACAD_REACTORS
330
1177
102
}
330
1177
100
AcDbScale
 70
     0
300
1:40
140
1.0
141
40.0
290
     0
  0
SCALE
  5
1182
102
{ACAD_REACTORS
330
1177
102
}
330
1177
100
AcDbScale
 70
     0
300
1:50
140
1.0
141
50.0
290
     0
  0
SCALE
  5
1183
102
{ACAD_REACTORS
330
1177
102
}
330
1177
100
AcDbScale
 70
     0
300
1:100
140
1.0
141
100.0
290
     0
  0
SCALE
  5
1184
102
{ACAD_REACTORS
330
1177
102
}
330
1177
100
AcDbScale
 70
     0
300
2:1
140
2.0
141
1.0
290
     0
  0
SCALE
  5
1185
102
{ACAD_REACTORS
330
1177
102
}
330
1177
100
AcDbScale
 70
     0
300
4:1
140
4.0
141
1.0
290
     0
  0
SCALE
  5
1186
102
{ACAD_REACTORS
330
1177
102
}
330
1177
100
AcDbScale
 70
     0
300
8:1
140
8.0
141
1.0
290
     0
  0
SCALE
  5
1187
102
{ACAD_REACTORS
330
1177
102
}
330
1177
100
AcDbScale
 70
     0
300
10:1
140
10.0
141
1.0
290
     0
  0
SCALE
  5
1188
102
{ACAD_REACTORS
330
1177
102
}
330
1177
100
AcDbScale
 70
     0
300
100:1
140
100.0
141
1.0
290
     0
  0
SCALE
  5
1189
102
{ACAD_REACTORS
330
1177
102
}
330
1177
100
AcDbScale
 70
     0
300
1/128" = 1'-0"
140
0.0078125
141
12.0
290
     0
  0
SCALE
  5
118A
102
{ACAD_REACTORS
330
1177
102
}
330
1177
100
AcDbScale
 70
     0
300
1/64" = 1'-0"
140
0.015625
141
12.0
290
     0
  0
SCALE
  5
118B
102
{ACAD_REACTORS
330
1177
102
}
330
1177
100
AcDbScale
 70
     0
300
1/32" = 1'-0"
140
0.03125
141
12.0
290
     0
  0
SCALE
  5
118C
102
{ACAD_REACTORS
330
1177
102
}
330
1177
100
AcDbScale
 70
     0
300
1/16" = 1'-0"
140
0.0625
141
12.0
290
     0
  0
SCALE
  5
118D
102
{ACAD_REACTORS
330
1177
102
}
330
1177
100
AcDbScale
 70
     0
300
3/32" = 1'-0"
140
0.09375
141
12.0
290
     0
  0
SCALE
  5
118E
102
{ACAD_REACTORS
330
1177
102
}
330
1177
100
AcDbScale
 70
     0
300
1/8" = 1'-0"
140
0.125
141
12.0
290
     0
  0
SCALE
  5
118F
102
{ACAD_REACTORS
330
1177
102
}
330
1177
100
AcDbScale
 70
     0
300
3/16" = 1'-0"
140
0.1875
141
12.0
290
     0
  0
SCALE
  5
1190
102
{ACAD_REACTORS
330
1177
102
}
330
1177
100
AcDbScale
 70
     0
300
1/4" = 1'-0"
140
0.25
141
12.0
290
     0
  0
SCALE
  5
1191
102
{ACAD_REACTORS
330
1177
102
}
330
1177
100
AcDbScale
 70
     0
300
3/8" = 1'-0"
140
0.375
141
12.0
290
     0
  0
SCALE
  5
1192
102
{ACAD_REACTORS
330
1177
102
}
330
1177
100
AcDbScale
 70
     0
300
1/2" = 1'-0"
140
0.5
141
12.0
290
     0
  0
SCALE
  5
1193
102
{ACAD_REACTORS
330
1177
102
}
330
1177
100
AcDbScale
 70
     0
300
3/4" = 1'-0"
140
0.75
141
12.0
290
     0
  0
SCALE
  5
1194
102
{ACAD_REACTORS
330
1177
102
}
330
1177
100
AcDbScale
 70
     0
300
1" = 1'-0"
140
1.0
141
12.0
290
     0
  0
SCALE
  5
1195
102
{ACAD_REACTORS
330
1177
102
}
330
1177
100
AcDbScale
 70
     0
300
1-1/2" = 1'-0"
140
1.5
141
12.0
290
     0
  0
SCALE
  5
1196
102
{ACAD_REACTORS
330
1177
102
}
330
1177
100
AcDbScale
 70
     0
300
3" = 1'-0"
140
3.0
141
12.0
290
     0
  0
SCALE
  5
1197
102
{ACAD_REACTORS
330
1177
102
}
330
1177
100
AcDbScale
 70
     0
300
6" = 1'-0"
140
6.0
141
12.0
290
     0
  0
SCALE
  5
1198
102
{ACAD_REACTORS
330
1177
102
}
330
1177
100
AcDbScale
 70
     0
300
1'-0" = 1'-0"
140
12.0
141
12.0
290
     0
  0
TABLESTYLE
  5
11AB
102
{ACAD_REACTORS
330
11AA
102
}
102
{ACAD_XDICTIONARY
360
11B0
102
}
330
11AA
100
AcDbTableStyle
  3
Standard
 70
     0
 71
     0
 40
0.06
 41
0.06
280
     0
281
     0
  7
STANDARD
140
0.18
170
     2
 62
     0
 63
   257
283
     0
 90
        4
 91
        0
  1

274
    -2
284
     1
 64
     0
275
    -2
285
     1
 65
     0
276
    -2
286
     1
 66
     0
277
    -2
287
     1
 67
     0
278
    -2
288
     1
 68
     0
279
    -2
289
     1
 69
     0
  7
STANDARD
140
0.25
170
     5
 62
     0
 63
   257
283
     0
 90
        4
 91
        0
  1

274
    -2
284
     1
 64
     0
275
    -2
285
     1
 65
     0
276
    -2
286
     1
 66
     0
277
    -2
287
     1
 67
     0
278
    -2
288
     1
 68
     0
279
    -2
289
     1
 69
     0
  7
STANDARD
140
0.18
170
     5
 62
     0
 63
   257
283
     0
 90
        4
 91
        0
  1

274
    -2
284
     1
 64
     0
275
    -2
285
     1
 65
     0
276
    -2
286
     1
 66
     0
277
    -2
287
     1
 67
     0
278
    -2
288
     1
 68
     0
279
    -2
289
     1
 69
     0
  0
VISUALSTYLE
  5
119E
102
{ACAD_REACTORS
330
1199
102
}
330
1199
100
AcDbVisualStyle
  2
2dWireframe
 70
     4
177
     2
291
     0
 71
     0
176
     1
 72
     2
176
     1
 73
     0
176
     1
 90
        0
176
     1
 40
-0.6
176
     1
 41
-30.0
176
     1
 62
     5
 63
     7
421
 16777215
176
     1
 74
     1
176
     1
 91
        4
176
     1
 64
     7
176
     1
 65
   257
176
     1
 75
     1
176
     1
175
     1
176
     1
 42
1.0
176
     1
 92
        0
176
     1
 66
   257
176
     1
 43
1.0
176
     1
 76
     1
176
     1
 77
     6
176
     1
 78
     2
176
     1
 67
     7
176
     1
 79
     5
176
     1
170
     0
176
     1
171
     0
176
     1
290
     0
176
     1
 93
        1
176
     1
 44
0.0
176
     1
173
     0
176
     1
  0
VISUALSTYLE
  5
11A0
102
{ACAD_REACTORS
330
1199
102
}
330
1199
100
AcDbVisualStyle
  2
3D Hidden
 70
     6
177
     2
291
     0
 71
     1
176
     1
 72
     2
176
     1
 73
     2
176
     1
 90
        0
176
     1
 40
-0.6
176
     1
 41
-30.0
176
     1
 62
     5
 63
     7
421
 16777215
176
     1
 74
     2
176
     1
 91
        2
176
     1
 64
     7
176
     1
 65
   257
176
     1
 75
     2
176
     1
175
     1
176
     1
 42
40.0
176
     1
 92
        0
176
     1
 66
   257
176
     1
 43
1.0
176
     1
 76
     1
176
     1
 77
     6
176
     1
 78
     2
176
     1
 67
     7
176
     1
 79
     3
176
     1
170
     0
176
     1
171
     0
176
     1
290
     0
176
     1
 93
        1
176
     1
 44
0.0
176
     1
173
     0
176
     1
  0
VISUALSTYLE
  5
119F
102
{ACAD_REACTORS
330
1199
102
}
330
1199
100
AcDbVisualStyle
  2
3dWireframe
 70
     5
177
     2
291
     0
 71
     0
176
     1
 72
     2
176
     1
 73
     0
176
     1
 90
        0
176
     1
 40
-0.6
176
     1
 41
-30.0
176
     1
 62
     5
 63
     7
421
 16777215
176
     1
 74
     1
176
     1
 91
        4
176
     1
 64
     7
176
     1
 65
   257
176
     1
 75
     1
176
     1
175
     1
176
     1
 42
1.0
176
     1
 92
        0
176
     1
 66
   257
176
     1
 43
1.0
176
     1
 76
     1
176
     1
 77
     6
176
     1
 78
     2
176
     1
 67
     7
176
     1
 79
     5
176
     1
170
     0
176
     1
171
     0
176
     1
290
     0
176
     1
 93
        1
176
     1
 44
0.0
176
     1
173
     0
176
     1
  0
VISUALSTYLE
  5
11A1
102
{ACAD_REACTORS
330
1199
102
}
330
1199
100
AcDbVisualStyle
  2
Basic
 70
     7
177
     2
291
     1
 71
     1
176
     1
 72
     0
176
     1
 73
     1
176
     1
 90
        0
176
     1
 40
-0.6
176
     1
 41
-30.0
176
     1
 62
     5
 63
     7
421
 16777215
176
     1
 74
     0
176
     1
 91
        4
176
     1
 64
     7
176
     1
 65
   257
176
     1
 75
     1
176
     1
175
     1
176
     1
 42
1.0
176
     1
 92
        8
176
     1
 66
     7
176
     1
 43
1.0
176
     1
 76
     1
176
     1
 77
     6
176
     1
 78
     2
176
     1
 67
     7
176
     1
 79
     5
176
     1
170
     0
176
     1
171
     0
176
     1
290
     0
176
     1
 93
        1
176
     1
 44
0.0
176
     1
173
     0
176
     1
  0
VISUALSTYLE
  5
11A5
102
{ACAD_REACTORS
330
1199
102
}
330
1199
100
AcDbVisualStyle
  2
Brighten
 70
    12
177
     2
291
     1
 71
     2
176
     1
 72
     2
176
     1
 73
     0
176
     1
 90
        0
176
     1
 40
-0.6
176
     1
 41
-30.0
176
     1
 62
     5
 63
     7
421
 16777215
176
     1
 74
     1
176
     1
 91
        4
176
     1
 64
     7
176
     1
 65
   257
176
     1
 75
     1
176
     1
175
     1
176
     1
 42
1.0
176
     1
 92
        8
176
     1
 66
     7
176
     1
 43
1.0
176
     1
 76
     1
176
     1
 77
     6
176
     1
 78
     2
176
     1
 67
     7
176
     1
 79
     5
176
     1
170
     0
176
     1
171
     0
176
     1
290
     0
176
     1
 93
        1
176
     1
 44
50.0
176
     1
173
     0
176
     1
  0
VISUALSTYLE
  5
11A9
102
{ACAD_REACTORS
330
1199
102
}
330
1199
100
AcDbVisualStyle
  2
ColorChange
 70
    16
177
     2
291
     1
 71
     2
176
     1
 72
     2
176
     1
 73
     3
176
     1
 90
        0
176
     1
 40
-0.6
176
     1
 41
-30.0
176
     1
 62
     5
 63
     8
421
  8421504
176
     1
 74
     1
176
     1
 91
        4
176
     1
 64
     7
176
     1
 65
   257
176
     1
 75
     1
176
     1
175
     1
176
     1
 42
1.0
176
     1
 92
        8
176
     1
 66
     8
424
  8421504
176
     1
 43
1.0
176
     1
 76
     1
176
     1
 77
     6
176
     1
 78
     2
176
     1
 67
     7
176
     1
 79
     5
176
     1
170
     0
176
     1
171
     0
176
     1
290
     0
176
     1
 93
        1
176
     1
 44
0.0
176
     1
173
     0
176
     1
  0
VISUALSTYLE
  5
11A3
102
{ACAD_REACTORS
330
1199
102
}
330
1199
100
AcDbVisualStyle
  2
Conceptual
 70
     9
177
     2
291
     0
 71
     3
176
     1
 72
     2
176
     1
 73
     0
176
     1
 90
        0
176
     1
 40
-0.6
176
     1
 41
-30.0
176
     1
 62
     5
 63
     7
421
 16777215
176
     1
 74
     2
176
     1
 91
        2
176
     1
 64
     7
176
     1
 65
   257
176
     1
 75
     1
176
     1
175
     1
176
     1
 42
40.0
176
     1
 92
        8
176
     1
 66
     7
176
     1
 43
1.0
176
     1
 76
     1
176
     1
 77
     6
176
     1
 78
     2
176
     1
 67
     7
176
     1
 79
     3
176
     1
170
     0
176
     1
171
     0
176
     1
290
     0
176
     1
 93
        1
176
     1
 44
0.0
176
     1
173
     0
176
     1
  0
VISUALSTYLE
  5
11A4
102
{ACAD_REACTORS
330
1199
102
}
330
1199
100
AcDbVisualStyle
  2
Dim
 70
    11
177
     2
291
     1
 71
     2
176
     1
 72
     2
176
     1
 73
     0
176
     1
 90
        0
176
     1
 40
-0.6
176
     1
 41
-30.0
176
     1
 62
     5
 63
     7
421
 16777215
176
     1
 74
     1
176
     1
 91
        4
176
     1
 64
     7
176
     1
 65
   257
176
     1
 75
     1
176
     1
175
     1
176
     1
 42
1.0
176
     1
 92
        8
176
     1
 66
     7
176
     1
 43
1.0
176
     1
 76
     1
176
     1
 77
     6
176
     1
 78
     2
176
     1
 67
     7
176
     1
 79
     5
176
     1
170
     0
176
     1
171
     0
176
     1
290
     0
176
     1
 93
        1
176
     1
 44
-50.0
176
     1
173
     0
176
     1
  0
VISUALSTYLE
  5
11A8
102
{ACAD_REACTORS
330
1199
102
}
330
1199
100
AcDbVisualStyle
  2
Facepattern
 70
    15
177
     2
291
     1
 71
     2
176
     1
 72
     2
176
     1
 73
     0
176
     1
 90
        0
176
     1
 40
-0.6
176
     1
 41
-30.0
176
     1
 62
     5
 63
     7
421
 16777215
176
     1
 74
     1
176
     1
 91
        4
176
     1
 64
     7
176
     1
 65
   257
176
     1
 75
     1
176
     1
175
     1
176
     1
 42
1.0
176
     1
 92
        8
176
     1
 66
     7
176
     1
 43
1.0
176
     1
 76
     1
176
     1
 77
     6
176
     1
 78
     2
176
     1
 67
     7
176
     1
 79
     5
176
     1
170
     0
176
     1
171
     0
176
     1
290
     0
176
     1
 93
        1
176
     1
 44
0.0
176
     1
173
     0
176
     1
  0
VISUALSTYLE
  5
119A
102
{ACAD_REACTORS
330
1199
102
}
330
1199
100
AcDbVisualStyle
  2
Flat
 70
     0
177
     2
291
     1
 71
     2
176
     1
 72
     1
176
     1
 73
     1
176
     1
 90
        2
176
     1
 40
-0.6
176
     1
 41
30.0
176
     1
 62
     5
 63
     7
421
 16777215
176
     1
 74
     0
176
     1
 91
        4
176
     1
 64
     7
176
     1
 65
   257
176
     1
 75
     1
176
     1
175
     1
176
     1
 42
1.0
176
     1
 92
        8
176
     1
 66
     7
176
     1
 43
1.0
176
     1
 76
     1
176
     1
 77
     6
176
     1
 78
     2
176
     1
 67
     7
176
     1
 79
     5
176
     1
170
     0
176
     1
171
     0
176
     1
290
     0
176
     1
 93
       13
176
     1
 44
0.0
176
     1
173
     0
176
     1
  0
VISUALSTYLE
  5
119B
102
{ACAD_REACTORS
330
1199
102
}
330
1199
100
AcDbVisualStyle
  2
FlatWithEdges
 70
     1
177
     2
291
     1
 71
     2
176
     1
 72
     1
176
     1
 73
     1
176
     1
 90
        2
176
     1
 40
-0.6
176
     1
 41
30.0
176
     1
 62
     5
 63
     7
421
 16777215
176
     1
 74
     1
176
     1
 91
        4
176
     1
 64
     7
176
     1
 65
   257
176
     1
 75
     1
176
     1
175
     1
176
     1
 42
1.0
176
     1
 92
        0
176
     1
 66
   257
176
     1
 43
1.0
176
     1
 76
     1
176
     1
 77
     6
176
     1
 78
     2
176
     1
 67
     7
176
     1
 79
     5
176
     1
170
     0
176
     1
171
     0
176
     1
290
     0
176
     1
 93
       13
176
     1
 44
0.0
176
     1
173
     0
176
     1
  0
VISUALSTYLE
  5
119C
102
{ACAD_REACTORS
330
1199
102
}
330
1199
100
AcDbVisualStyle
  2
Gouraud
 70
     2
177
     2
291
     1
 71
     2
176
     1
 72
     2
176
     1
 73
     1
176
     1
 90
        2
176
     1
 40
-0.6
176
     1
 41
30.0
176
     1
 62
     5
 63
     7
421
 16777215
176
     1
 74
     0
176
     1
 91
        4
176
     1
 64
     7
176
     1
 65
   257
176
     1
 75
     1
176
     1
175
     1
176
     1
 42
1.0
176
     1
 92
        0
176
     1
 66
     7
176
     1
 43
1.0
176
     1
 76
     1
176
     1
 77
     6
176
     1
 78
     2
176
     1
 67
     7
176
     1
 79
     5
176
     1
170
     0
176
     1
171
     0
176
     1
290
     0
176
     1
 93
       13
176
     1
 44
0.0
176
     1
173
     0
176
     1
  0
VISUALSTYLE
  5
119D
102
{ACAD_REACTORS
330
1199
102
}
330
1199
100
AcDbVisualStyle
  2
GouraudWithEdges
 70
     3
177
     2
291
     1
 71
     2
176
     1
 72
     2
176
     1
 73
     1
176
     1
 90
        2
176
     1
 40
-0.6
176
     1
 41
30.0
176
     1
 62
     5
 63
     7
421
 16777215
176
     1
 74
     1
176
     1
 91
        4
176
     1
 64
     7
176
     1
 65
   257
176
     1
 75
     1
176
     1
175
     1
176
     1
 42
1.0
176
     1
 92
        0
176
     1
 66
   257
176
     1
 43
1.0
176
     1
 76
     1
176
     1
 77
     6
176
     1
 78
     2
176
     1
 67
     7
176
     1
 79
     5
176
     1
170
     0
176
     1
171
     0
176
     1
290
     0
176
     1
 93
       13
176
     1
 44
0.0
176
     1
173
     0
176
     1
  0
VISUALSTYLE
  5
11A7
102
{ACAD_REACTORS
330
1199
102
}
330
1199
100
AcDbVisualStyle
  2
Linepattern
 70
    14
177
     2
291
     1
 71
     2
176
     1
 72
     2
176
     1
 73
     0
176
     1
 90
        0
176
     1
 40
-0.6
176
     1
 41
-30.0
176
     1
 62
     5
 63
     7
421
 16777215
176
     1
 74
     1
176
     1
 91
        4
176
     1
 64
     7
176
     1
 65
   257
176
     1
 75
     7
176
     1
175
     7
176
     1
 42
1.0
176
     1
 92
        8
176
     1
 66
     7
176
     1
 43
1.0
176
     1
 76
     1
176
     1
 77
     6
176
     1
 78
     2
176
     1
 67
     7
176
     1
 79
     5
176
     1
170
     0
176
     1
171
     0
176
     1
290
     0
176
     1
 93
        1
176
     1
 44
0.0
176
     1
173
     0
176
     1
  0
VISUALSTYLE
  5
11A2
102
{ACAD_REACTORS
330
1199
102
}
330
1199
100
AcDbVisualStyle
  2
Realistic
 70
     8
177
     2
291
     0
 71
     2
176
     1
 72
     2
176
     1
 73
     0
176
     1
 90
        0
176
     1
 40
-0.6
176
     1
 41
-30.0
176
     1
 62
     5
 63
     7
421
 16777215
176
     1
 74
     1
176
     1
 91
        0
176
     1
 64
     7
176
     1
 65
   257
176
     1
 75
     1
176
     1
175
     1
176
     1
 42
1.0
176
     1
 92
        8
176
     1
 66
     8
424
  7895160
176
     1
 43
1.0
176
     1
 76
     1
176
     1
 77
     6
176
     1
 78
     2
176
     1
 67
     7
176
     1
 79
     5
176
     1
170
     0
176
     1
171
     0
176
     1
290
     0
176
     1
 93
       13
176
     1
 44
0.0
176
     1
173
     0
176
     1
  0
VISUALSTYLE
  5
11A6
102
{ACAD_REACTORS
330
1199
102
}
330
1199
100
AcDbVisualStyle
  2
Thicken
 70
    13
177
     2
291
     1
 71
     2
176
     1
 72
     2
176
     1
 73
     0
176
     1
 90
        0
176
     1
 40
-0.6
176
     1
 41
-30.0
176
     1
 62
     5
 63
     7
421
 16777215
176
     1
 74
     1
176
     1
 91
        4
176
     1
 64
     7
176
     1
 65
   257
176
     1
 75
     1
176
     1
175
     1
176
     1
 42
1.0
176
     1
 92
       12
176
     1
 66
     7
176
     1
 43
1.0
176
     1
 76
     1
176
     1
 77
     6
176
     1
 78
     2
176
     1
 67
     7
176
     1
 79
     5
176
     1
170
     0
176
     1
171
     0
176
     1
290
     0
176
     1
 93
        1
176
     1
 44
0.0
176
     1
173
     0
176
     1
  0
DICTIONARYVAR
  5
11AF
102
{ACAD_REACTORS
330
11AE
102
}
330
11AE
100
DictionaryVariables
280
     0
  1
1:1
  0
DICTIONARYVAR
  5
11B3
102
{ACAD_REACTORS
330
11AE
102
}
330
11AE
100
DictionaryVariables
280
     0
  1
Standard
  0
DICTIONARY
  5
11B0
330
11AB
100
AcDbDictionary
280
     1
281
     1
  3
ACAD_ROUNDTRIP_2008_TABLESTYLE_CELLSTYLEMAP
360
11B1
  0
CELLSTYLEMAP
  5
11B1
102
{ACAD_REACTORS
330
11B0
102
}
330
11B0
100
AcDbCellStyleMap
 90
        3
300
CELLSTYLE
  1
TABLEFORMAT_BEGIN
 90
        5
170
     1
 91
        0
 92
        0
 62
   257
 93
        1
300
CONTENTFORMAT
  1
CONTENTFORMAT_BEGIN
 90
        0
 91
        0
 92
        4
 93
        0
300

 40
0.0
140
1.0
 94
        5
 62
     0
340
113E
144
0.25
309
CONTENTFORMAT_END
171
     1
301
MARGIN
  1
CELLMARGIN_BEGIN
 40
0.06
 40
0.06
 40
0.06
 40
0.06
 40
0.06
 40
0.06
309
CELLMARGIN_END
 94
        6
 95
        1
302
GRIDFORMAT
  1
GRIDFORMAT_BEGIN
 90
        0
 91
        1
 62
     0
 92
       -2
340
1140
 93
        0
 40
0.045
309
GRIDFORMAT_END
 95
        2
302
GRIDFORMAT
  1
GRIDFORMAT_BEGIN
 90
        0
 91
        1
 62
     0
 92
       -2
340
1140
 93
        0
 40
0.045
309
GRIDFORMAT_END
 95
        4
302
GRIDFORMAT
  1
GRIDFORMAT_BEGIN
 90
        0
 91
        1
 62
     0
 92
       -2
340
1140
 93
        0
 40
0.045
309
GRIDFORMAT_END
 95
        8
302
GRIDFORMAT
  1
GRIDFORMAT_BEGIN
 90
        0
 91
        1
 62
     0
 92
       -2
340
1140
 93
        0
 40
0.045
309
GRIDFORMAT_END
 95
       16
302
GRIDFORMAT
  1
GRIDFORMAT_BEGIN
 90
        0
 91
        1
 62
     0
 92
       -2
340
1140
 93
        0
 40
0.045
309
GRIDFORMAT_END
 95
       32
302
GRIDFORMAT
  1
GRIDFORMAT_BEGIN
 90
        0
 91
        1
 62
     0
 92
       -2
340
1140
 93
        0
 40
0.045
309
GRIDFORMAT_END
309
TABLEFORMAT_END
  1
CELLSTYLE_BEGIN
 90
        1
 91
        1
300
_TITLE
309
CELLSTYLE_END
300
CELLSTYLE
  1
TABLEFORMAT_BEGIN
 90
        5
170
     1
 91
        0
 92
        0
 62
   257
 93
        1
300
CONTENTFORMAT
  1
CONTENTFORMAT_BEGIN
 90
        0
 91
        0
 92
        4
 93
        0
300

 40
0.0
140
1.0
 94
        5
 62
     0
340
113E
144
0.18
309
CONTENTFORMAT_END
171
     1
301
MARGIN
  1
CELLMARGIN_BEGIN
 40
0.06
 40
0.06
 40
0.06
 40
0.06
 40
0.06
 40
0.06
309
CELLMARGIN_END
 94
        6
 95
        1
302
GRIDFORMAT
  1
GRIDFORMAT_BEGIN
 90
        0
 91
        1
 62
     0
 92
       -2
340
1140
 93
        0
 40
0.045
309
GRIDFORMAT_END
 95
        2
302
GRIDFORMAT
  1
GRIDFORMAT_BEGIN
 90
        0
 91
        1
 62
     0
 92
       -2
340
1140
 93
        0
 40
0.045
309
GRIDFORMAT_END
 95
        4
302
GRIDFORMAT
  1
GRIDFORMAT_BEGIN
 90
        0
 91
        1
 62
     0
 92
       -2
340
1140
 93
        0
 40
0.045
309
GRIDFORMAT_END
 95
        8
302
GRIDFORMAT
  1
GRIDFORMAT_BEGIN
 90
        0
 91
        1
 62
     0
 92
       -2
340
1140
 93
        0
 40
0.045
309
GRIDFORMAT_END
 95
       16
302
GRIDFORMAT
  1
GRIDFORMAT_BEGIN
 90
        0
 91
        1
 62
     0
 92
       -2
340
1140
 93
        0
 40
0.045
309
GRIDFORMAT_END
 95
       32
302
GRIDFORMAT
  1
GRIDFORMAT_BEGIN
 90
        0
 91
        1
 62
     0
 92
       -2
340
1140
 93
        0
 40
0.045
309
GRIDFORMAT_END
309
TABLEFORMAT_END
  1
CELLSTYLE_BEGIN
 90
        2
 91
        1
300
_HEADER
309
CELLSTYLE_END
300
CELLSTYLE
  1
TABLEFORMAT_BEGIN
 90
        5
170
     1
 91
        0
 92
        0
 62
   257
 93
        1
300
CONTENTFORMAT
  1
CONTENTFORMAT_BEGIN
 90
        0
 91
        0
 92
        4
 93
        0
300

 40
0.0
140
1.0
 94
        2
 62
     0
340
113E
144
0.18
309
CONTENTFORMAT_END
171
     1
301
MARGIN
  1
CELLMARGIN_BEGIN
 40
0.06
 40
0.06
 40
0.06
 40
0.06
 40
0.06
 40
0.06
309
CELLMARGIN_END
 94
        6
 95
        1
302
GRIDFORMAT
  1
GRIDFORMAT_BEGIN
 90
        0
 91
        1
 62
     0
 92
       -2
340
1140
 93
        0
 40
0.045
309
GRIDFORMAT_END
 95
        2
302
GRIDFORMAT
  1
GRIDFORMAT_BEGIN
 90
        0
 91
        1
 62
     0
 92
       -2
340
1140
 93
        0
 40
0.045
309
GRIDFORMAT_END
 95
        4
302
GRIDFORMAT
  1
GRIDFORMAT_BEGIN
 90
        0
 91
        1
 62
     0
 92
       -2
340
1140
 93
        0
 40
0.045
309
GRIDFORMAT_END
 95
        8
302
GRIDFORMAT
  1
GRIDFORMAT_BEGIN
 90
        0
 91
        1
 62
     0
 92
       -2
340
1140
 93
        0
 40
0.045
309
GRIDFORMAT_END
 95
       16
302
GRIDFORMAT
  1
GRIDFORMAT_BEGIN
 90
        0
 91
        1
 62
     0
 92
       -2
340
1140
 93
        0
 40
0.045
309
GRIDFORMAT_END
 95
       32
302
GRIDFORMAT
  1
GRIDFORMAT_BEGIN
 90
        0
 91
        1
 62
     0
 92
       -2
340
1140
 93
        0
 40
0.045
309
GRIDFORMAT_END
309
TABLEFORMAT_END
  1
CELLSTYLE_BEGIN
 90
        3
 91
        2
300
_DATA
309
CELLSTYLE_END
  0
ENDSEC
  0
EOF
