  0
SECTION
  2
HEADER
  9
$ACADVER
  1
AC1009
  9
$DWGCODEPAGE
  3
ansi_932
  9
$INSBASE
 10
0.0
 20
0.0
 30
0.0
  9
$EXTMIN
 10
-76.39858687325318
 20
-43.0
 30
0.0
  9
$EXTMAX
 10
99.0
 20
68.0
 30
0.0
  9
$LIMMIN
 10
0.0
 20
0.0
  9
$LIMMAX
 10
297.0
 20
210.0
  9
$ORTHOMODE
 70
     1
  9
$REGENMODE
 70
     1
  9
$FILLMODE
 70
     1
  9
$QTEXTMODE
 70
     0
  9
$MIRRTEXT
 70
     1
  9
$DRAGMODE
 70
     2
  9
$LTSCALE
 40
10.0
  9
$OSMODE
 70
   511
  9
$ATTMODE
 70
     1
  9
$TEXTSIZE
 40
3.0
  9
$TRACEWID
 40
1.0
  9
$TEXTSTYLE
  7
YOKO
  9
$CLAYER
  8
240
  9
$CELTYPE
  6
BYLAYER
  9
$CECOLOR
 62
   256
  9
$DIMSCALE
 40
1.0
  9
$DIMASZ
 40
2.229999999999999
  9
$DIMEXO
 40
0.5
  9
$DIMDLI
 40
2.5
  9
$DIMRND
 40
0.0
  9
$DIMDLE
 40
0.0
  9
$DIMEXE
 40
1.0
  9
$DIMTP
 40
0.0
  9
$DIMTM
 40
0.0
  9
$DIMTXT
 40
3.0
  9
$DIMCEN
 40
0.0
  9
$DIMTSZ
 40
0.0
  9
$DIMTOL
 70
     0
  9
$DIMLIM
 70
     0
  9
$DIMTIH
 70
     0
  9
$DIMTOH
 70
     0
  9
$DIMSE1
 70
     0
  9
$DIMSE2
 70
     0
  9
$DIMTAD
 70
     3
  9
$DIMZIN
 70
     8
  9
$DIMBLK
  1
OPEN
  9
$DIMASO
 70
     1
  9
$DIMSHO
 70
     1
  9
$DIMPOST
  1

  9
$DIMAPOST
  1

  9
$DIMALT
 70
     0
  9
$DIMALTD
 70
     2
  9
$DIMALTF
 40
25.4
  9
$DIMLFAC
 40
1.0
  9
$DIMTOFL
 70
     1
  9
$DIMTVP
 40
0.0
  9
$DIMTIX
 70
     0
  9
$DIMSOXD
 70
     0
  9
$DIMSAH
 70
     0
  9
$DIMBLK1
  1

  9
$DIMBLK2
  1

  9
$DIMSTYLE
  2
BIGT
  9
$DIMCLRD
 70
   256
  9
$DIMCLRE
 70
   256
  9
$DIMCLRT
 70
    40
  9
$DIMTFAC
 40
1.0
  9
$DIMGAP
 40
1.0
  9
$LUNITS
 70
     2
  9
$LUPREC
 70
     3
  9
$SKETCHINC
 40
1.0
  9
$FILLETRAD
 40
0.0
  9
$AUNITS
 70
     0
  9
$AUPREC
 70
     3
  9
$MENU
  1
.
  9
$ELEVATION
 40
0.0
  9
$PELEVATION
 40
0.0
  9
$THICKNESS
 40
0.0
  9
$LIMCHECK
 70
     0
  9
$CHAMFERA
 40
10.0
  9
$CHAMFERB
 40
10.0
  9
$SKPOLY
 70
     0
  9
$TDCREATE
 40
2452173.487858785
  9
$TDUPDATE
 40
2452370.301482546
  9
$TDINDWG
 40
0.0329125116
  9
$TDUSRTIMER
 40
2455749.565417778
  9
$USRTIMER
 70
     1
  9
$ANGBASE
 50
0.0
  9
$ANGDIR
 70
     0
  9
$PDMODE
 70
    35
  9
$PDSIZE
 40
-5.0
  9
$PLINEWID
 40
0.0
  9
$COORDS
 70
     1
  9
$SPLFRAME
 70
     0
  9
$SPLINETYPE
 70
     6
  9
$SPLINESEGS
 70
     8
  9
$ATTDIA
 70
     0
  9
$ATTREQ
 70
     1
  9
$HANDLING
 70
     1
  9
$HANDSEED
  5
FBD
  9
$SURFTAB1
 70
     6
  9
$SURFTAB2
 70
     6
  9
$SURFTYPE
 70
     6
  9
$SURFU
 70
     6
  9
$SURFV
 70
     6
  9
$UCSNAME
  2

  9
$UCSORG
 10
0.0
 20
0.0
 30
0.0
  9
$UCSXDIR
 10
1.0
 20
0.0
 30
0.0
  9
$UCSYDIR
 10
0.0
 20
1.0
 30
0.0
  9
$PUCSNAME
  2

  9
$PUCSORG
 10
0.0
 20
0.0
 30
0.0
  9
$PUCSXDIR
 10
1.0
 20
0.0
 30
0.0
  9
$PUCSYDIR
 10
0.0
 20
1.0
 30
0.0
  9
$USERI1
 70
     1
  9
$USERI2
 70
     0
  9
$USERI3
 70
     0
  9
$USERI4
 70
     0
  9
$USERI5
 70
     0
  9
$USERR1
 40
0.0
  9
$USERR2
 40
0.0
  9
$USERR3
 40
0.0
  9
$USERR4
 40
0.0
  9
$USERR5
 40
0.0
  9
$WORLDVIEW
 70
     1
  9
$SHADEDGE
 70
     3
  9
$SHADEDIF
 70
    70
  9
$TILEMODE
 70
     1
  9
$MAXACTVP
 70
    16
  9
$PLIMCHECK
 70
     0
  9
$PEXTMIN
 10
1.000000000000000E+20
 20
1.000000000000000E+20
 30
1.000000000000000E+20
  9
$PEXTMAX
 10
-1.000000000000000E+20
 20
-1.000000000000000E+20
 30
-1.000000000000000E+20
  9
$PLIMMIN
 10
0.0
 20
0.0
  9
$PLIMMAX
 10
420.0
 20
297.0
  9
$UNITMODE
 70
     0
  9
$VISRETAIN
 70
     0
  9
$PLINEGEN
 70
     0
  9
$PSLTSCALE
 70
     1
  0
ENDSEC
  0
SECTION
  2
TABLES
  0
TABLE
  2
VPORT
 70
     1
  0
VPORT
  2
*ACTIVE
 70
     0
 10
0.0
 20
0.0
 11
1.0
 21
1.0
 12
79.53420409362258
 22
10.74800917927613
 13
0.0
 23
0.0
 14
7.0
 24
7.0
 15
7.0
 25
7.0
 16
0.0
 26
0.0
 36
1.0
 17
0.0
 27
0.0
 37
0.0
 40
55.27040000000004
 41
1.987603305785124
 42
50.0
 43
0.0
 44
0.0
 50
0.0
 51
0.0
 71
    16
 72
  2000
 73
     1
 74
     0
 75
     0
 76
     0
 77
     0
 78
     0
  0
ENDTAB
  0
TABLE
  2
LTYPE
 70
     4
  0
LTYPE
  2
CONTINUOUS
 70
     0
  3
Solid line
 72
    65
 73
     0
 40
0.0
  0
ENDTAB
  0
TABLE
  2
LAYER
 70
    10
  0
LAYER
  2
0
 70
     0
 62
     7
  6
CONTINUOUS
  0
LAYER
  2
240
 70
     0
 62
     4
  6
CONTINUOUS
  0
LAYER
  2
241
 70
     0
 62
   211
  6
CONTINUOUS
  0
LAYER
  2
250
 70
     0
 62
     3
  6
CONTINUOUS
  0
LAYER
  2
DEFPOINTS
 70
     0
 62
     7
  6
CONTINUOUS
  0
ENDTAB
  0
TABLE
  2
STYLE
 70
     2
  0
STYLE
  2
STANDARD
 70
     0
 40
0.0
 41
1.0
 50
0.0
 71
     0
 42
3.0
  3
romans.shx
  4
BIGFONT.SHX
  0
STYLE
  2
YOKO
 70
     0
 40
0.0
 41
1.0
 50
0.0
 71
     0
 42
3.0
  3
romans.shx
  4
extfont.shx
  0
ENDTAB
  0
TABLE
  2
VIEW
 70
     0
  0
ENDTAB
  0
TABLE
  2
UCS
 70
     0
  0
ENDTAB
  0
TABLE
  2
APPID
 70
     9
  0
APPID
  2
ACAD
 70
     0
  0
APPID
  2
GLOBAL
 70
     0
  0
APPID
  2
DETAIL
 70
     0
  0
APPID
  2
GRPNAME
 70
     0
  0
APPID
  2
GPARA
 70
     0
  0
APPID
  2
ITEMNAME
 70
     0
  0
APPID
  2
HATCH_TYPE
 70
     0
  0
APPID
  2
HATCH_DISPLAY
 70
     0
  0
APPID
  2
HATCH_DISTANCE
 70
     0
  0
ENDTAB
  0
TABLE
  2
DIMSTYLE
 70
     2
  0
DIMSTYLE
  2
STANDARD
 70
     0
  3

  4

  5

  6

  7

 40
1.0
 41
2.0
 42
2.0
 43
3.75
 44
2.0
 45
0.0
 46
0.0
 47
0.0
 48
0.0
140
4.0
141
0.09
142
0.0
143
25.4
144
1.0
145
0.0
146
1.0
147
1.0
 71
     0
 72
     0
 73
     1
 74
     1
 75
     0
 76
     0
 77
     0
 78
     8
170
     0
171
     2
172
     0
173
     1
174
     0
175
     0
176
   256
177
   256
178
   256
  0
DIMSTYLE
  2
BIGT
 70
     0
  3

  4

  5
OPEN
  6

  7

 40
1.0
 41
2.229999999999999
 42
0.5
 43
2.5
 44
1.0
 45
0.0
 46
0.0
 47
0.0
 48
0.0
140
3.5
141
0.0
142
0.0
143
25.4
144
1.0
145
0.0
146
1.0
147
1.0
 71
     0
 72
     0
 73
     0
 74
     0
 75
     0
 76
     0
 77
     3
 78
     9
170
     0
171
     2
172
     1
173
     0
174
     0
175
     0
176
   256
177
   256
178
    40
  0
ENDTAB
  0
ENDSEC
  0
SECTION
  2
BLOCKS
  0
BLOCK
  8
0
  2
$MODEL_SPACE
 70
     0
 10
0.0
 20
0.0
 30
0.0
  3
$MODEL_SPACE
  1

  0
ENDBLK
  5
1C
  8
0
  0
BLOCK
 67
     1
  8
0
  2
$PAPER_SPACE
 70
     0
 10
0.0
 20
0.0
 30
0.0
  3
$PAPER_SPACE
  1

  0
ENDBLK
  5
19
 67
     1
  8
0
  0
BLOCK
  8
0
  2
_OPEN
 70
     0
 10
0.0
 20
0.0
 30
0.0
  3
_OPEN
  1

  0
LINE
  5
595
  8
0
  6
BYBLOCK
 62
     0
 10
-1.0
 20
0.1666666666666666
 30
0.0
 11
0.0
 21
0.0
 31
0.0
  0
LINE
  5
596
  8
0
  6
BYBLOCK
 62
     0
 10
-1.0
 20
-0.1666666666666666
 30
0.0
 11
0.0
 21
0.0
 31
0.0
  0
LINE
  5
597
  8
0
  6
BYBLOCK
 62
     0
 10
0.0
 20
0.0
 30
0.0
 11
-1.0
 21
0.0
 31
0.0
  0
ENDBLK
  5
599
  8
0
  0
BLOCK
  8
0
  2
*D9
 70
     1
 10
0.0
 20
0.0
 30
0.0
  3
*D9
  1

  0
LINE
  5
DC7
  8
250
 10
62.85000000000002
 20
14.80000000000001
 30
0.0
 11
62.85000000000002
 21
31.49568183690791
 31
0.0
  0
LINE
  5
DC8
  8
250
 10
75.0
 20
14.35147186257609
 30
0.0
 11
75.0
 21
31.49568183690791
 31
0.0
  0
LINE
  5
DC9
  8
250
 10
65.08000000000003
 20
30.49568183690791
 30
0.0
 11
72.77
 21
30.49568183690791
 31
0.0
  0
INSERT
  5
DCA
  8
250
  2
_OPEN
 10
62.85000000000002
 20
30.49568183690791
 30
0.0
 41
2.229999999999999
 42
2.229999999999999
 43
2.229999999999999
 50
180.0
  0
INSERT
  5
DCB
  8
250
  2
_OPEN
 10
75.0
 20
30.49568183690791
 30
0.0
 41
2.229999999999999
 42
2.229999999999999
 43
2.229999999999999
  0
TEXT
  5
DCC
  8
250
  6
CONTINUOUS
 62
    40
 10
62.28437500000001
 20
32.99568183690791
 30
0.0
 40
3.0
  1
12.15
  0
POINT
  5
DCD
  8
DEFPOINTS
 62
     0
 10
62.85000000000002
 20
14.30000000000001
 30
0.0
  0
POINT
  5
DCE
  8
DEFPOINTS
 62
     0
 10
75.0
 20
13.85147186257609
 30
0.0
  0
POINT
  5
DCF
  8
DEFPOINTS
 62
     0
 10
75.0
 20
30.49568183690791
 30
0.0
  0
ENDBLK
  5
DD1
  8
0
  0
BLOCK
  8
0
  2
*D10
 70
     1
 10
0.0
 20
0.0
 30
0.0
  3
*D10
  1

  0
LINE
  5
DD4
  8
250
 10
75.0
 20
14.35147186257609
 30
0.0
 11
75.0
 21
22.18984634435746
 31
0.0
  0
LINE
  5
DD5
  8
250
 10
79.30019226036102
 20
14.44119324306896
 30
0.0
 11
79.30019226036102
 21
22.18984634435746
 31
0.0
  0
LINE
  5
DD6
  8
250
 10
75.0
 20
21.18984634435746
 30
0.0
 11
79.30019226036102
 21
21.18984634435746
 31
0.0
  0
LINE
  5
DD7
  8
250
 10
72.77
 20
21.18984634435746
 30
0.0
 11
70.53999999999999
 21
21.18984634435746
 31
0.0
  0
LINE
  5
DD8
  8
250
 10
81.53019226036102
 20
21.18984634435746
 30
0.0
 11
83.76019226036102
 21
21.18984634435746
 31
0.0
  0
INSERT
  5
DD9
  8
250
  2
_OPEN
 10
75.0
 20
21.18984634435746
 30
0.0
 41
2.229999999999999
 42
2.229999999999999
 43
2.229999999999999
  0
INSERT
  5
DDA
  8
250
  2
_OPEN
 10
79.30019226036102
 20
21.18984634435746
 30
0.0
 41
2.229999999999999
 42
2.229999999999999
 43
2.229999999999999
 50
180.0
  0
TEXT
  5
DDB
  8
250
  6
CONTINUOUS
 62
    40
 10
74.78371765495058
 20
23.68984634435746
 30
0.0
 40
3.0
  1
4.3
  0
POINT
  5
DDC
  8
DEFPOINTS
 62
     0
 10
75.0
 20
13.85147186257609
 30
0.0
  0
POINT
  5
DDD
  8
DEFPOINTS
 62
     0
 10
79.30019226036102
 20
13.94119324306896
 30
0.0
  0
POINT
  5
DDE
  8
DEFPOINTS
 62
     0
 10
79.30019226036102
 20
21.18984634435746
 30
0.0
  0
ENDBLK
  5
DE0
  8
0
  0
BLOCK
  8
0
  2
*D13
 70
     1
 10
0.0
 20
0.0
 30
0.0
  3
*D13
  1

  0
LINE
  5
F91
  8
250
 10
79.8
 20
8.1
 30
0.0
 11
86.22871329142754
 21
8.1
 31
0.0
  0
LINE
  5
F92
  8
250
 10
79.8
 20
-8.1
 30
0.0
 11
86.22871329142754
 21
-8.1
 31
0.0
  0
LINE
  5
F93
  8
250
 10
85.22871329142754
 20
5.870000000000001
 30
0.0
 11
85.22871329142754
 21
-5.870000000000001
 31
0.0
  0
INSERT
  5
F94
  8
250
  2
_OPEN
 10
85.22871329142754
 20
8.1
 30
0.0
 41
2.229999999999999
 42
2.229999999999999
 43
2.229999999999999
 50
90.0
  0
INSERT
  5
F95
  8
250
  2
_OPEN
 10
85.22871329142754
 20
-8.1
 30
0.0
 41
2.229999999999999
 42
2.229999999999999
 43
2.229999999999999
 50
270.0
  0
TEXT
  5
F96
  8
250
  6
CONTINUOUS
 62
    40
 10
84.22871329142754
 20
-5.212053571428569
 30
0.0
 40
3.0
  1
16.2
 50
90.0
  0
POINT
  5
F97
  8
DEFPOINTS
 62
     0
 10
79.3
 20
8.1
 30
0.0
  0
POINT
  5
F98
  8
DEFPOINTS
 62
     0
 10
79.3
 20
-8.1
 30
0.0
  0
POINT
  5
F99
  8
DEFPOINTS
 62
     0
 10
85.22871329142754
 20
-8.1
 30
0.0
  0
ENDBLK
  5
F9B
  8
0
  0
BLOCK
  8
0
  2
*D14
 70
     1
 10
0.0
 20
0.0
 30
0.0
  3
*D14
  1

  0
LINE
  5
F9E
  8
250
 10
75.5
 20
11.95
 30
0.0
 11
92.85202568812176
 21
11.95
 31
0.0
  0
LINE
  5
F9F
  8
250
 10
75.5
 20
-11.95
 30
0.0
 11
92.85202568812176
 21
-11.95
 31
0.0
  0
LINE
  5
FA0
  8
250
 10
91.85202568812176
 20
9.719999999999999
 30
0.0
 11
91.85202568812176
 21
-9.720000000000002
 31
0.0
  0
INSERT
  5
FA1
  8
250
  2
_OPEN
 10
91.85202568812176
 20
11.95
 30
0.0
 41
2.229999999999999
 42
2.229999999999999
 43
2.229999999999999
 50
90.0
  0
INSERT
  5
FA2
  8
250
  2
_OPEN
 10
91.85202568812176
 20
-11.95
 30
0.0
 41
2.229999999999999
 42
2.229999999999999
 43
2.229999999999999
 50
270.0
  0
TEXT
  5
FA3
  8
250
  6
CONTINUOUS
 62
    40
 10
90.85202568812176
 20
-4.930803571428569
 30
0.0
 40
3.0
  1
23.9
 50
90.0
  0
POINT
  5
FA4
  8
DEFPOINTS
 62
     0
 10
75.0
 20
11.95
 30
0.0
  0
POINT
  5
FA5
  8
DEFPOINTS
 62
     0
 10
75.0
 20
-11.95
 30
0.0
  0
POINT
  5
FA6
  8
DEFPOINTS
 62
     0
 10
91.85202568812176
 20
-11.95
 30
0.0
  0
ENDBLK
  5
FA8
  8
0
  0
BLOCK
  8
0
  2
*X15
 70
     1
 10
0.0
 20
0.0
 30
0.0
  3
*X15
  1

  0
TEXT
  5
FB8
  8
250
  6
CONTINUOUS
 62
    40
 10
97.0
 20
-4.223214285714278
 30
0.0
 40
3.0
  1
\U+2205
 50
90.0
  0
TEXT
  5
FB9
  8
250
  6
CONTINUOUS
 62
    40
 10
97.0
 20
-1.508928571428569
 30
0.0
 40
3.0
  1
30
 50
90.0
  0
ENDBLK
  5
FBB
  8
0
  0
ENDSEC
  0
SECTION
  2
ENTITIES
  0
LINE
  5
D51
  8
241
 10
62.5
 20
0.0
 30
0.0
 11
62.5
 21
10.5
 31
0.0
  0
LINE
  5
D53
  8
241
 10
73.8100505063388
 20
14.50331125827813
 30
0.0
 11
73.8100505063388
 21
-14.70198675496686
 31
0.0
  0
LINE
  5
D54
  8
241
 10
62.85000000000002
 20
0.0
 30
0.0
 11
62.85000000000002
 21
11.59999999999996
 31
0.0
  0
LINE
  5
D55
  8
240
 10
75.0
 20
13.85147186257609
 30
0.0
 11
75.0
 21
0.0
 31
0.0
  0
LINE
  5
D56
  8
241
 10
70.5
 20
1.5
 30
0.0
 11
70.5
 21
0.0
 31
0.0
  0
LINE
  5
D57
  8
241
 10
70.5
 20
-12.17526595471059
 30
0.0
 11
62.85000000000002
 21
-12.17526595471059
 31
0.0
  0
LINE
  5
D58
  8
241
 10
70.5
 20
-13.67526595471059
 30
0.0
 11
62.85000000000002
 21
-13.67526595471059
 31
0.0
  0
LINE
  5
D59
  8
240
 10
63.55000000000001
 20
-15.0
 30
0.0
 11
73.8100505063388
 21
-15.0
 31
0.0
  0
LINE
  5
D5A
  8
241
 10
70.5
 20
-1.5
 30
0.0
 11
62.85000000000002
 21
-1.5
 31
0.0
  0
LINE
  5
D5F
  8
241
 10
62.5
 20
0.0
 30
0.0
 11
62.5
 21
-10.5
 31
0.0
  0
LINE
  5
D60
  8
241
 10
62.85000000000002
 20
0.0
 30
0.0
 11
62.85000000000002
 21
-11.59999999999996
 31
0.0
  0
LINE
  5
D67
  8
240
 10
62.5
 20
-11.25
 30
0.0
 11
62.85000000000002
 21
-11.59999999999996
 31
0.0
  0
ARC
  5
D68
  8
240
 10
63.55000000000001
 20
-14.30000000000001
 30
0.0
 40
0.6999999999999887
 50
180.0
 51
270.0
  0
LINE
  5
D69
  8
240
 10
62.85000000000002
 20
-14.30000000000001
 30
0.0
 11
62.85000000000002
 21
-11.59999999999996
 31
0.0
  0
LINE
  5
D6A
  8
240
 10
62.5
 20
-10.5
 30
0.0
 11
62.5
 21
-11.25
 31
0.0
  0
LINE
  5
D6B
  8
240
 10
75.0
 20
-13.85147186257609
 30
0.0
 11
75.0
 21
0.0
 31
0.0
  0
LINE
  5
D6F
  8
241
 10
70.5
 20
-12.17526595471059
 30
0.0
 11
70.5
 21
-13.67526595471059
 31
0.0
  0
LINE
  5
D71
  8
240
 10
74.30502525316936
 20
-14.79497474683057
 30
0.0
 11
74.82426406871193
 21
-14.27573593128806
 31
0.0
  0
ARC
  5
D72
  8
240
 10
73.8100505063388
 20
-14.30000000000001
 30
0.0
 40
0.700000000000003
 50
270.0
 51
314.9999999999994
  0
ARC
  5
D73
  8
240
 10
74.4
 20
-13.85147186257609
 30
0.0
 40
0.6000000000000089
 50
314.9999999999994
 51
0.0
  0
LINE
  5
D75
  8
241
 10
70.5
 20
-1.5
 30
0.0
 11
70.5
 21
0.0
 31
0.0
  0
LINE
  5
D76
  8
241
 10
70.5
 20
1.5
 30
0.0
 11
62.85000000000002
 21
1.5
 31
0.0
  0
LINE
  5
D77
  8
241
 10
70.5
 20
13.67526595471059
 30
0.0
 11
62.85000000000002
 21
13.67526595471059
 31
0.0
  0
LINE
  5
D78
  8
241
 10
70.5
 20
12.17526595471059
 30
0.0
 11
62.85000000000002
 21
12.17526595471059
 31
0.0
  0
LINE
  5
D79
  8
240
 10
63.55000000000001
 20
15.0
 30
0.0
 11
73.8100505063388
 21
15.0
 31
0.0
  0
LINE
  5
D82
  8
240
 10
62.85000000000002
 20
14.30000000000001
 30
0.0
 11
62.85000000000002
 21
11.59999999999996
 31
0.0
  0
LINE
  5
D83
  8
240
 10
62.5
 20
11.25
 30
0.0
 11
62.85000000000002
 21
11.59999999999996
 31
0.0
  0
LINE
  5
D84
  8
240
 10
62.5
 20
10.5
 30
0.0
 11
62.5
 21
11.25
 31
0.0
  0
ARC
  5
D85
  8
240
 10
63.55000000000001
 20
14.30000000000001
 30
0.0
 40
0.6999999999999887
 50
90.0
 51
180.0
  0
LINE
  5
D8B
  8
241
 10
70.5
 20
12.17526595471059
 30
0.0
 11
70.5
 21
13.67526595471059
 31
0.0
  0
LINE
  5
D8C
  8
240
 10
74.82426406871193
 20
14.27573593128806
 30
0.0
 11
74.30502525316938
 21
14.79497474683057
 31
0.0
  0
ARC
  5
D8D
  8
240
 10
73.8100505063388
 20
14.30000000000001
 30
0.0
 40
0.7000000000000137
 50
45.0
 51
90.0
  0
ARC
  5
D8E
  8
240
 10
74.4
 20
13.85147186257609
 30
0.0
 40
0.5999999999999944
 50
0.0
 51
45.00000000000057
  0
LINE
  5
DA4
  8
250
  6
CONTINUOUS
 10
74.3100505063388
 20
-15.0
 30
0.0
 11
99.0
 21
-15.0
 31
0.0
  0
LINE
  5
DA5
  8
250
  6
CONTINUOUS
 10
74.3100505063388
 20
15.0
 30
0.0
 11
99.0
 21
14.99999999999999
 31
0.0
  0
LINE
  5
DA6
  8
250
  6
CONTINUOUS
 10
98.0
 20
-12.77
 30
0.0
 11
98.0
 21
12.76999999999999
 31
0.0
  0
INSERT
  5
DA7
  8
250
  6
CONTINUOUS
  2
_OPEN
 10
98.0
 20
-15.0
 30
0.0
 41
2.229999999999999
 42
2.229999999999999
 43
2.229999999999999
 50
-90.00000000000001
  0
INSERT
  5
DA8
  8
250
  6
CONTINUOUS
  2
_OPEN
 10
98.0
 20
14.99999999999999
 30
0.0
 41
2.229999999999999
 42
2.229999999999999
 43
2.229999999999999
 50
90.0
  0
INSERT
  5
DA9
  8
250
  6
CONTINUOUS
 62
    40
  2
*X15
 10
0.0
 20
0.0
 30
0.0
  0
DIMENSION
  5
DC5
  8
250
  2
*D9
 10
75.0
 20
30.49568183690791
 30
0.0
 11
68.92500000000001
 21
34.49568183690791
 31
0.0
 70
    32
  3
BIGT
 13
62.85000000000002
 23
14.30000000000001
 33
0.0
 14
75.0
 24
13.85147186257609
 34
0.0
1001
ACAD
1000
DSTYLE
1002
{
1070
   287
1070
     5
1070
   179
1070
     3
1070
    79
1070
     2
1070
   371
1070
    -1
1070
   372
1070
    -1
1070
   279
1070
     2
1070
   140
1040
3.0
1070
    78
1070
     8
1002
}
  0
DIMENSION
  5
DD2
  8
250
  2
*D10
 10
79.30019226036102
 20
21.18984634435746
 30
0.0
 11
78.36407479780772
 21
25.18984634435746
 31
0.0
 70
   160
  3
BIGT
 13
75.0
 23
13.85147186257609
 33
0.0
 14
79.30019226036102
 24
13.94119324306896
 34
0.0
1001
ACAD
1000
DSTYLE
1002
{
1070
   287
1070
     5
1070
   179
1070
     3
1070
    79
1070
     2
1070
   371
1070
    -1
1070
   372
1070
    -1
1070
   279
1070
     2
1070
   140
1040
3.0
1070
    78
1070
     8
1002
}
  0
LINE
  5
DE5
  8
240
 10
75.0
 20
11.95
 30
0.0
 11
79.3
 21
8.1
 31
0.0
  0
LINE
  5
DE6
  8
240
 10
75.0
 20
-11.95
 30
0.0
 11
79.3
 21
-8.1
 31
0.0
  0
DIMENSION
  5
F8F
  8
250
  2
*D13
 10
85.22871329142754
 20
-8.1
 30
0.0
 11
82.72871329142754
 21
0.0
 31
0.0
 70
    32
  3
BIGT
 13
79.3
 23
8.1
 33
0.0
 14
79.3
 24
-8.1
 34
0.0
 50
90.0
1001
ACAD
1000
DSTYLE
1002
{
1070
   287
1070
     5
1070
   179
1070
     3
1070
    79
1070
     2
1070
   371
1070
    -1
1070
   372
1070
    -1
1070
   279
1070
     2
1070
   140
1040
3.0
1070
    78
1070
     8
1002
}
  0
DIMENSION
  5
F9C
  8
250
  2
*D14
 10
91.85202568812176
 20
-11.95
 30
0.0
 11
89.35202568812176
 21
-0.0000000000000018
 31
0.0
 70
    32
  3
BIGT
 13
75.0
 23
11.95
 33
0.0
 14
75.0
 24
-11.95
 34
0.0
 50
90.0
1001
ACAD
1000
DSTYLE
1002
{
1070
   287
1070
     5
1070
   179
1070
     3
1070
    79
1070
     2
1070
   371
1070
    -1
1070
   372
1070
    -1
1070
   279
1070
     2
1070
   140
1040
3.0
1070
    78
1070
     8
1002
}
  0
LINE
  5
FA9
  8
240
 10
79.3
 20
8.1
 30
0.0
 11
79.3
 21
-8.1
 31
0.0
  0
VIEWPORT
  5
22
 67
     1
  8
0
 10
261.5176991150442
 20
148.5
 30
0.0
 40
523.0353982300885
 41
297.0
 68
     1
 69
    -1
1001
ACAD
1000
MVIEW
1002
{
1070
    16
1010
0.0
1020
0.0
1030
0.0
1020
0.0
1030
0.0
1010
0.0
1020
0.0
1030
1.0
1020
0.0
1030
1.0
1040
0.0
1040
297.0
1040
261.5176991150442
1040
148.5
1040
50.0
1040
0.0
1040
0.0
1070
     0
1070
   100
1070
     1
1070
     1
1070
     0
1070
     0
1070
     0
1070
     0
1040
0.0
1040
0.0
1040
0.0
1040
1.0
1040
1.0
1040
10.0
1040
10.0
1070
     0
1002
{
1002
}
1002
}
  0
ENDSEC
  0
EOF
