  0
SECTION
  2
HEADER
  9
$ACADVER
  1
AC1009
  9
$DWGCODEPAGE
  3
ansi_1251
  9
$INSBASE
 10
0.0
 20
0.0
 30
0.0
  9
$EXTMIN
 10
-68.25000000000001
 20
-30.5409271246
 30
0.0
  9
$EXTMAX
 10
88.90000000000003
 20
30.50275418977125
 30
0.0
  9
$LIMMIN
 10
0.0
 20
0.0
  9
$LIMMAX
 10
420.0
 20
297.0
  9
$ORTHOMODE
 70
     1
  9
$REGENMODE
 70
     1
  9
$FILLMODE
 70
     1
  9
$QTEXTMODE
 70
     0
  9
$MIRRTEXT
 70
     0
  9
$DRAGMODE
 70
     2
  9
$LTSCALE
 40
1.0
  9
$OSMODE
 70
   279
  9
$ATTMODE
 70
     1
  9
$TEXTSIZE
 40
2.5
  9
$TRACEWID
 40
1.0
  9
$TEXTSTYLE
  7
STANDARD
  9
$CLAYER
  8
SK2
  9
$CELTYPE
  6
BYLAYER
  9
$CECOLOR
 62
   256
  9
$DIMSCALE
 40
1.0
  9
$DIMASZ
 40
2.5
  9
$DIMEXO
 40
0.625
  9
$DIMDLI
 40
3.75
  9
$DIMRND
 40
0.0
  9
$DIMDLE
 40
0.0
  9
$DIMEXE
 40
1.25
  9
$DIMTP
 40
0.0
  9
$DIMTM
 40
0.0
  9
$DIMTXT
 40
2.5
  9
$DIMCEN
 40
2.5
  9
$DIMTSZ
 40
0.0
  9
$DIMTOL
 70
     0
  9
$DIMLIM
 70
     0
  9
$DIMTIH
 70
     0
  9
$DIMTOH
 70
     0
  9
$DIMSE1
 70
     0
  9
$DIMSE2
 70
     0
  9
$DIMTAD
 70
     1
  9
$DIMZIN
 70
     8
  9
$DIMBLK
  1

  9
$DIMASO
 70
     1
  9
$DIMSHO
 70
     1
  9
$DIMPOST
  1

  9
$DIMAPOST
  1

  9
$DIMALT
 70
     0
  9
$DIMALTD
 70
     3
  9
$DIMALTF
 40
0.03937007874016
  9
$DIMLFAC
 40
1.0
  9
$DIMTOFL
 70
     1
  9
$DIMTVP
 40
0.0
  9
$DIMTIX
 70
     0
  9
$DIMSOXD
 70
     0
  9
$DIMSAH
 70
     0
  9
$DIMBLK1
  1

  9
$DIMBLK2
  1

  9
$DIMSTYLE
  2
ISO-25
  9
$DIMCLRD
 70
     0
  9
$DIMCLRE
 70
     0
  9
$DIMCLRT
 70
     0
  9
$DIMTFAC
 40
1.0
  9
$DIMGAP
 40
0.625
  9
$LUNITS
 70
     2
  9
$LUPREC
 70
     3
  9
$SKETCHINC
 40
1.0
  9
$FILLETRAD
 40
1.0
  9
$AUNITS
 70
     0
  9
$AUPREC
 70
     0
  9
$MENU
  1
.
  9
$ELEVATION
 40
0.0
  9
$PELEVATION
 40
0.0
  9
$THICKNESS
 40
0.0
  9
$LIMCHECK
 70
     0
  9
$CHAMFERA
 40
10.0
  9
$CHAMFERB
 40
10.0
  9
$SKPOLY
 70
     0
  9
$TDCREATE
 40
2455022.429026158
  9
$TDUPDATE
 40
2458659.538982558
  9
$TDINDWG
 40
0.1506771181
  9
$TDUSRTIMER
 40
2458702.646665336
  9
$USRTIMER
 70
     1
  9
$ANGBASE
 50
0.0
  9
$ANGDIR
 70
     0
  9
$PDMODE
 70
     0
  9
$PDSIZE
 40
0.0
  9
$PLINEWID
 40
0.0
  9
$COORDS
 70
     1
  9
$SPLFRAME
 70
     0
  9
$SPLINETYPE
 70
     6
  9
$SPLINESEGS
 70
     8
  9
$ATTDIA
 70
     0
  9
$ATTREQ
 70
     1
  9
$HANDLING
 70
     1
  9
$HANDSEED
  5
1B3E
  9
$SURFTAB1
 70
     6
  9
$SURFTAB2
 70
     6
  9
$SURFTYPE
 70
     6
  9
$SURFU
 70
     6
  9
$SURFV
 70
     6
  9
$UCSNAME
  2

  9
$UCSORG
 10
0.0
 20
0.0
 30
0.0
  9
$UCSXDIR
 10
1.0
 20
0.0
 30
0.0
  9
$UCSYDIR
 10
0.0
 20
1.0
 30
0.0
  9
$PUCSNAME
  2

  9
$PUCSORG
 10
0.0
 20
0.0
 30
0.0
  9
$PUCSXDIR
 10
1.0
 20
0.0
 30
0.0
  9
$PUCSYDIR
 10
0.0
 20
1.0
 30
0.0
  9
$USERI1
 70
     0
  9
$USERI2
 70
     0
  9
$USERI3
 70
     0
  9
$USERI4
 70
     0
  9
$USERI5
 70
     0
  9
$USERR1
 40
0.0
  9
$USERR2
 40
0.0
  9
$USERR3
 40
0.0
  9
$USERR4
 40
0.0
  9
$USERR5
 40
0.0
  9
$WORLDVIEW
 70
     1
  9
$SHADEDGE
 70
     3
  9
$SHADEDIF
 70
    70
  9
$TILEMODE
 70
     1
  9
$MAXACTVP
 70
    64
  9
$PLIMCHECK
 70
     0
  9
$PEXTMIN
 10
1.000000000000000E+20
 20
1.000000000000000E+20
 30
1.000000000000000E+20
  9
$PEXTMAX
 10
-1.000000000000000E+20
 20
-1.000000000000000E+20
 30
-1.000000000000000E+20
  9
$PLIMMIN
 10
0.0
 20
0.0
  9
$PLIMMAX
 10
420.0
 20
297.0
  9
$UNITMODE
 70
     0
  9
$VISRETAIN
 70
     1
  9
$PLINEGEN
 70
     0
  9
$PSLTSCALE
 70
     1
  0
ENDSEC
  0
SECTION
  2
TABLES
  0
TABLE
  2
VPORT
 70
     1
  0
VPORT
  2
*ACTIVE
 70
     0
 10
0.0
 20
0.0
 11
1.0
 21
1.0
 12
30.0273398901752
 22
2.802190489514487
 13
0.0
 23
0.0
 14
10.0
 24
10.0
 15
10.0
 25
10.0
 16
0.0
 26
0.0
 36
1.0
 17
0.0
 27
0.0
 37
0.0
 40
201.4582601475073
 41
1.332880434782609
 42
50.0
 43
0.0
 44
0.0
 50
0.0
 51
0.0
 71
    16
 72
  1000
 73
     1
 74
     3
 75
     0
 76
     0
 77
     0
 78
     0
  0
ENDTAB
  0
TABLE
  2
LTYPE
 70
     6
  0
LTYPE
  2
CONTINUOUS
 70
     0
  3
Solid line
 72
    65
 73
     0
 40
0.0
  0
LTYPE
  2
CENTER
 70
     0
  3
 Center _____  _  _____  _  _____  _  _____  _ 
 72
    65
 73
     4
 40
50.8
 49
31.75
 49
-6.35
 49
6.35
 49
-6.35
  0
LTYPE
  2
DASHED
 70
     0
  3
Dashed __  __  __  __  __  __  __  __  __  __  
 72
    65
 73
     2
 40
19.05
 49
12.7
 49
-6.35
  0
LTYPE
  2
HIDDEN
 70
     0
  3
Hidden __ __ __ __ __ __ __ __ __ __ __ __ __ __
 72
    65
 73
     2
 40
1.905
 49
1.27
 49
-0.635
  0
LTYPE
  2
CENTERX2
 70
     0
  3
Center (2x) ________  __  ________  __  _____
 72
    65
 73
     4
 40
20.32
 49
12.7
 49
-2.54
 49
2.54
 49
-2.54
  0
LTYPE
  2
PHANTOM
 70
     0
  3
Phantom ______  __  __  ______  __  __  ______
 72
    65
 73
     6
 40
12.7
 49
6.35
 49
-1.27
 49
1.27
 49
-1.27
 49
1.27
 49
-1.27
  0
ENDTAB
  0
TABLE
  2
LAYER
 70
    26
  0
LAYER
  2
0
 70
     0
 62
     7
  6
CONTINUOUS
  0
LAYER
  2
1
 70
     0
 62
     4
  6
CONTINUOUS
  0
LAYER
  2
2
 70
     0
 62
     7
  6
CONTINUOUS
  0
LAYER
  2
3
 70
     0
 62
     1
  6
DASHED
  0
LAYER
  2
4
 70
     0
 62
     2
  6
CENTER
  0
LAYER
  2
6
 70
     0
 62
     5
  6
CONTINUOUS
  0
LAYER
  2
7
 70
     0
 62
     5
  6
CONTINUOUS
  0
LAYER
  2
11
 70
     0
 62
     4
  6
CONTINUOUS
  0
LAYER
  2
SK1
 70
     0
 62
     4
  6
CONTINUOUS
  0
LAYER
  2
SK2
 70
     0
 62
     7
  6
CONTINUOUS
  0
LAYER
  2
SK3
 70
     0
 62
     1
  6
DASHED
  0
LAYER
  2
SK4
 70
     0
 62
     2
  6
CENTER
  0
LAYER
  2
SK6
 70
     0
 62
     5
  6
CONTINUOUS
  0
LAYER
  2
SK7
 70
     0
 62
     5
  6
CONTINUOUS
  0
LAYER
  2
SK11
 70
     0
 62
     4
  6
CONTINUOUS
  0
LAYER
  2
CUT
 70
     0
 62
     1
  6
CONTINUOUS
  0
LAYER
  2
NOCUT
 70
     0
 62
    -7
  6
CONTINUOUS
  0
LAYER
  2
SKVIEW1
 70
     0
 62
     4
  6
CONTINUOUS
  0
LAYER
  2
SKVIEW2
 70
     0
 62
     7
  6
CONTINUOUS
  0
LAYER
  2
SKVIEW3
 70
     0
 62
     1
  6
DASHED
  0
LAYER
  2
SKVIEW4
 70
     0
 62
     2
  6
CENTER
  0
LAYER
  2
SKVIEW6
 70
     0
 62
     5
  6
CONTINUOUS
  0
LAYER
  2
SKVIEW7
 70
     0
 62
     5
  6
CONTINUOUS
  0
LAYER
  2
SKVIEW11
 70
     0
 62
     4
  6
CONTINUOUS
  0
LAYER
  2
INFTOTAL
 70
     0
 62
     9
  6
CONTINUOUS
  0
LAYER
  2
DEFPOINTS
 70
     0
 62
     7
  6
CONTINUOUS
  0
ENDTAB
  0
TABLE
  2
STYLE
 70
     1
  0
STYLE
  2
STANDARD
 70
     0
 40
0.0
 41
1.0
 50
0.0
 71
     0
 42
2.5
  3
txt
  4

  0
ENDTAB
  0
TABLE
  2
VIEW
 70
     0
  0
ENDTAB
  0
TABLE
  2
UCS
 70
     0
  0
ENDTAB
  0
TABLE
  2
APPID
 70
     2
  0
APPID
  2
ACAD
 70
     0
  0
APPID
  2
ACAECLAYERSTANDARD
 70
     0
  0
ENDTAB
  0
TABLE
  2
DIMSTYLE
 70
     1
  0
DIMSTYLE
  2
ISO-25
 70
     0
  3

  4

  5

  6

  7

 40
1.0
 41
2.5
 42
0.625
 43
3.75
 44
1.25
 45
0.0
 46
0.0
 47
0.0
 48
0.0
140
2.5
141
2.5
142
0.0
143
0.03937007874016
144
1.0
145
0.0
146
1.0
147
0.625
 71
     0
 72
     0
 73
     0
 74
     0
 75
     0
 76
     0
 77
     1
 78
     8
170
     0
171
     3
172
     1
173
     0
174
     0
175
     0
176
     0
177
     0
178
     0
  0
ENDTAB
  0
ENDSEC
  0
SECTION
  2
BLOCKS
  0
BLOCK
  8
0
  2
$MODEL_SPACE
 70
     0
 10
0.0
 20
0.0
 30
0.0
  3
$MODEL_SPACE
  1

  0
ENDBLK
  5
21
  8
0
  0
BLOCK
 67
     1
  8
0
  2
$PAPER_SPACE
 70
     0
 10
0.0
 20
0.0
 30
0.0
  3
$PAPER_SPACE
  1

  0
ENDBLK
  5
1D
 67
     1
  8
0
  0
BLOCK
  8
0
  2
*U2
 70
     1
 10
0.0
 20
0.0
 30
0.0
  3
*U2
  1

  0
TEXT
  5
77E
  8
SK6
 10
-50.0
 20
78.25
 30
0.0
 40
3.5
  1
BIG DAISHOWA
 41
0.85
  0
TEXT
  5
781
  8
SK6
 10
-50.0
 20
73.0
 30
0.0
 40
3.5
  1
BCV50H-SMC2.500-3
 41
0.85
  0
ENDBLK
  5
782
  8
0
  0
BLOCK
  8
0
  2
_FILLED
 70
     0
 10
0.0
 20
0.0
 30
0.0
  3
_FILLED
  1

  0
SOLID
  5
789
  8
0
  6
BYBLOCK
 62
     0
 10
0.0
 20
0.0
 30
0.0
 11
-1.0
 21
0.2142857143
 31
0.0
 12
-1.0
 22
-0.2142857143
 32
0.0
 13
-1.0
 23
-0.2142857143
 33
0.0
  0
ENDBLK
  5
78A
  8
0
  6
BYBLOCK
 62
     0
  0
BLOCK
  8
0
  2
*U5
 70
     1
 10
0.0
 20
0.0
 30
0.0
  3
*U5
  1

  0
TEXT
  5
790
  8
SK6
 10
-85.96178542556666
 20
-67.06748653279999
 30
0.0
 40
3.5
  1
BCV50
 41
0.85
  0
ENDBLK
  5
791
  8
0
  0
BLOCK
  8
0
  2
*D8
 70
     1
 10
0.0
 20
0.0
 30
0.0
  3
*D8
  1

  0
LINE
  5
808
  8
SK2
 62
     0
 10
0.0
 20
35.54999999999998
 30
0.0
 11
0.0
 21
73.35718850547971
 31
0.0
  0
LINE
  5
809
  8
SK2
 62
     0
 10
76.2
 20
61.52500000000001
 30
0.0
 11
76.2
 21
73.35718850547971
 31
0.0
  0
LINE
  5
80A
  8
SK2
 62
     0
 10
2.5
 20
72.10718850547971
 30
0.0
 11
73.7
 21
72.10718850547971
 31
0.0
  0
SOLID
  5
80B
  8
SK2
 62
     0
 10
2.5
 20
72.52385517214638
 30
0.0
 11
2.5
 21
71.69052183881304
 31
0.0
 12
0.0
 22
72.10718850547971
 32
0.0
 13
0.0
 23
72.10718850547971
 33
0.0
  0
SOLID
  5
80C
  8
SK2
 62
     0
 10
73.7
 20
71.69052183881304
 30
0.0
 11
73.7
 21
72.52385517214638
 31
0.0
 12
76.2
 22
72.10718850547971
 32
0.0
 13
76.2
 23
72.10718850547971
 33
0.0
  0
TEXT
  5
80D
  8
SK2
  6
CONTINUOUS
 62
     0
 10
34.35
 20
72.73218850547971
 30
0.0
 40
2.5
  1
76.2
  0
POINT
  5
80E
  8
DEFPOINTS
 62
     0
 10
0.0
 20
34.92499999999998
 30
0.0
  0
POINT
  5
80F
  8
DEFPOINTS
 62
     0
 10
76.2
 20
60.90000000000001
 30
0.0
  0
POINT
  5
810
  8
DEFPOINTS
 62
     0
 10
76.2
 20
72.10718850547971
 30
0.0
  0
ENDBLK
  5
812
  8
0
  0
BLOCK
  8
0
  2
*D10
 70
     1
 10
0.0
 20
0.0
 30
0.0
  3
*D10
  1

  0
LINE
  5
10C2
  8
SK2
 62
     0
 10
75.825
 20
61.90000000000001
 30
0.0
 11
161.6546797803504
 21
61.9
 31
0.0
  0
LINE
  5
10C3
  8
SK2
 62
     0
 10
75.825
 20
-61.90000000000001
 30
0.0
 11
161.6546797803504
 21
-61.90000000000001
 31
0.0
  0
LINE
  5
10C4
  8
SK2
 62
     0
 10
160.4046797803504
 20
59.4
 30
0.0
 11
160.4046797803504
 21
-59.40000000000001
 31
0.0
  0
SOLID
  5
10C5
  8
SK2
 62
     0
 10
160.821346447017
 20
59.4
 30
0.0
 11
159.9880131136837
 21
59.4
 31
0.0
 12
160.4046797803504
 22
61.9
 32
0.0
 13
160.4046797803504
 23
61.9
 33
0.0
  0
SOLID
  5
10C6
  8
SK2
 62
     0
 10
159.9880131136837
 20
-59.40000000000001
 30
0.0
 11
160.821346447017
 21
-59.40000000000001
 31
0.0
 12
160.4046797803504
 22
-61.90000000000001
 32
0.0
 13
160.4046797803504
 23
-61.90000000000001
 33
0.0
  0
TEXT
  5
10C7
  8
SK2
  6
CONTINUOUS
 62
     0
 10
159.7796797803504
 20
-4.583333333333343
 30
0.0
 40
2.5
  1
123.8
 50
90.0
  0
POINT
  5
10C8
  8
DEFPOINTS
 62
     0
 10
75.2
 20
61.90000000000001
 30
0.0
  0
POINT
  5
10C9
  8
DEFPOINTS
 62
     0
 10
75.2
 20
-61.90000000000001
 30
0.0
  0
POINT
  5
10CA
  8
DEFPOINTS
 62
     0
 10
160.4046797803504
 20
-61.90000000000001
 30
0.0
  0
ENDBLK
  5
10CC
  8
0
  0
BLOCK
  8
0
  2
*D11
 70
     1
 10
0.0
 20
0.0
 30
0.0
  3
*D11
  1

  0
LINE
  5
10D1
  8
SK2
 62
     0
 10
103.425
 20
31.74999999999997
 30
0.0
 11
141.2652909027244
 21
31.74999999999997
 31
0.0
  0
LINE
  5
10D2
  8
SK2
 62
     0
 10
103.425
 20
-31.75000000000003
 30
0.0
 11
141.2652909027244
 21
-31.75000000000003
 31
0.0
  0
LINE
  5
10D3
  8
SK2
 62
     0
 10
140.0152909027244
 20
29.24999999999997
 30
0.0
 11
140.0152909027244
 21
-29.25000000000003
 31
0.0
  0
SOLID
  5
10D4
  8
SK2
 62
     0
 10
140.431957569391
 20
29.24999999999997
 30
0.0
 11
139.5986242360577
 21
29.24999999999997
 31
0.0
 12
140.0152909027244
 22
31.74999999999997
 32
0.0
 13
140.0152909027244
 23
31.74999999999997
 33
0.0
  0
SOLID
  5
10D5
  8
SK2
 62
     0
 10
139.5986242360577
 20
-29.25000000000003
 30
0.0
 11
140.431957569391
 21
-29.25000000000003
 31
0.0
 12
140.0152909027244
 22
-31.75000000000003
 32
0.0
 13
140.0152909027244
 23
-31.75000000000003
 33
0.0
  0
TEXT
  5
10D6
  8
SK2
  6
CONTINUOUS
 62
     0
 10
139.3902909027244
 20
-3.750000000000028
 30
0.0
 40
2.5
  1
63.5
 50
90.0
  0
POINT
  5
10D7
  8
DEFPOINTS
 62
     0
 10
102.8
 20
31.74999999999997
 30
0.0
  0
POINT
  5
10D8
  8
DEFPOINTS
 62
     0
 10
102.8
 20
-31.75000000000003
 30
0.0
  0
POINT
  5
10D9
  8
DEFPOINTS
 62
     0
 10
140.0152909027244
 20
-31.75000000000003
 30
0.0
  0
ENDBLK
  5
10DB
  8
0
  0
ENDSEC
  0
SECTION
  2
ENTITIES
  0
LINE
  5
685
  8
SK1
 10
0.0
 20
34.92499999999998
 30
0.0
 11
-99.6319088344
 21
20.3952133832
 31
0.0
  0
LINE
  5
686
  8
SK1
 10
-99.6319088344
 20
-20.3952133832
 30
0.0
 11
0.0
 21
-34.92500000000001
 31
0.0
  0
ARC
  5
68D
  8
SK1
 10
-99.3
 20
18.1192879614
 30
0.0
 40
2.299999999999995
 50
98.29722000000018
 51
180.0
  0
ARC
  5
68E
  8
SK1
 10
-99.3
 20
-18.1192879614
 30
0.0
 40
2.299999999999995
 50
180.0
 51
261.7027799999998
  0
LINE
  5
6F6
  8
SK1
 10
-101.6
 20
0.0
 30
0.0
 11
-101.6
 21
-18.1192879614
 31
0.0
  0
LINE
  5
6F7
  8
SK1
 10
-101.6
 20
18.1192879614
 30
0.0
 11
-101.6
 21
0.0
 31
0.0
  0
LINE
  5
71A
  8
SK3
 10
-99.5215390309
 20
-13.10000000000002
 30
0.0
 11
-99.5215390309
 21
13.09999999999999
 31
0.0
  0
LINE
  5
71B
  8
SK3
 10
-95.25
 20
-13.10000000000002
 30
0.0
 11
-95.25
 21
13.09999999999999
 31
0.0
  0
LINE
  5
72A
  8
SK3
 10
-101.6
 20
-14.30000000000001
 30
0.0
 11
-99.5215390309
 21
-13.10000000000002
 31
0.0
  0
LINE
  5
72B
  8
SK3
 10
-99.5215390309
 20
13.09999999999999
 30
0.0
 11
-101.6
 21
14.3
 31
0.0
  0
LINE
  5
72C
  8
SK3
 10
-99.5215390309
 20
-13.10000000000002
 30
0.0
 11
-95.25
 21
-13.10000000000002
 31
0.0
  0
LINE
  5
72D
  8
SK3
 10
-95.25
 20
13.09999999999999
 30
0.0
 11
-99.5215390309
 21
13.09999999999999
 31
0.0
  0
LINE
  5
72E
  8
SK3
 10
-95.25
 20
-11.09980000000002
 30
0.0
 11
0.0
 21
-11.09980000000002
 31
0.0
  0
LINE
  5
72F
  8
SK3
 10
0.0
 20
11.09979999999999
 30
0.0
 11
-95.25
 21
11.09979999999999
 31
0.0
  0
LINE
  5
760
  8
SK3
 10
-57.1
 20
12.69999999999999
 30
0.0
 11
-95.25
 21
12.69999999999999
 31
0.0
  0
LINE
  5
761
  8
SK3
 10
-95.25
 20
-12.69999999999999
 30
0.0
 11
-57.1
 21
-12.69999999999999
 31
0.0
  0
LINE
  5
774
  8
SK3
 10
-57.1
 20
12.69999999999999
 30
0.0
 11
-57.1
 21
-12.69999999999999
 31
0.0
  0
LINE
  5
777
  8
SK4
 10
0.0
 20
0.0
 30
0.0
 11
-101.6
 21
0.0
 31
0.0
  0
LINE
  5
779
  8
4
 10
0.0
 20
0.0
 30
0.0
 11
76.2
 21
0.0
 31
0.0
  0
INSERT
  5
77B
  8
SK6
  2
*U2
 10
-44.10380399683656
 20
-23.39313954296377
 30
0.0
  0
INSERT
  5
78D
  8
SK6
  2
*U5
 10
17.55665382414153
 20
-2.560320993650734
 30
0.0
  0
LINE
  5
793
  8
0
 10
3.0
 20
3.0
 30
0.0
 11
-3.0
 21
-3.0
 31
0.0
  0
LINE
  5
794
  8
0
 10
-3.0
 20
3.0
 30
0.0
 11
3.0
 21
-3.0
 31
0.0
  0
CIRCLE
  5
795
  8
0
 10
0.0
 20
0.0
 30
0.0
 40
2.5
  0
LINE
  5
796
  8
0
 10
79.2
 20
-3.0
 30
0.0
 11
73.2
 21
3.0
 31
0.0
  0
CIRCLE
  5
797
  8
0
 10
76.2
 20
0.0
 30
0.0
 40
2.5
  0
LINE
  5
798
  8
0
 10
73.2
 20
-3.0
 30
0.0
 11
79.2
 21
3.0
 31
0.0
  0
LINE
  5
799
  8
NOCUT
 10
0.7999999999999972
 20
34.62500000000001
 30
0.0
 11
0.2999999999999972
 21
34.62500000000001
 31
0.0
  0
LINE
  5
79C
  8
NOCUT
 10
0.2999999999999972
 20
34.62500000000001
 30
0.0
 11
0.0
 21
34.92499999999999
 31
0.0
  0
ARC
  5
79E
  8
NOCUT
 10
0.7999999999999972
 20
35.62500000000001
 30
0.0
 40
1.0
 50
270.0
 51
314.4270040008
  0
LINE
  5
7A0
  8
NOCUT
 10
12.55499999999999
 20
45.64499999999999
 30
0.0
 11
9.704999999999998
 21
45.64499999999999
 31
0.0
  0
ARC
  5
7A1
  8
NOCUT
 10
12.55499999999999
 20
46.14499999999999
 30
0.0
 40
0.5
 50
270.0
 51
0.0
  0
ARC
  5
7A2
  8
NOCUT
 10
9.704999999999998
 20
46.14499999999999
 30
0.0
 40
0.5
 50
180.0
 51
270.0
  0
ARC
  5
7A3
  8
NOCUT
 10
2.299999999999997
 20
48.4125
 30
0.0
 40
0.7999999999999972
 50
90.0
 51
180.0
  0
ARC
  5
7A4
  8
NOCUT
 10
18.24999999999999
 20
48.4125
 30
0.0
 40
0.799999999999983
 50
0.0
 51
90.0
  0
LINE
  5
7A5
  8
NOCUT
 10
9.204999999999998
 20
46.43919780459999
 30
0.0
 11
7.603833230999996
 21
49.21250000000001
 31
0.0
  0
LINE
  5
7A6
  8
NOCUT
 10
14.65616676910001
 20
49.21250000000001
 30
0.0
 11
13.05499999999999
 21
46.43919780459999
 31
0.0
  0
LINE
  5
7A7
  8
NOCUT
 10
18.24999999999999
 20
49.21250000000001
 30
0.0
 11
14.65616676910001
 21
49.21250000000001
 31
0.0
  0
LINE
  5
7A8
  8
NOCUT
 10
7.603833230999996
 20
49.21250000000001
 30
0.0
 11
2.299999999999997
 21
49.21250000000001
 31
0.0
  0
LINE
  5
7AC
  8
NOCUT
 10
1.5
 20
48.4125
 30
0.0
 11
1.499999999999929
 21
34.91085715714565
 31
0.0
  0
LINE
  5
7AD
  8
NOCUT
 10
19.04999999999997
 20
48.4125
 30
0.0
 11
19.04999999999997
 21
46.0
 31
0.0
  0
LINE
  5
7AE
  8
NOCUT
 10
9.204999999999998
 20
46.43919780459999
 30
0.0
 11
9.204999999999998
 21
46.14499999999999
 31
0.0
  0
LINE
  5
7AF
  8
NOCUT
 10
13.05499999999999
 20
46.43919780459999
 30
0.0
 11
13.05499999999999
 21
46.14499999999999
 31
0.0
  0
DIMENSION
  5
804
  8
SK2
  2
*D8
 10
76.2
 20
72.10718850547971
 30
0.0
 11
38.1
 21
73.98218850547971
 31
0.0
 70
    32
  3
ISO-25
 13
0.0
 23
34.92499999999998
 33
0.0
 14
76.2
 24
60.90000000000001
 34
0.0
1001
ACAD
1000
DSTYLE
1002
{
1070
   287
1070
     5
1070
   271
1070
     3
1070
   272
1070
     3
1070
   279
1070
     2
1002
}
  0
LINE
  5
8BF
  8
NOCUT
 10
0.0
 20
34.92499999999999
 30
0.0
 11
0.0
 21
0.0
 31
0.0
  0
LINE
  5
8C0
  8
NOCUT
 10
0.0
 20
0.0
 30
0.0
 11
76.2
 21
0.0
 31
0.0
  0
INSERT
  5
A17
  8
SK6
  2
_FILLED
 10
-20.78186483605847
 20
-31.89428358495073
 30
0.0
 41
3.5
 42
3.5
 43
3.5
 50
52.86965044919886
  0
POLYLINE
  5
A18
  8
SK6
 66
     1
 10
0.0
 20
0.0
 30
0.0
  0
VERTEX
  5
1634
  8
SK6
 10
-22.89457117648658
 20
-34.68470862768434
 30
0.0
  0
VERTEX
  5
1635
  8
SK6
 10
-48.02596493475846
 20
-67.87780752645074
 30
0.0
  0
VERTEX
  5
1636
  8
SK6
 10
-49.90096493475846
 20
-66.12780752645074
 30
0.0
  0
VERTEX
  5
1637
  8
SK6
 10
-53.40096493475846
 20
-66.12780752645074
 30
0.0
  0
SEQEND
  5
1B3D
  8
SK6
  0
ARC
  5
ACA
  8
1
 10
1.299999999999983
 20
35.125
 30
0.0
 40
0.5
 50
270.0
 51
293.5781784781994
  0
ARC
  5
ACB
  8
1
 10
1.299999999999983
 20
-35.125
 30
0.0
 40
0.500000000000009
 50
66.42182152180017
 51
90.0
  0
LINE
  5
ACF
  8
1
 10
0.0
 20
-34.92500000000001
 30
0.0
 11
0.2999999999999829
 21
-34.625
 31
0.0
  0
LINE
  5
AD0
  8
1
 10
0.2999999999999829
 20
34.625
 30
0.0
 11
0.0
 21
34.92499999999998
 31
0.0
  0
LINE
  5
AD5
  8
1
 10
1.299999999999983
 20
34.625
 30
0.0
 11
0.2999999999999829
 21
34.625
 31
0.0
  0
LINE
  5
AD6
  8
1
 10
0.2999999999999829
 20
-34.625
 30
0.0
 11
1.299999999999983
 21
-34.625
 31
0.0
  0
LINE
  5
ADB
  8
1
 10
14.65616694409999
 20
-47.282880439
 30
0.0
 11
14.68806954659999
 21
-47.29184187660002
 31
0.0
  0
LINE
  5
ADC
  8
1
 10
14.6561667691
 20
47.30816788690001
 30
0.0
 11
14.6561667691
 21
-47.2826327523
 31
0.0
  0
LINE
  5
ADD
  8
1
 10
14.7615962207
 20
47.3314147463
 30
0.0
 11
14.6561668942
 21
47.30816788690001
 31
0.0
  0
LINE
  5
ADE
  8
1
 10
18.25
 20
47.3314147463
 30
0.0
 11
14.7615962207
 21
47.3314147463
 31
0.0
  0
LINE
  5
ADF
  8
1
 10
14.68806954659999
 20
-47.29184187660002
 30
0.0
 11
18.25
 21
-47.29184187660002
 31
0.0
  0
LINE
  5
AE0
  8
1
 10
7.498403779400007
 20
47.3314147463
 30
0.0
 11
4.006414746699988
 21
47.3314147463
 31
0.0
  0
LINE
  5
AE1
  8
1
 10
7.603833105900009
 20
47.30816788690001
 30
0.0
 11
7.498403779400007
 21
47.3314147463
 31
0.0
  0
LINE
  5
AE2
  8
1
 10
7.603833230899994
 20
47.30844201400001
 30
0.0
 11
7.603833230899994
 21
-47.28288044160001
 31
0.0
  0
LINE
  5
AE3
  8
1
 10
7.571930453299984
 20
-47.29184187660002
 30
0.0
 11
7.603833055899997
 21
-47.282880439
 31
0.0
  0
LINE
  5
AE4
  8
1
 10
4.040356993800003
 20
-47.29184187660002
 30
0.0
 11
7.571930453299984
 21
-47.29184187660002
 31
0.0
  0
LINE
  5
AE5
  8
1
 10
2.300001405499984
 20
-46.74795901499999
 30
0.0
 11
4.040356993800003
 21
-47.29184189310001
 31
0.0
  0
LINE
  5
AE6
  8
1
 10
4.006414746699988
 20
47.33141476029999
 30
0.0
 11
2.299999765199999
 21
46.80267569
 31
0.0
  0
ARC
  5
AE7
  8
1
 10
2.557435939599998
 20
-45.59355264690001
 30
0.0
 40
1.184053137363273
 50
207.7147598986998
 51
257.3157095984005
  0
LINE
  5
AE8
  8
1
 10
1.50922466130001
 20
-46.14422037630001
 30
0.0
 11
1.5
 21
-46.01377680920001
 31
0.0
  0
LINE
  5
AE9
  8
1
 10
1.5
 20
-46.01377680920001
 30
0.0
 11
1.5
 21
46.01377680919998
 31
0.0
  0
ARC
  5
AEA
  8
1
 10
2.572884962100005
 20
45.72649004249999
 30
0.0
 40
1.111555736593689
 50
104.3436511600003
 51
164.8417645594994
  0
LINE
  5
AEB
  8
1
 10
9.204999995999998
 20
44.41431970880001
 30
0.0
 11
7.60383322749999
 21
47.3081678945
 31
0.0
  0
LINE
  5
AEC
  8
1
 10
9.204999999999984
 20
44.4143196734
 30
0.0
 11
9.204999999999984
 21
-44.387299867
 31
0.0
  0
LINE
  5
AED
  8
1
 10
7.603833226399985
 20
-47.28288044990001
 30
0.0
 11
9.2049999921
 21
-44.38762367050001
 31
0.0
  0
LINE
  5
AEE
  8
1
 10
14.65616677259999
 20
47.3081678945
 30
0.0
 11
13.05500000399999
 21
44.41431970880001
 31
0.0
  0
LINE
  5
AEF
  8
1
 10
13.05500000800001
 20
-44.38762367050001
 30
0.0
 11
14.65616677360001
 21
-47.28288044990001
 31
0.0
  0
LINE
  5
AF0
  8
1
 10
13.05500000000001
 20
44.41459195280001
 30
0.0
 11
13.05500000000001
 21
-44.38762365650001
 31
0.0
  0
ARC
  5
AF1
  8
1
 10
17.92302328310001
 20
46.41895288640001
 30
0.0
 40
1.127359624435328
 50
1.493363825500091
 51
43.53750291790048
  0
LINE
  5
AF2
  8
1
 10
19.04999999999998
 20
46.44833319130001
 30
0.0
 11
19.04999999999998
 21
-46.44833319130001
 31
0.0
  0
ARC
  5
AF3
  8
1
 10
17.91824827779999
 20
-46.4157978575
 30
0.0
 40
1.1322192847622
 50
319.2464850235001
 51
358.3533278529993
  0
ARC
  5
AF4
  8
1
 10
18.2616113983
 20
-46.25791326929999
 30
0.0
 40
1.033993805426882
 50
269.3565743835002
 51
299.8289453780985
  0
ARC
  5
AF5
  8
1
 10
18.2610591033
 20
46.41902767409999
 30
0.0
 40
0.9124540938653742
 50
58.31881226410037
 51
90.69445187719943
  0
ARC
  5
AF6
  8
1
 10
12.5158206966
 20
-44.1073442162
 30
0.0
 40
0.5397579791454132
 50
357.3466499737992
 51
85.83742202690154
  0
ARC
  5
AF7
  8
1
 10
12.54139279200001
 20
44.09944295630001
 30
0.0
 40
0.4858431210597904
 50
271.6049163143007
 51
333.441972537701
  0
POLYLINE
  5
AF8
  8
1
 66
     1
 10
0.0
 20
0.0
 30
0.0
  0
VERTEX
  5
1638
  8
1
 10
13.05500000000001
 20
44.14662312639999
 30
0.0
  0
VERTEX
  5
1639
  8
1
 10
13.03542892280001
 20
44.01594229719998
 30
0.0
  0
VERTEX
  5
163A
  8
1
 10
12.97787844319998
 20
43.88571451269999
 30
0.0
  0
SEQEND
  5
1B3C
  8
1
  0
ARC
  5
AF9
  8
1
 10
9.744214343399989
 20
-44.10737531749999
 30
0.0
 40
0.5397915428070933
 50
94.16604783349855
 51
182.6498801657025
  0
POLYLINE
  5
AFA
  8
1
 66
     1
 10
0.0
 20
0.0
 30
0.0
  0
VERTEX
  5
163B
  8
1
 10
9.280099379399985
 20
43.88913247470001
 30
0.0
  0
VERTEX
  5
163C
  8
1
 10
9.224055884099982
 20
44.0177026321
 30
0.0
  0
VERTEX
  5
163D
  8
1
 10
9.204999999999984
 20
44.14662312639999
 30
0.0
  0
SEQEND
  5
1B3B
  8
1
  0
ARC
  5
AFB
  8
1
 10
9.721350266000002
 20
44.10422581969999
 30
0.0
 40
0.4907078648052702
 50
206.0244317763009
 51
268.0905652222996
  0
LINE
  5
AFC
  8
1
 10
12.55500000000001
 20
43.613790424
 30
0.0
 11
9.704999999999984
 21
43.613790424
 31
0.0
  0
LINE
  5
AFD
  8
1
 10
9.704999999999984
 20
-43.5690100651
 30
0.0
 11
12.55500000000001
 21
-43.5690100651
 31
0.0
  0
LINE
  5
B00
  8
1
 10
0.2999999999999829
 20
34.625
 30
0.0
 11
0.2999999999999829
 21
-34.625
 31
0.0
  0
LINE
  5
B01
  8
1
 10
0.0
 20
34.92499999999998
 30
0.0
 11
0.0
 21
-34.92500000000001
 31
0.0
  0
LINE
  5
B04
  8
1
 10
14.68806954670001
 20
-47.29184187660002
 30
0.0
 11
14.65616694420001
 21
-47.282880439
 31
0.0
  0
LINE
  5
B5C
  8
1
 10
1.299999999999983
 20
-34.625
 30
0.0
 11
1.299999999999983
 21
34.625
 31
0.0
  0
LINE
  5
B5F
  8
1
 10
12.55500000000001
 20
-43.00413183130001
 30
0.0
 11
12.55500000000001
 21
42.79577481850001
 31
0.0
  0
LINE
  5
B60
  8
1
 10
9.704999999999984
 20
-43.00421493109999
 30
0.0
 11
9.704999999999984
 21
42.7957705776
 31
0.0
  0
LINE
  5
B62
  8
1
 10
18.25
 20
47.3314147463
 30
0.0
 11
18.25
 21
-47.29184187660002
 31
0.0
  0
LINE
  5
B64
  8
1
 10
2.299999999999983
 20
-46.74795854910002
 30
0.0
 11
2.299999999999983
 21
46.80267576719999
 31
0.0
  0
LINE
  5
CE2
  8
1
 10
49.00000000000001
 20
-61.90000000000001
 30
0.0
 11
75.2
 21
-61.90000000000001
 31
0.0
  0
LINE
  5
CE3
  8
1
 10
75.2
 20
61.90000000000001
 30
0.0
 11
49.00000000000001
 21
61.90000000000001
 31
0.0
  0
ARC
  5
CE4
  8
1
 10
49.00000000000001
 20
60.90000000000001
 30
0.0
 40
1.0
 50
90.0
 51
180.0
  0
ARC
  5
CE5
  8
1
 10
49.00000000000001
 20
-60.90000000000001
 30
0.0
 40
1.0
 50
180.0
 51
270.0
  0
ARC
  5
CE6
  8
1
 10
75.2
 20
-60.90000000000001
 30
0.0
 40
1.0
 50
270.0
 51
0.0
  0
ARC
  5
CE7
  8
1
 10
75.2
 20
60.90000000000001
 30
0.0
 40
1.0
 50
0.0
 51
90.0
  0
LINE
  5
CE8
  8
1
 10
46.00000000000001
 20
44.99999999999997
 30
0.0
 11
34.95444983590001
 21
44.99999999999997
 31
0.0
  0
LINE
  5
CE9
  8
1
 10
35.3987179667
 20
-45.00000000000003
 30
0.0
 11
46.00000000000001
 21
-45.00000000000003
 31
0.0
  0
ARC
  5
CFA
  8
1
 10
46.00000000000001
 20
-47.00000000000003
 30
0.0
 40
2.0
 50
0.0
 51
90.0
  0
ARC
  5
CFB
  8
1
 10
46.00000000000001
 20
46.99999999999997
 30
0.0
 40
2.0
 50
270.0
 51
0.0
  0
LINE
  5
CFF
  8
1
 10
76.2
 20
-58.74380999999997
 30
0.0
 11
76.22857499979999
 21
-58.74380999999997
 31
0.0
  0
LINE
  5
D00
  8
1
 10
76.22857499979999
 20
58.74380999999997
 30
0.0
 11
76.2
 21
58.74380999999997
 31
0.0
  0
CIRCLE
  5
D06
  8
1
 10
63.50000000000001
 20
-0.0000000000000284
 30
0.0
 40
2.624999999999886
  0
LINE
  5
D07
  8
1
 10
48.00000000000001
 20
-60.90000000000001
 30
0.0
 11
48.00000000000001
 21
60.90000000000001
 31
0.0
  0
LINE
  5
D08
  8
1
 10
76.2
 20
-0.0000000000000284
 30
0.0
 11
76.2
 21
60.90000000000001
 31
0.0
  0
LINE
  5
D09
  8
1
 10
76.2
 20
-60.90000000000001
 30
0.0
 11
76.2
 21
-0.0000000000000284
 31
0.0
  0
CIRCLE
  5
D0A
  8
1
 10
63.50000000000001
 20
-0.0000000000000284
 30
0.0
 40
2.099999999999966
  0
ARC
  5
D24
  8
1
 10
44.93001619979999
 20
-17.21301760229997
 30
0.0
 40
12.29321184409763
 50
275.9296763435
 51
283.0798187823
  0
LINE
  5
D25
  8
1
 10
46.00000000000001
 20
-29.94685204620001
 30
0.0
 11
46.2
 21
-29.44045390720001
 31
0.0
  0
LINE
  5
D26
  8
1
 10
46.2
 20
29.4404539073
 30
0.0
 11
46.00000000000001
 21
29.94685204629999
 31
0.0
  0
ARC
  5
D27
  8
1
 10
45.9091736852
 20
22.18219644519999
 30
0.0
 40
7.264081589006765
 50
74.55184477279997
 51
87.70548073220009
  0
ARC
  5
D2C
  8
1
 10
20.07380401249999
 20
44.14999592719997
 30
0.0
 40
1.023975564550077
 50
178.951190014999
 51
268.6679444594008
  0
ARC
  5
D2D
  8
1
 10
20.08657905209999
 20
-44.00521230129996
 30
0.0
 40
1.037563403324326
 50
92.0203678043997
 51
182.4959719318981
  0
LINE
  5
D30
  8
1
 10
20.05
 20
-42.96829389140001
 30
0.0
 11
22.14999999999999
 21
-42.96829389140001
 31
0.0
  0
LINE
  5
D31
  8
1
 10
22.14999999999999
 20
43.12629708199998
 30
0.0
 11
20.05
 21
43.12629708199998
 31
0.0
  0
ARC
  5
D32
  8
1
 10
21.81753188590001
 20
90.4011374628
 30
0.0
 40
47.27600943478924
 50
270.402935379
 51
286.1335410853
  0
POLYLINE
  5
D33
  8
1
 66
     1
 10
0.0
 20
0.0
 30
0.0
  0
VERTEX
  5
163E
  8
1
 10
22.14999999999999
 20
-42.96829389140001
 30
0.0
  0
VERTEX
  5
163F
  8
1
 10
24.74516584020002
 20
-43.04800242130003
 30
0.0
  0
VERTEX
  5
1640
  8
1
 10
27.23971130310001
 20
-43.27408220990006
 30
0.0
  0
VERTEX
  5
1641
  8
1
 10
29.5174367531
 20
-43.6065521029
 30
0.0
  0
VERTEX
  5
1642
  8
1
 10
31.51858638
 20
-43.99575100960001
 30
0.0
  0
VERTEX
  5
1643
  8
1
 10
33.15722296420002
 20
-44.38035867969998
 30
0.0
  0
VERTEX
  5
1644
  8
1
 10
34.38170102709999
 20
-44.70553087990007
 30
0.0
  0
VERTEX
  5
1645
  8
1
 10
35.142073368
 20
-44.92337387559999
 30
0.0
  0
VERTEX
  5
1646
  8
1
 10
35.3999935211
 20
-44.99999809060003
 30
0.0
  0
VERTEX
  5
1647
  8
1
 10
35.3987179667
 20
-44.99961911630001
 30
0.0
  0
SEQEND
  5
1B3A
  8
1
  0
ARC
  5
D34
  8
1
 10
50.3570232453
 20
31.7676664981
 30
0.0
 40
4.722183480970104
 50
157.3197883739004
 51
202.6802116260002
  0
ARC
  5
D35
  8
1
 10
50.36255321520001
 20
-31.76766649800007
 30
0.0
 40
4.727286306513112
 50
157.3456321723005
 51
202.6543678274994
  0
LINE
  5
D36
  8
1
 10
46.2
 20
29.4404539073
 30
0.0
 11
46.2
 21
34.04646876780001
 31
0.0
  0
ARC
  5
D37
  8
1
 10
45.17890372149999
 20
36.67919394839996
 30
0.0
 40
2.823805851412504
 50
291.1986659589003
 51
2.510182919300261
  0
ARC
  5
D38
  8
1
 10
45.28112875449999
 20
-36.61243835780002
 30
0.0
 40
2.72553193028447
 50
355.9935482470011
 51
70.29760287480023
  0
LINE
  5
D39
  8
1
 10
46.2
 20
-34.04646876780001
 30
0.0
 11
46.2
 21
-29.44045390720001
 31
0.0
  0
LINE
  5
D3C
  8
1
 10
46.2
 20
-34.04646876780001
 30
0.0
 11
46.00000000000001
 21
-33.58848094990006
 31
0.0
  0
POLYLINE
  5
D3D
  8
1
 66
     1
 10
0.0
 20
0.0
 30
0.0
  0
VERTEX
  5
1648
  8
1
 10
46.00000000000001
 20
33.5884809499
 30
0.0
  0
VERTEX
  5
1649
  8
1
 10
46.08080315970001
 20
33.78004028289999
 30
0.0
  0
VERTEX
  5
164A
  8
1
 10
46.2
 20
34.04646876780001
 30
0.0
  0
SEQEND
  5
1B39
  8
1
  0
LINE
  5
D43
  8
1
 10
62.25000000000001
 20
-0.7216878365000241
 30
0.0
 11
63.50000000000001
 21
-1.443375672899975
 31
0.0
  0
LINE
  5
D44
  8
1
 10
64.75000000000001
 20
-0.7216878365000241
 30
0.0
 11
63.50000000000001
 21
-1.443375672899975
 31
0.0
  0
LINE
  5
D45
  8
1
 10
64.75000000000001
 20
0.7216878364999673
 30
0.0
 11
64.75000000000001
 21
-0.7216878365000241
 31
0.0
  0
LINE
  5
D46
  8
1
 10
64.75000000000001
 20
0.7216878364999673
 30
0.0
 11
63.50000000000001
 21
1.443375672999963
 31
0.0
  0
LINE
  5
D47
  8
1
 10
62.25000000000001
 20
0.7216878364999673
 30
0.0
 11
63.50000000000001
 21
1.443375672999963
 31
0.0
  0
LINE
  5
D48
  8
1
 10
62.25000000000001
 20
0.7216878364999673
 30
0.0
 11
62.25000000000001
 21
-0.7216878365000241
 31
0.0
  0
CIRCLE
  5
D49
  8
1
 10
63.50000000000001
 20
-0.0000000000000284
 30
0.0
 40
2.055000000000007
  0
POLYLINE
  5
D5B
  8
3
 66
     1
 10
0.0
 20
0.0
 30
0.0
  0
VERTEX
  5
164B
  8
3
 10
63.50000000000001
 20
54.87124841009998
 30
0.0
  0
VERTEX
  5
164C
  8
3
 10
62.6315529502
 20
54.80261920219996
 30
0.0
  0
VERTEX
  5
164D
  8
3
 10
61.86102218930002
 20
54.60278214319996
 30
0.0
  0
VERTEX
  5
164E
  8
3
 10
61.2747824604
 20
54.2896521827
 30
0.0
  0
VERTEX
  5
164F
  8
3
 10
60.93923872770002
 20
53.89322775150001
 30
0.0
  0
VERTEX
  5
1650
  8
3
 10
60.89252385339999
 20
53.45492668399996
 30
0.0
  0
VERTEX
  5
1651
  8
3
 10
61.1393886275
 20
53.02369968409997
 30
0.0
  0
VERTEX
  5
1652
  8
3
 10
61.652040751
 20
52.65049574819997
 30
0.0
  0
VERTEX
  5
1653
  8
3
 10
62.3733779736
 20
52.38216563129996
 30
0.0
  0
VERTEX
  5
1654
  8
3
 10
62.40659209650001
 20
52.37715562919996
 30
0.0
  0
SEQEND
  5
1B38
  8
3
  0
POLYLINE
  5
D5C
  8
3
 66
     1
 10
0.0
 20
0.0
 30
0.0
  0
VERTEX
  5
1655
  8
3
 10
64.5909665427
 20
52.39398802299999
 30
0.0
  0
VERTEX
  5
1656
  8
3
 10
64.9123236315
 20
52.46637089979995
 30
0.0
  0
VERTEX
  5
1657
  8
3
 10
65.5648775149
 20
52.77820658229999
 30
0.0
  0
VERTEX
  5
1658
  8
3
 10
65.98503589970001
 20
53.1791151605
 30
0.0
  0
VERTEX
  5
1659
  8
3
 10
66.12488508880001
 20
53.61924905480001
 30
0.0
  0
VERTEX
  5
165A
  8
3
 10
65.9690138854
 20
54.04711413929996
 30
0.0
  0
VERTEX
  5
165B
  8
3
 10
65.53526980209999
 20
54.41664383819997
 30
0.0
  0
VERTEX
  5
165C
  8
3
 10
64.8719132588
 20
54.69090649969999
 30
0.0
  0
VERTEX
  5
165D
  8
3
 10
64.0535346999
 20
54.84388085169999
 30
0.0
  0
VERTEX
  5
165E
  8
3
 10
63.50000000000001
 20
54.87124841009998
 30
0.0
  0
SEQEND
  5
1B37
  8
3
  0
POLYLINE
  5
D5D
  8
3
 66
     1
 10
0.0
 20
0.0
 30
0.0
  0
VERTEX
  5
165F
  8
3
 10
63.50000000000001
 20
-52.24624841000005
 30
0.0
  0
VERTEX
  5
1660
  8
3
 10
62.6315529502
 20
-52.32543840100007
 30
0.0
  0
VERTEX
  5
1661
  8
3
 10
61.86102218930002
 20
-52.55232445369998
 30
0.0
  0
VERTEX
  5
1662
  8
3
 10
61.2747824604
 20
-52.8971609255
 30
0.0
  0
VERTEX
  5
1663
  8
3
 10
60.93923872770002
 20
-53.31605645410005
 30
0.0
  0
VERTEX
  5
1664
  8
3
 10
60.89252385339999
 20
-53.75773544389997
 30
0.0
  0
VERTEX
  5
1665
  8
3
 10
61.1393886275
 20
-54.17180200869998
 30
0.0
  0
VERTEX
  5
1666
  8
3
 10
61.652040751
 20
-54.51481106869997
 30
0.0
  0
VERTEX
  5
1667
  8
3
 10
62.3733779736
 20
-54.75310380210001
 30
0.0
  0
VERTEX
  5
1668
  8
3
 10
63.2218851288
 20
-54.86440271660004
 30
0.0
  0
VERTEX
  5
1669
  8
3
 10
64.10113239479999
 20
-54.8388997799
 30
0.0
  0
VERTEX
  5
166A
  8
3
 10
64.9123236315
 20
-54.67905410339998
 30
0.0
  0
VERTEX
  5
166B
  8
3
 10
65.5648775149
 20
-54.3989798076
 30
0.0
  0
VERTEX
  5
166C
  8
3
 10
65.98503589970001
 20
-54.02482289800005
 30
0.0
  0
VERTEX
  5
166D
  8
3
 10
66.12488508880001
 20
-53.59468749350006
 30
0.0
  0
VERTEX
  5
166E
  8
3
 10
65.9690138854
 20
-53.15571331260006
 30
0.0
  0
VERTEX
  5
166F
  8
3
 10
65.53526980209999
 20
-52.75884353879999
 30
0.0
  0
VERTEX
  5
1670
  8
3
 10
64.8719132588
 20
-52.45294336099997
 30
0.0
  0
VERTEX
  5
1671
  8
3
 10
64.0535346999
 20
-52.27790650730006
 30
0.0
  0
VERTEX
  5
1672
  8
3
 10
63.50000000000001
 20
-52.24624841000005
 30
0.0
  0
SEQEND
  5
1B36
  8
3
  0
LINE
  5
D5F
  8
3
 10
60.8
 20
2.499999999999972
 30
0.0
 11
60.8
 21
-2.500000000000028
 31
0.0
  0
LINE
  5
D6F
  8
3
 10
1.499999999999993
 20
-35.29999999999998
 30
0.0
 11
35.00000000000001
 21
-35.29999999999998
 31
0.0
  0
LINE
  5
D74
  8
3
 10
1.499999999999993
 20
37.72
 30
0.0
 11
35.00000000000001
 21
37.72
 31
0.0
  0
LINE
  5
D75
  8
3
 10
60.2
 20
-33.53999999999999
 30
0.0
 11
60.2
 21
-58.53999999999999
 31
0.0
  0
LINE
  5
D76
  8
3
 10
60.2
 20
58.53999999999999
 30
0.0
 11
60.2
 21
33.53999999999999
 31
0.0
  0
LINE
  5
D78
  8
3
 10
44.8
 20
11.90624999999997
 30
0.0
 11
44.8
 21
-11.90625000000003
 31
0.0
  0
POLYLINE
  5
D79
  8
3
 66
     1
 10
0.0
 20
0.0
 30
0.0
  0
VERTEX
  5
1673
  8
3
 10
63.50000000000001
 20
11.19946263590001
 30
0.0
  0
VERTEX
  5
1674
  8
3
 10
64.18896009129999
 20
11.1588691725
 30
0.0
  0
VERTEX
  5
1675
  8
3
 10
64.80015323740001
 20
11.03628881749998
 30
0.0
  0
VERTEX
  5
1676
  8
3
 10
65.27153861449999
 20
10.82860022200001
 30
0.0
  0
VERTEX
  5
1677
  8
3
 10
65.54580252480001
 20
10.53994846059996
 30
0.0
  0
VERTEX
  5
1678
  8
3
 10
65.58763476950001
 20
10.19545432059996
 30
0.0
  0
VERTEX
  5
1679
  8
3
 10
65.39928825100002
 20
9.83391156999997
 30
0.0
  0
VERTEX
  5
167A
  8
3
 10
65.00185507190001
 20
9.498562433399997
 30
0.0
  0
VERTEX
  5
167B
  8
3
 10
64.43077882870001
 20
9.240192636999979
 30
0.0
  0
VERTEX
  5
167C
  8
3
 10
63.75207148560001
 20
9.109401761599969
 30
0.0
  0
VERTEX
  5
167D
  8
3
 10
63.05329922950001
 20
9.13086249609998
 30
0.0
  0
VERTEX
  5
167E
  8
3
 10
62.40945015980002
 20
9.295994279099972
 30
0.0
  0
VERTEX
  5
167F
  8
3
 10
61.88070616009999
 20
9.577326273500006
 30
0.0
  0
VERTEX
  5
1680
  8
3
 10
61.52839004650001
 20
9.930576897000009
 30
0.0
  0
VERTEX
  5
1681
  8
3
 10
61.4001947407
 20
10.29678598079997
 30
0.0
  0
VERTEX
  5
1682
  8
3
 10
61.50640011980001
 20
10.62524678739996
 30
0.0
  0
VERTEX
  5
1683
  8
3
 10
61.83053629640001
 20
10.88888660629996
 30
0.0
  0
VERTEX
  5
1684
  8
3
 10
62.34397196850001
 20
11.07530430019997
 30
0.0
  0
VERTEX
  5
1685
  8
3
 10
62.9931198389
 20
11.17790552609998
 30
0.0
  0
VERTEX
  5
1686
  8
3
 10
63.50000000000001
 20
11.19946263590001
 30
0.0
  0
SEQEND
  5
1B35
  8
3
  0
POLYLINE
  5
D7A
  8
3
 66
     1
 10
0.0
 20
0.0
 30
0.0
  0
VERTEX
  5
1687
  8
3
 10
63.50000000000001
 20
-9.099462635800052
 30
0.0
  0
VERTEX
  5
1688
  8
3
 10
64.18896009129999
 20
-9.175101546799993
 30
0.0
  0
VERTEX
  5
1689
  8
3
 10
64.80015323740001
 20
-9.38716736669997
 30
0.0
  0
VERTEX
  5
168A
  8
3
 10
65.27153861449999
 20
-9.700925207900042
 30
0.0
  0
VERTEX
  5
168B
  8
3
 10
65.54580252480001
 20
-10.06593155210001
 30
0.0
  0
VERTEX
  5
168C
  8
3
 10
65.58763476950001
 20
-10.42300886130002
 30
0.0
  0
VERTEX
  5
168D
  8
3
 10
65.39928825100002
 20
-10.72984914560007
 30
0.0
  0
VERTEX
  5
168E
  8
3
 10
65.00185507190001
 20
-10.96636056080004
 30
0.0
  0
VERTEX
  5
168F
  8
3
 10
64.43077882870001
 20
-11.12265134090003
 30
0.0
  0
VERTEX
  5
1690
  8
3
 10
63.75207148560001
 20
-11.19421829219996
 30
0.0
  0
VERTEX
  5
1691
  8
3
 10
63.05329922950001
 20
-11.18280265629997
 30
0.0
  0
VERTEX
  5
1692
  8
3
 10
62.40945015980002
 20
-11.09062545170005
 30
0.0
  0
VERTEX
  5
1693
  8
3
 10
61.88070616009999
 20
-10.91444536309999
 30
0.0
  0
VERTEX
  5
1694
  8
3
 10
61.52839004650001
 20
-10.65359431810001
 30
0.0
  0
VERTEX
  5
1695
  8
3
 10
61.4001947407
 20
-10.32538445700007
 30
0.0
  0
VERTEX
  5
1696
  8
3
 10
61.50640011980001
 20
-9.96527745640006
 30
0.0
  0
VERTEX
  5
1697
  8
3
 10
61.83053629640001
 20
-9.614959236800047
 30
0.0
  0
VERTEX
  5
1698
  8
3
 10
62.34397196850001
 20
-9.322135970999994
 30
0.0
  0
VERTEX
  5
1699
  8
3
 10
62.9931198389
 20
-9.139996670800002
 30
0.0
  0
VERTEX
  5
169A
  8
3
 10
63.50000000000001
 20
-9.099462635800052
 30
0.0
  0
SEQEND
  5
1B34
  8
3
  0
LINE
  5
D7B
  8
3
 10
44.32306688359999
 20
11.11249999999998
 30
0.0
 11
44.32306688359999
 21
-11.11249999999998
 31
0.0
  0
LINE
  5
D7F
  8
3
 10
11.17999999999999
 20
28.72
 30
0.0
 11
17.53000000000002
 21
28.72
 31
0.0
  0
LINE
  5
D80
  8
3
 10
4.829999999999998
 20
28.72
 30
0.0
 11
11.17999999999999
 21
28.72
 31
0.0
  0
LINE
  5
D81
  8
3
 10
25.1921962805
 20
29.66999999999999
 30
0.0
 11
30.24219628050001
 21
29.66999999999999
 31
0.0
  0
LINE
  5
D82
  8
3
 10
20.14219628050002
 20
29.66999999999999
 30
0.0
 11
25.1921962805
 21
29.66999999999999
 31
0.0
  0
LINE
  5
D83
  8
3
 10
11.17999999999999
 20
13.72
 30
0.0
 11
15.94250000000001
 21
13.72
 31
0.0
  0
LINE
  5
D84
  8
3
 10
6.417500000000004
 20
13.72
 30
0.0
 11
11.17999999999999
 21
13.72
 31
0.0
  0
POLYLINE
  5
D85
  8
3
 66
     1
 10
0.0
 20
0.0
 30
0.0
  0
VERTEX
  5
169B
  8
3
 10
63.50000000000001
 20
17.19577406329998
 30
0.0
  0
VERTEX
  5
169C
  8
3
 10
63.9304980852
 20
17.11573260750001
 30
0.0
  0
VERTEX
  5
169D
  8
3
 10
64.4629671366
 20
16.81295460459998
 30
0.0
  0
VERTEX
  5
169E
  8
3
 10
65.08699247880001
 20
16.20014654299999
 30
0.0
  0
VERTEX
  5
169F
  8
3
 10
65.4319128748
 20
15.68781162819997
 30
0.0
  0
VERTEX
  5
16A0
  8
3
 10
65.5818736467
 20
15.3062748541
 30
0.0
  0
VERTEX
  5
16A1
  8
3
 10
65.5772792897
 20
15.01790853499998
 30
0.0
  0
VERTEX
  5
16A2
  8
3
 10
65.43391519059999
 20
14.86551659759996
 30
0.0
  0
VERTEX
  5
16A3
  8
3
 10
65.157347602
 20
14.82093185189999
 30
0.0
  0
VERTEX
  5
16A4
  8
3
 10
64.5782358744
 20
14.91883184739996
 30
0.0
  0
VERTEX
  5
16A5
  8
3
 10
64.0318152679
 20
15.0429432741
 30
0.0
  0
VERTEX
  5
16A6
  8
3
 10
63.62080609000002
 20
15.09286334889995
 30
0.0
  0
VERTEX
  5
16A7
  8
3
 10
63.19265058200001
 20
15.07730321049999
 30
0.0
  0
VERTEX
  5
16A8
  8
3
 10
62.71000875450001
 20
14.9882014243
 30
0.0
  0
VERTEX
  5
16A9
  8
3
 10
62.0743520573
 20
14.84532979989999
 30
0.0
  0
VERTEX
  5
16AA
  8
3
 10
61.60235341830001
 20
14.85070508199996
 30
0.0
  0
VERTEX
  5
16AB
  8
3
 10
61.4300075012
 20
15.00035813989999
 30
0.0
  0
VERTEX
  5
16AC
  8
3
 10
61.4135167159
 20
15.28420873779996
 30
0.0
  0
VERTEX
  5
16AD
  8
3
 10
61.54092127369999
 20
15.63505354949999
 30
0.0
  0
VERTEX
  5
16AE
  8
3
 10
61.7987198826
 20
16.05171843769998
 30
0.0
  0
VERTEX
  5
16AF
  8
3
 10
62.34865493369999
 20
16.65778889979995
 30
0.0
  0
VERTEX
  5
16B0
  8
3
 10
62.93314974990001
 20
17.0583515854
 30
0.0
  0
VERTEX
  5
16B1
  8
3
 10
63.35802959359999
 20
17.18695527009996
 30
0.0
  0
VERTEX
  5
16B2
  8
3
 10
63.50000000000001
 20
17.19577406329998
 30
0.0
  0
SEQEND
  5
1B33
  8
3
  0
POLYLINE
  5
D86
  8
3
 66
     1
 10
0.0
 20
0.0
 30
0.0
  0
VERTEX
  5
16B3
  8
3
 10
63.50000000000001
 20
-15.09577406320003
 30
0.0
  0
VERTEX
  5
16B4
  8
3
 10
63.9304980852
 20
-15.06033206279997
 30
0.0
  0
VERTEX
  5
16B5
  8
3
 10
64.4629671366
 20
-14.94675678709999
 30
0.0
  0
VERTEX
  5
16B6
  8
3
 10
65.08699247880001
 20
-14.82484480430006
 30
0.0
  0
VERTEX
  5
16B7
  8
3
 10
65.4319128748
 20
-14.86457858439999
 30
0.0
  0
VERTEX
  5
16B8
  8
3
 10
65.5818736467
 20
-15.03095300750002
 30
0.0
  0
VERTEX
  5
16B9
  8
3
 10
65.5772792897
 20
-15.32598442270003
 30
0.0
  0
VERTEX
  5
16BA
  8
3
 10
65.43391519059999
 20
-15.68403479240001
 30
0.0
  0
VERTEX
  5
16BB
  8
3
 10
65.157347602
 20
-16.11058255100002
 30
0.0
  0
VERTEX
  5
16BC
  8
3
 10
64.5782358744
 20
-16.72088828350005
 30
0.0
  0
VERTEX
  5
16BD
  8
3
 10
64.0318152679
 20
-17.07448764239999
 30
0.0
  0
VERTEX
  5
16BE
  8
3
 10
63.62080609000002
 20
-17.18938568080003
 30
0.0
  0
VERTEX
  5
16BF
  8
3
 10
63.19265058200001
 20
-17.1546901111
 30
0.0
  0
VERTEX
  5
16C0
  8
3
 10
62.71000875450001
 20
-16.93394391289999
 30
0.0
  0
VERTEX
  5
16C1
  8
3
 10
62.0743520573
 20
-16.38725325550004
 30
0.0
  0
VERTEX
  5
16C2
  8
3
 10
61.60235341830001
 20
-15.75011458309999
 30
0.0
  0
VERTEX
  5
16C3
  8
3
 10
61.4300075012
 20
-15.35409682150001
 30
0.0
  0
VERTEX
  5
16C4
  8
3
 10
61.4135167159
 20
-15.0463274537
 30
0.0
  0
VERTEX
  5
16C5
  8
3
 10
61.54092127369999
 20
-14.87873976239999
 30
0.0
  0
VERTEX
  5
16C6
  8
3
 10
61.7987198826
 20
-14.82060269900003
 30
0.0
  0
VERTEX
  5
16C7
  8
3
 10
62.34865493369999
 20
-14.90154161130002
 30
0.0
  0
VERTEX
  5
16C8
  8
3
 10
62.93314974990001
 20
-15.0363029227
 30
0.0
  0
VERTEX
  5
16C9
  8
3
 10
63.35802959359999
 20
-15.09175971740004
 30
0.0
  0
VERTEX
  5
16CA
  8
3
 10
63.50000000000001
 20
-15.09577406320003
 30
0.0
  0
SEQEND
  5
1B32
  8
3
  0
LINE
  5
D87
  8
3
 10
60.8
 20
-14.82050807570002
 30
0.0
 11
60.8
 21
-19.82050807570002
 31
0.0
  0
POLYLINE
  5
D88
  8
3
 66
     1
 10
0.0
 20
0.0
 30
0.0
  0
VERTEX
  5
16CB
  8
3
 10
63.50000000000001
 20
-17.44524208810006
 30
0.0
  0
VERTEX
  5
16CC
  8
3
 10
63.0695019148
 20
-17.52528354389997
 30
0.0
  0
VERTEX
  5
16CD
  8
3
 10
62.5370328634
 20
-17.8280615468
 30
0.0
  0
VERTEX
  5
16CE
  8
3
 10
61.91300752120002
 20
-18.44086960840005
 30
0.0
  0
VERTEX
  5
16CF
  8
3
 10
61.56808712519999
 20
-18.95320452310003
 30
0.0
  0
VERTEX
  5
16D0
  8
3
 10
61.4181263533
 20
-19.33474129720005
 30
0.0
  0
VERTEX
  5
16D1
  8
3
 10
61.4227207103
 20
-19.62310761640006
 30
0.0
  0
VERTEX
  5
16D2
  8
3
 10
61.56608480940001
 20
-19.77549955380007
 30
0.0
  0
VERTEX
  5
16D3
  8
3
 10
61.84265239790001
 20
-19.8200842995
 30
0.0
  0
VERTEX
  5
16D4
  8
3
 10
62.42176412560001
 20
-19.72218430399997
 30
0.0
  0
VERTEX
  5
16D5
  8
3
 10
62.9681847321
 20
-19.59807287729998
 30
0.0
  0
VERTEX
  5
16D6
  8
3
 10
63.37919391000001
 20
-19.54815280250003
 30
0.0
  0
VERTEX
  5
16D7
  8
3
 10
63.80734941800002
 20
-19.56371294090005
 30
0.0
  0
VERTEX
  5
16D8
  8
3
 10
64.28999124549999
 20
-19.65281472699999
 30
0.0
  0
VERTEX
  5
16D9
  8
3
 10
64.9256479427
 20
-19.7956863515
 30
0.0
  0
VERTEX
  5
16DA
  8
3
 10
65.39764658170002
 20
-19.79031106940002
 30
0.0
  0
VERTEX
  5
16DB
  8
3
 10
65.5699924988
 20
-19.64065801150005
 30
0.0
  0
VERTEX
  5
16DC
  8
3
 10
65.5864832841
 20
-19.35680741349998
 30
0.0
  0
VERTEX
  5
16DD
  8
3
 10
65.45907872619999
 20
-19.00596260190005
 30
0.0
  0
VERTEX
  5
16DE
  8
3
 10
65.2012801174
 20
-18.58929771370006
 30
0.0
  0
VERTEX
  5
16DF
  8
3
 10
64.65134506630001
 20
-17.98322725150004
 30
0.0
  0
VERTEX
  5
16E0
  8
3
 10
64.06685025009999
 20
-17.58266456590005
 30
0.0
  0
VERTEX
  5
16E1
  8
3
 10
63.64197040640001
 20
-17.45406088129997
 30
0.0
  0
VERTEX
  5
16E2
  8
3
 10
63.50000000000001
 20
-17.44524208810006
 30
0.0
  0
SEQEND
  5
1B31
  8
3
  0
LINE
  5
D89
  8
3
 10
60.8
 20
19.82050807569996
 30
0.0
 11
60.8
 21
14.82050807569996
 31
0.0
  0
POLYLINE
  5
D8A
  8
3
 66
     1
 10
0.0
 20
0.0
 30
0.0
  0
VERTEX
  5
16E3
  8
3
 10
63.50000000000001
 20
19.54524208819996
 30
0.0
  0
VERTEX
  5
16E4
  8
3
 10
63.0695019148
 20
19.58068408860001
 30
0.0
  0
VERTEX
  5
16E5
  8
3
 10
62.5370328634
 20
19.6942593643
 30
0.0
  0
VERTEX
  5
16E6
  8
3
 10
61.91300752120002
 20
19.81617134699999
 30
0.0
  0
VERTEX
  5
16E7
  8
3
 10
61.56808712519999
 20
19.77643756699999
 30
0.0
  0
VERTEX
  5
16E8
  8
3
 10
61.4181263533
 20
19.61006314379998
 30
0.0
  0
VERTEX
  5
16E9
  8
3
 10
61.4227207103
 20
19.31503172870001
 30
0.0
  0
VERTEX
  5
16EA
  8
3
 10
61.56608480940001
 20
18.95698135889998
 30
0.0
  0
VERTEX
  5
16EB
  8
3
 10
61.84265239790001
 20
18.53043360039996
 30
0.0
  0
VERTEX
  5
16EC
  8
3
 10
62.42176412560001
 20
17.92012786789999
 30
0.0
  0
VERTEX
  5
16ED
  8
3
 10
62.9681847321
 20
17.56652850890001
 30
0.0
  0
VERTEX
  5
16EE
  8
3
 10
63.37919391000001
 20
17.45163047049996
 30
0.0
  0
VERTEX
  5
16EF
  8
3
 10
63.80734941800002
 20
17.4863260402
 30
0.0
  0
VERTEX
  5
16F0
  8
3
 10
64.28999124549999
 20
17.70707223849999
 30
0.0
  0
VERTEX
  5
16F1
  8
3
 10
64.9256479427
 20
18.25376289580001
 30
0.0
  0
VERTEX
  5
16F2
  8
3
 10
65.39764658170002
 20
18.89090156820001
 30
0.0
  0
VERTEX
  5
16F3
  8
3
 10
65.5699924988
 20
19.28691932989997
 30
0.0
  0
VERTEX
  5
16F4
  8
3
 10
65.5864832841
 20
19.59468869769998
 30
0.0
  0
VERTEX
  5
16F5
  8
3
 10
65.45907872619999
 20
19.76227638899999
 30
0.0
  0
VERTEX
  5
16F6
  8
3
 10
65.2012801174
 20
19.8204134524
 30
0.0
  0
VERTEX
  5
16F7
  8
3
 10
64.65134506630001
 20
19.73947454009996
 30
0.0
  0
VERTEX
  5
16F8
  8
3
 10
64.06685025009999
 20
19.60471322859999
 30
0.0
  0
VERTEX
  5
16F9
  8
3
 10
63.64197040640001
 20
19.549256434
 30
0.0
  0
VERTEX
  5
16FA
  8
3
 10
63.50000000000001
 20
19.54524208819996
 30
0.0
  0
SEQEND
  5
1B30
  8
3
  0
POLYLINE
  5
D8B
  8
3
 66
     1
 10
0.0
 20
0.0
 30
0.0
  0
VERTEX
  5
16FB
  8
3
 10
63.50000000000001
 20
53.51775779639999
 30
0.0
  0
VERTEX
  5
16FC
  8
3
 10
64.25860749900001
 20
53.44685363729999
 30
0.0
  0
VERTEX
  5
16FD
  8
3
 10
64.91476085160001
 20
53.24371715949999
 30
0.0
  0
VERTEX
  5
16FE
  8
3
 10
65.3798429118
 20
52.93578306999999
 30
0.0
  0
VERTEX
  5
16FF
  8
3
 10
65.5910417702
 20
52.56463957380001
 30
0.0
  0
VERTEX
  5
1700
  8
3
 10
65.51983385070001
 20
52.18041165679998
 30
0.0
  0
VERTEX
  5
1701
  8
3
 10
65.17583617730001
 20
51.83499142819997
 30
0.0
  0
VERTEX
  5
1702
  8
3
 10
64.60550754200001
 20
51.57502980389998
 30
0.0
  0
VERTEX
  5
1703
  8
3
 10
63.88587398739999
 20
51.43563604170001
 30
0.0
  0
VERTEX
  5
1704
  8
3
 10
63.11412601260001
 20
51.43563604170001
 30
0.0
  0
VERTEX
  5
1705
  8
3
 10
62.3944924579
 20
51.57502980389998
 30
0.0
  0
VERTEX
  5
1706
  8
3
 10
61.82416382270002
 20
51.83499142819997
 30
0.0
  0
VERTEX
  5
1707
  8
3
 10
61.48016614929999
 20
52.18041165679998
 30
0.0
  0
VERTEX
  5
1708
  8
3
 10
61.40895822980001
 20
52.56463957380001
 30
0.0
  0
VERTEX
  5
1709
  8
3
 10
61.62015708810002
 20
52.93578306999999
 30
0.0
  0
VERTEX
  5
170A
  8
3
 10
62.0852391483
 20
53.24371715949999
 30
0.0
  0
VERTEX
  5
170B
  8
3
 10
62.74139250099999
 20
53.44685363729999
 30
0.0
  0
VERTEX
  5
170C
  8
3
 10
63.50000000000001
 20
53.51775779639999
 30
0.0
  0
SEQEND
  5
1B2F
  8
3
  0
POLYLINE
  5
D8C
  8
3
 66
     1
 10
0.0
 20
0.0
 30
0.0
  0
VERTEX
  5
170D
  8
3
 10
63.50000000000001
 20
-51.41775779629998
 30
0.0
  0
VERTEX
  5
170E
  8
3
 10
64.25860749900001
 20
-51.48866195550002
 30
0.0
  0
VERTEX
  5
170F
  8
3
 10
64.91476085160001
 20
-51.69179843320003
 30
0.0
  0
VERTEX
  5
1710
  8
3
 10
65.3798429118
 20
-51.99973252279997
 30
0.0
  0
VERTEX
  5
1711
  8
3
 10
65.5910417702
 20
-52.37087601889996
 30
0.0
  0
VERTEX
  5
1712
  8
3
 10
65.51983385070001
 20
-52.75510393590005
 30
0.0
  0
VERTEX
  5
1713
  8
3
 10
65.17583617730001
 20
-53.10052416450006
 30
0.0
  0
VERTEX
  5
1714
  8
3
 10
64.60550754200001
 20
-53.36048578880005
 30
0.0
  0
VERTEX
  5
1715
  8
3
 10
63.88587398739999
 20
-53.49987955099996
 30
0.0
  0
VERTEX
  5
1716
  8
3
 10
63.11412601260001
 20
-53.49987955099996
 30
0.0
  0
VERTEX
  5
1717
  8
3
 10
62.3944924579
 20
-53.36048578880005
 30
0.0
  0
VERTEX
  5
1718
  8
3
 10
61.82416382270002
 20
-53.10052416450006
 30
0.0
  0
VERTEX
  5
1719
  8
3
 10
61.48016614929999
 20
-52.75510393590005
 30
0.0
  0
VERTEX
  5
171A
  8
3
 10
61.40895822980001
 20
-52.37087601889996
 30
0.0
  0
VERTEX
  5
171B
  8
3
 10
61.62015708810002
 20
-51.99973252279997
 30
0.0
  0
VERTEX
  5
171C
  8
3
 10
62.0852391483
 20
-51.69179843320003
 30
0.0
  0
VERTEX
  5
171D
  8
3
 10
62.74139250099999
 20
-51.48866195550002
 30
0.0
  0
VERTEX
  5
171E
  8
3
 10
63.50000000000001
 20
-51.41775779629998
 30
0.0
  0
SEQEND
  5
1B2E
  8
3
  0
POLYLINE
  5
D8D
  8
3
 66
     1
 10
0.0
 20
0.0
 30
0.0
  0
VERTEX
  5
171F
  8
3
 10
63.50000000000001
 20
-51.42844709040006
 30
0.0
  0
VERTEX
  5
1720
  8
3
 10
64.35233610670001
 20
-51.49956196070005
 30
0.0
  0
VERTEX
  5
1721
  8
3
 10
65.1123083708
 20
-51.70520017189997
 30
0.0
  0
VERTEX
  5
1722
  8
3
 10
65.6975620054
 20
-52.02307763290005
 30
0.0
  0
VERTEX
  5
1723
  8
3
 10
66.0446756981
 20
-52.4187473886
 30
0.0
  0
VERTEX
  5
1724
  8
3
 10
66.1160342941
 20
-52.84933248140001
 30
0.0
  0
VERTEX
  5
1725
  8
3
 10
65.90390498250001
 20
-53.26817233529997
 30
0.0
  0
VERTEX
  5
1726
  8
3
 10
65.43127526549999
 20
-53.62987915320005
 30
0.0
  0
VERTEX
  5
1727
  8
3
 10
64.7493619067
 20
-53.89525638889998
 30
0.0
  0
VERTEX
  5
1728
  8
3
 10
63.93206079950001
 20
-54.03554630120007
 30
0.0
  0
VERTEX
  5
1729
  8
3
 10
63.06793920049999
 20
-54.03554630120007
 30
0.0
  0
VERTEX
  5
172A
  8
3
 10
62.2506380933
 20
-53.89525638889998
 30
0.0
  0
VERTEX
  5
172B
  8
3
 10
61.56872473450001
 20
-53.62987915320005
 30
0.0
  0
VERTEX
  5
172C
  8
3
 10
61.09609501749999
 20
-53.26817233529997
 30
0.0
  0
VERTEX
  5
172D
  8
3
 10
60.88396570580001
 20
-52.84933248140001
 30
0.0
  0
VERTEX
  5
172E
  8
3
 10
60.95532430190001
 20
-52.4187473886
 30
0.0
  0
VERTEX
  5
172F
  8
3
 10
61.3024379946
 20
-52.02307763290005
 30
0.0
  0
VERTEX
  5
1730
  8
3
 10
61.88769162920001
 20
-51.70520017189997
 30
0.0
  0
VERTEX
  5
1731
  8
3
 10
62.64766389329999
 20
-51.49956196070005
 30
0.0
  0
VERTEX
  5
1732
  8
3
 10
63.50000000000001
 20
-51.42844709040006
 30
0.0
  0
SEQEND
  5
1B2D
  8
3
  0
POLYLINE
  5
D8E
  8
3
 66
     1
 10
0.0
 20
0.0
 30
0.0
  0
VERTEX
  5
1733
  8
3
 10
63.50000000000001
 20
54.05344709049999
 30
0.0
  0
VERTEX
  5
1734
  8
3
 10
64.35233610670001
 20
53.98233222019999
 30
0.0
  0
VERTEX
  5
1735
  8
3
 10
65.1123083708
 20
53.7766940091
 30
0.0
  0
VERTEX
  5
1736
  8
3
 10
65.6975620054
 20
53.45881654799999
 30
0.0
  0
VERTEX
  5
1737
  8
3
 10
66.0446756981
 20
53.06314679239998
 30
0.0
  0
VERTEX
  5
1738
  8
3
 10
66.1160342941
 20
52.63256169959996
 30
0.0
  0
VERTEX
  5
1739
  8
3
 10
65.90390498250001
 20
52.21372184570001
 30
0.0
  0
VERTEX
  5
173A
  8
3
 10
65.43127526549999
 20
51.85201502779998
 30
0.0
  0
VERTEX
  5
173B
  8
3
 10
64.7493619067
 20
51.58663779209999
 30
0.0
  0
VERTEX
  5
173C
  8
3
 10
63.93206079950001
 20
51.44634787979996
 30
0.0
  0
VERTEX
  5
173D
  8
3
 10
63.06793920049999
 20
51.44634787979996
 30
0.0
  0
VERTEX
  5
173E
  8
3
 10
62.2506380933
 20
51.58663779209999
 30
0.0
  0
VERTEX
  5
173F
  8
3
 10
61.56872473450001
 20
51.85201502779998
 30
0.0
  0
VERTEX
  5
1740
  8
3
 10
61.09609501749999
 20
52.21372184570001
 30
0.0
  0
VERTEX
  5
1741
  8
3
 10
60.88396570580001
 20
52.63256169959996
 30
0.0
  0
VERTEX
  5
1742
  8
3
 10
60.95532430190001
 20
53.06314679239998
 30
0.0
  0
VERTEX
  5
1743
  8
3
 10
61.3024379946
 20
53.45881654799999
 30
0.0
  0
VERTEX
  5
1744
  8
3
 10
61.88769162920001
 20
53.7766940091
 30
0.0
  0
VERTEX
  5
1745
  8
3
 10
62.64766389329999
 20
53.98233222019999
 30
0.0
  0
VERTEX
  5
1746
  8
3
 10
63.50000000000001
 20
54.05344709049999
 30
0.0
  0
SEQEND
  5
1B2C
  8
3
  0
CIRCLE
  5
D8F
  8
3
 10
63.50000000000001
 20
-0.0000000000000284
 30
0.0
 40
2.256103126841992
  0
CIRCLE
  5
D90
  8
3
 10
63.50000000000001
 20
-0.0000000000000284
 30
0.0
 40
2.500000000000028
  0
CIRCLE
  5
D91
  8
3
 10
63.50000000000001
 20
-0.0000000000000284
 30
0.0
 40
2.316732743452263
  0
CIRCLE
  5
D92
  8
3
 10
63.50000000000001
 20
-0.0000000000000284
 30
0.0
 40
1.749999999999886
  0
POLYLINE
  5
D93
  8
3
 66
     1
 10
0.0
 20
0.0
 30
0.0
  0
VERTEX
  5
1747
  8
3
 10
63.50000000000001
 20
-48.14660537360001
 30
0.0
  0
VERTEX
  5
1748
  8
3
 10
62.83030399339999
 20
-48.07999996460003
 30
0.0
  0
VERTEX
  5
1749
  8
3
 10
62.26256313290001
 20
-47.89032380719996
 30
0.0
  0
VERTEX
  5
174A
  8
3
 10
61.88321081810001
 20
-47.60645337689996
 30
0.0
  0
VERTEX
  5
174B
  8
3
 10
61.75000000000001
 20
-47.27160537360001
 30
0.0
  0
VERTEX
  5
174C
  8
3
 10
61.88321081810001
 20
-46.93675737030006
 30
0.0
  0
VERTEX
  5
174D
  8
3
 10
62.26256313290001
 20
-46.65288694009999
 30
0.0
  0
VERTEX
  5
174E
  8
3
 10
62.83030399339999
 20
-46.46321078270003
 30
0.0
  0
VERTEX
  5
174F
  8
3
 10
63.50000000000001
 20
-46.39660537360001
 30
0.0
  0
VERTEX
  5
1750
  8
3
 10
64.1696960066
 20
-46.46321078270003
 30
0.0
  0
VERTEX
  5
1751
  8
3
 10
64.73743686710002
 20
-46.65288694009999
 30
0.0
  0
VERTEX
  5
1752
  8
3
 10
65.11678918189999
 20
-46.93675737030006
 30
0.0
  0
VERTEX
  5
1753
  8
3
 10
65.25000000000001
 20
-47.27160537360001
 30
0.0
  0
VERTEX
  5
1754
  8
3
 10
65.11678918189999
 20
-47.60645337689996
 30
0.0
  0
VERTEX
  5
1755
  8
3
 10
64.73743686710002
 20
-47.89032380719996
 30
0.0
  0
VERTEX
  5
1756
  8
3
 10
64.1696960066
 20
-48.07999996460003
 30
0.0
  0
VERTEX
  5
1757
  8
3
 10
63.50000000000001
 20
-48.14660537360001
 30
0.0
  0
SEQEND
  5
1B2B
  8
3
  0
POLYLINE
  5
D94
  8
3
 66
     1
 10
0.0
 20
0.0
 30
0.0
  0
VERTEX
  5
1758
  8
3
 10
61.1832672565
 20
-47.76241032659996
 30
0.0
  0
VERTEX
  5
1759
  8
3
 10
61.3397110538
 20
-47.34396012840003
 30
0.0
  0
VERTEX
  5
175A
  8
3
 10
61.78791384380001
 20
-46.98202394820001
 30
0.0
  0
VERTEX
  5
175B
  8
3
 10
62.4673433562
 20
-46.72548327270002
 30
0.0
  0
VERTEX
  5
175C
  8
3
 10
63.2862388704
 20
-46.60898534160006
 30
0.0
  0
VERTEX
  5
175D
  8
3
 10
64.1340040098
 20
-46.64826384610004
 30
0.0
  0
VERTEX
  5
175E
  8
3
 10
64.8961433944
 20
-46.8380140065
 30
0.0
  0
VERTEX
  5
175F
  8
3
 10
65.4697258774
 20
-47.15260901210004
 30
0.0
  0
VERTEX
  5
1760
  8
3
 10
65.77728596600001
 20
-47.54956106429998
 30
0.0
  0
VERTEX
  5
1761
  8
3
 10
65.77728596600001
 20
-47.97525958890006
 30
0.0
  0
VERTEX
  5
1762
  8
3
 10
65.4697258774
 20
-48.37221164109999
 30
0.0
  0
VERTEX
  5
1763
  8
3
 10
64.8961433944
 20
-48.68680664670003
 30
0.0
  0
VERTEX
  5
1764
  8
3
 10
64.1340040098
 20
-48.8765568071
 30
0.0
  0
VERTEX
  5
1765
  8
3
 10
63.2862388704
 20
-48.91583531159998
 30
0.0
  0
VERTEX
  5
1766
  8
3
 10
62.4673433562
 20
-48.79933738050002
 30
0.0
  0
VERTEX
  5
1767
  8
3
 10
61.78791384380001
 20
-48.54279670500003
 30
0.0
  0
VERTEX
  5
1768
  8
3
 10
61.3397110538
 20
-48.18086052480001
 30
0.0
  0
VERTEX
  5
1769
  8
3
 10
61.1832672565
 20
-47.76241032659996
 30
0.0
  0
SEQEND
  5
1B2A
  8
3
  0
POLYLINE
  5
D95
  8
3
 66
     1
 10
0.0
 20
0.0
 30
0.0
  0
VERTEX
  5
176A
  8
3
 10
65.55499999999999
 20
-47.9211244121
 30
0.0
  0
VERTEX
  5
176B
  8
3
 10
65.3985724393
 20
-48.31433163880004
 30
0.0
  0
VERTEX
  5
176C
  8
3
 10
64.9531044353
 20
-48.64767662980003
 30
0.0
  0
VERTEX
  5
176D
  8
3
 10
64.2864144535
 20
-48.87041063170003
 30
0.0
  0
VERTEX
  5
176E
  8
3
 10
63.50000000000001
 20
-48.94862441210003
 30
0.0
  0
VERTEX
  5
176F
  8
3
 10
62.7135855465
 20
-48.87041063170003
 30
0.0
  0
VERTEX
  5
1770
  8
3
 10
62.04689556469999
 20
-48.64767662980003
 30
0.0
  0
VERTEX
  5
1771
  8
3
 10
61.6014275607
 20
-48.31433163880004
 30
0.0
  0
VERTEX
  5
1772
  8
3
 10
61.44500000000001
 20
-47.9211244121
 30
0.0
  0
VERTEX
  5
1773
  8
3
 10
61.6014275607
 20
-47.52791718530003
 30
0.0
  0
VERTEX
  5
1774
  8
3
 10
62.04689556469999
 20
-47.19457219439997
 30
0.0
  0
VERTEX
  5
1775
  8
3
 10
62.7135855465
 20
-46.97183819240004
 30
0.0
  0
VERTEX
  5
1776
  8
3
 10
63.50000000000001
 20
-46.89362441209997
 30
0.0
  0
VERTEX
  5
1777
  8
3
 10
64.2864144535
 20
-46.97183819240004
 30
0.0
  0
VERTEX
  5
1778
  8
3
 10
64.9531044353
 20
-47.19457219439997
 30
0.0
  0
VERTEX
  5
1779
  8
3
 10
65.3985724393
 20
-47.52791718530003
 30
0.0
  0
VERTEX
  5
177A
  8
3
 10
65.55499999999999
 20
-47.9211244121
 30
0.0
  0
SEQEND
  5
1B29
  8
3
  0
POLYLINE
  5
D96
  8
3
 66
     1
 10
0.0
 20
0.0
 30
0.0
  0
VERTEX
  5
177B
  8
3
 10
66.00000000000001
 20
-48.19097130670005
 30
0.0
  0
VERTEX
  5
177C
  8
3
 10
65.849231552
 20
-48.61849648590001
 30
0.0
  0
VERTEX
  5
177D
  8
3
 10
65.4151111078
 20
-48.99445581880005
 30
0.0
  0
VERTEX
  5
177E
  8
3
 10
64.75000000000001
 20
-49.27350306140002
 30
0.0
  0
VERTEX
  5
177F
  8
3
 10
63.93412044419999
 20
-49.42198099800001
 30
0.0
  0
VERTEX
  5
1780
  8
3
 10
63.06587955580001
 20
-49.42198099800001
 30
0.0
  0
VERTEX
  5
1781
  8
3
 10
62.25000000000001
 20
-49.27350306140002
 30
0.0
  0
VERTEX
  5
1782
  8
3
 10
61.5848888922
 20
-48.99445581880005
 30
0.0
  0
VERTEX
  5
1783
  8
3
 10
61.15076844799999
 20
-48.61849648590001
 30
0.0
  0
VERTEX
  5
1784
  8
3
 10
61.00000000000001
 20
-48.19097130670005
 30
0.0
  0
VERTEX
  5
1785
  8
3
 10
61.15076844799999
 20
-47.76344612760002
 30
0.0
  0
VERTEX
  5
1786
  8
3
 10
61.5848888922
 20
-47.38748679460005
 30
0.0
  0
VERTEX
  5
1787
  8
3
 10
62.25000000000001
 20
-47.10843955199996
 30
0.0
  0
VERTEX
  5
1788
  8
3
 10
63.06587955580001
 20
-46.95996161550002
 30
0.0
  0
VERTEX
  5
1789
  8
3
 10
63.93412044419999
 20
-46.95996161550002
 30
0.0
  0
VERTEX
  5
178A
  8
3
 10
64.75000000000001
 20
-47.10843955199996
 30
0.0
  0
VERTEX
  5
178B
  8
3
 10
65.4151111078
 20
-47.38748679460005
 30
0.0
  0
VERTEX
  5
178C
  8
3
 10
65.849231552
 20
-47.76344612760002
 30
0.0
  0
VERTEX
  5
178D
  8
3
 10
66.00000000000001
 20
-48.19097130670005
 30
0.0
  0
SEQEND
  5
1B28
  8
3
  0
POLYLINE
  5
D97
  8
3
 66
     1
 10
0.0
 20
0.0
 30
0.0
  0
VERTEX
  5
178E
  8
3
 10
66.00000000000001
 20
-48.26901085810007
 30
0.0
  0
VERTEX
  5
178F
  8
3
 10
65.849231552
 20
-48.69653603719999
 30
0.0
  0
VERTEX
  5
1790
  8
3
 10
65.4151111078
 20
-49.07249537020007
 30
0.0
  0
VERTEX
  5
1791
  8
3
 10
64.75000000000001
 20
-49.35154261280005
 30
0.0
  0
VERTEX
  5
1792
  8
3
 10
63.93412044419999
 20
-49.50002054929999
 30
0.0
  0
VERTEX
  5
1793
  8
3
 10
63.06587955580001
 20
-49.50002054929999
 30
0.0
  0
VERTEX
  5
1794
  8
3
 10
62.25000000000001
 20
-49.35154261280005
 30
0.0
  0
VERTEX
  5
1795
  8
3
 10
61.5848888922
 20
-49.07249537020007
 30
0.0
  0
VERTEX
  5
1796
  8
3
 10
61.15076844799999
 20
-48.69653603719999
 30
0.0
  0
VERTEX
  5
1797
  8
3
 10
61.00000000000001
 20
-48.26901085810007
 30
0.0
  0
VERTEX
  5
1798
  8
3
 10
61.15076844799999
 20
-47.8414856789
 30
0.0
  0
VERTEX
  5
1799
  8
3
 10
61.5848888922
 20
-47.46552634600008
 30
0.0
  0
VERTEX
  5
179A
  8
3
 10
62.25000000000001
 20
-47.18647910330006
 30
0.0
  0
VERTEX
  5
179B
  8
3
 10
63.06587955580001
 20
-47.0380011668
 30
0.0
  0
VERTEX
  5
179C
  8
3
 10
63.93412044419999
 20
-47.0380011668
 30
0.0
  0
VERTEX
  5
179D
  8
3
 10
64.75000000000001
 20
-47.18647910330006
 30
0.0
  0
VERTEX
  5
179E
  8
3
 10
65.4151111078
 20
-47.46552634600008
 30
0.0
  0
VERTEX
  5
179F
  8
3
 10
65.849231552
 20
-47.8414856789
 30
0.0
  0
VERTEX
  5
17A0
  8
3
 10
66.00000000000001
 20
-48.26901085810007
 30
0.0
  0
SEQEND
  5
1B27
  8
3
  0
POLYLINE
  5
D98
  8
3
 66
     1
 10
0.0
 20
0.0
 30
0.0
  0
VERTEX
  5
17A1
  8
3
 10
65.55499999999999
 20
-48.53885775270001
 30
0.0
  0
VERTEX
  5
17A2
  8
3
 10
65.3985724393
 20
-48.93206497949998
 30
0.0
  0
VERTEX
  5
17A3
  8
3
 10
64.9531044353
 20
-49.26540997040004
 30
0.0
  0
VERTEX
  5
17A4
  8
3
 10
64.2864144535
 20
-49.48814397239997
 30
0.0
  0
VERTEX
  5
17A5
  8
3
 10
63.50000000000001
 20
-49.56635775270004
 30
0.0
  0
VERTEX
  5
17A6
  8
3
 10
62.7135855465
 20
-49.48814397239997
 30
0.0
  0
VERTEX
  5
17A7
  8
3
 10
62.04689556469999
 20
-49.26540997040004
 30
0.0
  0
VERTEX
  5
17A8
  8
3
 10
61.6014275607
 20
-48.93206497949998
 30
0.0
  0
VERTEX
  5
17A9
  8
3
 10
61.44500000000001
 20
-48.53885775270001
 30
0.0
  0
VERTEX
  5
17AA
  8
3
 10
61.6014275607
 20
-48.14565052590004
 30
0.0
  0
VERTEX
  5
17AB
  8
3
 10
62.04689556469999
 20
-47.81230553499998
 30
0.0
  0
VERTEX
  5
17AC
  8
3
 10
62.7135855465
 20
-47.58957153300005
 30
0.0
  0
VERTEX
  5
17AD
  8
3
 10
63.50000000000001
 20
-47.51135775269998
 30
0.0
  0
VERTEX
  5
17AE
  8
3
 10
64.2864144535
 20
-47.58957153300005
 30
0.0
  0
VERTEX
  5
17AF
  8
3
 10
64.9531044353
 20
-47.81230553499998
 30
0.0
  0
VERTEX
  5
17B0
  8
3
 10
65.3985724393
 20
-48.14565052590004
 30
0.0
  0
VERTEX
  5
17B1
  8
3
 10
65.55499999999999
 20
-48.53885775270001
 30
0.0
  0
SEQEND
  5
1B26
  8
3
  0
POLYLINE
  5
D99
  8
3
 66
     1
 10
0.0
 20
0.0
 30
0.0
  0
VERTEX
  5
17B2
  8
3
 10
66.00000000000001
 20
-48.80870464730006
 30
0.0
  0
VERTEX
  5
17B3
  8
3
 10
65.849231552
 20
-49.23622982650002
 30
0.0
  0
VERTEX
  5
17B4
  8
3
 10
65.4151111078
 20
-49.61218915940006
 30
0.0
  0
VERTEX
  5
17B5
  8
3
 10
64.75000000000001
 20
-49.89123640209996
 30
0.0
  0
VERTEX
  5
17B6
  8
3
 10
63.93412044419999
 20
-50.03971433860002
 30
0.0
  0
VERTEX
  5
17B7
  8
3
 10
63.06587955580001
 20
-50.03971433860002
 30
0.0
  0
VERTEX
  5
17B8
  8
3
 10
62.25000000000001
 20
-49.89123640209996
 30
0.0
  0
VERTEX
  5
17B9
  8
3
 10
61.5848888922
 20
-49.61218915940006
 30
0.0
  0
VERTEX
  5
17BA
  8
3
 10
61.15076844799999
 20
-49.23622982650002
 30
0.0
  0
VERTEX
  5
17BB
  8
3
 10
61.00000000000001
 20
-48.80870464730006
 30
0.0
  0
VERTEX
  5
17BC
  8
3
 10
61.15076844799999
 20
-48.38117946820003
 30
0.0
  0
VERTEX
  5
17BD
  8
3
 10
61.5848888922
 20
-48.00522013520006
 30
0.0
  0
VERTEX
  5
17BE
  8
3
 10
62.25000000000001
 20
-47.72617289259998
 30
0.0
  0
VERTEX
  5
17BF
  8
3
 10
63.06587955580001
 20
-47.57769495610003
 30
0.0
  0
VERTEX
  5
17C0
  8
3
 10
63.93412044419999
 20
-47.57769495610003
 30
0.0
  0
VERTEX
  5
17C1
  8
3
 10
64.75000000000001
 20
-47.72617289259998
 30
0.0
  0
VERTEX
  5
17C2
  8
3
 10
65.4151111078
 20
-48.00522013520006
 30
0.0
  0
VERTEX
  5
17C3
  8
3
 10
65.849231552
 20
-48.38117946820003
 30
0.0
  0
VERTEX
  5
17C4
  8
3
 10
66.00000000000001
 20
-48.80870464730006
 30
0.0
  0
SEQEND
  5
1B25
  8
3
  0
POLYLINE
  5
D9A
  8
3
 66
     1
 10
0.0
 20
0.0
 30
0.0
  0
VERTEX
  5
17C5
  8
3
 10
66.00000000000001
 20
-48.88674419869997
 30
0.0
  0
VERTEX
  5
17C6
  8
3
 10
65.849231552
 20
-49.3142693778
 30
0.0
  0
VERTEX
  5
17C7
  8
3
 10
65.4151111078
 20
-49.69022871079997
 30
0.0
  0
VERTEX
  5
17C8
  8
3
 10
64.75000000000001
 20
-49.96927595340006
 30
0.0
  0
VERTEX
  5
17C9
  8
3
 10
63.93412044419999
 20
-50.1177538899
 30
0.0
  0
VERTEX
  5
17CA
  8
3
 10
63.06587955580001
 20
-50.1177538899
 30
0.0
  0
VERTEX
  5
17CB
  8
3
 10
62.25000000000001
 20
-49.96927595340006
 30
0.0
  0
VERTEX
  5
17CC
  8
3
 10
61.5848888922
 20
-49.69022871079997
 30
0.0
  0
VERTEX
  5
17CD
  8
3
 10
61.15076844799999
 20
-49.3142693778
 30
0.0
  0
VERTEX
  5
17CE
  8
3
 10
61.00000000000001
 20
-48.88674419869997
 30
0.0
  0
VERTEX
  5
17CF
  8
3
 10
61.15076844799999
 20
-48.45921901950001
 30
0.0
  0
VERTEX
  5
17D0
  8
3
 10
61.5848888922
 20
-48.08325968659997
 30
0.0
  0
VERTEX
  5
17D1
  8
3
 10
62.25000000000001
 20
-47.80421244390007
 30
0.0
  0
VERTEX
  5
17D2
  8
3
 10
63.06587955580001
 20
-47.65573450740001
 30
0.0
  0
VERTEX
  5
17D3
  8
3
 10
63.93412044419999
 20
-47.65573450740001
 30
0.0
  0
VERTEX
  5
17D4
  8
3
 10
64.75000000000001
 20
-47.80421244390007
 30
0.0
  0
VERTEX
  5
17D5
  8
3
 10
65.4151111078
 20
-48.08325968659997
 30
0.0
  0
VERTEX
  5
17D6
  8
3
 10
65.849231552
 20
-48.45921901950001
 30
0.0
  0
VERTEX
  5
17D7
  8
3
 10
66.00000000000001
 20
-48.88674419869997
 30
0.0
  0
SEQEND
  5
1B24
  8
3
  0
POLYLINE
  5
D9B
  8
3
 66
     1
 10
0.0
 20
0.0
 30
0.0
  0
VERTEX
  5
17D8
  8
3
 10
65.55499999999999
 20
-49.15659109330002
 30
0.0
  0
VERTEX
  5
17D9
  8
3
 10
65.3985724393
 20
-49.5497983201
 30
0.0
  0
VERTEX
  5
17DA
  8
3
 10
64.9531044353
 20
-49.88314331100005
 30
0.0
  0
VERTEX
  5
17DB
  8
3
 10
64.2864144535
 20
-50.10587731299998
 30
0.0
  0
VERTEX
  5
17DC
  8
3
 10
63.50000000000001
 20
-50.18409109330005
 30
0.0
  0
VERTEX
  5
17DD
  8
3
 10
62.7135855465
 20
-50.10587731299998
 30
0.0
  0
VERTEX
  5
17DE
  8
3
 10
62.04689556469999
 20
-49.88314331100005
 30
0.0
  0
VERTEX
  5
17DF
  8
3
 10
61.6014275607
 20
-49.5497983201
 30
0.0
  0
VERTEX
  5
17E0
  8
3
 10
61.44500000000001
 20
-49.15659109330002
 30
0.0
  0
VERTEX
  5
17E1
  8
3
 10
61.6014275607
 20
-48.76338386650005
 30
0.0
  0
VERTEX
  5
17E2
  8
3
 10
62.04689556469999
 20
-48.43003887559999
 30
0.0
  0
VERTEX
  5
17E3
  8
3
 10
62.7135855465
 20
-48.20730487360007
 30
0.0
  0
VERTEX
  5
17E4
  8
3
 10
63.50000000000001
 20
-48.12909109329999
 30
0.0
  0
VERTEX
  5
17E5
  8
3
 10
64.2864144535
 20
-48.20730487360007
 30
0.0
  0
VERTEX
  5
17E6
  8
3
 10
64.9531044353
 20
-48.43003887559999
 30
0.0
  0
VERTEX
  5
17E7
  8
3
 10
65.3985724393
 20
-48.76338386650005
 30
0.0
  0
VERTEX
  5
17E8
  8
3
 10
65.55499999999999
 20
-49.15659109330002
 30
0.0
  0
SEQEND
  5
1B23
  8
3
  0
POLYLINE
  5
D9C
  8
3
 66
     1
 10
0.0
 20
0.0
 30
0.0
  0
VERTEX
  5
17E9
  8
3
 10
66.00000000000001
 20
-49.42643798790007
 30
0.0
  0
VERTEX
  5
17EA
  8
3
 10
65.849231552
 20
-49.85396316710003
 30
0.0
  0
VERTEX
  5
17EB
  8
3
 10
65.4151111078
 20
-50.22992250000007
 30
0.0
  0
VERTEX
  5
17EC
  8
3
 10
64.75000000000001
 20
-50.50896974269997
 30
0.0
  0
VERTEX
  5
17ED
  8
3
 10
63.93412044419999
 20
-50.65744767920003
 30
0.0
  0
VERTEX
  5
17EE
  8
3
 10
63.06587955580001
 20
-50.65744767920003
 30
0.0
  0
VERTEX
  5
17EF
  8
3
 10
62.25000000000001
 20
-50.50896974269997
 30
0.0
  0
VERTEX
  5
17F0
  8
3
 10
61.5848888922
 20
-50.22992250000007
 30
0.0
  0
VERTEX
  5
17F1
  8
3
 10
61.15076844799999
 20
-49.85396316710003
 30
0.0
  0
VERTEX
  5
17F2
  8
3
 10
61.00000000000001
 20
-49.42643798790007
 30
0.0
  0
VERTEX
  5
17F3
  8
3
 10
61.15076844799999
 20
-48.99891280880004
 30
0.0
  0
VERTEX
  5
17F4
  8
3
 10
61.5848888922
 20
-48.62295347580007
 30
0.0
  0
VERTEX
  5
17F5
  8
3
 10
62.25000000000001
 20
-48.34390623319999
 30
0.0
  0
VERTEX
  5
17F6
  8
3
 10
63.06587955580001
 20
-48.19542829670004
 30
0.0
  0
VERTEX
  5
17F7
  8
3
 10
63.93412044419999
 20
-48.19542829670004
 30
0.0
  0
VERTEX
  5
17F8
  8
3
 10
64.75000000000001
 20
-48.34390623319999
 30
0.0
  0
VERTEX
  5
17F9
  8
3
 10
65.4151111078
 20
-48.62295347580007
 30
0.0
  0
VERTEX
  5
17FA
  8
3
 10
65.849231552
 20
-48.99891280880004
 30
0.0
  0
VERTEX
  5
17FB
  8
3
 10
66.00000000000001
 20
-49.42643798790007
 30
0.0
  0
SEQEND
  5
1B22
  8
3
  0
POLYLINE
  5
D9D
  8
3
 66
     1
 10
0.0
 20
0.0
 30
0.0
  0
VERTEX
  5
17FC
  8
3
 10
66.00000000000001
 20
-49.50447753929998
 30
0.0
  0
VERTEX
  5
17FD
  8
3
 10
65.849231552
 20
-49.93200271840001
 30
0.0
  0
VERTEX
  5
17FE
  8
3
 10
65.4151111078
 20
-50.30796205139998
 30
0.0
  0
VERTEX
  5
17FF
  8
3
 10
64.75000000000001
 20
-50.58700929400007
 30
0.0
  0
VERTEX
  5
1800
  8
3
 10
63.93412044419999
 20
-50.73548723050001
 30
0.0
  0
VERTEX
  5
1801
  8
3
 10
63.06587955580001
 20
-50.73548723050001
 30
0.0
  0
VERTEX
  5
1802
  8
3
 10
62.25000000000001
 20
-50.58700929400007
 30
0.0
  0
VERTEX
  5
1803
  8
3
 10
61.5848888922
 20
-50.30796205139998
 30
0.0
  0
VERTEX
  5
1804
  8
3
 10
61.15076844799999
 20
-49.93200271840001
 30
0.0
  0
VERTEX
  5
1805
  8
3
 10
61.00000000000001
 20
-49.50447753929998
 30
0.0
  0
VERTEX
  5
1806
  8
3
 10
61.15076844799999
 20
-49.07695236010002
 30
0.0
  0
VERTEX
  5
1807
  8
3
 10
61.5848888922
 20
-48.70099302719998
 30
0.0
  0
VERTEX
  5
1808
  8
3
 10
62.25000000000001
 20
-48.42194578460001
 30
0.0
  0
VERTEX
  5
1809
  8
3
 10
63.06587955580001
 20
-48.27346784800002
 30
0.0
  0
VERTEX
  5
180A
  8
3
 10
63.93412044419999
 20
-48.27346784800002
 30
0.0
  0
VERTEX
  5
180B
  8
3
 10
64.75000000000001
 20
-48.42194578460001
 30
0.0
  0
VERTEX
  5
180C
  8
3
 10
65.4151111078
 20
-48.70099302719998
 30
0.0
  0
VERTEX
  5
180D
  8
3
 10
65.849231552
 20
-49.07695236010002
 30
0.0
  0
VERTEX
  5
180E
  8
3
 10
66.00000000000001
 20
-49.50447753929998
 30
0.0
  0
SEQEND
  5
1B21
  8
3
  0
POLYLINE
  5
D9E
  8
3
 66
     1
 10
0.0
 20
0.0
 30
0.0
  0
VERTEX
  5
180F
  8
3
 10
65.55499999999999
 20
-49.77432443390003
 30
0.0
  0
VERTEX
  5
1810
  8
3
 10
65.3985724393
 20
-50.16753166070001
 30
0.0
  0
VERTEX
  5
1811
  8
3
 10
64.9531044353
 20
-50.50087665160007
 30
0.0
  0
VERTEX
  5
1812
  8
3
 10
64.2864144535
 20
-50.72361065359999
 30
0.0
  0
VERTEX
  5
1813
  8
3
 10
63.50000000000001
 20
-50.80182443390007
 30
0.0
  0
VERTEX
  5
1814
  8
3
 10
62.7135855465
 20
-50.72361065359999
 30
0.0
  0
VERTEX
  5
1815
  8
3
 10
62.04689556469999
 20
-50.50087665160007
 30
0.0
  0
VERTEX
  5
1816
  8
3
 10
61.6014275607
 20
-50.16753166070001
 30
0.0
  0
VERTEX
  5
1817
  8
3
 10
61.44500000000001
 20
-49.77432443390003
 30
0.0
  0
VERTEX
  5
1818
  8
3
 10
61.6014275607
 20
-49.38111720719999
 30
0.0
  0
VERTEX
  5
1819
  8
3
 10
62.04689556469999
 20
-49.0477722162
 30
0.0
  0
VERTEX
  5
181A
  8
3
 10
62.7135855465
 20
-48.82503821430001
 30
0.0
  0
VERTEX
  5
181B
  8
3
 10
63.50000000000001
 20
-48.7468244339
 30
0.0
  0
VERTEX
  5
181C
  8
3
 10
64.2864144535
 20
-48.82503821430001
 30
0.0
  0
VERTEX
  5
181D
  8
3
 10
64.9531044353
 20
-49.0477722162
 30
0.0
  0
VERTEX
  5
181E
  8
3
 10
65.3985724393
 20
-49.38111720719999
 30
0.0
  0
VERTEX
  5
181F
  8
3
 10
65.55499999999999
 20
-49.77432443390003
 30
0.0
  0
SEQEND
  5
1B20
  8
3
  0
POLYLINE
  5
D9F
  8
3
 66
     1
 10
0.0
 20
0.0
 30
0.0
  0
VERTEX
  5
1820
  8
3
 10
66.00000000000001
 20
-50.04417132849997
 30
0.0
  0
VERTEX
  5
1821
  8
3
 10
65.849231552
 20
-50.47169650770005
 30
0.0
  0
VERTEX
  5
1822
  8
3
 10
65.4151111078
 20
-50.84765584059997
 30
0.0
  0
VERTEX
  5
1823
  8
3
 10
64.75000000000001
 20
-51.12670308329999
 30
0.0
  0
VERTEX
  5
1824
  8
3
 10
63.93412044419999
 20
-51.27518101980004
 30
0.0
  0
VERTEX
  5
1825
  8
3
 10
63.06587955580001
 20
-51.27518101980004
 30
0.0
  0
VERTEX
  5
1826
  8
3
 10
62.25000000000001
 20
-51.12670308329999
 30
0.0
  0
VERTEX
  5
1827
  8
3
 10
61.5848888922
 20
-50.84765584059997
 30
0.0
  0
VERTEX
  5
1828
  8
3
 10
61.15076844799999
 20
-50.47169650770005
 30
0.0
  0
VERTEX
  5
1829
  8
3
 10
61.00000000000001
 20
-50.04417132849997
 30
0.0
  0
VERTEX
  5
182A
  8
3
 10
61.15076844799999
 20
-49.61664614940005
 30
0.0
  0
VERTEX
  5
182B
  8
3
 10
61.5848888922
 20
-49.24068681639997
 30
0.0
  0
VERTEX
  5
182C
  8
3
 10
62.25000000000001
 20
-48.9616395738
 30
0.0
  0
VERTEX
  5
182D
  8
3
 10
63.06587955580001
 20
-48.81316163730006
 30
0.0
  0
VERTEX
  5
182E
  8
3
 10
63.93412044419999
 20
-48.81316163730006
 30
0.0
  0
VERTEX
  5
182F
  8
3
 10
64.75000000000001
 20
-48.9616395738
 30
0.0
  0
VERTEX
  5
1830
  8
3
 10
65.4151111078
 20
-49.24068681639997
 30
0.0
  0
VERTEX
  5
1831
  8
3
 10
65.849231552
 20
-49.61664614940005
 30
0.0
  0
VERTEX
  5
1832
  8
3
 10
66.00000000000001
 20
-50.04417132849997
 30
0.0
  0
SEQEND
  5
1B1F
  8
3
  0
POLYLINE
  5
DA0
  8
3
 66
     1
 10
0.0
 20
0.0
 30
0.0
  0
VERTEX
  5
1833
  8
3
 10
66.00000000000001
 20
-50.1222108799
 30
0.0
  0
VERTEX
  5
1834
  8
3
 10
65.849231552
 20
-50.54973605900003
 30
0.0
  0
VERTEX
  5
1835
  8
3
 10
65.4151111078
 20
-50.92569539199999
 30
0.0
  0
VERTEX
  5
1836
  8
3
 10
64.75000000000001
 20
-51.20474263459997
 30
0.0
  0
VERTEX
  5
1837
  8
3
 10
63.93412044419999
 20
-51.35322057120007
 30
0.0
  0
VERTEX
  5
1838
  8
3
 10
63.06587955580001
 20
-51.35322057120007
 30
0.0
  0
VERTEX
  5
1839
  8
3
 10
62.25000000000001
 20
-51.20474263459997
 30
0.0
  0
VERTEX
  5
183A
  8
3
 10
61.5848888922
 20
-50.92569539199999
 30
0.0
  0
VERTEX
  5
183B
  8
3
 10
61.15076844799999
 20
-50.54973605900003
 30
0.0
  0
VERTEX
  5
183C
  8
3
 10
61.00000000000001
 20
-50.1222108799
 30
0.0
  0
VERTEX
  5
183D
  8
3
 10
61.15076844799999
 20
-49.69468570070003
 30
0.0
  0
VERTEX
  5
183E
  8
3
 10
61.5848888922
 20
-49.3187263678
 30
0.0
  0
VERTEX
  5
183F
  8
3
 10
62.25000000000001
 20
-49.03967912520002
 30
0.0
  0
VERTEX
  5
1840
  8
3
 10
63.06587955580001
 20
-48.89120118860004
 30
0.0
  0
VERTEX
  5
1841
  8
3
 10
63.93412044419999
 20
-48.89120118860004
 30
0.0
  0
VERTEX
  5
1842
  8
3
 10
64.75000000000001
 20
-49.03967912520002
 30
0.0
  0
VERTEX
  5
1843
  8
3
 10
65.4151111078
 20
-49.3187263678
 30
0.0
  0
VERTEX
  5
1844
  8
3
 10
65.849231552
 20
-49.69468570070003
 30
0.0
  0
VERTEX
  5
1845
  8
3
 10
66.00000000000001
 20
-50.1222108799
 30
0.0
  0
SEQEND
  5
1B1E
  8
3
  0
POLYLINE
  5
DA1
  8
3
 66
     1
 10
0.0
 20
0.0
 30
0.0
  0
VERTEX
  5
1846
  8
3
 10
65.55499999999999
 20
-50.39205777450005
 30
0.0
  0
VERTEX
  5
1847
  8
3
 10
65.3985724393
 20
-50.78526500130002
 30
0.0
  0
VERTEX
  5
1848
  8
3
 10
64.9531044353
 20
-51.11860999219996
 30
0.0
  0
VERTEX
  5
1849
  8
3
 10
64.2864144535
 20
-51.3413439942
 30
0.0
  0
VERTEX
  5
184A
  8
3
 10
63.50000000000001
 20
-51.41955777449996
 30
0.0
  0
VERTEX
  5
184B
  8
3
 10
62.7135855465
 20
-51.3413439942
 30
0.0
  0
VERTEX
  5
184C
  8
3
 10
62.04689556469999
 20
-51.11860999219996
 30
0.0
  0
VERTEX
  5
184D
  8
3
 10
61.6014275607
 20
-50.78526500130002
 30
0.0
  0
VERTEX
  5
184E
  8
3
 10
61.44500000000001
 20
-50.39205777450005
 30
0.0
  0
VERTEX
  5
184F
  8
3
 10
61.6014275607
 20
-49.9988505478
 30
0.0
  0
VERTEX
  5
1850
  8
3
 10
62.04689556469999
 20
-49.66550555680001
 30
0.0
  0
VERTEX
  5
1851
  8
3
 10
62.7135855465
 20
-49.44277155490002
 30
0.0
  0
VERTEX
  5
1852
  8
3
 10
63.50000000000001
 20
-49.36455777450001
 30
0.0
  0
VERTEX
  5
1853
  8
3
 10
64.2864144535
 20
-49.44277155490002
 30
0.0
  0
VERTEX
  5
1854
  8
3
 10
64.9531044353
 20
-49.66550555680001
 30
0.0
  0
VERTEX
  5
1855
  8
3
 10
65.3985724393
 20
-49.9988505478
 30
0.0
  0
VERTEX
  5
1856
  8
3
 10
65.55499999999999
 20
-50.39205777450005
 30
0.0
  0
SEQEND
  5
1B1D
  8
3
  0
POLYLINE
  5
DA2
  8
3
 66
     1
 10
0.0
 20
0.0
 30
0.0
  0
VERTEX
  5
1857
  8
3
 10
66.00000000000001
 20
-50.66190466909998
 30
0.0
  0
VERTEX
  5
1858
  8
3
 10
65.849231552
 20
-51.08942984830006
 30
0.0
  0
VERTEX
  5
1859
  8
3
 10
65.4151111078
 20
-51.46538918119998
 30
0.0
  0
VERTEX
  5
185A
  8
3
 10
64.75000000000001
 20
-51.7444364239
 30
0.0
  0
VERTEX
  5
185B
  8
3
 10
63.93412044419999
 20
-51.89291436040006
 30
0.0
  0
VERTEX
  5
185C
  8
3
 10
63.06587955580001
 20
-51.89291436040006
 30
0.0
  0
VERTEX
  5
185D
  8
3
 10
62.25000000000001
 20
-51.7444364239
 30
0.0
  0
VERTEX
  5
185E
  8
3
 10
61.5848888922
 20
-51.46538918119998
 30
0.0
  0
VERTEX
  5
185F
  8
3
 10
61.15076844799999
 20
-51.08942984830006
 30
0.0
  0
VERTEX
  5
1860
  8
3
 10
61.00000000000001
 20
-50.66190466909998
 30
0.0
  0
VERTEX
  5
1861
  8
3
 10
61.15076844799999
 20
-50.23437949000007
 30
0.0
  0
VERTEX
  5
1862
  8
3
 10
61.5848888922
 20
-49.85842015699998
 30
0.0
  0
VERTEX
  5
1863
  8
3
 10
62.25000000000001
 20
-49.57937291440001
 30
0.0
  0
VERTEX
  5
1864
  8
3
 10
63.06587955580001
 20
-49.43089497790007
 30
0.0
  0
VERTEX
  5
1865
  8
3
 10
63.93412044419999
 20
-49.43089497790007
 30
0.0
  0
VERTEX
  5
1866
  8
3
 10
64.75000000000001
 20
-49.57937291440001
 30
0.0
  0
VERTEX
  5
1867
  8
3
 10
65.4151111078
 20
-49.85842015699998
 30
0.0
  0
VERTEX
  5
1868
  8
3
 10
65.849231552
 20
-50.23437949000007
 30
0.0
  0
VERTEX
  5
1869
  8
3
 10
66.00000000000001
 20
-50.66190466909998
 30
0.0
  0
SEQEND
  5
1B1C
  8
3
  0
POLYLINE
  5
DA3
  8
3
 66
     1
 10
0.0
 20
0.0
 30
0.0
  0
VERTEX
  5
186A
  8
3
 10
66.00000000000001
 20
-50.73994422050001
 30
0.0
  0
VERTEX
  5
186B
  8
3
 10
65.849231552
 20
-51.16746939960004
 30
0.0
  0
VERTEX
  5
186C
  8
3
 10
65.4151111078
 20
-51.54342873260001
 30
0.0
  0
VERTEX
  5
186D
  8
3
 10
64.75000000000001
 20
-51.82247597519998
 30
0.0
  0
VERTEX
  5
186E
  8
3
 10
63.93412044419999
 20
-51.97095391179997
 30
0.0
  0
VERTEX
  5
186F
  8
3
 10
63.06587955580001
 20
-51.97095391179997
 30
0.0
  0
VERTEX
  5
1870
  8
3
 10
62.25000000000001
 20
-51.82247597519998
 30
0.0
  0
VERTEX
  5
1871
  8
3
 10
61.5848888922
 20
-51.54342873260001
 30
0.0
  0
VERTEX
  5
1872
  8
3
 10
61.15076844799999
 20
-51.16746939960004
 30
0.0
  0
VERTEX
  5
1873
  8
3
 10
61.00000000000001
 20
-50.73994422050001
 30
0.0
  0
VERTEX
  5
1874
  8
3
 10
61.15076844799999
 20
-50.31241904130005
 30
0.0
  0
VERTEX
  5
1875
  8
3
 10
61.5848888922
 20
-49.93645970840001
 30
0.0
  0
VERTEX
  5
1876
  8
3
 10
62.25000000000001
 20
-49.65741246580004
 30
0.0
  0
VERTEX
  5
1877
  8
3
 10
63.06587955580001
 20
-49.50893452920005
 30
0.0
  0
VERTEX
  5
1878
  8
3
 10
63.93412044419999
 20
-49.50893452920005
 30
0.0
  0
VERTEX
  5
1879
  8
3
 10
64.75000000000001
 20
-49.65741246580004
 30
0.0
  0
VERTEX
  5
187A
  8
3
 10
65.4151111078
 20
-49.93645970840001
 30
0.0
  0
VERTEX
  5
187B
  8
3
 10
65.849231552
 20
-50.31241904130005
 30
0.0
  0
VERTEX
  5
187C
  8
3
 10
66.00000000000001
 20
-50.73994422050001
 30
0.0
  0
SEQEND
  5
1B1B
  8
3
  0
POLYLINE
  5
DA4
  8
3
 66
     1
 10
0.0
 20
0.0
 30
0.0
  0
VERTEX
  5
187D
  8
3
 10
65.55499999999999
 20
-51.00979111510006
 30
0.0
  0
VERTEX
  5
187E
  8
3
 10
65.3985724393
 20
-51.40299834190003
 30
0.0
  0
VERTEX
  5
187F
  8
3
 10
64.9531044353
 20
-51.73634333279998
 30
0.0
  0
VERTEX
  5
1880
  8
3
 10
64.2864144535
 20
-51.95907733480001
 30
0.0
  0
VERTEX
  5
1881
  8
3
 10
63.50000000000001
 20
-52.03729111509998
 30
0.0
  0
VERTEX
  5
1882
  8
3
 10
62.7135855465
 20
-51.95907733480001
 30
0.0
  0
VERTEX
  5
1883
  8
3
 10
62.04689556469999
 20
-51.73634333279998
 30
0.0
  0
VERTEX
  5
1884
  8
3
 10
61.6014275607
 20
-51.40299834190003
 30
0.0
  0
VERTEX
  5
1885
  8
3
 10
61.44500000000001
 20
-51.00979111510006
 30
0.0
  0
VERTEX
  5
1886
  8
3
 10
61.6014275607
 20
-50.61658388840002
 30
0.0
  0
VERTEX
  5
1887
  8
3
 10
62.04689556469999
 20
-50.28323889740003
 30
0.0
  0
VERTEX
  5
1888
  8
3
 10
62.7135855465
 20
-50.06050489550003
 30
0.0
  0
VERTEX
  5
1889
  8
3
 10
63.50000000000001
 20
-49.98229111510003
 30
0.0
  0
VERTEX
  5
188A
  8
3
 10
64.2864144535
 20
-50.06050489550003
 30
0.0
  0
VERTEX
  5
188B
  8
3
 10
64.9531044353
 20
-50.28323889740003
 30
0.0
  0
VERTEX
  5
188C
  8
3
 10
65.3985724393
 20
-50.61658388840002
 30
0.0
  0
VERTEX
  5
188D
  8
3
 10
65.55499999999999
 20
-51.00979111510006
 30
0.0
  0
SEQEND
  5
1B1A
  8
3
  0
POLYLINE
  5
DA5
  8
3
 66
     1
 10
0.0
 20
0.0
 30
0.0
  0
VERTEX
  5
188E
  8
3
 10
66.00000000000001
 20
-51.27963800969999
 30
0.0
  0
VERTEX
  5
188F
  8
3
 10
65.849231552
 20
-51.70716318890007
 30
0.0
  0
VERTEX
  5
1890
  8
3
 10
65.4151111078
 20
-52.08312252179999
 30
0.0
  0
VERTEX
  5
1891
  8
3
 10
64.75000000000001
 20
-52.36216976450001
 30
0.0
  0
VERTEX
  5
1892
  8
3
 10
63.93412044419999
 20
-52.51064770100007
 30
0.0
  0
VERTEX
  5
1893
  8
3
 10
63.06587955580001
 20
-52.51064770100007
 30
0.0
  0
VERTEX
  5
1894
  8
3
 10
62.25000000000001
 20
-52.36216976450001
 30
0.0
  0
VERTEX
  5
1895
  8
3
 10
61.5848888922
 20
-52.08312252179999
 30
0.0
  0
VERTEX
  5
1896
  8
3
 10
61.15076844799999
 20
-51.70716318890007
 30
0.0
  0
VERTEX
  5
1897
  8
3
 10
61.00000000000001
 20
-51.27963800969999
 30
0.0
  0
VERTEX
  5
1898
  8
3
 10
61.15076844799999
 20
-50.85211283059996
 30
0.0
  0
VERTEX
  5
1899
  8
3
 10
61.5848888922
 20
-50.4761534976
 30
0.0
  0
VERTEX
  5
189A
  8
3
 10
62.25000000000001
 20
-50.19710625500002
 30
0.0
  0
VERTEX
  5
189B
  8
3
 10
63.06587955580001
 20
-50.04862831849996
 30
0.0
  0
VERTEX
  5
189C
  8
3
 10
63.93412044419999
 20
-50.04862831849996
 30
0.0
  0
VERTEX
  5
189D
  8
3
 10
64.75000000000001
 20
-50.19710625500002
 30
0.0
  0
VERTEX
  5
189E
  8
3
 10
65.4151111078
 20
-50.4761534976
 30
0.0
  0
VERTEX
  5
189F
  8
3
 10
65.849231552
 20
-50.85211283059996
 30
0.0
  0
VERTEX
  5
18A0
  8
3
 10
66.00000000000001
 20
-51.27963800969999
 30
0.0
  0
SEQEND
  5
1B19
  8
3
  0
POLYLINE
  5
DA6
  8
3
 66
     1
 10
0.0
 20
0.0
 30
0.0
  0
VERTEX
  5
18A1
  8
3
 10
66.00000000000001
 20
-51.35767756110002
 30
0.0
  0
VERTEX
  5
18A2
  8
3
 10
65.849231552
 20
-51.78520274029998
 30
0.0
  0
VERTEX
  5
18A3
  8
3
 10
65.4151111078
 20
-52.16116207320002
 30
0.0
  0
VERTEX
  5
18A4
  8
3
 10
64.75000000000001
 20
-52.44020931579999
 30
0.0
  0
VERTEX
  5
18A5
  8
3
 10
63.93412044419999
 20
-52.58868725239998
 30
0.0
  0
VERTEX
  5
18A6
  8
3
 10
63.06587955580001
 20
-52.58868725239998
 30
0.0
  0
VERTEX
  5
18A7
  8
3
 10
62.25000000000001
 20
-52.44020931579999
 30
0.0
  0
VERTEX
  5
18A8
  8
3
 10
61.5848888922
 20
-52.16116207320002
 30
0.0
  0
VERTEX
  5
18A9
  8
3
 10
61.15076844799999
 20
-51.78520274029998
 30
0.0
  0
VERTEX
  5
18AA
  8
3
 10
61.00000000000001
 20
-51.35767756110002
 30
0.0
  0
VERTEX
  5
18AB
  8
3
 10
61.15076844799999
 20
-50.93015238190006
 30
0.0
  0
VERTEX
  5
18AC
  8
3
 10
61.5848888922
 20
-50.55419304900002
 30
0.0
  0
VERTEX
  5
18AD
  8
3
 10
62.25000000000001
 20
-50.27514580640005
 30
0.0
  0
VERTEX
  5
18AE
  8
3
 10
63.06587955580001
 20
-50.12666786980006
 30
0.0
  0
VERTEX
  5
18AF
  8
3
 10
63.93412044419999
 20
-50.12666786980006
 30
0.0
  0
VERTEX
  5
18B0
  8
3
 10
64.75000000000001
 20
-50.27514580640005
 30
0.0
  0
VERTEX
  5
18B1
  8
3
 10
65.4151111078
 20
-50.55419304900002
 30
0.0
  0
VERTEX
  5
18B2
  8
3
 10
65.849231552
 20
-50.93015238190006
 30
0.0
  0
VERTEX
  5
18B3
  8
3
 10
66.00000000000001
 20
-51.35767756110002
 30
0.0
  0
SEQEND
  5
1B18
  8
3
  0
POLYLINE
  5
DA7
  8
3
 66
     1
 10
0.0
 20
0.0
 30
0.0
  0
VERTEX
  5
18B4
  8
3
 10
65.55499999999999
 20
-51.62752445570007
 30
0.0
  0
VERTEX
  5
18B5
  8
3
 10
65.3985724393
 20
-52.02073168250004
 30
0.0
  0
VERTEX
  5
18B6
  8
3
 10
64.9531044353
 20
-52.35407667339999
 30
0.0
  0
VERTEX
  5
18B7
  8
3
 10
64.2864144535
 20
-52.57681067540003
 30
0.0
  0
VERTEX
  5
18B8
  8
3
 10
63.50000000000001
 20
-52.65502445569999
 30
0.0
  0
VERTEX
  5
18B9
  8
3
 10
62.7135855465
 20
-52.57681067540003
 30
0.0
  0
VERTEX
  5
18BA
  8
3
 10
62.04689556469999
 20
-52.35407667339999
 30
0.0
  0
VERTEX
  5
18BB
  8
3
 10
61.6014275607
 20
-52.02073168250004
 30
0.0
  0
VERTEX
  5
18BC
  8
3
 10
61.44500000000001
 20
-51.62752445570007
 30
0.0
  0
VERTEX
  5
18BD
  8
3
 10
61.6014275607
 20
-51.23431722900003
 30
0.0
  0
VERTEX
  5
18BE
  8
3
 10
62.04689556469999
 20
-50.90097223809997
 30
0.0
  0
VERTEX
  5
18BF
  8
3
 10
62.7135855465
 20
-50.67823823610004
 30
0.0
  0
VERTEX
  5
18C0
  8
3
 10
63.50000000000001
 20
-50.60002445570004
 30
0.0
  0
VERTEX
  5
18C1
  8
3
 10
64.2864144535
 20
-50.67823823610004
 30
0.0
  0
VERTEX
  5
18C2
  8
3
 10
64.9531044353
 20
-50.90097223809997
 30
0.0
  0
VERTEX
  5
18C3
  8
3
 10
65.3985724393
 20
-51.23431722900003
 30
0.0
  0
VERTEX
  5
18C4
  8
3
 10
65.55499999999999
 20
-51.62752445570007
 30
0.0
  0
SEQEND
  5
1B17
  8
3
  0
POLYLINE
  5
DA8
  8
3
 66
     1
 10
0.0
 20
0.0
 30
0.0
  0
VERTEX
  5
18C5
  8
3
 10
66.00000000000001
 20
-51.89737135030001
 30
0.0
  0
VERTEX
  5
18C6
  8
3
 10
65.849231552
 20
-52.32489652949997
 30
0.0
  0
VERTEX
  5
18C7
  8
3
 10
65.4151111078
 20
-52.70085586250005
 30
0.0
  0
VERTEX
  5
18C8
  8
3
 10
64.75000000000001
 20
-52.97990310510002
 30
0.0
  0
VERTEX
  5
18C9
  8
3
 10
63.93412044419999
 20
-53.12838104159997
 30
0.0
  0
VERTEX
  5
18CA
  8
3
 10
63.06587955580001
 20
-53.12838104159997
 30
0.0
  0
VERTEX
  5
18CB
  8
3
 10
62.25000000000001
 20
-52.97990310510002
 30
0.0
  0
VERTEX
  5
18CC
  8
3
 10
61.5848888922
 20
-52.70085586250005
 30
0.0
  0
VERTEX
  5
18CD
  8
3
 10
61.15076844799999
 20
-52.32489652949997
 30
0.0
  0
VERTEX
  5
18CE
  8
3
 10
61.00000000000001
 20
-51.89737135030001
 30
0.0
  0
VERTEX
  5
18CF
  8
3
 10
61.15076844799999
 20
-51.46984617119998
 30
0.0
  0
VERTEX
  5
18D0
  8
3
 10
61.5848888922
 20
-51.09388683820001
 30
0.0
  0
VERTEX
  5
18D1
  8
3
 10
62.25000000000001
 20
-50.81483959560003
 30
0.0
  0
VERTEX
  5
18D2
  8
3
 10
63.06587955580001
 20
-50.66636165909998
 30
0.0
  0
VERTEX
  5
18D3
  8
3
 10
63.93412044419999
 20
-50.66636165909998
 30
0.0
  0
VERTEX
  5
18D4
  8
3
 10
64.75000000000001
 20
-50.81483959560003
 30
0.0
  0
VERTEX
  5
18D5
  8
3
 10
65.4151111078
 20
-51.09388683820001
 30
0.0
  0
VERTEX
  5
18D6
  8
3
 10
65.849231552
 20
-51.46984617119998
 30
0.0
  0
VERTEX
  5
18D7
  8
3
 10
66.00000000000001
 20
-51.89737135030001
 30
0.0
  0
SEQEND
  5
1B16
  8
3
  0
LINE
  5
DA9
  8
3
 10
63.50000000000001
 20
-50.85117704259997
 30
0.0
 11
63.50000000000001
 21
-53.18944563280004
 31
0.0
  0
LINE
  5
DAA
  8
3
 10
62.25000000000001
 20
-50.4903331244
 30
0.0
 11
63.50000000000001
 21
-50.85117704259997
 31
0.0
  0
LINE
  5
DAB
  8
3
 10
64.75000000000001
 20
-50.4903331244
 30
0.0
 11
63.50000000000001
 21
-50.85117704259997
 31
0.0
  0
POLYLINE
  5
DAC
  8
3
 66
     1
 10
0.0
 20
0.0
 30
0.0
  0
VERTEX
  5
18D8
  8
3
 10
66.00000000000001
 20
-51.97541090170003
 30
0.0
  0
VERTEX
  5
18D9
  8
3
 10
65.849231552
 20
-52.40293608089999
 30
0.0
  0
VERTEX
  5
18DA
  8
3
 10
65.4151111078
 20
-52.77889541380003
 30
0.0
  0
VERTEX
  5
18DB
  8
3
 10
64.75000000000001
 20
-53.0579426564
 30
0.0
  0
VERTEX
  5
18DC
  8
3
 10
63.93412044419999
 20
-53.20642059299999
 30
0.0
  0
VERTEX
  5
18DD
  8
3
 10
63.06587955580001
 20
-53.20642059299999
 30
0.0
  0
VERTEX
  5
18DE
  8
3
 10
62.25000000000001
 20
-53.0579426564
 30
0.0
  0
VERTEX
  5
18DF
  8
3
 10
61.5848888922
 20
-52.77889541380003
 30
0.0
  0
VERTEX
  5
18E0
  8
3
 10
61.15076844799999
 20
-52.40293608089999
 30
0.0
  0
VERTEX
  5
18E1
  8
3
 10
61.00000000000001
 20
-51.97541090170003
 30
0.0
  0
VERTEX
  5
18E2
  8
3
 10
61.15076844799999
 20
-51.54788572250007
 30
0.0
  0
VERTEX
  5
18E3
  8
3
 10
61.5848888922
 20
-51.17192638960003
 30
0.0
  0
VERTEX
  5
18E4
  8
3
 10
62.25000000000001
 20
-50.89287914700006
 30
0.0
  0
VERTEX
  5
18E5
  8
3
 10
63.06587955580001
 20
-50.74440121040007
 30
0.0
  0
VERTEX
  5
18E6
  8
3
 10
63.93412044419999
 20
-50.74440121040007
 30
0.0
  0
VERTEX
  5
18E7
  8
3
 10
64.75000000000001
 20
-50.89287914700006
 30
0.0
  0
VERTEX
  5
18E8
  8
3
 10
65.4151111078
 20
-51.17192638960003
 30
0.0
  0
VERTEX
  5
18E9
  8
3
 10
65.849231552
 20
-51.54788572250007
 30
0.0
  0
VERTEX
  5
18EA
  8
3
 10
66.00000000000001
 20
-51.97541090170003
 30
0.0
  0
SEQEND
  5
1B15
  8
3
  0
POLYLINE
  5
DAD
  8
3
 66
     1
 10
0.0
 20
0.0
 30
0.0
  0
VERTEX
  5
18EB
  8
3
 10
65.55499999999999
 20
-52.24525779629997
 30
0.0
  0
VERTEX
  5
18EC
  8
3
 10
65.3985724393
 20
-52.63846502310005
 30
0.0
  0
VERTEX
  5
18ED
  8
3
 10
64.9531044353
 20
-52.971810014
 30
0.0
  0
VERTEX
  5
18EE
  8
3
 10
64.2864144535
 20
-53.19454401600004
 30
0.0
  0
VERTEX
  5
18EF
  8
3
 10
63.50000000000001
 20
-53.2727577963
 30
0.0
  0
VERTEX
  5
18F0
  8
3
 10
62.7135855465
 20
-53.19454401600004
 30
0.0
  0
VERTEX
  5
18F1
  8
3
 10
62.04689556469999
 20
-52.971810014
 30
0.0
  0
VERTEX
  5
18F2
  8
3
 10
61.6014275607
 20
-52.63846502310005
 30
0.0
  0
VERTEX
  5
18F3
  8
3
 10
61.44500000000001
 20
-52.24525779629997
 30
0.0
  0
VERTEX
  5
18F4
  8
3
 10
61.6014275607
 20
-51.85205056960004
 30
0.0
  0
VERTEX
  5
18F5
  8
3
 10
62.04689556469999
 20
-51.51870557869998
 30
0.0
  0
VERTEX
  5
18F6
  8
3
 10
62.7135855465
 20
-51.29597157670005
 30
0.0
  0
VERTEX
  5
18F7
  8
3
 10
63.50000000000001
 20
-51.21775779630005
 30
0.0
  0
VERTEX
  5
18F8
  8
3
 10
64.2864144535
 20
-51.29597157670005
 30
0.0
  0
VERTEX
  5
18F9
  8
3
 10
64.9531044353
 20
-51.51870557869998
 30
0.0
  0
VERTEX
  5
18FA
  8
3
 10
65.3985724393
 20
-51.85205056960004
 30
0.0
  0
VERTEX
  5
18FB
  8
3
 10
65.55499999999999
 20
-52.24525779629997
 30
0.0
  0
SEQEND
  5
1B14
  8
3
  0
POLYLINE
  5
DAE
  8
3
 66
     1
 10
0.0
 20
0.0
 30
0.0
  0
VERTEX
  5
18FC
  8
3
 10
65.7561031268
 20
-52.36720623290003
 30
0.0
  0
VERTEX
  5
18FD
  8
3
 10
65.60375351239999
 20
-51.95970700659998
 30
0.0
  0
VERTEX
  5
18FE
  8
3
 10
65.16728032889999
 20
-51.60724280880007
 30
0.0
  0
VERTEX
  5
18FF
  8
3
 10
64.50563169819999
 20
-51.35741588260001
 30
0.0
  0
VERTEX
  5
1900
  8
3
 10
63.7081669343
 20
-51.24396673859999
 30
0.0
  0
VERTEX
  5
1901
  8
3
 10
62.8825880724
 20
-51.28221731240004
 30
0.0
  0
VERTEX
  5
1902
  8
3
 10
62.1403941125
 20
-51.46700165200005
 30
0.0
  0
VERTEX
  5
1903
  8
3
 10
61.5818224616
 20
-51.77336360849998
 30
0.0
  0
VERTEX
  5
1904
  8
3
 10
61.28231131619999
 20
-52.15992730209999
 30
0.0
  0
VERTEX
  5
1905
  8
3
 10
61.28231131619999
 20
-52.57448516380001
 30
0.0
  0
VERTEX
  5
1906
  8
3
 10
61.5818224616
 20
-52.96104885729997
 30
0.0
  0
VERTEX
  5
1907
  8
3
 10
62.1403941125
 20
-53.26741081380001
 30
0.0
  0
VERTEX
  5
1908
  8
3
 10
62.8825880724
 20
-53.45219515340003
 30
0.0
  0
VERTEX
  5
1909
  8
3
 10
63.7081669343
 20
-53.49044572720007
 30
0.0
  0
VERTEX
  5
190A
  8
3
 10
64.50563169819999
 20
-53.37699658320005
 30
0.0
  0
VERTEX
  5
190B
  8
3
 10
65.16728032889999
 20
-53.127169657
 30
0.0
  0
VERTEX
  5
190C
  8
3
 10
65.60375351239999
 20
-52.77470545919996
 30
0.0
  0
VERTEX
  5
190D
  8
3
 10
65.7561031268
 20
-52.36720623290003
 30
0.0
  0
SEQEND
  5
1B13
  8
3
  0
LINE
  5
DAF
  8
3
 10
62.25000000000001
 20
-50.4903331244
 30
0.0
 11
62.25000000000001
 21
-49.7686452879
 31
0.0
  0
LINE
  5
DB0
  8
3
 10
62.25000000000001
 20
-50.4903331244
 30
0.0
 11
62.25000000000001
 21
-52.82860171460007
 31
0.0
  0
LINE
  5
DB1
  8
3
 10
64.75000000000001
 20
-50.4903331244
 30
0.0
 11
64.75000000000001
 21
-49.7686452879
 31
0.0
  0
LINE
  5
DB2
  8
3
 10
64.75000000000001
 20
-50.4903331244
 30
0.0
 11
64.75000000000001
 21
-52.82860171460007
 31
0.0
  0
POLYLINE
  5
DB3
  8
3
 66
     1
 10
0.0
 20
0.0
 30
0.0
  0
VERTEX
  5
190E
  8
3
 10
63.50000000000001
 20
-53.49525779629997
 30
0.0
  0
VERTEX
  5
190F
  8
3
 10
62.7135855465
 20
-53.41704401600001
 30
0.0
  0
VERTEX
  5
1910
  8
3
 10
62.04689556469999
 20
-53.19431001399997
 30
0.0
  0
VERTEX
  5
1911
  8
3
 10
61.6014275607
 20
-52.86096502310002
 30
0.0
  0
VERTEX
  5
1912
  8
3
 10
61.44500000000001
 20
-52.46775779630005
 30
0.0
  0
VERTEX
  5
1913
  8
3
 10
61.6014275607
 20
-52.07455056960001
 30
0.0
  0
VERTEX
  5
1914
  8
3
 10
62.04689556469999
 20
-51.74120557870006
 30
0.0
  0
VERTEX
  5
1915
  8
3
 10
62.7135855465
 20
-51.51847157670002
 30
0.0
  0
VERTEX
  5
1916
  8
3
 10
63.50000000000001
 20
-51.44025779630002
 30
0.0
  0
VERTEX
  5
1917
  8
3
 10
64.2864144535
 20
-51.51847157670002
 30
0.0
  0
VERTEX
  5
1918
  8
3
 10
64.9531044353
 20
-51.74120557870006
 30
0.0
  0
VERTEX
  5
1919
  8
3
 10
65.3985724393
 20
-52.07455056960001
 30
0.0
  0
VERTEX
  5
191A
  8
3
 10
65.55499999999999
 20
-52.46775779630005
 30
0.0
  0
VERTEX
  5
191B
  8
3
 10
65.3985724393
 20
-52.86096502310002
 30
0.0
  0
VERTEX
  5
191C
  8
3
 10
64.9531044353
 20
-53.19431001399997
 30
0.0
  0
VERTEX
  5
191D
  8
3
 10
64.2864144535
 20
-53.41704401600001
 30
0.0
  0
VERTEX
  5
191E
  8
3
 10
63.50000000000001
 20
-53.49525779629997
 30
0.0
  0
SEQEND
  5
1B12
  8
3
  0
LINE
  5
DB4
  8
3
 10
62.25000000000001
 20
-52.82860171460007
 30
0.0
 11
63.50000000000001
 21
-53.18944563280004
 31
0.0
  0
LINE
  5
DB5
  8
3
 10
64.75000000000001
 20
-52.82860171460007
 30
0.0
 11
63.50000000000001
 21
-53.18944563280004
 31
0.0
  0
LINE
  5
DB6
  8
3
 10
63.50000000000001
 20
-49.40780136959998
 30
0.0
 11
63.50000000000001
 21
-50.85117704259997
 31
0.0
  0
LINE
  5
DB7
  8
3
 10
62.25000000000001
 20
-52.10691387810007
 30
0.0
 11
63.50000000000001
 21
-51.74606995980005
 31
0.0
  0
LINE
  5
DB8
  8
3
 10
62.25000000000001
 20
-49.7686452879
 30
0.0
 11
63.50000000000001
 21
-49.40780136959998
 31
0.0
  0
LINE
  5
DB9
  8
3
 10
64.75000000000001
 20
-52.10691387810007
 30
0.0
 11
63.50000000000001
 21
-51.74606995980005
 31
0.0
  0
LINE
  5
DBA
  8
3
 10
64.75000000000001
 20
-49.7686452879
 30
0.0
 11
63.50000000000001
 21
-49.40780136959998
 31
0.0
  0
POLYLINE
  5
DBB
  8
3
 66
     1
 10
0.0
 20
0.0
 30
0.0
  0
VERTEX
  5
191F
  8
3
 10
63.50000000000001
 20
46.3966053737
 30
0.0
  0
VERTEX
  5
1920
  8
3
 10
62.83030399339999
 20
46.46321078269997
 30
0.0
  0
VERTEX
  5
1921
  8
3
 10
62.26256313290001
 20
46.65288694019998
 30
0.0
  0
VERTEX
  5
1922
  8
3
 10
61.88321081810001
 20
46.93675737039999
 30
0.0
  0
VERTEX
  5
1923
  8
3
 10
61.75000000000001
 20
47.2716053737
 30
0.0
  0
VERTEX
  5
1924
  8
3
 10
61.88321081810001
 20
47.60645337700001
 30
0.0
  0
VERTEX
  5
1925
  8
3
 10
62.26256313290001
 20
47.89032380719996
 30
0.0
  0
VERTEX
  5
1926
  8
3
 10
62.83030399339999
 20
48.07999996459998
 30
0.0
  0
VERTEX
  5
1927
  8
3
 10
63.50000000000001
 20
48.1466053737
 30
0.0
  0
VERTEX
  5
1928
  8
3
 10
64.1696960066
 20
48.07999996459998
 30
0.0
  0
VERTEX
  5
1929
  8
3
 10
64.73743686710002
 20
47.89032380719996
 30
0.0
  0
VERTEX
  5
192A
  8
3
 10
65.11678918189999
 20
47.60645337700001
 30
0.0
  0
VERTEX
  5
192B
  8
3
 10
65.25000000000001
 20
47.2716053737
 30
0.0
  0
VERTEX
  5
192C
  8
3
 10
65.11678918189999
 20
46.93675737039999
 30
0.0
  0
VERTEX
  5
192D
  8
3
 10
64.73743686710002
 20
46.65288694019998
 30
0.0
  0
VERTEX
  5
192E
  8
3
 10
64.1696960066
 20
46.46321078269997
 30
0.0
  0
VERTEX
  5
192F
  8
3
 10
63.50000000000001
 20
46.3966053737
 30
0.0
  0
SEQEND
  5
1B11
  8
3
  0
POLYLINE
  5
DBC
  8
3
 66
     1
 10
0.0
 20
0.0
 30
0.0
  0
VERTEX
  5
1930
  8
3
 10
61.1832672565
 20
47.76241032670001
 30
0.0
  0
VERTEX
  5
1931
  8
3
 10
61.3397110538
 20
48.1808605249
 30
0.0
  0
VERTEX
  5
1932
  8
3
 10
61.78791384380001
 20
48.54279670509996
 30
0.0
  0
VERTEX
  5
1933
  8
3
 10
62.4673433562
 20
48.79933738060001
 30
0.0
  0
VERTEX
  5
1934
  8
3
 10
63.2862388704
 20
48.91583531169996
 30
0.0
  0
VERTEX
  5
1935
  8
3
 10
64.1340040098
 20
48.87655680719999
 30
0.0
  0
VERTEX
  5
1936
  8
3
 10
64.8961433944
 20
48.68680664679997
 30
0.0
  0
VERTEX
  5
1937
  8
3
 10
65.4697258774
 20
48.37221164109999
 30
0.0
  0
VERTEX
  5
1938
  8
3
 10
65.77728596600001
 20
47.9752595889
 30
0.0
  0
VERTEX
  5
1939
  8
3
 10
65.77728596600001
 20
47.54956106439997
 30
0.0
  0
VERTEX
  5
193A
  8
3
 10
65.4697258774
 20
47.15260901219997
 30
0.0
  0
VERTEX
  5
193B
  8
3
 10
64.8961433944
 20
46.8380140065
 30
0.0
  0
VERTEX
  5
193C
  8
3
 10
64.1340040098
 20
46.64826384619997
 30
0.0
  0
VERTEX
  5
193D
  8
3
 10
63.2862388704
 20
46.60898534169999
 30
0.0
  0
VERTEX
  5
193E
  8
3
 10
62.4673433562
 20
46.72548327280001
 30
0.0
  0
VERTEX
  5
193F
  8
3
 10
61.78791384380001
 20
46.9820239483
 30
0.0
  0
VERTEX
  5
1940
  8
3
 10
61.3397110538
 20
47.34396012849996
 30
0.0
  0
VERTEX
  5
1941
  8
3
 10
61.1832672565
 20
47.76241032670001
 30
0.0
  0
SEQEND
  5
1B10
  8
3
  0
POLYLINE
  5
DBD
  8
3
 66
     1
 10
0.0
 20
0.0
 30
0.0
  0
VERTEX
  5
1942
  8
3
 10
65.55499999999999
 20
47.92112441219999
 30
0.0
  0
VERTEX
  5
1943
  8
3
 10
65.3985724393
 20
47.52791718539996
 30
0.0
  0
VERTEX
  5
1944
  8
3
 10
64.9531044353
 20
47.19457219449995
 30
0.0
  0
VERTEX
  5
1945
  8
3
 10
64.2864144535
 20
46.97183819249997
 30
0.0
  0
VERTEX
  5
1946
  8
3
 10
63.50000000000001
 20
46.89362441219996
 30
0.0
  0
VERTEX
  5
1947
  8
3
 10
62.7135855465
 20
46.97183819249997
 30
0.0
  0
VERTEX
  5
1948
  8
3
 10
62.04689556469999
 20
47.19457219449995
 30
0.0
  0
VERTEX
  5
1949
  8
3
 10
61.6014275607
 20
47.52791718539996
 30
0.0
  0
VERTEX
  5
194A
  8
3
 10
61.44500000000001
 20
47.92112441219999
 30
0.0
  0
VERTEX
  5
194B
  8
3
 10
61.6014275607
 20
48.31433163889997
 30
0.0
  0
VERTEX
  5
194C
  8
3
 10
62.04689556469999
 20
48.64767662979997
 30
0.0
  0
VERTEX
  5
194D
  8
3
 10
62.7135855465
 20
48.87041063179996
 30
0.0
  0
VERTEX
  5
194E
  8
3
 10
63.50000000000001
 20
48.94862441219996
 30
0.0
  0
VERTEX
  5
194F
  8
3
 10
64.2864144535
 20
48.87041063179996
 30
0.0
  0
VERTEX
  5
1950
  8
3
 10
64.9531044353
 20
48.64767662979997
 30
0.0
  0
VERTEX
  5
1951
  8
3
 10
65.3985724393
 20
48.31433163889997
 30
0.0
  0
VERTEX
  5
1952
  8
3
 10
65.55499999999999
 20
47.92112441219999
 30
0.0
  0
SEQEND
  5
1B0F
  8
3
  0
POLYLINE
  5
DBE
  8
3
 66
     1
 10
0.0
 20
0.0
 30
0.0
  0
VERTEX
  5
1953
  8
3
 10
66.00000000000001
 20
48.19097130679998
 30
0.0
  0
VERTEX
  5
1954
  8
3
 10
65.849231552
 20
47.76344612759996
 30
0.0
  0
VERTEX
  5
1955
  8
3
 10
65.4151111078
 20
47.38748679469998
 30
0.0
  0
VERTEX
  5
1956
  8
3
 10
64.75000000000001
 20
47.10843955210001
 30
0.0
  0
VERTEX
  5
1957
  8
3
 10
63.93412044419999
 20
46.95996161549996
 30
0.0
  0
VERTEX
  5
1958
  8
3
 10
63.06587955580001
 20
46.95996161549996
 30
0.0
  0
VERTEX
  5
1959
  8
3
 10
62.25000000000001
 20
47.10843955210001
 30
0.0
  0
VERTEX
  5
195A
  8
3
 10
61.5848888922
 20
47.38748679469998
 30
0.0
  0
VERTEX
  5
195B
  8
3
 10
61.15076844799999
 20
47.76344612759996
 30
0.0
  0
VERTEX
  5
195C
  8
3
 10
61.00000000000001
 20
48.19097130679998
 30
0.0
  0
VERTEX
  5
195D
  8
3
 10
61.15076844799999
 20
48.61849648589995
 30
0.0
  0
VERTEX
  5
195E
  8
3
 10
61.5848888922
 20
48.99445581889998
 30
0.0
  0
VERTEX
  5
195F
  8
3
 10
62.25000000000001
 20
49.27350306150001
 30
0.0
  0
VERTEX
  5
1960
  8
3
 10
63.06587955580001
 20
49.4219809981
 30
0.0
  0
VERTEX
  5
1961
  8
3
 10
63.93412044419999
 20
49.4219809981
 30
0.0
  0
VERTEX
  5
1962
  8
3
 10
64.75000000000001
 20
49.27350306150001
 30
0.0
  0
VERTEX
  5
1963
  8
3
 10
65.4151111078
 20
48.99445581889998
 30
0.0
  0
VERTEX
  5
1964
  8
3
 10
65.849231552
 20
48.61849648589995
 30
0.0
  0
VERTEX
  5
1965
  8
3
 10
66.00000000000001
 20
48.19097130679998
 30
0.0
  0
SEQEND
  5
1B0E
  8
3
  0
POLYLINE
  5
DBF
  8
3
 66
     1
 10
0.0
 20
0.0
 30
0.0
  0
VERTEX
  5
1966
  8
3
 10
66.00000000000001
 20
48.26901085809996
 30
0.0
  0
VERTEX
  5
1967
  8
3
 10
65.849231552
 20
47.84148567899999
 30
0.0
  0
VERTEX
  5
1968
  8
3
 10
65.4151111078
 20
47.46552634599996
 30
0.0
  0
VERTEX
  5
1969
  8
3
 10
64.75000000000001
 20
47.18647910339999
 30
0.0
  0
VERTEX
  5
196A
  8
3
 10
63.93412044419999
 20
47.03800116689999
 30
0.0
  0
VERTEX
  5
196B
  8
3
 10
63.06587955580001
 20
47.03800116689999
 30
0.0
  0
VERTEX
  5
196C
  8
3
 10
62.25000000000001
 20
47.18647910339999
 30
0.0
  0
VERTEX
  5
196D
  8
3
 10
61.5848888922
 20
47.46552634599996
 30
0.0
  0
VERTEX
  5
196E
  8
3
 10
61.15076844799999
 20
47.84148567899999
 30
0.0
  0
VERTEX
  5
196F
  8
3
 10
61.00000000000001
 20
48.26901085809996
 30
0.0
  0
VERTEX
  5
1970
  8
3
 10
61.15076844799999
 20
48.69653603729998
 30
0.0
  0
VERTEX
  5
1971
  8
3
 10
61.5848888922
 20
49.0724953703
 30
0.0
  0
VERTEX
  5
1972
  8
3
 10
62.25000000000001
 20
49.35154261289998
 30
0.0
  0
VERTEX
  5
1973
  8
3
 10
63.06587955580001
 20
49.50002054939998
 30
0.0
  0
VERTEX
  5
1974
  8
3
 10
63.93412044419999
 20
49.50002054939998
 30
0.0
  0
VERTEX
  5
1975
  8
3
 10
64.75000000000001
 20
49.35154261289998
 30
0.0
  0
VERTEX
  5
1976
  8
3
 10
65.4151111078
 20
49.0724953703
 30
0.0
  0
VERTEX
  5
1977
  8
3
 10
65.849231552
 20
48.69653603729998
 30
0.0
  0
VERTEX
  5
1978
  8
3
 10
66.00000000000001
 20
48.26901085809996
 30
0.0
  0
SEQEND
  5
1B0D
  8
3
  0
POLYLINE
  5
DC0
  8
3
 66
     1
 10
0.0
 20
0.0
 30
0.0
  0
VERTEX
  5
1979
  8
3
 10
65.55499999999999
 20
48.5388577528
 30
0.0
  0
VERTEX
  5
197A
  8
3
 10
65.3985724393
 20
48.14565052599997
 30
0.0
  0
VERTEX
  5
197B
  8
3
 10
64.9531044353
 20
47.81230553509997
 30
0.0
  0
VERTEX
  5
197C
  8
3
 10
64.2864144535
 20
47.58957153309998
 30
0.0
  0
VERTEX
  5
197D
  8
3
 10
63.50000000000001
 20
47.51135775279997
 30
0.0
  0
VERTEX
  5
197E
  8
3
 10
62.7135855465
 20
47.58957153309998
 30
0.0
  0
VERTEX
  5
197F
  8
3
 10
62.04689556469999
 20
47.81230553509997
 30
0.0
  0
VERTEX
  5
1980
  8
3
 10
61.6014275607
 20
48.14565052599997
 30
0.0
  0
VERTEX
  5
1981
  8
3
 10
61.44500000000001
 20
48.5388577528
 30
0.0
  0
VERTEX
  5
1982
  8
3
 10
61.6014275607
 20
48.93206497949998
 30
0.0
  0
VERTEX
  5
1983
  8
3
 10
62.04689556469999
 20
49.26540997039999
 30
0.0
  0
VERTEX
  5
1984
  8
3
 10
62.7135855465
 20
49.48814397239997
 30
0.0
  0
VERTEX
  5
1985
  8
3
 10
63.50000000000001
 20
49.56635775279997
 30
0.0
  0
VERTEX
  5
1986
  8
3
 10
64.2864144535
 20
49.48814397239997
 30
0.0
  0
VERTEX
  5
1987
  8
3
 10
64.9531044353
 20
49.26540997039999
 30
0.0
  0
VERTEX
  5
1988
  8
3
 10
65.3985724393
 20
48.93206497949998
 30
0.0
  0
VERTEX
  5
1989
  8
3
 10
65.55499999999999
 20
48.5388577528
 30
0.0
  0
SEQEND
  5
1B0C
  8
3
  0
POLYLINE
  5
DC1
  8
3
 66
     1
 10
0.0
 20
0.0
 30
0.0
  0
VERTEX
  5
198A
  8
3
 10
66.00000000000001
 20
48.80870464739999
 30
0.0
  0
VERTEX
  5
198B
  8
3
 10
65.849231552
 20
48.38117946819997
 30
0.0
  0
VERTEX
  5
198C
  8
3
 10
65.4151111078
 20
48.00522013529999
 30
0.0
  0
VERTEX
  5
198D
  8
3
 10
64.75000000000001
 20
47.72617289269996
 30
0.0
  0
VERTEX
  5
198E
  8
3
 10
63.93412044419999
 20
47.57769495609998
 30
0.0
  0
VERTEX
  5
198F
  8
3
 10
63.06587955580001
 20
47.57769495609998
 30
0.0
  0
VERTEX
  5
1990
  8
3
 10
62.25000000000001
 20
47.72617289269996
 30
0.0
  0
VERTEX
  5
1991
  8
3
 10
61.5848888922
 20
48.00522013529999
 30
0.0
  0
VERTEX
  5
1992
  8
3
 10
61.15076844799999
 20
48.38117946819997
 30
0.0
  0
VERTEX
  5
1993
  8
3
 10
61.00000000000001
 20
48.80870464739999
 30
0.0
  0
VERTEX
  5
1994
  8
3
 10
61.15076844799999
 20
49.23622982659995
 30
0.0
  0
VERTEX
  5
1995
  8
3
 10
61.5848888922
 20
49.61218915949999
 30
0.0
  0
VERTEX
  5
1996
  8
3
 10
62.25000000000001
 20
49.89123640209996
 30
0.0
  0
VERTEX
  5
1997
  8
3
 10
63.06587955580001
 20
50.03971433870001
 30
0.0
  0
VERTEX
  5
1998
  8
3
 10
63.93412044419999
 20
50.03971433870001
 30
0.0
  0
VERTEX
  5
1999
  8
3
 10
64.75000000000001
 20
49.89123640209996
 30
0.0
  0
VERTEX
  5
199A
  8
3
 10
65.4151111078
 20
49.61218915949999
 30
0.0
  0
VERTEX
  5
199B
  8
3
 10
65.849231552
 20
49.23622982659995
 30
0.0
  0
VERTEX
  5
199C
  8
3
 10
66.00000000000001
 20
48.80870464739999
 30
0.0
  0
SEQEND
  5
1B0B
  8
3
  0
POLYLINE
  5
DC2
  8
3
 66
     1
 10
0.0
 20
0.0
 30
0.0
  0
VERTEX
  5
199D
  8
3
 10
66.00000000000001
 20
48.88674419869997
 30
0.0
  0
VERTEX
  5
199E
  8
3
 10
65.849231552
 20
48.4592190196
 30
0.0
  0
VERTEX
  5
199F
  8
3
 10
65.4151111078
 20
48.08325968659997
 30
0.0
  0
VERTEX
  5
19A0
  8
3
 10
64.75000000000001
 20
47.804212444
 30
0.0
  0
VERTEX
  5
19A1
  8
3
 10
63.93412044419999
 20
47.6557345075
 30
0.0
  0
VERTEX
  5
19A2
  8
3
 10
63.06587955580001
 20
47.6557345075
 30
0.0
  0
VERTEX
  5
19A3
  8
3
 10
62.25000000000001
 20
47.804212444
 30
0.0
  0
VERTEX
  5
19A4
  8
3
 10
61.5848888922
 20
48.08325968659997
 30
0.0
  0
VERTEX
  5
19A5
  8
3
 10
61.15076844799999
 20
48.4592190196
 30
0.0
  0
VERTEX
  5
19A6
  8
3
 10
61.00000000000001
 20
48.88674419869997
 30
0.0
  0
VERTEX
  5
19A7
  8
3
 10
61.15076844799999
 20
49.31426937789999
 30
0.0
  0
VERTEX
  5
19A8
  8
3
 10
61.5848888922
 20
49.69022871089996
 30
0.0
  0
VERTEX
  5
19A9
  8
3
 10
62.25000000000001
 20
49.96927595349999
 30
0.0
  0
VERTEX
  5
19AA
  8
3
 10
63.06587955580001
 20
50.11775388999999
 30
0.0
  0
VERTEX
  5
19AB
  8
3
 10
63.93412044419999
 20
50.11775388999999
 30
0.0
  0
VERTEX
  5
19AC
  8
3
 10
64.75000000000001
 20
49.96927595349999
 30
0.0
  0
VERTEX
  5
19AD
  8
3
 10
65.4151111078
 20
49.69022871089996
 30
0.0
  0
VERTEX
  5
19AE
  8
3
 10
65.849231552
 20
49.31426937789999
 30
0.0
  0
VERTEX
  5
19AF
  8
3
 10
66.00000000000001
 20
48.88674419869997
 30
0.0
  0
SEQEND
  5
1B0A
  8
3
  0
POLYLINE
  5
DC3
  8
3
 66
     1
 10
0.0
 20
0.0
 30
0.0
  0
VERTEX
  5
19B0
  8
3
 10
65.55499999999999
 20
49.15659109339995
 30
0.0
  0
VERTEX
  5
19B1
  8
3
 10
65.3985724393
 20
48.76338386659998
 30
0.0
  0
VERTEX
  5
19B2
  8
3
 10
64.9531044353
 20
48.43003887569998
 30
0.0
  0
VERTEX
  5
19B3
  8
3
 10
64.2864144535
 20
48.2073048737
 30
0.0
  0
VERTEX
  5
19B4
  8
3
 10
63.50000000000001
 20
48.12909109339998
 30
0.0
  0
VERTEX
  5
19B5
  8
3
 10
62.7135855465
 20
48.2073048737
 30
0.0
  0
VERTEX
  5
19B6
  8
3
 10
62.04689556469999
 20
48.43003887569998
 30
0.0
  0
VERTEX
  5
19B7
  8
3
 10
61.6014275607
 20
48.76338386659998
 30
0.0
  0
VERTEX
  5
19B8
  8
3
 10
61.44500000000001
 20
49.15659109339995
 30
0.0
  0
VERTEX
  5
19B9
  8
3
 10
61.6014275607
 20
49.5497983201
 30
0.0
  0
VERTEX
  5
19BA
  8
3
 10
62.04689556469999
 20
49.883143311
 30
0.0
  0
VERTEX
  5
19BB
  8
3
 10
62.7135855465
 20
50.10587731299998
 30
0.0
  0
VERTEX
  5
19BC
  8
3
 10
63.50000000000001
 20
50.18409109339999
 30
0.0
  0
VERTEX
  5
19BD
  8
3
 10
64.2864144535
 20
50.10587731299998
 30
0.0
  0
VERTEX
  5
19BE
  8
3
 10
64.9531044353
 20
49.883143311
 30
0.0
  0
VERTEX
  5
19BF
  8
3
 10
65.3985724393
 20
49.5497983201
 30
0.0
  0
VERTEX
  5
19C0
  8
3
 10
65.55499999999999
 20
49.15659109339995
 30
0.0
  0
SEQEND
  5
1B09
  8
3
  0
POLYLINE
  5
DC4
  8
3
 66
     1
 10
0.0
 20
0.0
 30
0.0
  0
VERTEX
  5
19C1
  8
3
 10
66.00000000000001
 20
49.426437988
 30
0.0
  0
VERTEX
  5
19C2
  8
3
 10
65.849231552
 20
48.99891280879999
 30
0.0
  0
VERTEX
  5
19C3
  8
3
 10
65.4151111078
 20
48.6229534759
 30
0.0
  0
VERTEX
  5
19C4
  8
3
 10
64.75000000000001
 20
48.34390623329998
 30
0.0
  0
VERTEX
  5
19C5
  8
3
 10
63.93412044419999
 20
48.19542829669999
 30
0.0
  0
VERTEX
  5
19C6
  8
3
 10
63.06587955580001
 20
48.19542829669999
 30
0.0
  0
VERTEX
  5
19C7
  8
3
 10
62.25000000000001
 20
48.34390623329998
 30
0.0
  0
VERTEX
  5
19C8
  8
3
 10
61.5848888922
 20
48.6229534759
 30
0.0
  0
VERTEX
  5
19C9
  8
3
 10
61.15076844799999
 20
48.99891280879999
 30
0.0
  0
VERTEX
  5
19CA
  8
3
 10
61.00000000000001
 20
49.426437988
 30
0.0
  0
VERTEX
  5
19CB
  8
3
 10
61.15076844799999
 20
49.85396316719996
 30
0.0
  0
VERTEX
  5
19CC
  8
3
 10
61.5848888922
 20
50.2299225001
 30
0.0
  0
VERTEX
  5
19CD
  8
3
 10
62.25000000000001
 20
50.50896974269997
 30
0.0
  0
VERTEX
  5
19CE
  8
3
 10
63.06587955580001
 20
50.65744767929996
 30
0.0
  0
VERTEX
  5
19CF
  8
3
 10
63.93412044419999
 20
50.65744767929996
 30
0.0
  0
VERTEX
  5
19D0
  8
3
 10
64.75000000000001
 20
50.50896974269997
 30
0.0
  0
VERTEX
  5
19D1
  8
3
 10
65.4151111078
 20
50.2299225001
 30
0.0
  0
VERTEX
  5
19D2
  8
3
 10
65.849231552
 20
49.85396316719996
 30
0.0
  0
VERTEX
  5
19D3
  8
3
 10
66.00000000000001
 20
49.426437988
 30
0.0
  0
SEQEND
  5
1B08
  8
3
  0
POLYLINE
  5
DC5
  8
3
 66
     1
 10
0.0
 20
0.0
 30
0.0
  0
VERTEX
  5
19D4
  8
3
 10
66.00000000000001
 20
49.50447753939997
 30
0.0
  0
VERTEX
  5
19D5
  8
3
 10
65.849231552
 20
49.07695236019995
 30
0.0
  0
VERTEX
  5
19D6
  8
3
 10
65.4151111078
 20
48.70099302719998
 30
0.0
  0
VERTEX
  5
19D7
  8
3
 10
64.75000000000001
 20
48.42194578459996
 30
0.0
  0
VERTEX
  5
19D8
  8
3
 10
63.93412044419999
 20
48.27346784809995
 30
0.0
  0
VERTEX
  5
19D9
  8
3
 10
63.06587955580001
 20
48.27346784809995
 30
0.0
  0
VERTEX
  5
19DA
  8
3
 10
62.25000000000001
 20
48.42194578459996
 30
0.0
  0
VERTEX
  5
19DB
  8
3
 10
61.5848888922
 20
48.70099302719998
 30
0.0
  0
VERTEX
  5
19DC
  8
3
 10
61.15076844799999
 20
49.07695236019995
 30
0.0
  0
VERTEX
  5
19DD
  8
3
 10
61.00000000000001
 20
49.50447753939997
 30
0.0
  0
VERTEX
  5
19DE
  8
3
 10
61.15076844799999
 20
49.9320027185
 30
0.0
  0
VERTEX
  5
19DF
  8
3
 10
61.5848888922
 20
50.30796205149997
 30
0.0
  0
VERTEX
  5
19E0
  8
3
 10
62.25000000000001
 20
50.5870092941
 30
0.0
  0
VERTEX
  5
19E1
  8
3
 10
63.06587955580001
 20
50.7354872306
 30
0.0
  0
VERTEX
  5
19E2
  8
3
 10
63.93412044419999
 20
50.7354872306
 30
0.0
  0
VERTEX
  5
19E3
  8
3
 10
64.75000000000001
 20
50.5870092941
 30
0.0
  0
VERTEX
  5
19E4
  8
3
 10
65.4151111078
 20
50.30796205149997
 30
0.0
  0
VERTEX
  5
19E5
  8
3
 10
65.849231552
 20
49.9320027185
 30
0.0
  0
VERTEX
  5
19E6
  8
3
 10
66.00000000000001
 20
49.50447753939997
 30
0.0
  0
SEQEND
  5
1B07
  8
3
  0
POLYLINE
  5
DC6
  8
3
 66
     1
 10
0.0
 20
0.0
 30
0.0
  0
VERTEX
  5
19E7
  8
3
 10
65.55499999999999
 20
49.77432443399996
 30
0.0
  0
VERTEX
  5
19E8
  8
3
 10
65.3985724393
 20
49.38111720719999
 30
0.0
  0
VERTEX
  5
19E9
  8
3
 10
64.9531044353
 20
49.04777221629999
 30
0.0
  0
VERTEX
  5
19EA
  8
3
 10
64.2864144535
 20
48.82503821430001
 30
0.0
  0
VERTEX
  5
19EB
  8
3
 10
63.50000000000001
 20
48.74682443399999
 30
0.0
  0
VERTEX
  5
19EC
  8
3
 10
62.7135855465
 20
48.82503821430001
 30
0.0
  0
VERTEX
  5
19ED
  8
3
 10
62.04689556469999
 20
49.04777221629999
 30
0.0
  0
VERTEX
  5
19EE
  8
3
 10
61.6014275607
 20
49.38111720719999
 30
0.0
  0
VERTEX
  5
19EF
  8
3
 10
61.44500000000001
 20
49.77432443399996
 30
0.0
  0
VERTEX
  5
19F0
  8
3
 10
61.6014275607
 20
50.16753166070001
 30
0.0
  0
VERTEX
  5
19F1
  8
3
 10
62.04689556469999
 20
50.50087665159995
 30
0.0
  0
VERTEX
  5
19F2
  8
3
 10
62.7135855465
 20
50.72361065359999
 30
0.0
  0
VERTEX
  5
19F3
  8
3
 10
63.50000000000001
 20
50.801824434
 30
0.0
  0
VERTEX
  5
19F4
  8
3
 10
64.2864144535
 20
50.72361065359999
 30
0.0
  0
VERTEX
  5
19F5
  8
3
 10
64.9531044353
 20
50.50087665159995
 30
0.0
  0
VERTEX
  5
19F6
  8
3
 10
65.3985724393
 20
50.16753166070001
 30
0.0
  0
VERTEX
  5
19F7
  8
3
 10
65.55499999999999
 20
49.77432443399996
 30
0.0
  0
SEQEND
  5
1B06
  8
3
  0
POLYLINE
  5
DC7
  8
3
 66
     1
 10
0.0
 20
0.0
 30
0.0
  0
VERTEX
  5
19F8
  8
3
 10
66.00000000000001
 20
50.04417132859996
 30
0.0
  0
VERTEX
  5
19F9
  8
3
 10
65.849231552
 20
49.6166461494
 30
0.0
  0
VERTEX
  5
19FA
  8
3
 10
65.4151111078
 20
49.24068681649996
 30
0.0
  0
VERTEX
  5
19FB
  8
3
 10
64.75000000000001
 20
48.96163957389999
 30
0.0
  0
VERTEX
  5
19FC
  8
3
 10
63.93412044419999
 20
48.8131616373
 30
0.0
  0
VERTEX
  5
19FD
  8
3
 10
63.06587955580001
 20
48.8131616373
 30
0.0
  0
VERTEX
  5
19FE
  8
3
 10
62.25000000000001
 20
48.96163957389999
 30
0.0
  0
VERTEX
  5
19FF
  8
3
 10
61.5848888922
 20
49.24068681649996
 30
0.0
  0
VERTEX
  5
1A00
  8
3
 10
61.15076844799999
 20
49.6166461494
 30
0.0
  0
VERTEX
  5
1A01
  8
3
 10
61.00000000000001
 20
50.04417132859996
 30
0.0
  0
VERTEX
  5
1A02
  8
3
 10
61.15076844799999
 20
50.47169650779998
 30
0.0
  0
VERTEX
  5
1A03
  8
3
 10
61.5848888922
 20
50.84765584069996
 30
0.0
  0
VERTEX
  5
1A04
  8
3
 10
62.25000000000001
 20
51.12670308329999
 30
0.0
  0
VERTEX
  5
1A05
  8
3
 10
63.06587955580001
 20
51.27518101989997
 30
0.0
  0
VERTEX
  5
1A06
  8
3
 10
63.93412044419999
 20
51.27518101989997
 30
0.0
  0
VERTEX
  5
1A07
  8
3
 10
64.75000000000001
 20
51.12670308329999
 30
0.0
  0
VERTEX
  5
1A08
  8
3
 10
65.4151111078
 20
50.84765584069996
 30
0.0
  0
VERTEX
  5
1A09
  8
3
 10
65.849231552
 20
50.47169650779998
 30
0.0
  0
VERTEX
  5
1A0A
  8
3
 10
66.00000000000001
 20
50.04417132859996
 30
0.0
  0
SEQEND
  5
1B05
  8
3
  0
POLYLINE
  5
DC8
  8
3
 66
     1
 10
0.0
 20
0.0
 30
0.0
  0
VERTEX
  5
1A0B
  8
3
 10
66.00000000000001
 20
50.12221087999998
 30
0.0
  0
VERTEX
  5
1A0C
  8
3
 10
65.849231552
 20
49.69468570079997
 30
0.0
  0
VERTEX
  5
1A0D
  8
3
 10
65.4151111078
 20
49.31872636789998
 30
0.0
  0
VERTEX
  5
1A0E
  8
3
 10
64.75000000000001
 20
49.03967912519997
 30
0.0
  0
VERTEX
  5
1A0F
  8
3
 10
63.93412044419999
 20
48.89120118869997
 30
0.0
  0
VERTEX
  5
1A10
  8
3
 10
63.06587955580001
 20
48.89120118869997
 30
0.0
  0
VERTEX
  5
1A11
  8
3
 10
62.25000000000001
 20
49.03967912519997
 30
0.0
  0
VERTEX
  5
1A12
  8
3
 10
61.5848888922
 20
49.31872636789998
 30
0.0
  0
VERTEX
  5
1A13
  8
3
 10
61.15076844799999
 20
49.69468570079997
 30
0.0
  0
VERTEX
  5
1A14
  8
3
 10
61.00000000000001
 20
50.12221087999998
 30
0.0
  0
VERTEX
  5
1A15
  8
3
 10
61.15076844799999
 20
50.54973605909996
 30
0.0
  0
VERTEX
  5
1A16
  8
3
 10
61.5848888922
 20
50.92569539209998
 30
0.0
  0
VERTEX
  5
1A17
  8
3
 10
62.25000000000001
 20
51.20474263469995
 30
0.0
  0
VERTEX
  5
1A18
  8
3
 10
63.06587955580001
 20
51.35322057119996
 30
0.0
  0
VERTEX
  5
1A19
  8
3
 10
63.93412044419999
 20
51.35322057119996
 30
0.0
  0
VERTEX
  5
1A1A
  8
3
 10
64.75000000000001
 20
51.20474263469995
 30
0.0
  0
VERTEX
  5
1A1B
  8
3
 10
65.4151111078
 20
50.92569539209998
 30
0.0
  0
VERTEX
  5
1A1C
  8
3
 10
65.849231552
 20
50.54973605909996
 30
0.0
  0
VERTEX
  5
1A1D
  8
3
 10
66.00000000000001
 20
50.12221087999998
 30
0.0
  0
SEQEND
  5
1B04
  8
3
  0
POLYLINE
  5
DC9
  8
3
 66
     1
 10
0.0
 20
0.0
 30
0.0
  0
VERTEX
  5
1A1E
  8
3
 10
65.55499999999999
 20
50.39205777459998
 30
0.0
  0
VERTEX
  5
1A1F
  8
3
 10
65.3985724393
 20
49.9988505478
 30
0.0
  0
VERTEX
  5
1A20
  8
3
 10
64.9531044353
 20
49.6655055569
 30
0.0
  0
VERTEX
  5
1A21
  8
3
 10
64.2864144535
 20
49.44277155489996
 30
0.0
  0
VERTEX
  5
1A22
  8
3
 10
63.50000000000001
 20
49.3645577746
 30
0.0
  0
VERTEX
  5
1A23
  8
3
 10
62.7135855465
 20
49.44277155489996
 30
0.0
  0
VERTEX
  5
1A24
  8
3
 10
62.04689556469999
 20
49.6655055569
 30
0.0
  0
VERTEX
  5
1A25
  8
3
 10
61.6014275607
 20
49.9988505478
 30
0.0
  0
VERTEX
  5
1A26
  8
3
 10
61.44500000000001
 20
50.39205777459998
 30
0.0
  0
VERTEX
  5
1A27
  8
3
 10
61.6014275607
 20
50.78526500129996
 30
0.0
  0
VERTEX
  5
1A28
  8
3
 10
62.04689556469999
 20
51.11860999230001
 30
0.0
  0
VERTEX
  5
1A29
  8
3
 10
62.7135855465
 20
51.3413439942
 30
0.0
  0
VERTEX
  5
1A2A
  8
3
 10
63.50000000000001
 20
51.41955777460001
 30
0.0
  0
VERTEX
  5
1A2B
  8
3
 10
64.2864144535
 20
51.3413439942
 30
0.0
  0
VERTEX
  5
1A2C
  8
3
 10
64.9531044353
 20
51.11860999230001
 30
0.0
  0
VERTEX
  5
1A2D
  8
3
 10
65.3985724393
 20
50.78526500129996
 30
0.0
  0
VERTEX
  5
1A2E
  8
3
 10
65.55499999999999
 20
50.39205777459998
 30
0.0
  0
SEQEND
  5
1B03
  8
3
  0
POLYLINE
  5
DCA
  8
3
 66
     1
 10
0.0
 20
0.0
 30
0.0
  0
VERTEX
  5
1A2F
  8
3
 10
66.00000000000001
 20
50.66190466919997
 30
0.0
  0
VERTEX
  5
1A30
  8
3
 10
65.849231552
 20
50.2343794901
 30
0.0
  0
VERTEX
  5
1A31
  8
3
 10
65.4151111078
 20
49.85842015709997
 30
0.0
  0
VERTEX
  5
1A32
  8
3
 10
64.75000000000001
 20
49.5793729145
 30
0.0
  0
VERTEX
  5
1A33
  8
3
 10
63.93412044419999
 20
49.43089497789995
 30
0.0
  0
VERTEX
  5
1A34
  8
3
 10
63.06587955580001
 20
49.43089497789995
 30
0.0
  0
VERTEX
  5
1A35
  8
3
 10
62.25000000000001
 20
49.5793729145
 30
0.0
  0
VERTEX
  5
1A36
  8
3
 10
61.5848888922
 20
49.85842015709997
 30
0.0
  0
VERTEX
  5
1A37
  8
3
 10
61.15076844799999
 20
50.2343794901
 30
0.0
  0
VERTEX
  5
1A38
  8
3
 10
61.00000000000001
 20
50.66190466919997
 30
0.0
  0
VERTEX
  5
1A39
  8
3
 10
61.15076844799999
 20
51.08942984839999
 30
0.0
  0
VERTEX
  5
1A3A
  8
3
 10
61.5848888922
 20
51.46538918129997
 30
0.0
  0
VERTEX
  5
1A3B
  8
3
 10
62.25000000000001
 20
51.7444364239
 30
0.0
  0
VERTEX
  5
1A3C
  8
3
 10
63.06587955580001
 20
51.89291436049999
 30
0.0
  0
VERTEX
  5
1A3D
  8
3
 10
63.93412044419999
 20
51.89291436049999
 30
0.0
  0
VERTEX
  5
1A3E
  8
3
 10
64.75000000000001
 20
51.7444364239
 30
0.0
  0
VERTEX
  5
1A3F
  8
3
 10
65.4151111078
 20
51.46538918129997
 30
0.0
  0
VERTEX
  5
1A40
  8
3
 10
65.849231552
 20
51.08942984839999
 30
0.0
  0
VERTEX
  5
1A41
  8
3
 10
66.00000000000001
 20
50.66190466919997
 30
0.0
  0
SEQEND
  5
1B02
  8
3
  0
POLYLINE
  5
DCB
  8
3
 66
     1
 10
0.0
 20
0.0
 30
0.0
  0
VERTEX
  5
1A42
  8
3
 10
66.00000000000001
 20
50.73994422059999
 30
0.0
  0
VERTEX
  5
1A43
  8
3
 10
65.849231552
 20
50.31241904139998
 30
0.0
  0
VERTEX
  5
1A44
  8
3
 10
65.4151111078
 20
49.9364597085
 30
0.0
  0
VERTEX
  5
1A45
  8
3
 10
64.75000000000001
 20
49.65741246579998
 30
0.0
  0
VERTEX
  5
1A46
  8
3
 10
63.93412044419999
 20
49.50893452929998
 30
0.0
  0
VERTEX
  5
1A47
  8
3
 10
63.06587955580001
 20
49.50893452929998
 30
0.0
  0
VERTEX
  5
1A48
  8
3
 10
62.25000000000001
 20
49.65741246579998
 30
0.0
  0
VERTEX
  5
1A49
  8
3
 10
61.5848888922
 20
49.9364597085
 30
0.0
  0
VERTEX
  5
1A4A
  8
3
 10
61.15076844799999
 20
50.31241904139998
 30
0.0
  0
VERTEX
  5
1A4B
  8
3
 10
61.00000000000001
 20
50.73994422059999
 30
0.0
  0
VERTEX
  5
1A4C
  8
3
 10
61.15076844799999
 20
51.16746939969997
 30
0.0
  0
VERTEX
  5
1A4D
  8
3
 10
61.5848888922
 20
51.54342873269999
 30
0.0
  0
VERTEX
  5
1A4E
  8
3
 10
62.25000000000001
 20
51.82247597529997
 30
0.0
  0
VERTEX
  5
1A4F
  8
3
 10
63.06587955580001
 20
51.97095391179997
 30
0.0
  0
VERTEX
  5
1A50
  8
3
 10
63.93412044419999
 20
51.97095391179997
 30
0.0
  0
VERTEX
  5
1A51
  8
3
 10
64.75000000000001
 20
51.82247597529997
 30
0.0
  0
VERTEX
  5
1A52
  8
3
 10
65.4151111078
 20
51.54342873269999
 30
0.0
  0
VERTEX
  5
1A53
  8
3
 10
65.849231552
 20
51.16746939969997
 30
0.0
  0
VERTEX
  5
1A54
  8
3
 10
66.00000000000001
 20
50.73994422059999
 30
0.0
  0
SEQEND
  5
1B01
  8
3
  0
POLYLINE
  5
DCC
  8
3
 66
     1
 10
0.0
 20
0.0
 30
0.0
  0
VERTEX
  5
1A55
  8
3
 10
65.55499999999999
 20
51.00979111519999
 30
0.0
  0
VERTEX
  5
1A56
  8
3
 10
65.3985724393
 20
50.61658388839996
 30
0.0
  0
VERTEX
  5
1A57
  8
3
 10
64.9531044353
 20
50.28323889749996
 30
0.0
  0
VERTEX
  5
1A58
  8
3
 10
64.2864144535
 20
50.06050489549997
 30
0.0
  0
VERTEX
  5
1A59
  8
3
 10
63.50000000000001
 20
49.98229111519996
 30
0.0
  0
VERTEX
  5
1A5A
  8
3
 10
62.7135855465
 20
50.06050489549997
 30
0.0
  0
VERTEX
  5
1A5B
  8
3
 10
62.04689556469999
 20
50.28323889749996
 30
0.0
  0
VERTEX
  5
1A5C
  8
3
 10
61.6014275607
 20
50.61658388839996
 30
0.0
  0
VERTEX
  5
1A5D
  8
3
 10
61.44500000000001
 20
51.00979111519999
 30
0.0
  0
VERTEX
  5
1A5E
  8
3
 10
61.6014275607
 20
51.40299834189997
 30
0.0
  0
VERTEX
  5
1A5F
  8
3
 10
62.04689556469999
 20
51.73634333289996
 30
0.0
  0
VERTEX
  5
1A60
  8
3
 10
62.7135855465
 20
51.95907733479996
 30
0.0
  0
VERTEX
  5
1A61
  8
3
 10
63.50000000000001
 20
52.03729111519996
 30
0.0
  0
VERTEX
  5
1A62
  8
3
 10
64.2864144535
 20
51.95907733479996
 30
0.0
  0
VERTEX
  5
1A63
  8
3
 10
64.9531044353
 20
51.73634333289996
 30
0.0
  0
VERTEX
  5
1A64
  8
3
 10
65.3985724393
 20
51.40299834189997
 30
0.0
  0
VERTEX
  5
1A65
  8
3
 10
65.55499999999999
 20
51.00979111519999
 30
0.0
  0
SEQEND
  5
1B00
  8
3
  0
POLYLINE
  5
DCD
  8
3
 66
     1
 10
0.0
 20
0.0
 30
0.0
  0
VERTEX
  5
1A66
  8
3
 10
66.00000000000001
 20
51.27963800979998
 30
0.0
  0
VERTEX
  5
1A67
  8
3
 10
65.849231552
 20
50.85211283070001
 30
0.0
  0
VERTEX
  5
1A68
  8
3
 10
65.4151111078
 20
50.47615349769998
 30
0.0
  0
VERTEX
  5
1A69
  8
3
 10
64.75000000000001
 20
50.19710625509995
 30
0.0
  0
VERTEX
  5
1A6A
  8
3
 10
63.93412044419999
 20
50.04862831849996
 30
0.0
  0
VERTEX
  5
1A6B
  8
3
 10
63.06587955580001
 20
50.04862831849996
 30
0.0
  0
VERTEX
  5
1A6C
  8
3
 10
62.25000000000001
 20
50.19710625509995
 30
0.0
  0
VERTEX
  5
1A6D
  8
3
 10
61.5848888922
 20
50.47615349769998
 30
0.0
  0
VERTEX
  5
1A6E
  8
3
 10
61.15076844799999
 20
50.85211283070001
 30
0.0
  0
VERTEX
  5
1A6F
  8
3
 10
61.00000000000001
 20
51.27963800979998
 30
0.0
  0
VERTEX
  5
1A70
  8
3
 10
61.15076844799999
 20
51.707163189
 30
0.0
  0
VERTEX
  5
1A71
  8
3
 10
61.5848888922
 20
52.08312252189998
 30
0.0
  0
VERTEX
  5
1A72
  8
3
 10
62.25000000000001
 20
52.36216976449995
 30
0.0
  0
VERTEX
  5
1A73
  8
3
 10
63.06587955580001
 20
52.5106477011
 30
0.0
  0
VERTEX
  5
1A74
  8
3
 10
63.93412044419999
 20
52.5106477011
 30
0.0
  0
VERTEX
  5
1A75
  8
3
 10
64.75000000000001
 20
52.36216976449995
 30
0.0
  0
VERTEX
  5
1A76
  8
3
 10
65.4151111078
 20
52.08312252189998
 30
0.0
  0
VERTEX
  5
1A77
  8
3
 10
65.849231552
 20
51.707163189
 30
0.0
  0
VERTEX
  5
1A78
  8
3
 10
66.00000000000001
 20
51.27963800979998
 30
0.0
  0
SEQEND
  5
1AFF
  8
3
  0
POLYLINE
  5
DCE
  8
3
 66
     1
 10
0.0
 20
0.0
 30
0.0
  0
VERTEX
  5
1A79
  8
3
 10
66.00000000000001
 20
51.35767756120001
 30
0.0
  0
VERTEX
  5
1A7A
  8
3
 10
65.849231552
 20
50.93015238199999
 30
0.0
  0
VERTEX
  5
1A7B
  8
3
 10
65.4151111078
 20
50.55419304910001
 30
0.0
  0
VERTEX
  5
1A7C
  8
3
 10
64.75000000000001
 20
50.27514580639999
 30
0.0
  0
VERTEX
  5
1A7D
  8
3
 10
63.93412044419999
 20
50.12666786989999
 30
0.0
  0
VERTEX
  5
1A7E
  8
3
 10
63.06587955580001
 20
50.12666786989999
 30
0.0
  0
VERTEX
  5
1A7F
  8
3
 10
62.25000000000001
 20
50.27514580639999
 30
0.0
  0
VERTEX
  5
1A80
  8
3
 10
61.5848888922
 20
50.55419304910001
 30
0.0
  0
VERTEX
  5
1A81
  8
3
 10
61.15076844799999
 20
50.93015238199999
 30
0.0
  0
VERTEX
  5
1A82
  8
3
 10
61.00000000000001
 20
51.35767756120001
 30
0.0
  0
VERTEX
  5
1A83
  8
3
 10
61.15076844799999
 20
51.78520274029998
 30
0.0
  0
VERTEX
  5
1A84
  8
3
 10
61.5848888922
 20
52.16116207330001
 30
0.0
  0
VERTEX
  5
1A85
  8
3
 10
62.25000000000001
 20
52.44020931589998
 30
0.0
  0
VERTEX
  5
1A86
  8
3
 10
63.06587955580001
 20
52.58868725239998
 30
0.0
  0
VERTEX
  5
1A87
  8
3
 10
63.93412044419999
 20
52.58868725239998
 30
0.0
  0
VERTEX
  5
1A88
  8
3
 10
64.75000000000001
 20
52.44020931589998
 30
0.0
  0
VERTEX
  5
1A89
  8
3
 10
65.4151111078
 20
52.16116207330001
 30
0.0
  0
VERTEX
  5
1A8A
  8
3
 10
65.849231552
 20
51.78520274029998
 30
0.0
  0
VERTEX
  5
1A8B
  8
3
 10
66.00000000000001
 20
51.35767756120001
 30
0.0
  0
SEQEND
  5
1AFE
  8
3
  0
POLYLINE
  5
DCF
  8
3
 66
     1
 10
0.0
 20
0.0
 30
0.0
  0
VERTEX
  5
1A8C
  8
3
 10
65.55499999999999
 20
51.6275244558
 30
0.0
  0
VERTEX
  5
1A8D
  8
3
 10
65.3985724393
 20
51.23431722899997
 30
0.0
  0
VERTEX
  5
1A8E
  8
3
 10
64.9531044353
 20
50.90097223809997
 30
0.0
  0
VERTEX
  5
1A8F
  8
3
 10
64.2864144535
 20
50.67823823609999
 30
0.0
  0
VERTEX
  5
1A90
  8
3
 10
63.50000000000001
 20
50.60002445579997
 30
0.0
  0
VERTEX
  5
1A91
  8
3
 10
62.7135855465
 20
50.67823823609999
 30
0.0
  0
VERTEX
  5
1A92
  8
3
 10
62.04689556469999
 20
50.90097223809997
 30
0.0
  0
VERTEX
  5
1A93
  8
3
 10
61.6014275607
 20
51.23431722899997
 30
0.0
  0
VERTEX
  5
1A94
  8
3
 10
61.44500000000001
 20
51.6275244558
 30
0.0
  0
VERTEX
  5
1A95
  8
3
 10
61.6014275607
 20
52.02073168249999
 30
0.0
  0
VERTEX
  5
1A96
  8
3
 10
62.04689556469999
 20
52.35407667349997
 30
0.0
  0
VERTEX
  5
1A97
  8
3
 10
62.7135855465
 20
52.57681067539997
 30
0.0
  0
VERTEX
  5
1A98
  8
3
 10
63.50000000000001
 20
52.65502445579997
 30
0.0
  0
VERTEX
  5
1A99
  8
3
 10
64.2864144535
 20
52.57681067539997
 30
0.0
  0
VERTEX
  5
1A9A
  8
3
 10
64.9531044353
 20
52.35407667349997
 30
0.0
  0
VERTEX
  5
1A9B
  8
3
 10
65.3985724393
 20
52.02073168249999
 30
0.0
  0
VERTEX
  5
1A9C
  8
3
 10
65.55499999999999
 20
51.6275244558
 30
0.0
  0
SEQEND
  5
1AFD
  8
3
  0
POLYLINE
  5
DD0
  8
3
 66
     1
 10
0.0
 20
0.0
 30
0.0
  0
VERTEX
  5
1A9D
  8
3
 10
66.00000000000001
 20
51.89737135039999
 30
0.0
  0
VERTEX
  5
1A9E
  8
3
 10
65.849231552
 20
51.46984617129996
 30
0.0
  0
VERTEX
  5
1A9F
  8
3
 10
65.4151111078
 20
51.09388683829999
 30
0.0
  0
VERTEX
  5
1AA0
  8
3
 10
64.75000000000001
 20
50.81483959569997
 30
0.0
  0
VERTEX
  5
1AA1
  8
3
 10
63.93412044419999
 20
50.66636165919996
 30
0.0
  0
VERTEX
  5
1AA2
  8
3
 10
63.06587955580001
 20
50.66636165919996
 30
0.0
  0
VERTEX
  5
1AA3
  8
3
 10
62.25000000000001
 20
50.81483959569997
 30
0.0
  0
VERTEX
  5
1AA4
  8
3
 10
61.5848888922
 20
51.09388683829999
 30
0.0
  0
VERTEX
  5
1AA5
  8
3
 10
61.15076844799999
 20
51.46984617129996
 30
0.0
  0
VERTEX
  5
1AA6
  8
3
 10
61.00000000000001
 20
51.89737135039999
 30
0.0
  0
VERTEX
  5
1AA7
  8
3
 10
61.15076844799999
 20
52.32489652959995
 30
0.0
  0
VERTEX
  5
1AA8
  8
3
 10
61.5848888922
 20
52.70085586249999
 30
0.0
  0
VERTEX
  5
1AA9
  8
3
 10
62.25000000000001
 20
52.97990310509996
 30
0.0
  0
VERTEX
  5
1AAA
  8
3
 10
63.06587955580001
 20
53.12838104169995
 30
0.0
  0
VERTEX
  5
1AAB
  8
3
 10
63.93412044419999
 20
53.12838104169995
 30
0.0
  0
VERTEX
  5
1AAC
  8
3
 10
64.75000000000001
 20
52.97990310509996
 30
0.0
  0
VERTEX
  5
1AAD
  8
3
 10
65.4151111078
 20
52.70085586249999
 30
0.0
  0
VERTEX
  5
1AAE
  8
3
 10
65.849231552
 20
52.32489652959995
 30
0.0
  0
VERTEX
  5
1AAF
  8
3
 10
66.00000000000001
 20
51.89737135039999
 30
0.0
  0
SEQEND
  5
1AFC
  8
3
  0
LINE
  5
DD1
  8
3
 10
64.75000000000001
 20
50.4903331244
 30
0.0
 11
63.50000000000001
 21
50.85117704269996
 31
0.0
  0
LINE
  5
DD2
  8
3
 10
63.50000000000001
 20
50.85117704269996
 30
0.0
 11
63.50000000000001
 21
53.18944563289998
 31
0.0
  0
LINE
  5
DD3
  8
3
 10
62.25000000000001
 20
50.4903331244
 30
0.0
 11
63.50000000000001
 21
50.85117704269996
 31
0.0
  0
POLYLINE
  5
DD4
  8
3
 66
     1
 10
0.0
 20
0.0
 30
0.0
  0
VERTEX
  5
1AB0
  8
3
 10
66.00000000000001
 20
51.97541090179996
 30
0.0
  0
VERTEX
  5
1AB1
  8
3
 10
65.849231552
 20
51.5478857226
 30
0.0
  0
VERTEX
  5
1AB2
  8
3
 10
65.4151111078
 20
51.17192638969996
 30
0.0
  0
VERTEX
  5
1AB3
  8
3
 10
64.75000000000001
 20
50.892879147
 30
0.0
  0
VERTEX
  5
1AB4
  8
3
 10
63.93412044419999
 20
50.7444012105
 30
0.0
  0
VERTEX
  5
1AB5
  8
3
 10
63.06587955580001
 20
50.7444012105
 30
0.0
  0
VERTEX
  5
1AB6
  8
3
 10
62.25000000000001
 20
50.892879147
 30
0.0
  0
VERTEX
  5
1AB7
  8
3
 10
61.5848888922
 20
51.17192638969996
 30
0.0
  0
VERTEX
  5
1AB8
  8
3
 10
61.15076844799999
 20
51.5478857226
 30
0.0
  0
VERTEX
  5
1AB9
  8
3
 10
61.00000000000001
 20
51.97541090179996
 30
0.0
  0
VERTEX
  5
1ABA
  8
3
 10
61.15076844799999
 20
52.40293608089999
 30
0.0
  0
VERTEX
  5
1ABB
  8
3
 10
61.5848888922
 20
52.77889541389996
 30
0.0
  0
VERTEX
  5
1ABC
  8
3
 10
62.25000000000001
 20
53.05794265649999
 30
0.0
  0
VERTEX
  5
1ABD
  8
3
 10
63.06587955580001
 20
53.20642059299999
 30
0.0
  0
VERTEX
  5
1ABE
  8
3
 10
63.93412044419999
 20
53.20642059299999
 30
0.0
  0
VERTEX
  5
1ABF
  8
3
 10
64.75000000000001
 20
53.05794265649999
 30
0.0
  0
VERTEX
  5
1AC0
  8
3
 10
65.4151111078
 20
52.77889541389996
 30
0.0
  0
VERTEX
  5
1AC1
  8
3
 10
65.849231552
 20
52.40293608089999
 30
0.0
  0
VERTEX
  5
1AC2
  8
3
 10
66.00000000000001
 20
51.97541090179996
 30
0.0
  0
SEQEND
  5
1AFB
  8
3
  0
POLYLINE
  5
DD5
  8
3
 66
     1
 10
0.0
 20
0.0
 30
0.0
  0
VERTEX
  5
1AC3
  8
3
 10
65.55499999999999
 20
52.24525779639995
 30
0.0
  0
VERTEX
  5
1AC4
  8
3
 10
65.3985724393
 20
51.85205056959998
 30
0.0
  0
VERTEX
  5
1AC5
  8
3
 10
64.9531044353
 20
51.51870557869998
 30
0.0
  0
VERTEX
  5
1AC6
  8
3
 10
64.2864144535
 20
51.2959715767
 30
0.0
  0
VERTEX
  5
1AC7
  8
3
 10
63.50000000000001
 20
51.21775779639998
 30
0.0
  0
VERTEX
  5
1AC8
  8
3
 10
62.7135855465
 20
51.2959715767
 30
0.0
  0
VERTEX
  5
1AC9
  8
3
 10
62.04689556469999
 20
51.51870557869998
 30
0.0
  0
VERTEX
  5
1ACA
  8
3
 10
61.6014275607
 20
51.85205056959998
 30
0.0
  0
VERTEX
  5
1ACB
  8
3
 10
61.44500000000001
 20
52.24525779639995
 30
0.0
  0
VERTEX
  5
1ACC
  8
3
 10
61.6014275607
 20
52.63846502319998
 30
0.0
  0
VERTEX
  5
1ACD
  8
3
 10
62.04689556469999
 20
52.97181001409999
 30
0.0
  0
VERTEX
  5
1ACE
  8
3
 10
62.7135855465
 20
53.19454401609997
 30
0.0
  0
VERTEX
  5
1ACF
  8
3
 10
63.50000000000001
 20
53.27275779639999
 30
0.0
  0
VERTEX
  5
1AD0
  8
3
 10
64.2864144535
 20
53.19454401609997
 30
0.0
  0
VERTEX
  5
1AD1
  8
3
 10
64.9531044353
 20
52.97181001409999
 30
0.0
  0
VERTEX
  5
1AD2
  8
3
 10
65.3985724393
 20
52.63846502319998
 30
0.0
  0
VERTEX
  5
1AD3
  8
3
 10
65.55499999999999
 20
52.24525779639995
 30
0.0
  0
SEQEND
  5
1AFA
  8
3
  0
POLYLINE
  5
DD6
  8
3
 66
     1
 10
0.0
 20
0.0
 30
0.0
  0
VERTEX
  5
1AD4
  8
3
 10
65.7561031268
 20
52.36720623299996
 30
0.0
  0
VERTEX
  5
1AD5
  8
3
 10
65.60375351239999
 20
52.77470545930001
 30
0.0
  0
VERTEX
  5
1AD6
  8
3
 10
65.16728032889999
 20
53.12716965709998
 30
0.0
  0
VERTEX
  5
1AD7
  8
3
 10
64.50563169819999
 20
53.37699658329998
 30
0.0
  0
VERTEX
  5
1AD8
  8
3
 10
63.7081669343
 20
53.4904457273
 30
0.0
  0
VERTEX
  5
1AD9
  8
3
 10
62.8825880724
 20
53.45219515349996
 30
0.0
  0
VERTEX
  5
1ADA
  8
3
 10
62.1403941125
 20
53.26741081379996
 30
0.0
  0
VERTEX
  5
1ADB
  8
3
 10
61.5818224616
 20
52.96104885729997
 30
0.0
  0
VERTEX
  5
1ADC
  8
3
 10
61.28231131619999
 20
52.57448516380001
 30
0.0
  0
VERTEX
  5
1ADD
  8
3
 10
61.28231131619999
 20
52.15992730209999
 30
0.0
  0
VERTEX
  5
1ADE
  8
3
 10
61.5818224616
 20
51.77336360859996
 30
0.0
  0
VERTEX
  5
1ADF
  8
3
 10
62.1403941125
 20
51.46700165209998
 30
0.0
  0
VERTEX
  5
1AE0
  8
3
 10
62.8825880724
 20
51.28221731249997
 30
0.0
  0
VERTEX
  5
1AE1
  8
3
 10
63.7081669343
 20
51.24396673869998
 30
0.0
  0
VERTEX
  5
1AE2
  8
3
 10
64.50563169819999
 20
51.35741588260001
 30
0.0
  0
VERTEX
  5
1AE3
  8
3
 10
65.16728032889999
 20
51.6072428089
 30
0.0
  0
VERTEX
  5
1AE4
  8
3
 10
65.60375351239999
 20
51.95970700669997
 30
0.0
  0
VERTEX
  5
1AE5
  8
3
 10
65.7561031268
 20
52.36720623299996
 30
0.0
  0
SEQEND
  5
1AF9
  8
3
  0
LINE
  5
DD7
  8
3
 10
64.75000000000001
 20
50.4903331244
 30
0.0
 11
64.75000000000001
 21
52.82860171459996
 31
0.0
  0
LINE
  5
DD8
  8
3
 10
64.75000000000001
 20
49.7686452879
 30
0.0
 11
64.75000000000001
 21
50.4903331244
 31
0.0
  0
LINE
  5
DD9
  8
3
 10
62.25000000000001
 20
50.4903331244
 30
0.0
 11
62.25000000000001
 21
52.82860171459996
 31
0.0
  0
LINE
  5
DDA
  8
3
 10
62.25000000000001
 20
49.7686452879
 30
0.0
 11
62.25000000000001
 21
50.4903331244
 31
0.0
  0
POLYLINE
  5
DDB
  8
3
 66
     1
 10
0.0
 20
0.0
 30
0.0
  0
VERTEX
  5
1AE6
  8
3
 10
63.50000000000001
 20
51.4402577964
 30
0.0
  0
VERTEX
  5
1AE7
  8
3
 10
62.7135855465
 20
51.51847157669997
 30
0.0
  0
VERTEX
  5
1AE8
  8
3
 10
62.04689556469999
 20
51.7412055787
 30
0.0
  0
VERTEX
  5
1AE9
  8
3
 10
61.6014275607
 20
52.07455056960001
 30
0.0
  0
VERTEX
  5
1AEA
  8
3
 10
61.44500000000001
 20
52.46775779639998
 30
0.0
  0
VERTEX
  5
1AEB
  8
3
 10
61.6014275607
 20
52.86096502320001
 30
0.0
  0
VERTEX
  5
1AEC
  8
3
 10
62.04689556469999
 20
53.19431001409995
 30
0.0
  0
VERTEX
  5
1AED
  8
3
 10
62.7135855465
 20
53.41704401609999
 30
0.0
  0
VERTEX
  5
1AEE
  8
3
 10
63.50000000000001
 20
53.49525779639995
 30
0.0
  0
VERTEX
  5
1AEF
  8
3
 10
64.2864144535
 20
53.41704401609999
 30
0.0
  0
VERTEX
  5
1AF0
  8
3
 10
64.9531044353
 20
53.19431001409995
 30
0.0
  0
VERTEX
  5
1AF1
  8
3
 10
65.3985724393
 20
52.86096502320001
 30
0.0
  0
VERTEX
  5
1AF2
  8
3
 10
65.55499999999999
 20
52.46775779639998
 30
0.0
  0
VERTEX
  5
1AF3
  8
3
 10
65.3985724393
 20
52.07455056960001
 30
0.0
  0
VERTEX
  5
1AF4
  8
3
 10
64.9531044353
 20
51.7412055787
 30
0.0
  0
VERTEX
  5
1AF5
  8
3
 10
64.2864144535
 20
51.51847157669997
 30
0.0
  0
VERTEX
  5
1AF6
  8
3
 10
63.50000000000001
 20
51.4402577964
 30
0.0
  0
SEQEND
  5
1AF8
  8
3
  0
LINE
  5
DDC
  8
3
 10
62.25000000000001
 20
52.82860171459996
 30
0.0
 11
63.50000000000001
 21
53.18944563289998
 31
0.0
  0
LINE
  5
DDD
  8
3
 10
64.75000000000001
 20
52.82860171459996
 30
0.0
 11
63.50000000000001
 21
53.18944563289998
 31
0.0
  0
LINE
  5
DDE
  8
3
 10
63.50000000000001
 20
49.40780136969997
 30
0.0
 11
63.50000000000001
 21
50.85117704269996
 31
0.0
  0
LINE
  5
DDF
  8
3
 10
64.75000000000001
 20
52.1069138782
 30
0.0
 11
63.50000000000001
 21
51.74606995989998
 31
0.0
  0
LINE
  5
DE0
  8
3
 10
64.75000000000001
 20
49.7686452879
 30
0.0
 11
63.50000000000001
 21
49.40780136969997
 31
0.0
  0
LINE
  5
DE1
  8
3
 10
62.25000000000001
 20
52.1069138782
 30
0.0
 11
63.50000000000001
 21
51.74606995989998
 31
0.0
  0
LINE
  5
DE2
  8
3
 10
62.25000000000001
 20
49.7686452879
 30
0.0
 11
63.50000000000001
 21
49.40780136969997
 31
0.0
  0
LINE
  5
DE3
  8
3
 10
59.3998051615
 20
-33.33619000000002
 30
0.0
 11
59.3998051615
 21
-58.74380999999997
 31
0.0
  0
LINE
  5
DE4
  8
3
 10
57.14999999999999
 20
-33.59399999999997
 30
0.0
 11
57.14999999999999
 21
-58.48600000000002
 31
0.0
  0
LINE
  5
DE5
  8
3
 10
58.0748395106
 20
-33.34619000000001
 30
0.0
 11
58.0748395106
 21
-58.73380999999998
 31
0.0
  0
LINE
  5
DE6
  8
3
 10
59.3998051615
 20
58.74380999999997
 30
0.0
 11
59.3998051615
 21
33.33618999999996
 31
0.0
  0
LINE
  5
DE7
  8
3
 10
57.14999999999999
 20
58.48599999999996
 30
0.0
 11
57.14999999999999
 21
33.59399999999997
 31
0.0
  0
LINE
  5
DE8
  8
3
 10
58.0748395106
 20
58.73380999999998
 30
0.0
 11
58.0748395106
 21
33.34619000000001
 31
0.0
  0
LINE
  5
DF1
  8
3
 10
76.2
 20
42.66726448429998
 30
0.0
 11
48.00000000000001
 21
42.66726448429998
 31
0.0
  0
LINE
  5
DF2
  8
3
 10
47.8440803244
 20
29.17478448429998
 30
0.0
 11
76.2
 21
29.17478448429998
 31
0.0
  0
LINE
  5
DF3
  8
3
 10
76.2
 20
-29.17478448420005
 30
0.0
 11
47.8215078322
 21
-29.17478448420005
 31
0.0
  0
LINE
  5
DF4
  8
3
 10
48.00000000000001
 20
-42.66726448420005
 30
0.0
 11
76.2
 21
-42.66726448420005
 31
0.0
  0
LINE
  5
DF8
  8
3
 10
76.2
 20
32.74907116059998
 30
0.0
 11
76.01362966949999
 21
32.05352761809999
 31
0.0
  0
LINE
  5
DF9
  8
3
 10
76.01362966949999
 20
-32.053527618
 30
0.0
 11
76.2
 21
-32.74907116049999
 31
0.0
  0
ARC
  5
DFA
  8
3
 10
76.39999999999999
 20
-31.95000000000007
 30
0.0
 40
0.3999999999999949
 50
166.8750000000045
 51
194.9999999999947
  0
ARC
  5
DFB
  8
3
 10
76.39999999999999
 20
-31.95000000000007
 30
0.0
 40
0.3999999999999767
 50
120.0000000000008
 51
166.875000000004
  0
ARC
  5
DFC
  8
3
 10
76.39999999999999
 20
31.94999999999996
 30
0.0
 40
0.4000000000000243
 50
164.999999999998
 51
180.0
  0
ARC
  5
DFD
  8
3
 10
76.39999999999999
 20
31.94999999999996
 30
0.0
 40
0.4000000000000057
 50
180.0
 51
239.9999999999995
  0
LINE
  5
DFE
  8
3
 10
76.00000000000001
 20
31.94999999999996
 30
0.0
 11
76.00000000000001
 21
-31.95000000000007
 31
0.0
  0
LINE
  5
DFF
  8
3
 10
76.2
 20
2.499999999999972
 30
0.0
 11
64.21907942080001
 21
2.499999999999972
 31
0.0
  0
LINE
  5
E00
  8
3
 10
62.7474123043
 20
2.499999999999972
 30
0.0
 11
60.8
 21
2.499999999999972
 31
0.0
  0
LINE
  5
E01
  8
3
 10
60.8
 20
-2.500000000000028
 30
0.0
 11
62.8291800631
 21
-2.500000000000028
 31
0.0
  0
LINE
  5
E02
  8
3
 10
64.224811739
 20
-2.500000000000028
 30
0.0
 11
76.2
 21
-2.500000000000028
 31
0.0
  0
LINE
  5
E03
  8
3
 10
60.8
 20
2.499999999999972
 30
0.0
 11
59.2978484524
 21
-0.0000000000000284
 31
0.0
  0
LINE
  5
E04
  8
3
 10
59.2978484524
 20
-0.0000000000000284
 30
0.0
 11
60.8
 21
-2.500000000000028
 31
0.0
  0
LINE
  5
E10
  8
3
 10
35.00000000000001
 20
-44.60029321810001
 30
0.0
 11
35.00000000000001
 21
-35.29999999999998
 31
0.0
  0
LINE
  5
E11
  8
3
 10
35.00000000000001
 20
37.72
 30
0.0
 11
35.00000000000001
 21
44.99999999999997
 31
0.0
  0
LINE
  5
E12
  8
3
 10
76.2
 20
-33.53999999999999
 30
0.0
 11
60.2
 21
-33.53999999999999
 31
0.0
  0
LINE
  5
E13
  8
3
 10
60.2
 20
-58.53999999999999
 30
0.0
 11
76.2
 21
-58.53999999999999
 31
0.0
  0
LINE
  5
E14
  8
3
 10
76.2
 20
58.53999999999999
 30
0.0
 11
60.2
 21
58.53999999999999
 31
0.0
  0
LINE
  5
E15
  8
3
 10
60.2
 20
33.53999999999999
 30
0.0
 11
76.2
 21
33.53999999999999
 31
0.0
  0
LINE
  5
E18
  8
3
 10
76.2
 20
11.90624999999997
 30
0.0
 11
44.8
 21
11.90624999999997
 31
0.0
  0
LINE
  5
E19
  8
3
 10
44.8
 20
-11.90625000000003
 30
0.0
 11
76.2
 21
-11.90625000000003
 31
0.0
  0
LINE
  5
E1A
  8
3
 10
44.8
 20
11.90624999999997
 30
0.0
 11
44.32306688359999
 21
11.11249999999998
 31
0.0
  0
LINE
  5
E1B
  8
3
 10
44.32306688359999
 20
-11.11249999999998
 30
0.0
 11
44.8
 21
-11.90625000000003
 31
0.0
  0
LINE
  5
E1F
  8
3
 10
4.829999999999998
 20
37.72
 30
0.0
 11
4.829999999999998
 21
28.72
 31
0.0
  0
LINE
  5
E20
  8
3
 10
17.53000000000002
 20
28.72
 30
0.0
 11
17.53000000000002
 21
37.72
 31
0.0
  0
LINE
  5
E22
  8
3
 10
30.24219628050001
 20
29.66999999999999
 30
0.0
 11
30.24219628050001
 21
37.72
 31
0.0
  0
LINE
  5
E23
  8
3
 10
20.14219628050002
 20
29.66999999999999
 30
0.0
 11
25.1921962805
 21
26.6356538739
 31
0.0
  0
LINE
  5
E24
  8
3
 10
25.1921962805
 20
26.6356538739
 30
0.0
 11
30.24219628050001
 21
29.66999999999999
 31
0.0
  0
LINE
  5
E25
  8
3
 10
6.417500000000004
 20
28.72
 30
0.0
 11
6.417500000000004
 21
13.72
 31
0.0
  0
LINE
  5
E26
  8
3
 10
15.94250000000001
 20
13.72
 30
0.0
 11
15.94250000000001
 21
28.72
 31
0.0
  0
LINE
  5
E27
  8
3
 10
6.417500000000004
 20
13.72
 30
0.0
 11
10.76136107000001
 21
11.10994494859997
 31
0.0
  0
LINE
  5
E28
  8
3
 10
11.60104846110001
 20
11.11139274089996
 30
0.0
 11
15.94250000000001
 21
13.72
 31
0.0
  0
LINE
  5
E29
  8
3
 10
61.39999999999999
 20
15.17006543699998
 30
0.0
 11
61.39999999999999
 21
10.31044397939999
 31
0.0
  0
LINE
  5
E2A
  8
3
 10
65.60000000000001
 20
10.307204735
 30
0.0
 11
65.60000000000001
 21
15.17018574139999
 31
0.0
  0
LINE
  5
E2B
  8
3
 10
65.60000000000001
 20
-15.1701857413
 30
0.0
 11
65.60000000000001
 21
-10.30720473490001
 31
0.0
  0
LINE
  5
E2C
  8
3
 10
61.39999999999999
 20
-10.31044397940005
 30
0.0
 11
61.39999999999999
 21
-15.17006543690005
 31
0.0
  0
LINE
  5
E2D
  8
3
 10
61.81674832
 20
-14.82050807570002
 30
0.0
 11
60.8
 21
-14.82050807570002
 31
0.0
  0
LINE
  5
E2E
  8
3
 10
76.2
 20
-14.82050807570002
 30
0.0
 11
65.16910529709999
 21
-14.82050807570002
 31
0.0
  0
LINE
  5
E2F
  8
3
 10
65.1500275305
 20
-19.82050807570002
 30
0.0
 11
76.2
 21
-19.82050807570002
 31
0.0
  0
LINE
  5
E30
  8
3
 10
60.8
 20
-19.82050807570002
 30
0.0
 11
61.81828950250001
 21
-19.82050807570002
 31
0.0
  0
LINE
  5
E31
  8
3
 10
60.8
 20
-14.82050807570002
 30
0.0
 11
59.2978484524
 21
-17.32050807570002
 31
0.0
  0
LINE
  5
E32
  8
3
 10
59.2978484524
 20
-17.32050807570002
 30
0.0
 11
60.8
 21
-19.82050807570002
 31
0.0
  0
LINE
  5
E33
  8
3
 10
61.83089470290001
 20
19.82050807569996
 30
0.0
 11
60.8
 21
19.82050807569996
 31
0.0
  0
LINE
  5
E34
  8
3
 10
76.2
 20
19.82050807569996
 30
0.0
 11
65.18325168
 21
19.82050807569996
 31
0.0
  0
LINE
  5
E35
  8
3
 10
65.18171049749999
 20
14.82050807569996
 30
0.0
 11
76.2
 21
14.82050807569996
 31
0.0
  0
LINE
  5
E36
  8
3
 10
60.8
 20
14.82050807569996
 30
0.0
 11
61.8499724695
 21
14.82050807569996
 31
0.0
  0
LINE
  5
E37
  8
3
 10
60.8
 20
19.82050807569996
 30
0.0
 11
59.2978484524
 21
17.32050807569996
 31
0.0
  0
LINE
  5
E38
  8
3
 10
59.2978484524
 20
17.32050807569996
 30
0.0
 11
60.8
 21
14.82050807569996
 31
0.0
  0
LINE
  5
E39
  8
3
 10
61.39999999999999
 20
52.46775779639998
 30
0.0
 11
61.39999999999999
 21
19.47083041009998
 31
0.0
  0
LINE
  5
E3A
  8
3
 10
65.60000000000001
 20
19.47095071449999
 30
0.0
 11
65.60000000000001
 21
52.46775779639998
 31
0.0
  0
LINE
  5
E3B
  8
3
 10
65.60000000000001
 20
-52.46775779630005
 30
0.0
 11
65.60000000000001
 21
-19.47095071440006
 31
0.0
  0
LINE
  5
E3C
  8
3
 10
61.39999999999999
 20
-19.47083040999999
 30
0.0
 11
61.39999999999999
 21
-52.46775779630005
 31
0.0
  0
LINE
  5
E3D
  8
3
 10
64.2271041586
 20
-51.47980231860006
 30
0.0
 11
64.0816833269
 21
-51.45884197880005
 31
0.0
  0
LINE
  5
E3E
  8
3
 10
62.91831667309999
 20
-51.45884197880005
 30
0.0
 11
62.7728958414
 21
-51.47980231860006
 31
0.0
  0
LINE
  5
E3F
  8
3
 10
66.12500000000001
 20
-53.60683083590007
 30
0.0
 11
66.12500000000001
 21
-52.74094709040006
 31
0.0
  0
LINE
  5
E40
  8
3
 10
60.87500000000001
 20
-52.74094709040006
 30
0.0
 11
60.87500000000001
 21
-53.60575329150006
 31
0.0
  0
LINE
  5
E41
  8
3
 10
60.87500000000001
 20
53.6057532916
 30
0.0
 11
60.87500000000001
 21
52.74094709049999
 31
0.0
  0
LINE
  5
E42
  8
3
 10
66.12500000000001
 20
52.74094709049999
 30
0.0
 11
66.12500000000001
 21
53.606830836
 31
0.0
  0
LINE
  5
E43
  8
3
 10
62.7728958414
 20
51.47980231860001
 30
0.0
 11
62.91831667309999
 21
51.45884197889998
 31
0.0
  0
LINE
  5
E44
  8
3
 10
64.0816833269
 20
51.45884197889998
 30
0.0
 11
64.2271041586
 21
51.47980231860001
 31
0.0
  0
LINE
  5
E45
  8
3
 10
47.8215078322
 20
29.17478448429998
 30
0.0
 11
47.8440803244
 21
29.17478448429998
 31
0.0
  0
LINE
  5
E46
  8
3
 10
65.39160436390002
 20
-47.09362719009997
 30
0.0
 11
64.92886901659999
 21
-46.76642388810004
 31
0.0
  0
LINE
  5
E47
  8
3
 10
62.07113098340001
 20
-46.76642388810004
 30
0.0
 11
61.608395636
 21
-47.09362719009997
 31
0.0
  0
LINE
  5
E48
  8
3
 10
64.91450320400001
 20
-47.16029426150001
 30
0.0
 11
64.6627216337
 21
-47.073907881
 31
0.0
  0
LINE
  5
E49
  8
3
 10
62.3372783663
 20
-47.073907881
 30
0.0
 11
62.0854967959
 21
-47.16029426150001
 31
0.0
  0
LINE
  5
E4A
  8
3
 10
62.18918964460001
 20
-48.71753162999997
 30
0.0
 11
62.3372783663
 21
-48.7683409432
 31
0.0
  0
LINE
  5
E4B
  8
3
 10
64.6627216337
 20
-48.7683409432
 30
0.0
 11
64.8108103554
 21
-48.71753162999997
 31
0.0
  0
LINE
  5
E4C
  8
3
 10
66.00000000000001
 20
-48.26901085810007
 30
0.0
 11
66.00000000000001
 21
-48.19097130670005
 31
0.0
  0
LINE
  5
E4D
  8
3
 10
61.00000000000001
 20
-48.19097130670005
 30
0.0
 11
61.00000000000001
 21
-48.26901085810007
 31
0.0
  0
LINE
  5
E4E
  8
3
 10
62.0854967959
 20
-49.29968790320007
 30
0.0
 11
62.3372783663
 21
-49.38607428380001
 31
0.0
  0
LINE
  5
E4F
  8
3
 10
64.6627216337
 20
-49.38607428380001
 30
0.0
 11
64.91450320400001
 21
-49.29968790320007
 31
0.0
  0
LINE
  5
E50
  8
3
 10
64.91450320400001
 20
-47.77802760220007
 30
0.0
 11
64.6627216337
 21
-47.69164122160001
 31
0.0
  0
LINE
  5
E51
  8
3
 10
62.3372783663
 20
-47.69164122160001
 30
0.0
 11
62.0854967959
 21
-47.77802760220007
 31
0.0
  0
LINE
  5
E52
  8
3
 10
66.00000000000001
 20
-48.88674419869997
 30
0.0
 11
66.00000000000001
 21
-48.80870464730006
 31
0.0
  0
LINE
  5
E53
  8
3
 10
61.00000000000001
 20
-48.80870464730006
 30
0.0
 11
61.00000000000001
 21
-48.88674419869997
 31
0.0
  0
LINE
  5
E54
  8
3
 10
62.0854967959
 20
-49.91742124379996
 30
0.0
 11
62.3372783663
 21
-50.00380762440003
 31
0.0
  0
LINE
  5
E55
  8
3
 10
64.6627216337
 20
-50.00380762440003
 30
0.0
 11
64.91450320400001
 21
-49.91742124379996
 31
0.0
  0
LINE
  5
E56
  8
3
 10
64.91450320400001
 20
-48.39576094279997
 30
0.0
 11
64.6627216337
 21
-48.30937456220002
 31
0.0
  0
LINE
  5
E57
  8
3
 10
62.3372783663
 20
-48.30937456220002
 30
0.0
 11
62.0854967959
 21
-48.39576094279997
 31
0.0
  0
LINE
  5
E58
  8
3
 10
66.00000000000001
 20
-49.50447753929998
 30
0.0
 11
66.00000000000001
 21
-49.42643798790007
 31
0.0
  0
LINE
  5
E59
  8
3
 10
61.00000000000001
 20
-49.42643798790007
 30
0.0
 11
61.00000000000001
 21
-49.50447753929998
 31
0.0
  0
LINE
  5
E5A
  8
3
 10
62.0854967959
 20
-50.53515458450002
 30
0.0
 11
62.3372783663
 21
-50.62154096500004
 31
0.0
  0
LINE
  5
E5B
  8
3
 10
64.6627216337
 20
-50.62154096500004
 30
0.0
 11
64.91450320400001
 21
-50.53515458450002
 31
0.0
  0
LINE
  5
E5C
  8
3
 10
64.91450320400001
 20
-49.01349428339998
 30
0.0
 11
64.6627216337
 21
-48.92710790280003
 31
0.0
  0
LINE
  5
E5D
  8
3
 10
62.3372783663
 20
-48.92710790280003
 30
0.0
 11
62.0854967959
 21
-49.01349428339998
 31
0.0
  0
LINE
  5
E5E
  8
3
 10
66.00000000000001
 20
-50.1222108799
 30
0.0
 11
66.00000000000001
 21
-50.04417132849997
 31
0.0
  0
LINE
  5
E5F
  8
3
 10
61.00000000000001
 20
-50.04417132849997
 30
0.0
 11
61.00000000000001
 21
-50.1222108799
 31
0.0
  0
LINE
  5
E60
  8
3
 10
62.0854967959
 20
-51.15288792510003
 30
0.0
 11
62.3372783663
 21
-51.23927430560005
 31
0.0
  0
LINE
  5
E61
  8
3
 10
64.6627216337
 20
-51.23927430560005
 30
0.0
 11
64.91450320400001
 21
-51.15288792510003
 31
0.0
  0
LINE
  5
E62
  8
3
 10
64.91450320400001
 20
-49.63122762399999
 30
0.0
 11
64.6627216337
 21
-49.54484124340004
 31
0.0
  0
LINE
  5
E63
  8
3
 10
62.3372783663
 20
-49.54484124340004
 30
0.0
 11
62.0854967959
 21
-49.63122762399999
 31
0.0
  0
LINE
  5
E64
  8
3
 10
66.00000000000001
 20
-50.73994422050001
 30
0.0
 11
66.00000000000001
 21
-50.66190466909998
 31
0.0
  0
LINE
  5
E65
  8
3
 10
61.00000000000001
 20
-50.66190466909998
 30
0.0
 11
61.00000000000001
 21
-50.73994422050001
 31
0.0
  0
LINE
  5
E66
  8
3
 10
62.0854967959
 20
-51.77062126570004
 30
0.0
 11
62.3372783663
 21
-51.85700764620006
 31
0.0
  0
LINE
  5
E67
  8
3
 10
64.6627216337
 20
-51.85700764620006
 30
0.0
 11
64.91450320400001
 21
-51.77062126570004
 31
0.0
  0
LINE
  5
E68
  8
3
 10
64.91450320400001
 20
-50.2489609646
 30
0.0
 11
64.6627216337
 21
-50.16257458400005
 31
0.0
  0
LINE
  5
E69
  8
3
 10
62.3372783663
 20
-50.16257458400005
 30
0.0
 11
62.0854967959
 21
-50.2489609646
 31
0.0
  0
LINE
  5
E6A
  8
3
 10
66.00000000000001
 20
-51.35767756110002
 30
0.0
 11
66.00000000000001
 21
-51.27963800969999
 31
0.0
  0
LINE
  5
E6B
  8
3
 10
61.00000000000001
 20
-51.27963800969999
 30
0.0
 11
61.00000000000001
 21
-51.35767756110002
 31
0.0
  0
LINE
  5
E6C
  8
3
 10
62.0854967959
 20
-52.38835460630006
 30
0.0
 11
62.3372783663
 21
-52.47474098680007
 31
0.0
  0
LINE
  5
E6D
  8
3
 10
64.6627216337
 20
-52.47474098680007
 30
0.0
 11
64.91450320400001
 21
-52.38835460630006
 31
0.0
  0
LINE
  5
E6E
  8
3
 10
64.91450320400001
 20
-50.86669430520001
 30
0.0
 11
64.6627216337
 21
-50.78030792460007
 31
0.0
  0
LINE
  5
E6F
  8
3
 10
62.3372783663
 20
-50.78030792460007
 30
0.0
 11
62.0854967959
 21
-50.86669430520001
 31
0.0
  0
LINE
  5
E70
  8
3
 10
66.00000000000001
 20
-51.97541090170003
 30
0.0
 11
66.00000000000001
 21
-51.89737135030001
 31
0.0
  0
LINE
  5
E71
  8
3
 10
61.00000000000001
 20
-51.89737135030001
 30
0.0
 11
61.00000000000001
 21
-51.97541090170003
 31
0.0
  0
LINE
  5
E72
  8
3
 10
62.0854967959
 20
-53.00608794690007
 30
0.0
 11
62.3372783663
 21
-53.09247432750001
 31
0.0
  0
LINE
  5
E73
  8
3
 10
64.6627216337
 20
-53.09247432750001
 30
0.0
 11
64.91450320400001
 21
-53.00608794690007
 31
0.0
  0
LINE
  5
E74
  8
3
 10
64.77650604060001
 20
-51.43708075120006
 30
0.0
 11
64.6627216337
 21
-51.39804126519996
 31
0.0
  0
LINE
  5
E75
  8
3
 10
62.3372783663
 20
-51.39804126519996
 30
0.0
 11
62.22349395939999
 21
-51.43708075120006
 31
0.0
  0
LINE
  5
E76
  8
3
 10
61.608395636
 20
47.09362719009997
 30
0.0
 11
62.07113098340001
 21
46.76642388819997
 31
0.0
  0
LINE
  5
E77
  8
3
 10
64.92886901659999
 20
46.76642388819997
 30
0.0
 11
65.39160436390002
 21
47.09362719009997
 31
0.0
  0
LINE
  5
E78
  8
3
 10
62.0854967959
 20
47.1602942616
 30
0.0
 11
62.3372783663
 21
47.073907881
 31
0.0
  0
LINE
  5
E79
  8
3
 10
64.6627216337
 20
47.073907881
 30
0.0
 11
64.91450320400001
 21
47.1602942616
 31
0.0
  0
LINE
  5
E7A
  8
3
 10
64.8108103554
 20
48.71753163009996
 30
0.0
 11
64.6627216337
 21
48.76834094329999
 31
0.0
  0
LINE
  5
E7B
  8
3
 10
62.3372783663
 20
48.76834094329999
 30
0.0
 11
62.18918964460001
 21
48.71753163009996
 31
0.0
  0
LINE
  5
E7C
  8
3
 10
61.00000000000001
 20
48.26901085809996
 30
0.0
 11
61.00000000000001
 21
48.19097130679998
 31
0.0
  0
LINE
  5
E7D
  8
3
 10
66.00000000000001
 20
48.19097130679998
 30
0.0
 11
66.00000000000001
 21
48.26901085809996
 31
0.0
  0
LINE
  5
E7E
  8
3
 10
64.91450320400001
 20
49.2996879033
 30
0.0
 11
64.6627216337
 21
49.3860742839
 31
0.0
  0
LINE
  5
E7F
  8
3
 10
62.3372783663
 20
49.3860742839
 30
0.0
 11
62.0854967959
 21
49.2996879033
 31
0.0
  0
LINE
  5
E80
  8
3
 10
62.0854967959
 20
47.77802760219996
 30
0.0
 11
62.3372783663
 21
47.69164122160001
 31
0.0
  0
LINE
  5
E81
  8
3
 10
64.6627216337
 20
47.69164122160001
 30
0.0
 11
64.91450320400001
 21
47.77802760219996
 31
0.0
  0
LINE
  5
E82
  8
3
 10
61.00000000000001
 20
48.88674419869997
 30
0.0
 11
61.00000000000001
 21
48.80870464739999
 31
0.0
  0
LINE
  5
E83
  8
3
 10
66.00000000000001
 20
48.80870464739999
 30
0.0
 11
66.00000000000001
 21
48.88674419869997
 31
0.0
  0
LINE
  5
E84
  8
3
 10
64.91450320400001
 20
49.91742124390001
 30
0.0
 11
64.6627216337
 21
50.00380762449996
 31
0.0
  0
LINE
  5
E85
  8
3
 10
62.3372783663
 20
50.00380762449996
 30
0.0
 11
62.0854967959
 21
49.91742124390001
 31
0.0
  0
LINE
  5
E86
  8
3
 10
62.0854967959
 20
48.39576094279997
 30
0.0
 11
62.3372783663
 21
48.30937456219996
 31
0.0
  0
LINE
  5
E87
  8
3
 10
64.6627216337
 20
48.30937456219996
 30
0.0
 11
64.91450320400001
 21
48.39576094279997
 31
0.0
  0
LINE
  5
E88
  8
3
 10
61.00000000000001
 20
49.50447753939997
 30
0.0
 11
61.00000000000001
 21
49.426437988
 31
0.0
  0
LINE
  5
E89
  8
3
 10
66.00000000000001
 20
49.426437988
 30
0.0
 11
66.00000000000001
 21
49.50447753939997
 31
0.0
  0
LINE
  5
E8A
  8
3
 10
64.91450320400001
 20
50.53515458449996
 30
0.0
 11
64.6627216337
 21
50.62154096509997
 31
0.0
  0
LINE
  5
E8B
  8
3
 10
62.3372783663
 20
50.62154096509997
 30
0.0
 11
62.0854967959
 21
50.53515458449996
 31
0.0
  0
LINE
  5
E8C
  8
3
 10
62.0854967959
 20
49.01349428339998
 30
0.0
 11
62.3372783663
 21
48.92710790289996
 31
0.0
  0
LINE
  5
E8D
  8
3
 10
64.6627216337
 20
48.92710790289996
 30
0.0
 11
64.91450320400001
 21
49.01349428339998
 31
0.0
  0
LINE
  5
E8E
  8
3
 10
61.00000000000001
 20
50.12221087999998
 30
0.0
 11
61.00000000000001
 21
50.04417132859996
 31
0.0
  0
LINE
  5
E8F
  8
3
 10
66.00000000000001
 20
50.04417132859996
 30
0.0
 11
66.00000000000001
 21
50.12221087999998
 31
0.0
  0
LINE
  5
E90
  8
3
 10
64.91450320400001
 20
51.15288792509998
 30
0.0
 11
64.6627216337
 21
51.23927430569998
 31
0.0
  0
LINE
  5
E91
  8
3
 10
62.3372783663
 20
51.23927430569998
 30
0.0
 11
62.0854967959
 21
51.15288792509998
 31
0.0
  0
LINE
  5
E92
  8
3
 10
62.0854967959
 20
49.63122762399999
 30
0.0
 11
62.3372783663
 21
49.54484124349997
 31
0.0
  0
LINE
  5
E93
  8
3
 10
64.6627216337
 20
49.54484124349997
 30
0.0
 11
64.91450320400001
 21
49.63122762399999
 31
0.0
  0
LINE
  5
E94
  8
3
 10
61.00000000000001
 20
50.73994422059999
 30
0.0
 11
61.00000000000001
 21
50.66190466919997
 31
0.0
  0
LINE
  5
E95
  8
3
 10
66.00000000000001
 20
50.66190466919997
 30
0.0
 11
66.00000000000001
 21
50.73994422059999
 31
0.0
  0
LINE
  5
E96
  8
3
 10
64.91450320400001
 20
51.77062126569999
 30
0.0
 11
64.6627216337
 21
51.85700764629999
 31
0.0
  0
LINE
  5
E97
  8
3
 10
62.3372783663
 20
51.85700764629999
 30
0.0
 11
62.0854967959
 21
51.77062126569999
 31
0.0
  0
LINE
  5
E98
  8
3
 10
62.0854967959
 20
50.2489609646
 30
0.0
 11
62.3372783663
 21
50.16257458409999
 31
0.0
  0
LINE
  5
E99
  8
3
 10
64.6627216337
 20
50.16257458409999
 30
0.0
 11
64.91450320400001
 21
50.2489609646
 31
0.0
  0
LINE
  5
E9A
  8
3
 10
61.00000000000001
 20
51.35767756120001
 30
0.0
 11
61.00000000000001
 21
51.27963800979998
 31
0.0
  0
LINE
  5
E9B
  8
3
 10
66.00000000000001
 20
51.27963800979998
 30
0.0
 11
66.00000000000001
 21
51.35767756120001
 31
0.0
  0
LINE
  5
E9C
  8
3
 10
64.91450320400001
 20
52.3883546063
 30
0.0
 11
64.6627216337
 21
52.4747409869
 31
0.0
  0
LINE
  5
E9D
  8
3
 10
62.3372783663
 20
52.4747409869
 30
0.0
 11
62.0854967959
 21
52.3883546063
 31
0.0
  0
LINE
  5
E9E
  8
3
 10
62.0854967959
 20
50.86669430519996
 30
0.0
 11
62.3372783663
 21
50.7803079247
 31
0.0
  0
LINE
  5
E9F
  8
3
 10
64.6627216337
 20
50.7803079247
 30
0.0
 11
64.91450320400001
 21
50.86669430519996
 31
0.0
  0
LINE
  5
EA0
  8
3
 10
61.00000000000001
 20
51.97541090179996
 30
0.0
 11
61.00000000000001
 21
51.89737135039999
 31
0.0
  0
LINE
  5
EA1
  8
3
 10
66.00000000000001
 20
51.89737135039999
 30
0.0
 11
66.00000000000001
 21
51.97541090179996
 31
0.0
  0
LINE
  5
EA2
  8
3
 10
64.91450320400001
 20
53.00608794689995
 30
0.0
 11
64.6627216337
 21
53.09247432749996
 31
0.0
  0
LINE
  5
EA3
  8
3
 10
62.3372783663
 20
53.09247432749996
 30
0.0
 11
62.0854967959
 21
53.00608794689995
 31
0.0
  0
LINE
  5
EA4
  8
3
 10
62.22349395939999
 20
51.4370807512
 30
0.0
 11
62.3372783663
 21
51.39804126530001
 31
0.0
  0
LINE
  5
EA5
  8
3
 10
64.6627216337
 20
51.39804126530001
 30
0.0
 11
64.77650604060001
 21
51.4370807512
 31
0.0
  0
LINE
  5
EA6
  8
3
 10
76.2
 20
-33.33619000000002
 30
0.0
 11
59.3998051615
 21
-33.33619000000002
 31
0.0
  0
LINE
  5
EA7
  8
3
 10
59.3998051615
 20
-58.74380999999997
 30
0.0
 11
76.2
 21
-58.74380999999997
 31
0.0
  0
ARC
  5
EA8
  8
3
 10
59.14999999999999
 20
-30.22105906330003
 30
0.0
 40
3.125130936628011
 50
270.0
 51
274.5847894509001
  0
ARC
  5
EA9
  8
3
 10
59.14999999999999
 20
-61.85894093660002
 30
0.0
 40
3.125130936628134
 50
85.41521054910011
 51
90.0
  0
LINE
  5
EAA
  8
3
 10
58.0748395106
 20
-33.34619000000001
 30
0.0
 11
57.14999999999999
 21
-33.59399999999997
 31
0.0
  0
LINE
  5
EAB
  8
3
 10
57.14999999999999
 20
-58.48600000000002
 30
0.0
 11
58.0748395106
 21
-58.73380999999998
 31
0.0
  0
LINE
  5
EAC
  8
3
 10
59.14999999999999
 20
-33.34619000000001
 30
0.0
 11
58.0748395106
 21
-33.34619000000001
 31
0.0
  0
LINE
  5
EAD
  8
3
 10
58.0748395106
 20
-58.73380999999998
 30
0.0
 11
59.14999999999999
 21
-58.73380999999998
 31
0.0
  0
LINE
  5
EAE
  8
3
 10
76.2
 20
58.74380999999997
 30
0.0
 11
59.3998051615
 21
58.74380999999997
 31
0.0
  0
LINE
  5
EAF
  8
3
 10
59.3998051615
 20
33.33618999999996
 30
0.0
 11
76.2
 21
33.33618999999996
 31
0.0
  0
ARC
  5
EB0
  8
3
 10
59.14999999999999
 20
61.85894093670001
 30
0.0
 40
3.125130936628011
 50
270.0
 51
274.5847894509001
  0
ARC
  5
EB1
  8
3
 10
59.14999999999999
 20
30.22105906339996
 30
0.0
 40
3.125130936628011
 50
85.41521054909994
 51
90.0
  0
LINE
  5
EB2
  8
3
 10
58.0748395106
 20
58.73380999999998
 30
0.0
 11
57.14999999999999
 21
58.48599999999996
 31
0.0
  0
LINE
  5
EB3
  8
3
 10
57.14999999999999
 20
33.59399999999997
 30
0.0
 11
58.0748395106
 21
33.34619000000001
 31
0.0
  0
LINE
  5
EB4
  8
3
 10
59.14999999999999
 20
58.73380999999998
 30
0.0
 11
58.0748395106
 21
58.73380999999998
 31
0.0
  0
LINE
  5
EB5
  8
3
 10
58.0748395106
 20
33.34619000000001
 30
0.0
 11
59.14999999999999
 21
33.34619000000001
 31
0.0
  0
LINE
  5
EBB
  8
3
 10
44.32306688359999
 20
-11.11249999999998
 30
0.0
 11
0.0
 21
-11.09980000000002
 31
0.0
  0
LINE
  5
EBC
  8
3
 10
44.32306688359999
 20
11.11249999999998
 30
0.0
 11
0.0
 21
11.09979999999999
 31
0.0
  0
LINE
  5
EC1
  8
NOCUT
 10
76.22857499979999
 20
58.74381
 30
0.0
 11
76.2
 21
58.74381
 31
0.0
  0
ARC
  5
EC3
  8
NOCUT
 10
75.2
 20
60.90000000000003
 30
0.0
 40
1.0
 50
0.0
 51
90.0
  0
ARC
  5
EC4
  8
NOCUT
 10
49.00000000000001
 20
60.90000000000003
 30
0.0
 40
1.0
 50
90.0
 51
180.0
  0
LINE
  5
EC5
  8
NOCUT
 10
75.2
 20
61.90000000000003
 30
0.0
 11
49.00000000000001
 21
61.90000000000003
 31
0.0
  0
LINE
  5
EC6
  8
NOCUT
 10
76.2
 20
0.0
 30
0.0
 11
76.2
 21
60.90000000000003
 31
0.0
  0
ARC
  5
EC7
  8
NOCUT
 10
46.00000000000001
 20
47.0
 30
0.0
 40
2.0
 50
270.0
 51
0.0
  0
LINE
  5
EC8
  8
NOCUT
 10
46.00000000000001
 20
45.0
 30
0.0
 11
20.04999999999997
 21
45.0
 31
0.0
  0
LINE
  5
ECD
  8
NOCUT
 10
48.00000000000001
 20
60.90000000000003
 30
0.0
 11
48.00000000000001
 21
47.0
 31
0.0
  0
ARC
  5
ECE
  8
NOCUT
 10
20.04999999999997
 20
46.0
 30
0.0
 40
1.0
 50
180.0000000000002
 51
270.0
  0
LINE
  5
EDA
  8
SK1
 10
119.888
 20
-39.62400000000005
 30
0.0
 11
120.65
 21
-38.86199999999999
 31
0.0
  0
LINE
  5
EDC
  8
SK1
 10
120.65
 20
38.86199999999999
 30
0.0
 11
119.888
 21
39.624
 31
0.0
  0
LINE
  5
EDD
  8
SK1
 10
119.888
 20
39.624
 30
0.0
 11
108.712
 21
39.624
 31
0.0
  0
LINE
  5
EDE
  8
SK1
 10
108.712
 20
-39.62400000000005
 30
0.0
 11
119.888
 21
-39.62400000000005
 31
0.0
  0
LINE
  5
EDF
  8
SK1
 10
108.712
 20
39.624
 30
0.0
 11
107.95
 21
38.86199999999999
 31
0.0
  0
LINE
  5
EE0
  8
SK1
 10
107.95
 20
-38.86199999999999
 30
0.0
 11
108.712
 21
-39.62400000000005
 31
0.0
  0
ARC
  5
EE1
  8
SK1
 10
107.1626
 20
13.48740000000001
 30
0.0
 40
0.787399999999991
 50
270.0
 51
0.0
  0
ARC
  5
EE2
  8
SK1
 10
107.1626
 20
-13.48740000000001
 30
0.0
 40
0.7874000000000478
 50
0.0
 51
90.0
  0
LINE
  5
EE3
  8
SK1
 10
107.1626
 20
12.69999999999996
 30
0.0
 11
104.8
 21
12.69999999999996
 31
0.0
  0
LINE
  5
EE4
  8
SK1
 10
104.8
 20
-12.70000000000007
 30
0.0
 11
107.1626
 21
-12.70000000000007
 31
0.0
  0
ARC
  5
EF5
  8
SK1
 10
76.39999999999999
 20
-31.95000000000007
 30
0.0
 40
0.4000000000000297
 50
74.99999999999852
 51
120.0000000000058
  0
ARC
  5
EF6
  8
SK1
 10
76.39999999999999
 20
31.94999999999996
 30
0.0
 40
0.3999999999999749
 50
239.9999999999992
 51
284.9999999999996
  0
LINE
  5
EF7
  8
SK1
 10
77.1990711605
 20
31.74999999999997
 30
0.0
 11
76.503527618
 21
31.56362966949999
 31
0.0
  0
LINE
  5
EF8
  8
SK1
 10
76.503527618
 20
-31.56362966940006
 30
0.0
 11
77.1990711605
 21
-31.75000000000003
 31
0.0
  0
LINE
  5
EF9
  8
SK1
 10
77.1990711605
 20
-31.75000000000003
 30
0.0
 11
102.8
 21
-31.75000000000003
 31
0.0
  0
LINE
  5
EFA
  8
SK1
 10
102.8
 20
31.74999999999997
 30
0.0
 11
77.1990711605
 21
31.74999999999997
 31
0.0
  0
ARC
  5
EFB
  8
SK1
 10
102.8
 20
-29.75000000000003
 30
0.0
 40
2.0
 50
270.0
 51
0.0
  0
ARC
  5
EFC
  8
SK1
 10
102.8
 20
29.74999999999997
 30
0.0
 40
2.0
 50
0.0
 51
90.0
  0
LINE
  5
F01
  8
SK1
 10
76.22857499979999
 20
-33.33619000000002
 30
0.0
 11
76.2
 21
-33.33619000000002
 31
0.0
  0
LINE
  5
F04
  8
SK1
 10
76.2
 20
33.33618999999996
 30
0.0
 11
76.22857499979999
 21
33.33618999999996
 31
0.0
  0
LINE
  5
F05
  8
SK1
 10
120.65
 20
38.86199999999999
 30
0.0
 11
120.65
 21
-38.86199999999999
 31
0.0
  0
LINE
  5
F06
  8
SK1
 10
119.888
 20
39.624
 30
0.0
 11
119.888
 21
-39.62400000000005
 31
0.0
  0
LINE
  5
F07
  8
SK1
 10
108.712
 20
39.624
 30
0.0
 11
108.712
 21
-39.62400000000005
 31
0.0
  0
LINE
  5
F08
  8
SK1
 10
107.95
 20
38.86199999999999
 30
0.0
 11
107.95
 21
-38.86199999999999
 31
0.0
  0
LINE
  5
F41
  8
SK1
 10
77.1990711605
 20
-0.0000000000000284
 30
0.0
 11
77.1990711605
 21
31.74999999999997
 31
0.0
  0
LINE
  5
F42
  8
SK1
 10
77.1990711605
 20
-31.75000000000003
 30
0.0
 11
77.1990711605
 21
-0.0000000000000284
 31
0.0
  0
LINE
  5
F43
  8
SK1
 10
104.8
 20
-0.0000000000000284
 30
0.0
 11
104.8
 21
29.74999999999997
 31
0.0
  0
LINE
  5
F44
  8
SK1
 10
104.8
 20
-29.75000000000003
 30
0.0
 11
104.8
 21
-0.0000000000000284
 31
0.0
  0
LINE
  5
F4D
  8
SK1
 10
88.89999999999999
 20
-33.34000000000006
 30
0.0
 11
76.2
 21
-33.34000000000006
 31
0.0
  0
LINE
  5
F4E
  8
SK1
 10
88.89999999999999
 20
-33.34000000000006
 30
0.0
 11
88.89999999999999
 21
-58.74000000000004
 31
0.0
  0
LINE
  5
F4F
  8
SK1
 10
88.89999999999999
 20
-58.74000000000004
 30
0.0
 11
76.2
 21
-58.74000000000004
 31
0.0
  0
LINE
  5
F50
  8
SK1
 10
88.89999999999999
 20
58.73999999999998
 30
0.0
 11
76.2
 21
58.73999999999998
 31
0.0
  0
LINE
  5
F51
  8
SK1
 10
88.89999999999999
 20
58.73999999999998
 30
0.0
 11
88.89999999999999
 21
33.34
 31
0.0
  0
LINE
  5
F52
  8
SK1
 10
88.89999999999999
 20
33.34
 30
0.0
 11
76.2
 21
33.34
 31
0.0
  0
LINE
  5
F53
  8
3
 10
77.46873000000001
 20
12.69999999999996
 30
0.0
 11
77.46873000000001
 21
-12.70000000000007
 31
0.0
  0
LINE
  5
F56
  8
3
 10
111.125
 20
-0.0000000000000284
 30
0.0
 11
120.65
 21
-0.0000000000000284
 31
0.0
  0
LINE
  5
F57
  8
3
 10
111.125
 20
4.775199999999955
 30
0.0
 11
111.125
 21
-0.0000000000000284
 31
0.0
  0
LINE
  5
F58
  8
3
 10
111.125
 20
-0.0000000000000284
 30
0.0
 11
111.125
 21
-4.775200000000069
 31
0.0
  0
LINE
  5
F59
  8
3
 10
110.49
 20
9.550399999999996
 30
0.0
 11
110.49
 21
-9.550399999999996
 31
0.0
  0
LINE
  5
F5A
  8
3
 10
111.125
 20
9.550399999999996
 30
0.0
 11
111.125
 21
4.775199999999955
 31
0.0
  0
LINE
  5
F5B
  8
3
 10
111.125
 20
-4.775200000000069
 30
0.0
 11
111.125
 21
-9.550399999999996
 31
0.0
  0
LINE
  5
F5C
  8
3
 10
111.125
 20
9.550399999999996
 30
0.0
 11
120.65
 21
9.550399999999996
 31
0.0
  0
LINE
  5
F5D
  8
3
 10
111.125
 20
-9.550399999999996
 30
0.0
 11
120.65
 21
-9.550399999999996
 31
0.0
  0
LINE
  5
F64
  8
3
 10
103.933974494
 20
-13.25000000000003
 30
0.0
 11
103.933974494
 21
13.24999999999997
 31
0.0
  0
LINE
  5
F6C
  8
3
 10
101.8
 20
13.24999999999997
 30
0.0
 11
101.8
 21
-13.25000000000003
 31
0.0
  0
LINE
  5
F7A
  8
3
 10
101.6065312213
 20
11.90624999999997
 30
0.0
 11
101.6065312213
 21
-11.90625000000003
 31
0.0
  0
LINE
  5
FEC
  8
3
 10
104.8
 20
12.69999999999996
 30
0.0
 11
77.46873000000001
 21
12.69999999999996
 31
0.0
  0
LINE
  5
FED
  8
3
 10
77.46873000000001
 20
-12.70000000000007
 30
0.0
 11
104.8
 21
-12.70000000000007
 31
0.0
  0
LINE
  5
FEE
  8
3
 10
77.46873000000001
 20
12.69999999999996
 30
0.0
 11
76.2
 21
11.43126999999996
 31
0.0
  0
LINE
  5
FEF
  8
3
 10
76.2
 20
-11.43127000000007
 30
0.0
 11
77.46873000000001
 21
-12.70000000000007
 31
0.0
  0
LINE
  5
FF0
  8
3
 10
111.125
 20
9.550399999999996
 30
0.0
 11
110.49
 21
9.550399999999996
 31
0.0
  0
LINE
  5
FF1
  8
3
 10
110.49
 20
-9.550399999999996
 30
0.0
 11
111.125
 21
-9.550399999999996
 31
0.0
  0
LINE
  5
FF2
  8
3
 10
110.49
 20
9.550399999999996
 30
0.0
 11
104.751540744
 21
-0.0000000000000284
 31
0.0
  0
LINE
  5
FF3
  8
3
 10
104.751540744
 20
-0.0000000000000284
 30
0.0
 11
110.49
 21
-9.550399999999996
 31
0.0
  0
LINE
  5
1002
  8
3
 10
104.8
 20
2.499999999999972
 30
0.0
 11
76.2
 21
2.499999999999972
 31
0.0
  0
LINE
  5
1005
  8
3
 10
76.2
 20
-2.500000000000028
 30
0.0
 11
104.8
 21
-2.500000000000028
 31
0.0
  0
LINE
  5
100A
  8
3
 10
104.8
 20
13.75000005899997
 30
0.0
 11
103.933974494
 21
13.24999999999997
 31
0.0
  0
LINE
  5
100B
  8
3
 10
103.933974494
 20
-13.25000000000003
 30
0.0
 11
104.8
 21
-13.75000005899997
 31
0.0
  0
LINE
  5
100F
  8
3
 10
103.933974494
 20
13.24999999999997
 30
0.0
 11
101.8
 21
13.24999999999997
 31
0.0
  0
LINE
  5
1010
  8
3
 10
101.8
 20
-13.25000000000003
 30
0.0
 11
103.933974494
 21
-13.25000000000003
 31
0.0
  0
LINE
  5
1019
  8
3
 10
101.8
 20
12.01794925149997
 30
0.0
 11
101.6065312213
 21
11.90624999999997
 31
0.0
  0
LINE
  5
101A
  8
3
 10
101.6065312213
 20
-11.90625000000003
 30
0.0
 11
101.8
 21
-12.01794925139998
 31
0.0
  0
LINE
  5
101B
  8
3
 10
101.6065312213
 20
11.90624999999997
 30
0.0
 11
76.2
 21
11.90624999999997
 31
0.0
  0
LINE
  5
101C
  8
3
 10
76.2
 20
-11.90625000000003
 30
0.0
 11
101.6065312213
 21
-11.90625000000003
 31
0.0
  0
LINE
  5
1031
  8
3
 10
104.8
 20
-14.82050807570002
 30
0.0
 11
76.2
 21
-14.82050807570002
 31
0.0
  0
LINE
  5
1032
  8
3
 10
76.2
 20
-19.82050807570002
 30
0.0
 11
104.8
 21
-19.82050807570002
 31
0.0
  0
LINE
  5
1037
  8
3
 10
104.8
 20
19.82050807569996
 30
0.0
 11
76.2
 21
19.82050807569996
 31
0.0
  0
LINE
  5
1038
  8
3
 10
76.2
 20
14.82050807569996
 30
0.0
 11
104.8
 21
14.82050807569996
 31
0.0
  0
LINE
  5
10BB
  8
SK4
 10
76.2
 20
-0.0000000000000284
 30
0.0
 11
120.65
 21
0.0
 31
0.0
  0
DIMENSION
  5
10BE
  8
SK2
  2
*D10
 10
160.4046797803504
 20
-61.90000000000001
 30
0.0
 11
158.5296797803504
 21
-0.0000000000000071
 31
0.0
 70
    32
  3
ISO-25
 13
75.2
 23
61.90000000000001
 33
0.0
 14
75.2
 24
-61.90000000000001
 34
0.0
 50
90.0
1001
ACAD
1000
DSTYLE
1002
{
1070
   287
1070
     5
1070
   271
1070
     3
1070
   272
1070
     3
1070
   279
1070
     2
1002
}
  0
DIMENSION
  5
10CD
  8
SK2
  2
*D11
 10
140.0152909027244
 20
-31.75000000000003
 30
0.0
 11
138.1402909027244
 21
-0.000000000000032
 31
0.0
 70
    32
  3
ISO-25
 13
102.8
 23
31.74999999999997
 33
0.0
 14
102.8
 24
-31.75000000000003
 34
0.0
 50
90.0
1001
ACAD
1000
DSTYLE
1002
{
1070
   287
1070
     5
1070
   271
1070
     3
1070
   272
1070
     3
1070
   279
1070
     2
1002
}
  0
ENDSEC
  0
EOF
