  0
SECTION
  2
HEADER
  9
$ACADVER
  1
AC1009
  9
$DWGCODEPAGE
  3
ansi_1252
  9
$INSBASE
 10
0.0
 20
0.0
 30
0.0
  9
$EXTMIN
 10
-4.062491874999976
 20
-1.937496124999995
 30
0.0
  9
$EXTMAX
 10
6.741480038362738
 20
3.306323769333531
 30
0.0
  9
$LIMMIN
 10
0.0
 20
0.0
  9
$LIMMAX
 10
12.0
 20
9.0
  9
$ORTHOMODE
 70
     1
  9
$REGENMODE
 70
     1
  9
$FILLMODE
 70
     1
  9
$QTEXTMODE
 70
     0
  9
$MIRRTEXT
 70
     1
  9
$DRAGMODE
 70
     2
  9
$LTSCALE
 40
10.0
  9
$OSMODE
 70
   511
  9
$ATTMODE
 70
     1
  9
$TEXTSIZE
 40
0.2
  9
$TRACEWID
 40
0.05
  9
$TEXTSTYLE
  7
STYLE1
  9
$CLAYER
  8
240
  9
$CELTYPE
  6
BYLAYER
  9
$CECOLOR
 62
   256
  9
$DIMSCALE
 40
1.0
  9
$DIMASZ
 40
0.12
  9
$DIMEXO
 40
0.0625
  9
$DIMDLI
 40
0.38
  9
$DIMRND
 40
0.0
  9
$DIMDLE
 40
0.0
  9
$DIMEXE
 40
0.0625
  9
$DIMTP
 40
0.0
  9
$DIMTM
 40
0.0
  9
$DIMTXT
 40
0.125
  9
$DIMCEN
 40
0.0
  9
$DIMTSZ
 40
0.0
  9
$DIMTOL
 70
     0
  9
$DIMLIM
 70
     0
  9
$DIMTIH
 70
     0
  9
$DIMTOH
 70
     0
  9
$DIMSE1
 70
     0
  9
$DIMSE2
 70
     0
  9
$DIMTAD
 70
     1
  9
$DIMZIN
 70
     0
  9
$DIMBLK
  1

  9
$DIMASO
 70
     1
  9
$DIMSHO
 70
     1
  9
$DIMPOST
  1

  9
$DIMAPOST
  1

  9
$DIMALT
 70
     0
  9
$DIMALTD
 70
     2
  9
$DIMALTF
 40
25.4
  9
$DIMLFAC
 40
1.0
  9
$DIMTOFL
 70
     1
  9
$DIMTVP
 40
0.0
  9
$DIMTIX
 70
     0
  9
$DIMSOXD
 70
     0
  9
$DIMSAH
 70
     0
  9
$DIMBLK1
  1

  9
$DIMBLK2
  1

  9
$DIMSTYLE
  2
STANDARD
  9
$DIMCLRD
 70
     0
  9
$DIMCLRE
 70
     0
  9
$DIMCLRT
 70
     0
  9
$DIMTFAC
 40
1.0
  9
$DIMGAP
 40
0.05
  9
$LUNITS
 70
     2
  9
$LUPREC
 70
     4
  9
$SKETCHINC
 40
0.1
  9
$FILLETRAD
 40
0.0
  9
$AUNITS
 70
     0
  9
$AUPREC
 70
     0
  9
$MENU
  1
.
  9
$ELEVATION
 40
0.0
  9
$PELEVATION
 40
0.0
  9
$THICKNESS
 40
0.0
  9
$LIMCHECK
 70
     0
  9
$CHAMFERA
 40
0.04
  9
$CHAMFERB
 40
0.04
  9
$SKPOLY
 70
     0
  9
$TDCREATE
 40
2453353.508792477
  9
$TDUPDATE
 40
2452852.584358021
  9
$TDINDWG
 40
0.0636384954
  9
$TDUSRTIMER
 40
2458339.840924167
  9
$USRTIMER
 70
     1
  9
$ANGBASE
 50
0.0
  9
$ANGDIR
 70
     0
  9
$PDMODE
 70
    65
  9
$PDSIZE
 40
-2.0
  9
$PLINEWID
 40
0.0
  9
$COORDS
 70
     1
  9
$SPLFRAME
 70
     0
  9
$SPLINETYPE
 70
     6
  9
$SPLINESEGS
 70
     8
  9
$ATTDIA
 70
     0
  9
$ATTREQ
 70
     1
  9
$HANDLING
 70
     1
  9
$HANDSEED
  5
11E9
  9
$SURFTAB1
 70
     6
  9
$SURFTAB2
 70
     6
  9
$SURFTYPE
 70
     6
  9
$SURFU
 70
     6
  9
$SURFV
 70
     6
  9
$UCSNAME
  2

  9
$UCSORG
 10
0.0
 20
0.0
 30
0.0
  9
$UCSXDIR
 10
1.0
 20
0.0
 30
0.0
  9
$UCSYDIR
 10
0.0
 20
1.0
 30
0.0
  9
$PUCSNAME
  2

  9
$PUCSORG
 10
0.0
 20
0.0
 30
0.0
  9
$PUCSXDIR
 10
1.0
 20
0.0
 30
0.0
  9
$PUCSYDIR
 10
0.0
 20
1.0
 30
0.0
  9
$USERI1
 70
     0
  9
$USERI2
 70
     0
  9
$USERI3
 70
     0
  9
$USERI4
 70
     0
  9
$USERI5
 70
     0
  9
$USERR1
 40
0.0
  9
$USERR2
 40
0.0
  9
$USERR3
 40
0.0
  9
$USERR4
 40
0.0
  9
$USERR5
 40
0.0
  9
$WORLDVIEW
 70
     1
  9
$SHADEDGE
 70
     3
  9
$SHADEDIF
 70
    70
  9
$TILEMODE
 70
     1
  9
$MAXACTVP
 70
    16
  9
$PLIMCHECK
 70
     0
  9
$PEXTMIN
 10
0.0
 20
0.0
 30
0.0
  9
$PEXTMAX
 10
0.0
 20
0.0
 30
0.0
  9
$PLIMMIN
 10
0.0
 20
0.0
  9
$PLIMMAX
 10
12.0
 20
9.0
  9
$UNITMODE
 70
     0
  9
$VISRETAIN
 70
     0
  9
$PLINEGEN
 70
     0
  9
$PSLTSCALE
 70
     1
  0
ENDSEC
  0
SECTION
  2
TABLES
  0
TABLE
  2
VPORT
 70
     1
  0
VPORT
  2
*ACTIVE
 70
     0
 10
0.0
 20
0.0
 11
1.0
 21
1.0
 12
-211.3792733024887
 22
-240.3731004970551
 13
0.0
 23
0.0
 14
1.0
 24
1.0
 15
0.0
 25
0.0
 16
0.0
 26
0.0
 36
1.0
 17
248.959651769135
 27
245.8997127951682
 37
0.0
 40
215.2283234065993
 41
1.334239130434783
 42
50.0
 43
0.0
 44
0.0
 50
0.0
 51
0.0
 71
    16
 72
  1000
 73
     1
 74
     0
 75
     0
 76
     0
 77
     0
 78
     0
  0
ENDTAB
  0
TABLE
  2
LTYPE
 70
     3
  0
LTYPE
  2
CONTINUOUS
 70
     0
  3
Solid line
 72
    65
 73
     0
 40
0.0
  0
LTYPE
  2
HIDDEN
 70
     0
  3
__ __ __ __ __ __ __ __ __ __ __ __ __ __ __ __
 72
    65
 73
     2
 40
0.375
 49
0.25
 49
-0.125
  0
LTYPE
  2
CENTER
 70
     0
  3
____ _ ____ _ ____ _ ____ _ ____ _ ____ _ ____
 72
    65
 73
     4
 40
2.0
 49
1.25
 49
-0.25
 49
0.25
 49
-0.25
  0
ENDTAB
  0
TABLE
  2
LAYER
 70
     6
  0
LAYER
  2
0
 70
     0
 62
     7
  6
CONTINUOUS
  0
LAYER
  2
240
 70
     0
 62
     4
  6
CONTINUOUS
  0
LAYER
  2
243
 70
     0
 62
     6
  6
HIDDEN
  0
LAYER
  2
245
 70
     0
 62
     2
  6
CENTER
  0
LAYER
  2
250
 70
     0
 62
     3
  6
CONTINUOUS
  0
LAYER
  2
DEFPOINTS
 70
     0
 62
     7
  6
CONTINUOUS
  0
ENDTAB
  0
TABLE
  2
STYLE
 70
     2
  0
STYLE
  2
STANDARD
 70
     0
 40
0.0
 41
1.0
 50
0.0
 71
     0
 42
0.2
  3
ROMANS.SHX
  4

  0
STYLE
  2
STYLE1
 70
     0
 40
0.0
 41
1.0
 50
0.0
 71
     0
 42
0.2
  3
romans.shx
  4

  0
ENDTAB
  0
TABLE
  2
VIEW
 70
     0
  0
ENDTAB
  0
TABLE
  2
UCS
 70
     0
  0
ENDTAB
  0
TABLE
  2
APPID
 70
    13
  0
APPID
  2
ACAD
 70
     0
  0
APPID
  2
GENIUS_GENDIM_13
 70
     0
  0
APPID
  2
GENIUS_GENDTOL_13
 70
     0
  0
APPID
  2
GENIUS_GE3DTOL_13
 70
     0
  0
APPID
  2
MCAD_NO_VIS
 70
     0
  0
APPID
  2
ACAD_TEMP_GRAPHIC
 70
     0
  0
APPID
  2
AD_DRAW
 70
     0
  0
APPID
  2
ACATTRIBSERVICES
 70
     0
  0
APPID
  2
ASURF_PCURVE_APPNAME
 70
     0
  0
APPID
  2
AMG_3D2D_5_0
 70
     0
  0
APPID
  2
DESIGNERASSEMBLIES
 70
     0
  0
APPID
  2
ACADM_DIM_EDIT
 70
     0
  0
APPID
  2
AMDT_DM_ADJ
 70
     0
  0
ENDTAB
  0
TABLE
  2
DIMSTYLE
 70
     1
  0
DIMSTYLE
  2
STANDARD
 70
     0
  3

  4

  5

  6

  7

 40
1.0
 41
0.12
 42
0.0625
 43
0.38
 44
0.0625
 45
0.0
 46
0.0
 47
0.0
 48
0.0
140
0.125
141
0.0
142
0.0
143
25.4
144
1.0
145
0.0
146
1.0
147
0.05
 71
     0
 72
     0
 73
     0
 74
     0
 75
     0
 76
     0
 77
     1
 78
     0
170
     0
171
     2
172
     1
173
     0
174
     0
175
     0
176
     0
177
     0
178
     0
  0
ENDTAB
  0
ENDSEC
  0
SECTION
  2
BLOCKS
  0
BLOCK
  8
0
  2
$MODEL_SPACE
 70
     0
 10
0.0
 20
0.0
 30
0.0
  3
$MODEL_SPACE
  1

  0
ENDBLK
  5
21
  8
0
  0
BLOCK
 67
     1
  8
0
  2
$PAPER_SPACE
 70
     0
 10
0.0
 20
0.0
 30
0.0
  3
$PAPER_SPACE
  1

  0
ENDBLK
  5
76
 67
     1
  8
0
  0
BLOCK
  8
0
  2
*D0
 70
     1
 10
0.0
 20
0.0
 30
0.0
  3
*D0
  1

  0
LINE
  5
6B6
  8
250
 62
     0
 10
125.2002032
 20
22.77213536893188
 30
0.0
 11
125.2002032
 21
79.59812374107172
 31
0.0
  0
LINE
  5
6B7
  8
250
 62
     0
 10
101.6002032000001
 20
60.96249991824999
 30
0.0
 11
101.6002032000001
 21
79.59812374107172
 31
0.0
  0
LINE
  5
6B8
  8
250
 62
     0
 10
122.2002032
 20
79.53562374107172
 30
0.0
 11
104.6002032000001
 21
79.53562374107172
 31
0.0
  0
SOLID
  5
6B9
  8
250
 62
     0
 10
122.2002032
 20
79.03562374107172
 30
0.0
 11
122.2002032
 21
80.03562374107172
 31
0.0
 12
125.2002032
 22
79.53562374107172
 32
0.0
 13
125.2002032
 23
79.53562374107172
 33
0.0
  0
SOLID
  5
6BA
  8
250
 62
     0
 10
104.6002032000001
 20
80.03562374107172
 30
0.0
 11
104.6002032000001
 21
79.03562374107172
 31
0.0
 12
101.6002032000001
 22
79.53562374107172
 32
0.0
 13
101.6002032000001
 23
79.53562374107172
 33
0.0
  0
TEXT
  5
6BB
  8
250
  6
CONTINUOUS
 62
     0
 10
108.3912746285715
 20
80.53562374107172
 30
0.0
 40
3.0
  1
23.6
  7
STYLE1
  0
POINT
  5
6BC
  8
DEFPOINTS
 62
     0
 10
125.2002032
 20
22.70963536893188
 30
0.0
  0
POINT
  5
6BD
  8
DEFPOINTS
 62
     0
 10
101.6002032000001
 20
60.89999991824999
 30
0.0
  0
POINT
  5
6BE
  8
DEFPOINTS
 62
     0
 10
101.6002032000001
 20
79.53562374107172
 30
0.0
  0
ENDBLK
  5
90B
  8
0
  0
BLOCK
  8
0
  2
*D1
 70
     1
 10
0.0
 20
0.0
 30
0.0
  3
*D1
  1

  0
LINE
  5
6BF
  8
250
 62
     0
 10
0.0
 20
34.98743014999934
 30
0.0
 11
0.0
 21
79.65334029215586
 31
0.0
  0
LINE
  5
6C0
  8
250
 62
     0
 10
101.6002032000001
 20
60.96249991824999
 30
0.0
 11
101.6002032000001
 21
79.65334029215586
 31
0.0
  0
LINE
  5
6C1
  8
250
 62
     0
 10
3.0
 20
79.59084029215586
 30
0.0
 11
98.60020320000005
 21
79.59084029215586
 31
0.0
  0
SOLID
  5
6C2
  8
250
 62
     0
 10
3.0
 20
80.09084029215586
 30
0.0
 11
3.0
 21
79.09084029215586
 31
0.0
 12
0.0
 22
79.59084029215586
 32
0.0
 13
0.0
 23
79.59084029215586
 33
0.0
  0
SOLID
  5
6C3
  8
250
 62
     0
 10
98.60020320000005
 20
79.09084029215586
 30
0.0
 11
98.60020320000005
 21
80.09084029215586
 31
0.0
 12
101.6002032000001
 22
79.59084029215586
 32
0.0
 13
101.6002032000001
 23
79.59084029215586
 33
0.0
  0
TEXT
  5
6C4
  8
250
  6
CONTINUOUS
 62
     0
 10
38.35947660000003
 20
80.59084029215586
 30
0.0
 40
3.0
  1
101.6
  7
STYLE1
  0
POINT
  5
6C5
  8
DEFPOINTS
 62
     0
 10
0.0
 20
34.92493014999934
 30
0.0
  0
POINT
  5
6C6
  8
DEFPOINTS
 62
     0
 10
101.6002032000001
 20
60.89999991824999
 30
0.0
  0
POINT
  5
6C7
  8
DEFPOINTS
 62
     0
 10
101.6002032000001
 20
79.59084029215586
 30
0.0
  0
ENDBLK
  5
90D
  8
0
  0
BLOCK
  8
0
  2
*D2
 70
     1
 10
0.0
 20
0.0
 30
0.0
  3
*D2
  1

  0
LINE
  5
6AD
  8
250
 62
     0
 10
123.2627032
 20
25.39999991824999
 30
0.0
 11
152.957876879146
 21
25.39999991824999
 31
0.0
  0
LINE
  5
6AE
  8
250
 62
     0
 10
123.2627032
 20
-25.40000008175008
 30
0.0
 11
152.957876879146
 21
-25.40000008175008
 31
0.0
  0
LINE
  5
6AF
  8
250
 62
     0
 10
152.895376879146
 20
22.39999991824999
 30
0.0
 11
152.895376879146
 21
-22.40000008175008
 31
0.0
  0
SOLID
  5
6B0
  8
250
 62
     0
 10
153.395376879146
 20
22.39999991824999
 30
0.0
 11
152.395376879146
 21
22.39999991824999
 31
0.0
 12
152.895376879146
 22
25.39999991824999
 32
0.0
 13
152.895376879146
 23
25.39999991824999
 33
0.0
  0
SOLID
  5
6B1
  8
250
 62
     0
 10
152.395376879146
 20
-22.40000008175008
 30
0.0
 11
153.395376879146
 21
-22.40000008175008
 31
0.0
 12
152.895376879146
 22
-25.40000008175008
 32
0.0
 13
152.895376879146
 23
-25.40000008175008
 33
0.0
  0
INSERT
  5
6B2
  8
250
 62
     0
  2
*X5
 10
0.0
 20
0.0
 30
0.0
  0
POINT
  5
6B3
  8
DEFPOINTS
 62
     0
 10
123.2002032
 20
25.39999991824999
 30
0.0
  0
POINT
  5
6B4
  8
DEFPOINTS
 62
     0
 10
123.2002032
 20
-25.40000008175008
 30
0.0
  0
POINT
  5
6B5
  8
DEFPOINTS
 62
     0
 10
152.895376879146
 20
-25.40000008175008
 30
0.0
  0
ENDBLK
  5
911
  8
0
  0
BLOCK
  8
0
  2
*D3
 70
     1
 10
0.0
 20
0.0
 30
0.0
  3
*D3
  1

  0
LINE
  5
C38
  8
250
 62
     0
 10
100.6627032
 20
61.89999991824999
 30
0.0
 11
177.910550558292
 21
61.89999991824998
 31
0.0
  0
LINE
  5
C39
  8
250
 62
     0
 10
100.6627032
 20
-61.90000008175002
 30
0.0
 11
177.910550558292
 21
-61.90000008175003
 31
0.0
  0
LINE
  5
C3A
  8
250
 62
     0
 10
177.848050558292
 20
58.89999991824998
 30
0.0
 11
177.848050558292
 21
-58.90000008175003
 31
0.0
  0
SOLID
  5
C3B
  8
250
 62
     0
 10
178.348050558292
 20
58.89999991824998
 30
0.0
 11
177.348050558292
 21
58.89999991824998
 31
0.0
 12
177.848050558292
 22
61.89999991824998
 32
0.0
 13
177.848050558292
 23
61.89999991824998
 33
0.0
  0
SOLID
  5
C3C
  8
250
 62
     0
 10
177.348050558292
 20
-58.90000008175003
 30
0.0
 11
178.348050558292
 21
-58.90000008175003
 31
0.0
 12
177.848050558292
 22
-61.90000008175003
 32
0.0
 13
177.848050558292
 23
-61.90000008175003
 33
0.0
  0
INSERT
  5
C3D
  8
250
 62
     0
  2
*X6
 10
0.0
 20
0.0
 30
0.0
  0
POINT
  5
C3E
  8
DEFPOINTS
 62
     0
 10
100.6002032
 20
61.89999991824999
 30
0.0
  0
POINT
  5
C3F
  8
DEFPOINTS
 62
     0
 10
100.6002032
 20
-61.90000008175002
 30
0.0
  0
POINT
  5
C40
  8
DEFPOINTS
 62
     0
 10
177.848050558292
 20
-61.90000008175003
 30
0.0
  0
ENDBLK
  5
C41
  8
0
  0
BLOCK
  8
0
  2
*D4
 70
     1
 10
0.0
 20
0.0
 30
0.0
  3
*D4
  1

  0
LINE
  5
C48
  8
250
 62
     0
 10
111.2522032
 20
-50.86250008175
 30
0.0
 11
111.2522032
 21
-72.10011569592974
 31
0.0
  0
LINE
  5
C49
  8
250
 62
     0
 10
101.6002032000001
 20
-60.96250008175002
 30
0.0
 11
101.6002032000001
 21
-72.10011569592974
 31
0.0
  0
LINE
  5
C4A
  8
250
 62
     0
 10
111.2522032
 20
-72.03761569592974
 30
0.0
 11
123.3427652194348
 21
-72.03761569592974
 31
0.0
  0
LINE
  5
C4B
  8
250
 62
     0
 10
108.2522032
 20
-72.03761569592974
 30
0.0
 11
104.6002032000001
 21
-72.03761569592974
 31
0.0
  0
SOLID
  5
C4C
  8
250
 62
     0
 10
108.2522032
 20
-72.53761569592974
 30
0.0
 11
108.2522032
 21
-71.53761569592974
 31
0.0
 12
111.2522032
 22
-72.03761569592974
 32
0.0
 13
111.2522032
 23
-72.03761569592974
 33
0.0
  0
SOLID
  5
C4D
  8
250
 62
     0
 10
104.6002032000001
 20
-71.53761569592974
 30
0.0
 11
104.6002032000001
 21
-72.53761569592974
 31
0.0
 12
101.6002032000001
 22
-72.03761569592974
 32
0.0
 13
101.6002032000001
 23
-72.03761569592974
 33
0.0
  0
TEXT
  5
C4E
  8
250
  6
CONTINUOUS
 62
     0
 10
115.6195509337206
 20
-71.03761569592974
 30
0.0
 40
3.0
  1
9.7
  7
STYLE1
  0
POINT
  5
C4F
  8
DEFPOINTS
 62
     0
 10
111.2522032
 20
-50.80000008175
 30
0.0
  0
POINT
  5
C50
  8
DEFPOINTS
 62
     0
 10
101.6002032000001
 20
-60.90000008175002
 30
0.0
  0
POINT
  5
C52
  8
DEFPOINTS
 62
     0
 10
101.6002032000001
 20
-72.03761569592974
 30
0.0
  0
ENDBLK
  5
C51
  8
0
  0
BLOCK
  8
0
  2
*X5
 70
     1
 10
0.0
 20
0.0
 30
0.0
  3
*X5
  1

  0
TEXT
  5
10E5
  8
250
  6
CONTINUOUS
 62
     0
 10
151.895376879146
 20
-6.437500081750045
 30
0.0
 40
3.0
  1
ø
 50
90.0
  7
STYLE1
  0
TEXT
  5
10E6
  8
250
  6
CONTINUOUS
 62
     0
 10
151.895376879146
 20
-3.580357224607184
 30
0.0
 40
3.0
  1
50.8
 50
90.0
  7
STYLE1
  0
ENDBLK
  5
10EB
  8
0
  0
BLOCK
  8
0
  2
*X6
 70
     1
 10
0.0
 20
0.0
 30
0.0
  3
*X6
  1

  0
TEXT
  5
10E8
  8
250
  6
CONTINUOUS
 62
     0
 10
176.848050558292
 20
-7.866071510321433
 30
0.0
 40
3.0
  1
ø
 50
90.0
  7
STYLE1
  0
TEXT
  5
10E9
  8
250
  6
CONTINUOUS
 62
     0
 10
176.848050558292
 20
-5.008928653178572
 30
0.0
 40
3.0
  1
123.8
 50
90.0
  7
STYLE1
  0
ENDBLK
  5
10ED
  8
0
  0
ENDSEC
  0
SECTION
  2
ENTITIES
  0
LINE
  5
5EF
  8
245
 10
-103.1872936249994
 20
0.0
 30
0.0
 11
137.9584424384093
 21
0.0
 31
0.0
  0
LINE
  5
5F0
  8
240
 10
0.0
 20
34.92493014999934
 30
0.0
 11
1.5
 21
34.92493014999934
 31
0.0
  0
LINE
  5
5F1
  8
240
 10
9.216371567220095
 20
45.64370871240013
 30
0.0
 11
13.05176389641919
 21
45.64370871240013
 31
0.0
  0
LINE
  5
5F5
  8
240
 10
0.0
 20
0.0
 30
0.0
 11
0.0
 21
34.92493014999934
 31
0.0
  0
LINE
  5
5F6
  8
240
 10
-101.5997967999994
 20
-17.4725574493732
 30
0.0
 11
-101.5997968000005
 21
17.47255744937464
 31
0.0
  0
LINE
  5
5F8
  8
240
 10
0.0
 20
34.92493014999934
 30
0.0
 11
-98.99164942634327
 21
20.48864794346751
 31
0.0
  0
ARC
  5
5F9
  8
240
 10
-98.55180289599939
 20
17.47255744937464
 30
0.0
 40
3.047993904
 50
98.29714496899925
 51
180.0
  0
LINE
  5
5FD
  8
240
 10
13.05176389641919
 20
46.42653098043366
 30
0.0
 11
14.66018703411996
 21
49.21240157499987
 31
0.0
  0
LINE
  5
5FE
  8
240
 10
9.216371567220095
 20
46.42653098042792
 30
0.0
 11
7.607948429516433
 21
49.21240157499987
 31
0.0
  0
LINE
  5
5FF
  8
240
 10
14.66018703411996
 20
49.21240157499987
 30
0.0
 11
18.28796342400056
 21
49.21240157499987
 31
0.0
  0
LINE
  5
600
  8
240
 10
2.261998475999548
 20
49.21240157499987
 30
0.0
 11
7.607948429516433
 21
49.21240157499987
 31
0.0
  0
LINE
  5
601
  8
240
 10
13.05176389641919
 20
46.42653098043366
 30
0.0
 11
13.05176389641919
 21
45.64370871240013
 31
0.0
  0
LINE
  5
602
  8
240
 10
9.216371567220095
 20
46.42653098042792
 30
0.0
 11
9.216371567220095
 21
45.64370871240013
 31
0.0
  0
LINE
  5
603
  8
240
 10
18.28796342400056
 20
49.21240157499987
 30
0.0
 11
19.0499619000001
 21
48.45040309900033
 31
0.0
  0
LINE
  5
604
  8
240
 10
1.5
 20
48.45040309900033
 30
0.0
 11
2.261998475999542
 21
49.21240157499987
 31
0.0
  0
LINE
  5
605
  8
240
 10
9.216371567220095
 20
45.64370871240013
 30
0.0
 11
9.216371567220095
 21
0.0
 31
0.0
  0
LINE
  5
606
  8
240
 10
13.05176389641919
 20
45.64370871240013
 30
0.0
 11
13.05176389641919
 21
0.0
 31
0.0
  0
LINE
  5
607
  8
240
 10
13.05176389641919
 20
-45.64370871240013
 30
0.0
 11
13.05176389641919
 21
0.0
 31
0.0
  0
LINE
  5
608
  8
240
 10
9.216371567220095
 20
-45.64370871240013
 30
0.0
 11
9.216371567220095
 21
0.0
 31
0.0
  0
LINE
  5
609
  8
240
 10
1.5
 20
-48.45040309900034
 30
0.0
 11
2.261998475999542
 21
-49.21240157499988
 31
0.0
  0
LINE
  5
60A
  8
240
 10
18.28796342400056
 20
-49.21240157499987
 30
0.0
 11
19.0499619000001
 21
-48.45040309900033
 31
0.0
  0
LINE
  5
60B
  8
240
 10
9.216371567220095
 20
-46.42653098042792
 30
0.0
 11
9.216371567220095
 21
-45.64370871240013
 31
0.0
  0
LINE
  5
60C
  8
240
 10
13.05176389641919
 20
-46.42653098043366
 30
0.0
 11
13.05176389641919
 21
-45.64370871240013
 31
0.0
  0
LINE
  5
60D
  8
240
 10
2.261998475999535
 20
-49.21240157499987
 30
0.0
 11
7.607948429516433
 21
-49.21240157499987
 31
0.0
  0
LINE
  5
60E
  8
240
 10
14.66018703411996
 20
-49.21240157499987
 30
0.0
 11
18.28796342400056
 21
-49.21240157499987
 31
0.0
  0
LINE
  5
60F
  8
240
 10
9.216371567220095
 20
-46.42653098042792
 30
0.0
 11
7.607948429516433
 21
-49.21240157499987
 31
0.0
  0
LINE
  5
610
  8
240
 10
13.05176389641919
 20
-46.42653098043366
 30
0.0
 11
14.66018703411996
 21
-49.21240157499987
 31
0.0
  0
ARC
  5
614
  8
240
 10
-98.55180289599939
 20
-17.4725574493732
 30
0.0
 40
3.047993904
 50
180.0
 51
261.7028550310008
  0
LINE
  5
615
  8
240
 10
0.0
 20
-34.92493014999934
 30
0.0
 11
-98.99164942634327
 21
-20.48864794346751
 31
0.0
  0
LINE
  5
618
  8
240
 10
0.0
 20
0.0
 30
0.0
 11
0.0
 21
-34.92493014999934
 31
0.0
  0
LINE
  5
61C
  8
240
 10
9.216371567220095
 20
-45.64370871240013
 30
0.0
 11
13.05176389641919
 21
-45.64370871240013
 31
0.0
  0
LINE
  5
61D
  8
240
 10
0.0
 20
-34.92493014999934
 30
0.0
 11
1.5
 21
-34.92493014999934
 31
0.0
  0
LINE
  5
620
  8
240
 10
19.0499619000001
 20
0.0
 30
0.0
 11
19.0499619000001
 21
48.45040309900033
 31
0.0
  0
LINE
  5
621
  8
240
 10
19.0499619000001
 20
0.0
 30
0.0
 11
19.0499619000001
 21
-48.45040309900033
 31
0.0
  0
LINE
  5
624
  8
240
 10
1.5
 20
-0.0000000000000071
 30
0.0
 11
1.5
 21
48.45040309900033
 31
0.0
  0
LINE
  5
625
  8
240
 10
1.5
 20
-0.0000000000000071
 30
0.0
 11
1.5
 21
-48.45040309900034
 31
0.0
  0
LINE
  5
628
  8
240
 10
7.607948429516433
 20
-49.21240157499987
 30
0.0
 11
7.607948429516433
 21
0.0
 31
0.0
  0
LINE
  5
629
  8
240
 10
7.607948429516433
 20
0.0
 30
0.0
 11
7.607948429516433
 21
49.21240157499987
 31
0.0
  0
LINE
  5
62A
  8
240
 10
14.66018703411996
 20
-49.21240157499987
 30
0.0
 11
14.66018703411996
 21
0.0
 31
0.0
  0
LINE
  5
62B
  8
240
 10
14.66018703411996
 20
0.0
 30
0.0
 11
14.66018703411996
 21
49.21240157499987
 31
0.0
  0
LINE
  5
632
  8
243
 10
1.5
 20
-35.2999294
 30
0.0
 11
19.04996190000006
 21
-35.2999294
 31
0.0
  0
LINE
  5
633
  8
243
 10
20.62495875000007
 20
28.32494334999997
 30
0.0
 11
26.97494605000005
 21
24.65877647299432
 31
0.0
  0
LINE
  5
634
  8
243
 10
33.32493335000002
 20
28.32494334999997
 30
0.0
 11
26.97494605000005
 21
24.65877647299432
 31
0.0
  0
LINE
  5
635
  8
243
 10
33.32492010872383
 20
37.71999218592809
 30
0.0
 11
33.32493335000002
 21
28.32494334999997
 31
0.0
  0
LINE
  5
636
  8
243
 10
20.62495875000007
 20
28.32494334999997
 30
0.0
 11
33.32493335000002
 21
28.32494334999997
 31
0.0
  0
LINE
  5
637
  8
243
 10
20.6249455090089
 20
37.71993202129878
 30
0.0
 11
20.62495875000007
 21
28.32494334999997
 31
0.0
  0
LINE
  5
638
  8
243
 10
15.88405823181989
 20
37.71992456
 30
0.0
 11
15.88405823181989
 21
37.35675021959113
 31
0.0
  0
LINE
  5
639
  8
243
 10
6.384077231819894
 20
37.35675021959113
 30
0.0
 11
15.88405823181989
 21
37.35675021959113
 31
0.0
  0
LINE
  5
63A
  8
243
 10
6.384077231819894
 20
37.71992456
 30
0.0
 11
6.384077231819894
 21
37.35675021959113
 31
0.0
  0
LINE
  5
63B
  8
243
 10
1.5
 20
37.71992456
 30
0.0
 11
19.04996190000006
 21
37.71992456
 31
0.0
  0
LINE
  5
63C
  8
243
 10
6.384077231819894
 20
37.35675021959113
 30
0.0
 11
11.13406773181989
 21
34.61434192576791
 31
0.0
  0
LINE
  5
63D
  8
243
 10
15.88405823181989
 20
37.35675021959113
 30
0.0
 11
11.13406773181989
 21
34.61434192576791
 31
0.0
  0
DIMENSION
  5
63E
  8
250
  2
*D0
 10
101.6002032000001
 20
79.53562374107172
 30
0.0
 11
113.4002032
 21
82.03562374107172
 31
0.0
 70
    32
  3
STANDARD
 13
125.2002032
 23
22.70963536893188
 33
0.0
 14
101.6002032000001
 24
60.89999991824999
 34
0.0
1001
ACAD
1000
DSTYLE
1002
{
1070
   271
1070
     1
1070
   147
1040
1.0
1070
   140
1040
3.0
1070
    41
1040
3.0
1002
}
  0
DIMENSION
  5
64C
  8
250
  2
*D1
 10
101.6002032000001
 20
79.59084029215586
 30
0.0
 11
45.00010160000003
 21
79.59084029215586
 31
0.0
 70
   160
  3
STANDARD
 13
0.0
 23
34.92493014999934
 33
0.0
 14
101.6002032000001
 24
60.89999991824999
 34
0.0
1001
ACAD
1000
DSTYLE
1002
{
1070
   271
1070
     1
1070
   147
1040
1.0
1070
   140
1040
3.0
1070
    41
1040
3.0
1002
}
  0
DIMENSION
  5
666
  8
250
  2
*D2
 10
152.895376879146
 20
-25.40000008175008
 30
0.0
 11
150.395376879146
 21
-0.0000000817500485
 31
0.0
 70
    32
  1
%%C<>
  3
STANDARD
 13
123.2002032
 23
25.39999991824999
 33
0.0
 14
123.2002032
 24
-25.40000008175008
 34
0.0
 50
90.0
1001
ACAD
1000
DSTYLE
1002
{
1070
   271
1070
     1
1070
   147
1040
1.0
1070
   140
1040
3.0
1070
    41
1040
3.0
1002
}
  0
LINE
  5
878
  8
250
 10
-40.98454985924917
 20
42.63660592051905
 30
0.0
 11
-40.98454985924917
 21
43.79824181488539
 31
0.0
  0
LINE
  5
879
  8
250
 10
-45.20933583194427
 20
40.91207332203489
 30
0.0
 11
-47.47113307447266
 21
45.76251316142563
 31
0.0
  0
LINE
  5
87A
  8
250
 10
-46.53307402097406
 20
40.67233457397865
 30
0.0
 11
-48.79487126350153
 21
45.52277441336956
 31
0.0
  0
LINE
  5
87B
  8
250
 10
-40.14817201530553
 20
38.84967290488464
 30
0.0
 11
-40.14817201530553
 21
47.58517483051983
 31
0.0
  0
LINE
  5
87C
  8
250
 10
-44.33006123502429
 20
38.84967290488464
 30
0.0
 11
-44.33006123502429
 21
47.58517483051983
 31
0.0
  0
LINE
  5
87D
  8
250
 10
-51.20694572967301
 20
38.84967290488464
 30
0.0
 11
-51.20694572967301
 21
47.58517483051983
 31
0.0
  0
LINE
  5
87E
  8
250
 10
-49.90591352798267
 20
47.58517483051983
 30
0.0
 11
-49.90591352798267
 21
38.84967290488464
 31
0.0
  0
ARC
  5
87F
  8
250
 10
-37.03498781840312
 20
42.05578797333592
 30
0.0
 40
1.161635894366379
 50
0.0
 51
90.0
  0
LINE
  5
880
  8
250
 10
-68.68813234599291
 20
42.63660592051905
 30
0.0
 11
-68.68813234599291
 21
43.79824181488539
 31
0.0
  0
LINE
  5
881
  8
250
 10
-69.87940231861221
 20
42.63660592051905
 30
0.0
 11
-69.87940231861221
 21
45.11089037551955
 31
0.0
  0
LINE
  5
882
  8
250
 10
-57.99044412707373
 20
38.84967290488446
 30
0.0
 11
-59.86904592943599
 21
43.55650026447135
 31
0.0
  0
LINE
  5
883
  8
250
 10
-66.17196593635505
 20
41.32395735988511
 30
0.0
 11
-66.17196593635505
 21
43.79824181488539
 31
0.0
  0
LINE
  5
884
  8
250
 10
-71.27336539185181
 20
41.32395735988511
 30
0.0
 11
-71.27336539185181
 21
45.11089037551955
 31
0.0
  0
LINE
  5
885
  8
250
 10
-63.05680635137855
 20
47.58517483051983
 30
0.0
 11
-63.05680635137855
 21
38.84967290488464
 31
0.0
  0
LINE
  5
886
  8
250
 10
-73.54938979356538
 20
38.84967290488464
 30
0.0
 11
-73.54938979356538
 21
47.58517483051983
 31
0.0
  0
LINE
  5
887
  8
250
 10
-72.24835759187502
 20
47.58517483051983
 30
0.0
 11
-72.24835759187502
 21
38.84967290488464
 31
0.0
  0
LINE
  5
888
  8
250
 10
-79.62578144908575
 20
38.84967290488464
 30
0.0
 11
-79.62578144908575
 21
47.58517483051983
 31
0.0
  0
ARC
  5
889
  8
250
 10
-77.14562722529614
 20
41.32395735988511
 30
0.0
 40
2.621245231707499
 50
289.2767926682573
 51
46.2491597278179
  0
LINE
  5
88A
  8
250
 10
-56.16511479060268
 20
40.01130879925095
 30
0.0
 11
-55.14353049594484
 21
45.26690438498572
 31
0.0
  0
LINE
  5
88B
  8
250
 10
-57.57429181390515
 20
38.84967290488446
 30
0.0
 11
-55.87628224912718
 21
47.58517483051983
 31
0.0
  0
LINE
  5
88C
  8
250
 10
-53.11519181497703
 20
38.84967290488446
 30
0.0
 11
-55.14353049594484
 21
45.26690438498572
 31
0.0
  0
LINE
  5
88D
  8
250
 10
-54.06189942819167
 20
47.58517483051983
 30
0.0
 11
-51.7212287417371
 21
38.84967290488446
 31
0.0
  0
LINE
  5
88E
  8
250
 10
-59.57026894341178
 20
38.84967290488464
 30
0.0
 11
-57.99044412707373
 21
38.84967290488464
 31
0.0
  0
ARC
  5
88F
  8
250
 10
-68.6521201601443
 20
41.32395735988511
 30
0.0
 40
2.621245231707555
 50
180.0
 51
250.7232073317391
  0
LINE
  5
890
  8
250
 10
-76.63891576778735
 20
42.63660592051905
 30
0.0
 11
-78.23181837584617
 21
42.63660592051905
 31
0.0
  0
LINE
  5
891
  8
250
 10
-73.54938979356538
 20
38.84967290488464
 30
0.0
 11
-72.24835759187502
 21
38.84967290488464
 31
0.0
  0
LINE
  5
892
  8
250
 10
-77.86009488964886
 20
38.84967290488464
 30
0.0
 11
-76.28027007331079
 21
38.84967290488464
 31
0.0
  0
LINE
  5
893
  8
250
 10
-79.62578144908575
 20
38.84967290488464
 30
0.0
 11
-76.28027007331079
 21
38.84967290488464
 31
0.0
  0
LINE
  5
894
  8
250
 10
-78.23181837584617
 20
40.01130879925095
 30
0.0
 11
-76.63891576778735
 21
40.01130879925095
 31
0.0
  0
LINE
  5
895
  8
250
 10
-78.23181837584617
 20
40.01130879925095
 30
0.0
 11
-78.23181837584617
 21
42.63660592051905
 31
0.0
  0
ARC
  5
896
  8
250
 10
-77.3351335551783
 20
41.32395735988511
 30
0.0
 40
1.485855124571082
 50
297.941104069763
 51
62.05889593023716
  0
LINE
  5
897
  8
250
 10
-67.49686237337359
 20
42.63660592051905
 30
0.0
 11
-68.68813234599291
 21
42.63660592051905
 31
0.0
  0
LINE
  5
898
  8
250
 10
-59.57026894341178
 20
38.84967290488464
 30
0.0
 11
-60.72028066468059
 21
41.73102148376161
 31
0.0
  0
LINE
  5
899
  8
250
 10
-61.4769815350405
 20
40.10827123052004
 30
0.0
 11
-60.72028066468059
 21
41.73102148376161
 31
0.0
  0
LINE
  5
89A
  8
250
 10
-61.4769815350405
 20
38.84967290488464
 30
0.0
 11
-61.4769815350405
 21
40.10827123052004
 31
0.0
  0
LINE
  5
89B
  8
250
 10
-63.05680635137855
 20
38.84967290488464
 30
0.0
 11
-61.4769815350405
 21
38.84967290488464
 31
0.0
  0
ARC
  5
89C
  8
250
 10
-68.7932111680622
 20
41.32395735988511
 30
0.0
 40
2.621245231707499
 50
289.2767926682571
 51
0.0
  0
LINE
  5
89D
  8
250
 10
-69.50767883241491
 20
38.84967290488464
 30
0.0
 11
-67.92785401607651
 21
38.84967290488464
 31
0.0
  0
LINE
  5
89E
  8
250
 10
-69.51747731213032
 20
38.84967290488464
 30
0.0
 11
-67.92785401607651
 21
38.84967290488464
 31
0.0
  0
ARC
  5
89F
  8
250
 10
-68.39354719404146
 20
41.32395735988511
 30
0.0
 40
1.485855124571082
 50
180.0
 51
242.058895930237
  0
ARC
  5
8A0
  8
250
 10
-68.98271749794475
 20
41.32395735988511
 30
0.0
 40
1.485855124571082
 50
297.941104069763
 51
0.0
  0
LINE
  5
8A1
  8
250
 10
-69.08976498143238
 20
40.01130879925095
 30
0.0
 11
-68.28649971055378
 21
40.01130879925095
 31
0.0
  0
LINE
  5
8A2
  8
250
 10
-67.49686237337359
 20
41.32395735988511
 30
0.0
 11
-67.49686237337359
 21
42.63660592051905
 31
0.0
  0
LINE
  5
8A3
  8
250
 10
-69.87940231861221
 20
41.32395735988511
 30
0.0
 11
-69.87940231861221
 21
42.63660592051905
 31
0.0
  0
LINE
  5
8A4
  8
250
 10
-37.2091951882445
 20
38.84967290488464
 30
0.0
 11
-35.7287906286804
 21
38.84967290488464
 31
0.0
  0
LINE
  5
8A5
  8
250
 10
-48.97660481248997
 20
38.84967290488464
 30
0.0
 11
-46.52322980358765
 21
38.84967290488464
 31
0.0
  0
LINE
  5
8A6
  8
250
 10
-48.97660481248997
 20
40.01130879925095
 30
0.0
 11
-46.95419388367961
 21
40.01130879925095
 31
0.0
  0
LINE
  5
8A7
  8
250
 10
-48.97660481248997
 20
40.01130879925095
 30
0.0
 11
-48.97660481248997
 21
38.84967290488464
 31
0.0
  0
LINE
  5
8A8
  8
250
 10
-51.20694572967338
 20
38.84967290488464
 30
0.0
 11
-49.90591352798267
 21
38.84967290488464
 31
0.0
  0
LINE
  5
8A9
  8
250
 10
-54.22878043813056
 20
38.84967290488446
 30
0.0
 11
-54.54003983792504
 21
40.01130879925095
 31
0.0
  0
LINE
  5
8AA
  8
250
 10
-57.57429181390515
 20
38.84967290488446
 30
0.0
 11
-54.22878043813056
 21
38.84967290488446
 31
0.0
  0
LINE
  5
8AB
  8
250
 10
-56.16511479060268
 20
40.01130879925095
 30
0.0
 11
-54.54003983792504
 21
40.01130879925095
 31
0.0
  0
LINE
  5
8AC
  8
250
 10
-51.7212287417371
 20
38.84967290488446
 30
0.0
 11
-53.11519181497703
 21
38.84967290488446
 31
0.0
  0
LINE
  5
8AD
  8
250
 10
-38.10369284122039
 20
42.63660592051905
 30
0.0
 11
-38.75420894206575
 21
42.63660592051905
 31
0.0
  0
LINE
  5
8AE
  8
250
 10
-40.98454985924917
 20
42.63660592051905
 30
0.0
 11
-42.93609816178489
 21
42.63660592051905
 31
0.0
  0
LINE
  5
8AF
  8
250
 10
-37.26731499727656
 20
41.80022807657542
 30
0.0
 11
-37.26731499727656
 21
39.31083130293981
 31
0.0
  0
LINE
  5
8B0
  8
250
 10
-40.98454985924917
 20
38.84967290488464
 30
0.0
 11
-40.98454985924917
 21
40.01130879925095
 31
0.0
  0
LINE
  5
8B1
  8
250
 10
-40.14817201530553
 20
38.84967290488464
 30
0.0
 11
-38.75420894206575
 21
38.84967290488464
 31
0.0
  0
ARC
  5
8B2
  8
250
 10
-35.40869756629029
 20
39.31083130293981
 30
0.0
 40
1.858617430986207
 50
180.0
 51
194.3662353416887
  0
ARC
  5
8B3
  8
250
 10
-46.52322980358765
 20
40.29939450105415
 30
0.0
 40
1.449721596169241
 50
270.0
 51
24.99999999999852
  0
ARC
  5
8B4
  8
250
 10
-46.95419388367961
 20
40.47596315699766
 30
0.0
 40
0.4646543577465531
 50
270.0
 51
24.99999999999865
  0
LINE
  5
8B5
  8
250
 10
-44.33006123502429
 20
38.84967290488464
 30
0.0
 11
-40.98454985924917
 21
38.84967290488464
 31
0.0
  0
LINE
  5
8B6
  8
250
 10
-42.93609816178489
 20
40.01130879925095
 30
0.0
 11
-40.98454985924917
 21
40.01130879925095
 31
0.0
  0
LINE
  5
8B7
  8
250
 10
-42.93609816178489
 20
40.01130879925095
 30
0.0
 11
-42.93609816178489
 21
42.63660592051905
 31
0.0
  0
LINE
  5
8B8
  8
250
 10
-38.75420894206575
 20
38.84967290488464
 30
0.0
 11
-38.75420894206575
 21
42.63660592051905
 31
0.0
  0
ARC
  5
8B9
  8
250
 10
-38.10369284122039
 20
41.80022807657542
 30
0.0
 40
0.8363778439437937
 50
0.0
 51
90.0
  0
LINE
  5
8BA
  8
250
 10
-35.87335192403734
 20
39.39878400836511
 30
0.0
 11
-35.87335192403734
 21
42.05578797333592
 31
0.0
  0
ARC
  5
8BB
  8
250
 10
-34.75818146544563
 20
39.39878400836511
 30
0.0
 40
1.115170458591724
 50
180.0
 51
209.498518089503
  0
LINE
  5
8BC
  8
250
 10
-59.57026894341178
 20
47.58517483051983
 30
0.0
 11
-57.99044412707373
 21
47.58517483051983
 31
0.0
  0
LINE
  5
8BD
  8
250
 10
-59.86904592943599
 20
43.55650026447135
 30
0.0
 11
-57.99044412707373
 21
47.58517483051983
 31
0.0
  0
ARC
  5
8BE
  8
250
 10
-68.6521201601443
 20
45.11089037551955
 30
0.0
 40
2.621245231707555
 50
109.2767926682606
 51
180.0
  0
LINE
  5
8BF
  8
250
 10
-73.54938979356538
 20
47.58517483051983
 30
0.0
 11
-72.24835759187502
 21
47.58517483051983
 31
0.0
  0
ARC
  5
8C0
  8
250
 10
-77.3351335551783
 20
45.11089037551955
 30
0.0
 40
1.485855124571082
 50
297.9411040697628
 51
62.05889593023716
  0
LINE
  5
8C1
  8
250
 10
-78.23181837584617
 20
43.79824181488539
 30
0.0
 11
-78.23181837584617
 21
46.4235389361535
 31
0.0
  0
LINE
  5
8C2
  8
250
 10
-76.63891576778735
 20
43.79824181488539
 30
0.0
 11
-78.23181837584617
 21
43.79824181488539
 31
0.0
  0
LINE
  5
8C3
  8
250
 10
-78.23181837584617
 20
46.4235389361535
 30
0.0
 11
-76.63891576778735
 21
46.4235389361535
 31
0.0
  0
LINE
  5
8C4
  8
250
 10
-77.86009488964886
 20
47.58517483051983
 30
0.0
 11
-76.28027007331079
 21
47.58517483051983
 31
0.0
  0
LINE
  5
8C5
  8
250
 10
-79.62578144908575
 20
47.58517483051983
 30
0.0
 11
-76.28027007331079
 21
47.58517483051983
 31
0.0
  0
ARC
  5
8C6
  8
250
 10
-77.14562722529614
 20
45.11089037551955
 30
0.0
 40
2.621245231707555
 50
313.7508402721821
 51
70.72320733173908
  0
LINE
  5
8C7
  8
250
 10
-61.4769815350405
 20
43.49621648235012
 30
0.0
 11
-59.57026894341178
 21
47.58517483051983
 31
0.0
  0
LINE
  5
8C8
  8
250
 10
-61.4769815350405
 20
47.58517483051983
 30
0.0
 11
-61.4769815350405
 21
43.49621648235012
 31
0.0
  0
LINE
  5
8C9
  8
250
 10
-63.05680635137855
 20
47.58517483051983
 30
0.0
 11
-61.4769815350405
 21
47.58517483051983
 31
0.0
  0
ARC
  5
8CA
  8
250
 10
-68.98271749794475
 20
45.11089037551955
 30
0.0
 40
1.485855124571082
 50
0.0
 51
62.05889593023716
  0
ARC
  5
8CB
  8
250
 10
-68.39354719404146
 20
45.11089037551955
 30
0.0
 40
1.485855124571082
 50
117.9411040697629
 51
180.0
  0
ARC
  5
8CC
  8
250
 10
-68.79321116806256
 20
45.11089037551955
 30
0.0
 40
2.621245231707555
 50
0.0
 51
70.72320733173908
  0
LINE
  5
8CD
  8
250
 10
-66.17196593635505
 20
43.79824181488539
 30
0.0
 11
-68.68813234599291
 21
43.79824181488539
 31
0.0
  0
LINE
  5
8CE
  8
250
 10
-67.49686237337359
 20
45.11089037551955
 30
0.0
 11
-66.17196593635505
 21
45.11089037551955
 31
0.0
  0
LINE
  5
8CF
  8
250
 10
-69.08976498143238
 20
46.4235389361535
 30
0.0
 11
-68.28649971055378
 21
46.4235389361535
 31
0.0
  0
LINE
  5
8D0
  8
250
 10
-69.50767883241491
 20
47.58517483051983
 30
0.0
 11
-67.92785401607651
 21
47.58517483051983
 31
0.0
  0
LINE
  5
8D1
  8
250
 10
-69.51747731213032
 20
47.58517483051983
 30
0.0
 11
-67.92785401607651
 21
47.58517483051983
 31
0.0
  0
ARC
  5
8D2
  8
250
 10
-37.03498781840312
 20
44.37905976206874
 30
0.0
 40
1.161635894366379
 50
270.0
 51
0.0
  0
ARC
  5
8D3
  8
250
 10
-37.32307352020592
 20
46.13545323435071
 30
0.0
 40
1.449721596169241
 50
0.0
 51
90.0
  0
ARC
  5
8D4
  8
250
 10
-47.05001321176635
 20
45.95888457840697
 30
0.0
 40
0.4646543577465531
 50
90.0
 51
204.9999999999986
  0
LINE
  5
8D5
  8
250
 10
-45.44523169361602
 20
47.58517483051983
 30
0.0
 11
-47.48097729185795
 21
47.58517483051983
 31
0.0
  0
ARC
  5
8D6
  8
250
 10
-47.48097729185795
 20
46.13545323435071
 30
0.0
 40
1.449721596169241
 50
90.0
 51
204.9999999999984
  0
LINE
  5
8D7
  8
250
 10
-51.20694572967301
 20
47.58517483051983
 30
0.0
 11
-49.90591352798267
 21
47.58517483051983
 31
0.0
  0
LINE
  5
8D8
  8
250
 10
-55.87628224912718
 20
47.58517483051983
 30
0.0
 11
-54.06189942819167
 21
47.58517483051983
 31
0.0
  0
LINE
  5
8D9
  8
250
 10
-38.75420894206575
 20
43.79824181488539
 30
0.0
 11
-38.75420894206575
 21
46.4235389361535
 31
0.0
  0
LINE
  5
8DA
  8
250
 10
-37.26731499727656
 20
44.35582704418134
 30
0.0
 11
-37.26731499727656
 21
45.86595370685738
 31
0.0
  0
ARC
  5
8DB
  8
250
 10
-37.82490022657232
 20
44.35582704418134
 30
0.0
 40
0.5575852292958633
 50
270.0
 51
0.0
  0
LINE
  5
8DC
  8
250
 10
-37.82490022657232
 20
43.79824181488539
 30
0.0
 11
-38.75420894206575
 21
43.79824181488539
 31
0.0
  0
LINE
  5
8DD
  8
250
 10
-40.98454985924917
 20
46.4235389361535
 30
0.0
 11
-40.98454985924917
 21
47.58517483051983
 31
0.0
  0
ARC
  5
8DE
  8
250
 10
-37.82490022657232
 20
45.86595370685738
 30
0.0
 40
0.5575852292958633
 50
0.0
 51
90.0
  0
LINE
  5
8DF
  8
250
 10
-38.75420894206575
 20
46.4235389361535
 30
0.0
 11
-37.82490022657232
 21
46.4235389361535
 31
0.0
  0
LINE
  5
8E0
  8
250
 10
-40.14817201530553
 20
47.58517483051983
 30
0.0
 11
-37.32307352020592
 21
47.58517483051983
 31
0.0
  0
LINE
  5
8E1
  8
250
 10
-45.44523169361602
 20
47.58517483051983
 30
0.0
 11
-45.44523169361602
 21
46.4235389361535
 31
0.0
  0
LINE
  5
8E2
  8
250
 10
-45.44523169361602
 20
46.4235389361535
 30
0.0
 11
-47.05001321176635
 21
46.42353893615332
 31
0.0
  0
LINE
  5
8E3
  8
250
 10
-42.93609816178489
 20
43.79824181488539
 30
0.0
 11
-42.93609816178489
 21
46.4235389361535
 31
0.0
  0
LINE
  5
8E4
  8
250
 10
-44.33006123502429
 20
47.58517483051983
 30
0.0
 11
-40.98454985924917
 21
47.58517483051983
 31
0.0
  0
LINE
  5
8E5
  8
250
 10
-40.98454985924917
 20
43.79824181488539
 30
0.0
 11
-42.93609816178489
 21
43.79824181488539
 31
0.0
  0
LINE
  5
8E6
  8
250
 10
-42.93609816178489
 20
46.4235389361535
 30
0.0
 11
-40.98454985924917
 21
46.4235389361535
 31
0.0
  0
LINE
  5
8E7
  8
250
 10
-35.87335192403734
 20
46.13545323435071
 30
0.0
 11
-35.87335192403734
 21
44.37905976206874
 31
0.0
  0
LINE
  5
A61
  8
240
 10
52.00020323297537
 20
44.99999997536492
 30
0.0
 11
19.05020320000004
 21
44.99999994710069
 31
0.0
  0
LINE
  5
A62
  8
240
 10
19.0499619000001
 20
-45.00000005289931
 30
0.0
 11
52.00020320000007
 21
-45.00000002463498
 31
0.0
  0
LINE
  5
AF9
  8
243
 10
19.0499619000001
 20
37.71992456
 30
0.0
 11
34.96320320000005
 21
37.71999994710069
 31
0.0
  0
LINE
  5
B8C
  8
243
 10
35.72520320000005
 20
38.48199994710069
 30
0.0
 11
35.72520320000005
 21
44.99999994710069
 31
0.0
  0
ARC
  5
B8E
  8
243
 10
34.96320320000005
 20
38.48199994710069
 30
0.0
 40
0.7620000000000289
 50
270.0
 51
0.0
  0
DIMENSION
  5
C32
  8
250
  2
*D3
 10
177.848050558292
 20
-61.90000008175003
 30
0.0
 11
175.348050558292
 21
-0.0000000817500236
 31
0.0
 70
    32
  1
%%C<>
  3
STANDARD
 13
100.6002032
 23
61.89999991824999
 33
0.0
 14
100.6002032
 24
-61.90000008175002
 34
0.0
 50
90.0
1001
ACAD
1000
DSTYLE
1002
{
1070
   271
1070
     1
1070
   147
1040
1.0
1070
   140
1040
3.0
1070
    41
1040
3.0
1002
}
  0
DIMENSION
  5
C42
  8
250
  2
*D4
 10
101.6002032000001
 20
-72.03761569592974
 30
0.0
 11
119.1999080765777
 21
-72.03761569592974
 31
0.0
 70
   160
  3
STANDARD
 13
111.2522032
 23
-50.80000008175
 33
0.0
 14
101.6002032000001
 24
-60.90000008175002
 34
0.0
1001
ACAD
1000
DSTYLE
1002
{
1070
   271
1070
     1
1070
   147
1040
1.0
1070
   140
1040
3.0
1070
    41
1040
3.0
1002
}
  0
LINE
  5
D69
  8
243
 10
34.20020320000003
 20
-35.2999999999993
 30
0.0
 11
19.0499619000001
 21
-35.2999999999993
 31
0.0
  0
LINE
  5
E19
  8
243
 10
35.00020320000004
 20
-45.00000003921738
 30
0.0
 11
35.00020320000004
 21
-36.09999999999928
 31
0.0
  0
ARC
  5
E1C
  8
243
 10
34.20020320000003
 20
-36.09999999999928
 30
0.0
 40
0.8000000000000114
 50
0.0
 51
90.0
  0
LINE
  5
ED1
  8
240
 10
101.6287781997001
 20
-31.74619008175
 30
0.0
 11
101.6002032000001
 21
-31.74619008175
 31
0.0
  0
LINE
  5
ED3
  8
240
 10
101.6002032000001
 20
-50.80381008174999
 30
0.0
 11
101.6287781997001
 21
-50.80381008174999
 31
0.0
  0
LINE
  5
ED4
  8
240
 10
101.6287781997001
 20
50.80380991825001
 30
0.0
 11
101.6002032000001
 21
50.80380991825001
 31
0.0
  0
LINE
  5
ED5
  8
240
 10
101.6002032000001
 20
31.74618991825002
 30
0.0
 11
101.6287781997001
 21
31.74618991825002
 31
0.0
  0
LINE
  5
ED6
  8
240
 10
62.33477301850006
 20
-61.90000008175002
 30
0.0
 11
100.6002032000001
 21
-61.90000008175002
 31
0.0
  0
LINE
  5
ED7
  8
240
 10
100.6002032000001
 20
61.89999991824999
 30
0.0
 11
62.33477301850006
 21
61.89999991824999
 31
0.0
  0
ARC
  5
ED8
  8
240
 10
100.6002032000001
 20
-60.90000008175002
 30
0.0
 40
1.0
 50
270.0
 51
0.0
  0
ARC
  5
ED9
  8
240
 10
100.6002032000001
 20
60.89999991824999
 30
0.0
 40
1.0
 50
0.0
 51
90.0
  0
ARC
  5
EDA
  8
240
 10
62.33477301850006
 20
60.89999991824999
 30
0.0
 40
1.000000000000008
 50
90.0
 51
150.0000000000003
  0
ARC
  5
EDB
  8
240
 10
62.33477301850006
 20
-60.90000008175002
 30
0.0
 40
1.000000000000008
 50
209.9999999999997
 51
270.0
  0
LINE
  5
EDC
  8
240
 10
61.46874761470004
 20
61.39999991824999
 30
0.0
 11
52.00020320000006
 21
44.99999991825001
 31
0.0
  0
LINE
  5
EDD
  8
240
 10
52.00020320000006
 20
-45.00000008174999
 30
0.0
 11
61.46874761470004
 21
-61.40000008175002
 31
0.0
  0
ARC
  5
EE8
  8
240
 10
101.8002032
 20
-25.60000008175001
 30
0.0
 40
0.4000000000000297
 50
74.99999999999852
 51
120.0000000000002
  0
ARC
  5
EE9
  8
240
 10
101.8002032
 20
25.59999991824998
 30
0.0
 40
0.4000000000000297
 50
239.9999999999998
 51
285.0000000000015
  0
LINE
  5
EEA
  8
240
 10
102.5992743605
 20
-25.40000008175002
 30
0.0
 11
123.2002032
 21
-25.40000008175002
 31
0.0
  0
LINE
  5
EEB
  8
240
 10
123.2002032
 20
25.39999991824999
 30
0.0
 11
102.5992743605
 21
25.39999991824999
 31
0.0
  0
ARC
  5
EEC
  8
240
 10
123.2002032
 20
-23.40000008175002
 30
0.0
 40
2.000000000000057
 50
270.0
 51
0.0
  0
ARC
  5
EED
  8
240
 10
123.2002032
 20
23.39999991824999
 30
0.0
 40
2.000000000000057
 50
0.0
 51
90.0
  0
LINE
  5
EEE
  8
240
 10
102.5992743605
 20
25.39999991824999
 30
0.0
 11
101.9037308180001
 21
25.21362958775001
 31
0.0
  0
LINE
  5
EEF
  8
240
 10
101.9037308180001
 20
-25.21362975114999
 30
0.0
 11
102.5992743605
 21
-25.40000008175002
 31
0.0
  0
LINE
  5
EF2
  8
240
 10
111.2522032
 20
-31.75000008174999
 30
0.0
 11
101.6002032000001
 21
-31.75000008174999
 31
0.0
  0
LINE
  5
EF3
  8
240
 10
111.2522032
 20
-31.75000008174999
 30
0.0
 11
111.2522032
 21
-50.80000008175
 31
0.0
  0
LINE
  5
EF4
  8
240
 10
111.2522032
 20
-50.80000008175
 30
0.0
 11
101.6002032000001
 21
-50.80000008175
 31
0.0
  0
LINE
  5
EF5
  8
240
 10
111.2522032
 20
50.79999991824999
 30
0.0
 11
101.6002032000001
 21
50.79999991824999
 31
0.0
  0
LINE
  5
EF6
  8
240
 10
111.2522032
 20
50.79999991824999
 30
0.0
 11
111.2522032
 21
31.74999991825001
 31
0.0
  0
LINE
  5
EF7
  8
240
 10
111.2522032
 20
31.74999991825001
 30
0.0
 11
101.6002032000001
 21
31.74999991825001
 31
0.0
  0
CIRCLE
  5
EF8
  8
240
 10
89.60020320000005
 20
-0.0000000817499881
 30
0.0
 40
2.625
  0
LINE
  5
EF9
  8
240
 10
101.6002032000001
 20
-0.0000000817499881
 30
0.0
 11
101.6002032000001
 21
60.89999991824999
 31
0.0
  0
LINE
  5
EFA
  8
240
 10
101.6002032000001
 20
-60.90000008175002
 30
0.0
 11
101.6002032000001
 21
-0.0000000817499881
 31
0.0
  0
LINE
  5
EFB
  8
240
 10
52.00020320000006
 20
44.99999991825001
 30
0.0
 11
52.00020320000006
 21
-45.00000008174999
 31
0.0
  0
CIRCLE
  5
EFC
  8
240
 10
89.60020320000005
 20
-0.0000000817499881
 30
0.0
 40
2.099999999999994
  0
LINE
  5
F2B
  8
240
 10
102.5992743605
 20
-0.0000000817499881
 30
0.0
 11
102.5992743605
 21
25.39999991824999
 31
0.0
  0
LINE
  5
F2C
  8
240
 10
102.5992743605
 20
-25.40000008175002
 30
0.0
 11
102.5992743605
 21
-0.0000000817499881
 31
0.0
  0
LINE
  5
F2D
  8
240
 10
125.2002032
 20
-0.0000000817499881
 30
0.0
 11
125.2002032
 21
23.39999991824999
 31
0.0
  0
LINE
  5
F2E
  8
240
 10
125.2002032
 20
-23.40000008175002
 30
0.0
 11
125.2002032
 21
-0.0000000817499881
 31
0.0
  0
LINE
  5
F30
  8
240
 10
90.50686423880005
 20
1.123075647749999
 30
0.0
 11
91.02614583150005
 21
-0.2236537091500281
 31
0.0
  0
LINE
  5
F31
  8
240
 10
89.08092160730006
 20
1.346729275250027
 30
0.0
 11
90.50686423880005
 21
1.123075647749999
 31
0.0
  0
LINE
  5
F32
  8
240
 10
89.08092160730006
 20
1.346729275250027
 30
0.0
 11
88.17426056850006
 21
0.2236535457499826
 31
0.0
  0
LINE
  5
F33
  8
240
 10
88.69354216120006
 20
-1.123075811149988
 30
0.0
 11
88.17426056850006
 21
0.2236535457499826
 31
0.0
  0
CIRCLE
  5
F34
  8
240
 10
89.60020320000005
 20
-0.0000000817499881
 30
0.0
 40
2.055000000000018
  0
LINE
  5
F35
  8
240
 10
88.69354216120006
 20
-1.123075811149988
 30
0.0
 11
90.11948479270005
 21
-1.346729438650016
 31
0.0
  0
LINE
  5
F36
  8
240
 10
90.11948479270005
 20
-1.346729438650016
 30
0.0
 11
91.02614583150005
 21
-0.2236537091500281
 31
0.0
  0
LINE
  5
F44
  8
243
 10
63.20020320000005
 20
2.499999918250012
 30
0.0
 11
63.20020320000005
 21
-2.500000081749988
 31
0.0
  0
POLYLINE
  5
F45
  8
243
 66
     1
 10
0.0
 20
0.0
 30
0.0
  0
VERTEX
  5
11DF
  8
243
 10
87.50020320000006
 20
-0.0000000817499881
 30
0.0
  0
VERTEX
  5
11E0
  8
243
 10
87.58311990010004
 20
0.5842729379500042
 30
0.0
  0
VERTEX
  5
11E1
  8
243
 10
87.67034702520006
 20
0.7816320108499895
 30
0.0
  0
SEQEND
  5
11E8
  8
243
  0
POLYLINE
  5
F46
  8
243
 66
     1
 10
0.0
 20
0.0
 30
0.0
  0
VERTEX
  5
11E2
  8
243
 10
91.68134016270004
 20
0.0928944403499941
 30
0.0
  0
VERTEX
  5
11E3
  8
243
 10
91.69963406550004
 20
-0.0488881268499881
 30
0.0
  0
VERTEX
  5
11E4
  8
243
 10
91.61719465150004
 20
-0.5765571267500036
 30
0.0
  0
SEQEND
  5
11E7
  8
243
  0
LINE
  5
F4D
  8
243
 10
-99.52133583089996
 20
-13.10000008175001
 30
0.0
 11
-99.52133583089996
 21
13.09999991824998
 31
0.0
  0
LINE
  5
F55
  8
243
 10
124.334177694
 20
-13.25000008174999
 30
0.0
 11
124.334177694
 21
13.24999991825001
 31
0.0
  0
LINE
  5
F61
  8
243
 10
122.2002032
 20
13.24999991825001
 30
0.0
 11
122.2002032
 21
-13.25000008174999
 31
0.0
  0
LINE
  5
F62
  8
243
 10
-95.24979679999996
 20
-0.0000000817499881
 30
0.0
 11
-95.24979679999996
 21
13.09999911825003
 31
0.0
  0
LINE
  5
F63
  8
243
 10
-95.24979679999996
 20
-13.09999928175
 30
0.0
 11
-95.24979679999996
 21
-0.0000000817499881
 31
0.0
  0
LINE
  5
F64
  8
243
 10
-94.72953551599996
 20
-0.0000000817499881
 30
0.0
 11
-94.72953551599996
 21
10.84649991825
 31
0.0
  0
LINE
  5
F65
  8
243
 10
-94.72953551599996
 20
-10.84650008174998
 30
0.0
 11
-94.72953551599996
 21
-0.0000000817499881
 31
0.0
  0
LINE
  5
F81
  8
243
 10
122.0067344213
 20
11.90624991825001
 30
0.0
 11
122.0067344213
 21
-11.90625008174999
 31
0.0
  0
LINE
  5
F82
  8
243
 10
-5.111454938299957
 20
10.24727548195
 30
0.0
 11
-5.111454938299957
 21
-10.24727564534999
 31
0.0
  0
LINE
  5
F85
  8
243
 10
-5.249796799999956
 20
-0.0000000817499881
 30
0.0
 11
-5.249796799999956
 21
10.84649991825
 31
0.0
  0
LINE
  5
F86
  8
243
 10
-5.249796799999956
 20
-10.84650008174998
 30
0.0
 11
-5.249796799999956
 21
-0.0000000817499881
 31
0.0
  0
CIRCLE
  5
FF4
  8
243
 10
89.60020320000005
 20
-0.0000000817499881
 30
0.0
 40
2.256103126841999
  0
CIRCLE
  5
FF5
  8
243
 10
89.60020320000005
 20
-0.0000000817499881
 30
0.0
 40
2.500000000000015
  0
CIRCLE
  5
FF6
  8
243
 10
89.60020320000005
 20
-0.0000000817499881
 30
0.0
 40
2.316732743452225
  0
CIRCLE
  5
FF7
  8
243
 10
89.60020320000005
 20
-0.0000000817499881
 30
0.0
 40
1.750000000000029
  0
LINE
  5
1013
  8
243
 10
101.6002032000001
 20
26.39907107885
 30
0.0
 11
101.4138328695
 21
25.70352753635001
 31
0.0
  0
LINE
  5
1014
  8
243
 10
101.4138328695
 20
-25.70352769975
 30
0.0
 11
101.6002032000001
 21
-26.39907124224999
 31
0.0
  0
ARC
  5
1015
  8
243
 10
101.8002032
 20
-25.60000008175001
 30
0.0
 40
0.39999999999994
 50
166.8750000000026
 51
194.9999999999968
  0
ARC
  5
1016
  8
243
 10
101.8002032
 20
-25.60000008175001
 30
0.0
 40
0.4000000000000031
 50
119.9999999999949
 51
166.8749999999966
  0
ARC
  5
1017
  8
243
 10
101.8002032
 20
25.59999991824998
 30
0.0
 40
0.3999999999999488
 50
165.0000000000038
 51
180.0
  0
ARC
  5
1018
  8
243
 10
101.8002032
 20
25.59999991824998
 30
0.0
 40
0.3999999999999538
 50
180.0
 51
239.9999999999982
  0
LINE
  5
1019
  8
243
 10
101.4002032
 20
25.59999991824998
 30
0.0
 11
101.4002032
 21
-25.60000008175001
 31
0.0
  0
LINE
  5
101A
  8
243
 10
125.2002032
 20
2.499999918250012
 30
0.0
 11
90.31928262080005
 21
2.499999918250012
 31
0.0
  0
LINE
  5
101B
  8
243
 10
88.84761550430004
 20
2.499999918250012
 30
0.0
 11
63.20020320000005
 21
2.499999918250012
 31
0.0
  0
LINE
  5
101C
  8
243
 10
63.20020320000005
 20
-2.500000081749988
 30
0.0
 11
88.92938326310004
 21
-2.500000081749988
 31
0.0
  0
LINE
  5
101D
  8
243
 10
90.32501493900004
 20
-2.500000081749988
 30
0.0
 11
125.2002032
 21
-2.500000081749988
 31
0.0
  0
LINE
  5
101E
  8
243
 10
63.20020320000005
 20
2.499999918250012
 30
0.0
 11
61.69805165240005
 21
-0.0000000817499881
 31
0.0
  0
LINE
  5
101F
  8
243
 10
61.69805165240005
 20
-0.0000000817499881
 30
0.0
 11
63.20020320000005
 21
-2.500000081749988
 31
0.0
  0
LINE
  5
1020
  8
243
 10
-101.5997968
 20
-14.30000008175
 30
0.0
 11
-99.52133583089996
 21
-13.10000008175001
 31
0.0
  0
LINE
  5
1021
  8
243
 10
-99.52133583089996
 20
13.09999991824998
 30
0.0
 11
-101.5997968
 21
14.29999991825002
 31
0.0
  0
LINE
  5
1024
  8
243
 10
125.2002032
 20
13.74999997725001
 30
0.0
 11
124.334177694
 21
13.24999991825001
 31
0.0
  0
LINE
  5
1025
  8
243
 10
124.334177694
 20
-13.25000008174999
 30
0.0
 11
125.2002032
 21
-13.75000014074999
 31
0.0
  0
LINE
  5
1026
  8
243
 10
124.334177694
 20
13.24999991825001
 30
0.0
 11
122.2002032
 21
13.24999991825001
 31
0.0
  0
LINE
  5
1027
  8
243
 10
122.2002032
 20
-13.25000008174999
 30
0.0
 11
124.334177694
 21
-13.25000008174999
 31
0.0
  0
LINE
  5
1028
  8
243
 10
-99.52133583089996
 20
-13.10000008175001
 30
0.0
 11
-95.24979679999996
 21
-13.10000008175001
 31
0.0
  0
LINE
  5
1029
  8
243
 10
-95.24979679999996
 20
13.09999991824998
 30
0.0
 11
-99.52133583089996
 21
13.09999991824998
 31
0.0
  0
LINE
  5
102A
  8
243
 10
-95.24979679999996
 20
-13.09999928175
 30
0.0
 11
-94.72953551599996
 21
-10.84650008174998
 31
0.0
  0
LINE
  5
102B
  8
243
 10
-94.72953551599996
 20
10.84649991825
 30
0.0
 11
-95.24979679999996
 21
13.09999911825003
 31
0.0
  0
LINE
  5
1030
  8
243
 10
122.2002032
 20
12.01794916975001
 30
0.0
 11
122.0067344213
 21
11.90624991825001
 31
0.0
  0
LINE
  5
1031
  8
243
 10
122.0067344213
 20
-11.90625008174999
 30
0.0
 11
122.2002032
 21
-12.01794933315
 31
0.0
  0
LINE
  5
1032
  8
243
 10
122.0067344213
 20
11.90624991825001
 30
0.0
 11
115.2002032
 21
11.90624991825001
 31
0.0
  0
LINE
  5
1033
  8
243
 10
115.2002032
 20
-11.90625008174999
 30
0.0
 11
122.0067344213
 21
-11.90625008174999
 31
0.0
  0
LINE
  5
1034
  8
243
 10
115.2002032
 20
11.90624991825001
 30
0.0
 11
-5.111454938299957
 21
10.24727548195
 31
0.0
  0
LINE
  5
1035
  8
243
 10
-5.111454938299957
 20
-10.24727564534999
 30
0.0
 11
115.2002032
 21
-11.90625008174999
 31
0.0
  0
LINE
  5
1036
  8
243
 10
-94.72953551599996
 20
-10.84650008174998
 30
0.0
 11
-5.249796799999956
 21
-10.84650008174998
 31
0.0
  0
LINE
  5
1037
  8
243
 10
-5.249796799999956
 20
10.84649991825
 30
0.0
 11
-94.72953551599996
 21
10.84649991825
 31
0.0
  0
LINE
  5
1038
  8
243
 10
-5.249796799999956
 20
-10.84650008174998
 30
0.0
 11
-5.111454938299957
 21
-10.24727564534999
 31
0.0
  0
LINE
  5
1039
  8
243
 10
-5.111454938299957
 20
10.24727548195
 30
0.0
 11
-5.249796799999956
 21
10.84649991825
 31
0.0
  0
LINE
  5
10C7
  8
240
 10
62.33477301850006
 20
61.89999991825
 30
0.0
 11
62.33477301850006
 21
-61.90000008175002
 31
0.0
  0
ENDSEC
  0
EOF
