  0
SECTION
  2
HEADER
  9
$ACADVER
  1
AC1009
  9
$DWGCODEPAGE
  3
ansi_1251
  9
$INSBASE
 10
0.0
 20
0.0
 30
0.0
  9
$EXTMIN
 10
-68.25000000000001
 20
-30.5409271246
 30
0.0
  9
$EXTMAX
 10
88.90000000000003
 20
30.50275418977125
 30
0.0
  9
$LIMMIN
 10
0.0
 20
0.0
  9
$LIMMAX
 10
420.0
 20
297.0
  9
$ORTHOMODE
 70
     1
  9
$REGENMODE
 70
     1
  9
$FILLMODE
 70
     1
  9
$QTEXTMODE
 70
     0
  9
$MIRRTEXT
 70
     0
  9
$DRAGMODE
 70
     2
  9
$LTSCALE
 40
1.0
  9
$OSMODE
 70
   279
  9
$ATTMODE
 70
     1
  9
$TEXTSIZE
 40
2.5
  9
$TRACEWID
 40
1.0
  9
$TEXTSTYLE
  7
STANDARD
  9
$CLAYER
  8
1
  9
$CELTYPE
  6
BYLAYER
  9
$CECOLOR
 62
   256
  9
$DIMSCALE
 40
1.0
  9
$DIMASZ
 40
2.5
  9
$DIMEXO
 40
0.625
  9
$DIMDLI
 40
3.75
  9
$DIMRND
 40
0.0
  9
$DIMDLE
 40
0.0
  9
$DIMEXE
 40
1.25
  9
$DIMTP
 40
0.0
  9
$DIMTM
 40
0.0
  9
$DIMTXT
 40
2.5
  9
$DIMCEN
 40
2.5
  9
$DIMTSZ
 40
0.0
  9
$DIMTOL
 70
     0
  9
$DIMLIM
 70
     0
  9
$DIMTIH
 70
     0
  9
$DIMTOH
 70
     0
  9
$DIMSE1
 70
     0
  9
$DIMSE2
 70
     0
  9
$DIMTAD
 70
     1
  9
$DIMZIN
 70
     8
  9
$DIMBLK
  1

  9
$DIMASO
 70
     1
  9
$DIMSHO
 70
     1
  9
$DIMPOST
  1

  9
$DIMAPOST
  1

  9
$DIMALT
 70
     0
  9
$DIMALTD
 70
     3
  9
$DIMALTF
 40
0.03937007874016
  9
$DIMLFAC
 40
1.0
  9
$DIMTOFL
 70
     1
  9
$DIMTVP
 40
0.0
  9
$DIMTIX
 70
     0
  9
$DIMSOXD
 70
     0
  9
$DIMSAH
 70
     0
  9
$DIMBLK1
  1

  9
$DIMBLK2
  1

  9
$DIMSTYLE
  2
ISO-25
  9
$DIMCLRD
 70
     0
  9
$DIMCLRE
 70
     0
  9
$DIMCLRT
 70
     0
  9
$DIMTFAC
 40
1.0
  9
$DIMGAP
 40
0.625
  9
$LUNITS
 70
     2
  9
$LUPREC
 70
     3
  9
$SKETCHINC
 40
1.0
  9
$FILLETRAD
 40
1.0
  9
$AUNITS
 70
     0
  9
$AUPREC
 70
     0
  9
$MENU
  1
.
  9
$ELEVATION
 40
0.0
  9
$PELEVATION
 40
0.0
  9
$THICKNESS
 40
0.0
  9
$LIMCHECK
 70
     0
  9
$CHAMFERA
 40
10.0
  9
$CHAMFERB
 40
10.0
  9
$SKPOLY
 70
     0
  9
$TDCREATE
 40
2455022.429026158
  9
$TDUPDATE
 40
2458659.538982558
  9
$TDINDWG
 40
0.1506771181
  9
$TDUSRTIMER
 40
2458702.636558912
  9
$USRTIMER
 70
     1
  9
$ANGBASE
 50
0.0
  9
$ANGDIR
 70
     0
  9
$PDMODE
 70
     0
  9
$PDSIZE
 40
0.0
  9
$PLINEWID
 40
0.0
  9
$COORDS
 70
     1
  9
$SPLFRAME
 70
     0
  9
$SPLINETYPE
 70
     6
  9
$SPLINESEGS
 70
     8
  9
$ATTDIA
 70
     0
  9
$ATTREQ
 70
     1
  9
$HANDLING
 70
     1
  9
$HANDSEED
  5
203B
  9
$SURFTAB1
 70
     6
  9
$SURFTAB2
 70
     6
  9
$SURFTYPE
 70
     6
  9
$SURFU
 70
     6
  9
$SURFV
 70
     6
  9
$UCSNAME
  2

  9
$UCSORG
 10
0.0
 20
0.0
 30
0.0
  9
$UCSXDIR
 10
1.0
 20
0.0
 30
0.0
  9
$UCSYDIR
 10
0.0
 20
1.0
 30
0.0
  9
$PUCSNAME
  2

  9
$PUCSORG
 10
0.0
 20
0.0
 30
0.0
  9
$PUCSXDIR
 10
1.0
 20
0.0
 30
0.0
  9
$PUCSYDIR
 10
0.0
 20
1.0
 30
0.0
  9
$USERI1
 70
     0
  9
$USERI2
 70
     0
  9
$USERI3
 70
     0
  9
$USERI4
 70
     0
  9
$USERI5
 70
     0
  9
$USERR1
 40
0.0
  9
$USERR2
 40
0.0
  9
$USERR3
 40
0.0
  9
$USERR4
 40
0.0
  9
$USERR5
 40
0.0
  9
$WORLDVIEW
 70
     1
  9
$SHADEDGE
 70
     3
  9
$SHADEDIF
 70
    70
  9
$TILEMODE
 70
     1
  9
$MAXACTVP
 70
    64
  9
$PLIMCHECK
 70
     0
  9
$PEXTMIN
 10
1.000000000000000E+20
 20
1.000000000000000E+20
 30
1.000000000000000E+20
  9
$PEXTMAX
 10
-1.000000000000000E+20
 20
-1.000000000000000E+20
 30
-1.000000000000000E+20
  9
$PLIMMIN
 10
0.0
 20
0.0
  9
$PLIMMAX
 10
420.0
 20
297.0
  9
$UNITMODE
 70
     0
  9
$VISRETAIN
 70
     1
  9
$PLINEGEN
 70
     0
  9
$PSLTSCALE
 70
     1
  0
ENDSEC
  0
SECTION
  2
TABLES
  0
TABLE
  2
VPORT
 70
     1
  0
VPORT
  2
*ACTIVE
 70
     0
 10
0.0
 20
0.0
 11
1.0
 21
1.0
 12
38.76755118610393
 22
-2.020325411445
 13
0.0
 23
0.0
 14
10.0
 24
10.0
 15
10.0
 25
10.0
 16
0.0
 26
0.0
 36
1.0
 17
0.0
 27
0.0
 37
0.0
 40
214.8353272710131
 41
1.332880434782609
 42
50.0
 43
0.0
 44
0.0
 50
0.0
 51
0.0
 71
    16
 72
  1000
 73
     1
 74
     3
 75
     0
 76
     0
 77
     0
 78
     0
  0
ENDTAB
  0
TABLE
  2
LTYPE
 70
     6
  0
LTYPE
  2
CONTINUOUS
 70
     0
  3
Solid line
 72
    65
 73
     0
 40
0.0
  0
LTYPE
  2
CENTER
 70
     0
  3
 Center _____  _  _____  _  _____  _  _____  _ 
 72
    65
 73
     4
 40
50.8
 49
31.75
 49
-6.35
 49
6.35
 49
-6.35
  0
LTYPE
  2
DASHED
 70
     0
  3
Dashed __  __  __  __  __  __  __  __  __  __  
 72
    65
 73
     2
 40
19.05
 49
12.7
 49
-6.35
  0
LTYPE
  2
HIDDEN
 70
     0
  3
Hidden __ __ __ __ __ __ __ __ __ __ __ __ __ __
 72
    65
 73
     2
 40
1.905
 49
1.27
 49
-0.635
  0
LTYPE
  2
CENTERX2
 70
     0
  3
Center (2x) ________  __  ________  __  _____
 72
    65
 73
     4
 40
20.32
 49
12.7
 49
-2.54
 49
2.54
 49
-2.54
  0
LTYPE
  2
PHANTOM
 70
     0
  3
Phantom ______  __  __  ______  __  __  ______
 72
    65
 73
     6
 40
12.7
 49
6.35
 49
-1.27
 49
1.27
 49
-1.27
 49
1.27
 49
-1.27
  0
ENDTAB
  0
TABLE
  2
LAYER
 70
    26
  0
LAYER
  2
0
 70
     0
 62
     7
  6
CONTINUOUS
  0
LAYER
  2
1
 70
     0
 62
     4
  6
CONTINUOUS
  0
LAYER
  2
2
 70
     0
 62
     7
  6
CONTINUOUS
  0
LAYER
  2
3
 70
     0
 62
     1
  6
DASHED
  0
LAYER
  2
4
 70
     0
 62
     2
  6
CENTER
  0
LAYER
  2
6
 70
     0
 62
     5
  6
CONTINUOUS
  0
LAYER
  2
7
 70
     0
 62
     5
  6
CONTINUOUS
  0
LAYER
  2
11
 70
     0
 62
     4
  6
CONTINUOUS
  0
LAYER
  2
SK1
 70
     0
 62
     4
  6
CONTINUOUS
  0
LAYER
  2
SK2
 70
     0
 62
     7
  6
CONTINUOUS
  0
LAYER
  2
SK3
 70
     0
 62
     1
  6
DASHED
  0
LAYER
  2
SK4
 70
     0
 62
     2
  6
CENTER
  0
LAYER
  2
SK6
 70
     0
 62
     5
  6
CONTINUOUS
  0
LAYER
  2
SK7
 70
     0
 62
     5
  6
CONTINUOUS
  0
LAYER
  2
SK11
 70
     0
 62
     4
  6
CONTINUOUS
  0
LAYER
  2
CUT
 70
     0
 62
     1
  6
CONTINUOUS
  0
LAYER
  2
NOCUT
 70
     0
 62
    -7
  6
CONTINUOUS
  0
LAYER
  2
SKVIEW1
 70
     0
 62
     4
  6
CONTINUOUS
  0
LAYER
  2
SKVIEW2
 70
     0
 62
     7
  6
CONTINUOUS
  0
LAYER
  2
SKVIEW3
 70
     0
 62
     1
  6
DASHED
  0
LAYER
  2
SKVIEW4
 70
     0
 62
     2
  6
CENTER
  0
LAYER
  2
SKVIEW6
 70
     0
 62
     5
  6
CONTINUOUS
  0
LAYER
  2
SKVIEW7
 70
     0
 62
     5
  6
CONTINUOUS
  0
LAYER
  2
SKVIEW11
 70
     0
 62
     4
  6
CONTINUOUS
  0
LAYER
  2
INFTOTAL
 70
     0
 62
     9
  6
CONTINUOUS
  0
LAYER
  2
DEFPOINTS
 70
     0
 62
     7
  6
CONTINUOUS
  0
ENDTAB
  0
TABLE
  2
STYLE
 70
     1
  0
STYLE
  2
STANDARD
 70
     0
 40
0.0
 41
1.0
 50
0.0
 71
     0
 42
2.5
  3
txt
  4

  0
ENDTAB
  0
TABLE
  2
VIEW
 70
     0
  0
ENDTAB
  0
TABLE
  2
UCS
 70
     0
  0
ENDTAB
  0
TABLE
  2
APPID
 70
     2
  0
APPID
  2
ACAD
 70
     0
  0
APPID
  2
ACAECLAYERSTANDARD
 70
     0
  0
ENDTAB
  0
TABLE
  2
DIMSTYLE
 70
     1
  0
DIMSTYLE
  2
ISO-25
 70
     0
  3

  4

  5

  6

  7

 40
1.0
 41
2.5
 42
0.625
 43
3.75
 44
1.25
 45
0.0
 46
0.0
 47
0.0
 48
0.0
140
2.5
141
2.5
142
0.0
143
0.03937007874016
144
1.0
145
0.0
146
1.0
147
0.625
 71
     0
 72
     0
 73
     0
 74
     0
 75
     0
 76
     0
 77
     1
 78
     8
170
     0
171
     3
172
     1
173
     0
174
     0
175
     0
176
     0
177
     0
178
     0
  0
ENDTAB
  0
ENDSEC
  0
SECTION
  2
BLOCKS
  0
BLOCK
  8
0
  2
$MODEL_SPACE
 70
     0
 10
0.0
 20
0.0
 30
0.0
  3
$MODEL_SPACE
  1

  0
ENDBLK
  5
21
  8
0
  0
BLOCK
 67
     1
  8
0
  2
$PAPER_SPACE
 70
     0
 10
0.0
 20
0.0
 30
0.0
  3
$PAPER_SPACE
  1

  0
ENDBLK
  5
1D
 67
     1
  8
0
  0
BLOCK
  8
0
  2
*U2
 70
     1
 10
0.0
 20
0.0
 30
0.0
  3
*U2
  1

  0
TEXT
  5
77E
  8
SK6
 10
-50.0
 20
78.25
 30
0.0
 40
3.5
  1
BIG DAISHOWA
 41
0.85
  0
TEXT
  5
781
  8
SK6
 10
-50.0
 20
73.0
 30
0.0
 40
3.5
  1
BCV50H-SMC1.500-4
 41
0.85
  0
ENDBLK
  5
782
  8
0
  0
BLOCK
  8
0
  2
_FILLED
 70
     0
 10
0.0
 20
0.0
 30
0.0
  3
_FILLED
  1

  0
SOLID
  5
789
  8
0
  6
BYBLOCK
 62
     0
 10
0.0
 20
0.0
 30
0.0
 11
-1.0
 21
0.2142857143
 31
0.0
 12
-1.0
 22
-0.2142857143
 32
0.0
 13
-1.0
 23
-0.2142857143
 33
0.0
  0
ENDBLK
  5
78A
  8
0
  6
BYBLOCK
 62
     0
  0
BLOCK
  8
0
  2
*U5
 70
     1
 10
0.0
 20
0.0
 30
0.0
  3
*U5
  1

  0
TEXT
  5
790
  8
SK6
 10
-85.96178542556666
 20
-67.06748653279999
 30
0.0
 40
3.5
  1
BCV50
 41
0.85
  0
ENDBLK
  5
791
  8
0
  0
BLOCK
  8
0
  2
*D8
 70
     1
 10
0.0
 20
0.0
 30
0.0
  3
*D8
  1

  0
LINE
  5
808
  8
SK2
 62
     0
 10
0.0
 20
35.54999999999998
 30
0.0
 11
0.0
 21
63.71215670356074
 31
0.0
  0
LINE
  5
809
  8
SK2
 62
     0
 10
101.6
 20
45.67500000000001
 30
0.0
 11
101.6
 21
63.71215670356074
 31
0.0
  0
LINE
  5
80A
  8
SK2
 62
     0
 10
2.5
 20
62.46215670356074
 30
0.0
 11
99.1
 21
62.46215670356074
 31
0.0
  0
SOLID
  5
80B
  8
SK2
 62
     0
 10
2.5
 20
62.8788233702274
 30
0.0
 11
2.5
 21
62.04549003689407
 31
0.0
 12
0.0
 22
62.46215670356074
 32
0.0
 13
0.0
 23
62.46215670356074
 33
0.0
  0
SOLID
  5
80C
  8
SK2
 62
     0
 10
99.1
 20
62.04549003689407
 30
0.0
 11
99.1
 21
62.8788233702274
 31
0.0
 12
101.6
 22
62.46215670356074
 32
0.0
 13
101.6
 23
62.46215670356074
 33
0.0
  0
TEXT
  5
80D
  8
SK2
  6
CONTINUOUS
 62
     0
 10
46.84166666666666
 20
63.08715670356074
 30
0.0
 40
2.5
  1
101.6
  0
POINT
  5
80E
  8
DEFPOINTS
 62
     0
 10
0.0
 20
34.92499999999998
 30
0.0
  0
POINT
  5
80F
  8
DEFPOINTS
 62
     0
 10
101.6
 20
45.05000000000001
 30
0.0
  0
POINT
  5
810
  8
DEFPOINTS
 62
     0
 10
101.6
 20
62.46215670356074
 30
0.0
  0
ENDBLK
  5
812
  8
0
  0
BLOCK
  8
0
  2
*D10
 70
     1
 10
0.0
 20
0.0
 30
0.0
  3
*D10
  1

  0
LINE
  5
15F3
  8
SK2
 62
     0
 10
101.225
 20
46.05000000000001
 30
0.0
 11
179.1351023722079
 21
46.05
 31
0.0
  0
LINE
  5
15F4
  8
SK2
 62
     0
 10
101.225
 20
-46.04999999999998
 30
0.0
 11
179.1351023722079
 21
-46.04999999999999
 31
0.0
  0
LINE
  5
15F5
  8
SK2
 62
     0
 10
177.8851023722079
 20
43.55
 30
0.0
 11
177.8851023722079
 21
-43.54999999999999
 31
0.0
  0
SOLID
  5
15F6
  8
SK2
 62
     0
 10
178.3017690388745
 20
43.55
 30
0.0
 11
177.4684357055412
 21
43.55
 31
0.0
 12
177.8851023722079
 22
46.05
 32
0.0
 13
177.8851023722079
 23
46.05
 33
0.0
  0
SOLID
  5
15F7
  8
SK2
 62
     0
 10
177.4684357055412
 20
-43.54999999999999
 30
0.0
 11
178.3017690388745
 21
-43.54999999999999
 31
0.0
 12
177.8851023722079
 22
-46.04999999999999
 32
0.0
 13
177.8851023722079
 23
-46.04999999999999
 33
0.0
  0
TEXT
  5
15F8
  8
SK2
  6
CONTINUOUS
 62
     0
 10
177.2601023722079
 20
-3.333333333333343
 30
0.0
 40
2.5
  1
92.1
 50
90.0
  0
POINT
  5
15F9
  8
DEFPOINTS
 62
     0
 10
100.6
 20
46.05000000000001
 30
0.0
  0
POINT
  5
15FA
  8
DEFPOINTS
 62
     0
 10
100.6
 20
-46.04999999999998
 30
0.0
  0
POINT
  5
15FB
  8
DEFPOINTS
 62
     0
 10
177.8851023722079
 20
-46.04999999999999
 30
0.0
  0
ENDBLK
  5
15FD
  8
0
  0
BLOCK
  8
0
  2
*D11
 70
     1
 10
0.0
 20
0.0
 30
0.0
  3
*D11
  1

  0
LINE
  5
1602
  8
SK2
 62
     0
 10
123.825
 20
19.04999999999998
 30
0.0
 11
160.8199158278653
 21
19.04999999999998
 31
0.0
  0
LINE
  5
1603
  8
SK2
 62
     0
 10
123.825
 20
-19.04999999999998
 30
0.0
 11
160.8199158278653
 21
-19.04999999999999
 31
0.0
  0
LINE
  5
1604
  8
SK2
 62
     0
 10
159.5699158278653
 20
16.54999999999998
 30
0.0
 11
159.5699158278653
 21
-16.54999999999999
 31
0.0
  0
SOLID
  5
1605
  8
SK2
 62
     0
 10
159.986582494532
 20
16.54999999999998
 30
0.0
 11
159.1532491611987
 21
16.54999999999998
 31
0.0
 12
159.5699158278653
 22
19.04999999999998
 32
0.0
 13
159.5699158278653
 23
19.04999999999998
 33
0.0
  0
SOLID
  5
1606
  8
SK2
 62
     0
 10
159.1532491611987
 20
-16.54999999999999
 30
0.0
 11
159.986582494532
 21
-16.54999999999999
 31
0.0
 12
159.5699158278653
 22
-19.04999999999999
 32
0.0
 13
159.5699158278653
 23
-19.04999999999999
 33
0.0
  0
TEXT
  5
1607
  8
SK2
  6
CONTINUOUS
 62
     0
 10
158.9449158278653
 20
-3.333333333333343
 30
0.0
 40
2.5
  1
38.1
 50
90.0
  0
POINT
  5
1608
  8
DEFPOINTS
 62
     0
 10
123.2
 20
19.04999999999998
 30
0.0
  0
POINT
  5
1609
  8
DEFPOINTS
 62
     0
 10
123.2
 20
-19.04999999999998
 30
0.0
  0
POINT
  5
160A
  8
DEFPOINTS
 62
     0
 10
159.5699158278653
 20
-19.04999999999999
 30
0.0
  0
ENDBLK
  5
160C
  8
0
  0
ENDSEC
  0
SECTION
  2
ENTITIES
  0
LINE
  5
685
  8
SK1
 10
0.0
 20
34.92499999999998
 30
0.0
 11
-99.6319088344
 21
20.3952133832
 31
0.0
  0
LINE
  5
686
  8
SK1
 10
-99.6319088344
 20
-20.3952133832
 30
0.0
 11
0.0
 21
-34.92500000000001
 31
0.0
  0
ARC
  5
68D
  8
SK1
 10
-99.3
 20
18.1192879614
 30
0.0
 40
2.299999999999995
 50
98.29722000000018
 51
180.0
  0
ARC
  5
68E
  8
SK1
 10
-99.3
 20
-18.1192879614
 30
0.0
 40
2.299999999999995
 50
180.0
 51
261.7027799999998
  0
LINE
  5
6F6
  8
SK1
 10
-101.6
 20
0.0
 30
0.0
 11
-101.6
 21
-18.1192879614
 31
0.0
  0
LINE
  5
6F7
  8
SK1
 10
-101.6
 20
18.1192879614
 30
0.0
 11
-101.6
 21
0.0
 31
0.0
  0
LINE
  5
71A
  8
SK3
 10
-99.5215390309
 20
-13.10000000000002
 30
0.0
 11
-99.5215390309
 21
13.09999999999999
 31
0.0
  0
LINE
  5
71B
  8
SK3
 10
-95.25
 20
-13.10000000000002
 30
0.0
 11
-95.25
 21
13.09999999999999
 31
0.0
  0
LINE
  5
72A
  8
SK3
 10
-101.6
 20
-14.30000000000001
 30
0.0
 11
-99.5215390309
 21
-13.10000000000002
 31
0.0
  0
LINE
  5
72B
  8
SK3
 10
-99.5215390309
 20
13.09999999999999
 30
0.0
 11
-101.6
 21
14.3
 31
0.0
  0
LINE
  5
72C
  8
SK3
 10
-99.5215390309
 20
-13.10000000000002
 30
0.0
 11
-95.25
 21
-13.10000000000002
 31
0.0
  0
LINE
  5
72D
  8
SK3
 10
-95.25
 20
13.09999999999999
 30
0.0
 11
-99.5215390309
 21
13.09999999999999
 31
0.0
  0
LINE
  5
72E
  8
SK3
 10
-95.25
 20
-11.09980000000002
 30
0.0
 11
-5.25
 21
-11.09980000000002
 31
0.0
  0
LINE
  5
72F
  8
SK3
 10
-5.250000000000001
 20
11.09979999999999
 30
0.0
 11
-95.25
 21
11.09979999999999
 31
0.0
  0
LINE
  5
760
  8
SK3
 10
-57.1
 20
12.69999999999999
 30
0.0
 11
-95.25
 21
12.69999999999999
 31
0.0
  0
LINE
  5
761
  8
SK3
 10
-95.25
 20
-12.69999999999999
 30
0.0
 11
-57.1
 21
-12.69999999999999
 31
0.0
  0
LINE
  5
774
  8
SK3
 10
-57.1
 20
12.69999999999999
 30
0.0
 11
-57.1
 21
-12.69999999999999
 31
0.0
  0
LINE
  5
777
  8
SK4
 10
0.0
 20
0.0
 30
0.0
 11
-101.6
 21
0.0
 31
0.0
  0
LINE
  5
779
  8
4
 10
0.0
 20
0.0
 30
0.0
 11
101.6
 21
0.0
 31
0.0
  0
INSERT
  5
77B
  8
SK6
  2
*U2
 10
-44.10380399683656
 20
-23.39313954296377
 30
0.0
  0
INSERT
  5
78D
  8
SK6
  2
*U5
 10
17.55665382414153
 20
-2.560320993650734
 30
0.0
  0
LINE
  5
793
  8
0
 10
3.0
 20
3.0
 30
0.0
 11
-3.0
 21
-3.0
 31
0.0
  0
LINE
  5
794
  8
0
 10
-3.0
 20
3.0
 30
0.0
 11
3.0
 21
-3.0
 31
0.0
  0
CIRCLE
  5
795
  8
0
 10
0.0
 20
0.0
 30
0.0
 40
2.5
  0
LINE
  5
796
  8
0
 10
104.6
 20
-2.999999999999972
 30
0.0
 11
98.6
 21
3.000000000000028
 31
0.0
  0
CIRCLE
  5
797
  8
0
 10
101.6
 20
0.0000000000000284
 30
0.0
 40
2.5
  0
LINE
  5
798
  8
0
 10
98.6
 20
-2.999999999999972
 30
0.0
 11
104.6
 21
3.000000000000028
 31
0.0
  0
LINE
  5
799
  8
NOCUT
 10
0.7999999999999972
 20
34.62500000000001
 30
0.0
 11
0.2999999999999972
 21
34.62500000000001
 31
0.0
  0
LINE
  5
79C
  8
NOCUT
 10
0.2999999999999972
 20
34.62500000000001
 30
0.0
 11
0.0
 21
34.92499999999999
 31
0.0
  0
ARC
  5
79E
  8
NOCUT
 10
0.7999999999999972
 20
35.62500000000001
 30
0.0
 40
1.0
 50
270.0
 51
314.4270040008
  0
LINE
  5
7A0
  8
NOCUT
 10
12.55499999999999
 20
45.64499999999999
 30
0.0
 11
9.704999999999998
 21
45.64499999999999
 31
0.0
  0
ARC
  5
7A1
  8
NOCUT
 10
12.55499999999999
 20
46.14499999999999
 30
0.0
 40
0.5
 50
270.0
 51
0.0
  0
ARC
  5
7A2
  8
NOCUT
 10
9.704999999999998
 20
46.14499999999999
 30
0.0
 40
0.5
 50
180.0
 51
270.0
  0
ARC
  5
7A3
  8
NOCUT
 10
2.299999999999997
 20
48.4125
 30
0.0
 40
0.7999999999999972
 50
90.0
 51
180.0
  0
ARC
  5
7A4
  8
NOCUT
 10
18.24999999999999
 20
48.4125
 30
0.0
 40
0.799999999999983
 50
0.0
 51
90.0
  0
LINE
  5
7A5
  8
NOCUT
 10
9.204999999999998
 20
46.43919780459999
 30
0.0
 11
7.603833230999996
 21
49.21250000000001
 31
0.0
  0
LINE
  5
7A6
  8
NOCUT
 10
14.65616676910001
 20
49.21250000000001
 30
0.0
 11
13.05499999999999
 21
46.43919780459999
 31
0.0
  0
LINE
  5
7A7
  8
NOCUT
 10
18.24999999999999
 20
49.21250000000001
 30
0.0
 11
14.65616676910001
 21
49.21250000000001
 31
0.0
  0
LINE
  5
7A8
  8
NOCUT
 10
7.603833230999996
 20
49.21250000000001
 30
0.0
 11
2.299999999999997
 21
49.21250000000001
 31
0.0
  0
LINE
  5
7AC
  8
NOCUT
 10
1.5
 20
48.4125
 30
0.0
 11
1.499999999999929
 21
34.91085715714565
 31
0.0
  0
LINE
  5
7AD
  8
NOCUT
 10
19.04999999999997
 20
48.4125
 30
0.0
 11
19.04999999999998
 21
46.0
 31
0.0
  0
LINE
  5
7AE
  8
NOCUT
 10
9.204999999999998
 20
46.43919780459999
 30
0.0
 11
9.204999999999998
 21
46.14499999999999
 31
0.0
  0
LINE
  5
7AF
  8
NOCUT
 10
13.05499999999999
 20
46.43919780459999
 30
0.0
 11
13.05499999999999
 21
46.14499999999999
 31
0.0
  0
DIMENSION
  5
804
  8
SK2
  2
*D8
 10
101.6
 20
62.46215670356074
 30
0.0
 11
50.8
 21
64.33715670356074
 31
0.0
 70
    32
  3
ISO-25
 13
0.0
 23
34.92499999999998
 33
0.0
 14
101.6
 24
45.05000000000001
 34
0.0
1001
ACAD
1000
DSTYLE
1002
{
1070
   287
1070
     5
1070
   271
1070
     3
1070
   272
1070
     3
1070
   279
1070
     2
1002
}
  0
LINE
  5
8BF
  8
NOCUT
 10
0.0
 20
34.92499999999999
 30
0.0
 11
0.0
 21
0.0
 31
0.0
  0
LINE
  5
8C0
  8
NOCUT
 10
0.0
 20
0.0
 30
0.0
 11
101.6
 21
0.0
 31
0.0
  0
INSERT
  5
A17
  8
SK6
  2
_FILLED
 10
-20.78186483605847
 20
-31.89428358495073
 30
0.0
 41
3.5
 42
3.5
 43
3.5
 50
52.86965044919886
  0
POLYLINE
  5
A18
  8
SK6
 66
     1
 10
0.0
 20
0.0
 30
0.0
  0
VERTEX
  5
1B4A
  8
SK6
 10
-22.89457117648658
 20
-34.68470862768434
 30
0.0
  0
VERTEX
  5
1B4B
  8
SK6
 10
-48.02596493475846
 20
-67.87780752645074
 30
0.0
  0
VERTEX
  5
1B4C
  8
SK6
 10
-49.90096493475846
 20
-66.12780752645074
 30
0.0
  0
VERTEX
  5
1B4D
  8
SK6
 10
-53.40096493475846
 20
-66.12780752645074
 30
0.0
  0
SEQEND
  5
203A
  8
SK6
  0
ARC
  5
ACA
  8
1
 10
1.299999999999983
 20
35.125
 30
0.0
 40
0.5
 50
270.0
 51
293.5781784781994
  0
ARC
  5
ACB
  8
1
 10
1.299999999999983
 20
-35.125
 30
0.0
 40
0.500000000000009
 50
66.42182152180017
 51
90.0
  0
LINE
  5
ACF
  8
1
 10
0.0
 20
-34.92500000000001
 30
0.0
 11
0.2999999999999829
 21
-34.625
 31
0.0
  0
LINE
  5
AD0
  8
1
 10
0.2999999999999829
 20
34.625
 30
0.0
 11
0.0
 21
34.92499999999998
 31
0.0
  0
LINE
  5
AD5
  8
1
 10
1.299999999999983
 20
34.625
 30
0.0
 11
0.2999999999999829
 21
34.625
 31
0.0
  0
LINE
  5
AD6
  8
1
 10
0.2999999999999829
 20
-34.625
 30
0.0
 11
1.299999999999983
 21
-34.625
 31
0.0
  0
LINE
  5
ADB
  8
1
 10
14.65616694409999
 20
-47.282880439
 30
0.0
 11
14.68806954659999
 21
-47.29184187660002
 31
0.0
  0
LINE
  5
ADC
  8
1
 10
14.6561667691
 20
47.30816788690001
 30
0.0
 11
14.6561667691
 21
-47.2826327523
 31
0.0
  0
LINE
  5
ADD
  8
1
 10
14.7615962207
 20
47.3314147463
 30
0.0
 11
14.6561668942
 21
47.30816788690001
 31
0.0
  0
LINE
  5
ADE
  8
1
 10
18.25
 20
47.3314147463
 30
0.0
 11
14.7615962207
 21
47.3314147463
 31
0.0
  0
LINE
  5
ADF
  8
1
 10
14.68806954659999
 20
-47.29184187660002
 30
0.0
 11
18.25
 21
-47.29184187660002
 31
0.0
  0
LINE
  5
AE0
  8
1
 10
7.498403779400007
 20
47.3314147463
 30
0.0
 11
4.006414746699988
 21
47.3314147463
 31
0.0
  0
LINE
  5
AE1
  8
1
 10
7.603833105900009
 20
47.30816788690001
 30
0.0
 11
7.498403779400007
 21
47.3314147463
 31
0.0
  0
LINE
  5
AE2
  8
1
 10
7.603833230899994
 20
47.30844201400001
 30
0.0
 11
7.603833230899994
 21
-47.28288044160001
 31
0.0
  0
LINE
  5
AE3
  8
1
 10
7.571930453299984
 20
-47.29184187660002
 30
0.0
 11
7.603833055899997
 21
-47.282880439
 31
0.0
  0
LINE
  5
AE4
  8
1
 10
4.040356993800003
 20
-47.29184187660002
 30
0.0
 11
7.571930453299984
 21
-47.29184187660002
 31
0.0
  0
LINE
  5
AE5
  8
1
 10
2.300001405499984
 20
-46.74795901499999
 30
0.0
 11
4.040356993800003
 21
-47.29184189310001
 31
0.0
  0
LINE
  5
AE6
  8
1
 10
4.006414746699988
 20
47.33141476029999
 30
0.0
 11
2.299999765199999
 21
46.80267569
 31
0.0
  0
ARC
  5
AE7
  8
1
 10
2.557435939599998
 20
-45.59355264690001
 30
0.0
 40
1.184053137363273
 50
207.7147598986998
 51
257.3157095984005
  0
LINE
  5
AE8
  8
1
 10
1.50922466130001
 20
-46.14422037630001
 30
0.0
 11
1.5
 21
-46.01377680920001
 31
0.0
  0
LINE
  5
AE9
  8
1
 10
1.5
 20
-46.01377680920001
 30
0.0
 11
1.5
 21
46.01377680919998
 31
0.0
  0
ARC
  5
AEA
  8
1
 10
2.572884962100005
 20
45.72649004249999
 30
0.0
 40
1.111555736593689
 50
104.3436511600003
 51
164.8417645594994
  0
LINE
  5
AEB
  8
1
 10
9.204999995999998
 20
44.41431970880001
 30
0.0
 11
7.60383322749999
 21
47.3081678945
 31
0.0
  0
LINE
  5
AEC
  8
1
 10
9.204999999999984
 20
44.4143196734
 30
0.0
 11
9.204999999999984
 21
-44.387299867
 31
0.0
  0
LINE
  5
AED
  8
1
 10
7.603833226399985
 20
-47.28288044990001
 30
0.0
 11
9.2049999921
 21
-44.38762367050001
 31
0.0
  0
LINE
  5
AEE
  8
1
 10
14.65616677259999
 20
47.3081678945
 30
0.0
 11
13.05500000399999
 21
44.41431970880001
 31
0.0
  0
LINE
  5
AEF
  8
1
 10
13.05500000800001
 20
-44.38762367050001
 30
0.0
 11
14.65616677360001
 21
-47.28288044990001
 31
0.0
  0
LINE
  5
AF0
  8
1
 10
13.05500000000001
 20
44.41459195280001
 30
0.0
 11
13.05500000000001
 21
-44.38762365650001
 31
0.0
  0
ARC
  5
AF1
  8
1
 10
17.92302328310001
 20
46.41895288640001
 30
0.0
 40
1.127359624435328
 50
1.493363825500091
 51
43.53750291790048
  0
LINE
  5
AF2
  8
1
 10
19.04999999999998
 20
46.44833319130001
 30
0.0
 11
19.04999999999998
 21
-46.44833319130001
 31
0.0
  0
ARC
  5
AF3
  8
1
 10
17.91824827779999
 20
-46.4157978575
 30
0.0
 40
1.1322192847622
 50
319.2464850235001
 51
358.3533278529993
  0
ARC
  5
AF4
  8
1
 10
18.2616113983
 20
-46.25791326929999
 30
0.0
 40
1.033993805426882
 50
269.3565743835002
 51
299.8289453780985
  0
ARC
  5
AF5
  8
1
 10
18.2610591033
 20
46.41902767409999
 30
0.0
 40
0.9124540938653742
 50
58.31881226410037
 51
90.69445187719943
  0
ARC
  5
AF6
  8
1
 10
12.5158206966
 20
-44.1073442162
 30
0.0
 40
0.5397579791454132
 50
357.3466499737992
 51
85.83742202690154
  0
ARC
  5
AF7
  8
1
 10
12.54139279200001
 20
44.09944295630001
 30
0.0
 40
0.4858431210597904
 50
271.6049163143007
 51
333.441972537701
  0
POLYLINE
  5
AF8
  8
1
 66
     1
 10
0.0
 20
0.0
 30
0.0
  0
VERTEX
  5
1B4E
  8
1
 10
13.05500000000001
 20
44.14662312639999
 30
0.0
  0
VERTEX
  5
1B4F
  8
1
 10
13.03542892280001
 20
44.01594229719998
 30
0.0
  0
VERTEX
  5
1B50
  8
1
 10
12.97787844319998
 20
43.88571451269999
 30
0.0
  0
SEQEND
  5
2039
  8
1
  0
ARC
  5
AF9
  8
1
 10
9.744214343399989
 20
-44.10737531749999
 30
0.0
 40
0.5397915428070933
 50
94.16604783349855
 51
182.6498801657025
  0
POLYLINE
  5
AFA
  8
1
 66
     1
 10
0.0
 20
0.0
 30
0.0
  0
VERTEX
  5
1B51
  8
1
 10
9.280099379399985
 20
43.88913247470001
 30
0.0
  0
VERTEX
  5
1B52
  8
1
 10
9.224055884099982
 20
44.0177026321
 30
0.0
  0
VERTEX
  5
1B53
  8
1
 10
9.204999999999984
 20
44.14662312639999
 30
0.0
  0
SEQEND
  5
2038
  8
1
  0
ARC
  5
AFB
  8
1
 10
9.721350266000002
 20
44.10422581969999
 30
0.0
 40
0.4907078648052702
 50
206.0244317763009
 51
268.0905652222996
  0
LINE
  5
AFC
  8
1
 10
12.55500000000001
 20
43.613790424
 30
0.0
 11
9.704999999999984
 21
43.613790424
 31
0.0
  0
LINE
  5
AFD
  8
1
 10
9.704999999999984
 20
-43.5690100651
 30
0.0
 11
12.55500000000001
 21
-43.5690100651
 31
0.0
  0
LINE
  5
B00
  8
1
 10
0.2999999999999829
 20
34.625
 30
0.0
 11
0.2999999999999829
 21
-34.625
 31
0.0
  0
LINE
  5
B01
  8
1
 10
0.0
 20
34.92499999999998
 30
0.0
 11
0.0
 21
-34.92500000000001
 31
0.0
  0
LINE
  5
B04
  8
1
 10
14.68806954670001
 20
-47.29184187660002
 30
0.0
 11
14.65616694420001
 21
-47.282880439
 31
0.0
  0
LINE
  5
B5C
  8
1
 10
1.299999999999983
 20
-34.625
 30
0.0
 11
1.299999999999983
 21
34.625
 31
0.0
  0
LINE
  5
B5F
  8
1
 10
12.55500000000001
 20
-43.00413183130001
 30
0.0
 11
12.55500000000001
 21
42.79577481850001
 31
0.0
  0
LINE
  5
B60
  8
1
 10
9.704999999999984
 20
-43.00421493109999
 30
0.0
 11
9.704999999999984
 21
42.7957705776
 31
0.0
  0
LINE
  5
B62
  8
1
 10
18.25
 20
47.3314147463
 30
0.0
 11
18.25
 21
-47.29184187660002
 31
0.0
  0
LINE
  5
B64
  8
1
 10
2.299999999999983
 20
-46.74795854910002
 30
0.0
 11
2.299999999999983
 21
46.80267576719999
 31
0.0
  0
LINE
  5
C38
  8
1
 10
101.6285674554
 20
41.28131000000002
 30
0.0
 11
101.6
 21
41.28131000000002
 31
0.0
  0
LINE
  5
C3B
  8
1
 10
101.6
 20
-41.28130999999996
 30
0.0
 11
101.6285674554
 21
-41.28130999999996
 31
0.0
  0
LINE
  5
C3C
  8
1
 10
82.4799857953
 20
-46.04999999999998
 30
0.0
 11
100.6
 21
-46.04999999999998
 31
0.0
  0
LINE
  5
C3D
  8
1
 10
100.6
 20
46.05000000000001
 30
0.0
 11
82.4799857953
 21
46.05000000000001
 31
0.0
  0
ARC
  5
C3E
  8
1
 10
82.4799857953
 20
-45.04999999999998
 30
0.0
 40
1.0
 50
208.3593500282001
 51
270.0
  0
ARC
  5
C3F
  8
1
 10
82.4799857953
 20
45.05000000000001
 30
0.0
 40
1.000000000000007
 50
90.0
 51
151.6406499717985
  0
ARC
  5
C40
  8
1
 10
100.6
 20
-45.04999999999998
 30
0.0
 40
1.0
 50
270.0
 51
0.0
  0
ARC
  5
C41
  8
1
 10
100.6
 20
45.05000000000001
 30
0.0
 40
1.0
 50
0.0
 51
90.0
  0
ARC
  5
C42
  8
1
 10
80.7200142046
 20
-45.99999999999997
 30
0.0
 40
1.0
 50
28.35935002820012
 51
90.0
  0
ARC
  5
C43
  8
1
 10
80.7200142046
 20
46.00000000000003
 30
0.0
 40
1.000000000000004
 50
270.0
 51
331.6406499718007
  0
LINE
  5
C44
  8
1
 10
80.7200142046
 20
45.00000000000003
 30
0.0
 11
35.7986447003
 21
45.00000000000003
 31
0.0
  0
LINE
  5
C45
  8
1
 10
35.7986448698
 20
-44.99999999999997
 30
0.0
 11
80.7200142046
 21
-44.99999999999997
 31
0.0
  0
CIRCLE
  5
C87
  8
1
 10
91.6
 20
0.0000000000000284
 30
0.0
 40
2.625000000000028
  0
LINE
  5
C88
  8
1
 10
101.6
 20
0.0000000000000284
 30
0.0
 11
101.6
 21
45.05000000000001
 31
0.0
  0
LINE
  5
C89
  8
1
 10
101.6
 20
-45.04999999999998
 30
0.0
 11
101.6
 21
0.0000000000000284
 31
0.0
  0
ARC
  5
C8A
  8
1
 10
20.1085330235
 20
43.85950769810003
 30
0.0
 40
1.060752728582587
 50
176.2927323243006
 51
266.8367750509994
  0
ARC
  5
C8B
  8
1
 10
20.10866644000001
 20
-43.85962595529998
 30
0.0
 40
1.060878222832341
 50
93.17006693819981
 51
183.7004248187002
  0
LINE
  5
C8E
  8
1
 10
20.05000000000001
 20
-42.80037109809999
 30
0.0
 11
22.15000000000001
 21
-42.80037109809999
 31
0.0
  0
LINE
  5
C8F
  8
1
 10
22.15000000000001
 20
42.80037114590004
 30
0.0
 11
20.05000000000001
 21
42.80037114590004
 31
0.0
  0
ARC
  5
C90
  8
1
 10
21.72993917529999
 20
88.85983084930001
 30
0.0
 40
46.06137513435104
 50
270.5225212217
 51
287.7842703692
  0
POLYLINE
  5
C91
  8
1
 66
     1
 10
0.0
 20
0.0
 30
0.0
  0
VERTEX
  5
1B54
  8
1
 10
22.15000000000001
 20
-42.80037109809999
 30
0.0
  0
VERTEX
  5
1B55
  8
1
 10
24.82459328760001
 20
-42.88690367769996
 30
0.0
  0
VERTEX
  5
1B56
  8
1
 10
27.39477173189999
 20
-43.13217080979996
 30
0.0
  0
VERTEX
  5
1B57
  8
1
 10
29.74075125740001
 20
-43.49248118189996
 30
0.0
  0
VERTEX
  5
1B58
  8
1
 10
31.80125673949999
 20
-43.91378899079999
 30
0.0
  0
VERTEX
  5
1B59
  8
1
 10
33.48896543550001
 20
-44.32990204339998
 30
0.0
  0
VERTEX
  5
1B5A
  8
1
 10
34.75024026040001
 20
-44.68150641909997
 30
0.0
  0
VERTEX
  5
1B5B
  8
1
 10
35.53403663949999
 20
-44.91711604859998
 30
0.0
  0
VERTEX
  5
1B5C
  8
1
 10
35.79999286930001
 20
-44.99999782929999
 30
0.0
  0
VERTEX
  5
1B5D
  8
1
 10
35.7986448698
 20
-44.99957771289996
 30
0.0
  0
SEQEND
  5
2037
  8
1
  0
LINE
  5
C9D
  8
1
 10
90.35
 20
-0.7216878364999673
 30
0.0
 11
91.6
 21
-1.443375672999991
 31
0.0
  0
LINE
  5
C9E
  8
1
 10
92.85
 20
-0.7216878364999673
 30
0.0
 11
91.6
 21
-1.443375672999991
 31
0.0
  0
LINE
  5
C9F
  8
1
 10
92.85
 20
0.7216878365000241
 30
0.0
 11
92.85
 21
-0.7216878364999673
 31
0.0
  0
LINE
  5
CA0
  8
1
 10
92.85
 20
0.7216878365000241
 30
0.0
 11
91.6
 21
1.44337567300002
 31
0.0
  0
LINE
  5
CA1
  8
1
 10
90.35
 20
0.7216878365000241
 30
0.0
 11
91.6
 21
1.44337567300002
 31
0.0
  0
LINE
  5
CA2
  8
1
 10
90.35
 20
0.7216878365000241
 30
0.0
 11
90.35
 21
-0.7216878364999673
 31
0.0
  0
CIRCLE
  5
CA3
  8
1
 10
91.6
 20
0.0000000000000284
 30
0.0
 40
2.055000000000021
  0
CIRCLE
  5
CA4
  8
1
 10
91.6
 20
0.0000000000000284
 30
0.0
 40
2.256103126841992
  0
CIRCLE
  5
CA5
  8
1
 10
91.6
 20
0.0000000000000284
 30
0.0
 40
2.5
  0
LINE
  5
CA6
  8
3
 10
96.18599
 20
0.0000000000000284
 30
0.0
 11
96.18599
 21
-9.524999999999977
 31
0.0
  0
LINE
  5
CA9
  8
3
 10
96.18599
 20
9.525000000000034
 30
0.0
 11
96.18599
 21
0.0000000000000284
 31
0.0
  0
LINE
  5
CAA
  8
3
 10
95.25
 20
0.0000000000000284
 30
0.0
 11
95.25
 21
-8.589009999999973
 31
0.0
  0
LINE
  5
CAB
  8
3
 10
95.25
 20
8.58901000000003
 30
0.0
 11
95.25
 21
0.0000000000000284
 31
0.0
  0
LINE
  5
CB5
  8
3
 10
87.1101603049
 20
41.28131000000002
 30
0.0
 11
87.1101603049
 21
25.39869000000004
 31
0.0
  0
LINE
  5
CB6
  8
3
 10
86.47203951060001
 20
41.27131000000003
 30
0.0
 11
86.47203951060001
 21
25.40869000000004
 31
0.0
  0
LINE
  5
CB7
  8
3
 10
85.5472
 20
41.02350000000001
 30
0.0
 11
85.5472
 21
25.65650000000002
 31
0.0
  0
LINE
  5
CB8
  8
3
 10
87.1101603049
 20
-25.39868999999999
 30
0.0
 11
87.1101603049
 21
-41.28130999999996
 31
0.0
  0
LINE
  5
CB9
  8
3
 10
85.5472
 20
-25.65649999999999
 30
0.0
 11
85.5472
 21
-41.02349999999998
 31
0.0
  0
LINE
  5
CBA
  8
3
 10
86.47203951060001
 20
-25.40868999999998
 30
0.0
 11
86.47203951060001
 21
-41.27130999999997
 31
0.0
  0
POLYLINE
  5
CBB
  8
3
 66
     1
 10
0.0
 20
0.0
 30
0.0
  0
VERTEX
  5
1B5E
  8
3
 10
91.6
 20
41.12812389630002
 30
0.0
  0
VERTEX
  5
1B5F
  8
3
 10
90.7319102511
 20
41.06137380710004
 30
0.0
  0
VERTEX
  5
1B60
  8
3
 10
89.96170102650001
 20
40.86639517690003
 30
0.0
  0
VERTEX
  5
1B61
  8
3
 10
89.37531006290001
 20
40.55887768790004
 30
0.0
  0
VERTEX
  5
1B62
  8
3
 10
89.03940935450001
 20
40.16629298230004
 30
0.0
  0
VERTEX
  5
1B63
  8
3
 10
88.99241764499999
 20
39.72866644390001
 30
0.0
  0
VERTEX
  5
1B64
  8
3
 10
89.23870176739999
 20
39.29475933450004
 30
0.0
  0
VERTEX
  5
1B65
  8
3
 10
89.75056424889999
 20
38.91640042760002
 30
0.0
  0
VERTEX
  5
1B66
  8
3
 10
90.3993263529
 20
38.67001073210002
 30
0.0
  0
SEQEND
  5
2036
  8
3
  0
POLYLINE
  5
CBC
  8
3
 66
     1
 10
0.0
 20
0.0
 30
0.0
  0
VERTEX
  5
1B67
  8
3
 10
92.67850277529999
 20
38.65117328730003
 30
0.0
  0
VERTEX
  5
1B68
  8
3
 10
93.0098787037
 20
38.72722008980003
 30
0.0
  0
VERTEX
  5
1B69
  8
3
 10
93.6628879322
 20
39.04403147790003
 30
0.0
  0
VERTEX
  5
1B6A
  8
3
 10
94.08405538189999
 20
39.44940643430004
 30
0.0
  0
VERTEX
  5
1B6B
  8
3
 10
94.2249114967
 20
39.89124316440001
 30
0.0
  0
VERTEX
  5
1B6C
  8
3
 10
94.07021385460001
 20
40.31708827950001
 30
0.0
  0
VERTEX
  5
1B6D
  8
3
 10
93.6379038744
 20
40.68200046870004
 30
0.0
  0
VERTEX
  5
1B6E
  8
3
 10
92.9755690117
 20
40.95130032890003
 30
0.0
  0
VERTEX
  5
1B6F
  8
3
 10
92.1575140159
 20
41.10110758350004
 30
0.0
  0
VERTEX
  5
1B70
  8
3
 10
91.6
 20
41.12812389630002
 30
0.0
  0
SEQEND
  5
2035
  8
3
  0
POLYLINE
  5
CBD
  8
3
 66
     1
 10
0.0
 20
0.0
 30
0.0
  0
VERTEX
  5
1B71
  8
3
 10
91.6
 20
-38.50312389629997
 30
0.0
  0
VERTEX
  5
1B72
  8
3
 10
90.7319102511
 20
-38.58406777269997
 30
0.0
  0
VERTEX
  5
1B73
  8
3
 10
89.96170102650001
 20
-38.81539506139998
 30
0.0
  0
VERTEX
  5
1B74
  8
3
 10
89.37531006290001
 20
-39.16554367059996
 30
0.0
  0
VERTEX
  5
1B75
  8
3
 10
89.03940935450001
 20
-39.58836517859999
 30
0.0
  0
VERTEX
  5
1B76
  8
3
 10
88.99241764499999
 20
-40.03055924329996
 30
0.0
  0
VERTEX
  5
1B77
  8
3
 10
89.23870176739999
 20
-40.44144833199996
 30
0.0
  0
VERTEX
  5
1B78
  8
3
 10
89.75056424889999
 20
-40.77925103959998
 30
0.0
  0
VERTEX
  5
1B79
  8
3
 10
90.4715514444
 20
-41.01265015069998
 30
0.0
  0
VERTEX
  5
1B7A
  8
3
 10
91.32004091779999
 20
-41.12137624499996
 30
0.0
  0
VERTEX
  5
1B7B
  8
3
 10
92.19898289049999
 20
-41.09687656899996
 30
0.0
  0
VERTEX
  5
1B7C
  8
3
 10
93.0098787037
 20
-40.94146195569996
 30
0.0
  0
VERTEX
  5
1B7D
  8
3
 10
93.6628879322
 20
-40.66733624879998
 30
0.0
  0
VERTEX
  5
1B7E
  8
3
 10
94.08405538189999
 20
-40.29798987699996
 30
0.0
  0
VERTEX
  5
1B7F
  8
3
 10
94.2249114967
 20
-39.86968778619996
 30
0.0
  0
VERTEX
  5
1B80
  8
3
 10
94.07021385460001
 20
-39.42901817379996
 30
0.0
  0
VERTEX
  5
1B81
  8
3
 10
93.6379038744
 20
-39.02743925839997
 30
0.0
  0
VERTEX
  5
1B82
  8
3
 10
92.9755690117
 20
-38.71558234709997
 30
0.0
  0
VERTEX
  5
1B83
  8
3
 10
92.1575140159
 20
-38.53599489159998
 30
0.0
  0
VERTEX
  5
1B84
  8
3
 10
91.6
 20
-38.50312389629997
 30
0.0
  0
SEQEND
  5
2034
  8
3
  0
CIRCLE
  5
CC1
  8
3
 10
91.6
 20
0.0000000000000284
 30
0.0
 40
2.099999999999994
  0
LINE
  5
CC3
  8
3
 10
92.19999999999999
 20
-2.012461179699983
 30
0.0
 11
92.19999999999999
 21
-2.499999999999972
 31
0.0
  0
LINE
  5
CC4
  8
3
 10
92.19999999999999
 20
2.500000000000028
 30
0.0
 11
92.19999999999999
 21
2.012461179800027
 31
0.0
  0
LINE
  5
CFB
  8
3
 10
1.5
 20
37.72000000000003
 30
0.0
 11
34.19999999999999
 21
37.72000000000003
 31
0.0
  0
LINE
  5
CFD
  8
3
 10
34.19999999999999
 20
-35.29999999999998
 30
0.0
 11
1.5
 21
-35.29999999999998
 31
0.0
  0
LINE
  5
CFE
  8
SK3
 10
-5.25
 20
0.0000000000000284
 30
0.0
 11
-5.25
 21
11.09979999999999
 31
0.0
  0
LINE
  5
CFF
  8
SK3
 10
-5.25
 20
-11.09980000000002
 30
0.0
 11
-5.25
 21
0.0000000000000284
 31
0.0
  0
LINE
  5
D00
  8
SK3
 10
-4.7616560588
 20
0.0000000000000284
 30
0.0
 11
-4.7616560588
 21
-8.731249999999989
 31
0.0
  0
LINE
  5
D01
  8
SK3
 10
-4.7616560588
 20
8.731250000000045
 30
0.0
 11
-4.7616560588
 21
0.0000000000000284
 31
0.0
  0
POLYLINE
  5
D05
  8
3
 66
     1
 10
0.0
 20
0.0
 30
0.0
  0
VERTEX
  5
1B85
  8
3
 10
91.6
 20
8.389519393100045
 30
0.0
  0
VERTEX
  5
1B86
  8
3
 10
92.28362752219999
 20
8.356164737000029
 30
0.0
  0
VERTEX
  5
1B87
  8
3
 10
92.88998212850001
 20
8.25259933320001
 30
0.0
  0
VERTEX
  5
1B88
  8
3
 10
93.3634566776
 20
8.066860654000038
 30
0.0
  0
VERTEX
  5
1B89
  8
3
 10
93.64315022720001
 20
7.792455021600006
 30
0.0
  0
VERTEX
  5
1B8A
  8
3
 10
93.6890324256
 20
7.452033262700013
 30
0.0
  0
VERTEX
  5
1B8B
  8
3
 10
93.5086125755
 20
7.085390900600032
 30
0.0
  0
VERTEX
  5
1B8C
  8
3
 10
93.12259294859999
 20
6.73389029910004
 30
0.0
  0
VERTEX
  5
1B8D
  8
3
 10
92.5576078878
 20
6.451747229500029
 30
0.0
  0
VERTEX
  5
1B8E
  8
3
 10
91.878698569
 20
6.302774733400042
 30
0.0
  0
VERTEX
  5
1B8F
  8
3
 10
91.1835403119
 20
6.319230160000018
 30
0.0
  0
VERTEX
  5
1B90
  8
3
 10
90.5448975406
 20
6.488330871500011
 30
0.0
  0
VERTEX
  5
1B91
  8
3
 10
90.01125249789999
 20
6.780734302900044
 30
0.0
  0
VERTEX
  5
1B92
  8
3
 10
89.64443974
 20
7.149694580100032
 30
0.0
  0
VERTEX
  5
1B93
  8
3
 10
89.501237404
 20
7.525186499700027
 30
0.0
  0
VERTEX
  5
1B94
  8
3
 10
89.59136043769999
 20
7.849181642500014
 30
0.0
  0
VERTEX
  5
1B95
  8
3
 10
89.89530950099999
 20
8.099717269700022
 30
0.0
  0
VERTEX
  5
1B96
  8
3
 10
90.39178887169999
 20
8.272539931800026
 30
0.0
  0
VERTEX
  5
1B97
  8
3
 10
91.03504337609999
 20
8.367098336700025
 30
0.0
  0
VERTEX
  5
1B98
  8
3
 10
91.6
 20
8.389519393100045
 30
0.0
  0
SEQEND
  5
2033
  8
3
  0
POLYLINE
  5
D06
  8
3
 66
     1
 10
0.0
 20
0.0
 30
0.0
  0
VERTEX
  5
1B99
  8
3
 10
91.6
 20
-6.289519393099965
 30
0.0
  0
VERTEX
  5
1B9A
  8
3
 10
92.28362752219999
 20
-6.370553140899972
 30
0.0
  0
VERTEX
  5
1B9B
  8
3
 10
92.88998212850001
 20
-6.595509683199964
 30
0.0
  0
VERTEX
  5
1B9C
  8
3
 10
93.3634566776
 20
-6.926588517199974
 30
0.0
  0
VERTEX
  5
1B9D
  8
3
 10
93.64315022720001
 20
-7.30713332519997
 30
0.0
  0
VERTEX
  5
1B9E
  8
3
 10
93.6890324256
 20
-7.666377669399992
 30
0.0
  0
VERTEX
  5
1B9F
  8
3
 10
93.5086125755
 20
-7.961289317299986
 30
0.0
  0
VERTEX
  5
1BA0
  8
3
 10
93.12259294859999
 20
-8.18016506989997
 30
0.0
  0
VERTEX
  5
1BA1
  8
3
 10
92.5576078878
 20
-8.320700715499981
 30
0.0
  0
VERTEX
  5
1BA2
  8
3
 10
91.878698569
 20
-8.384199031299971
 30
0.0
  0
VERTEX
  5
1BA3
  8
3
 10
91.1835403119
 20
-8.377521035499967
 30
0.0
  0
VERTEX
  5
1BA4
  8
3
 10
90.5448975406
 20
-8.304028753899956
 30
0.0
  0
VERTEX
  5
1BA5
  8
3
 10
90.01125249789999
 20
-8.154008264799984
 30
0.0
  0
VERTEX
  5
1BA6
  8
3
 10
89.64443974
 20
-7.915059897799978
 30
0.0
  0
VERTEX
  5
1BA7
  8
3
 10
89.501237404
 20
-7.597266773199976
 30
0.0
  0
VERTEX
  5
1BA8
  8
3
 10
89.59136043769999
 20
-7.236509536899973
 30
0.0
  0
VERTEX
  5
1BA9
  8
3
 10
89.89530950099999
 20
-6.873328137899989
 30
0.0
  0
VERTEX
  5
1BAA
  8
3
 10
90.39178887169999
 20
-6.554917776099956
 30
0.0
  0
VERTEX
  5
1BAB
  8
3
 10
91.03504337609999
 20
-6.344519781199978
 30
0.0
  0
VERTEX
  5
1BAC
  8
3
 10
91.6
 20
-6.289519393099965
 30
0.0
  0
SEQEND
  5
2032
  8
3
  0
LINE
  5
D07
  8
3
 10
83.6
 20
41.27475000000004
 30
0.0
 11
83.6
 21
25.40525000000002
 31
0.0
  0
LINE
  5
D08
  8
3
 10
83.6
 20
-25.40524999999997
 30
0.0
 11
83.6
 21
-41.27474999999998
 31
0.0
  0
LINE
  5
D09
  8
3
 10
25.09999999999999
 20
29.72000000000003
 30
0.0
 11
31.44999999999999
 21
29.72000000000003
 31
0.0
  0
LINE
  5
D0A
  8
3
 10
18.75
 20
29.72000000000003
 30
0.0
 11
25.09999999999999
 21
29.72000000000003
 31
0.0
  0
LINE
  5
D0B
  8
3
 10
11.18000000000001
 20
33.12000000000003
 30
0.0
 11
16.18000000000001
 21
33.12000000000003
 31
0.0
  0
LINE
  5
D0C
  8
3
 10
6.180000000000007
 20
33.12000000000003
 30
0.0
 11
11.18000000000001
 21
33.12000000000003
 31
0.0
  0
POLYLINE
  5
D0D
  8
3
 66
     1
 10
0.0
 20
0.0
 30
0.0
  0
VERTEX
  5
1BAD
  8
3
 10
91.6
 20
39.60978110350004
 30
0.0
  0
VERTEX
  5
1BAE
  8
3
 10
92.35860749899999
 20
39.53887694440004
 30
0.0
  0
VERTEX
  5
1BAF
  8
3
 10
93.01476085159999
 20
39.33574046660004
 30
0.0
  0
VERTEX
  5
1BB0
  8
3
 10
93.4798429118
 20
39.02780637710003
 30
0.0
  0
VERTEX
  5
1BB1
  8
3
 10
93.6910417702
 20
38.65666288090003
 30
0.0
  0
VERTEX
  5
1BB2
  8
3
 10
93.6198338506
 20
38.27243496390003
 30
0.0
  0
VERTEX
  5
1BB3
  8
3
 10
93.2758361773
 20
37.92701473530002
 30
0.0
  0
VERTEX
  5
1BB4
  8
3
 10
92.70550754199999
 20
37.66705311100003
 30
0.0
  0
VERTEX
  5
1BB5
  8
3
 10
91.9858739874
 20
37.52765934880003
 30
0.0
  0
VERTEX
  5
1BB6
  8
3
 10
91.2141260125
 20
37.52765934880003
 30
0.0
  0
VERTEX
  5
1BB7
  8
3
 10
90.49449245790001
 20
37.66705311100003
 30
0.0
  0
VERTEX
  5
1BB8
  8
3
 10
89.9241638227
 20
37.92701473530002
 30
0.0
  0
VERTEX
  5
1BB9
  8
3
 10
89.5801661493
 20
38.27243496390003
 30
0.0
  0
VERTEX
  5
1BBA
  8
3
 10
89.5089582297
 20
38.65666288090003
 30
0.0
  0
VERTEX
  5
1BBB
  8
3
 10
89.7201570881
 20
39.02780637710003
 30
0.0
  0
VERTEX
  5
1BBC
  8
3
 10
90.18523914830001
 20
39.33574046660004
 30
0.0
  0
VERTEX
  5
1BBD
  8
3
 10
90.841392501
 20
39.53887694440004
 30
0.0
  0
VERTEX
  5
1BBE
  8
3
 10
91.6
 20
39.60978110350004
 30
0.0
  0
SEQEND
  5
2031
  8
3
  0
POLYLINE
  5
D0E
  8
3
 66
     1
 10
0.0
 20
0.0
 30
0.0
  0
VERTEX
  5
1BBF
  8
3
 10
92.19999999999999
 20
12.40264832100002
 30
0.0
  0
VERTEX
  5
1BC0
  8
3
 10
91.9431127984
 20
11.04223569160001
 30
0.0
  0
VERTEX
  5
1BC1
  8
3
 10
92.19999999999999
 20
9.833601805200033
 30
0.0
  0
SEQEND
  5
2030
  8
3
  0
POLYLINE
  5
D0F
  8
3
 66
     1
 10
0.0
 20
0.0
 30
0.0
  0
VERTEX
  5
1BC2
  8
3
 10
92.19999999999999
 20
9.833601805200033
 30
0.0
  0
VERTEX
  5
1BC3
  8
3
 10
92.8641973842
 20
9.680117388900044
 30
0.0
  0
VERTEX
  5
1BC4
  8
3
 10
93.3665938241
 20
9.627756632100045
 30
0.0
  0
VERTEX
  5
1BC5
  8
3
 10
93.61625222320001
 20
9.726280179600025
 30
0.0
  0
VERTEX
  5
1BC6
  8
3
 10
93.69955733649999
 20
9.981172159600021
 30
0.0
  0
VERTEX
  5
1BC7
  8
3
 10
93.61571723169999
 20
10.31471616500002
 30
0.0
  0
VERTEX
  5
1BC8
  8
3
 10
93.40430949169999
 20
10.70668236690003
 30
0.0
  0
VERTEX
  5
1BC9
  8
3
 10
92.93421436669999
 20
11.28744483060001
 30
0.0
  0
VERTEX
  5
1BCA
  8
3
 10
92.30080536310001
 20
11.79191228600001
 30
0.0
  0
VERTEX
  5
1BCB
  8
3
 10
92.19999999999999
 20
11.84606298500003
 30
0.0
  0
SEQEND
  5
202F
  8
3
  0
POLYLINE
  5
D10
  8
3
 66
     1
 10
0.0
 20
0.0
 30
0.0
  0
VERTEX
  5
1BCC
  8
3
 10
92.19999999999999
 20
11.84606298500003
 30
0.0
  0
VERTEX
  5
1BCD
  8
3
 10
91.9431127984
 20
13.20647561430002
 30
0.0
  0
VERTEX
  5
1BCE
  8
3
 10
92.19999999999999
 20
14.41510950070003
 30
0.0
  0
SEQEND
  5
202E
  8
3
  0
POLYLINE
  5
D11
  8
3
 66
     1
 10
0.0
 20
0.0
 30
0.0
  0
VERTEX
  5
1BCF
  8
3
 10
92.19999999999999
 20
14.41510950070003
 30
0.0
  0
VERTEX
  5
1BD0
  8
3
 10
92.8641973842
 20
14.56859391710003
 30
0.0
  0
VERTEX
  5
1BD1
  8
3
 10
93.3665938241
 20
14.62095467380004
 30
0.0
  0
VERTEX
  5
1BD2
  8
3
 10
93.61625222320001
 20
14.52243112640002
 30
0.0
  0
VERTEX
  5
1BD3
  8
3
 10
93.69955733649999
 20
14.26753914640003
 30
0.0
  0
VERTEX
  5
1BD4
  8
3
 10
93.61571723169999
 20
13.93399514100003
 30
0.0
  0
VERTEX
  5
1BD5
  8
3
 10
93.40430949169999
 20
13.54202893910002
 30
0.0
  0
VERTEX
  5
1BD6
  8
3
 10
92.93421436669999
 20
12.96126647540001
 30
0.0
  0
VERTEX
  5
1BD7
  8
3
 10
92.30080536310001
 20
12.45679901990002
 30
0.0
  0
VERTEX
  5
1BD8
  8
3
 10
92.19999999999999
 20
12.40264832100002
 30
0.0
  0
SEQEND
  5
202D
  8
3
  0
POLYLINE
  5
D12
  8
3
 66
     1
 10
0.0
 20
0.0
 30
0.0
  0
VERTEX
  5
1BD9
  8
3
 10
91.6
 20
-37.50978110349996
 30
0.0
  0
VERTEX
  5
1BDA
  8
3
 10
92.35860749899999
 20
-37.58068526259999
 30
0.0
  0
VERTEX
  5
1BDB
  8
3
 10
93.01476085159999
 20
-37.78382174039999
 30
0.0
  0
VERTEX
  5
1BDC
  8
3
 10
93.4798429118
 20
-38.09175582989997
 30
0.0
  0
VERTEX
  5
1BDD
  8
3
 10
93.6910417702
 20
-38.46289932609997
 30
0.0
  0
VERTEX
  5
1BDE
  8
3
 10
93.6198338506
 20
-38.84712724309998
 30
0.0
  0
VERTEX
  5
1BDF
  8
3
 10
93.2758361773
 20
-39.19254747169998
 30
0.0
  0
VERTEX
  5
1BE0
  8
3
 10
92.70550754199999
 20
-39.45250909599997
 30
0.0
  0
VERTEX
  5
1BE1
  8
3
 10
91.9858739874
 20
-39.59190285819997
 30
0.0
  0
VERTEX
  5
1BE2
  8
3
 10
91.2141260125
 20
-39.59190285819997
 30
0.0
  0
VERTEX
  5
1BE3
  8
3
 10
90.49449245790001
 20
-39.45250909599997
 30
0.0
  0
VERTEX
  5
1BE4
  8
3
 10
89.9241638227
 20
-39.19254747169998
 30
0.0
  0
VERTEX
  5
1BE5
  8
3
 10
89.5801661493
 20
-38.84712724309998
 30
0.0
  0
VERTEX
  5
1BE6
  8
3
 10
89.5089582297
 20
-38.46289932609997
 30
0.0
  0
VERTEX
  5
1BE7
  8
3
 10
89.7201570881
 20
-38.09175582989997
 30
0.0
  0
VERTEX
  5
1BE8
  8
3
 10
90.18523914830001
 20
-37.78382174039999
 30
0.0
  0
VERTEX
  5
1BE9
  8
3
 10
90.841392501
 20
-37.58068526259999
 30
0.0
  0
VERTEX
  5
1BEA
  8
3
 10
91.6
 20
-37.50978110349996
 30
0.0
  0
SEQEND
  5
202C
  8
3
  0
POLYLINE
  5
D13
  8
3
 66
     1
 10
0.0
 20
0.0
 30
0.0
  0
VERTEX
  5
1BEB
  8
3
 10
92.19999999999999
 20
-9.833601805199976
 30
0.0
  0
VERTEX
  5
1BEC
  8
3
 10
91.9431127984
 20
-11.13469531529998
 30
0.0
  0
VERTEX
  5
1BED
  8
3
 10
92.19999999999999
 20
-12.40264832099996
 30
0.0
  0
SEQEND
  5
202B
  8
3
  0
POLYLINE
  5
D14
  8
3
 66
     1
 10
0.0
 20
0.0
 30
0.0
  0
VERTEX
  5
1BEE
  8
3
 10
92.19999999999999
 20
-12.40264832099996
 30
0.0
  0
VERTEX
  5
1BEF
  8
3
 10
92.8641973842
 20
-12.89175016349998
 30
0.0
  0
VERTEX
  5
1BF0
  8
3
 10
93.3665938241
 20
-13.48554890469995
 30
0.0
  0
VERTEX
  5
1BF1
  8
3
 10
93.61625222320001
 20
-13.93529658289998
 30
0.0
  0
VERTEX
  5
1BF2
  8
3
 10
93.69955733649999
 20
-14.31065515739999
 30
0.0
  0
VERTEX
  5
1BF3
  8
3
 10
93.61571723169999
 20
-14.52296376639998
 30
0.0
  0
VERTEX
  5
1BF4
  8
3
 10
93.40430949169999
 20
-14.61649031949997
 30
0.0
  0
VERTEX
  5
1BF5
  8
3
 10
92.93421436669999
 20
-14.58295449209999
 30
0.0
  0
VERTEX
  5
1BF6
  8
3
 10
92.30080536310001
 20
-14.43641308409997
 30
0.0
  0
VERTEX
  5
1BF7
  8
3
 10
92.19999999999999
 20
-14.41510950069997
 30
0.0
  0
SEQEND
  5
202A
  8
3
  0
POLYLINE
  5
D15
  8
3
 66
     1
 10
0.0
 20
0.0
 30
0.0
  0
VERTEX
  5
1BF8
  8
3
 10
92.19999999999999
 20
-14.41510950069997
 30
0.0
  0
VERTEX
  5
1BF9
  8
3
 10
91.9431127984
 20
-13.11401599069995
 30
0.0
  0
VERTEX
  5
1BFA
  8
3
 10
92.19999999999999
 20
-11.84606298499997
 30
0.0
  0
SEQEND
  5
2029
  8
3
  0
POLYLINE
  5
D16
  8
3
 66
     1
 10
0.0
 20
0.0
 30
0.0
  0
VERTEX
  5
1BFB
  8
3
 10
92.19999999999999
 20
-11.84606298499997
 30
0.0
  0
VERTEX
  5
1BFC
  8
3
 10
92.8641973842
 20
-11.35696114239997
 30
0.0
  0
VERTEX
  5
1BFD
  8
3
 10
93.3665938241
 20
-10.76316240119996
 30
0.0
  0
VERTEX
  5
1BFE
  8
3
 10
93.61625222320001
 20
-10.31341472299999
 30
0.0
  0
VERTEX
  5
1BFF
  8
3
 10
93.69955733649999
 20
-9.938056148499982
 30
0.0
  0
VERTEX
  5
1C00
  8
3
 10
93.61571723169999
 20
-9.725747539599979
 30
0.0
  0
VERTEX
  5
1C01
  8
3
 10
93.40430949169999
 20
-9.632220986499988
 30
0.0
  0
VERTEX
  5
1C02
  8
3
 10
92.93421436669999
 20
-9.665756813799987
 30
0.0
  0
VERTEX
  5
1C03
  8
3
 10
92.30080536310001
 20
-9.812298221899994
 30
0.0
  0
VERTEX
  5
1C04
  8
3
 10
92.19999999999999
 20
-9.833601805199976
 30
0.0
  0
SEQEND
  5
2028
  8
3
  0
LINE
  5
D17
  8
3
 10
92.19999999999999
 20
-11.84606298499997
 30
0.0
 11
92.19999999999999
 21
-14.41510950069997
 31
0.0
  0
LINE
  5
D18
  8
3
 10
92.19999999999999
 20
-11.84606298499997
 30
0.0
 11
92.19999999999999
 21
-9.833601805199976
 31
0.0
  0
LINE
  5
D19
  8
3
 10
92.19999999999999
 20
14.41510950070003
 30
0.0
 11
92.19999999999999
 21
11.84606298500003
 31
0.0
  0
LINE
  5
D1A
  8
3
 10
92.19999999999999
 20
9.833601805200033
 30
0.0
 11
92.19999999999999
 21
11.84606298500003
 31
0.0
  0
POLYLINE
  5
D26
  8
3
 66
     1
 10
0.0
 20
0.0
 30
0.0
  0
VERTEX
  5
1C05
  8
3
 10
91.6
 20
-37.70194444049997
 30
0.0
  0
VERTEX
  5
1C06
  8
3
 10
92.4523361066
 20
-37.77305931079997
 30
0.0
  0
VERTEX
  5
1C07
  8
3
 10
93.2123083708
 20
-37.97869752189996
 30
0.0
  0
VERTEX
  5
1C08
  8
3
 10
93.79756200540001
 20
-38.29657498289998
 30
0.0
  0
VERTEX
  5
1C09
  8
3
 10
94.1446756981
 20
-38.69224473859998
 30
0.0
  0
VERTEX
  5
1C0A
  8
3
 10
94.21603429410001
 20
-39.12282983139997
 30
0.0
  0
VERTEX
  5
1C0B
  8
3
 10
94.0039049824
 20
-39.54166968529998
 30
0.0
  0
VERTEX
  5
1C0C
  8
3
 10
93.5312752655
 20
-39.90337650319998
 30
0.0
  0
VERTEX
  5
1C0D
  8
3
 10
92.84936190670001
 20
-40.16875373889997
 30
0.0
  0
VERTEX
  5
1C0E
  8
3
 10
92.0320607994
 20
-40.30904365119997
 30
0.0
  0
VERTEX
  5
1C0F
  8
3
 10
91.1679392005
 20
-40.30904365119997
 30
0.0
  0
VERTEX
  5
1C10
  8
3
 10
90.35063809319999
 20
-40.16875373889997
 30
0.0
  0
VERTEX
  5
1C11
  8
3
 10
89.6687247344
 20
-39.90337650319998
 30
0.0
  0
VERTEX
  5
1C12
  8
3
 10
89.1960950175
 20
-39.54166968529998
 30
0.0
  0
VERTEX
  5
1C13
  8
3
 10
88.98396570579999
 20
-39.12282983139997
 30
0.0
  0
VERTEX
  5
1C14
  8
3
 10
89.05532430189999
 20
-38.69224473859998
 30
0.0
  0
VERTEX
  5
1C15
  8
3
 10
89.40243799449999
 20
-38.29657498289998
 30
0.0
  0
VERTEX
  5
1C16
  8
3
 10
89.98769162919999
 20
-37.97869752189996
 30
0.0
  0
VERTEX
  5
1C17
  8
3
 10
90.7476638933
 20
-37.77305931079997
 30
0.0
  0
VERTEX
  5
1C18
  8
3
 10
91.6
 20
-37.70194444049997
 30
0.0
  0
SEQEND
  5
2027
  8
3
  0
POLYLINE
  5
D27
  8
3
 66
     1
 10
0.0
 20
0.0
 30
0.0
  0
VERTEX
  5
1C19
  8
3
 10
91.6
 20
40.32694444050003
 30
0.0
  0
VERTEX
  5
1C1A
  8
3
 10
92.4523361066
 20
40.25582957020004
 30
0.0
  0
VERTEX
  5
1C1B
  8
3
 10
93.2123083708
 20
40.05019135910004
 30
0.0
  0
VERTEX
  5
1C1C
  8
3
 10
93.79756200540001
 20
39.73231389800003
 30
0.0
  0
VERTEX
  5
1C1D
  8
3
 10
94.1446756981
 20
39.33664414240002
 30
0.0
  0
VERTEX
  5
1C1E
  8
3
 10
94.21603429410001
 20
38.90605904960003
 30
0.0
  0
VERTEX
  5
1C1F
  8
3
 10
94.0039049824
 20
38.48721919560003
 30
0.0
  0
VERTEX
  5
1C20
  8
3
 10
93.5312752655
 20
38.12551237770003
 30
0.0
  0
VERTEX
  5
1C21
  8
3
 10
92.84936190670001
 20
37.86013514200002
 30
0.0
  0
VERTEX
  5
1C22
  8
3
 10
92.0320607994
 20
37.71984522980003
 30
0.0
  0
VERTEX
  5
1C23
  8
3
 10
91.1679392005
 20
37.71984522980003
 30
0.0
  0
VERTEX
  5
1C24
  8
3
 10
90.35063809319999
 20
37.86013514200002
 30
0.0
  0
VERTEX
  5
1C25
  8
3
 10
89.6687247344
 20
38.12551237770003
 30
0.0
  0
VERTEX
  5
1C26
  8
3
 10
89.1960950175
 20
38.48721919560003
 30
0.0
  0
VERTEX
  5
1C27
  8
3
 10
88.98396570579999
 20
38.90605904960003
 30
0.0
  0
VERTEX
  5
1C28
  8
3
 10
89.05532430189999
 20
39.33664414240002
 30
0.0
  0
VERTEX
  5
1C29
  8
3
 10
89.40243799449999
 20
39.73231389800003
 30
0.0
  0
VERTEX
  5
1C2A
  8
3
 10
89.98769162919999
 20
40.05019135910004
 30
0.0
  0
VERTEX
  5
1C2B
  8
3
 10
90.7476638933
 20
40.25582957020004
 30
0.0
  0
VERTEX
  5
1C2C
  8
3
 10
91.6
 20
40.32694444050003
 30
0.0
  0
SEQEND
  5
2026
  8
3
  0
POLYLINE
  5
D28
  8
3
 66
     1
 10
0.0
 20
0.0
 30
0.0
  0
VERTEX
  5
1C2D
  8
3
 10
91.6
 20
33.80931742160004
 30
0.0
  0
VERTEX
  5
1C2E
  8
3
 10
90.93030399329999
 20
33.87592283060002
 30
0.0
  0
VERTEX
  5
1C2F
  8
3
 10
90.3625631329
 20
34.06559898800003
 30
0.0
  0
VERTEX
  5
1C30
  8
3
 10
89.98321081809999
 20
34.34946941830003
 30
0.0
  0
VERTEX
  5
1C31
  8
3
 10
89.85
 20
34.68431742160004
 30
0.0
  0
VERTEX
  5
1C32
  8
3
 10
89.98321081809999
 20
35.01916542490002
 30
0.0
  0
VERTEX
  5
1C33
  8
3
 10
90.3625631329
 20
35.30303585510003
 30
0.0
  0
VERTEX
  5
1C34
  8
3
 10
90.93030399329999
 20
35.49271201250002
 30
0.0
  0
VERTEX
  5
1C35
  8
3
 10
91.6
 20
35.55931742160004
 30
0.0
  0
VERTEX
  5
1C36
  8
3
 10
92.26969600659999
 20
35.49271201250002
 30
0.0
  0
VERTEX
  5
1C37
  8
3
 10
92.83743686700001
 20
35.30303585510003
 30
0.0
  0
VERTEX
  5
1C38
  8
3
 10
93.2167891819
 20
35.01916542490002
 30
0.0
  0
VERTEX
  5
1C39
  8
3
 10
93.35
 20
34.68431742160004
 30
0.0
  0
VERTEX
  5
1C3A
  8
3
 10
93.2167891819
 20
34.34946941830003
 30
0.0
  0
VERTEX
  5
1C3B
  8
3
 10
92.83743686700001
 20
34.06559898800003
 30
0.0
  0
VERTEX
  5
1C3C
  8
3
 10
92.26969600659999
 20
33.87592283060002
 30
0.0
  0
VERTEX
  5
1C3D
  8
3
 10
91.6
 20
33.80931742160004
 30
0.0
  0
SEQEND
  5
2025
  8
3
  0
POLYLINE
  5
D29
  8
3
 66
     1
 10
0.0
 20
0.0
 30
0.0
  0
VERTEX
  5
1C3E
  8
3
 10
89.28326725650001
 20
35.17512237460002
 30
0.0
  0
VERTEX
  5
1C3F
  8
3
 10
89.4229833366
 20
35.57130700700003
 30
0.0
  0
VERTEX
  5
1C40
  8
3
 10
89.82527975560001
 20
35.91970592580003
 30
0.0
  0
VERTEX
  5
1C41
  8
3
 10
90.44163362820001
 20
36.17829707940001
 30
0.0
  0
VERTEX
  5
1C42
  8
3
 10
91.1977035809
 20
36.31589055830003
 30
0.0
  0
VERTEX
  5
1C43
  8
3
 10
92.002296419
 20
36.31589055830003
 30
0.0
  0
VERTEX
  5
1C44
  8
3
 10
92.75836637169999
 20
36.17829707940001
 30
0.0
  0
VERTEX
  5
1C45
  8
3
 10
93.3747202443
 20
35.91970592580003
 30
0.0
  0
VERTEX
  5
1C46
  8
3
 10
93.7770166633
 20
35.57130700700003
 30
0.0
  0
VERTEX
  5
1C47
  8
3
 10
93.91673274339999
 20
35.17512237460002
 30
0.0
  0
VERTEX
  5
1C48
  8
3
 10
93.7770166633
 20
34.77893774210003
 30
0.0
  0
VERTEX
  5
1C49
  8
3
 10
93.3747202443
 20
34.43053882330003
 30
0.0
  0
VERTEX
  5
1C4A
  8
3
 10
92.75836637169999
 20
34.17194766980003
 30
0.0
  0
VERTEX
  5
1C4B
  8
3
 10
92.002296419
 20
34.03435419090002
 30
0.0
  0
VERTEX
  5
1C4C
  8
3
 10
91.1977035809
 20
34.03435419090002
 30
0.0
  0
VERTEX
  5
1C4D
  8
3
 10
90.44163362820001
 20
34.17194766980003
 30
0.0
  0
VERTEX
  5
1C4E
  8
3
 10
89.82527975560001
 20
34.43053882330003
 30
0.0
  0
VERTEX
  5
1C4F
  8
3
 10
89.4229833366
 20
34.77893774210003
 30
0.0
  0
VERTEX
  5
1C50
  8
3
 10
89.28326725650001
 20
35.17512237460002
 30
0.0
  0
SEQEND
  5
2024
  8
3
  0
POLYLINE
  5
D2A
  8
3
 66
     1
 10
0.0
 20
0.0
 30
0.0
  0
VERTEX
  5
1C51
  8
3
 10
93.655
 20
35.33383646000004
 30
0.0
  0
VERTEX
  5
1C52
  8
3
 10
93.5162304314
 20
34.96266064800002
 30
0.0
  0
VERTEX
  5
1C53
  8
3
 10
93.11866332490001
 20
34.64161418620003
 30
0.0
  0
VERTEX
  5
1C54
  8
3
 10
92.51599232109999
 20
34.41405617820004
 30
0.0
  0
VERTEX
  5
1C55
  8
3
 10
91.78961147870001
 20
34.31071959390002
 30
0.0
  0
VERTEX
  5
1C56
  8
3
 10
91.03762255539999
 20
34.34556061170002
 30
0.0
  0
VERTEX
  5
1C57
  8
3
 10
90.3615858222
 20
34.51387375900003
 30
0.0
  0
VERTEX
  5
1C58
  8
3
 10
89.85280378600001
 20
34.79292741270001
 30
0.0
  0
VERTEX
  5
1C59
  8
3
 10
89.57999028009999
 20
35.14503383050004
 30
0.0
  0
VERTEX
  5
1C5A
  8
3
 10
89.57999028009999
 20
35.52263908960003
 30
0.0
  0
VERTEX
  5
1C5B
  8
3
 10
89.85280378600001
 20
35.87474550740004
 30
0.0
  0
VERTEX
  5
1C5C
  8
3
 10
90.3615858222
 20
36.15379916110004
 30
0.0
  0
VERTEX
  5
1C5D
  8
3
 10
91.03762255539999
 20
36.32211230840002
 30
0.0
  0
VERTEX
  5
1C5E
  8
3
 10
91.78961147870001
 20
36.35695332620003
 30
0.0
  0
VERTEX
  5
1C5F
  8
3
 10
92.51599232109999
 20
36.25361674190003
 30
0.0
  0
VERTEX
  5
1C60
  8
3
 10
93.11866332490001
 20
36.02605873390002
 30
0.0
  0
VERTEX
  5
1C61
  8
3
 10
93.5162304314
 20
35.70501227210002
 30
0.0
  0
VERTEX
  5
1C62
  8
3
 10
93.655
 20
35.33383646000004
 30
0.0
  0
SEQEND
  5
2023
  8
3
  0
POLYLINE
  5
D2B
  8
3
 66
     1
 10
0.0
 20
0.0
 30
0.0
  0
VERTEX
  5
1C63
  8
3
 10
94.1
 20
35.60368335470002
 30
0.0
  0
VERTEX
  5
1C64
  8
3
 10
93.9492315519
 20
35.17615817550003
 30
0.0
  0
VERTEX
  5
1C65
  8
3
 10
93.51511110780001
 20
34.80019884260003
 30
0.0
  0
VERTEX
  5
1C66
  8
3
 10
92.85
 20
34.52115159990004
 30
0.0
  0
VERTEX
  5
1C67
  8
3
 10
92.03412044410001
 20
34.37267366340004
 30
0.0
  0
VERTEX
  5
1C68
  8
3
 10
91.16587955579999
 20
34.37267366340004
 30
0.0
  0
VERTEX
  5
1C69
  8
3
 10
90.35
 20
34.52115159990004
 30
0.0
  0
VERTEX
  5
1C6A
  8
3
 10
89.68488889220001
 20
34.80019884260003
 30
0.0
  0
VERTEX
  5
1C6B
  8
3
 10
89.250768448
 20
35.17615817550003
 30
0.0
  0
VERTEX
  5
1C6C
  8
3
 10
89.1
 20
35.60368335470002
 30
0.0
  0
VERTEX
  5
1C6D
  8
3
 10
89.250768448
 20
36.03120853380003
 30
0.0
  0
VERTEX
  5
1C6E
  8
3
 10
89.68488889220001
 20
36.40716786680002
 30
0.0
  0
VERTEX
  5
1C6F
  8
3
 10
90.35
 20
36.68621510940002
 30
0.0
  0
VERTEX
  5
1C70
  8
3
 10
91.16587955579999
 20
36.83469304590002
 30
0.0
  0
VERTEX
  5
1C71
  8
3
 10
92.03412044410001
 20
36.83469304590002
 30
0.0
  0
VERTEX
  5
1C72
  8
3
 10
92.85
 20
36.68621510940002
 30
0.0
  0
VERTEX
  5
1C73
  8
3
 10
93.51511110780001
 20
36.40716786680002
 30
0.0
  0
VERTEX
  5
1C74
  8
3
 10
93.9492315519
 20
36.03120853380003
 30
0.0
  0
VERTEX
  5
1C75
  8
3
 10
94.1
 20
35.60368335470002
 30
0.0
  0
SEQEND
  5
2022
  8
3
  0
POLYLINE
  5
D2C
  8
3
 66
     1
 10
0.0
 20
0.0
 30
0.0
  0
VERTEX
  5
1C76
  8
3
 10
94.1
 20
35.68172290600003
 30
0.0
  0
VERTEX
  5
1C77
  8
3
 10
93.9492315519
 20
35.25419772690003
 30
0.0
  0
VERTEX
  5
1C78
  8
3
 10
93.51511110780001
 20
34.87823839390003
 30
0.0
  0
VERTEX
  5
1C79
  8
3
 10
92.85
 20
34.59919115130003
 30
0.0
  0
VERTEX
  5
1C7A
  8
3
 10
92.03412044410001
 20
34.45071321480003
 30
0.0
  0
VERTEX
  5
1C7B
  8
3
 10
91.16587955579999
 20
34.45071321480003
 30
0.0
  0
VERTEX
  5
1C7C
  8
3
 10
90.35
 20
34.59919115130003
 30
0.0
  0
VERTEX
  5
1C7D
  8
3
 10
89.68488889220001
 20
34.87823839390003
 30
0.0
  0
VERTEX
  5
1C7E
  8
3
 10
89.250768448
 20
35.25419772690003
 30
0.0
  0
VERTEX
  5
1C7F
  8
3
 10
89.1
 20
35.68172290600003
 30
0.0
  0
VERTEX
  5
1C80
  8
3
 10
89.250768448
 20
36.10924808520002
 30
0.0
  0
VERTEX
  5
1C81
  8
3
 10
89.68488889220001
 20
36.48520741810003
 30
0.0
  0
VERTEX
  5
1C82
  8
3
 10
90.35
 20
36.76425466080002
 30
0.0
  0
VERTEX
  5
1C83
  8
3
 10
91.16587955579999
 20
36.91273259730002
 30
0.0
  0
VERTEX
  5
1C84
  8
3
 10
92.03412044410001
 20
36.91273259730002
 30
0.0
  0
VERTEX
  5
1C85
  8
3
 10
92.85
 20
36.76425466080002
 30
0.0
  0
VERTEX
  5
1C86
  8
3
 10
93.51511110780001
 20
36.48520741810003
 30
0.0
  0
VERTEX
  5
1C87
  8
3
 10
93.9492315519
 20
36.10924808520002
 30
0.0
  0
VERTEX
  5
1C88
  8
3
 10
94.1
 20
35.68172290600003
 30
0.0
  0
SEQEND
  5
2021
  8
3
  0
POLYLINE
  5
D2D
  8
3
 66
     1
 10
0.0
 20
0.0
 30
0.0
  0
VERTEX
  5
1C89
  8
3
 10
93.655
 20
35.95156980070004
 30
0.0
  0
VERTEX
  5
1C8A
  8
3
 10
93.5162304314
 20
35.58039398860004
 30
0.0
  0
VERTEX
  5
1C8B
  8
3
 10
93.11866332490001
 20
35.25934752680001
 30
0.0
  0
VERTEX
  5
1C8C
  8
3
 10
92.51599232109999
 20
35.03178951880003
 30
0.0
  0
VERTEX
  5
1C8D
  8
3
 10
91.78961147870001
 20
34.92845293450003
 30
0.0
  0
VERTEX
  5
1C8E
  8
3
 10
91.03762255539999
 20
34.96329395230003
 30
0.0
  0
VERTEX
  5
1C8F
  8
3
 10
90.3615858222
 20
35.13160709960002
 30
0.0
  0
VERTEX
  5
1C90
  8
3
 10
89.85280378600001
 20
35.41066075330002
 30
0.0
  0
VERTEX
  5
1C91
  8
3
 10
89.57999028009999
 20
35.76276717110002
 30
0.0
  0
VERTEX
  5
1C92
  8
3
 10
89.57999028009999
 20
36.14037243020002
 30
0.0
  0
VERTEX
  5
1C93
  8
3
 10
89.85280378600001
 20
36.49247884800002
 30
0.0
  0
VERTEX
  5
1C94
  8
3
 10
90.3615858222
 20
36.77153250170002
 30
0.0
  0
VERTEX
  5
1C95
  8
3
 10
91.03762255539999
 20
36.93984564900003
 30
0.0
  0
VERTEX
  5
1C96
  8
3
 10
91.78961147870001
 20
36.97468666680004
 30
0.0
  0
VERTEX
  5
1C97
  8
3
 10
92.51599232109999
 20
36.87135008250004
 30
0.0
  0
VERTEX
  5
1C98
  8
3
 10
93.11866332490001
 20
36.64379207450003
 30
0.0
  0
VERTEX
  5
1C99
  8
3
 10
93.5162304314
 20
36.32274561270003
 30
0.0
  0
VERTEX
  5
1C9A
  8
3
 10
93.655
 20
35.95156980070004
 30
0.0
  0
SEQEND
  5
2020
  8
3
  0
POLYLINE
  5
D2E
  8
3
 66
     1
 10
0.0
 20
0.0
 30
0.0
  0
VERTEX
  5
1C9B
  8
3
 10
94.1
 20
36.22141669530004
 30
0.0
  0
VERTEX
  5
1C9C
  8
3
 10
93.9492315519
 20
35.79389151610002
 30
0.0
  0
VERTEX
  5
1C9D
  8
3
 10
93.51511110780001
 20
35.41793218320004
 30
0.0
  0
VERTEX
  5
1C9E
  8
3
 10
92.85
 20
35.13888494050002
 30
0.0
  0
VERTEX
  5
1C9F
  8
3
 10
92.03412044410001
 20
34.99040700400002
 30
0.0
  0
VERTEX
  5
1CA0
  8
3
 10
91.16587955579999
 20
34.99040700400002
 30
0.0
  0
VERTEX
  5
1CA1
  8
3
 10
90.35
 20
35.13888494050002
 30
0.0
  0
VERTEX
  5
1CA2
  8
3
 10
89.68488889220001
 20
35.41793218320004
 30
0.0
  0
VERTEX
  5
1CA3
  8
3
 10
89.250768448
 20
35.79389151610002
 30
0.0
  0
VERTEX
  5
1CA4
  8
3
 10
89.1
 20
36.22141669530004
 30
0.0
  0
VERTEX
  5
1CA5
  8
3
 10
89.250768448
 20
36.64894187440004
 30
0.0
  0
VERTEX
  5
1CA6
  8
3
 10
89.68488889220001
 20
37.02490120740003
 30
0.0
  0
VERTEX
  5
1CA7
  8
3
 10
90.35
 20
37.30394845000004
 30
0.0
  0
VERTEX
  5
1CA8
  8
3
 10
91.16587955579999
 20
37.45242638650004
 30
0.0
  0
VERTEX
  5
1CA9
  8
3
 10
92.03412044410001
 20
37.45242638650004
 30
0.0
  0
VERTEX
  5
1CAA
  8
3
 10
92.85
 20
37.30394845000004
 30
0.0
  0
VERTEX
  5
1CAB
  8
3
 10
93.51511110780001
 20
37.02490120740003
 30
0.0
  0
VERTEX
  5
1CAC
  8
3
 10
93.9492315519
 20
36.64894187440004
 30
0.0
  0
VERTEX
  5
1CAD
  8
3
 10
94.1
 20
36.22141669530004
 30
0.0
  0
SEQEND
  5
201F
  8
3
  0
POLYLINE
  5
D2F
  8
3
 66
     1
 10
0.0
 20
0.0
 30
0.0
  0
VERTEX
  5
1CAE
  8
3
 10
94.1
 20
36.29945624660002
 30
0.0
  0
VERTEX
  5
1CAF
  8
3
 10
93.9492315519
 20
35.87193106750004
 30
0.0
  0
VERTEX
  5
1CB0
  8
3
 10
93.51511110780001
 20
35.49597173450002
 30
0.0
  0
VERTEX
  5
1CB1
  8
3
 10
92.85
 20
35.21692449190002
 30
0.0
  0
VERTEX
  5
1CB2
  8
3
 10
92.03412044410001
 20
35.06844655540004
 30
0.0
  0
VERTEX
  5
1CB3
  8
3
 10
91.16587955579999
 20
35.06844655540004
 30
0.0
  0
VERTEX
  5
1CB4
  8
3
 10
90.35
 20
35.21692449190002
 30
0.0
  0
VERTEX
  5
1CB5
  8
3
 10
89.68488889220001
 20
35.49597173450002
 30
0.0
  0
VERTEX
  5
1CB6
  8
3
 10
89.250768448
 20
35.87193106750004
 30
0.0
  0
VERTEX
  5
1CB7
  8
3
 10
89.1
 20
36.29945624660002
 30
0.0
  0
VERTEX
  5
1CB8
  8
3
 10
89.250768448
 20
36.72698142580003
 30
0.0
  0
VERTEX
  5
1CB9
  8
3
 10
89.68488889220001
 20
37.10294075870002
 30
0.0
  0
VERTEX
  5
1CBA
  8
3
 10
90.35
 20
37.38198800140003
 30
0.0
  0
VERTEX
  5
1CBB
  8
3
 10
91.16587955579999
 20
37.53046593790003
 30
0.0
  0
VERTEX
  5
1CBC
  8
3
 10
92.03412044410001
 20
37.53046593790003
 30
0.0
  0
VERTEX
  5
1CBD
  8
3
 10
92.85
 20
37.38198800140003
 30
0.0
  0
VERTEX
  5
1CBE
  8
3
 10
93.51511110780001
 20
37.10294075870002
 30
0.0
  0
VERTEX
  5
1CBF
  8
3
 10
93.9492315519
 20
36.72698142580003
 30
0.0
  0
VERTEX
  5
1CC0
  8
3
 10
94.1
 20
36.29945624660002
 30
0.0
  0
SEQEND
  5
201E
  8
3
  0
POLYLINE
  5
D30
  8
3
 66
     1
 10
0.0
 20
0.0
 30
0.0
  0
VERTEX
  5
1CC1
  8
3
 10
93.655
 20
36.56930314130003
 30
0.0
  0
VERTEX
  5
1CC2
  8
3
 10
93.5162304314
 20
36.19812732920002
 30
0.0
  0
VERTEX
  5
1CC3
  8
3
 10
93.11866332490001
 20
35.87708086740002
 30
0.0
  0
VERTEX
  5
1CC4
  8
3
 10
92.51599232109999
 20
35.64952285940004
 30
0.0
  0
VERTEX
  5
1CC5
  8
3
 10
91.78961147870001
 20
35.54618627510001
 30
0.0
  0
VERTEX
  5
1CC6
  8
3
 10
91.03762255539999
 20
35.58102729290002
 30
0.0
  0
VERTEX
  5
1CC7
  8
3
 10
90.3615858222
 20
35.74934044020003
 30
0.0
  0
VERTEX
  5
1CC8
  8
3
 10
89.85280378600001
 20
36.02839409390003
 30
0.0
  0
VERTEX
  5
1CC9
  8
3
 10
89.57999028009999
 20
36.38050051170003
 30
0.0
  0
VERTEX
  5
1CCA
  8
3
 10
89.57999028009999
 20
36.75810577080003
 30
0.0
  0
VERTEX
  5
1CCB
  8
3
 10
89.85280378600001
 20
37.11021218860003
 30
0.0
  0
VERTEX
  5
1CCC
  8
3
 10
90.3615858222
 20
37.38926584230003
 30
0.0
  0
VERTEX
  5
1CCD
  8
3
 10
91.03762255539999
 20
37.55757898960002
 30
0.0
  0
VERTEX
  5
1CCE
  8
3
 10
91.78961147870001
 20
37.59242000740002
 30
0.0
  0
VERTEX
  5
1CCF
  8
3
 10
92.51599232109999
 20
37.48908342310003
 30
0.0
  0
VERTEX
  5
1CD0
  8
3
 10
93.11866332490001
 20
37.26152541510004
 30
0.0
  0
VERTEX
  5
1CD1
  8
3
 10
93.5162304314
 20
36.94047895330004
 30
0.0
  0
VERTEX
  5
1CD2
  8
3
 10
93.655
 20
36.56930314130003
 30
0.0
  0
SEQEND
  5
201D
  8
3
  0
POLYLINE
  5
D31
  8
3
 66
     1
 10
0.0
 20
0.0
 30
0.0
  0
VERTEX
  5
1CD3
  8
3
 10
94.1
 20
36.83915003590002
 30
0.0
  0
VERTEX
  5
1CD4
  8
3
 10
93.9492315519
 20
36.41162485670003
 30
0.0
  0
VERTEX
  5
1CD5
  8
3
 10
93.51511110780001
 20
36.03566552380002
 30
0.0
  0
VERTEX
  5
1CD6
  8
3
 10
92.85
 20
35.75661828110003
 30
0.0
  0
VERTEX
  5
1CD7
  8
3
 10
92.03412044410001
 20
35.60814034460003
 30
0.0
  0
VERTEX
  5
1CD8
  8
3
 10
91.16587955579999
 20
35.60814034460003
 30
0.0
  0
VERTEX
  5
1CD9
  8
3
 10
90.35
 20
35.75661828110003
 30
0.0
  0
VERTEX
  5
1CDA
  8
3
 10
89.68488889220001
 20
36.03566552380002
 30
0.0
  0
VERTEX
  5
1CDB
  8
3
 10
89.250768448
 20
36.41162485670003
 30
0.0
  0
VERTEX
  5
1CDC
  8
3
 10
89.1
 20
36.83915003590002
 30
0.0
  0
VERTEX
  5
1CDD
  8
3
 10
89.250768448
 20
37.26667521500002
 30
0.0
  0
VERTEX
  5
1CDE
  8
3
 10
89.68488889220001
 20
37.64263454800002
 30
0.0
  0
VERTEX
  5
1CDF
  8
3
 10
90.35
 20
37.92168179060002
 30
0.0
  0
VERTEX
  5
1CE0
  8
3
 10
91.16587955579999
 20
38.07015972710002
 30
0.0
  0
VERTEX
  5
1CE1
  8
3
 10
92.03412044410001
 20
38.07015972710002
 30
0.0
  0
VERTEX
  5
1CE2
  8
3
 10
92.85
 20
37.92168179060002
 30
0.0
  0
VERTEX
  5
1CE3
  8
3
 10
93.51511110780001
 20
37.64263454800002
 30
0.0
  0
VERTEX
  5
1CE4
  8
3
 10
93.9492315519
 20
37.26667521500002
 30
0.0
  0
VERTEX
  5
1CE5
  8
3
 10
94.1
 20
36.83915003590002
 30
0.0
  0
SEQEND
  5
201C
  8
3
  0
POLYLINE
  5
D32
  8
3
 66
     1
 10
0.0
 20
0.0
 30
0.0
  0
VERTEX
  5
1CE6
  8
3
 10
94.1
 20
36.91718958720003
 30
0.0
  0
VERTEX
  5
1CE7
  8
3
 10
93.9492315519
 20
36.48966440810003
 30
0.0
  0
VERTEX
  5
1CE8
  8
3
 10
93.51511110780001
 20
36.11370507510003
 30
0.0
  0
VERTEX
  5
1CE9
  8
3
 10
92.85
 20
35.83465783250003
 30
0.0
  0
VERTEX
  5
1CEA
  8
3
 10
92.03412044410001
 20
35.68617989600003
 30
0.0
  0
VERTEX
  5
1CEB
  8
3
 10
91.16587955579999
 20
35.68617989600003
 30
0.0
  0
VERTEX
  5
1CEC
  8
3
 10
90.35
 20
35.83465783250003
 30
0.0
  0
VERTEX
  5
1CED
  8
3
 10
89.68488889220001
 20
36.11370507510003
 30
0.0
  0
VERTEX
  5
1CEE
  8
3
 10
89.250768448
 20
36.48966440810003
 30
0.0
  0
VERTEX
  5
1CEF
  8
3
 10
89.1
 20
36.91718958720003
 30
0.0
  0
VERTEX
  5
1CF0
  8
3
 10
89.250768448
 20
37.34471476640002
 30
0.0
  0
VERTEX
  5
1CF1
  8
3
 10
89.68488889220001
 20
37.72067409930003
 30
0.0
  0
VERTEX
  5
1CF2
  8
3
 10
90.35
 20
37.99972134200004
 30
0.0
  0
VERTEX
  5
1CF3
  8
3
 10
91.16587955579999
 20
38.14819927850004
 30
0.0
  0
VERTEX
  5
1CF4
  8
3
 10
92.03412044410001
 20
38.14819927850004
 30
0.0
  0
VERTEX
  5
1CF5
  8
3
 10
92.85
 20
37.99972134200004
 30
0.0
  0
VERTEX
  5
1CF6
  8
3
 10
93.51511110780001
 20
37.72067409930003
 30
0.0
  0
VERTEX
  5
1CF7
  8
3
 10
93.9492315519
 20
37.34471476640002
 30
0.0
  0
VERTEX
  5
1CF8
  8
3
 10
94.1
 20
36.91718958720003
 30
0.0
  0
SEQEND
  5
201B
  8
3
  0
POLYLINE
  5
D33
  8
3
 66
     1
 10
0.0
 20
0.0
 30
0.0
  0
VERTEX
  5
1CF9
  8
3
 10
93.655
 20
37.18703648190004
 30
0.0
  0
VERTEX
  5
1CFA
  8
3
 10
93.5162304314
 20
36.81586066990002
 30
0.0
  0
VERTEX
  5
1CFB
  8
3
 10
93.11866332490001
 20
36.49481420800004
 30
0.0
  0
VERTEX
  5
1CFC
  8
3
 10
92.51599232109999
 20
36.26725620000002
 30
0.0
  0
VERTEX
  5
1CFD
  8
3
 10
91.78961147870001
 20
36.16391961570002
 30
0.0
  0
VERTEX
  5
1CFE
  8
3
 10
91.03762255539999
 20
36.19876063350003
 30
0.0
  0
VERTEX
  5
1CFF
  8
3
 10
90.3615858222
 20
36.36707378080001
 30
0.0
  0
VERTEX
  5
1D00
  8
3
 10
89.85280378600001
 20
36.64612743450002
 30
0.0
  0
VERTEX
  5
1D01
  8
3
 10
89.57999028009999
 20
36.99823385230002
 30
0.0
  0
VERTEX
  5
1D02
  8
3
 10
89.57999028009999
 20
37.37583911140001
 30
0.0
  0
VERTEX
  5
1D03
  8
3
 10
89.85280378600001
 20
37.72794552920004
 30
0.0
  0
VERTEX
  5
1D04
  8
3
 10
90.3615858222
 20
38.00699918290002
 30
0.0
  0
VERTEX
  5
1D05
  8
3
 10
91.03762255539999
 20
38.17531233020003
 30
0.0
  0
VERTEX
  5
1D06
  8
3
 10
91.78961147870001
 20
38.21015334800003
 30
0.0
  0
VERTEX
  5
1D07
  8
3
 10
92.51599232109999
 20
38.10681676370001
 30
0.0
  0
VERTEX
  5
1D08
  8
3
 10
93.11866332490001
 20
37.87925875570002
 30
0.0
  0
VERTEX
  5
1D09
  8
3
 10
93.5162304314
 20
37.55821229390003
 30
0.0
  0
VERTEX
  5
1D0A
  8
3
 10
93.655
 20
37.18703648190004
 30
0.0
  0
SEQEND
  5
201A
  8
3
  0
POLYLINE
  5
D34
  8
3
 66
     1
 10
0.0
 20
0.0
 30
0.0
  0
VERTEX
  5
1D0B
  8
3
 10
94.1
 20
37.45688337650003
 30
0.0
  0
VERTEX
  5
1D0C
  8
3
 10
93.9492315519
 20
37.02935819730004
 30
0.0
  0
VERTEX
  5
1D0D
  8
3
 10
93.51511110780001
 20
36.65339886440003
 30
0.0
  0
VERTEX
  5
1D0E
  8
3
 10
92.85
 20
36.37435162180003
 30
0.0
  0
VERTEX
  5
1D0F
  8
3
 10
92.03412044410001
 20
36.22587368520004
 30
0.0
  0
VERTEX
  5
1D10
  8
3
 10
91.16587955579999
 20
36.22587368520004
 30
0.0
  0
VERTEX
  5
1D11
  8
3
 10
90.35
 20
36.37435162180003
 30
0.0
  0
VERTEX
  5
1D12
  8
3
 10
89.68488889220001
 20
36.65339886440003
 30
0.0
  0
VERTEX
  5
1D13
  8
3
 10
89.250768448
 20
37.02935819730004
 30
0.0
  0
VERTEX
  5
1D14
  8
3
 10
89.1
 20
37.45688337650003
 30
0.0
  0
VERTEX
  5
1D15
  8
3
 10
89.250768448
 20
37.88440855560003
 30
0.0
  0
VERTEX
  5
1D16
  8
3
 10
89.68488889220001
 20
38.26036788860003
 30
0.0
  0
VERTEX
  5
1D17
  8
3
 10
90.35
 20
38.53941513120003
 30
0.0
  0
VERTEX
  5
1D18
  8
3
 10
91.16587955579999
 20
38.68789306770003
 30
0.0
  0
VERTEX
  5
1D19
  8
3
 10
92.03412044410001
 20
38.68789306770003
 30
0.0
  0
VERTEX
  5
1D1A
  8
3
 10
92.85
 20
38.53941513120003
 30
0.0
  0
VERTEX
  5
1D1B
  8
3
 10
93.51511110780001
 20
38.26036788860003
 30
0.0
  0
VERTEX
  5
1D1C
  8
3
 10
93.9492315519
 20
37.88440855560003
 30
0.0
  0
VERTEX
  5
1D1D
  8
3
 10
94.1
 20
37.45688337650003
 30
0.0
  0
SEQEND
  5
2019
  8
3
  0
POLYLINE
  5
D35
  8
3
 66
     1
 10
0.0
 20
0.0
 30
0.0
  0
VERTEX
  5
1D1E
  8
3
 10
94.1
 20
37.53492292780004
 30
0.0
  0
VERTEX
  5
1D1F
  8
3
 10
93.9492315519
 20
37.10739774870001
 30
0.0
  0
VERTEX
  5
1D20
  8
3
 10
93.51511110780001
 20
36.73143841570004
 30
0.0
  0
VERTEX
  5
1D21
  8
3
 10
92.85
 20
36.45239117310001
 30
0.0
  0
VERTEX
  5
1D22
  8
3
 10
92.03412044410001
 20
36.30391323660001
 30
0.0
  0
VERTEX
  5
1D23
  8
3
 10
91.16587955579999
 20
36.30391323660001
 30
0.0
  0
VERTEX
  5
1D24
  8
3
 10
90.35
 20
36.45239117310001
 30
0.0
  0
VERTEX
  5
1D25
  8
3
 10
89.68488889220001
 20
36.73143841570004
 30
0.0
  0
VERTEX
  5
1D26
  8
3
 10
89.250768448
 20
37.10739774870001
 30
0.0
  0
VERTEX
  5
1D27
  8
3
 10
89.1
 20
37.53492292780004
 30
0.0
  0
VERTEX
  5
1D28
  8
3
 10
89.250768448
 20
37.96244810700003
 30
0.0
  0
VERTEX
  5
1D29
  8
3
 10
89.68488889220001
 20
38.33840743990004
 30
0.0
  0
VERTEX
  5
1D2A
  8
3
 10
90.35
 20
38.61745468260003
 30
0.0
  0
VERTEX
  5
1D2B
  8
3
 10
91.16587955579999
 20
38.76593261910003
 30
0.0
  0
VERTEX
  5
1D2C
  8
3
 10
92.03412044410001
 20
38.76593261910003
 30
0.0
  0
VERTEX
  5
1D2D
  8
3
 10
92.85
 20
38.61745468260003
 30
0.0
  0
VERTEX
  5
1D2E
  8
3
 10
93.51511110780001
 20
38.33840743990004
 30
0.0
  0
VERTEX
  5
1D2F
  8
3
 10
93.9492315519
 20
37.96244810700003
 30
0.0
  0
VERTEX
  5
1D30
  8
3
 10
94.1
 20
37.53492292780004
 30
0.0
  0
SEQEND
  5
2018
  8
3
  0
POLYLINE
  5
D36
  8
3
 66
     1
 10
0.0
 20
0.0
 30
0.0
  0
VERTEX
  5
1D31
  8
3
 10
93.655
 20
37.80476982250002
 30
0.0
  0
VERTEX
  5
1D32
  8
3
 10
93.5162304314
 20
37.43359401050003
 30
0.0
  0
VERTEX
  5
1D33
  8
3
 10
93.11866332490001
 20
37.11254754860002
 30
0.0
  0
VERTEX
  5
1D34
  8
3
 10
92.51599232109999
 20
36.88498954060003
 30
0.0
  0
VERTEX
  5
1D35
  8
3
 10
91.78961147870001
 20
36.78165295630004
 30
0.0
  0
VERTEX
  5
1D36
  8
3
 10
91.03762255539999
 20
36.81649397410001
 30
0.0
  0
VERTEX
  5
1D37
  8
3
 10
90.3615858222
 20
36.98480712140002
 30
0.0
  0
VERTEX
  5
1D38
  8
3
 10
89.85280378600001
 20
37.26386077510003
 30
0.0
  0
VERTEX
  5
1D39
  8
3
 10
89.57999028009999
 20
37.61596719290003
 30
0.0
  0
VERTEX
  5
1D3A
  8
3
 10
89.57999028009999
 20
37.99357245200002
 30
0.0
  0
VERTEX
  5
1D3B
  8
3
 10
89.85280378600001
 20
38.34567886980003
 30
0.0
  0
VERTEX
  5
1D3C
  8
3
 10
90.3615858222
 20
38.62473252350003
 30
0.0
  0
VERTEX
  5
1D3D
  8
3
 10
91.03762255539999
 20
38.79304567080004
 30
0.0
  0
VERTEX
  5
1D3E
  8
3
 10
91.78961147870001
 20
38.82788668860002
 30
0.0
  0
VERTEX
  5
1D3F
  8
3
 10
92.51599232109999
 20
38.72455010430002
 30
0.0
  0
VERTEX
  5
1D40
  8
3
 10
93.11866332490001
 20
38.49699209630003
 30
0.0
  0
VERTEX
  5
1D41
  8
3
 10
93.5162304314
 20
38.17594563450001
 30
0.0
  0
VERTEX
  5
1D42
  8
3
 10
93.655
 20
37.80476982250002
 30
0.0
  0
SEQEND
  5
2017
  8
3
  0
POLYLINE
  5
D37
  8
3
 66
     1
 10
0.0
 20
0.0
 30
0.0
  0
VERTEX
  5
1D43
  8
3
 10
94.1
 20
38.07461671710001
 30
0.0
  0
VERTEX
  5
1D44
  8
3
 10
93.9492315519
 20
37.64709153790002
 30
0.0
  0
VERTEX
  5
1D45
  8
3
 10
93.51511110780001
 20
37.27113220500001
 30
0.0
  0
VERTEX
  5
1D46
  8
3
 10
92.85
 20
36.99208496240004
 30
0.0
  0
VERTEX
  5
1D47
  8
3
 10
92.03412044410001
 20
36.84360702580003
 30
0.0
  0
VERTEX
  5
1D48
  8
3
 10
91.16587955579999
 20
36.84360702580003
 30
0.0
  0
VERTEX
  5
1D49
  8
3
 10
90.35
 20
36.99208496240004
 30
0.0
  0
VERTEX
  5
1D4A
  8
3
 10
89.68488889220001
 20
37.27113220500001
 30
0.0
  0
VERTEX
  5
1D4B
  8
3
 10
89.250768448
 20
37.64709153790002
 30
0.0
  0
VERTEX
  5
1D4C
  8
3
 10
89.1
 20
38.07461671710001
 30
0.0
  0
VERTEX
  5
1D4D
  8
3
 10
89.250768448
 20
38.50214189620004
 30
0.0
  0
VERTEX
  5
1D4E
  8
3
 10
89.68488889220001
 20
38.87810122920001
 30
0.0
  0
VERTEX
  5
1D4F
  8
3
 10
90.35
 20
39.15714847180004
 30
0.0
  0
VERTEX
  5
1D50
  8
3
 10
91.16587955579999
 20
39.30562640840003
 30
0.0
  0
VERTEX
  5
1D51
  8
3
 10
92.03412044410001
 20
39.30562640840003
 30
0.0
  0
VERTEX
  5
1D52
  8
3
 10
92.85
 20
39.15714847180004
 30
0.0
  0
VERTEX
  5
1D53
  8
3
 10
93.51511110780001
 20
38.87810122920001
 30
0.0
  0
VERTEX
  5
1D54
  8
3
 10
93.9492315519
 20
38.50214189620004
 30
0.0
  0
VERTEX
  5
1D55
  8
3
 10
94.1
 20
38.07461671710001
 30
0.0
  0
SEQEND
  5
2016
  8
3
  0
POLYLINE
  5
D38
  8
3
 66
     1
 10
0.0
 20
0.0
 30
0.0
  0
VERTEX
  5
1D56
  8
3
 10
94.1
 20
38.15265626840002
 30
0.0
  0
VERTEX
  5
1D57
  8
3
 10
93.9492315519
 20
37.72513108930002
 30
0.0
  0
VERTEX
  5
1D58
  8
3
 10
93.51511110780001
 20
37.34917175630002
 30
0.0
  0
VERTEX
  5
1D59
  8
3
 10
92.85
 20
37.07012451370002
 30
0.0
  0
VERTEX
  5
1D5A
  8
3
 10
92.03412044410001
 20
36.92164657720002
 30
0.0
  0
VERTEX
  5
1D5B
  8
3
 10
91.16587955579999
 20
36.92164657720002
 30
0.0
  0
VERTEX
  5
1D5C
  8
3
 10
90.35
 20
37.07012451370002
 30
0.0
  0
VERTEX
  5
1D5D
  8
3
 10
89.68488889220001
 20
37.34917175630002
 30
0.0
  0
VERTEX
  5
1D5E
  8
3
 10
89.250768448
 20
37.72513108930002
 30
0.0
  0
VERTEX
  5
1D5F
  8
3
 10
89.1
 20
38.15265626840002
 30
0.0
  0
VERTEX
  5
1D60
  8
3
 10
89.250768448
 20
38.58018144760001
 30
0.0
  0
VERTEX
  5
1D61
  8
3
 10
89.68488889220001
 20
38.95614078060004
 30
0.0
  0
VERTEX
  5
1D62
  8
3
 10
90.35
 20
39.23518802320001
 30
0.0
  0
VERTEX
  5
1D63
  8
3
 10
91.16587955579999
 20
39.38366595970001
 30
0.0
  0
VERTEX
  5
1D64
  8
3
 10
92.03412044410001
 20
39.38366595970001
 30
0.0
  0
VERTEX
  5
1D65
  8
3
 10
92.85
 20
39.23518802320001
 30
0.0
  0
VERTEX
  5
1D66
  8
3
 10
93.51511110780001
 20
38.95614078060004
 30
0.0
  0
VERTEX
  5
1D67
  8
3
 10
93.9492315519
 20
38.58018144760001
 30
0.0
  0
VERTEX
  5
1D68
  8
3
 10
94.1
 20
38.15265626840002
 30
0.0
  0
SEQEND
  5
2015
  8
3
  0
POLYLINE
  5
D39
  8
3
 66
     1
 10
0.0
 20
0.0
 30
0.0
  0
VERTEX
  5
1D69
  8
3
 10
93.655
 20
38.42250316310003
 30
0.0
  0
VERTEX
  5
1D6A
  8
3
 10
93.5162304314
 20
38.05132735110004
 30
0.0
  0
VERTEX
  5
1D6B
  8
3
 10
93.11866332490001
 20
37.73028088920003
 30
0.0
  0
VERTEX
  5
1D6C
  8
3
 10
92.51599232109999
 20
37.50272288120004
 30
0.0
  0
VERTEX
  5
1D6D
  8
3
 10
91.78961147870001
 20
37.39938629690002
 30
0.0
  0
VERTEX
  5
1D6E
  8
3
 10
91.03762255539999
 20
37.43422731470002
 30
0.0
  0
VERTEX
  5
1D6F
  8
3
 10
90.3615858222
 20
37.60254046200004
 30
0.0
  0
VERTEX
  5
1D70
  8
3
 10
89.85280378600001
 20
37.88159411570001
 30
0.0
  0
VERTEX
  5
1D71
  8
3
 10
89.57999028009999
 20
38.23370053350004
 30
0.0
  0
VERTEX
  5
1D72
  8
3
 10
89.57999028009999
 20
38.61130579260004
 30
0.0
  0
VERTEX
  5
1D73
  8
3
 10
89.85280378600001
 20
38.96341221040004
 30
0.0
  0
VERTEX
  5
1D74
  8
3
 10
90.3615858222
 20
39.24246586410004
 30
0.0
  0
VERTEX
  5
1D75
  8
3
 10
91.03762255539999
 20
39.41077901140002
 30
0.0
  0
VERTEX
  5
1D76
  8
3
 10
91.78961147870001
 20
39.44562002920003
 30
0.0
  0
VERTEX
  5
1D77
  8
3
 10
92.51599232109999
 20
39.34228344490003
 30
0.0
  0
VERTEX
  5
1D78
  8
3
 10
93.11866332490001
 20
39.11472543690002
 30
0.0
  0
VERTEX
  5
1D79
  8
3
 10
93.5162304314
 20
38.79367897510002
 30
0.0
  0
VERTEX
  5
1D7A
  8
3
 10
93.655
 20
38.42250316310003
 30
0.0
  0
SEQEND
  5
2014
  8
3
  0
POLYLINE
  5
D3A
  8
3
 66
     1
 10
0.0
 20
0.0
 30
0.0
  0
VERTEX
  5
1D7B
  8
3
 10
94.1
 20
38.69235005770003
 30
0.0
  0
VERTEX
  5
1D7C
  8
3
 10
93.9492315519
 20
38.26482487850004
 30
0.0
  0
VERTEX
  5
1D7D
  8
3
 10
93.51511110780001
 20
37.88886554560003
 30
0.0
  0
VERTEX
  5
1D7E
  8
3
 10
92.85
 20
37.60981830300003
 30
0.0
  0
VERTEX
  5
1D7F
  8
3
 10
92.03412044410001
 20
37.46134036640004
 30
0.0
  0
VERTEX
  5
1D80
  8
3
 10
91.16587955579999
 20
37.46134036640004
 30
0.0
  0
VERTEX
  5
1D81
  8
3
 10
90.35
 20
37.60981830300003
 30
0.0
  0
VERTEX
  5
1D82
  8
3
 10
89.68488889220001
 20
37.88886554560003
 30
0.0
  0
VERTEX
  5
1D83
  8
3
 10
89.250768448
 20
38.26482487850004
 30
0.0
  0
VERTEX
  5
1D84
  8
3
 10
89.1
 20
38.69235005770003
 30
0.0
  0
VERTEX
  5
1D85
  8
3
 10
89.250768448
 20
39.11987523690004
 30
0.0
  0
VERTEX
  5
1D86
  8
3
 10
89.68488889220001
 20
39.49583456980002
 30
0.0
  0
VERTEX
  5
1D87
  8
3
 10
90.35
 20
39.77488181240003
 30
0.0
  0
VERTEX
  5
1D88
  8
3
 10
91.16587955579999
 20
39.92335974900004
 30
0.0
  0
VERTEX
  5
1D89
  8
3
 10
92.03412044410001
 20
39.92335974900004
 30
0.0
  0
VERTEX
  5
1D8A
  8
3
 10
92.85
 20
39.77488181240003
 30
0.0
  0
VERTEX
  5
1D8B
  8
3
 10
93.51511110780001
 20
39.49583456980002
 30
0.0
  0
VERTEX
  5
1D8C
  8
3
 10
93.9492315519
 20
39.11987523690004
 30
0.0
  0
VERTEX
  5
1D8D
  8
3
 10
94.1
 20
38.69235005770003
 30
0.0
  0
SEQEND
  5
2013
  8
3
  0
POLYLINE
  5
D3B
  8
3
 66
     1
 10
0.0
 20
0.0
 30
0.0
  0
VERTEX
  5
1D8E
  8
3
 10
94.1
 20
38.77038960900003
 30
0.0
  0
VERTEX
  5
1D8F
  8
3
 10
93.9492315519
 20
38.34286442990003
 30
0.0
  0
VERTEX
  5
1D90
  8
3
 10
93.51511110780001
 20
37.96690509690004
 30
0.0
  0
VERTEX
  5
1D91
  8
3
 10
92.85
 20
37.68785785430003
 30
0.0
  0
VERTEX
  5
1D92
  8
3
 10
92.03412044410001
 20
37.53937991780003
 30
0.0
  0
VERTEX
  5
1D93
  8
3
 10
91.16587955579999
 20
37.53937991780003
 30
0.0
  0
VERTEX
  5
1D94
  8
3
 10
90.35
 20
37.68785785430003
 30
0.0
  0
VERTEX
  5
1D95
  8
3
 10
89.68488889220001
 20
37.96690509690004
 30
0.0
  0
VERTEX
  5
1D96
  8
3
 10
89.250768448
 20
38.34286442990003
 30
0.0
  0
VERTEX
  5
1D97
  8
3
 10
89.1
 20
38.77038960900003
 30
0.0
  0
VERTEX
  5
1D98
  8
3
 10
89.250768448
 20
39.19791478820002
 30
0.0
  0
VERTEX
  5
1D99
  8
3
 10
89.68488889220001
 20
39.57387412120002
 30
0.0
  0
VERTEX
  5
1D9A
  8
3
 10
90.35
 20
39.85292136380002
 30
0.0
  0
VERTEX
  5
1D9B
  8
3
 10
91.16587955579999
 20
40.00139930030002
 30
0.0
  0
VERTEX
  5
1D9C
  8
3
 10
92.03412044410001
 20
40.00139930030002
 30
0.0
  0
VERTEX
  5
1D9D
  8
3
 10
92.85
 20
39.85292136380002
 30
0.0
  0
VERTEX
  5
1D9E
  8
3
 10
93.51511110780001
 20
39.57387412120002
 30
0.0
  0
VERTEX
  5
1D9F
  8
3
 10
93.9492315519
 20
39.19791478820002
 30
0.0
  0
VERTEX
  5
1DA0
  8
3
 10
94.1
 20
38.77038960900003
 30
0.0
  0
SEQEND
  5
2012
  8
3
  0
POLYLINE
  5
D3C
  8
3
 66
     1
 10
0.0
 20
0.0
 30
0.0
  0
VERTEX
  5
1DA1
  8
3
 10
93.655
 20
39.04023650370004
 30
0.0
  0
VERTEX
  5
1DA2
  8
3
 10
93.5162304314
 20
38.66906069170003
 30
0.0
  0
VERTEX
  5
1DA3
  8
3
 10
93.1186633248
 20
38.34801422980001
 30
0.0
  0
VERTEX
  5
1DA4
  8
3
 10
92.51599232109999
 20
38.12045622180003
 30
0.0
  0
VERTEX
  5
1DA5
  8
3
 10
91.78961147870001
 20
38.01711963750003
 30
0.0
  0
VERTEX
  5
1DA6
  8
3
 10
91.03762255539999
 20
38.05196065530004
 30
0.0
  0
VERTEX
  5
1DA7
  8
3
 10
90.3615858222
 20
38.22027380260002
 30
0.0
  0
VERTEX
  5
1DA8
  8
3
 10
89.85280378600001
 20
38.49932745630002
 30
0.0
  0
VERTEX
  5
1DA9
  8
3
 10
89.57999028009999
 20
38.85143387410002
 30
0.0
  0
VERTEX
  5
1DAA
  8
3
 10
89.57999028009999
 20
39.22903913320002
 30
0.0
  0
VERTEX
  5
1DAB
  8
3
 10
89.85280378600001
 20
39.58114555100002
 30
0.0
  0
VERTEX
  5
1DAC
  8
3
 10
90.3615858222
 20
39.86019920470002
 30
0.0
  0
VERTEX
  5
1DAD
  8
3
 10
91.03762255539999
 20
40.02851235200004
 30
0.0
  0
VERTEX
  5
1DAE
  8
3
 10
91.78961147870001
 20
40.06335336980004
 30
0.0
  0
VERTEX
  5
1DAF
  8
3
 10
92.51599232109999
 20
39.96001678550002
 30
0.0
  0
VERTEX
  5
1DB0
  8
3
 10
93.11866332490001
 20
39.73245877750003
 30
0.0
  0
VERTEX
  5
1DB1
  8
3
 10
93.5162304314
 20
39.41141231570003
 30
0.0
  0
VERTEX
  5
1DB2
  8
3
 10
93.655
 20
39.04023650370004
 30
0.0
  0
SEQEND
  5
2011
  8
3
  0
POLYLINE
  5
D3D
  8
3
 66
     1
 10
0.0
 20
0.0
 30
0.0
  0
VERTEX
  5
1DB3
  8
3
 10
94.1
 20
39.31008339830004
 30
0.0
  0
VERTEX
  5
1DB4
  8
3
 10
93.9492315519
 20
38.88255821910002
 30
0.0
  0
VERTEX
  5
1DB5
  8
3
 10
93.51511110780001
 20
38.50659888620004
 30
0.0
  0
VERTEX
  5
1DB6
  8
3
 10
92.85
 20
38.22755164360004
 30
0.0
  0
VERTEX
  5
1DB7
  8
3
 10
92.03412044410001
 20
38.07907370700002
 30
0.0
  0
VERTEX
  5
1DB8
  8
3
 10
91.16587955579999
 20
38.07907370700002
 30
0.0
  0
VERTEX
  5
1DB9
  8
3
 10
90.35
 20
38.22755164360004
 30
0.0
  0
VERTEX
  5
1DBA
  8
3
 10
89.68488889220001
 20
38.50659888620004
 30
0.0
  0
VERTEX
  5
1DBB
  8
3
 10
89.250768448
 20
38.88255821910002
 30
0.0
  0
VERTEX
  5
1DBC
  8
3
 10
89.1
 20
39.31008339830004
 30
0.0
  0
VERTEX
  5
1DBD
  8
3
 10
89.250768448
 20
39.73760857750003
 30
0.0
  0
VERTEX
  5
1DBE
  8
3
 10
89.68488889220001
 20
40.11356791040004
 30
0.0
  0
VERTEX
  5
1DBF
  8
3
 10
90.35
 20
40.39261515300004
 30
0.0
  0
VERTEX
  5
1DC0
  8
3
 10
91.16587955579999
 20
40.54109308960003
 30
0.0
  0
VERTEX
  5
1DC1
  8
3
 10
92.03412044410001
 20
40.54109308960003
 30
0.0
  0
VERTEX
  5
1DC2
  8
3
 10
92.85
 20
40.39261515300004
 30
0.0
  0
VERTEX
  5
1DC3
  8
3
 10
93.51511110780001
 20
40.11356791040004
 30
0.0
  0
VERTEX
  5
1DC4
  8
3
 10
93.9492315519
 20
39.73760857750003
 30
0.0
  0
VERTEX
  5
1DC5
  8
3
 10
94.1
 20
39.31008339830004
 30
0.0
  0
SEQEND
  5
2010
  8
3
  0
LINE
  5
D3E
  8
3
 10
90.35
 20
37.90304517230004
 30
0.0
 11
91.6
 21
38.26388909050002
 31
0.0
  0
LINE
  5
D3F
  8
3
 10
91.6
 20
38.26388909050002
 30
0.0
 11
91.6
 21
40.60215768080002
 31
0.0
  0
LINE
  5
D40
  8
3
 10
92.85
 20
37.90304517230004
 30
0.0
 11
91.6
 21
38.26388909050002
 31
0.0
  0
POLYLINE
  5
D41
  8
3
 66
     1
 10
0.0
 20
0.0
 30
0.0
  0
VERTEX
  5
1DC6
  8
3
 10
94.1
 20
39.38812294970003
 30
0.0
  0
VERTEX
  5
1DC7
  8
3
 10
93.9492315519
 20
38.96059777050004
 30
0.0
  0
VERTEX
  5
1DC8
  8
3
 10
93.51511110780001
 20
38.58463843750002
 30
0.0
  0
VERTEX
  5
1DC9
  8
3
 10
92.85
 20
38.30559119490002
 30
0.0
  0
VERTEX
  5
1DCA
  8
3
 10
92.03412044410001
 20
38.15711325840002
 30
0.0
  0
VERTEX
  5
1DCB
  8
3
 10
91.16587955579999
 20
38.15711325840002
 30
0.0
  0
VERTEX
  5
1DCC
  8
3
 10
90.35
 20
38.30559119490002
 30
0.0
  0
VERTEX
  5
1DCD
  8
3
 10
89.68488889220001
 20
38.58463843750002
 30
0.0
  0
VERTEX
  5
1DCE
  8
3
 10
89.250768448
 20
38.96059777050004
 30
0.0
  0
VERTEX
  5
1DCF
  8
3
 10
89.1
 20
39.38812294970003
 30
0.0
  0
VERTEX
  5
1DD0
  8
3
 10
89.250768448
 20
39.81564812880004
 30
0.0
  0
VERTEX
  5
1DD1
  8
3
 10
89.68488889220001
 20
40.19160746180003
 30
0.0
  0
VERTEX
  5
1DD2
  8
3
 10
90.35
 20
40.47065470440003
 30
0.0
  0
VERTEX
  5
1DD3
  8
3
 10
91.16587955579999
 20
40.61913264090003
 30
0.0
  0
VERTEX
  5
1DD4
  8
3
 10
92.03412044410001
 20
40.61913264090003
 30
0.0
  0
VERTEX
  5
1DD5
  8
3
 10
92.85
 20
40.47065470440003
 30
0.0
  0
VERTEX
  5
1DD6
  8
3
 10
93.51511110780001
 20
40.19160746180003
 30
0.0
  0
VERTEX
  5
1DD7
  8
3
 10
93.9492315519
 20
39.81564812880004
 30
0.0
  0
VERTEX
  5
1DD8
  8
3
 10
94.1
 20
39.38812294970003
 30
0.0
  0
SEQEND
  5
200F
  8
3
  0
POLYLINE
  5
D42
  8
3
 66
     1
 10
0.0
 20
0.0
 30
0.0
  0
VERTEX
  5
1DD9
  8
3
 10
93.655
 20
39.65796984430003
 30
0.0
  0
VERTEX
  5
1DDA
  8
3
 10
93.5162304314
 20
39.28679403230004
 30
0.0
  0
VERTEX
  5
1DDB
  8
3
 10
93.11866332490001
 20
38.96574757040003
 30
0.0
  0
VERTEX
  5
1DDC
  8
3
 10
92.51599232109999
 20
38.73818956240001
 30
0.0
  0
VERTEX
  5
1DDD
  8
3
 10
91.78961147870001
 20
38.63485297810001
 30
0.0
  0
VERTEX
  5
1DDE
  8
3
 10
91.03762255539999
 20
38.66969399590002
 30
0.0
  0
VERTEX
  5
1DDF
  8
3
 10
90.3615858222
 20
38.83800714320003
 30
0.0
  0
VERTEX
  5
1DE0
  8
3
 10
89.85280378600001
 20
39.11706079690003
 30
0.0
  0
VERTEX
  5
1DE1
  8
3
 10
89.57999028009999
 20
39.46916721470004
 30
0.0
  0
VERTEX
  5
1DE2
  8
3
 10
89.57999028009999
 20
39.84677247380003
 30
0.0
  0
VERTEX
  5
1DE3
  8
3
 10
89.85280378600001
 20
40.19887889160003
 30
0.0
  0
VERTEX
  5
1DE4
  8
3
 10
90.3615858222
 20
40.47793254530004
 30
0.0
  0
VERTEX
  5
1DE5
  8
3
 10
91.03762255539999
 20
40.64624569260002
 30
0.0
  0
VERTEX
  5
1DE6
  8
3
 10
91.78961147870001
 20
40.68108671040002
 30
0.0
  0
VERTEX
  5
1DE7
  8
3
 10
92.51599232109999
 20
40.57775012610003
 30
0.0
  0
VERTEX
  5
1DE8
  8
3
 10
93.11866332490001
 20
40.35019211810004
 30
0.0
  0
VERTEX
  5
1DE9
  8
3
 10
93.5162304314
 20
40.02914565630002
 30
0.0
  0
VERTEX
  5
1DEA
  8
3
 10
93.655
 20
39.65796984430003
 30
0.0
  0
SEQEND
  5
200E
  8
3
  0
POLYLINE
  5
D43
  8
3
 66
     1
 10
0.0
 20
0.0
 30
0.0
  0
VERTEX
  5
1DEB
  8
3
 10
93.85610312680001
 20
39.77991828090003
 30
0.0
  0
VERTEX
  5
1DEC
  8
3
 10
93.7037535124
 20
40.18741750720002
 30
0.0
  0
VERTEX
  5
1DED
  8
3
 10
93.2672803289
 20
40.53988170490004
 30
0.0
  0
VERTEX
  5
1DEE
  8
3
 10
92.6056316982
 20
40.78970863120003
 30
0.0
  0
VERTEX
  5
1DEF
  8
3
 10
91.8081669343
 20
40.90315777520004
 30
0.0
  0
VERTEX
  5
1DF0
  8
3
 10
90.9825880724
 20
40.86490720140003
 30
0.0
  0
VERTEX
  5
1DF1
  8
3
 10
90.24039411250001
 20
40.68012286170003
 30
0.0
  0
VERTEX
  5
1DF2
  8
3
 10
89.68182246149999
 20
40.37376090520002
 30
0.0
  0
VERTEX
  5
1DF3
  8
3
 10
89.3823113162
 20
39.98719721170002
 30
0.0
  0
VERTEX
  5
1DF4
  8
3
 10
89.3823113162
 20
39.57263935000003
 30
0.0
  0
VERTEX
  5
1DF5
  8
3
 10
89.68182246149999
 20
39.18607565650004
 30
0.0
  0
VERTEX
  5
1DF6
  8
3
 10
90.24039411250001
 20
38.87971370000002
 30
0.0
  0
VERTEX
  5
1DF7
  8
3
 10
90.9825880724
 20
38.69492936030002
 30
0.0
  0
VERTEX
  5
1DF8
  8
3
 10
91.8081669343
 20
38.65667878650004
 30
0.0
  0
VERTEX
  5
1DF9
  8
3
 10
92.6056316982
 20
38.77012793050002
 30
0.0
  0
VERTEX
  5
1DFA
  8
3
 10
93.2672803289
 20
39.01995485680004
 30
0.0
  0
VERTEX
  5
1DFB
  8
3
 10
93.7037535124
 20
39.37241905450003
 30
0.0
  0
VERTEX
  5
1DFC
  8
3
 10
93.85610312680001
 20
39.77991828090003
 30
0.0
  0
SEQEND
  5
200D
  8
3
  0
LINE
  5
D44
  8
3
 10
92.85
 20
37.90304517230004
 30
0.0
 11
92.85
 21
40.24131376250003
 31
0.0
  0
LINE
  5
D45
  8
3
 10
92.85
 20
37.18135733580004
 30
0.0
 11
92.85
 21
37.90304517230004
 31
0.0
  0
LINE
  5
D46
  8
3
 10
90.35
 20
37.90304517230004
 30
0.0
 11
90.35
 21
40.24131376250003
 31
0.0
  0
LINE
  5
D47
  8
3
 10
90.35
 20
37.18135733580004
 30
0.0
 11
90.35
 21
37.90304517230004
 31
0.0
  0
POLYLINE
  5
D48
  8
3
 66
     1
 10
0.0
 20
0.0
 30
0.0
  0
VERTEX
  5
1DFD
  8
3
 10
91.6
 20
38.85296984430002
 30
0.0
  0
VERTEX
  5
1DFE
  8
3
 10
90.8576483759
 20
38.92235462860003
 30
0.0
  0
VERTEX
  5
1DFF
  8
3
 10
90.21555545230001
 20
39.12113818180003
 30
0.0
  0
VERTEX
  5
1E00
  8
3
 10
89.76043943619999
 20
39.42247368370002
 30
0.0
  0
VERTEX
  5
1E01
  8
3
 10
89.55376626770001
 20
39.78566410490004
 30
0.0
  0
VERTEX
  5
1E02
  8
3
 10
89.6234483032
 20
40.16165856660001
 30
0.0
  0
VERTEX
  5
1E03
  8
3
 10
89.96007459789999
 20
40.49967693320002
 30
0.0
  0
VERTEX
  5
1E04
  8
3
 10
90.51818190520001
 20
40.75406795120003
 30
0.0
  0
VERTEX
  5
1E05
  8
3
 10
91.22239474080001
 20
40.89047470420002
 30
0.0
  0
VERTEX
  5
1E06
  8
3
 10
91.97760525909999
 20
40.89047470420002
 30
0.0
  0
VERTEX
  5
1E07
  8
3
 10
92.68181809469999
 20
40.75406795120003
 30
0.0
  0
VERTEX
  5
1E08
  8
3
 10
93.23992540200001
 20
40.49967693320002
 30
0.0
  0
VERTEX
  5
1E09
  8
3
 10
93.5765516967
 20
40.16165856660001
 30
0.0
  0
VERTEX
  5
1E0A
  8
3
 10
93.64623373219999
 20
39.78566410490004
 30
0.0
  0
VERTEX
  5
1E0B
  8
3
 10
93.43956056370001
 20
39.42247368370002
 30
0.0
  0
VERTEX
  5
1E0C
  8
3
 10
92.98444454770001
 20
39.12113818180003
 30
0.0
  0
VERTEX
  5
1E0D
  8
3
 10
92.342351624
 20
38.92235462860003
 30
0.0
  0
VERTEX
  5
1E0E
  8
3
 10
91.6
 20
38.85296984430002
 30
0.0
  0
SEQEND
  5
200C
  8
3
  0
LINE
  5
D49
  8
3
 10
92.85
 20
40.24131376250003
 30
0.0
 11
91.6
 21
40.60215768080002
 31
0.0
  0
LINE
  5
D4A
  8
3
 10
90.35
 20
40.24131376250003
 30
0.0
 11
91.6
 21
40.60215768080002
 31
0.0
  0
LINE
  5
D4B
  8
3
 10
91.6
 20
36.82051341760001
 30
0.0
 11
91.6
 21
38.26388909050002
 31
0.0
  0
LINE
  5
D4C
  8
3
 10
92.85
 20
39.51962592600003
 30
0.0
 11
91.6
 21
39.15878200780003
 31
0.0
  0
LINE
  5
D4D
  8
3
 10
92.85
 20
37.18135733580004
 30
0.0
 11
91.6
 21
36.82051341760001
 31
0.0
  0
LINE
  5
D4E
  8
3
 10
90.35
 20
39.51962592600003
 30
0.0
 11
91.6
 21
39.15878200780003
 31
0.0
  0
LINE
  5
D4F
  8
3
 10
90.35
 20
37.18135733580004
 30
0.0
 11
91.6
 21
36.82051341760001
 31
0.0
  0
CIRCLE
  5
D50
  8
3
 10
91.6
 20
0.0000000000000284
 30
0.0
 40
2.316732743452263
  0
CIRCLE
  5
D51
  8
3
 10
91.6
 20
0.0000000000000284
 30
0.0
 40
1.75
  0
POLYLINE
  5
D52
  8
3
 66
     1
 10
0.0
 20
0.0
 30
0.0
  0
VERTEX
  5
1E0F
  8
3
 10
91.6
 20
-35.55931742159999
 30
0.0
  0
VERTEX
  5
1E10
  8
3
 10
90.93030399329999
 20
-35.49271201249996
 30
0.0
  0
VERTEX
  5
1E11
  8
3
 10
90.3625631329
 20
-35.30303585509998
 30
0.0
  0
VERTEX
  5
1E12
  8
3
 10
89.98321081809999
 20
-35.01916542489997
 30
0.0
  0
VERTEX
  5
1E13
  8
3
 10
89.85
 20
-34.68431742159999
 30
0.0
  0
VERTEX
  5
1E14
  8
3
 10
89.98321081809999
 20
-34.34946941819996
 30
0.0
  0
VERTEX
  5
1E15
  8
3
 10
90.3625631329
 20
-34.06559898799998
 30
0.0
  0
VERTEX
  5
1E16
  8
3
 10
90.93030399329999
 20
-33.87592283059996
 30
0.0
  0
VERTEX
  5
1E17
  8
3
 10
91.6
 20
-33.80931742159999
 30
0.0
  0
VERTEX
  5
1E18
  8
3
 10
92.26969600659999
 20
-33.87592283059996
 30
0.0
  0
VERTEX
  5
1E19
  8
3
 10
92.83743686700001
 20
-34.06559898799998
 30
0.0
  0
VERTEX
  5
1E1A
  8
3
 10
93.2167891819
 20
-34.34946941819996
 30
0.0
  0
VERTEX
  5
1E1B
  8
3
 10
93.35
 20
-34.68431742159999
 30
0.0
  0
VERTEX
  5
1E1C
  8
3
 10
93.2167891819
 20
-35.01916542489997
 30
0.0
  0
VERTEX
  5
1E1D
  8
3
 10
92.83743686700001
 20
-35.30303585509998
 30
0.0
  0
VERTEX
  5
1E1E
  8
3
 10
92.26969600659999
 20
-35.49271201249996
 30
0.0
  0
VERTEX
  5
1E1F
  8
3
 10
91.6
 20
-35.55931742159999
 30
0.0
  0
SEQEND
  5
200B
  8
3
  0
POLYLINE
  5
D53
  8
3
 66
     1
 10
0.0
 20
0.0
 30
0.0
  0
VERTEX
  5
1E20
  8
3
 10
89.28326725650001
 20
-35.17512237449998
 30
0.0
  0
VERTEX
  5
1E21
  8
3
 10
89.4229833366
 20
-34.77893774209997
 30
0.0
  0
VERTEX
  5
1E22
  8
3
 10
89.82527975560001
 20
-34.43053882329997
 30
0.0
  0
VERTEX
  5
1E23
  8
3
 10
90.44163362820001
 20
-34.17194766969996
 30
0.0
  0
VERTEX
  5
1E24
  8
3
 10
91.1977035809
 20
-34.03435419079997
 30
0.0
  0
VERTEX
  5
1E25
  8
3
 10
92.002296419
 20
-34.03435419079997
 30
0.0
  0
VERTEX
  5
1E26
  8
3
 10
92.75836637169999
 20
-34.17194766969996
 30
0.0
  0
VERTEX
  5
1E27
  8
3
 10
93.3747202443
 20
-34.43053882329997
 30
0.0
  0
VERTEX
  5
1E28
  8
3
 10
93.7770166633
 20
-34.77893774209997
 30
0.0
  0
VERTEX
  5
1E29
  8
3
 10
93.91673274339999
 20
-35.17512237449998
 30
0.0
  0
VERTEX
  5
1E2A
  8
3
 10
93.7770166633
 20
-35.57130700699997
 30
0.0
  0
VERTEX
  5
1E2B
  8
3
 10
93.3747202443
 20
-35.91970592579997
 30
0.0
  0
VERTEX
  5
1E2C
  8
3
 10
92.75836637169999
 20
-36.17829707939998
 30
0.0
  0
VERTEX
  5
1E2D
  8
3
 10
92.002296419
 20
-36.31589055829997
 30
0.0
  0
VERTEX
  5
1E2E
  8
3
 10
91.1977035809
 20
-36.31589055829997
 30
0.0
  0
VERTEX
  5
1E2F
  8
3
 10
90.44163362820001
 20
-36.17829707939998
 30
0.0
  0
VERTEX
  5
1E30
  8
3
 10
89.82527975560001
 20
-35.91970592579997
 30
0.0
  0
VERTEX
  5
1E31
  8
3
 10
89.4229833366
 20
-35.57130700699997
 30
0.0
  0
VERTEX
  5
1E32
  8
3
 10
89.28326725650001
 20
-35.17512237449998
 30
0.0
  0
SEQEND
  5
200A
  8
3
  0
POLYLINE
  5
D54
  8
3
 66
     1
 10
0.0
 20
0.0
 30
0.0
  0
VERTEX
  5
1E33
  8
3
 10
93.655
 20
-35.33383645999999
 30
0.0
  0
VERTEX
  5
1E34
  8
3
 10
93.5162304314
 20
-35.70501227199998
 30
0.0
  0
VERTEX
  5
1E35
  8
3
 10
93.11866332490001
 20
-36.02605873389999
 30
0.0
  0
VERTEX
  5
1E36
  8
3
 10
92.51599232109999
 20
-36.25361674189998
 30
0.0
  0
VERTEX
  5
1E37
  8
3
 10
91.78961147870001
 20
-36.35695332619997
 30
0.0
  0
VERTEX
  5
1E38
  8
3
 10
91.03762255539999
 20
-36.32211230839997
 30
0.0
  0
VERTEX
  5
1E39
  8
3
 10
90.3615858222
 20
-36.15379916109998
 30
0.0
  0
VERTEX
  5
1E3A
  8
3
 10
89.85280378600001
 20
-35.87474550739998
 30
0.0
  0
VERTEX
  5
1E3B
  8
3
 10
89.57999028009999
 20
-35.52263908959998
 30
0.0
  0
VERTEX
  5
1E3C
  8
3
 10
89.57999028009999
 20
-35.14503383049998
 30
0.0
  0
VERTEX
  5
1E3D
  8
3
 10
89.85280378600001
 20
-34.79292741269998
 30
0.0
  0
VERTEX
  5
1E3E
  8
3
 10
90.3615858222
 20
-34.51387375899998
 30
0.0
  0
VERTEX
  5
1E3F
  8
3
 10
91.03762255539999
 20
-34.34556061169997
 30
0.0
  0
VERTEX
  5
1E40
  8
3
 10
91.78961147870001
 20
-34.31071959389996
 30
0.0
  0
VERTEX
  5
1E41
  8
3
 10
92.51599232109999
 20
-34.41405617819998
 30
0.0
  0
VERTEX
  5
1E42
  8
3
 10
93.11866332490001
 20
-34.64161418619997
 30
0.0
  0
VERTEX
  5
1E43
  8
3
 10
93.5162304314
 20
-34.96266064799997
 30
0.0
  0
VERTEX
  5
1E44
  8
3
 10
93.655
 20
-35.33383645999999
 30
0.0
  0
SEQEND
  5
2009
  8
3
  0
POLYLINE
  5
D55
  8
3
 66
     1
 10
0.0
 20
0.0
 30
0.0
  0
VERTEX
  5
1E45
  8
3
 10
94.1
 20
-35.60368335469997
 30
0.0
  0
VERTEX
  5
1E46
  8
3
 10
93.9492315519
 20
-36.03120853379997
 30
0.0
  0
VERTEX
  5
1E47
  8
3
 10
93.51511110780001
 20
-36.40716786679997
 30
0.0
  0
VERTEX
  5
1E48
  8
3
 10
92.85
 20
-36.68621510939997
 30
0.0
  0
VERTEX
  5
1E49
  8
3
 10
92.03412044410001
 20
-36.83469304589997
 30
0.0
  0
VERTEX
  5
1E4A
  8
3
 10
91.16587955579999
 20
-36.83469304589997
 30
0.0
  0
VERTEX
  5
1E4B
  8
3
 10
90.35
 20
-36.68621510939997
 30
0.0
  0
VERTEX
  5
1E4C
  8
3
 10
89.68488889220001
 20
-36.40716786679997
 30
0.0
  0
VERTEX
  5
1E4D
  8
3
 10
89.250768448
 20
-36.03120853379997
 30
0.0
  0
VERTEX
  5
1E4E
  8
3
 10
89.1
 20
-35.60368335469997
 30
0.0
  0
VERTEX
  5
1E4F
  8
3
 10
89.250768448
 20
-35.17615817549998
 30
0.0
  0
VERTEX
  5
1E50
  8
3
 10
89.68488889220001
 20
-34.80019884259997
 30
0.0
  0
VERTEX
  5
1E51
  8
3
 10
90.35
 20
-34.52115159989998
 30
0.0
  0
VERTEX
  5
1E52
  8
3
 10
91.16587955579999
 20
-34.37267366339998
 30
0.0
  0
VERTEX
  5
1E53
  8
3
 10
92.03412044410001
 20
-34.37267366339998
 30
0.0
  0
VERTEX
  5
1E54
  8
3
 10
92.85
 20
-34.52115159989998
 30
0.0
  0
VERTEX
  5
1E55
  8
3
 10
93.51511110780001
 20
-34.80019884259997
 30
0.0
  0
VERTEX
  5
1E56
  8
3
 10
93.9492315519
 20
-35.17615817549998
 30
0.0
  0
VERTEX
  5
1E57
  8
3
 10
94.1
 20
-35.60368335469997
 30
0.0
  0
SEQEND
  5
2008
  8
3
  0
POLYLINE
  5
D56
  8
3
 66
     1
 10
0.0
 20
0.0
 30
0.0
  0
VERTEX
  5
1E58
  8
3
 10
94.1
 20
-35.68172290599998
 30
0.0
  0
VERTEX
  5
1E59
  8
3
 10
93.9492315519
 20
-36.10924808519997
 30
0.0
  0
VERTEX
  5
1E5A
  8
3
 10
93.51511110780001
 20
-36.48520741809998
 30
0.0
  0
VERTEX
  5
1E5B
  8
3
 10
92.85
 20
-36.76425466069998
 30
0.0
  0
VERTEX
  5
1E5C
  8
3
 10
92.03412044410001
 20
-36.91273259729996
 30
0.0
  0
VERTEX
  5
1E5D
  8
3
 10
91.16587955579999
 20
-36.91273259729996
 30
0.0
  0
VERTEX
  5
1E5E
  8
3
 10
90.35
 20
-36.76425466069998
 30
0.0
  0
VERTEX
  5
1E5F
  8
3
 10
89.68488889220001
 20
-36.48520741809998
 30
0.0
  0
VERTEX
  5
1E60
  8
3
 10
89.250768448
 20
-36.10924808519997
 30
0.0
  0
VERTEX
  5
1E61
  8
3
 10
89.1
 20
-35.68172290599998
 30
0.0
  0
VERTEX
  5
1E62
  8
3
 10
89.250768448
 20
-35.25419772689997
 30
0.0
  0
VERTEX
  5
1E63
  8
3
 10
89.68488889220001
 20
-34.87823839389998
 30
0.0
  0
VERTEX
  5
1E64
  8
3
 10
90.35
 20
-34.59919115129998
 30
0.0
  0
VERTEX
  5
1E65
  8
3
 10
91.16587955579999
 20
-34.45071321479998
 30
0.0
  0
VERTEX
  5
1E66
  8
3
 10
92.03412044410001
 20
-34.45071321479998
 30
0.0
  0
VERTEX
  5
1E67
  8
3
 10
92.85
 20
-34.59919115129998
 30
0.0
  0
VERTEX
  5
1E68
  8
3
 10
93.51511110780001
 20
-34.87823839389998
 30
0.0
  0
VERTEX
  5
1E69
  8
3
 10
93.9492315519
 20
-35.25419772689997
 30
0.0
  0
VERTEX
  5
1E6A
  8
3
 10
94.1
 20
-35.68172290599998
 30
0.0
  0
SEQEND
  5
2007
  8
3
  0
POLYLINE
  5
D57
  8
3
 66
     1
 10
0.0
 20
0.0
 30
0.0
  0
VERTEX
  5
1E6B
  8
3
 10
93.655
 20
-35.95156980059997
 30
0.0
  0
VERTEX
  5
1E6C
  8
3
 10
93.5162304314
 20
-36.32274561259996
 30
0.0
  0
VERTEX
  5
1E6D
  8
3
 10
93.1186633248
 20
-36.64379207449997
 30
0.0
  0
VERTEX
  5
1E6E
  8
3
 10
92.51599232109999
 20
-36.87135008249999
 30
0.0
  0
VERTEX
  5
1E6F
  8
3
 10
91.78961147870001
 20
-36.97468666679998
 30
0.0
  0
VERTEX
  5
1E70
  8
3
 10
91.03762255539999
 20
-36.93984564899998
 30
0.0
  0
VERTEX
  5
1E71
  8
3
 10
90.3615858222
 20
-36.77153250169997
 30
0.0
  0
VERTEX
  5
1E72
  8
3
 10
89.85280378600001
 20
-36.49247884799996
 30
0.0
  0
VERTEX
  5
1E73
  8
3
 10
89.57999028009999
 20
-36.14037243019996
 30
0.0
  0
VERTEX
  5
1E74
  8
3
 10
89.57999028009999
 20
-35.76276717109997
 30
0.0
  0
VERTEX
  5
1E75
  8
3
 10
89.85280378600001
 20
-35.41066075329996
 30
0.0
  0
VERTEX
  5
1E76
  8
3
 10
90.3615858222
 20
-35.13160709959996
 30
0.0
  0
VERTEX
  5
1E77
  8
3
 10
91.03762255539999
 20
-34.96329395229998
 30
0.0
  0
VERTEX
  5
1E78
  8
3
 10
91.78961147870001
 20
-34.92845293449997
 30
0.0
  0
VERTEX
  5
1E79
  8
3
 10
92.51599232109999
 20
-35.03178951879997
 30
0.0
  0
VERTEX
  5
1E7A
  8
3
 10
93.11866332490001
 20
-35.25934752679998
 30
0.0
  0
VERTEX
  5
1E7B
  8
3
 10
93.5162304314
 20
-35.58039398859998
 30
0.0
  0
VERTEX
  5
1E7C
  8
3
 10
93.655
 20
-35.95156980059997
 30
0.0
  0
SEQEND
  5
2006
  8
3
  0
POLYLINE
  5
D58
  8
3
 66
     1
 10
0.0
 20
0.0
 30
0.0
  0
VERTEX
  5
1E7D
  8
3
 10
94.1
 20
-36.22141669529998
 30
0.0
  0
VERTEX
  5
1E7E
  8
3
 10
93.9492315519
 20
-36.64894187439998
 30
0.0
  0
VERTEX
  5
1E7F
  8
3
 10
93.51511110780001
 20
-37.02490120739998
 30
0.0
  0
VERTEX
  5
1E80
  8
3
 10
92.85
 20
-37.30394844999998
 30
0.0
  0
VERTEX
  5
1E81
  8
3
 10
92.03412044410001
 20
-37.45242638649998
 30
0.0
  0
VERTEX
  5
1E82
  8
3
 10
91.16587955579999
 20
-37.45242638649998
 30
0.0
  0
VERTEX
  5
1E83
  8
3
 10
90.35
 20
-37.30394844999998
 30
0.0
  0
VERTEX
  5
1E84
  8
3
 10
89.68488889220001
 20
-37.02490120739998
 30
0.0
  0
VERTEX
  5
1E85
  8
3
 10
89.250768448
 20
-36.64894187439998
 30
0.0
  0
VERTEX
  5
1E86
  8
3
 10
89.1
 20
-36.22141669529998
 30
0.0
  0
VERTEX
  5
1E87
  8
3
 10
89.250768448
 20
-35.79389151609996
 30
0.0
  0
VERTEX
  5
1E88
  8
3
 10
89.68488889220001
 20
-35.41793218319998
 30
0.0
  0
VERTEX
  5
1E89
  8
3
 10
90.35
 20
-35.13888494049996
 30
0.0
  0
VERTEX
  5
1E8A
  8
3
 10
91.16587955579999
 20
-34.99040700399996
 30
0.0
  0
VERTEX
  5
1E8B
  8
3
 10
92.03412044410001
 20
-34.99040700399996
 30
0.0
  0
VERTEX
  5
1E8C
  8
3
 10
92.85
 20
-35.13888494049996
 30
0.0
  0
VERTEX
  5
1E8D
  8
3
 10
93.51511110780001
 20
-35.41793218319998
 30
0.0
  0
VERTEX
  5
1E8E
  8
3
 10
93.9492315519
 20
-35.79389151609996
 30
0.0
  0
VERTEX
  5
1E8F
  8
3
 10
94.1
 20
-36.22141669529998
 30
0.0
  0
SEQEND
  5
2005
  8
3
  0
POLYLINE
  5
D59
  8
3
 66
     1
 10
0.0
 20
0.0
 30
0.0
  0
VERTEX
  5
1E90
  8
3
 10
94.1
 20
-36.29945624659996
 30
0.0
  0
VERTEX
  5
1E91
  8
3
 10
93.9492315519
 20
-36.72698142579998
 30
0.0
  0
VERTEX
  5
1E92
  8
3
 10
93.51511110780001
 20
-37.10294075869999
 30
0.0
  0
VERTEX
  5
1E93
  8
3
 10
92.85
 20
-37.38198800139998
 30
0.0
  0
VERTEX
  5
1E94
  8
3
 10
92.03412044410001
 20
-37.53046593789998
 30
0.0
  0
VERTEX
  5
1E95
  8
3
 10
91.16587955579999
 20
-37.53046593789998
 30
0.0
  0
VERTEX
  5
1E96
  8
3
 10
90.35
 20
-37.38198800139998
 30
0.0
  0
VERTEX
  5
1E97
  8
3
 10
89.68488889220001
 20
-37.10294075869999
 30
0.0
  0
VERTEX
  5
1E98
  8
3
 10
89.250768448
 20
-36.72698142579998
 30
0.0
  0
VERTEX
  5
1E99
  8
3
 10
89.1
 20
-36.29945624659996
 30
0.0
  0
VERTEX
  5
1E9A
  8
3
 10
89.250768448
 20
-35.87193106749999
 30
0.0
  0
VERTEX
  5
1E9B
  8
3
 10
89.68488889220001
 20
-35.49597173449996
 30
0.0
  0
VERTEX
  5
1E9C
  8
3
 10
90.35
 20
-35.21692449189996
 30
0.0
  0
VERTEX
  5
1E9D
  8
3
 10
91.16587955579999
 20
-35.06844655539999
 30
0.0
  0
VERTEX
  5
1E9E
  8
3
 10
92.03412044410001
 20
-35.06844655539999
 30
0.0
  0
VERTEX
  5
1E9F
  8
3
 10
92.85
 20
-35.21692449189996
 30
0.0
  0
VERTEX
  5
1EA0
  8
3
 10
93.51511110780001
 20
-35.49597173449996
 30
0.0
  0
VERTEX
  5
1EA1
  8
3
 10
93.9492315519
 20
-35.87193106749999
 30
0.0
  0
VERTEX
  5
1EA2
  8
3
 10
94.1
 20
-36.29945624659996
 30
0.0
  0
SEQEND
  5
2004
  8
3
  0
POLYLINE
  5
D5A
  8
3
 66
     1
 10
0.0
 20
0.0
 30
0.0
  0
VERTEX
  5
1EA3
  8
3
 10
93.655
 20
-36.56930314119998
 30
0.0
  0
VERTEX
  5
1EA4
  8
3
 10
93.5162304314
 20
-36.94047895329999
 30
0.0
  0
VERTEX
  5
1EA5
  8
3
 10
93.11866332490001
 20
-37.26152541509998
 30
0.0
  0
VERTEX
  5
1EA6
  8
3
 10
92.51599232109999
 20
-37.48908342309997
 30
0.0
  0
VERTEX
  5
1EA7
  8
3
 10
91.78961147870001
 20
-37.59242000739997
 30
0.0
  0
VERTEX
  5
1EA8
  8
3
 10
91.03762255539999
 20
-37.55757898959996
 30
0.0
  0
VERTEX
  5
1EA9
  8
3
 10
90.3615858222
 20
-37.38926584229998
 30
0.0
  0
VERTEX
  5
1EAA
  8
3
 10
89.85280378600001
 20
-37.11021218859997
 30
0.0
  0
VERTEX
  5
1EAB
  8
3
 10
89.57999028009999
 20
-36.75810577079997
 30
0.0
  0
VERTEX
  5
1EAC
  8
3
 10
89.57999028009999
 20
-36.38050051169998
 30
0.0
  0
VERTEX
  5
1EAD
  8
3
 10
89.85280378600001
 20
-36.02839409389998
 30
0.0
  0
VERTEX
  5
1EAE
  8
3
 10
90.3615858222
 20
-35.74934044019997
 30
0.0
  0
VERTEX
  5
1EAF
  8
3
 10
91.03762255539999
 20
-35.58102729289996
 30
0.0
  0
VERTEX
  5
1EB0
  8
3
 10
91.78961147870001
 20
-35.54618627509998
 30
0.0
  0
VERTEX
  5
1EB1
  8
3
 10
92.51599232109999
 20
-35.64952285939998
 30
0.0
  0
VERTEX
  5
1EB2
  8
3
 10
93.11866332490001
 20
-35.87708086739997
 30
0.0
  0
VERTEX
  5
1EB3
  8
3
 10
93.5162304314
 20
-36.19812732919996
 30
0.0
  0
VERTEX
  5
1EB4
  8
3
 10
93.655
 20
-36.56930314119998
 30
0.0
  0
SEQEND
  5
2003
  8
3
  0
POLYLINE
  5
D5B
  8
3
 66
     1
 10
0.0
 20
0.0
 30
0.0
  0
VERTEX
  5
1EB5
  8
3
 10
94.1
 20
-36.83915003589996
 30
0.0
  0
VERTEX
  5
1EB6
  8
3
 10
93.9492315519
 20
-37.26667521499996
 30
0.0
  0
VERTEX
  5
1EB7
  8
3
 10
93.51511110780001
 20
-37.64263454799996
 30
0.0
  0
VERTEX
  5
1EB8
  8
3
 10
92.85
 20
-37.92168179059996
 30
0.0
  0
VERTEX
  5
1EB9
  8
3
 10
92.03412044410001
 20
-38.07015972709996
 30
0.0
  0
VERTEX
  5
1EBA
  8
3
 10
91.16587955579999
 20
-38.07015972709996
 30
0.0
  0
VERTEX
  5
1EBB
  8
3
 10
90.35
 20
-37.92168179059996
 30
0.0
  0
VERTEX
  5
1EBC
  8
3
 10
89.68488889220001
 20
-37.64263454799996
 30
0.0
  0
VERTEX
  5
1EBD
  8
3
 10
89.250768448
 20
-37.26667521499996
 30
0.0
  0
VERTEX
  5
1EBE
  8
3
 10
89.1
 20
-36.83915003589996
 30
0.0
  0
VERTEX
  5
1EBF
  8
3
 10
89.250768448
 20
-36.41162485669997
 30
0.0
  0
VERTEX
  5
1EC0
  8
3
 10
89.68488889220001
 20
-36.03566552379996
 30
0.0
  0
VERTEX
  5
1EC1
  8
3
 10
90.35
 20
-35.75661828109997
 30
0.0
  0
VERTEX
  5
1EC2
  8
3
 10
91.16587955579999
 20
-35.60814034459997
 30
0.0
  0
VERTEX
  5
1EC3
  8
3
 10
92.03412044410001
 20
-35.60814034459997
 30
0.0
  0
VERTEX
  5
1EC4
  8
3
 10
92.85
 20
-35.75661828109997
 30
0.0
  0
VERTEX
  5
1EC5
  8
3
 10
93.51511110780001
 20
-36.03566552379996
 30
0.0
  0
VERTEX
  5
1EC6
  8
3
 10
93.9492315519
 20
-36.41162485669997
 30
0.0
  0
VERTEX
  5
1EC7
  8
3
 10
94.1
 20
-36.83915003589996
 30
0.0
  0
SEQEND
  5
2002
  8
3
  0
POLYLINE
  5
D5C
  8
3
 66
     1
 10
0.0
 20
0.0
 30
0.0
  0
VERTEX
  5
1EC8
  8
3
 10
94.1
 20
-36.91718958719997
 30
0.0
  0
VERTEX
  5
1EC9
  8
3
 10
93.9492315519
 20
-37.34471476639996
 30
0.0
  0
VERTEX
  5
1ECA
  8
3
 10
93.51511110780001
 20
-37.72067409929997
 30
0.0
  0
VERTEX
  5
1ECB
  8
3
 10
92.85
 20
-37.99972134199999
 30
0.0
  0
VERTEX
  5
1ECC
  8
3
 10
92.03412044410001
 20
-38.14819927849996
 30
0.0
  0
VERTEX
  5
1ECD
  8
3
 10
91.16587955579999
 20
-38.14819927849996
 30
0.0
  0
VERTEX
  5
1ECE
  8
3
 10
90.35
 20
-37.99972134199999
 30
0.0
  0
VERTEX
  5
1ECF
  8
3
 10
89.68488889220001
 20
-37.72067409929997
 30
0.0
  0
VERTEX
  5
1ED0
  8
3
 10
89.250768448
 20
-37.34471476639996
 30
0.0
  0
VERTEX
  5
1ED1
  8
3
 10
89.1
 20
-36.91718958719997
 30
0.0
  0
VERTEX
  5
1ED2
  8
3
 10
89.250768448
 20
-36.48966440809997
 30
0.0
  0
VERTEX
  5
1ED3
  8
3
 10
89.68488889220001
 20
-36.11370507509997
 30
0.0
  0
VERTEX
  5
1ED4
  8
3
 10
90.35
 20
-35.83465783249997
 30
0.0
  0
VERTEX
  5
1ED5
  8
3
 10
91.16587955579999
 20
-35.68617989599997
 30
0.0
  0
VERTEX
  5
1ED6
  8
3
 10
92.03412044410001
 20
-35.68617989599997
 30
0.0
  0
VERTEX
  5
1ED7
  8
3
 10
92.85
 20
-35.83465783249997
 30
0.0
  0
VERTEX
  5
1ED8
  8
3
 10
93.51511110780001
 20
-36.11370507509997
 30
0.0
  0
VERTEX
  5
1ED9
  8
3
 10
93.9492315519
 20
-36.48966440809997
 30
0.0
  0
VERTEX
  5
1EDA
  8
3
 10
94.1
 20
-36.91718958719997
 30
0.0
  0
SEQEND
  5
2001
  8
3
  0
POLYLINE
  5
D5D
  8
3
 66
     1
 10
0.0
 20
0.0
 30
0.0
  0
VERTEX
  5
1EDB
  8
3
 10
93.655
 20
-37.18703648189998
 30
0.0
  0
VERTEX
  5
1EDC
  8
3
 10
93.5162304314
 20
-37.55821229389997
 30
0.0
  0
VERTEX
  5
1EDD
  8
3
 10
93.11866332490001
 20
-37.87925875569996
 30
0.0
  0
VERTEX
  5
1EDE
  8
3
 10
92.51599232109999
 20
-38.10681676369998
 30
0.0
  0
VERTEX
  5
1EDF
  8
3
 10
91.78961147870001
 20
-38.21015334799998
 30
0.0
  0
VERTEX
  5
1EE0
  8
3
 10
91.03762255539999
 20
-38.17531233019997
 30
0.0
  0
VERTEX
  5
1EE1
  8
3
 10
90.3615858222
 20
-38.00699918289996
 30
0.0
  0
VERTEX
  5
1EE2
  8
3
 10
89.85280378600001
 20
-37.72794552919999
 30
0.0
  0
VERTEX
  5
1EE3
  8
3
 10
89.57999028009999
 20
-37.37583911139998
 30
0.0
  0
VERTEX
  5
1EE4
  8
3
 10
89.57999028009999
 20
-36.99823385229996
 30
0.0
  0
VERTEX
  5
1EE5
  8
3
 10
89.85280378600001
 20
-36.64612743449996
 30
0.0
  0
VERTEX
  5
1EE6
  8
3
 10
90.3615858222
 20
-36.36707378079998
 30
0.0
  0
VERTEX
  5
1EE7
  8
3
 10
91.03762255539999
 20
-36.19876063349997
 30
0.0
  0
VERTEX
  5
1EE8
  8
3
 10
91.78961147870001
 20
-36.16391961569997
 30
0.0
  0
VERTEX
  5
1EE9
  8
3
 10
92.51599232109999
 20
-36.26725619999996
 30
0.0
  0
VERTEX
  5
1EEA
  8
3
 10
93.11866332490001
 20
-36.49481420799998
 30
0.0
  0
VERTEX
  5
1EEB
  8
3
 10
93.5162304314
 20
-36.81586066979997
 30
0.0
  0
VERTEX
  5
1EEC
  8
3
 10
93.655
 20
-37.18703648189998
 30
0.0
  0
SEQEND
  5
2000
  8
3
  0
POLYLINE
  5
D5E
  8
3
 66
     1
 10
0.0
 20
0.0
 30
0.0
  0
VERTEX
  5
1EED
  8
3
 10
94.1
 20
-37.45688337649997
 30
0.0
  0
VERTEX
  5
1EEE
  8
3
 10
93.9492315519
 20
-37.88440855559998
 30
0.0
  0
VERTEX
  5
1EEF
  8
3
 10
93.51511110780001
 20
-38.26036788859997
 30
0.0
  0
VERTEX
  5
1EF0
  8
3
 10
92.85
 20
-38.53941513119997
 30
0.0
  0
VERTEX
  5
1EF1
  8
3
 10
92.03412044410001
 20
-38.68789306769997
 30
0.0
  0
VERTEX
  5
1EF2
  8
3
 10
91.16587955579999
 20
-38.68789306769997
 30
0.0
  0
VERTEX
  5
1EF3
  8
3
 10
90.35
 20
-38.53941513119997
 30
0.0
  0
VERTEX
  5
1EF4
  8
3
 10
89.68488889220001
 20
-38.26036788859997
 30
0.0
  0
VERTEX
  5
1EF5
  8
3
 10
89.250768448
 20
-37.88440855559998
 30
0.0
  0
VERTEX
  5
1EF6
  8
3
 10
89.1
 20
-37.45688337649997
 30
0.0
  0
VERTEX
  5
1EF7
  8
3
 10
89.250768448
 20
-37.02935819729998
 30
0.0
  0
VERTEX
  5
1EF8
  8
3
 10
89.68488889220001
 20
-36.65339886439997
 30
0.0
  0
VERTEX
  5
1EF9
  8
3
 10
90.35
 20
-36.37435162169999
 30
0.0
  0
VERTEX
  5
1EFA
  8
3
 10
91.16587955579999
 20
-36.22587368519999
 30
0.0
  0
VERTEX
  5
1EFB
  8
3
 10
92.03412044410001
 20
-36.22587368519999
 30
0.0
  0
VERTEX
  5
1EFC
  8
3
 10
92.85
 20
-36.37435162169999
 30
0.0
  0
VERTEX
  5
1EFD
  8
3
 10
93.51511110780001
 20
-36.65339886439997
 30
0.0
  0
VERTEX
  5
1EFE
  8
3
 10
93.9492315519
 20
-37.02935819729998
 30
0.0
  0
VERTEX
  5
1EFF
  8
3
 10
94.1
 20
-37.45688337649997
 30
0.0
  0
SEQEND
  5
1FFF
  8
3
  0
POLYLINE
  5
D5F
  8
3
 66
     1
 10
0.0
 20
0.0
 30
0.0
  0
VERTEX
  5
1F00
  8
3
 10
94.1
 20
-37.53492292779998
 30
0.0
  0
VERTEX
  5
1F01
  8
3
 10
93.9492315519
 20
-37.96244810699997
 30
0.0
  0
VERTEX
  5
1F02
  8
3
 10
93.51511110780001
 20
-38.33840743989998
 30
0.0
  0
VERTEX
  5
1F03
  8
3
 10
92.85
 20
-38.61745468259997
 30
0.0
  0
VERTEX
  5
1F04
  8
3
 10
92.03412044410001
 20
-38.76593261909997
 30
0.0
  0
VERTEX
  5
1F05
  8
3
 10
91.16587955579999
 20
-38.76593261909997
 30
0.0
  0
VERTEX
  5
1F06
  8
3
 10
90.35
 20
-38.61745468259997
 30
0.0
  0
VERTEX
  5
1F07
  8
3
 10
89.68488889220001
 20
-38.33840743989998
 30
0.0
  0
VERTEX
  5
1F08
  8
3
 10
89.250768448
 20
-37.96244810699997
 30
0.0
  0
VERTEX
  5
1F09
  8
3
 10
89.1
 20
-37.53492292779998
 30
0.0
  0
VERTEX
  5
1F0A
  8
3
 10
89.250768448
 20
-37.10739774869998
 30
0.0
  0
VERTEX
  5
1F0B
  8
3
 10
89.68488889220001
 20
-36.73143841569998
 30
0.0
  0
VERTEX
  5
1F0C
  8
3
 10
90.35
 20
-36.45239117309998
 30
0.0
  0
VERTEX
  5
1F0D
  8
3
 10
91.16587955579999
 20
-36.30391323659998
 30
0.0
  0
VERTEX
  5
1F0E
  8
3
 10
92.03412044410001
 20
-36.30391323659998
 30
0.0
  0
VERTEX
  5
1F0F
  8
3
 10
92.85
 20
-36.45239117309998
 30
0.0
  0
VERTEX
  5
1F10
  8
3
 10
93.51511110780001
 20
-36.73143841569998
 30
0.0
  0
VERTEX
  5
1F11
  8
3
 10
93.9492315519
 20
-37.10739774869998
 30
0.0
  0
VERTEX
  5
1F12
  8
3
 10
94.1
 20
-37.53492292779998
 30
0.0
  0
SEQEND
  5
1FFE
  8
3
  0
POLYLINE
  5
D60
  8
3
 66
     1
 10
0.0
 20
0.0
 30
0.0
  0
VERTEX
  5
1F13
  8
3
 10
93.655
 20
-37.80476982249996
 30
0.0
  0
VERTEX
  5
1F14
  8
3
 10
93.5162304314
 20
-38.17594563449998
 30
0.0
  0
VERTEX
  5
1F15
  8
3
 10
93.11866332490001
 20
-38.49699209629998
 30
0.0
  0
VERTEX
  5
1F16
  8
3
 10
92.51599232109999
 20
-38.72455010429996
 30
0.0
  0
VERTEX
  5
1F17
  8
3
 10
91.78961147870001
 20
-38.82788668859996
 30
0.0
  0
VERTEX
  5
1F18
  8
3
 10
91.03762255539999
 20
-38.79304567079998
 30
0.0
  0
VERTEX
  5
1F19
  8
3
 10
90.3615858222
 20
-38.62473252349997
 30
0.0
  0
VERTEX
  5
1F1A
  8
3
 10
89.85280378600001
 20
-38.34567886979997
 30
0.0
  0
VERTEX
  5
1F1B
  8
3
 10
89.57999028009999
 20
-37.99357245199997
 30
0.0
  0
VERTEX
  5
1F1C
  8
3
 10
89.57999028009999
 20
-37.61596719289997
 30
0.0
  0
VERTEX
  5
1F1D
  8
3
 10
89.85280378600001
 20
-37.26386077509997
 30
0.0
  0
VERTEX
  5
1F1E
  8
3
 10
90.3615858222
 20
-36.98480712139997
 30
0.0
  0
VERTEX
  5
1F1F
  8
3
 10
91.03762255539999
 20
-36.81649397409998
 30
0.0
  0
VERTEX
  5
1F20
  8
3
 10
91.78961147870001
 20
-36.78165295629998
 30
0.0
  0
VERTEX
  5
1F21
  8
3
 10
92.51599232109999
 20
-36.88498954059997
 30
0.0
  0
VERTEX
  5
1F22
  8
3
 10
93.11866332490001
 20
-37.11254754859996
 30
0.0
  0
VERTEX
  5
1F23
  8
3
 10
93.5162304314
 20
-37.43359401039999
 30
0.0
  0
VERTEX
  5
1F24
  8
3
 10
93.655
 20
-37.80476982249996
 30
0.0
  0
SEQEND
  5
1FFD
  8
3
  0
POLYLINE
  5
D61
  8
3
 66
     1
 10
0.0
 20
0.0
 30
0.0
  0
VERTEX
  5
1F25
  8
3
 10
94.1
 20
-38.07461671709999
 30
0.0
  0
VERTEX
  5
1F26
  8
3
 10
93.9492315519
 20
-38.50214189619999
 30
0.0
  0
VERTEX
  5
1F27
  8
3
 10
93.51511110780001
 20
-38.87810122919998
 30
0.0
  0
VERTEX
  5
1F28
  8
3
 10
92.85
 20
-39.15714847179999
 30
0.0
  0
VERTEX
  5
1F29
  8
3
 10
92.03412044410001
 20
-39.30562640829999
 30
0.0
  0
VERTEX
  5
1F2A
  8
3
 10
91.16587955579999
 20
-39.30562640829999
 30
0.0
  0
VERTEX
  5
1F2B
  8
3
 10
90.35
 20
-39.15714847179999
 30
0.0
  0
VERTEX
  5
1F2C
  8
3
 10
89.68488889220001
 20
-38.87810122919998
 30
0.0
  0
VERTEX
  5
1F2D
  8
3
 10
89.250768448
 20
-38.50214189619999
 30
0.0
  0
VERTEX
  5
1F2E
  8
3
 10
89.1
 20
-38.07461671709999
 30
0.0
  0
VERTEX
  5
1F2F
  8
3
 10
89.250768448
 20
-37.64709153789997
 30
0.0
  0
VERTEX
  5
1F30
  8
3
 10
89.68488889220001
 20
-37.27113220499999
 30
0.0
  0
VERTEX
  5
1F31
  8
3
 10
90.35
 20
-36.99208496229997
 30
0.0
  0
VERTEX
  5
1F32
  8
3
 10
91.16587955579999
 20
-36.84360702579997
 30
0.0
  0
VERTEX
  5
1F33
  8
3
 10
92.03412044410001
 20
-36.84360702579997
 30
0.0
  0
VERTEX
  5
1F34
  8
3
 10
92.85
 20
-36.99208496229997
 30
0.0
  0
VERTEX
  5
1F35
  8
3
 10
93.51511110780001
 20
-37.27113220499999
 30
0.0
  0
VERTEX
  5
1F36
  8
3
 10
93.9492315519
 20
-37.64709153789997
 30
0.0
  0
VERTEX
  5
1F37
  8
3
 10
94.1
 20
-38.07461671709999
 30
0.0
  0
SEQEND
  5
1FFC
  8
3
  0
POLYLINE
  5
D62
  8
3
 66
     1
 10
0.0
 20
0.0
 30
0.0
  0
VERTEX
  5
1F38
  8
3
 10
94.1
 20
-38.15265626839997
 30
0.0
  0
VERTEX
  5
1F39
  8
3
 10
93.9492315519
 20
-38.58018144759998
 30
0.0
  0
VERTEX
  5
1F3A
  8
3
 10
93.51511110780001
 20
-38.95614078049996
 30
0.0
  0
VERTEX
  5
1F3B
  8
3
 10
92.85
 20
-39.23518802319998
 30
0.0
  0
VERTEX
  5
1F3C
  8
3
 10
92.03412044410001
 20
-39.38366595969998
 30
0.0
  0
VERTEX
  5
1F3D
  8
3
 10
91.16587955579999
 20
-39.38366595969998
 30
0.0
  0
VERTEX
  5
1F3E
  8
3
 10
90.35
 20
-39.23518802319998
 30
0.0
  0
VERTEX
  5
1F3F
  8
3
 10
89.68488889220001
 20
-38.95614078049996
 30
0.0
  0
VERTEX
  5
1F40
  8
3
 10
89.250768448
 20
-38.58018144759998
 30
0.0
  0
VERTEX
  5
1F41
  8
3
 10
89.1
 20
-38.15265626839997
 30
0.0
  0
VERTEX
  5
1F42
  8
3
 10
89.250768448
 20
-37.72513108929996
 30
0.0
  0
VERTEX
  5
1F43
  8
3
 10
89.68488889220001
 20
-37.34917175629997
 30
0.0
  0
VERTEX
  5
1F44
  8
3
 10
90.35
 20
-37.07012451369997
 30
0.0
  0
VERTEX
  5
1F45
  8
3
 10
91.16587955579999
 20
-36.92164657719997
 30
0.0
  0
VERTEX
  5
1F46
  8
3
 10
92.03412044410001
 20
-36.92164657719997
 30
0.0
  0
VERTEX
  5
1F47
  8
3
 10
92.85
 20
-37.07012451369997
 30
0.0
  0
VERTEX
  5
1F48
  8
3
 10
93.51511110780001
 20
-37.34917175629997
 30
0.0
  0
VERTEX
  5
1F49
  8
3
 10
93.9492315519
 20
-37.72513108929996
 30
0.0
  0
VERTEX
  5
1F4A
  8
3
 10
94.1
 20
-38.15265626839997
 30
0.0
  0
SEQEND
  5
1FFB
  8
3
  0
POLYLINE
  5
D63
  8
3
 66
     1
 10
0.0
 20
0.0
 30
0.0
  0
VERTEX
  5
1F4B
  8
3
 10
93.655
 20
-38.42250316309998
 30
0.0
  0
VERTEX
  5
1F4C
  8
3
 10
93.5162304314
 20
-38.79367897509997
 30
0.0
  0
VERTEX
  5
1F4D
  8
3
 10
93.11866332490001
 20
-39.11472543689996
 30
0.0
  0
VERTEX
  5
1F4E
  8
3
 10
92.51599232109999
 20
-39.34228344489998
 30
0.0
  0
VERTEX
  5
1F4F
  8
3
 10
91.78961147870001
 20
-39.44562002919997
 30
0.0
  0
VERTEX
  5
1F50
  8
3
 10
91.03762255539999
 20
-39.41077901139997
 30
0.0
  0
VERTEX
  5
1F51
  8
3
 10
90.3615858222
 20
-39.24246586409998
 30
0.0
  0
VERTEX
  5
1F52
  8
3
 10
89.85280378600001
 20
-38.96341221039998
 30
0.0
  0
VERTEX
  5
1F53
  8
3
 10
89.57999028009999
 20
-38.61130579259998
 30
0.0
  0
VERTEX
  5
1F54
  8
3
 10
89.57999028009999
 20
-38.23370053349998
 30
0.0
  0
VERTEX
  5
1F55
  8
3
 10
89.85280378600001
 20
-37.88159411569998
 30
0.0
  0
VERTEX
  5
1F56
  8
3
 10
90.3615858222
 20
-37.60254046199998
 30
0.0
  0
VERTEX
  5
1F57
  8
3
 10
91.03762255539999
 20
-37.43422731469997
 30
0.0
  0
VERTEX
  5
1F58
  8
3
 10
91.78961147870001
 20
-37.39938629689996
 30
0.0
  0
VERTEX
  5
1F59
  8
3
 10
92.51599232109999
 20
-37.50272288119999
 30
0.0
  0
VERTEX
  5
1F5A
  8
3
 10
93.11866332490001
 20
-37.73028088919997
 30
0.0
  0
VERTEX
  5
1F5B
  8
3
 10
93.5162304314
 20
-38.05132735109999
 30
0.0
  0
VERTEX
  5
1F5C
  8
3
 10
93.655
 20
-38.42250316309998
 30
0.0
  0
SEQEND
  5
1FFA
  8
3
  0
POLYLINE
  5
D64
  8
3
 66
     1
 10
0.0
 20
0.0
 30
0.0
  0
VERTEX
  5
1F5D
  8
3
 10
94.1
 20
-38.69235005769997
 30
0.0
  0
VERTEX
  5
1F5E
  8
3
 10
93.9492315519
 20
-39.11987523679997
 30
0.0
  0
VERTEX
  5
1F5F
  8
3
 10
93.51511110780001
 20
-39.49583456979997
 30
0.0
  0
VERTEX
  5
1F60
  8
3
 10
92.85
 20
-39.77488181239997
 30
0.0
  0
VERTEX
  5
1F61
  8
3
 10
92.03412044410001
 20
-39.92335974889997
 30
0.0
  0
VERTEX
  5
1F62
  8
3
 10
91.16587955579999
 20
-39.92335974889997
 30
0.0
  0
VERTEX
  5
1F63
  8
3
 10
90.35
 20
-39.77488181239997
 30
0.0
  0
VERTEX
  5
1F64
  8
3
 10
89.68488889220001
 20
-39.49583456979997
 30
0.0
  0
VERTEX
  5
1F65
  8
3
 10
89.250768448
 20
-39.11987523679997
 30
0.0
  0
VERTEX
  5
1F66
  8
3
 10
89.1
 20
-38.69235005769997
 30
0.0
  0
VERTEX
  5
1F67
  8
3
 10
89.250768448
 20
-38.26482487849998
 30
0.0
  0
VERTEX
  5
1F68
  8
3
 10
89.68488889220001
 20
-37.88886554559997
 30
0.0
  0
VERTEX
  5
1F69
  8
3
 10
90.35
 20
-37.60981830299997
 30
0.0
  0
VERTEX
  5
1F6A
  8
3
 10
91.16587955579999
 20
-37.46134036639998
 30
0.0
  0
VERTEX
  5
1F6B
  8
3
 10
92.03412044410001
 20
-37.46134036639998
 30
0.0
  0
VERTEX
  5
1F6C
  8
3
 10
92.85
 20
-37.60981830299997
 30
0.0
  0
VERTEX
  5
1F6D
  8
3
 10
93.51511110780001
 20
-37.88886554559997
 30
0.0
  0
VERTEX
  5
1F6E
  8
3
 10
93.9492315519
 20
-38.26482487849998
 30
0.0
  0
VERTEX
  5
1F6F
  8
3
 10
94.1
 20
-38.69235005769997
 30
0.0
  0
SEQEND
  5
1FF9
  8
3
  0
POLYLINE
  5
D65
  8
3
 66
     1
 10
0.0
 20
0.0
 30
0.0
  0
VERTEX
  5
1F70
  8
3
 10
94.1
 20
-38.77038960899998
 30
0.0
  0
VERTEX
  5
1F71
  8
3
 10
93.9492315519
 20
-39.19791478819997
 30
0.0
  0
VERTEX
  5
1F72
  8
3
 10
93.51511110780001
 20
-39.57387412109998
 30
0.0
  0
VERTEX
  5
1F73
  8
3
 10
92.85
 20
-39.85292136379996
 30
0.0
  0
VERTEX
  5
1F74
  8
3
 10
92.03412044410001
 20
-40.00139930029997
 30
0.0
  0
VERTEX
  5
1F75
  8
3
 10
91.16587955579999
 20
-40.00139930029997
 30
0.0
  0
VERTEX
  5
1F76
  8
3
 10
90.35
 20
-39.85292136379996
 30
0.0
  0
VERTEX
  5
1F77
  8
3
 10
89.68488889220001
 20
-39.57387412109998
 30
0.0
  0
VERTEX
  5
1F78
  8
3
 10
89.250768448
 20
-39.19791478819997
 30
0.0
  0
VERTEX
  5
1F79
  8
3
 10
89.1
 20
-38.77038960899998
 30
0.0
  0
VERTEX
  5
1F7A
  8
3
 10
89.250768448
 20
-38.34286442989998
 30
0.0
  0
VERTEX
  5
1F7B
  8
3
 10
89.68488889220001
 20
-37.96690509689998
 30
0.0
  0
VERTEX
  5
1F7C
  8
3
 10
90.35
 20
-37.68785785429998
 30
0.0
  0
VERTEX
  5
1F7D
  8
3
 10
91.16587955579999
 20
-37.53937991779998
 30
0.0
  0
VERTEX
  5
1F7E
  8
3
 10
92.03412044410001
 20
-37.53937991779998
 30
0.0
  0
VERTEX
  5
1F7F
  8
3
 10
92.85
 20
-37.68785785429998
 30
0.0
  0
VERTEX
  5
1F80
  8
3
 10
93.51511110780001
 20
-37.96690509689998
 30
0.0
  0
VERTEX
  5
1F81
  8
3
 10
93.9492315519
 20
-38.34286442989998
 30
0.0
  0
VERTEX
  5
1F82
  8
3
 10
94.1
 20
-38.77038960899998
 30
0.0
  0
SEQEND
  5
1FF8
  8
3
  0
POLYLINE
  5
D66
  8
3
 66
     1
 10
0.0
 20
0.0
 30
0.0
  0
VERTEX
  5
1F83
  8
3
 10
93.655
 20
-39.04023650369999
 30
0.0
  0
VERTEX
  5
1F84
  8
3
 10
93.5162304314
 20
-39.41141231569998
 30
0.0
  0
VERTEX
  5
1F85
  8
3
 10
93.1186633248
 20
-39.73245877749997
 30
0.0
  0
VERTEX
  5
1F86
  8
3
 10
92.51599232109999
 20
-39.96001678549996
 30
0.0
  0
VERTEX
  5
1F87
  8
3
 10
91.78961147870001
 20
-40.06335336979998
 30
0.0
  0
VERTEX
  5
1F88
  8
3
 10
91.03762255539999
 20
-40.02851235199998
 30
0.0
  0
VERTEX
  5
1F89
  8
3
 10
90.3615858222
 20
-39.86019920469997
 30
0.0
  0
VERTEX
  5
1F8A
  8
3
 10
89.85280378600001
 20
-39.58114555099996
 30
0.0
  0
VERTEX
  5
1F8B
  8
3
 10
89.57999028009999
 20
-39.22903913319996
 30
0.0
  0
VERTEX
  5
1F8C
  8
3
 10
89.57999028009999
 20
-38.85143387409997
 30
0.0
  0
VERTEX
  5
1F8D
  8
3
 10
89.85280378600001
 20
-38.49932745629997
 30
0.0
  0
VERTEX
  5
1F8E
  8
3
 10
90.3615858222
 20
-38.22027380259996
 30
0.0
  0
VERTEX
  5
1F8F
  8
3
 10
91.03762255539999
 20
-38.05196065529998
 30
0.0
  0
VERTEX
  5
1F90
  8
3
 10
91.78961147870001
 20
-38.01711963749997
 30
0.0
  0
VERTEX
  5
1F91
  8
3
 10
92.51599232109999
 20
-38.12045622179997
 30
0.0
  0
VERTEX
  5
1F92
  8
3
 10
93.11866332490001
 20
-38.34801422979999
 30
0.0
  0
VERTEX
  5
1F93
  8
3
 10
93.5162304314
 20
-38.66906069169997
 30
0.0
  0
VERTEX
  5
1F94
  8
3
 10
93.655
 20
-39.04023650369999
 30
0.0
  0
SEQEND
  5
1FF7
  8
3
  0
POLYLINE
  5
D67
  8
3
 66
     1
 10
0.0
 20
0.0
 30
0.0
  0
VERTEX
  5
1F95
  8
3
 10
94.1
 20
-39.31008339829998
 30
0.0
  0
VERTEX
  5
1F96
  8
3
 10
93.9492315519
 20
-39.73760857739998
 30
0.0
  0
VERTEX
  5
1F97
  8
3
 10
93.51511110780001
 20
-40.11356791039998
 30
0.0
  0
VERTEX
  5
1F98
  8
3
 10
92.85
 20
-40.39261515299998
 30
0.0
  0
VERTEX
  5
1F99
  8
3
 10
92.03412044410001
 20
-40.54109308959997
 30
0.0
  0
VERTEX
  5
1F9A
  8
3
 10
91.16587955579999
 20
-40.54109308959997
 30
0.0
  0
VERTEX
  5
1F9B
  8
3
 10
90.35
 20
-40.39261515299998
 30
0.0
  0
VERTEX
  5
1F9C
  8
3
 10
89.68488889220001
 20
-40.11356791039998
 30
0.0
  0
VERTEX
  5
1F9D
  8
3
 10
89.250768448
 20
-39.73760857739998
 30
0.0
  0
VERTEX
  5
1F9E
  8
3
 10
89.1
 20
-39.31008339829998
 30
0.0
  0
VERTEX
  5
1F9F
  8
3
 10
89.250768448
 20
-38.88255821909996
 30
0.0
  0
VERTEX
  5
1FA0
  8
3
 10
89.68488889220001
 20
-38.50659888619998
 30
0.0
  0
VERTEX
  5
1FA1
  8
3
 10
90.35
 20
-38.22755164359998
 30
0.0
  0
VERTEX
  5
1FA2
  8
3
 10
91.16587955579999
 20
-38.07907370699996
 30
0.0
  0
VERTEX
  5
1FA3
  8
3
 10
92.03412044410001
 20
-38.07907370699996
 30
0.0
  0
VERTEX
  5
1FA4
  8
3
 10
92.85
 20
-38.22755164359998
 30
0.0
  0
VERTEX
  5
1FA5
  8
3
 10
93.51511110780001
 20
-38.50659888619998
 30
0.0
  0
VERTEX
  5
1FA6
  8
3
 10
93.9492315519
 20
-38.88255821909996
 30
0.0
  0
VERTEX
  5
1FA7
  8
3
 10
94.1
 20
-39.31008339829998
 30
0.0
  0
SEQEND
  5
1FF6
  8
3
  0
LINE
  5
D68
  8
3
 10
91.6
 20
-38.26388909049999
 30
0.0
 11
91.6
 21
-40.60215768079996
 31
0.0
  0
LINE
  5
D69
  8
3
 10
90.35
 20
-37.90304517229998
 30
0.0
 11
91.6
 21
-38.26388909049999
 31
0.0
  0
LINE
  5
D6A
  8
3
 10
92.85
 20
-37.90304517229998
 30
0.0
 11
91.6
 21
-38.26388909049999
 31
0.0
  0
POLYLINE
  5
D6B
  8
3
 66
     1
 10
0.0
 20
0.0
 30
0.0
  0
VERTEX
  5
1FA8
  8
3
 10
94.1
 20
-39.38812294959996
 30
0.0
  0
VERTEX
  5
1FA9
  8
3
 10
93.9492315519
 20
-39.81564812879998
 30
0.0
  0
VERTEX
  5
1FAA
  8
3
 10
93.51511110780001
 20
-40.19160746179998
 30
0.0
  0
VERTEX
  5
1FAB
  8
3
 10
92.85
 20
-40.47065470439998
 30
0.0
  0
VERTEX
  5
1FAC
  8
3
 10
92.03412044410001
 20
-40.61913264089998
 30
0.0
  0
VERTEX
  5
1FAD
  8
3
 10
91.16587955579999
 20
-40.61913264089998
 30
0.0
  0
VERTEX
  5
1FAE
  8
3
 10
90.35
 20
-40.47065470439998
 30
0.0
  0
VERTEX
  5
1FAF
  8
3
 10
89.68488889220001
 20
-40.19160746179998
 30
0.0
  0
VERTEX
  5
1FB0
  8
3
 10
89.250768448
 20
-39.81564812879998
 30
0.0
  0
VERTEX
  5
1FB1
  8
3
 10
89.1
 20
-39.38812294959996
 30
0.0
  0
VERTEX
  5
1FB2
  8
3
 10
89.250768448
 20
-38.96059777049999
 30
0.0
  0
VERTEX
  5
1FB3
  8
3
 10
89.68488889220001
 20
-38.58463843749996
 30
0.0
  0
VERTEX
  5
1FB4
  8
3
 10
90.35
 20
-38.30559119489996
 30
0.0
  0
VERTEX
  5
1FB5
  8
3
 10
91.16587955579999
 20
-38.15711325839996
 30
0.0
  0
VERTEX
  5
1FB6
  8
3
 10
92.03412044410001
 20
-38.15711325839996
 30
0.0
  0
VERTEX
  5
1FB7
  8
3
 10
92.85
 20
-38.30559119489996
 30
0.0
  0
VERTEX
  5
1FB8
  8
3
 10
93.51511110780001
 20
-38.58463843749996
 30
0.0
  0
VERTEX
  5
1FB9
  8
3
 10
93.9492315519
 20
-38.96059777049999
 30
0.0
  0
VERTEX
  5
1FBA
  8
3
 10
94.1
 20
-39.38812294959996
 30
0.0
  0
SEQEND
  5
1FF5
  8
3
  0
POLYLINE
  5
D6C
  8
3
 66
     1
 10
0.0
 20
0.0
 30
0.0
  0
VERTEX
  5
1FBB
  8
3
 10
93.655
 20
-39.65796984429997
 30
0.0
  0
VERTEX
  5
1FBC
  8
3
 10
93.5162304314
 20
-40.02914565629996
 30
0.0
  0
VERTEX
  5
1FBD
  8
3
 10
93.11866332490001
 20
-40.35019211809998
 30
0.0
  0
VERTEX
  5
1FBE
  8
3
 10
92.51599232109999
 20
-40.57775012609997
 30
0.0
  0
VERTEX
  5
1FBF
  8
3
 10
91.78961147870001
 20
-40.68108671039997
 30
0.0
  0
VERTEX
  5
1FC0
  8
3
 10
91.03762255539999
 20
-40.64624569259996
 30
0.0
  0
VERTEX
  5
1FC1
  8
3
 10
90.3615858222
 20
-40.47793254529998
 30
0.0
  0
VERTEX
  5
1FC2
  8
3
 10
89.85280378600001
 20
-40.19887889159997
 30
0.0
  0
VERTEX
  5
1FC3
  8
3
 10
89.57999028009999
 20
-39.84677247379997
 30
0.0
  0
VERTEX
  5
1FC4
  8
3
 10
89.57999028009999
 20
-39.46916721469998
 30
0.0
  0
VERTEX
  5
1FC5
  8
3
 10
89.85280378600001
 20
-39.11706079689998
 30
0.0
  0
VERTEX
  5
1FC6
  8
3
 10
90.3615858222
 20
-38.83800714319997
 30
0.0
  0
VERTEX
  5
1FC7
  8
3
 10
91.03762255539999
 20
-38.66969399589996
 30
0.0
  0
VERTEX
  5
1FC8
  8
3
 10
91.78961147870001
 20
-38.63485297809999
 30
0.0
  0
VERTEX
  5
1FC9
  8
3
 10
92.51599232109999
 20
-38.73818956239998
 30
0.0
  0
VERTEX
  5
1FCA
  8
3
 10
93.11866332490001
 20
-38.96574757039997
 30
0.0
  0
VERTEX
  5
1FCB
  8
3
 10
93.5162304314
 20
-39.28679403229998
 30
0.0
  0
VERTEX
  5
1FCC
  8
3
 10
93.655
 20
-39.65796984429997
 30
0.0
  0
SEQEND
  5
1FF4
  8
3
  0
POLYLINE
  5
D6D
  8
3
 66
     1
 10
0.0
 20
0.0
 30
0.0
  0
VERTEX
  5
1FCD
  8
3
 10
93.85610312680001
 20
-39.77991828079996
 30
0.0
  0
VERTEX
  5
1FCE
  8
3
 10
93.7037535124
 20
-39.37241905449997
 30
0.0
  0
VERTEX
  5
1FCF
  8
3
 10
93.2672803289
 20
-39.01995485679998
 30
0.0
  0
VERTEX
  5
1FD0
  8
3
 10
92.6056316982
 20
-38.77012793049997
 30
0.0
  0
VERTEX
  5
1FD1
  8
3
 10
91.8081669343
 20
-38.65667878649998
 30
0.0
  0
VERTEX
  5
1FD2
  8
3
 10
90.9825880724
 20
-38.69492936029997
 30
0.0
  0
VERTEX
  5
1FD3
  8
3
 10
90.24039411250001
 20
-38.87971369999997
 30
0.0
  0
VERTEX
  5
1FD4
  8
3
 10
89.68182246149999
 20
-39.18607565649998
 30
0.0
  0
VERTEX
  5
1FD5
  8
3
 10
89.3823113162
 20
-39.57263934999997
 30
0.0
  0
VERTEX
  5
1FD6
  8
3
 10
89.3823113162
 20
-39.98719721169996
 30
0.0
  0
VERTEX
  5
1FD7
  8
3
 10
89.68182246149999
 20
-40.37376090519999
 30
0.0
  0
VERTEX
  5
1FD8
  8
3
 10
90.24039411250001
 20
-40.68012286169997
 30
0.0
  0
VERTEX
  5
1FD9
  8
3
 10
90.9825880724
 20
-40.86490720139997
 30
0.0
  0
VERTEX
  5
1FDA
  8
3
 10
91.8081669343
 20
-40.90315777519999
 30
0.0
  0
VERTEX
  5
1FDB
  8
3
 10
92.6056316982
 20
-40.78970863119997
 30
0.0
  0
VERTEX
  5
1FDC
  8
3
 10
93.2672803289
 20
-40.53988170489998
 30
0.0
  0
VERTEX
  5
1FDD
  8
3
 10
93.7037535124
 20
-40.18741750719997
 30
0.0
  0
VERTEX
  5
1FDE
  8
3
 10
93.85610312680001
 20
-39.77991828079996
 30
0.0
  0
SEQEND
  5
1FF3
  8
3
  0
LINE
  5
D6E
  8
3
 10
90.35
 20
-37.90304517229998
 30
0.0
 11
90.35
 21
-37.18135733579999
 31
0.0
  0
LINE
  5
D6F
  8
3
 10
90.35
 20
-37.90304517229998
 30
0.0
 11
90.35
 21
-40.24131376249997
 31
0.0
  0
LINE
  5
D70
  8
3
 10
92.85
 20
-37.90304517229998
 30
0.0
 11
92.85
 21
-37.18135733579999
 31
0.0
  0
LINE
  5
D71
  8
3
 10
92.85
 20
-37.90304517229998
 30
0.0
 11
92.85
 21
-40.24131376249997
 31
0.0
  0
POLYLINE
  5
D72
  8
3
 66
     1
 10
0.0
 20
0.0
 30
0.0
  0
VERTEX
  5
1FDF
  8
3
 10
91.6
 20
-40.90796984429997
 30
0.0
  0
VERTEX
  5
1FE0
  8
3
 10
90.8576483759
 20
-40.83858505999999
 30
0.0
  0
VERTEX
  5
1FE1
  8
3
 10
90.21555545230001
 20
-40.63980150669997
 30
0.0
  0
VERTEX
  5
1FE2
  8
3
 10
89.76043943619999
 20
-40.33846600479998
 30
0.0
  0
VERTEX
  5
1FE3
  8
3
 10
89.55376626770001
 20
-39.97527558359997
 30
0.0
  0
VERTEX
  5
1FE4
  8
3
 10
89.6234483032
 20
-39.59928112199998
 30
0.0
  0
VERTEX
  5
1FE5
  8
3
 10
89.96007459789999
 20
-39.26126275539997
 30
0.0
  0
VERTEX
  5
1FE6
  8
3
 10
90.51818190520001
 20
-39.00687173729997
 30
0.0
  0
VERTEX
  5
1FE7
  8
3
 10
91.22239474080001
 20
-38.87046498429999
 30
0.0
  0
VERTEX
  5
1FE8
  8
3
 10
91.97760525909999
 20
-38.87046498429999
 30
0.0
  0
VERTEX
  5
1FE9
  8
3
 10
92.68181809469999
 20
-39.00687173729997
 30
0.0
  0
VERTEX
  5
1FEA
  8
3
 10
93.23992540200001
 20
-39.26126275539997
 30
0.0
  0
VERTEX
  5
1FEB
  8
3
 10
93.5765516967
 20
-39.59928112199998
 30
0.0
  0
VERTEX
  5
1FEC
  8
3
 10
93.64623373219999
 20
-39.97527558359997
 30
0.0
  0
VERTEX
  5
1FED
  8
3
 10
93.43956056370001
 20
-40.33846600479998
 30
0.0
  0
VERTEX
  5
1FEE
  8
3
 10
92.98444454770001
 20
-40.63980150669997
 30
0.0
  0
VERTEX
  5
1FEF
  8
3
 10
92.342351624
 20
-40.83858505999999
 30
0.0
  0
VERTEX
  5
1FF0
  8
3
 10
91.6
 20
-40.90796984429997
 30
0.0
  0
SEQEND
  5
1FF2
  8
3
  0
LINE
  5
D73
  8
3
 10
90.35
 20
-40.24131376249997
 30
0.0
 11
91.6
 21
-40.60215768079996
 31
0.0
  0
LINE
  5
D74
  8
3
 10
92.85
 20
-40.24131376249997
 30
0.0
 11
91.6
 21
-40.60215768079996
 31
0.0
  0
LINE
  5
D75
  8
3
 10
91.6
 20
-36.82051341759998
 30
0.0
 11
91.6
 21
-38.26388909049999
 31
0.0
  0
LINE
  5
D76
  8
3
 10
90.35
 20
-39.51962592599997
 30
0.0
 11
91.6
 21
-39.15878200779997
 31
0.0
  0
LINE
  5
D77
  8
3
 10
90.35
 20
-37.18135733579999
 30
0.0
 11
91.6
 21
-36.82051341759998
 31
0.0
  0
LINE
  5
D78
  8
3
 10
92.85
 20
-39.51962592599997
 30
0.0
 11
91.6
 21
-39.15878200779997
 31
0.0
  0
LINE
  5
D79
  8
3
 10
92.85
 20
-37.18135733579999
 30
0.0
 11
91.6
 21
-36.82051341759998
 31
0.0
  0
LINE
  5
D7A
  8
3
 10
101.6
 20
9.525000000000034
 30
0.0
 11
96.18599
 21
9.525000000000034
 31
0.0
  0
LINE
  5
D7B
  8
3
 10
96.18599
 20
-9.524999999999977
 30
0.0
 11
101.6
 21
-9.524999999999977
 31
0.0
  0
LINE
  5
D7C
  8
3
 10
96.18599
 20
9.525000000000034
 30
0.0
 11
95.25
 21
8.58901000000003
 31
0.0
  0
LINE
  5
D7D
  8
3
 10
95.25
 20
-8.589009999999973
 30
0.0
 11
96.18599
 21
-9.524999999999977
 31
0.0
  0
LINE
  5
D82
  8
3
 10
101.6
 20
41.28131000000002
 30
0.0
 11
87.1101603049
 21
41.28131000000002
 31
0.0
  0
LINE
  5
D83
  8
3
 10
87.1101603049
 20
25.39869000000004
 30
0.0
 11
101.6
 21
25.39869000000004
 31
0.0
  0
ARC
  5
D84
  8
3
 10
87.0472
 20
41.47451000000001
 30
0.0
 40
0.2032000000000025
 50
270.0
 51
288.0498306933002
  0
ARC
  5
D85
  8
3
 10
87.0472
 20
25.20549000000003
 30
0.0
 40
0.2032000000000096
 50
71.95016930669978
 51
90.0
  0
LINE
  5
D86
  8
3
 10
87.0472
 20
41.27131000000003
 30
0.0
 11
86.47203951060001
 21
41.27131000000003
 31
0.0
  0
LINE
  5
D87
  8
3
 10
86.47203951060001
 20
25.40869000000004
 30
0.0
 11
87.0472
 21
25.40869000000004
 31
0.0
  0
LINE
  5
D88
  8
3
 10
86.47203951060001
 20
41.27131000000003
 30
0.0
 11
85.5472
 21
41.02350000000001
 31
0.0
  0
LINE
  5
D89
  8
3
 10
85.5472
 20
25.65650000000002
 30
0.0
 11
86.47203951060001
 21
25.40869000000004
 31
0.0
  0
LINE
  5
D8A
  8
3
 10
101.6
 20
-25.39868999999999
 30
0.0
 11
87.1101603049
 21
-25.39868999999999
 31
0.0
  0
LINE
  5
D8B
  8
3
 10
87.1101603049
 20
-41.28130999999996
 30
0.0
 11
101.6
 21
-41.28130999999996
 31
0.0
  0
ARC
  5
D8C
  8
3
 10
87.0472
 20
-25.20548999999997
 30
0.0
 40
0.2032000000000096
 50
270.0
 51
288.0498306933002
  0
ARC
  5
D8D
  8
3
 10
87.0472
 20
-41.47450999999998
 30
0.0
 40
0.2031999999999853
 50
71.95016930669854
 51
90.0
  0
LINE
  5
D8E
  8
3
 10
86.47203951060001
 20
-25.40868999999998
 30
0.0
 11
85.5472
 21
-25.65649999999999
 31
0.0
  0
LINE
  5
D8F
  8
3
 10
85.5472
 20
-41.02349999999998
 30
0.0
 11
86.47203951060001
 21
-41.27130999999997
 31
0.0
  0
LINE
  5
D90
  8
3
 10
87.0472
 20
-25.40868999999998
 30
0.0
 11
86.47203951060001
 21
-25.40868999999998
 31
0.0
  0
LINE
  5
D91
  8
3
 10
86.47203951060001
 20
-41.27130999999997
 30
0.0
 11
87.0472
 21
-41.27130999999997
 31
0.0
  0
LINE
  5
D94
  8
3
 10
101.6
 20
20.04907116060002
 30
0.0
 11
101.4136296694
 21
19.35352761800004
 31
0.0
  0
LINE
  5
D95
  8
3
 10
101.4136296694
 20
-19.35352761799999
 30
0.0
 11
101.6
 21
-20.04907116049998
 31
0.0
  0
ARC
  5
D96
  8
3
 10
101.8
 20
-19.24999999999997
 30
0.0
 40
0.4000000000000108
 50
166.875000000001
 51
194.9999999999986
  0
ARC
  5
D97
  8
3
 10
101.8
 20
-19.24999999999997
 30
0.0
 40
0.4000000000000192
 50
120.0000000000022
 51
166.875000000001
  0
ARC
  5
D98
  8
3
 10
101.8
 20
19.25000000000003
 30
0.0
 40
0.4000000000000057
 50
165.0000000000014
 51
180.0
  0
ARC
  5
D99
  8
3
 10
101.8
 20
19.25000000000003
 30
0.0
 40
0.4000000000000192
 50
180.0
 51
239.9999999999978
  0
LINE
  5
D9A
  8
3
 10
101.4
 20
19.25000000000003
 30
0.0
 11
101.4
 21
-19.24999999999997
 31
0.0
  0
LINE
  5
D9B
  8
3
 10
101.6
 20
2.500000000000028
 30
0.0
 11
92.19999999999999
 21
2.500000000000028
 31
0.0
  0
LINE
  5
D9C
  8
3
 10
92.19999999999999
 20
-2.499999999999972
 30
0.0
 11
101.6
 21
-2.499999999999972
 31
0.0
  0
LINE
  5
D9D
  8
3
 10
92.19999999999999
 20
2.500000000000028
 30
0.0
 11
91.94422740389999
 21
2.074322916300048
 31
0.0
  0
LINE
  5
D9E
  8
3
 10
91.94422740389999
 20
-2.074322916199975
 30
0.0
 11
92.19999999999999
 21
-2.499999999999972
 31
0.0
  0
LINE
  5
DA1
  8
3
 10
35.7999997787
 20
-45.00000000669996
 30
0.0
 11
35.00000000509999
 21
-44.20000042559997
 31
0.0
  0
LINE
  5
DA2
  8
3
 10
35.00000000509999
 20
44.20000021650003
 30
0.0
 11
35.7999995696
 21
45.00000000670002
 31
0.0
  0
LINE
  5
DA7
  8
3
 10
35.0
 20
-44.20050274429997
 30
0.0
 11
35.0
 21
-36.09999999999997
 31
0.0
  0
LINE
  5
DA8
  8
3
 10
35.0
 20
38.52000000000004
 30
0.0
 11
35.0
 21
44.20050253510004
 31
0.0
  0
ARC
  5
DA9
  8
3
 10
34.19999999999999
 20
38.52000000000004
 30
0.0
 40
0.7999999999999972
 50
270.0
 51
0.0
  0
ARC
  5
DAA
  8
3
 10
34.19999999999999
 20
-36.09999999999997
 30
0.0
 40
0.8000000000000114
 50
0.0
 51
90.0
  0
LINE
  5
DAD
  8
SK3
 10
-5.25
 20
-10.84649999999999
 30
0.0
 11
-4.7616560588
 21
-8.731249999999989
 31
0.0
  0
LINE
  5
DAE
  8
SK3
 10
-4.7616560588
 20
8.731250000000045
 30
0.0
 11
-5.25
 21
10.84650000000002
 31
0.0
  0
LINE
  5
DB5
  8
3
 10
101.6
 20
8.731250000000045
 30
0.0
 11
0.0
 21
8.731250000000045
 31
0.0
  0
LINE
  5
DB6
  8
3
 10
-0.0000000000000009
 20
-8.731249999999989
 30
0.0
 11
101.6
 21
-8.731249999999989
 31
0.0
  0
LINE
  5
DB7
  8
3
 10
83.6
 20
41.27475000000004
 30
0.0
 11
78.83232120310001
 21
33.34000000000003
 31
0.0
  0
LINE
  5
DB8
  8
3
 10
78.83232120310001
 20
33.34000000000003
 30
0.0
 11
83.6
 21
25.40525000000002
 31
0.0
  0
LINE
  5
DB9
  8
3
 10
101.6
 20
41.27475000000004
 30
0.0
 11
83.6
 21
41.27475000000004
 31
0.0
  0
LINE
  5
DBA
  8
3
 10
83.6
 20
25.40525000000002
 30
0.0
 11
101.6
 21
25.40525000000002
 31
0.0
  0
LINE
  5
DBB
  8
3
 10
83.6
 20
-25.40524999999997
 30
0.0
 11
78.83232120310001
 21
-33.33999999999997
 31
0.0
  0
LINE
  5
DBC
  8
3
 10
78.83232120310001
 20
-33.33999999999997
 30
0.0
 11
83.6
 21
-41.27474999999998
 31
0.0
  0
LINE
  5
DBD
  8
3
 10
101.6
 20
-25.40524999999997
 30
0.0
 11
83.6
 21
-25.40524999999997
 31
0.0
  0
LINE
  5
DBE
  8
3
 10
83.6
 20
-41.27474999999998
 30
0.0
 11
101.6
 21
-41.27474999999998
 31
0.0
  0
LINE
  5
DBF
  8
3
 10
18.75
 20
29.72000000000003
 30
0.0
 11
25.09999999999999
 21
25.90453506920002
 31
0.0
  0
LINE
  5
DC0
  8
3
 10
25.09999999999999
 20
25.90453506920002
 30
0.0
 11
31.44999999999999
 21
29.72000000000003
 31
0.0
  0
LINE
  5
DC1
  8
3
 10
18.75
 20
37.72000000000003
 30
0.0
 11
18.75
 21
29.72000000000003
 31
0.0
  0
LINE
  5
DC2
  8
3
 10
31.44999999999999
 20
29.72000000000003
 30
0.0
 11
31.44999999999999
 21
37.72000000000003
 31
0.0
  0
LINE
  5
DC3
  8
3
 10
6.180000000000007
 20
37.72000000000003
 30
0.0
 11
6.180000000000007
 21
33.12000000000003
 31
0.0
  0
LINE
  5
DC4
  8
3
 10
16.18000000000001
 20
33.12000000000003
 30
0.0
 11
16.18000000000001
 21
37.72000000000003
 31
0.0
  0
LINE
  5
DC5
  8
3
 10
9.163561145800003
 20
33.12000000000003
 30
0.0
 11
11.18000000000001
 21
31.90840130190003
 31
0.0
  0
LINE
  5
DC6
  8
3
 10
11.18000000000001
 20
31.90840130190003
 30
0.0
 11
13.19643885409999
 21
33.12000000000003
 31
0.0
  0
LINE
  5
DC7
  8
3
 10
89.5
 20
38.55978110350003
 30
0.0
 11
89.5
 21
7.559329003500011
 31
0.0
  0
LINE
  5
DC8
  8
3
 10
93.69999999999999
 20
14.28505278830002
 30
0.0
 11
93.69999999999999
 21
38.55978110350003
 31
0.0
  0
LINE
  5
DC9
  8
3
 10
93.69999999999999
 20
7.556344272300009
 30
0.0
 11
93.69999999999999
 21
9.963658517700026
 31
0.0
  0
LINE
  5
DCA
  8
3
 10
93.69999999999999
 20
-9.963658517699969
 30
0.0
 11
93.69999999999999
 21
-7.556344272299953
 31
0.0
  0
LINE
  5
DCB
  8
3
 10
93.69999999999999
 20
-38.55978110349997
 30
0.0
 11
93.69999999999999
 21
-14.28505278829999
 31
0.0
  0
LINE
  5
DCC
  8
3
 10
89.5
 20
-7.559329003499954
 30
0.0
 11
89.5
 21
-38.55978110349997
 31
0.0
  0
LINE
  5
DCD
  8
3
 10
101.6
 20
-9.624355652999952
 30
0.0
 11
93.26194408399999
 21
-9.624355652999952
 31
0.0
  0
LINE
  5
DCE
  8
3
 10
93.26194408399999
 20
-14.62435565299995
 30
0.0
 11
101.6
 21
-14.62435565299995
 31
0.0
  0
LINE
  5
DCF
  8
3
 10
101.6
 20
14.62435565300001
 30
0.0
 11
93.26751268570001
 21
14.62435565300001
 31
0.0
  0
LINE
  5
DD0
  8
3
 10
93.26751268570001
 20
9.62435565300001
 30
0.0
 11
101.6
 21
9.62435565300001
 31
0.0
  0
LINE
  5
DD1
  8
3
 10
94.225
 20
-39.88030222229997
 30
0.0
 11
94.225
 21
-39.01444444049997
 31
0.0
  0
LINE
  5
DD2
  8
3
 10
88.975
 20
-39.01444444049997
 30
0.0
 11
88.975
 21
-39.87883385299997
 31
0.0
  0
LINE
  5
DD3
  8
3
 10
93.7433035249
 20
-38.25667221219996
 30
0.0
 11
93.3146428199
 21
-37.95356332079999
 31
0.0
  0
LINE
  5
DD4
  8
3
 10
89.88535718
 20
-37.95356332079999
 30
0.0
 11
89.456696475
 21
-38.25667221219996
 31
0.0
  0
LINE
  5
DD5
  8
3
 10
88.975
 20
39.87883385300003
 30
0.0
 11
88.975
 21
39.01444444050003
 31
0.0
  0
LINE
  5
DD6
  8
3
 10
94.225
 20
39.01444444050003
 30
0.0
 11
94.225
 21
39.88030222230003
 31
0.0
  0
LINE
  5
DD7
  8
3
 10
89.456696475
 20
38.25667221220004
 30
0.0
 11
89.88535718
 21
37.95356332090003
 31
0.0
  0
LINE
  5
DD8
  8
3
 10
93.3146428199
 20
37.95356332090003
 30
0.0
 11
93.7433035249
 21
38.25667221220004
 31
0.0
  0
LINE
  5
DD9
  8
3
 10
89.708395636
 20
34.50633923800001
 30
0.0
 11
90.1711309833
 21
34.17913593600002
 31
0.0
  0
LINE
  5
DDA
  8
3
 10
93.0288690166
 20
34.17913593600002
 30
0.0
 11
93.4916043639
 21
34.50633923800001
 31
0.0
  0
LINE
  5
DDB
  8
3
 10
90.18549679590001
 20
34.57300630950004
 30
0.0
 11
90.43727836619999
 21
34.48661992890004
 31
0.0
  0
LINE
  5
DDC
  8
3
 10
92.76272163370001
 20
34.48661992890004
 30
0.0
 11
93.014503204
 21
34.57300630950004
 31
0.0
  0
LINE
  5
DDD
  8
3
 10
92.9108103554
 20
36.13024367790001
 30
0.0
 11
92.76272163370001
 21
36.18105299120003
 31
0.0
  0
LINE
  5
DDE
  8
3
 10
90.43727836619999
 20
36.18105299120003
 30
0.0
 11
90.28918964459999
 21
36.13024367790001
 31
0.0
  0
LINE
  5
DDF
  8
3
 10
89.1
 20
35.68172290600003
 30
0.0
 11
89.1
 21
35.60368335470002
 31
0.0
  0
LINE
  5
DE0
  8
3
 10
94.1
 20
35.60368335470002
 30
0.0
 11
94.1
 21
35.68172290600003
 31
0.0
  0
LINE
  5
DE1
  8
3
 10
93.014503204
 20
36.71239995120004
 30
0.0
 11
92.76272163370001
 21
36.79878633180002
 31
0.0
  0
LINE
  5
DE2
  8
3
 10
90.43727836619999
 20
36.79878633180002
 30
0.0
 11
90.18549679590001
 21
36.71239995120004
 31
0.0
  0
LINE
  5
DE3
  8
3
 10
90.18549679590001
 20
35.19073965010003
 30
0.0
 11
90.43727836619999
 21
35.10435326950002
 31
0.0
  0
LINE
  5
DE4
  8
3
 10
92.76272163370001
 20
35.10435326950002
 30
0.0
 11
93.014503204
 21
35.19073965010003
 31
0.0
  0
LINE
  5
DE5
  8
3
 10
89.1
 20
36.29945624660002
 30
0.0
 11
89.1
 21
36.22141669530004
 31
0.0
  0
LINE
  5
DE6
  8
3
 10
94.1
 20
36.22141669530004
 30
0.0
 11
94.1
 21
36.29945624660002
 31
0.0
  0
LINE
  5
DE7
  8
3
 10
93.014503204
 20
37.33013329180002
 30
0.0
 11
92.76272163370001
 21
37.41651967240003
 31
0.0
  0
LINE
  5
DE8
  8
3
 10
90.43727836619999
 20
37.41651967240003
 30
0.0
 11
90.18549679590001
 21
37.33013329180002
 31
0.0
  0
LINE
  5
DE9
  8
3
 10
90.18549679590001
 20
35.80847299070001
 30
0.0
 11
90.43727836619999
 21
35.72208661010004
 31
0.0
  0
LINE
  5
DEA
  8
3
 10
92.76272163370001
 20
35.72208661010004
 30
0.0
 11
93.014503204
 21
35.80847299070001
 31
0.0
  0
LINE
  5
DEB
  8
3
 10
89.1
 20
36.91718958720003
 30
0.0
 11
89.1
 21
36.83915003590002
 31
0.0
  0
LINE
  5
DEC
  8
3
 10
94.1
 20
36.83915003590002
 30
0.0
 11
94.1
 21
36.91718958720003
 31
0.0
  0
LINE
  5
DED
  8
3
 10
93.014503204
 20
37.94786663240004
 30
0.0
 11
92.76272163370001
 21
38.03425301300001
 31
0.0
  0
LINE
  5
DEE
  8
3
 10
90.43727836619999
 20
38.03425301300001
 30
0.0
 11
90.18549679590001
 21
37.94786663240004
 31
0.0
  0
LINE
  5
DEF
  8
3
 10
90.18549679590001
 20
36.42620633130002
 30
0.0
 11
90.43727836619999
 21
36.33981995070002
 31
0.0
  0
LINE
  5
DF0
  8
3
 10
92.76272163370001
 20
36.33981995070002
 30
0.0
 11
93.014503204
 21
36.42620633130002
 31
0.0
  0
LINE
  5
DF1
  8
3
 10
89.1
 20
37.53492292780004
 30
0.0
 11
89.1
 21
37.45688337650003
 31
0.0
  0
LINE
  5
DF2
  8
3
 10
94.1
 20
37.45688337650003
 30
0.0
 11
94.1
 21
37.53492292780004
 31
0.0
  0
LINE
  5
DF3
  8
3
 10
93.014503204
 20
38.56559997300002
 30
0.0
 11
92.76272163370001
 21
38.65198635360002
 31
0.0
  0
LINE
  5
DF4
  8
3
 10
90.43727836619999
 20
38.65198635360002
 30
0.0
 11
90.18549679590001
 21
38.56559997300002
 31
0.0
  0
LINE
  5
DF5
  8
3
 10
90.18549679590001
 20
37.04393967190003
 30
0.0
 11
90.43727836619999
 21
36.95755329130003
 31
0.0
  0
LINE
  5
DF6
  8
3
 10
92.76272163370001
 20
36.95755329130003
 30
0.0
 11
93.014503204
 21
37.04393967190003
 31
0.0
  0
LINE
  5
DF7
  8
3
 10
89.1
 20
38.15265626840002
 30
0.0
 11
89.1
 21
38.07461671710001
 31
0.0
  0
LINE
  5
DF8
  8
3
 10
94.1
 20
38.07461671710001
 30
0.0
 11
94.1
 21
38.15265626840002
 31
0.0
  0
LINE
  5
DF9
  8
3
 10
93.014503204
 20
39.18333331360003
 30
0.0
 11
92.76272163370001
 21
39.26971969420003
 31
0.0
  0
LINE
  5
DFA
  8
3
 10
90.43727836619999
 20
39.26971969420003
 30
0.0
 11
90.18549679590001
 21
39.18333331360003
 31
0.0
  0
LINE
  5
DFB
  8
3
 10
90.18549679590001
 20
37.66167301250002
 30
0.0
 11
90.43727836619999
 21
37.57528663190004
 31
0.0
  0
LINE
  5
DFC
  8
3
 10
92.76272163370001
 20
37.57528663190004
 30
0.0
 11
93.014503204
 21
37.66167301250002
 31
0.0
  0
LINE
  5
DFD
  8
3
 10
89.1
 20
38.77038960900003
 30
0.0
 11
89.1
 21
38.69235005770003
 31
0.0
  0
LINE
  5
DFE
  8
3
 10
94.1
 20
38.69235005770003
 30
0.0
 11
94.1
 21
38.77038960900003
 31
0.0
  0
LINE
  5
DFF
  8
3
 10
93.014503204
 20
39.80106665420004
 30
0.0
 11
92.76272163370001
 21
39.88745303480002
 31
0.0
  0
LINE
  5
E00
  8
3
 10
90.43727836619999
 20
39.88745303480002
 30
0.0
 11
90.18549679590001
 21
39.80106665420004
 31
0.0
  0
LINE
  5
E01
  8
3
 10
90.18549679590001
 20
38.27940635310003
 30
0.0
 11
90.43727836619999
 21
38.19301997250003
 31
0.0
  0
LINE
  5
E02
  8
3
 10
92.76272163370001
 20
38.19301997250003
 30
0.0
 11
93.014503204
 21
38.27940635310003
 31
0.0
  0
LINE
  5
E03
  8
3
 10
89.1
 20
39.38812294970003
 30
0.0
 11
89.1
 21
39.31008339830004
 31
0.0
  0
LINE
  5
E04
  8
3
 10
94.1
 20
39.31008339830004
 30
0.0
 11
94.1
 21
39.38812294970003
 31
0.0
  0
LINE
  5
E05
  8
3
 10
93.014503204
 20
40.41879999480003
 30
0.0
 11
92.76272163370001
 21
40.50518637540003
 31
0.0
  0
LINE
  5
E06
  8
3
 10
90.43727836619999
 20
40.50518637540003
 30
0.0
 11
90.18549679590001
 21
40.41879999480003
 31
0.0
  0
LINE
  5
E07
  8
3
 10
90.32349395930001
 20
38.84979279910004
 30
0.0
 11
90.43727836619999
 21
38.81075331310004
 31
0.0
  0
LINE
  5
E08
  8
3
 10
92.76272163370001
 20
38.81075331310004
 30
0.0
 11
92.87650604059999
 21
38.84979279910004
 31
0.0
  0
LINE
  5
E09
  8
3
 10
93.4916043639
 20
-34.50633923799998
 30
0.0
 11
93.0288690166
 21
-34.17913593599997
 31
0.0
  0
LINE
  5
E0A
  8
3
 10
90.1711309833
 20
-34.17913593599997
 30
0.0
 11
89.708395636
 21
-34.50633923799998
 31
0.0
  0
LINE
  5
E0B
  8
3
 10
93.014503204
 20
-34.57300630949996
 30
0.0
 11
92.76272163370001
 21
-34.48661992889998
 31
0.0
  0
LINE
  5
E0C
  8
3
 10
90.43727836619999
 20
-34.48661992889998
 30
0.0
 11
90.18549679590001
 21
-34.57300630949996
 31
0.0
  0
LINE
  5
E0D
  8
3
 10
90.28918964459999
 20
-36.13024367789998
 30
0.0
 11
90.43727836619999
 21
-36.18105299119998
 31
0.0
  0
LINE
  5
E0E
  8
3
 10
92.76272163370001
 20
-36.18105299119998
 30
0.0
 11
92.9108103554
 21
-36.13024367789998
 31
0.0
  0
LINE
  5
E0F
  8
3
 10
94.1
 20
-35.68172290599998
 30
0.0
 11
94.1
 21
-35.60368335469997
 31
0.0
  0
LINE
  5
E10
  8
3
 10
89.1
 20
-35.60368335469997
 30
0.0
 11
89.1
 21
-35.68172290599998
 31
0.0
  0
LINE
  5
E11
  8
3
 10
90.18549679590001
 20
-36.71239995119998
 30
0.0
 11
90.43727836619999
 21
-36.79878633179996
 31
0.0
  0
LINE
  5
E12
  8
3
 10
92.76272163370001
 20
-36.79878633179996
 30
0.0
 11
93.014503204
 21
-36.71239995119998
 31
0.0
  0
LINE
  5
E13
  8
3
 10
93.014503204
 20
-35.19073965009997
 30
0.0
 11
92.76272163370001
 21
-35.10435326949997
 31
0.0
  0
LINE
  5
E14
  8
3
 10
90.43727836619999
 20
-35.10435326949997
 30
0.0
 11
90.18549679590001
 21
-35.19073965009997
 31
0.0
  0
LINE
  5
E15
  8
3
 10
94.1
 20
-36.29945624659996
 30
0.0
 11
94.1
 21
-36.22141669529998
 31
0.0
  0
LINE
  5
E16
  8
3
 10
89.1
 20
-36.22141669529998
 30
0.0
 11
89.1
 21
-36.29945624659996
 31
0.0
  0
LINE
  5
E17
  8
3
 10
90.18549679590001
 20
-37.33013329179997
 30
0.0
 11
90.43727836619999
 21
-37.41651967239997
 31
0.0
  0
LINE
  5
E18
  8
3
 10
92.76272163370001
 20
-37.41651967239997
 30
0.0
 11
93.014503204
 21
-37.33013329179997
 31
0.0
  0
LINE
  5
E19
  8
3
 10
93.014503204
 20
-35.80847299069998
 30
0.0
 11
92.76272163370001
 21
-35.72208661009998
 31
0.0
  0
LINE
  5
E1A
  8
3
 10
90.43727836619999
 20
-35.72208661009998
 30
0.0
 11
90.18549679590001
 21
-35.80847299069998
 31
0.0
  0
LINE
  5
E1B
  8
3
 10
94.1
 20
-36.91718958719997
 30
0.0
 11
94.1
 21
-36.83915003589996
 31
0.0
  0
LINE
  5
E1C
  8
3
 10
89.1
 20
-36.83915003589996
 30
0.0
 11
89.1
 21
-36.91718958719997
 31
0.0
  0
LINE
  5
E1D
  8
3
 10
90.18549679590001
 20
-37.94786663239998
 30
0.0
 11
90.43727836619999
 21
-38.03425301299998
 31
0.0
  0
LINE
  5
E1E
  8
3
 10
92.76272163370001
 20
-38.03425301299998
 30
0.0
 11
93.014503204
 21
-37.94786663239998
 31
0.0
  0
LINE
  5
E1F
  8
3
 10
93.014503204
 20
-36.42620633129997
 30
0.0
 11
92.76272163370001
 21
-36.33981995069996
 31
0.0
  0
LINE
  5
E20
  8
3
 10
90.43727836619999
 20
-36.33981995069996
 30
0.0
 11
90.18549679590001
 21
-36.42620633129997
 31
0.0
  0
LINE
  5
E21
  8
3
 10
94.1
 20
-37.53492292779998
 30
0.0
 11
94.1
 21
-37.45688337649997
 31
0.0
  0
LINE
  5
E22
  8
3
 10
89.1
 20
-37.45688337649997
 30
0.0
 11
89.1
 21
-37.53492292779998
 31
0.0
  0
LINE
  5
E23
  8
3
 10
90.18549679590001
 20
-38.56559997299996
 30
0.0
 11
90.43727836619999
 21
-38.65198635359997
 31
0.0
  0
LINE
  5
E24
  8
3
 10
92.76272163370001
 20
-38.65198635359997
 30
0.0
 11
93.014503204
 21
-38.56559997299996
 31
0.0
  0
LINE
  5
E25
  8
3
 10
93.014503204
 20
-37.04393967189998
 30
0.0
 11
92.76272163370001
 21
-36.95755329129997
 31
0.0
  0
LINE
  5
E26
  8
3
 10
90.43727836619999
 20
-36.95755329129997
 30
0.0
 11
90.18549679590001
 21
-37.04393967189998
 31
0.0
  0
LINE
  5
E27
  8
3
 10
94.1
 20
-38.15265626839997
 30
0.0
 11
94.1
 21
-38.07461671709999
 31
0.0
  0
LINE
  5
E28
  8
3
 10
89.1
 20
-38.07461671709999
 30
0.0
 11
89.1
 21
-38.15265626839997
 31
0.0
  0
LINE
  5
E29
  8
3
 10
90.18549679590001
 20
-39.18333331359997
 30
0.0
 11
90.43727836619999
 21
-39.26971969419998
 31
0.0
  0
LINE
  5
E2A
  8
3
 10
92.76272163370001
 20
-39.26971969419998
 30
0.0
 11
93.014503204
 21
-39.18333331359997
 31
0.0
  0
LINE
  5
E2B
  8
3
 10
93.014503204
 20
-37.66167301249996
 30
0.0
 11
92.76272163370001
 21
-37.57528663189998
 31
0.0
  0
LINE
  5
E2C
  8
3
 10
90.43727836619999
 20
-37.57528663189998
 30
0.0
 11
90.18549679590001
 21
-37.66167301249996
 31
0.0
  0
LINE
  5
E2D
  8
3
 10
94.1
 20
-38.77038960899998
 30
0.0
 11
94.1
 21
-38.69235005769997
 31
0.0
  0
LINE
  5
E2E
  8
3
 10
89.1
 20
-38.69235005769997
 30
0.0
 11
89.1
 21
-38.77038960899998
 31
0.0
  0
LINE
  5
E2F
  8
3
 10
90.18549679590001
 20
-39.80106665419999
 30
0.0
 11
90.43727836619999
 21
-39.88745303479996
 31
0.0
  0
LINE
  5
E30
  8
3
 10
92.76272163370001
 20
-39.88745303479996
 30
0.0
 11
93.014503204
 21
-39.80106665419999
 31
0.0
  0
LINE
  5
E31
  8
3
 10
93.014503204
 20
-38.27940635309997
 30
0.0
 11
92.76272163370001
 21
-38.19301997249997
 31
0.0
  0
LINE
  5
E32
  8
3
 10
90.43727836619999
 20
-38.19301997249997
 30
0.0
 11
90.18549679590001
 21
-38.27940635309997
 31
0.0
  0
LINE
  5
E33
  8
3
 10
94.1
 20
-39.38812294959996
 30
0.0
 11
94.1
 21
-39.31008339829998
 31
0.0
  0
LINE
  5
E34
  8
3
 10
89.1
 20
-39.31008339829998
 30
0.0
 11
89.1
 21
-39.38812294959996
 31
0.0
  0
LINE
  5
E35
  8
3
 10
90.18549679590001
 20
-40.41879999479997
 30
0.0
 11
90.43727836619999
 21
-40.50518637539997
 31
0.0
  0
LINE
  5
E36
  8
3
 10
92.76272163370001
 20
-40.50518637539997
 30
0.0
 11
93.014503204
 21
-40.41879999479997
 31
0.0
  0
LINE
  5
E37
  8
3
 10
92.87650604059999
 20
-38.84979279909999
 30
0.0
 11
92.76272163370001
 21
-38.81075331309998
 31
0.0
  0
LINE
  5
E38
  8
3
 10
90.43727836619999
 20
-38.81075331309998
 30
0.0
 11
90.32349395930001
 21
-38.84979279909999
 31
0.0
  0
LINE
  5
13C1
  8
SK3
 10
-4.7616560588
 20
8.731250000000045
 30
0.0
 11
0.0
 21
8.731250000000045
 31
0.0
  0
LINE
  5
13C3
  8
SK3
 10
-4.7616560588
 20
-8.731249999999989
 30
0.0
 11
-0.0000000000000009
 21
-8.731249999999989
 31
0.0
  0
ARC
  5
13C6
  8
NOCUT
 10
80.72001420459998
 20
46.0
 30
0.0
 40
1.000000000000004
 50
270.0
 51
331.6406499718007
  0
ARC
  5
13C8
  8
NOCUT
 10
100.6
 20
45.04999999999998
 30
0.0
 40
1.0
 50
0.0
 51
90.0
  0
ARC
  5
13C9
  8
NOCUT
 10
82.47998579529997
 20
45.04999999999998
 30
0.0
 40
1.000000000000007
 50
90.0
 51
151.6406499717978
  0
LINE
  5
13CA
  8
NOCUT
 10
100.6
 20
46.04999999999998
 30
0.0
 11
82.47998579529997
 21
46.04999999999998
 31
0.0
  0
LINE
  5
13CB
  8
NOCUT
 10
101.6285674554
 20
41.28130999999999
 30
0.0
 11
101.6
 21
41.28130999999999
 31
0.0
  0
LINE
  5
13CC
  8
NOCUT
 10
101.6
 20
0.0
 30
0.0
 11
101.6
 21
45.04999999999998
 31
0.0
  0
LINE
  5
13CD
  8
NOCUT
 10
80.72001420459998
 20
45.0
 30
0.0
 11
20.04999999999998
 21
45.0
 31
0.0
  0
ARC
  5
13CF
  8
NOCUT
 10
20.04999999999998
 20
46.0
 30
0.0
 40
0.9999999999999998
 50
180.0000000000001
 51
270.0
  0
LINE
  5
13DA
  8
SK1
 10
138.938
 20
-23.8125
 30
0.0
 11
139.7
 21
-23.0505
 31
0.0
  0
LINE
  5
13DC
  8
SK1
 10
139.7
 20
23.0505
 30
0.0
 11
138.938
 21
23.8125
 31
0.0
  0
LINE
  5
13DD
  8
SK1
 10
138.938
 20
23.8125
 30
0.0
 11
127.762
 21
23.8125
 31
0.0
  0
LINE
  5
13DE
  8
SK1
 10
127.762
 20
-23.8125
 30
0.0
 11
138.938
 21
-23.8125
 31
0.0
  0
LINE
  5
13DF
  8
SK1
 10
127.762
 20
23.8125
 30
0.0
 11
127.0
 21
23.0505
 31
0.0
  0
LINE
  5
13E0
  8
SK1
 10
127.0
 20
-23.0505
 30
0.0
 11
127.762
 21
-23.8125
 31
0.0
  0
ARC
  5
13E1
  8
SK1
 10
126.2126
 20
10.3124
 30
0.0
 40
0.7874000000000052
 50
270.0
 51
0.0
  0
ARC
  5
13E2
  8
SK1
 10
126.2126
 20
-10.3124
 30
0.0
 40
0.7874000000000052
 50
0.0
 51
90.0
  0
LINE
  5
13E3
  8
SK1
 10
126.2126
 20
9.525000000000006
 30
0.0
 11
125.2
 21
9.525000000000006
 31
0.0
  0
LINE
  5
13E4
  8
SK1
 10
125.2
 20
-9.525000000000006
 30
0.0
 11
126.2126
 21
-9.525000000000006
 31
0.0
  0
LINE
  5
13E6
  8
SK1
 10
101.6
 20
25.39869000000002
 30
0.0
 11
101.6285674554
 21
25.39869000000002
 31
0.0
  0
LINE
  5
13E7
  8
SK1
 10
101.6285674554
 20
-25.39869000000002
 30
0.0
 11
101.6
 21
-25.39869000000002
 31
0.0
  0
ARC
  5
13FD
  8
SK1
 10
101.8
 20
-19.25
 30
0.0
 40
0.4000000000000192
 50
75.00000000000246
 51
120.0000000000022
  0
ARC
  5
13FE
  8
SK1
 10
101.8
 20
19.25
 30
0.0
 40
0.4000000000000192
 50
239.9999999999978
 51
284.9999999999976
  0
ARC
  5
13FF
  8
SK1
 10
123.2
 20
-17.04999999999998
 30
0.0
 40
2.0
 50
270.0
 51
0.0
  0
ARC
  5
1400
  8
SK1
 10
123.2
 20
17.04999999999998
 30
0.0
 40
2.0
 50
0.0
 51
90.0
  0
LINE
  5
1401
  8
SK1
 10
102.5990711605
 20
19.04999999999998
 30
0.0
 11
101.903527618
 21
18.8636296695
 31
0.0
  0
LINE
  5
1402
  8
SK1
 10
101.903527618
 20
-18.8636296695
 30
0.0
 11
102.5990711605
 21
-19.04999999999998
 31
0.0
  0
LINE
  5
1403
  8
SK1
 10
102.5990711605
 20
-19.04999999999998
 30
0.0
 11
123.2
 21
-19.04999999999998
 31
0.0
  0
LINE
  5
1404
  8
SK1
 10
123.2
 20
19.04999999999998
 30
0.0
 11
102.5990711605
 21
19.04999999999998
 31
0.0
  0
LINE
  5
1405
  8
SK1
 10
139.7
 20
0.0
 30
0.0
 11
139.7
 21
-23.0505
 31
0.0
  0
LINE
  5
1406
  8
SK1
 10
139.7
 20
23.0505
 30
0.0
 11
139.7
 21
0.0
 31
0.0
  0
LINE
  5
1407
  8
SK1
 10
138.938
 20
0.0
 30
0.0
 11
138.938
 21
-23.8125
 31
0.0
  0
LINE
  5
1408
  8
SK1
 10
138.938
 20
23.8125
 30
0.0
 11
138.938
 21
0.0
 31
0.0
  0
LINE
  5
1409
  8
SK1
 10
127.762
 20
0.0
 30
0.0
 11
127.762
 21
-23.8125
 31
0.0
  0
LINE
  5
140A
  8
SK1
 10
127.762
 20
23.8125
 30
0.0
 11
127.762
 21
0.0
 31
0.0
  0
LINE
  5
140B
  8
SK1
 10
127.0
 20
0.0
 30
0.0
 11
127.0
 21
-23.0505
 31
0.0
  0
LINE
  5
140C
  8
SK1
 10
127.0
 20
23.0505
 30
0.0
 11
127.0
 21
0.0
 31
0.0
  0
LINE
  5
140D
  8
SK1
 10
109.6772
 20
41.2775
 30
0.0
 11
101.6
 21
41.2775
 31
0.0
  0
LINE
  5
140E
  8
SK1
 10
109.6772
 20
41.2775
 30
0.0
 11
109.6772
 21
25.4025
 31
0.0
  0
LINE
  5
140F
  8
SK1
 10
109.6772
 20
25.4025
 30
0.0
 11
101.6
 21
25.4025
 31
0.0
  0
LINE
  5
1410
  8
SK1
 10
109.6772
 20
-25.4025
 30
0.0
 11
101.6
 21
-25.4025
 31
0.0
  0
LINE
  5
1411
  8
SK1
 10
109.6772
 20
-25.4025
 30
0.0
 11
109.6772
 21
-41.2775
 31
0.0
  0
LINE
  5
1412
  8
SK1
 10
109.6772
 20
-41.2775
 30
0.0
 11
101.6
 21
-41.2775
 31
0.0
  0
LINE
  5
1442
  8
SK1
 10
125.2
 20
0.0
 30
0.0
 11
125.2
 21
17.04999999999998
 31
0.0
  0
LINE
  5
1443
  8
SK1
 10
125.2
 20
-17.04999999999998
 30
0.0
 11
125.2
 21
0.0
 31
0.0
  0
LINE
  5
1444
  8
SK1
 10
102.5990711605
 20
0.0
 30
0.0
 11
102.5990711605
 21
19.04999999999998
 31
0.0
  0
LINE
  5
1445
  8
SK1
 10
102.5990711605
 20
-19.04999999999998
 30
0.0
 11
102.5990711605
 21
0.0
 31
0.0
  0
LINE
  5
1459
  8
SK3
 10
130.175
 20
0.0
 30
0.0
 11
130.175
 21
-2.400299999999987
 31
0.0
  0
LINE
  5
145A
  8
SK3
 10
130.175
 20
2.400299999999987
 30
0.0
 11
130.175
 21
0.0
 31
0.0
  0
LINE
  5
145B
  8
SK3
 10
130.175
 20
0.0
 30
0.0
 11
139.7
 21
0.0
 31
0.0
  0
LINE
  5
145C
  8
SK3
 10
129.54
 20
0.0
 30
0.0
 11
129.54
 21
-4.800600000000003
 31
0.0
  0
LINE
  5
145D
  8
SK3
 10
129.54
 20
4.800600000000003
 30
0.0
 11
129.54
 21
0.0
 31
0.0
  0
LINE
  5
145E
  8
SK3
 10
130.175
 20
4.800600000000003
 30
0.0
 11
130.175
 21
2.400299999999987
 31
0.0
  0
LINE
  5
145F
  8
SK3
 10
130.175
 20
-2.400299999999987
 30
0.0
 11
130.175
 21
-4.800600000000003
 31
0.0
  0
LINE
  5
1460
  8
SK3
 10
130.175
 20
4.800600000000003
 30
0.0
 11
139.7
 21
4.800600000000003
 31
0.0
  0
LINE
  5
1461
  8
SK3
 10
130.175
 20
-4.800600000000003
 30
0.0
 11
139.7
 21
-4.800600000000003
 31
0.0
  0
LINE
  5
14AF
  8
SK3
 10
124.3339746741
 20
-10.0
 30
0.0
 11
124.3339746741
 21
10.0
 31
0.0
  0
LINE
  5
14B0
  8
SK3
 10
122.2
 20
10.0
 30
0.0
 11
122.2
 21
-10.0
 31
0.0
  0
LINE
  5
14B1
  8
SK3
 10
122.136435212
 20
8.731250000000017
 30
0.0
 11
122.136435212
 21
-8.731250000000017
 31
0.0
  0
LINE
  5
1527
  8
SK3
 10
125.2
 20
9.525000000000006
 30
0.0
 11
101.6
 21
9.525000000000006
 31
0.0
  0
LINE
  5
1528
  8
SK3
 10
101.6
 20
-9.525000000000006
 30
0.0
 11
125.2
 21
-9.525000000000006
 31
0.0
  0
LINE
  5
152B
  8
SK3
 10
130.175
 20
4.800600000000003
 30
0.0
 11
129.54
 21
4.800600000000003
 31
0.0
  0
LINE
  5
152C
  8
SK3
 10
129.54
 20
-4.800600000000003
 30
0.0
 11
130.175
 21
-4.800600000000003
 31
0.0
  0
LINE
  5
152D
  8
SK3
 10
129.54
 20
4.800600000000003
 30
0.0
 11
126.6555085123
 21
0.0
 31
0.0
  0
LINE
  5
152E
  8
SK3
 10
126.6555085123
 20
0.0
 30
0.0
 11
129.54
 21
-4.800600000000003
 31
0.0
  0
LINE
  5
1548
  8
SK3
 10
125.2
 20
2.5
 30
0.0
 11
101.6
 21
2.5
 31
0.0
  0
LINE
  5
1549
  8
SK3
 10
101.6
 20
-2.5
 30
0.0
 11
125.2
 21
-2.5
 31
0.0
  0
LINE
  5
155C
  8
SK3
 10
125.2
 20
10.49999995499999
 30
0.0
 11
124.3339746741
 21
10.0
 31
0.0
  0
LINE
  5
155D
  8
SK3
 10
124.3339746741
 20
-10.0
 30
0.0
 11
125.2
 21
-10.49999995499999
 31
0.0
  0
LINE
  5
155E
  8
SK3
 10
124.3339746741
 20
10.0
 30
0.0
 11
122.2
 21
10.0
 31
0.0
  0
LINE
  5
155F
  8
SK3
 10
122.2
 20
-10.0
 30
0.0
 11
124.3339746741
 21
-10.0
 31
0.0
  0
LINE
  5
1560
  8
SK3
 10
122.2
 20
8.767949147400003
 30
0.0
 11
122.136435212
 21
8.731250000000017
 31
0.0
  0
LINE
  5
1561
  8
SK3
 10
122.136435212
 20
-8.731250000000017
 30
0.0
 11
122.2
 21
-8.767949147400003
 31
0.0
  0
LINE
  5
1562
  8
SK3
 10
122.136435212
 20
8.731250000000017
 30
0.0
 11
101.6
 21
8.731250000000017
 31
0.0
  0
LINE
  5
1563
  8
SK3
 10
101.6
 20
-8.731250000000017
 30
0.0
 11
122.136435212
 21
-8.731250000000017
 31
0.0
  0
LINE
  5
157A
  8
SK3
 10
125.2
 20
-9.62435565299998
 30
0.0
 11
101.6
 21
-9.62435565299998
 31
0.0
  0
LINE
  5
157B
  8
SK3
 10
101.6
 20
-14.62435565299998
 30
0.0
 11
125.2
 21
-14.62435565299998
 31
0.0
  0
LINE
  5
157C
  8
SK3
 10
125.2
 20
14.62435565299998
 30
0.0
 11
101.6
 21
14.62435565299998
 31
0.0
  0
LINE
  5
157D
  8
SK3
 10
101.6
 20
9.62435565299998
 30
0.0
 11
125.2
 21
9.62435565299998
 31
0.0
  0
LINE
  5
15ED
  8
SK4
 10
101.6
 20
0.0000000000000284
 30
0.0
 11
139.7
 21
0.0
 31
0.0
  0
DIMENSION
  5
15EF
  8
SK2
  2
*D10
 10
177.8851023722079
 20
-46.04999999999999
 30
0.0
 11
176.0101023722079
 21
0.0000000000000071
 31
0.0
 70
    32
  3
ISO-25
 13
100.6
 23
46.05000000000001
 33
0.0
 14
100.6
 24
-46.04999999999998
 34
0.0
 50
90.0
1001
ACAD
1000
DSTYLE
1002
{
1070
   287
1070
     5
1070
   271
1070
     3
1070
   272
1070
     3
1070
   279
1070
     2
1002
}
  0
DIMENSION
  5
15FE
  8
SK2
  2
*D11
 10
159.5699158278653
 20
-19.04999999999999
 30
0.0
 11
157.6949158278653
 21
-0.0000000000000036
 31
0.0
 70
    32
  3
ISO-25
 13
123.2
 23
19.04999999999998
 33
0.0
 14
123.2
 24
-19.04999999999998
 34
0.0
 50
90.0
1001
ACAD
1000
DSTYLE
1002
{
1070
   287
1070
     5
1070
   271
1070
     3
1070
   272
1070
     3
1070
   279
1070
     2
1002
}
  0
LINE
  5
1B49
  8
1
 10
80.7200142046
 20
45.00000000000002
 30
0.0
 11
80.7200142046
 21
-44.99999999999997
 31
0.0
  0
ENDSEC
  0
EOF
