  0
SECTION
  2
HEADER
  9
$ACADVER
  1
AC1009
  9
$DWGCODEPAGE
  3
ansi_1251
  9
$INSBASE
 10
0.0
 20
0.0
 30
0.0
  9
$EXTMIN
 10
-68.25000000000001
 20
-30.5409271246
 30
0.0
  9
$EXTMAX
 10
88.90000000000003
 20
30.50275418977125
 30
0.0
  9
$LIMMIN
 10
0.0
 20
0.0
  9
$LIMMAX
 10
420.0
 20
297.0
  9
$ORTHOMODE
 70
     1
  9
$REGENMODE
 70
     1
  9
$FILLMODE
 70
     1
  9
$QTEXTMODE
 70
     0
  9
$MIRRTEXT
 70
     0
  9
$DRAGMODE
 70
     2
  9
$LTSCALE
 40
1.0
  9
$OSMODE
 70
   279
  9
$ATTMODE
 70
     1
  9
$TEXTSIZE
 40
2.5
  9
$TRACEWID
 40
1.0
  9
$TEXTSTYLE
  7
STANDARD
  9
$CLAYER
  8
0
  9
$CELTYPE
  6
BYLAYER
  9
$CECOLOR
 62
   256
  9
$DIMSCALE
 40
1.0
  9
$DIMASZ
 40
2.5
  9
$DIMEXO
 40
0.625
  9
$DIMDLI
 40
3.75
  9
$DIMRND
 40
0.0
  9
$DIMDLE
 40
0.0
  9
$DIMEXE
 40
1.25
  9
$DIMTP
 40
0.0
  9
$DIMTM
 40
0.0
  9
$DIMTXT
 40
2.5
  9
$DIMCEN
 40
2.5
  9
$DIMTSZ
 40
0.0
  9
$DIMTOL
 70
     0
  9
$DIMLIM
 70
     0
  9
$DIMTIH
 70
     0
  9
$DIMTOH
 70
     0
  9
$DIMSE1
 70
     0
  9
$DIMSE2
 70
     0
  9
$DIMTAD
 70
     1
  9
$DIMZIN
 70
     8
  9
$DIMBLK
  1

  9
$DIMASO
 70
     1
  9
$DIMSHO
 70
     1
  9
$DIMPOST
  1

  9
$DIMAPOST
  1

  9
$DIMALT
 70
     0
  9
$DIMALTD
 70
     3
  9
$DIMALTF
 40
0.03937007874016
  9
$DIMLFAC
 40
1.0
  9
$DIMTOFL
 70
     1
  9
$DIMTVP
 40
0.0
  9
$DIMTIX
 70
     0
  9
$DIMSOXD
 70
     0
  9
$DIMSAH
 70
     0
  9
$DIMBLK1
  1

  9
$DIMBLK2
  1

  9
$DIMSTYLE
  2
ISO-25
  9
$DIMCLRD
 70
     0
  9
$DIMCLRE
 70
     0
  9
$DIMCLRT
 70
     0
  9
$DIMTFAC
 40
1.0
  9
$DIMGAP
 40
0.625
  9
$LUNITS
 70
     2
  9
$LUPREC
 70
     3
  9
$SKETCHINC
 40
1.0
  9
$FILLETRAD
 40
1.0
  9
$AUNITS
 70
     0
  9
$AUPREC
 70
     0
  9
$MENU
  1
.
  9
$ELEVATION
 40
0.0
  9
$PELEVATION
 40
0.0
  9
$THICKNESS
 40
0.0
  9
$LIMCHECK
 70
     0
  9
$CHAMFERA
 40
10.0
  9
$CHAMFERB
 40
10.0
  9
$SKPOLY
 70
     0
  9
$TDCREATE
 40
2455022.429026158
  9
$TDUPDATE
 40
2458659.538982558
  9
$TDINDWG
 40
0.1506771181
  9
$TDUSRTIMER
 40
2458702.628131609
  9
$USRTIMER
 70
     1
  9
$ANGBASE
 50
0.0
  9
$ANGDIR
 70
     0
  9
$PDMODE
 70
     0
  9
$PDSIZE
 40
0.0
  9
$PLINEWID
 40
0.0
  9
$COORDS
 70
     1
  9
$SPLFRAME
 70
     0
  9
$SPLINETYPE
 70
     6
  9
$SPLINESEGS
 70
     8
  9
$ATTDIA
 70
     0
  9
$ATTREQ
 70
     1
  9
$HANDLING
 70
     1
  9
$HANDSEED
  5
1F86
  9
$SURFTAB1
 70
     6
  9
$SURFTAB2
 70
     6
  9
$SURFTYPE
 70
     6
  9
$SURFU
 70
     6
  9
$SURFV
 70
     6
  9
$UCSNAME
  2

  9
$UCSORG
 10
0.0
 20
0.0
 30
0.0
  9
$UCSXDIR
 10
1.0
 20
0.0
 30
0.0
  9
$UCSYDIR
 10
0.0
 20
1.0
 30
0.0
  9
$PUCSNAME
  2

  9
$PUCSORG
 10
0.0
 20
0.0
 30
0.0
  9
$PUCSXDIR
 10
1.0
 20
0.0
 30
0.0
  9
$PUCSYDIR
 10
0.0
 20
1.0
 30
0.0
  9
$USERI1
 70
     0
  9
$USERI2
 70
     0
  9
$USERI3
 70
     0
  9
$USERI4
 70
     0
  9
$USERI5
 70
     0
  9
$USERR1
 40
0.0
  9
$USERR2
 40
0.0
  9
$USERR3
 40
0.0
  9
$USERR4
 40
0.0
  9
$USERR5
 40
0.0
  9
$WORLDVIEW
 70
     1
  9
$SHADEDGE
 70
     3
  9
$SHADEDIF
 70
    70
  9
$TILEMODE
 70
     1
  9
$MAXACTVP
 70
    64
  9
$PLIMCHECK
 70
     0
  9
$PEXTMIN
 10
1.000000000000000E+20
 20
1.000000000000000E+20
 30
1.000000000000000E+20
  9
$PEXTMAX
 10
-1.000000000000000E+20
 20
-1.000000000000000E+20
 30
-1.000000000000000E+20
  9
$PLIMMIN
 10
0.0
 20
0.0
  9
$PLIMMAX
 10
420.0
 20
297.0
  9
$UNITMODE
 70
     0
  9
$VISRETAIN
 70
     1
  9
$PLINEGEN
 70
     0
  9
$PSLTSCALE
 70
     1
  0
ENDSEC
  0
SECTION
  2
TABLES
  0
TABLE
  2
VPORT
 70
     1
  0
VPORT
  2
*ACTIVE
 70
     0
 10
0.0
 20
0.0
 11
1.0
 21
1.0
 12
36.27398134556574
 22
7.859935268255796
 13
0.0
 23
0.0
 14
10.0
 24
10.0
 15
10.0
 25
10.0
 16
0.0
 26
0.0
 36
1.0
 17
0.0
 27
0.0
 37
0.0
 40
211.0188690636965
 41
1.332880434782609
 42
50.0
 43
0.0
 44
0.0
 50
0.0
 51
0.0
 71
    16
 72
  1000
 73
     1
 74
     3
 75
     0
 76
     0
 77
     0
 78
     0
  0
ENDTAB
  0
TABLE
  2
LTYPE
 70
     6
  0
LTYPE
  2
CONTINUOUS
 70
     0
  3
Solid line
 72
    65
 73
     0
 40
0.0
  0
LTYPE
  2
CENTER
 70
     0
  3
 Center _____  _  _____  _  _____  _  _____  _ 
 72
    65
 73
     4
 40
50.8
 49
31.75
 49
-6.35
 49
6.35
 49
-6.35
  0
LTYPE
  2
DASHED
 70
     0
  3
Dashed __  __  __  __  __  __  __  __  __  __  
 72
    65
 73
     2
 40
19.05
 49
12.7
 49
-6.35
  0
LTYPE
  2
HIDDEN
 70
     0
  3
Hidden __ __ __ __ __ __ __ __ __ __ __ __ __ __
 72
    65
 73
     2
 40
1.905
 49
1.27
 49
-0.635
  0
LTYPE
  2
CENTERX2
 70
     0
  3
Center (2x) ________  __  ________  __  _____
 72
    65
 73
     4
 40
20.32
 49
12.7
 49
-2.54
 49
2.54
 49
-2.54
  0
LTYPE
  2
PHANTOM
 70
     0
  3
Phantom ______  __  __  ______  __  __  ______
 72
    65
 73
     6
 40
12.7
 49
6.35
 49
-1.27
 49
1.27
 49
-1.27
 49
1.27
 49
-1.27
  0
ENDTAB
  0
TABLE
  2
LAYER
 70
    26
  0
LAYER
  2
0
 70
     0
 62
     7
  6
CONTINUOUS
  0
LAYER
  2
1
 70
     0
 62
     4
  6
CONTINUOUS
  0
LAYER
  2
2
 70
     0
 62
     7
  6
CONTINUOUS
  0
LAYER
  2
3
 70
     0
 62
     1
  6
DASHED
  0
LAYER
  2
4
 70
     0
 62
     2
  6
CENTER
  0
LAYER
  2
6
 70
     0
 62
     5
  6
CONTINUOUS
  0
LAYER
  2
7
 70
     0
 62
     5
  6
CONTINUOUS
  0
LAYER
  2
11
 70
     0
 62
     4
  6
CONTINUOUS
  0
LAYER
  2
SK1
 70
     0
 62
     4
  6
CONTINUOUS
  0
LAYER
  2
SK2
 70
     0
 62
     7
  6
CONTINUOUS
  0
LAYER
  2
SK3
 70
     0
 62
     1
  6
DASHED
  0
LAYER
  2
SK4
 70
     0
 62
     2
  6
CENTER
  0
LAYER
  2
SK6
 70
     0
 62
     5
  6
CONTINUOUS
  0
LAYER
  2
SK7
 70
     0
 62
     5
  6
CONTINUOUS
  0
LAYER
  2
SK11
 70
     0
 62
     4
  6
CONTINUOUS
  0
LAYER
  2
CUT
 70
     0
 62
     1
  6
CONTINUOUS
  0
LAYER
  2
NOCUT
 70
     0
 62
    -7
  6
CONTINUOUS
  0
LAYER
  2
SKVIEW1
 70
     0
 62
     4
  6
CONTINUOUS
  0
LAYER
  2
SKVIEW2
 70
     0
 62
     7
  6
CONTINUOUS
  0
LAYER
  2
SKVIEW3
 70
     0
 62
     1
  6
DASHED
  0
LAYER
  2
SKVIEW4
 70
     0
 62
     2
  6
CENTER
  0
LAYER
  2
SKVIEW6
 70
     0
 62
     5
  6
CONTINUOUS
  0
LAYER
  2
SKVIEW7
 70
     0
 62
     5
  6
CONTINUOUS
  0
LAYER
  2
SKVIEW11
 70
     0
 62
     4
  6
CONTINUOUS
  0
LAYER
  2
INFTOTAL
 70
     0
 62
     9
  6
CONTINUOUS
  0
LAYER
  2
DEFPOINTS
 70
     0
 62
     7
  6
CONTINUOUS
  0
ENDTAB
  0
TABLE
  2
STYLE
 70
     1
  0
STYLE
  2
STANDARD
 70
     0
 40
0.0
 41
1.0
 50
0.0
 71
     0
 42
2.5
  3
txt
  4

  0
ENDTAB
  0
TABLE
  2
VIEW
 70
     0
  0
ENDTAB
  0
TABLE
  2
UCS
 70
     0
  0
ENDTAB
  0
TABLE
  2
APPID
 70
     2
  0
APPID
  2
ACAD
 70
     0
  0
APPID
  2
ACAECLAYERSTANDARD
 70
     0
  0
ENDTAB
  0
TABLE
  2
DIMSTYLE
 70
     1
  0
DIMSTYLE
  2
ISO-25
 70
     0
  3

  4

  5

  6

  7

 40
1.0
 41
2.5
 42
0.625
 43
3.75
 44
1.25
 45
0.0
 46
0.0
 47
0.0
 48
0.0
140
2.5
141
2.5
142
0.0
143
0.03937007874016
144
1.0
145
0.0
146
1.0
147
0.625
 71
     0
 72
     0
 73
     0
 74
     0
 75
     0
 76
     0
 77
     1
 78
     8
170
     0
171
     3
172
     1
173
     0
174
     0
175
     0
176
     0
177
     0
178
     0
  0
ENDTAB
  0
ENDSEC
  0
SECTION
  2
BLOCKS
  0
BLOCK
  8
0
  2
$MODEL_SPACE
 70
     0
 10
0.0
 20
0.0
 30
0.0
  3
$MODEL_SPACE
  1

  0
ENDBLK
  5
21
  8
0
  0
BLOCK
 67
     1
  8
0
  2
$PAPER_SPACE
 70
     0
 10
0.0
 20
0.0
 30
0.0
  3
$PAPER_SPACE
  1

  0
ENDBLK
  5
1D
 67
     1
  8
0
  0
BLOCK
  8
0
  2
*U2
 70
     1
 10
0.0
 20
0.0
 30
0.0
  3
*U2
  1

  0
TEXT
  5
77E
  8
SK6
 10
-50.0
 20
78.25
 30
0.0
 40
3.5
  1
BIG DAISHOWA
 41
0.85
  0
TEXT
  5
781
  8
SK6
 10
-50.0
 20
73.0
 30
0.0
 40
3.5
  1
BCV50H-FMH60-90
 41
0.85
  0
ENDBLK
  5
782
  8
0
  0
BLOCK
  8
0
  2
_FILLED
 70
     0
 10
0.0
 20
0.0
 30
0.0
  3
_FILLED
  1

  0
SOLID
  5
789
  8
0
  6
BYBLOCK
 62
     0
 10
0.0
 20
0.0
 30
0.0
 11
-1.0
 21
0.2142857143
 31
0.0
 12
-1.0
 22
-0.2142857143
 32
0.0
 13
-1.0
 23
-0.2142857143
 33
0.0
  0
ENDBLK
  5
78A
  8
0
  6
BYBLOCK
 62
     0
  0
BLOCK
  8
0
  2
*U5
 70
     1
 10
0.0
 20
0.0
 30
0.0
  3
*U5
  1

  0
TEXT
  5
790
  8
SK6
 10
-85.96178542556666
 20
-67.06748653279999
 30
0.0
 40
3.5
  1
BCV50
 41
0.85
  0
ENDBLK
  5
791
  8
0
  0
BLOCK
  8
0
  2
*D8
 70
     1
 10
0.0
 20
0.0
 30
0.0
  3
*D8
  1

  0
LINE
  5
808
  8
SK2
 62
     0
 10
0.0
 20
35.54999999999998
 30
0.0
 11
0.0
 21
83.84487053651159
 31
0.0
  0
LINE
  5
809
  8
SK2
 62
     0
 10
90.0
 20
69.625
 30
0.0
 11
90.0
 21
83.84487053651159
 31
0.0
  0
LINE
  5
80A
  8
SK2
 62
     0
 10
2.5
 20
82.59487053651159
 30
0.0
 11
87.5
 21
82.59487053651159
 31
0.0
  0
SOLID
  5
80B
  8
SK2
 62
     0
 10
2.5
 20
83.01153720317826
 30
0.0
 11
2.5
 21
82.17820386984492
 31
0.0
 12
0.0
 22
82.59487053651159
 32
0.0
 13
0.0
 23
82.59487053651159
 33
0.0
  0
SOLID
  5
80C
  8
SK2
 62
     0
 10
87.5
 20
82.17820386984492
 30
0.0
 11
87.5
 21
83.01153720317826
 31
0.0
 12
90.0
 22
82.59487053651159
 32
0.0
 13
90.0
 23
82.59487053651159
 33
0.0
  0
TEXT
  5
80D
  8
SK2
  6
CONTINUOUS
 62
     0
 10
43.125
 20
83.21987053651159
 30
0.0
 40
2.5
  1
90
  0
POINT
  5
80E
  8
DEFPOINTS
 62
     0
 10
0.0
 20
34.92499999999998
 30
0.0
  0
POINT
  5
80F
  8
DEFPOINTS
 62
     0
 10
90.0
 20
69.0
 30
0.0
  0
POINT
  5
810
  8
DEFPOINTS
 62
     0
 10
90.0
 20
82.59487053651159
 30
0.0
  0
ENDBLK
  5
812
  8
0
  0
BLOCK
  8
0
  2
*D10
 70
     1
 10
0.0
 20
0.0
 30
0.0
  3
*D10
  1

  0
LINE
  5
1A86
  8
SK2
 62
     0
 10
89.625
 20
70.0
 30
0.0
 11
174.1479626911315
 21
70.0
 31
0.0
  0
LINE
  5
1A87
  8
SK2
 62
     0
 10
89.625
 20
-70.0
 30
0.0
 11
174.1479626911315
 21
-70.0
 31
0.0
  0
LINE
  5
1A88
  8
SK2
 62
     0
 10
172.8979626911315
 20
67.5
 30
0.0
 11
172.8979626911315
 21
-67.5
 31
0.0
  0
SOLID
  5
1A89
  8
SK2
 62
     0
 10
173.3146293577981
 20
67.5
 30
0.0
 11
172.4812960244648
 21
67.5
 31
0.0
 12
172.8979626911315
 22
70.0
 32
0.0
 13
172.8979626911315
 23
70.0
 33
0.0
  0
SOLID
  5
1A8A
  8
SK2
 62
     0
 10
172.4812960244648
 20
-67.5
 30
0.0
 11
173.3146293577981
 21
-67.5
 31
0.0
 12
172.8979626911315
 22
-70.0
 32
0.0
 13
172.8979626911315
 23
-70.0
 33
0.0
  0
TEXT
  5
1A8B
  8
SK2
  6
CONTINUOUS
 62
     0
 10
172.2729626911315
 20
-2.708333333333343
 30
0.0
 40
2.5
  1
140
 50
90.0
  0
POINT
  5
1A8C
  8
DEFPOINTS
 62
     0
 10
89.0
 20
70.0
 30
0.0
  0
POINT
  5
1A8D
  8
DEFPOINTS
 62
     0
 10
89.0
 20
-70.0
 30
0.0
  0
POINT
  5
1A8E
  8
DEFPOINTS
 62
     0
 10
172.8979626911315
 20
-70.0
 30
0.0
  0
ENDBLK
  5
1A90
  8
0
  0
BLOCK
  8
0
  2
*D11
 70
     1
 10
0.0
 20
0.0
 30
0.0
  3
*D11
  1

  0
LINE
  5
1A95
  8
SK2
 62
     0
 10
128.63
 20
30.0
 30
0.0
 11
154.5819439602446
 21
30.0
 31
0.0
  0
LINE
  5
1A96
  8
SK2
 62
     0
 10
128.63
 20
-30.0
 30
0.0
 11
154.5819439602446
 21
-30.0
 31
0.0
  0
LINE
  5
1A97
  8
SK2
 62
     0
 10
153.3319439602446
 20
27.5
 30
0.0
 11
153.3319439602446
 21
-27.5
 31
0.0
  0
SOLID
  5
1A98
  8
SK2
 62
     0
 10
153.7486106269113
 20
27.5
 30
0.0
 11
152.915277293578
 21
27.5
 31
0.0
 12
153.3319439602446
 22
30.0
 32
0.0
 13
153.3319439602446
 23
30.0
 33
0.0
  0
SOLID
  5
1A99
  8
SK2
 62
     0
 10
152.915277293578
 20
-27.5
 30
0.0
 11
153.7486106269113
 21
-27.5
 31
0.0
 12
153.3319439602446
 22
-30.0
 32
0.0
 13
153.3319439602446
 23
-30.0
 33
0.0
  0
TEXT
  5
1A9A
  8
SK2
  6
CONTINUOUS
 62
     0
 10
152.7069439602446
 20
-1.875
 30
0.0
 40
2.5
  1
60
 50
90.0
  0
POINT
  5
1A9B
  8
DEFPOINTS
 62
     0
 10
128.005
 20
30.0
 30
0.0
  0
POINT
  5
1A9C
  8
DEFPOINTS
 62
     0
 10
128.005
 20
-30.0
 30
0.0
  0
POINT
  5
1A9D
  8
DEFPOINTS
 62
     0
 10
153.3319439602446
 20
-30.0
 30
0.0
  0
ENDBLK
  5
1A9F
  8
0
  0
ENDSEC
  0
SECTION
  2
ENTITIES
  0
LINE
  5
685
  8
SK1
 10
0.0
 20
34.92499999999998
 30
0.0
 11
-99.6319088344
 21
20.3952133832
 31
0.0
  0
LINE
  5
686
  8
SK1
 10
-99.6319088344
 20
-20.3952133832
 30
0.0
 11
0.0
 21
-34.92500000000001
 31
0.0
  0
ARC
  5
68D
  8
SK1
 10
-99.3
 20
18.1192879614
 30
0.0
 40
2.299999999999995
 50
98.29722000000018
 51
180.0
  0
ARC
  5
68E
  8
SK1
 10
-99.3
 20
-18.1192879614
 30
0.0
 40
2.299999999999995
 50
180.0
 51
261.7027799999998
  0
LINE
  5
6F6
  8
SK1
 10
-101.6
 20
0.0
 30
0.0
 11
-101.6
 21
-18.1192879614
 31
0.0
  0
LINE
  5
6F7
  8
SK1
 10
-101.6
 20
18.1192879614
 30
0.0
 11
-101.6
 21
0.0
 31
0.0
  0
LINE
  5
71A
  8
SK3
 10
-99.5215390309
 20
-13.10000000000002
 30
0.0
 11
-99.5215390309
 21
13.09999999999999
 31
0.0
  0
LINE
  5
71B
  8
SK3
 10
-95.25
 20
-13.10000000000002
 30
0.0
 11
-95.25
 21
13.09999999999999
 31
0.0
  0
LINE
  5
72A
  8
SK3
 10
-101.6
 20
-14.30000000000001
 30
0.0
 11
-99.5215390309
 21
-13.10000000000002
 31
0.0
  0
LINE
  5
72B
  8
SK3
 10
-99.5215390309
 20
13.09999999999999
 30
0.0
 11
-101.6
 21
14.3
 31
0.0
  0
LINE
  5
72C
  8
SK3
 10
-99.5215390309
 20
-13.10000000000002
 30
0.0
 11
-95.25
 21
-13.10000000000002
 31
0.0
  0
LINE
  5
72D
  8
SK3
 10
-95.25
 20
13.09999999999999
 30
0.0
 11
-99.5215390309
 21
13.09999999999999
 31
0.0
  0
LINE
  5
72E
  8
SK3
 10
-95.25
 20
-11.09980000000002
 30
0.0
 11
-40.1
 21
-11.09980000000002
 31
0.0
  0
LINE
  5
72F
  8
SK3
 10
-40.10000000000002
 20
11.09979999999999
 30
0.0
 11
-95.25
 21
11.09979999999999
 31
0.0
  0
LINE
  5
760
  8
SK3
 10
-57.1
 20
12.69999999999999
 30
0.0
 11
-95.25
 21
12.69999999999999
 31
0.0
  0
LINE
  5
761
  8
SK3
 10
-95.25
 20
-12.69999999999999
 30
0.0
 11
-57.1
 21
-12.69999999999999
 31
0.0
  0
LINE
  5
774
  8
SK3
 10
-57.1
 20
12.69999999999999
 30
0.0
 11
-57.1
 21
-12.69999999999999
 31
0.0
  0
LINE
  5
777
  8
SK4
 10
0.0
 20
0.0
 30
0.0
 11
-101.6
 21
0.0
 31
0.0
  0
LINE
  5
779
  8
4
 10
0.0
 20
0.0
 30
0.0
 11
89.99999999999996
 21
0.0
 31
0.0
  0
INSERT
  5
77B
  8
SK6
  2
*U2
 10
-44.10380399683656
 20
-23.39313954296377
 30
0.0
  0
INSERT
  5
78D
  8
SK6
  2
*U5
 10
17.55665382414153
 20
-2.560320993650734
 30
0.0
  0
LINE
  5
793
  8
0
 10
3.0
 20
3.0
 30
0.0
 11
-3.0
 21
-3.0
 31
0.0
  0
LINE
  5
794
  8
0
 10
-3.0
 20
3.0
 30
0.0
 11
3.0
 21
-3.0
 31
0.0
  0
CIRCLE
  5
795
  8
0
 10
0.0
 20
0.0
 30
0.0
 40
2.5
  0
LINE
  5
796
  8
0
 10
93.0
 20
-3.0
 30
0.0
 11
87.0
 21
3.0
 31
0.0
  0
CIRCLE
  5
797
  8
0
 10
90.0
 20
0.0
 30
0.0
 40
2.5
  0
LINE
  5
798
  8
0
 10
87.0
 20
-3.0
 30
0.0
 11
93.0
 21
3.0
 31
0.0
  0
LINE
  5
799
  8
NOCUT
 10
0.7999999999999972
 20
34.62500000000001
 30
0.0
 11
0.2999999999999972
 21
34.62500000000001
 31
0.0
  0
LINE
  5
79C
  8
NOCUT
 10
0.2999999999999972
 20
34.62500000000001
 30
0.0
 11
0.0
 21
34.92499999999999
 31
0.0
  0
ARC
  5
79E
  8
NOCUT
 10
0.7999999999999972
 20
35.62500000000001
 30
0.0
 40
1.0
 50
270.0
 51
314.4270040008
  0
LINE
  5
7A0
  8
NOCUT
 10
12.55499999999999
 20
45.64499999999999
 30
0.0
 11
9.704999999999998
 21
45.64499999999999
 31
0.0
  0
ARC
  5
7A1
  8
NOCUT
 10
12.55499999999999
 20
46.14499999999999
 30
0.0
 40
0.5
 50
270.0
 51
0.0
  0
ARC
  5
7A2
  8
NOCUT
 10
9.704999999999998
 20
46.14499999999999
 30
0.0
 40
0.5
 50
180.0
 51
270.0
  0
ARC
  5
7A3
  8
NOCUT
 10
2.299999999999997
 20
48.4125
 30
0.0
 40
0.7999999999999972
 50
90.0
 51
180.0
  0
ARC
  5
7A4
  8
NOCUT
 10
18.24999999999999
 20
48.4125
 30
0.0
 40
0.799999999999983
 50
0.0
 51
90.0
  0
LINE
  5
7A5
  8
NOCUT
 10
9.204999999999998
 20
46.43919780459999
 30
0.0
 11
7.603833230999996
 21
49.21250000000001
 31
0.0
  0
LINE
  5
7A6
  8
NOCUT
 10
14.65616676910001
 20
49.21250000000001
 30
0.0
 11
13.05499999999999
 21
46.43919780459999
 31
0.0
  0
LINE
  5
7A7
  8
NOCUT
 10
18.24999999999999
 20
49.21250000000001
 30
0.0
 11
14.65616676910001
 21
49.21250000000001
 31
0.0
  0
LINE
  5
7A8
  8
NOCUT
 10
7.603833230999996
 20
49.21250000000001
 30
0.0
 11
2.299999999999997
 21
49.21250000000001
 31
0.0
  0
LINE
  5
7AC
  8
NOCUT
 10
1.5
 20
48.4125
 30
0.0
 11
1.499999999999929
 21
34.91085715714565
 31
0.0
  0
LINE
  5
7AD
  8
NOCUT
 10
19.04999999999997
 20
48.4125
 30
0.0
 11
19.04999999999997
 21
46.0
 31
0.0
  0
LINE
  5
7AE
  8
NOCUT
 10
9.204999999999998
 20
46.43919780459999
 30
0.0
 11
9.204999999999998
 21
46.14499999999999
 31
0.0
  0
LINE
  5
7AF
  8
NOCUT
 10
13.05499999999999
 20
46.43919780459999
 30
0.0
 11
13.05499999999999
 21
46.14499999999999
 31
0.0
  0
DIMENSION
  5
804
  8
SK2
  2
*D8
 10
90.0
 20
82.59487053651159
 30
0.0
 11
45.0
 21
84.46987053651159
 31
0.0
 70
    32
  3
ISO-25
 13
0.0
 23
34.92499999999998
 33
0.0
 14
90.0
 24
69.0
 34
0.0
1001
ACAD
1000
DSTYLE
1002
{
1070
   287
1070
     5
1070
   271
1070
     3
1070
   272
1070
     3
1070
   279
1070
     2
1002
}
  0
LINE
  5
8BF
  8
NOCUT
 10
0.0
 20
34.92499999999999
 30
0.0
 11
0.0
 21
0.0
 31
0.0
  0
LINE
  5
8C0
  8
NOCUT
 10
0.0
 20
0.0
 30
0.0
 11
89.99999999999996
 21
0.0
 31
0.0
  0
INSERT
  5
A17
  8
SK6
  2
_FILLED
 10
-20.78186483605847
 20
-31.89428358495073
 30
0.0
 41
3.5
 42
3.5
 43
3.5
 50
52.86965044919886
  0
POLYLINE
  5
A18
  8
SK6
 66
     1
 10
0.0
 20
0.0
 30
0.0
  0
VERTEX
  5
1AA1
  8
SK6
 10
-22.89457117648658
 20
-34.68470862768434
 30
0.0
  0
VERTEX
  5
1AA2
  8
SK6
 10
-48.02596493475846
 20
-67.87780752645074
 30
0.0
  0
VERTEX
  5
1AA3
  8
SK6
 10
-49.90096493475846
 20
-66.12780752645074
 30
0.0
  0
VERTEX
  5
1AA4
  8
SK6
 10
-53.40096493475846
 20
-66.12780752645074
 30
0.0
  0
SEQEND
  5
1F85
  8
SK6
  0
ARC
  5
ACA
  8
1
 10
1.299999999999983
 20
35.125
 30
0.0
 40
0.5
 50
270.0
 51
293.5781784781994
  0
ARC
  5
ACB
  8
1
 10
1.299999999999983
 20
-35.125
 30
0.0
 40
0.500000000000009
 50
66.42182152180017
 51
90.0
  0
LINE
  5
ACF
  8
1
 10
0.0
 20
-34.92500000000001
 30
0.0
 11
0.2999999999999829
 21
-34.625
 31
0.0
  0
LINE
  5
AD0
  8
1
 10
0.2999999999999829
 20
34.625
 30
0.0
 11
0.0
 21
34.92499999999998
 31
0.0
  0
LINE
  5
AD5
  8
1
 10
1.299999999999983
 20
34.625
 30
0.0
 11
0.2999999999999829
 21
34.625
 31
0.0
  0
LINE
  5
AD6
  8
1
 10
0.2999999999999829
 20
-34.625
 30
0.0
 11
1.299999999999983
 21
-34.625
 31
0.0
  0
LINE
  5
ADB
  8
1
 10
14.65616694409999
 20
-47.282880439
 30
0.0
 11
14.68806954659999
 21
-47.29184187660002
 31
0.0
  0
LINE
  5
ADC
  8
1
 10
14.6561667691
 20
47.30816788690001
 30
0.0
 11
14.6561667691
 21
-47.2826327523
 31
0.0
  0
LINE
  5
ADD
  8
1
 10
14.7615962207
 20
47.3314147463
 30
0.0
 11
14.6561668942
 21
47.30816788690001
 31
0.0
  0
LINE
  5
ADE
  8
1
 10
18.25
 20
47.3314147463
 30
0.0
 11
14.7615962207
 21
47.3314147463
 31
0.0
  0
LINE
  5
ADF
  8
1
 10
14.68806954659999
 20
-47.29184187660002
 30
0.0
 11
18.25
 21
-47.29184187660002
 31
0.0
  0
LINE
  5
AE0
  8
1
 10
7.498403779400007
 20
47.3314147463
 30
0.0
 11
4.006414746699988
 21
47.3314147463
 31
0.0
  0
LINE
  5
AE1
  8
1
 10
7.603833105900009
 20
47.30816788690001
 30
0.0
 11
7.498403779400007
 21
47.3314147463
 31
0.0
  0
LINE
  5
AE2
  8
1
 10
7.603833230899994
 20
47.30844201400001
 30
0.0
 11
7.603833230899994
 21
-47.28288044160001
 31
0.0
  0
LINE
  5
AE3
  8
1
 10
7.571930453299984
 20
-47.29184187660002
 30
0.0
 11
7.603833055899997
 21
-47.282880439
 31
0.0
  0
LINE
  5
AE4
  8
1
 10
4.040356993800003
 20
-47.29184187660002
 30
0.0
 11
7.571930453299984
 21
-47.29184187660002
 31
0.0
  0
LINE
  5
AE5
  8
1
 10
2.300001405499984
 20
-46.74795901499999
 30
0.0
 11
4.040356993800003
 21
-47.29184189310001
 31
0.0
  0
LINE
  5
AE6
  8
1
 10
4.006414746699988
 20
47.33141476029999
 30
0.0
 11
2.299999765199999
 21
46.80267569
 31
0.0
  0
ARC
  5
AE7
  8
1
 10
2.557435939599998
 20
-45.59355264690001
 30
0.0
 40
1.184053137363273
 50
207.7147598986998
 51
257.3157095984005
  0
LINE
  5
AE8
  8
1
 10
1.50922466130001
 20
-46.14422037630001
 30
0.0
 11
1.5
 21
-46.01377680920001
 31
0.0
  0
LINE
  5
AE9
  8
1
 10
1.5
 20
-46.01377680920001
 30
0.0
 11
1.5
 21
46.01377680919998
 31
0.0
  0
ARC
  5
AEA
  8
1
 10
2.572884962100005
 20
45.72649004249999
 30
0.0
 40
1.111555736593689
 50
104.3436511600003
 51
164.8417645594994
  0
LINE
  5
AEB
  8
1
 10
9.204999995999998
 20
44.41431970880001
 30
0.0
 11
7.60383322749999
 21
47.3081678945
 31
0.0
  0
LINE
  5
AEC
  8
1
 10
9.204999999999984
 20
44.4143196734
 30
0.0
 11
9.204999999999984
 21
-44.387299867
 31
0.0
  0
LINE
  5
AED
  8
1
 10
7.603833226399985
 20
-47.28288044990001
 30
0.0
 11
9.2049999921
 21
-44.38762367050001
 31
0.0
  0
LINE
  5
AEE
  8
1
 10
14.65616677259999
 20
47.3081678945
 30
0.0
 11
13.05500000399999
 21
44.41431970880001
 31
0.0
  0
LINE
  5
AEF
  8
1
 10
13.05500000800001
 20
-44.38762367050001
 30
0.0
 11
14.65616677360001
 21
-47.28288044990001
 31
0.0
  0
LINE
  5
AF0
  8
1
 10
13.05500000000001
 20
44.41459195280001
 30
0.0
 11
13.05500000000001
 21
-44.38762365650001
 31
0.0
  0
ARC
  5
AF1
  8
1
 10
17.92302328310001
 20
46.41895288640001
 30
0.0
 40
1.127359624435328
 50
1.493363825500091
 51
43.53750291790048
  0
LINE
  5
AF2
  8
1
 10
19.04999999999998
 20
46.44833319130001
 30
0.0
 11
19.04999999999998
 21
-46.44833319130001
 31
0.0
  0
ARC
  5
AF3
  8
1
 10
17.91824827779999
 20
-46.4157978575
 30
0.0
 40
1.1322192847622
 50
319.2464850235001
 51
358.3533278529993
  0
ARC
  5
AF4
  8
1
 10
18.2616113983
 20
-46.25791326929999
 30
0.0
 40
1.033993805426882
 50
269.3565743835002
 51
299.8289453780985
  0
ARC
  5
AF5
  8
1
 10
18.2610591033
 20
46.41902767409999
 30
0.0
 40
0.9124540938653742
 50
58.31881226410037
 51
90.69445187719943
  0
ARC
  5
AF6
  8
1
 10
12.5158206966
 20
-44.1073442162
 30
0.0
 40
0.5397579791454132
 50
357.3466499737992
 51
85.83742202690154
  0
ARC
  5
AF7
  8
1
 10
12.54139279200001
 20
44.09944295630001
 30
0.0
 40
0.4858431210597904
 50
271.6049163143007
 51
333.441972537701
  0
POLYLINE
  5
AF8
  8
1
 66
     1
 10
0.0
 20
0.0
 30
0.0
  0
VERTEX
  5
1AA5
  8
1
 10
13.05500000000001
 20
44.14662312639999
 30
0.0
  0
VERTEX
  5
1AA6
  8
1
 10
13.03542892280001
 20
44.01594229719998
 30
0.0
  0
VERTEX
  5
1AA7
  8
1
 10
12.97787844319998
 20
43.88571451269999
 30
0.0
  0
SEQEND
  5
1F84
  8
1
  0
ARC
  5
AF9
  8
1
 10
9.744214343399989
 20
-44.10737531749999
 30
0.0
 40
0.5397915428070933
 50
94.16604783349855
 51
182.6498801657025
  0
POLYLINE
  5
AFA
  8
1
 66
     1
 10
0.0
 20
0.0
 30
0.0
  0
VERTEX
  5
1AA8
  8
1
 10
9.280099379399985
 20
43.88913247470001
 30
0.0
  0
VERTEX
  5
1AA9
  8
1
 10
9.224055884099982
 20
44.0177026321
 30
0.0
  0
VERTEX
  5
1AAA
  8
1
 10
9.204999999999984
 20
44.14662312639999
 30
0.0
  0
SEQEND
  5
1F83
  8
1
  0
ARC
  5
AFB
  8
1
 10
9.721350266000002
 20
44.10422581969999
 30
0.0
 40
0.4907078648052702
 50
206.0244317763009
 51
268.0905652222996
  0
LINE
  5
AFC
  8
1
 10
12.55500000000001
 20
43.613790424
 30
0.0
 11
9.704999999999984
 21
43.613790424
 31
0.0
  0
LINE
  5
AFD
  8
1
 10
9.704999999999984
 20
-43.5690100651
 30
0.0
 11
12.55500000000001
 21
-43.5690100651
 31
0.0
  0
LINE
  5
B00
  8
1
 10
0.2999999999999829
 20
34.625
 30
0.0
 11
0.2999999999999829
 21
-34.625
 31
0.0
  0
LINE
  5
B01
  8
1
 10
0.0
 20
34.92499999999998
 30
0.0
 11
0.0
 21
-34.92500000000001
 31
0.0
  0
LINE
  5
B04
  8
1
 10
14.68806954670001
 20
-47.29184187660002
 30
0.0
 11
14.65616694420001
 21
-47.282880439
 31
0.0
  0
LINE
  5
B13
  8
3
 10
1.5
 20
-35.30000000000001
 30
0.0
 11
3.699999999999989
 21
-35.30000000000001
 31
0.0
  0
LINE
  5
B1D
  8
3
 10
19.04999999999998
 20
-35.30000000000001
 30
0.0
 11
18.25
 21
-35.30000000000001
 31
0.0
  0
LINE
  5
B3B
  8
3
 10
3.699999999999989
 20
-35.30000000000001
 30
0.0
 11
18.25
 21
-35.30000000000001
 31
0.0
  0
LINE
  5
B5C
  8
1
 10
1.299999999999983
 20
-34.625
 30
0.0
 11
1.299999999999983
 21
34.625
 31
0.0
  0
LINE
  5
B5F
  8
1
 10
12.55500000000001
 20
-43.00413183130001
 30
0.0
 11
12.55500000000001
 21
42.79577481850001
 31
0.0
  0
LINE
  5
B60
  8
1
 10
9.704999999999984
 20
-43.00421493109999
 30
0.0
 11
9.704999999999984
 21
42.7957705776
 31
0.0
  0
LINE
  5
B62
  8
1
 10
18.25
 20
47.3314147463
 30
0.0
 11
18.25
 21
-47.29184187660002
 31
0.0
  0
LINE
  5
B64
  8
1
 10
2.299999999999983
 20
-46.74795854910002
 30
0.0
 11
2.299999999999983
 21
46.80267576719999
 31
0.0
  0
LINE
  5
C2C
  8
1
 10
90.0
 20
-63.50380999999999
 30
0.0
 11
90.02857499979999
 21
-63.50380999999999
 31
0.0
  0
LINE
  5
C2D
  8
1
 10
90.02857499979999
 20
63.50380999999999
 30
0.0
 11
90.0
 21
63.50380999999999
 31
0.0
  0
ARC
  5
C2F
  8
1
 10
49.0
 20
69.0
 30
0.0
 40
1.0
 50
90.0
 51
180.0
  0
ARC
  5
C30
  8
1
 10
49.0
 20
-69.0
 30
0.0
 40
1.000000000000007
 50
180.0
 51
270.0
  0
LINE
  5
C31
  8
1
 10
49.0
 20
-70.0
 30
0.0
 11
89.0
 21
-70.0
 31
0.0
  0
LINE
  5
C32
  8
1
 10
89.0
 20
70.0
 30
0.0
 11
49.0
 21
70.0
 31
0.0
  0
ARC
  5
C33
  8
1
 10
89.0
 20
-69.0
 30
0.0
 40
1.000000000000007
 50
270.0
 51
0.0
  0
ARC
  5
C34
  8
1
 10
89.0
 20
69.0
 30
0.0
 40
1.0
 50
0.0
 51
90.0
  0
ARC
  5
C35
  8
1
 10
47.0
 20
46.0
 30
0.0
 40
1.0
 50
270.0
 51
0.0
  0
ARC
  5
C36
  8
1
 10
47.0
 20
-46.0
 30
0.0
 40
1.0
 50
0.0
 51
90.0
  0
LINE
  5
C37
  8
1
 10
47.0
 20
45.0
 30
0.0
 11
36.52433562279998
 21
45.0
 31
0.0
  0
LINE
  5
C38
  8
1
 10
35.798660848
 20
-45.0
 30
0.0
 11
47.0
 21
-45.0
 31
0.0
  0
LINE
  5
C4B
  8
1
 10
66.75
 20
0.7216878364999957
 30
0.0
 11
66.75
 21
-0.7216878364999957
 31
0.0
  0
LINE
  5
C4C
  8
1
 10
69.25
 20
-0.7216878364999957
 30
0.0
 11
68.0
 21
-1.443375672999991
 31
0.0
  0
LINE
  5
C4D
  8
1
 10
69.25
 20
-0.7216878364999957
 30
0.0
 11
69.25
 21
0.7216878364999957
 31
0.0
  0
LINE
  5
C4E
  8
1
 10
68.0
 20
1.443375672999991
 30
0.0
 11
69.25
 21
0.7216878364999957
 31
0.0
  0
LINE
  5
C4F
  8
1
 10
68.0
 20
1.443375672999991
 30
0.0
 11
66.75
 21
0.7216878364999957
 31
0.0
  0
CIRCLE
  5
C50
  8
1
 10
68.0
 20
0.0
 30
0.0
 40
2.055000000000018
  0
LINE
  5
C51
  8
1
 10
68.0
 20
-1.443375672999991
 30
0.0
 11
66.75
 21
-0.7216878364999957
 31
0.0
  0
LINE
  5
C58
  8
1
 10
48.0
 20
-69.0
 30
0.0
 11
48.0
 21
69.0
 31
0.0
  0
CIRCLE
  5
C59
  8
1
 10
68.0
 20
0.0
 30
0.0
 40
2.625
  0
LINE
  5
C5A
  8
1
 10
90.0
 20
0.0
 30
0.0
 11
90.0
 21
69.0
 31
0.0
  0
LINE
  5
C5B
  8
1
 10
90.0
 20
-69.0
 30
0.0
 11
90.0
 21
0.0
 31
0.0
  0
CIRCLE
  5
C5C
  8
1
 10
68.0
 20
0.0
 30
0.0
 40
2.099999999999994
  0
ARC
  5
C7E
  8
1
 10
20.12425833789999
 20
43.87345199590001
 30
0.0
 40
1.075647159390073
 50
177.0881254062005
 51
266.0413819691004
  0
ARC
  5
C7F
  8
1
 10
20.10564128619998
 20
-43.85694342400001
 30
0.0
 40
1.058036404255484
 50
93.01452970459977
 51
183.8559620522991
  0
LINE
  5
C82
  8
1
 10
20.04999999999998
 20
-42.80037109810002
 30
0.0
 11
22.15000000000001
 21
-42.80037109810002
 31
0.0
  0
LINE
  5
C83
  8
1
 10
22.875
 20
42.8003711458
 30
0.0
 11
20.04999999999998
 21
42.8003711458
 31
0.0
  0
ARC
  5
C84
  8
1
 10
22.4795476532
 20
88.7073301113
 30
0.0
 40
45.90866218930972
 50
270.4935458712
 51
287.8140593719
  0
POLYLINE
  5
C85
  8
1
 66
     1
 10
0.0
 20
0.0
 30
0.0
  0
VERTEX
  5
1AAB
  8
1
 10
22.15000000000001
 20
-42.80037109810002
 30
0.0
  0
VERTEX
  5
1AAC
  8
1
 10
24.8170452347
 20
-42.88593778730001
 30
0.0
  0
VERTEX
  5
1AAD
  8
1
 10
27.39477173199998
 20
-43.13217080980002
 30
0.0
  0
VERTEX
  5
1AAE
  8
1
 10
29.7353528132
 20
-43.49040000560001
 30
0.0
  0
VERTEX
  5
1AAF
  8
1
 10
31.80125673960001
 20
-43.91378899080001
 30
0.0
  0
VERTEX
  5
1AB0
  8
1
 10
33.49342308569999
 20
-44.3302029429
 30
0.0
  0
VERTEX
  5
1AB1
  8
1
 10
34.75024026040001
 20
-44.6815064191
 30
0.0
  0
VERTEX
  5
1AB2
  8
1
 10
35.53688085030001
 20
-44.9171701864
 30
0.0
  0
VERTEX
  5
1AB3
  8
1
 10
35.7999928694
 20
-44.99999782930001
 30
0.0
  0
VERTEX
  5
1AB4
  8
1
 10
35.798660848
 20
-44.9995789013
 30
0.0
  0
SEQEND
  5
1F82
  8
1
  0
POLYLINE
  5
C8E
  8
3
 66
     1
 10
0.0
 20
0.0
 30
0.0
  0
VERTEX
  5
1AB5
  8
3
 10
69.5155444566
 20
53.25607503459997
 30
0.0
  0
VERTEX
  5
1AB6
  8
3
 10
69.0653325008
 20
52.9993908619
 30
0.0
  0
VERTEX
  5
1AB7
  8
3
 10
68.4529333289
 20
52.84838993659997
 30
0.0
  0
VERTEX
  5
1AB8
  8
3
 10
67.7715791636
 20
52.82606078090004
 30
0.0
  0
VERTEX
  5
1AB9
  8
3
 10
67.125
 20
52.93580280629999
 30
0.0
  0
VERTEX
  5
1ABA
  8
3
 10
66.6116316545
 20
53.16090878430003
 30
0.0
  0
VERTEX
  5
1ABB
  8
3
 10
66.309629804
 20
53.46710837020004
 30
0.0
  0
VERTEX
  5
1ABC
  8
3
 10
66.26497149259998
 20
53.80778545280003
 30
0.0
  0
VERTEX
  5
1ABD
  8
3
 10
66.4844555434
 20
54.13107503459997
 30
0.0
  0
VERTEX
  5
1ABE
  8
3
 10
66.9346674992
 20
54.38775920739999
 30
0.0
  0
VERTEX
  5
1ABF
  8
3
 10
67.5470666711
 20
54.53876013259998
 30
0.0
  0
VERTEX
  5
1AC0
  8
3
 10
68.2284208364
 20
54.56108928830002
 30
0.0
  0
VERTEX
  5
1AC1
  8
3
 10
68.875
 20
54.45134726290001
 30
0.0
  0
VERTEX
  5
1AC2
  8
3
 10
69.3883683455
 20
54.22624128500001
 30
0.0
  0
VERTEX
  5
1AC3
  8
3
 10
69.690370196
 20
53.92004169910001
 30
0.0
  0
VERTEX
  5
1AC4
  8
3
 10
69.73502850739999
 20
53.57936461640003
 30
0.0
  0
VERTEX
  5
1AC5
  8
3
 10
69.5155444566
 20
53.25607503459997
 30
0.0
  0
SEQEND
  5
1F81
  8
3
  0
POLYLINE
  5
C91
  8
3
 66
     1
 10
0.0
 20
0.0
 30
0.0
  0
VERTEX
  5
1AC6
  8
3
 10
66.8416336283
 20
53.18120528280002
 30
0.0
  0
VERTEX
  5
1AC7
  8
3
 10
66.19507852319998
 20
53.45817253320001
 30
0.0
  0
VERTEX
  5
1AC8
  8
3
 10
65.79228806500001
 20
53.83321812439999
 30
0.0
  0
VERTEX
  5
1AC9
  8
3
 10
65.68766133699998
 20
54.25569007109999
 30
0.0
  0
VERTEX
  5
1ACA
  8
3
 10
65.8953287585
 20
54.66853119590002
 30
0.0
  0
VERTEX
  5
1ACB
  8
3
 10
66.3872436936
 20
55.01598501719997
 30
0.0
  0
VERTEX
  5
1ACC
  8
3
 10
67.0969703044
 20
55.25112597110001
 30
0.0
  0
VERTEX
  5
1ACD
  8
3
 10
67.9286560795
 20
55.34219696899999
 30
0.0
  0
VERTEX
  5
1ACE
  8
3
 10
68.7699772464
 20
55.2768983679
 30
0.0
  0
VERTEX
  5
1ACF
  8
3
 10
69.50730871959999
 20
55.06404910559996
 30
0.0
  0
VERTEX
  5
1AD0
  8
3
 10
70.04106979790001
 20
54.73239565450001
 30
0.0
  0
VERTEX
  5
1AD1
  8
3
 10
70.29917308999998
 20
54.32672965099999
 30
0.0
  0
VERTEX
  5
1AD2
  8
3
 10
70.24676031619998
 20
53.9018385366
 30
0.0
  0
VERTEX
  5
1AD3
  8
3
 10
69.890910112
 20
53.5151062109
 30
0.0
  0
VERTEX
  5
1AD4
  8
3
 10
69.27968201919998
 20
53.21876301719999
 30
0.0
  0
VERTEX
  5
1AD5
  8
3
 10
68.49562577879999
 20
53.05283174599998
 30
0.0
  0
VERTEX
  5
1AD6
  8
3
 10
67.6446325306
 20
53.03972233510001
 30
0.0
  0
VERTEX
  5
1AD7
  8
3
 10
66.8416336283
 20
53.18120528280002
 30
0.0
  0
SEQEND
  5
1F80
  8
3
  0
POLYLINE
  5
C92
  8
3
 66
     1
 10
0.0
 20
0.0
 30
0.0
  0
VERTEX
  5
1AD8
  8
3
 10
69.0275
 20
55.23293517550002
 30
0.0
  0
VERTEX
  5
1AD9
  8
3
 10
69.6303411143
 20
54.9685964414
 30
0.0
  0
VERTEX
  5
1ADA
  8
3
 10
69.98497757299998
 20
54.60903064199999
 30
0.0
  0
VERTEX
  5
1ADB
  8
3
 10
70.0374191901
 20
54.20897841059997
 30
0.0
  0
VERTEX
  5
1ADC
  8
3
 10
69.7796822048
 20
53.8293440731
 30
0.0
  0
VERTEX
  5
1ADD
  8
3
 10
69.25100473659998
 20
53.52792351600004
 30
0.0
  0
VERTEX
  5
1ADE
  8
3
 10
68.53187313769999
 20
53.3506052866
 30
0.0
  0
VERTEX
  5
1ADF
  8
3
 10
67.73176867499998
 20
53.32438447800001
 30
0.0
  0
VERTEX
  5
1AE0
  8
3
 10
66.9725
 20
53.45325297070002
 30
0.0
  0
VERTEX
  5
1AE1
  8
3
 10
66.3696588857
 20
53.71759170479999
 30
0.0
  0
VERTEX
  5
1AE2
  8
3
 10
66.01502242699999
 20
54.07715750430003
 30
0.0
  0
VERTEX
  5
1AE3
  8
3
 10
65.9625808099
 20
54.47720973560001
 30
0.0
  0
VERTEX
  5
1AE4
  8
3
 10
66.2203177952
 20
54.85684407310004
 30
0.0
  0
VERTEX
  5
1AE5
  8
3
 10
66.74899526339999
 20
55.15826463030004
 30
0.0
  0
VERTEX
  5
1AE6
  8
3
 10
67.46812686229998
 20
55.33558285960004
 30
0.0
  0
VERTEX
  5
1AE7
  8
3
 10
68.26823132499999
 20
55.36180366820003
 30
0.0
  0
VERTEX
  5
1AE8
  8
3
 10
69.0275
 20
55.23293517550002
 30
0.0
  0
SEQEND
  5
1F7F
  8
3
  0
POLYLINE
  5
C93
  8
3
 66
     1
 10
0.0
 20
0.0
 30
0.0
  0
VERTEX
  5
1AE9
  8
3
 10
69.25
 20
55.69547272250003
 30
0.0
  0
VERTEX
  5
1AEA
  8
3
 10
69.94770143630001
 20
55.39659572509998
 30
0.0
  0
VERTEX
  5
1AEB
  8
3
 10
70.3823550011
 20
54.9918818104
 30
0.0
  0
VERTEX
  5
1AEC
  8
3
 10
70.49525832179998
 20
54.5359898351
 30
0.0
  0
VERTEX
  5
1AED
  8
3
 10
70.27116317950001
 20
54.09049053660004
 30
0.0
  0
VERTEX
  5
1AEE
  8
3
 10
69.7403348649
 20
53.71555106390002
 30
0.0
  0
VERTEX
  5
1AEF
  8
3
 10
68.97446468319998
 20
53.46180907030003
 30
0.0
  0
VERTEX
  5
1AF0
  8
3
 10
68.0769876464
 20
53.3635338181
 30
0.0
  0
VERTEX
  5
1AF1
  8
3
 10
67.16911300129999
 20
53.43399792459996
 30
0.0
  0
VERTEX
  5
1AF2
  8
3
 10
66.37345424949999
 20
53.66368482190001
 30
0.0
  0
VERTEX
  5
1AF3
  8
3
 10
65.79746951429999
 20
54.02157402170002
 30
0.0
  0
VERTEX
  5
1AF4
  8
3
 10
65.51894872579999
 20
54.45933060440001
 30
0.0
  0
VERTEX
  5
1AF5
  8
3
 10
65.57550765989998
 20
54.91783311789999
 30
0.0
  0
VERTEX
  5
1AF6
  8
3
 10
65.9595077191
 20
55.33515825699999
 30
0.0
  0
VERTEX
  5
1AF7
  8
3
 10
66.61908756759999
 20
55.65494394929999
 30
0.0
  0
VERTEX
  5
1AF8
  8
3
 10
67.46516729199999
 20
55.83400136489996
 30
0.0
  0
VERTEX
  5
1AF9
  8
3
 10
68.3834791372
 20
55.84814780779999
 30
0.0
  0
VERTEX
  5
1AFA
  8
3
 10
69.25
 20
55.69547272250003
 30
0.0
  0
SEQEND
  5
1F7E
  8
3
  0
POLYLINE
  5
C94
  8
3
 66
     1
 10
0.0
 20
0.0
 30
0.0
  0
VERTEX
  5
1AFB
  8
3
 10
69.25
 20
55.77351227380001
 30
0.0
  0
VERTEX
  5
1AFC
  8
3
 10
69.94770143630001
 20
55.47463527650001
 30
0.0
  0
VERTEX
  5
1AFD
  8
3
 10
70.3823550011
 20
55.06992136169998
 30
0.0
  0
VERTEX
  5
1AFE
  8
3
 10
70.49525832179998
 20
54.61402938639998
 30
0.0
  0
VERTEX
  5
1AFF
  8
3
 10
70.27116317950001
 20
54.16853008800001
 30
0.0
  0
VERTEX
  5
1B00
  8
3
 10
69.7403348649
 20
53.79359061529999
 30
0.0
  0
VERTEX
  5
1B01
  8
3
 10
68.97446468319998
 20
53.5398486217
 30
0.0
  0
VERTEX
  5
1B02
  8
3
 10
68.0769876464
 20
53.44157336940003
 30
0.0
  0
VERTEX
  5
1B03
  8
3
 10
67.16911300129999
 20
53.51203747599999
 30
0.0
  0
VERTEX
  5
1B04
  8
3
 10
66.37345424949999
 20
53.74172437329997
 30
0.0
  0
VERTEX
  5
1B05
  8
3
 10
65.79746951429999
 20
54.099613573
 30
0.0
  0
VERTEX
  5
1B06
  8
3
 10
65.51894872579999
 20
54.53737015580003
 30
0.0
  0
VERTEX
  5
1B07
  8
3
 10
65.57550765989998
 20
54.99587266919997
 30
0.0
  0
VERTEX
  5
1B08
  8
3
 10
65.9595077191
 20
55.41319780830003
 30
0.0
  0
VERTEX
  5
1B09
  8
3
 10
66.61908756759999
 20
55.73298350060003
 30
0.0
  0
VERTEX
  5
1B0A
  8
3
 10
67.46516729199999
 20
55.91204091629999
 30
0.0
  0
VERTEX
  5
1B0B
  8
3
 10
68.3834791372
 20
55.92618735920001
 30
0.0
  0
VERTEX
  5
1B0C
  8
3
 10
69.25
 20
55.77351227380001
 30
0.0
  0
SEQEND
  5
1F7D
  8
3
  0
POLYLINE
  5
C95
  8
3
 66
     1
 10
0.0
 20
0.0
 30
0.0
  0
VERTEX
  5
1B0D
  8
3
 10
69.0275
 20
55.85066851610003
 30
0.0
  0
VERTEX
  5
1B0E
  8
3
 10
69.6303411143
 20
55.58632978200001
 30
0.0
  0
VERTEX
  5
1B0F
  8
3
 10
69.98497757299998
 20
55.2267639826
 30
0.0
  0
VERTEX
  5
1B10
  8
3
 10
70.0374191901
 20
54.82671175119998
 30
0.0
  0
VERTEX
  5
1B11
  8
3
 10
69.7796822048
 20
54.44707741370001
 30
0.0
  0
VERTEX
  5
1B12
  8
3
 10
69.25100473659998
 20
54.1456568566
 30
0.0
  0
VERTEX
  5
1B13
  8
3
 10
68.53187313769999
 20
53.96833862720001
 30
0.0
  0
VERTEX
  5
1B14
  8
3
 10
67.73176867499998
 20
53.94211781870001
 30
0.0
  0
VERTEX
  5
1B15
  8
3
 10
66.9725
 20
54.07098631130003
 30
0.0
  0
VERTEX
  5
1B16
  8
3
 10
66.3696588857
 20
54.3353250454
 30
0.0
  0
VERTEX
  5
1B17
  8
3
 10
66.01502242699999
 20
54.69489084490004
 30
0.0
  0
VERTEX
  5
1B18
  8
3
 10
65.9625808099
 20
55.09494307619997
 30
0.0
  0
VERTEX
  5
1B19
  8
3
 10
66.2203177952
 20
55.47457741369999
 30
0.0
  0
VERTEX
  5
1B1A
  8
3
 10
66.74899526339999
 20
55.77599797089999
 30
0.0
  0
VERTEX
  5
1B1B
  8
3
 10
67.46812686229998
 20
55.95331620019999
 30
0.0
  0
VERTEX
  5
1B1C
  8
3
 10
68.26823132499999
 20
55.97953700880004
 30
0.0
  0
VERTEX
  5
1B1D
  8
3
 10
69.0275
 20
55.85066851610003
 30
0.0
  0
SEQEND
  5
1F7C
  8
3
  0
POLYLINE
  5
C96
  8
3
 66
     1
 10
0.0
 20
0.0
 30
0.0
  0
VERTEX
  5
1B1E
  8
3
 10
69.25
 20
56.31320606310004
 30
0.0
  0
VERTEX
  5
1B1F
  8
3
 10
69.94770143630001
 20
56.0143290657
 30
0.0
  0
VERTEX
  5
1B20
  8
3
 10
70.3823550011
 20
55.60961515100001
 30
0.0
  0
VERTEX
  5
1B21
  8
3
 10
70.49525832179998
 20
55.15372317570001
 30
0.0
  0
VERTEX
  5
1B22
  8
3
 10
70.27116317950001
 20
54.7082238772
 30
0.0
  0
VERTEX
  5
1B23
  8
3
 10
69.7403348649
 20
54.33328440450003
 30
0.0
  0
VERTEX
  5
1B24
  8
3
 10
68.97446468319998
 20
54.07954241089999
 30
0.0
  0
VERTEX
  5
1B25
  8
3
 10
68.0769876464
 20
53.98126715870001
 30
0.0
  0
VERTEX
  5
1B26
  8
3
 10
67.16911300129999
 20
54.05173126519998
 30
0.0
  0
VERTEX
  5
1B27
  8
3
 10
66.37345424949999
 20
54.28141816249996
 30
0.0
  0
VERTEX
  5
1B28
  8
3
 10
65.79746951429999
 20
54.63930736230003
 30
0.0
  0
VERTEX
  5
1B29
  8
3
 10
65.51894872579999
 20
55.07706394500002
 30
0.0
  0
VERTEX
  5
1B2A
  8
3
 10
65.57550765989998
 20
55.5355664585
 30
0.0
  0
VERTEX
  5
1B2B
  8
3
 10
65.9595077191
 20
55.9528915976
 30
0.0
  0
VERTEX
  5
1B2C
  8
3
 10
66.61908756759999
 20
56.2726772899
 30
0.0
  0
VERTEX
  5
1B2D
  8
3
 10
67.46516729199999
 20
56.45173470549997
 30
0.0
  0
VERTEX
  5
1B2E
  8
3
 10
68.3834791372
 20
56.4658811484
 30
0.0
  0
VERTEX
  5
1B2F
  8
3
 10
69.25
 20
56.31320606310004
 30
0.0
  0
SEQEND
  5
1F7B
  8
3
  0
POLYLINE
  5
C97
  8
3
 66
     1
 10
0.0
 20
0.0
 30
0.0
  0
VERTEX
  5
1B30
  8
3
 10
69.25
 20
56.39124561440002
 30
0.0
  0
VERTEX
  5
1B31
  8
3
 10
69.94770143630001
 20
56.09236861710002
 30
0.0
  0
VERTEX
  5
1B32
  8
3
 10
70.3823550011
 20
55.68765470229999
 30
0.0
  0
VERTEX
  5
1B33
  8
3
 10
70.49525832179998
 20
55.23176272699999
 30
0.0
  0
VERTEX
  5
1B34
  8
3
 10
70.27116317950001
 20
54.78626342859997
 30
0.0
  0
VERTEX
  5
1B35
  8
3
 10
69.7403348649
 20
54.4113239559
 30
0.0
  0
VERTEX
  5
1B36
  8
3
 10
68.97446468319998
 20
54.15758196230001
 30
0.0
  0
VERTEX
  5
1B37
  8
3
 10
68.0769876464
 20
54.05930671000004
 30
0.0
  0
VERTEX
  5
1B38
  8
3
 10
67.16911300129999
 20
54.1297708166
 30
0.0
  0
VERTEX
  5
1B39
  8
3
 10
66.37345424949999
 20
54.35945771389999
 30
0.0
  0
VERTEX
  5
1B3A
  8
3
 10
65.79746951429999
 20
54.71734691360001
 30
0.0
  0
VERTEX
  5
1B3B
  8
3
 10
65.51894872579999
 20
55.15510349640005
 30
0.0
  0
VERTEX
  5
1B3C
  8
3
 10
65.57550765989998
 20
55.61360600979998
 30
0.0
  0
VERTEX
  5
1B3D
  8
3
 10
65.9595077191
 20
56.03093114899997
 30
0.0
  0
VERTEX
  5
1B3E
  8
3
 10
66.61908756759999
 20
56.35071684120004
 30
0.0
  0
VERTEX
  5
1B3F
  8
3
 10
67.46516729199999
 20
56.5297742569
 30
0.0
  0
VERTEX
  5
1B40
  8
3
 10
68.3834791372
 20
56.54392069980003
 30
0.0
  0
VERTEX
  5
1B41
  8
3
 10
69.25
 20
56.39124561440002
 30
0.0
  0
SEQEND
  5
1F7A
  8
3
  0
POLYLINE
  5
C98
  8
3
 66
     1
 10
0.0
 20
0.0
 30
0.0
  0
VERTEX
  5
1B42
  8
3
 10
69.0275
 20
56.46840185670004
 30
0.0
  0
VERTEX
  5
1B43
  8
3
 10
69.6303411143
 20
56.20406312259996
 30
0.0
  0
VERTEX
  5
1B44
  8
3
 10
69.98497757299998
 20
55.84449732320002
 30
0.0
  0
VERTEX
  5
1B45
  8
3
 10
70.0374191901
 20
55.44444509179999
 30
0.0
  0
VERTEX
  5
1B46
  8
3
 10
69.7796822048
 20
55.06481075430003
 30
0.0
  0
VERTEX
  5
1B47
  8
3
 10
69.25100473659998
 20
54.76339019720001
 30
0.0
  0
VERTEX
  5
1B48
  8
3
 10
68.53187313769999
 20
54.58607196780002
 30
0.0
  0
VERTEX
  5
1B49
  8
3
 10
67.73176867499998
 20
54.55985115929997
 30
0.0
  0
VERTEX
  5
1B4A
  8
3
 10
66.9725
 20
54.68871965190004
 30
0.0
  0
VERTEX
  5
1B4B
  8
3
 10
66.3696588857
 20
54.95305838600001
 30
0.0
  0
VERTEX
  5
1B4C
  8
3
 10
66.01502242699999
 20
55.3126241855
 30
0.0
  0
VERTEX
  5
1B4D
  8
3
 10
65.9625808099
 20
55.71267641679998
 30
0.0
  0
VERTEX
  5
1B4E
  8
3
 10
66.2203177952
 20
56.0923107543
 30
0.0
  0
VERTEX
  5
1B4F
  8
3
 10
66.74899526339999
 20
56.39373131150001
 30
0.0
  0
VERTEX
  5
1B50
  8
3
 10
67.46812686229998
 20
56.5710495408
 30
0.0
  0
VERTEX
  5
1B51
  8
3
 10
68.26823132499999
 20
56.59727034939999
 30
0.0
  0
VERTEX
  5
1B52
  8
3
 10
69.0275
 20
56.46840185670004
 30
0.0
  0
SEQEND
  5
1F79
  8
3
  0
POLYLINE
  5
C99
  8
3
 66
     1
 10
0.0
 20
0.0
 30
0.0
  0
VERTEX
  5
1B53
  8
3
 10
69.25
 20
56.93093940369999
 30
0.0
  0
VERTEX
  5
1B54
  8
3
 10
69.94770143630001
 20
56.63206240630001
 30
0.0
  0
VERTEX
  5
1B55
  8
3
 10
70.3823550011
 20
56.22734849160003
 30
0.0
  0
VERTEX
  5
1B56
  8
3
 10
70.49525832179998
 20
55.77145651630002
 30
0.0
  0
VERTEX
  5
1B57
  8
3
 10
70.27116317950001
 20
55.32595721780001
 30
0.0
  0
VERTEX
  5
1B58
  8
3
 10
69.7403348649
 20
54.95101774509999
 30
0.0
  0
VERTEX
  5
1B59
  8
3
 10
68.97446468319998
 20
54.6972757515
 30
0.0
  0
VERTEX
  5
1B5A
  8
3
 10
68.0769876464
 20
54.59900049929996
 30
0.0
  0
VERTEX
  5
1B5B
  8
3
 10
67.16911300129999
 20
54.66946460590003
 30
0.0
  0
VERTEX
  5
1B5C
  8
3
 10
66.37345424949999
 20
54.89915150309997
 30
0.0
  0
VERTEX
  5
1B5D
  8
3
 10
65.79746951429999
 20
55.25704070290004
 30
0.0
  0
VERTEX
  5
1B5E
  8
3
 10
65.51894872579999
 20
55.69479728560003
 30
0.0
  0
VERTEX
  5
1B5F
  8
3
 10
65.57550765989998
 20
56.15329979910001
 30
0.0
  0
VERTEX
  5
1B60
  8
3
 10
65.9595077191
 20
56.57062493820001
 30
0.0
  0
VERTEX
  5
1B61
  8
3
 10
66.61908756759999
 20
56.89041063050001
 30
0.0
  0
VERTEX
  5
1B62
  8
3
 10
67.46516729199999
 20
57.06946804609998
 30
0.0
  0
VERTEX
  5
1B63
  8
3
 10
68.3834791372
 20
57.08361448900001
 30
0.0
  0
VERTEX
  5
1B64
  8
3
 10
69.25
 20
56.93093940369999
 30
0.0
  0
SEQEND
  5
1F78
  8
3
  0
POLYLINE
  5
C9A
  8
3
 66
     1
 10
0.0
 20
0.0
 30
0.0
  0
VERTEX
  5
1B65
  8
3
 10
69.25
 20
57.00897895500003
 30
0.0
  0
VERTEX
  5
1B66
  8
3
 10
69.94770143630001
 20
56.71010195770003
 30
0.0
  0
VERTEX
  5
1B67
  8
3
 10
70.3823550011
 20
56.30538804290001
 30
0.0
  0
VERTEX
  5
1B68
  8
3
 10
70.49525832179998
 20
55.8494960676
 30
0.0
  0
VERTEX
  5
1B69
  8
3
 10
70.27116317950001
 20
55.40399676919998
 30
0.0
  0
VERTEX
  5
1B6A
  8
3
 10
69.7403348649
 20
55.02905729650001
 30
0.0
  0
VERTEX
  5
1B6B
  8
3
 10
68.97446468319998
 20
54.77531530289997
 30
0.0
  0
VERTEX
  5
1B6C
  8
3
 10
68.0769876464
 20
54.67704005069999
 30
0.0
  0
VERTEX
  5
1B6D
  8
3
 10
67.16911300129999
 20
54.74750415720001
 30
0.0
  0
VERTEX
  5
1B6E
  8
3
 10
66.37345424949999
 20
54.9771910545
 30
0.0
  0
VERTEX
  5
1B6F
  8
3
 10
65.79746951429999
 20
55.33508025430001
 30
0.0
  0
VERTEX
  5
1B70
  8
3
 10
65.51894872579999
 20
55.772836837
 30
0.0
  0
VERTEX
  5
1B71
  8
3
 10
65.57550765989998
 20
56.23133935039999
 30
0.0
  0
VERTEX
  5
1B72
  8
3
 10
65.9595077191
 20
56.64866448959998
 30
0.0
  0
VERTEX
  5
1B73
  8
3
 10
66.61908756759999
 20
56.96845018179999
 30
0.0
  0
VERTEX
  5
1B74
  8
3
 10
67.46516729199999
 20
57.14750759750001
 30
0.0
  0
VERTEX
  5
1B75
  8
3
 10
68.3834791372
 20
57.16165404040004
 30
0.0
  0
VERTEX
  5
1B76
  8
3
 10
69.25
 20
57.00897895500003
 30
0.0
  0
SEQEND
  5
1F77
  8
3
  0
POLYLINE
  5
C9B
  8
3
 66
     1
 10
0.0
 20
0.0
 30
0.0
  0
VERTEX
  5
1B77
  8
3
 10
69.0275
 20
57.0861351973
 30
0.0
  0
VERTEX
  5
1B78
  8
3
 10
69.6303411143
 20
56.82179646319997
 30
0.0
  0
VERTEX
  5
1B79
  8
3
 10
69.98497757299998
 20
56.46223066379997
 30
0.0
  0
VERTEX
  5
1B7A
  8
3
 10
70.0374191901
 20
56.0621784324
 30
0.0
  0
VERTEX
  5
1B7B
  8
3
 10
69.7796822048
 20
55.68254409490004
 30
0.0
  0
VERTEX
  5
1B7C
  8
3
 10
69.25100473659998
 20
55.38112353779997
 30
0.0
  0
VERTEX
  5
1B7D
  8
3
 10
68.53187313769999
 20
55.20380530840004
 30
0.0
  0
VERTEX
  5
1B7E
  8
3
 10
67.73176867499998
 20
55.17758449989998
 30
0.0
  0
VERTEX
  5
1B7F
  8
3
 10
66.9725
 20
55.3064529925
 30
0.0
  0
VERTEX
  5
1B80
  8
3
 10
66.3696588857
 20
55.57079172660002
 30
0.0
  0
VERTEX
  5
1B81
  8
3
 10
66.01502242699999
 20
55.93035752610001
 30
0.0
  0
VERTEX
  5
1B82
  8
3
 10
65.9625808099
 20
56.33040975739999
 30
0.0
  0
VERTEX
  5
1B83
  8
3
 10
66.2203177952
 20
56.71004409490001
 30
0.0
  0
VERTEX
  5
1B84
  8
3
 10
66.74899526339999
 20
57.01146465210002
 30
0.0
  0
VERTEX
  5
1B85
  8
3
 10
67.46812686229998
 20
57.18878288140002
 30
0.0
  0
VERTEX
  5
1B86
  8
3
 10
68.26823132499999
 20
57.21500369
 30
0.0
  0
VERTEX
  5
1B87
  8
3
 10
69.0275
 20
57.0861351973
 30
0.0
  0
SEQEND
  5
1F76
  8
3
  0
POLYLINE
  5
C9C
  8
3
 66
     1
 10
0.0
 20
0.0
 30
0.0
  0
VERTEX
  5
1B88
  8
3
 10
69.25
 20
57.54867274430001
 30
0.0
  0
VERTEX
  5
1B89
  8
3
 10
69.94770143630001
 20
57.24979574690002
 30
0.0
  0
VERTEX
  5
1B8A
  8
3
 10
70.3823550011
 20
56.84508183220004
 30
0.0
  0
VERTEX
  5
1B8B
  8
3
 10
70.49525832179998
 20
56.38918985690003
 30
0.0
  0
VERTEX
  5
1B8C
  8
3
 10
70.27116317950001
 20
55.94369055839996
 30
0.0
  0
VERTEX
  5
1B8D
  8
3
 10
69.7403348649
 20
55.5687510857
 30
0.0
  0
VERTEX
  5
1B8E
  8
3
 10
68.97446468319998
 20
55.31500909210001
 30
0.0
  0
VERTEX
  5
1B8F
  8
3
 10
68.0769876464
 20
55.21673383989997
 30
0.0
  0
VERTEX
  5
1B90
  8
3
 10
67.16911300129999
 20
55.28719794650004
 30
0.0
  0
VERTEX
  5
1B91
  8
3
 10
66.37345424949999
 20
55.51688484369998
 30
0.0
  0
VERTEX
  5
1B92
  8
3
 10
65.79746951429999
 20
55.8747740435
 30
0.0
  0
VERTEX
  5
1B93
  8
3
 10
65.51894872579999
 20
56.31253062620004
 30
0.0
  0
VERTEX
  5
1B94
  8
3
 10
65.57550765989998
 20
56.77103313970002
 30
0.0
  0
VERTEX
  5
1B95
  8
3
 10
65.9595077191
 20
57.18835827879997
 30
0.0
  0
VERTEX
  5
1B96
  8
3
 10
66.61908756759999
 20
57.50814397109997
 30
0.0
  0
VERTEX
  5
1B97
  8
3
 10
67.46516729199999
 20
57.6872013867
 30
0.0
  0
VERTEX
  5
1B98
  8
3
 10
68.3834791372
 20
57.70134782960002
 30
0.0
  0
VERTEX
  5
1B99
  8
3
 10
69.25
 20
57.54867274430001
 30
0.0
  0
SEQEND
  5
1F75
  8
3
  0
POLYLINE
  5
C9D
  8
3
 66
     1
 10
0.0
 20
0.0
 30
0.0
  0
VERTEX
  5
1B9A
  8
3
 10
69.25
 20
57.62671229560004
 30
0.0
  0
VERTEX
  5
1B9B
  8
3
 10
69.94770143630001
 20
57.32783529830004
 30
0.0
  0
VERTEX
  5
1B9C
  8
3
 10
70.3823550011
 20
56.92312138350002
 30
0.0
  0
VERTEX
  5
1B9D
  8
3
 10
70.49525832179998
 20
56.46722940820001
 30
0.0
  0
VERTEX
  5
1B9E
  8
3
 10
70.27116317950001
 20
56.02173010979999
 30
0.0
  0
VERTEX
  5
1B9F
  8
3
 10
69.7403348649
 20
55.64679063709997
 30
0.0
  0
VERTEX
  5
1BA0
  8
3
 10
68.97446468319998
 20
55.39304864349998
 30
0.0
  0
VERTEX
  5
1BA1
  8
3
 10
68.0769876464
 20
55.2947733913
 30
0.0
  0
VERTEX
  5
1BA2
  8
3
 10
67.16911300129999
 20
55.36523749780002
 30
0.0
  0
VERTEX
  5
1BA3
  8
3
 10
66.37345424949999
 20
55.59492439510001
 30
0.0
  0
VERTEX
  5
1BA4
  8
3
 10
65.79746951429999
 20
55.95281359489996
 30
0.0
  0
VERTEX
  5
1BA5
  8
3
 10
65.51894872579999
 20
56.39057017760001
 30
0.0
  0
VERTEX
  5
1BA6
  8
3
 10
65.57550765989998
 20
56.849072691
 30
0.0
  0
VERTEX
  5
1BA7
  8
3
 10
65.9595077191
 20
57.26639783019999
 30
0.0
  0
VERTEX
  5
1BA8
  8
3
 10
66.61908756759999
 20
57.58618352240001
 30
0.0
  0
VERTEX
  5
1BA9
  8
3
 10
67.46516729199999
 20
57.76524093810002
 30
0.0
  0
VERTEX
  5
1BAA
  8
3
 10
68.3834791372
 20
57.77938738099999
 30
0.0
  0
VERTEX
  5
1BAB
  8
3
 10
69.25
 20
57.62671229560004
 30
0.0
  0
SEQEND
  5
1F74
  8
3
  0
POLYLINE
  5
C9E
  8
3
 66
     1
 10
0.0
 20
0.0
 30
0.0
  0
VERTEX
  5
1BAC
  8
3
 10
69.0275
 20
57.70386853790001
 30
0.0
  0
VERTEX
  5
1BAD
  8
3
 10
69.6303411143
 20
57.43952980379999
 30
0.0
  0
VERTEX
  5
1BAE
  8
3
 10
69.98497757299998
 20
57.07996400439998
 30
0.0
  0
VERTEX
  5
1BAF
  8
3
 10
70.0374191901
 20
56.67991177300001
 30
0.0
  0
VERTEX
  5
1BB0
  8
3
 10
69.7796822048
 20
56.30027743549999
 30
0.0
  0
VERTEX
  5
1BB1
  8
3
 10
69.25100473659998
 20
55.99885687839998
 30
0.0
  0
VERTEX
  5
1BB2
  8
3
 10
68.53187313769999
 20
55.82153864899999
 30
0.0
  0
VERTEX
  5
1BB3
  8
3
 10
67.73176867499998
 20
55.79531784049999
 30
0.0
  0
VERTEX
  5
1BB4
  8
3
 10
66.9725
 20
55.92418633310001
 30
0.0
  0
VERTEX
  5
1BB5
  8
3
 10
66.3696588857
 20
56.18852506720003
 30
0.0
  0
VERTEX
  5
1BB6
  8
3
 10
66.01502242699999
 20
56.54809086669997
 30
0.0
  0
VERTEX
  5
1BB7
  8
3
 10
65.9625808099
 20
56.948143098
 30
0.0
  0
VERTEX
  5
1BB8
  8
3
 10
66.2203177952
 20
57.32777743549997
 30
0.0
  0
VERTEX
  5
1BB9
  8
3
 10
66.74899526339999
 20
57.62919799269997
 30
0.0
  0
VERTEX
  5
1BBA
  8
3
 10
67.46812686229998
 20
57.80651622199997
 30
0.0
  0
VERTEX
  5
1BBB
  8
3
 10
68.26823132499999
 20
57.83273703060001
 30
0.0
  0
VERTEX
  5
1BBC
  8
3
 10
69.0275
 20
57.70386853790001
 30
0.0
  0
SEQEND
  5
1F73
  8
3
  0
POLYLINE
  5
C9F
  8
3
 66
     1
 10
0.0
 20
0.0
 30
0.0
  0
VERTEX
  5
1BBD
  8
3
 10
69.25
 20
58.16640608489996
 30
0.0
  0
VERTEX
  5
1BBE
  8
3
 10
69.94770143630001
 20
57.86752908750003
 30
0.0
  0
VERTEX
  5
1BBF
  8
3
 10
70.3823550011
 20
57.46281517279999
 30
0.0
  0
VERTEX
  5
1BC0
  8
3
 10
70.49525832179998
 20
57.00692319750004
 30
0.0
  0
VERTEX
  5
1BC1
  8
3
 10
70.27116317950001
 20
56.56142389899998
 30
0.0
  0
VERTEX
  5
1BC2
  8
3
 10
69.7403348649
 20
56.18648442630001
 30
0.0
  0
VERTEX
  5
1BC3
  8
3
 10
68.97446468319998
 20
55.93274243269997
 30
0.0
  0
VERTEX
  5
1BC4
  8
3
 10
68.0769876464
 20
55.83446718049998
 30
0.0
  0
VERTEX
  5
1BC5
  8
3
 10
67.16911300129999
 20
55.9049312871
 30
0.0
  0
VERTEX
  5
1BC6
  8
3
 10
66.37345424949999
 20
56.1346181843
 30
0.0
  0
VERTEX
  5
1BC7
  8
3
 10
65.79746951429999
 20
56.49250738410001
 30
0.0
  0
VERTEX
  5
1BC8
  8
3
 10
65.51894872579999
 20
56.9302639668
 30
0.0
  0
VERTEX
  5
1BC9
  8
3
 10
65.57550765989998
 20
57.38876648030003
 30
0.0
  0
VERTEX
  5
1BCA
  8
3
 10
65.9595077191
 20
57.80609161939998
 30
0.0
  0
VERTEX
  5
1BCB
  8
3
 10
66.61908756759999
 20
58.12587731169998
 30
0.0
  0
VERTEX
  5
1BCC
  8
3
 10
67.46516729199999
 20
58.3049347274
 30
0.0
  0
VERTEX
  5
1BCD
  8
3
 10
68.3834791372
 20
58.31908117029997
 30
0.0
  0
VERTEX
  5
1BCE
  8
3
 10
69.25
 20
58.16640608489996
 30
0.0
  0
SEQEND
  5
1F72
  8
3
  0
POLYLINE
  5
CA0
  8
3
 66
     1
 10
0.0
 20
0.0
 30
0.0
  0
VERTEX
  5
1BCF
  8
3
 10
69.25
 20
58.2444456362
 30
0.0
  0
VERTEX
  5
1BD0
  8
3
 10
69.94770143630001
 20
57.9455686389
 30
0.0
  0
VERTEX
  5
1BD1
  8
3
 10
70.3823550011
 20
57.54085472410003
 30
0.0
  0
VERTEX
  5
1BD2
  8
3
 10
70.49525832179998
 20
57.08496274880002
 30
0.0
  0
VERTEX
  5
1BD3
  8
3
 10
70.27116317950001
 20
56.6394634504
 30
0.0
  0
VERTEX
  5
1BD4
  8
3
 10
69.7403348649
 20
56.26452397769998
 30
0.0
  0
VERTEX
  5
1BD5
  8
3
 10
68.97446468319998
 20
56.01078198409999
 30
0.0
  0
VERTEX
  5
1BD6
  8
3
 10
68.0769876464
 20
55.91250673190001
 30
0.0
  0
VERTEX
  5
1BD7
  8
3
 10
67.16911300129999
 20
55.98297083840004
 30
0.0
  0
VERTEX
  5
1BD8
  8
3
 10
66.37345424949999
 20
56.21265773570002
 30
0.0
  0
VERTEX
  5
1BD9
  8
3
 10
65.79746951429999
 20
56.57054693549998
 30
0.0
  0
VERTEX
  5
1BDA
  8
3
 10
65.51894872579999
 20
57.00830351819997
 30
0.0
  0
VERTEX
  5
1BDB
  8
3
 10
65.57550765989998
 20
57.46680603160002
 30
0.0
  0
VERTEX
  5
1BDC
  8
3
 10
65.9595077191
 20
57.8841311708
 30
0.0
  0
VERTEX
  5
1BDD
  8
3
 10
66.61908756759999
 20
58.20391686299996
 30
0.0
  0
VERTEX
  5
1BDE
  8
3
 10
67.46516729199999
 20
58.38297427870003
 30
0.0
  0
VERTEX
  5
1BDF
  8
3
 10
68.3834791372
 20
58.3971207216
 30
0.0
  0
VERTEX
  5
1BE0
  8
3
 10
69.25
 20
58.2444456362
 30
0.0
  0
SEQEND
  5
1F71
  8
3
  0
POLYLINE
  5
CA1
  8
3
 66
     1
 10
0.0
 20
0.0
 30
0.0
  0
VERTEX
  5
1BE1
  8
3
 10
69.0275
 20
58.32160187849996
 30
0.0
  0
VERTEX
  5
1BE2
  8
3
 10
69.6303411143
 20
58.0572631444
 30
0.0
  0
VERTEX
  5
1BE3
  8
3
 10
69.98497757299998
 20
57.69769734499999
 30
0.0
  0
VERTEX
  5
1BE4
  8
3
 10
70.0374191901
 20
57.29764511360003
 30
0.0
  0
VERTEX
  5
1BE5
  8
3
 10
69.7796822048
 20
56.9180107761
 30
0.0
  0
VERTEX
  5
1BE6
  8
3
 10
69.25100473659998
 20
56.61659021899999
 30
0.0
  0
VERTEX
  5
1BE7
  8
3
 10
68.53187313769999
 20
56.4392719896
 30
0.0
  0
VERTEX
  5
1BE8
  8
3
 10
67.73176867499998
 20
56.4130511811
 30
0.0
  0
VERTEX
  5
1BE9
  8
3
 10
66.9725
 20
56.54191967369997
 30
0.0
  0
VERTEX
  5
1BEA
  8
3
 10
66.3696588857
 20
56.80625840780004
 30
0.0
  0
VERTEX
  5
1BEB
  8
3
 10
66.01502242699999
 20
57.16582420729998
 30
0.0
  0
VERTEX
  5
1BEC
  8
3
 10
65.9625808099
 20
57.56587643860001
 30
0.0
  0
VERTEX
  5
1BED
  8
3
 10
66.2203177952
 20
57.94551077609998
 30
0.0
  0
VERTEX
  5
1BEE
  8
3
 10
66.74899526339999
 20
58.24693133329998
 30
0.0
  0
VERTEX
  5
1BEF
  8
3
 10
67.46812686229998
 20
58.42424956259998
 30
0.0
  0
VERTEX
  5
1BF0
  8
3
 10
68.26823132499999
 20
58.45047037119997
 30
0.0
  0
VERTEX
  5
1BF1
  8
3
 10
69.0275
 20
58.32160187849996
 30
0.0
  0
SEQEND
  5
1F70
  8
3
  0
POLYLINE
  5
CA2
  8
3
 66
     1
 10
0.0
 20
0.0
 30
0.0
  0
VERTEX
  5
1BF2
  8
3
 10
69.25
 20
58.78413942549997
 30
0.0
  0
VERTEX
  5
1BF3
  8
3
 10
69.94770143630001
 20
58.48526242810004
 30
0.0
  0
VERTEX
  5
1BF4
  8
3
 10
70.3823550011
 20
58.0805485134
 30
0.0
  0
VERTEX
  5
1BF5
  8
3
 10
70.49525832179998
 20
57.6246565381
 30
0.0
  0
VERTEX
  5
1BF6
  8
3
 10
70.27116317950001
 20
57.17915723959999
 30
0.0
  0
VERTEX
  5
1BF7
  8
3
 10
69.7403348649
 20
56.80421776689997
 30
0.0
  0
VERTEX
  5
1BF8
  8
3
 10
68.97446468319998
 20
56.55047577329998
 30
0.0
  0
VERTEX
  5
1BF9
  8
3
 10
68.0769876464
 20
56.4522005211
 30
0.0
  0
VERTEX
  5
1BFA
  8
3
 10
67.16911300129999
 20
56.52266462770001
 30
0.0
  0
VERTEX
  5
1BFB
  8
3
 10
66.37345424949999
 20
56.75235152490001
 30
0.0
  0
VERTEX
  5
1BFC
  8
3
 10
65.79746951429999
 20
57.11024072469996
 30
0.0
  0
VERTEX
  5
1BFD
  8
3
 10
65.51894872579999
 20
57.54799730740001
 30
0.0
  0
VERTEX
  5
1BFE
  8
3
 10
65.57550765989998
 20
58.00649982089999
 30
0.0
  0
VERTEX
  5
1BFF
  8
3
 10
65.9595077191
 20
58.42382495999999
 30
0.0
  0
VERTEX
  5
1C00
  8
3
 10
66.61908756759999
 20
58.74361065229999
 30
0.0
  0
VERTEX
  5
1C01
  8
3
 10
67.46516729199999
 20
58.92266806800001
 30
0.0
  0
VERTEX
  5
1C02
  8
3
 10
68.3834791372
 20
58.93681451089998
 30
0.0
  0
VERTEX
  5
1C03
  8
3
 10
69.25
 20
58.78413942549997
 30
0.0
  0
SEQEND
  5
1F6F
  8
3
  0
POLYLINE
  5
CA3
  8
3
 66
     1
 10
0.0
 20
0.0
 30
0.0
  0
VERTEX
  5
1C04
  8
3
 10
69.25
 20
58.86217897680001
 30
0.0
  0
VERTEX
  5
1C05
  8
3
 10
69.94770143630001
 20
58.56330197950001
 30
0.0
  0
VERTEX
  5
1C06
  8
3
 10
70.3823550011
 20
58.15858806479997
 30
0.0
  0
VERTEX
  5
1C07
  8
3
 10
70.49525832179998
 20
57.70269608940004
 30
0.0
  0
VERTEX
  5
1C08
  8
3
 10
70.27116317950001
 20
57.25719679100001
 30
0.0
  0
VERTEX
  5
1C09
  8
3
 10
69.7403348649
 20
56.88225731829999
 30
0.0
  0
VERTEX
  5
1C0A
  8
3
 10
68.97446468319998
 20
56.6285153247
 30
0.0
  0
VERTEX
  5
1C0B
  8
3
 10
68.0769876464
 20
56.53024007250002
 30
0.0
  0
VERTEX
  5
1C0C
  8
3
 10
67.16911300129999
 20
56.60070417899999
 30
0.0
  0
VERTEX
  5
1C0D
  8
3
 10
66.37345424949999
 20
56.83039107630003
 30
0.0
  0
VERTEX
  5
1C0E
  8
3
 10
65.79746951429999
 20
57.18828027609999
 30
0.0
  0
VERTEX
  5
1C0F
  8
3
 10
65.51894872579999
 20
57.62603685879998
 30
0.0
  0
VERTEX
  5
1C10
  8
3
 10
65.57550765989998
 20
58.08453937220003
 30
0.0
  0
VERTEX
  5
1C11
  8
3
 10
65.9595077191
 20
58.50186451140002
 30
0.0
  0
VERTEX
  5
1C12
  8
3
 10
66.61908756759999
 20
58.82165020359997
 30
0.0
  0
VERTEX
  5
1C13
  8
3
 10
67.46516729199999
 20
59.00070761930004
 30
0.0
  0
VERTEX
  5
1C14
  8
3
 10
68.3834791372
 20
59.01485406220002
 30
0.0
  0
VERTEX
  5
1C15
  8
3
 10
69.25
 20
58.86217897680001
 30
0.0
  0
SEQEND
  5
1F6E
  8
3
  0
POLYLINE
  5
CA4
  8
3
 66
     1
 10
0.0
 20
0.0
 30
0.0
  0
VERTEX
  5
1C16
  8
3
 10
69.0275
 20
58.93933521909997
 30
0.0
  0
VERTEX
  5
1C17
  8
3
 10
69.6303411143
 20
58.67499648500001
 30
0.0
  0
VERTEX
  5
1C18
  8
3
 10
69.98497757299998
 20
58.31543068560001
 30
0.0
  0
VERTEX
  5
1C19
  8
3
 10
70.0374191901
 20
57.91537845420004
 30
0.0
  0
VERTEX
  5
1C1A
  8
3
 10
69.7796822048
 20
57.53574411670002
 30
0.0
  0
VERTEX
  5
1C1B
  8
3
 10
69.25100473659998
 20
57.2343235596
 30
0.0
  0
VERTEX
  5
1C1C
  8
3
 10
68.53187313769999
 20
57.05700533020001
 30
0.0
  0
VERTEX
  5
1C1D
  8
3
 10
67.73176867499998
 20
57.03078452170001
 30
0.0
  0
VERTEX
  5
1C1E
  8
3
 10
66.9725
 20
57.15965301429998
 30
0.0
  0
VERTEX
  5
1C1F
  8
3
 10
66.3696588857
 20
57.4239917484
 30
0.0
  0
VERTEX
  5
1C20
  8
3
 10
66.01502242699999
 20
57.78355754789999
 30
0.0
  0
VERTEX
  5
1C21
  8
3
 10
65.9625808099
 20
58.18360977920003
 30
0.0
  0
VERTEX
  5
1C22
  8
3
 10
66.2203177952
 20
58.56324411669999
 30
0.0
  0
VERTEX
  5
1C23
  8
3
 10
66.74899526339999
 20
58.86466467389999
 30
0.0
  0
VERTEX
  5
1C24
  8
3
 10
67.46812686229998
 20
59.04198290319999
 30
0.0
  0
VERTEX
  5
1C25
  8
3
 10
68.26823132499999
 20
59.06820371179998
 30
0.0
  0
VERTEX
  5
1C26
  8
3
 10
69.0275
 20
58.93933521909997
 30
0.0
  0
SEQEND
  5
1F6D
  8
3
  0
POLYLINE
  5
CA5
  8
3
 66
     1
 10
0.0
 20
0.0
 30
0.0
  0
VERTEX
  5
1C27
  8
3
 10
69.25
 20
59.40187276609998
 30
0.0
  0
VERTEX
  5
1C28
  8
3
 10
69.94770143630001
 20
59.1029957687
 30
0.0
  0
VERTEX
  5
1C29
  8
3
 10
70.3823550011
 20
58.69828185400002
 30
0.0
  0
VERTEX
  5
1C2A
  8
3
 10
70.49525832179998
 20
58.24238987870001
 30
0.0
  0
VERTEX
  5
1C2B
  8
3
 10
70.27116317950001
 20
57.79689058030004
 30
0.0
  0
VERTEX
  5
1C2C
  8
3
 10
69.7403348649
 20
57.42195110749998
 30
0.0
  0
VERTEX
  5
1C2D
  8
3
 10
68.97446468319998
 20
57.16820911389999
 30
0.0
  0
VERTEX
  5
1C2E
  8
3
 10
68.0769876464
 20
57.06993386170001
 30
0.0
  0
VERTEX
  5
1C2F
  8
3
 10
67.16911300129999
 20
57.14039796829996
 30
0.0
  0
VERTEX
  5
1C30
  8
3
 10
66.37345424949999
 20
57.37008486550002
 30
0.0
  0
VERTEX
  5
1C31
  8
3
 10
65.79746951429999
 20
57.72797406529997
 30
0.0
  0
VERTEX
  5
1C32
  8
3
 10
65.51894872579999
 20
58.16573064799996
 30
0.0
  0
VERTEX
  5
1C33
  8
3
 10
65.57550765989998
 20
58.6242331615
 30
0.0
  0
VERTEX
  5
1C34
  8
3
 10
65.9595077191
 20
59.0415583006
 30
0.0
  0
VERTEX
  5
1C35
  8
3
 10
66.61908756759999
 20
59.3613439929
 30
0.0
  0
VERTEX
  5
1C36
  8
3
 10
67.46516729199999
 20
59.54040140859996
 30
0.0
  0
VERTEX
  5
1C37
  8
3
 10
68.3834791372
 20
59.55454785149999
 30
0.0
  0
VERTEX
  5
1C38
  8
3
 10
69.25
 20
59.40187276609998
 30
0.0
  0
SEQEND
  5
1F6C
  8
3
  0
POLYLINE
  5
CA6
  8
3
 66
     1
 10
0.0
 20
0.0
 30
0.0
  0
VERTEX
  5
1C39
  8
3
 10
69.25
 20
59.47991231739996
 30
0.0
  0
VERTEX
  5
1C3A
  8
3
 10
69.94770143630001
 20
59.18103532009997
 30
0.0
  0
VERTEX
  5
1C3B
  8
3
 10
70.3823550011
 20
58.77632140539998
 30
0.0
  0
VERTEX
  5
1C3C
  8
3
 10
70.49525832179998
 20
58.32042942999999
 30
0.0
  0
VERTEX
  5
1C3D
  8
3
 10
70.27116317950001
 20
57.87493013160002
 30
0.0
  0
VERTEX
  5
1C3E
  8
3
 10
69.7403348649
 20
57.4999906589
 30
0.0
  0
VERTEX
  5
1C3F
  8
3
 10
68.97446468319998
 20
57.24624866530002
 30
0.0
  0
VERTEX
  5
1C40
  8
3
 10
68.0769876464
 20
57.14797341310003
 30
0.0
  0
VERTEX
  5
1C41
  8
3
 10
67.16911300129999
 20
57.2184375196
 30
0.0
  0
VERTEX
  5
1C42
  8
3
 10
66.37345424949999
 20
57.44812441690004
 30
0.0
  0
VERTEX
  5
1C43
  8
3
 10
65.79746951429999
 20
57.8060136167
 30
0.0
  0
VERTEX
  5
1C44
  8
3
 10
65.51894872579999
 20
58.24377019939999
 30
0.0
  0
VERTEX
  5
1C45
  8
3
 10
65.57550765989998
 20
58.70227271289997
 30
0.0
  0
VERTEX
  5
1C46
  8
3
 10
65.9595077191
 20
59.11959785200003
 30
0.0
  0
VERTEX
  5
1C47
  8
3
 10
66.61908756759999
 20
59.43938354419998
 30
0.0
  0
VERTEX
  5
1C48
  8
3
 10
67.46516729199999
 20
59.6184409599
 30
0.0
  0
VERTEX
  5
1C49
  8
3
 10
68.3834791372
 20
59.63258740279997
 30
0.0
  0
VERTEX
  5
1C4A
  8
3
 10
69.25
 20
59.47991231739996
 30
0.0
  0
SEQEND
  5
1F6B
  8
3
  0
POLYLINE
  5
CA7
  8
3
 66
     1
 10
0.0
 20
0.0
 30
0.0
  0
VERTEX
  5
1C4B
  8
3
 10
69.0275
 20
59.55706855969999
 30
0.0
  0
VERTEX
  5
1C4C
  8
3
 10
69.6303411143
 20
59.29272982560002
 30
0.0
  0
VERTEX
  5
1C4D
  8
3
 10
69.98497757299998
 20
58.93316402620002
 30
0.0
  0
VERTEX
  5
1C4E
  8
3
 10
70.0374191901
 20
58.53311179479999
 30
0.0
  0
VERTEX
  5
1C4F
  8
3
 10
69.7796822048
 20
58.15347745729997
 30
0.0
  0
VERTEX
  5
1C50
  8
3
 10
69.25100473659998
 20
57.85205690020001
 30
0.0
  0
VERTEX
  5
1C51
  8
3
 10
68.53187313769999
 20
57.67473867079997
 30
0.0
  0
VERTEX
  5
1C52
  8
3
 10
67.73176867499998
 20
57.64851786230003
 30
0.0
  0
VERTEX
  5
1C53
  8
3
 10
66.9725
 20
57.77738635500003
 30
0.0
  0
VERTEX
  5
1C54
  8
3
 10
66.3696588857
 20
58.04172508900001
 30
0.0
  0
VERTEX
  5
1C55
  8
3
 10
66.01502242699999
 20
58.4012908885
 30
0.0
  0
VERTEX
  5
1C56
  8
3
 10
65.9625808099
 20
58.80134311980004
 30
0.0
  0
VERTEX
  5
1C57
  8
3
 10
66.2203177952
 20
59.1809774573
 30
0.0
  0
VERTEX
  5
1C58
  8
3
 10
66.74899526339999
 20
59.48239801450001
 30
0.0
  0
VERTEX
  5
1C59
  8
3
 10
67.46812686229998
 20
59.65971624389999
 30
0.0
  0
VERTEX
  5
1C5A
  8
3
 10
68.26823132499999
 20
59.68593705239999
 30
0.0
  0
VERTEX
  5
1C5B
  8
3
 10
69.0275
 20
59.55706855969999
 30
0.0
  0
SEQEND
  5
1F6A
  8
3
  0
LINE
  5
CA8
  8
3
 10
68.0
 20
57.27314670359999
 30
0.0
 11
66.75
 21
56.91230278540002
 31
0.0
  0
POLYLINE
  5
CA9
  8
3
 66
     1
 10
0.0
 20
0.0
 30
0.0
  0
VERTEX
  5
1C5C
  8
3
 10
69.12805156339999
 20
59.76609720460004
 30
0.0
  0
VERTEX
  5
1C5D
  8
3
 10
68.34606739219998
 20
59.90387749960001
 30
0.0
  0
VERTEX
  5
1C5E
  8
3
 10
67.51734490199999
 20
59.89111116600003
 30
0.0
  0
VERTEX
  5
1C5F
  8
3
 10
66.7538076573
 20
59.72952236780003
 30
0.0
  0
VERTEX
  5
1C60
  8
3
 10
66.1585755939
 20
59.44093456770003
 30
0.0
  0
VERTEX
  5
1C61
  8
3
 10
65.8120381002
 20
59.06432314720001
 30
0.0
  0
VERTEX
  5
1C62
  8
3
 10
65.76099698499999
 20
58.6505515655
 30
0.0
  0
VERTEX
  5
1C63
  8
3
 10
66.0123456337
 20
58.25550196750004
 30
0.0
  0
VERTEX
  5
1C64
  8
3
 10
66.5321380185
 20
57.93252799039999
 30
0.0
  0
VERTEX
  5
1C65
  8
3
 10
67.2501732977
 20
57.7252490596
 30
0.0
  0
VERTEX
  5
1C66
  8
3
 10
68.06947682789999
 20
57.66165934309998
 30
0.0
  0
VERTEX
  5
1C67
  8
3
 10
68.8793971275
 20
57.75034698460001
 30
0.0
  0
VERTEX
  5
1C68
  8
3
 10
69.57054997219998
 20
57.97933422670002
 30
0.0
  0
VERTEX
  5
1C69
  8
3
 10
70.04959134039999
 20
58.31769507339999
 30
0.0
  0
VERTEX
  5
1C6A
  8
3
 10
70.2518240409
 20
58.71973201750001
 30
0.0
  0
VERTEX
  5
1C6B
  8
3
 10
70.14993542689999
 20
59.13114774190001
 30
0.0
  0
VERTEX
  5
1C6C
  8
3
 10
69.75768612019999
 20
59.49637827329997
 30
0.0
  0
VERTEX
  5
1C6D
  8
3
 10
69.12805156339999
 20
59.76609720460004
 30
0.0
  0
SEQEND
  5
1F69
  8
3
  0
LINE
  5
CAA
  8
3
 10
69.25
 20
56.91230278540002
 30
0.0
 11
68.0
 21
57.27314670359999
 31
0.0
  0
LINE
  5
CAB
  8
3
 10
69.25
 20
59.25057137560003
 30
0.0
 11
68.0
 21
59.61141529380001
 31
0.0
  0
POLYLINE
  5
CAC
  8
3
 66
     1
 10
0.0
 20
0.0
 30
0.0
  0
VERTEX
  5
1C6E
  8
3
 10
69.7796822048
 20
58.3759774573
 30
0.0
  0
VERTEX
  5
1C6F
  8
3
 10
69.25100473659998
 20
58.07455690019998
 30
0.0
  0
VERTEX
  5
1C70
  8
3
 10
68.53187313769999
 20
57.89723867079999
 30
0.0
  0
VERTEX
  5
1C71
  8
3
 10
67.73176867499998
 20
57.87101786229999
 30
0.0
  0
VERTEX
  5
1C72
  8
3
 10
66.9725
 20
57.999886355
 30
0.0
  0
VERTEX
  5
1C73
  8
3
 10
66.3696588857
 20
58.26422508900004
 30
0.0
  0
VERTEX
  5
1C74
  8
3
 10
66.01502242699999
 20
58.62379088849997
 30
0.0
  0
VERTEX
  5
1C75
  8
3
 10
65.9625808099
 20
59.02384311980001
 30
0.0
  0
VERTEX
  5
1C76
  8
3
 10
66.2203177952
 20
59.40347745729997
 30
0.0
  0
VERTEX
  5
1C77
  8
3
 10
66.74899526339999
 20
59.70489801449997
 30
0.0
  0
VERTEX
  5
1C78
  8
3
 10
67.46812686229998
 20
59.88221624390002
 30
0.0
  0
VERTEX
  5
1C79
  8
3
 10
68.26823132499999
 20
59.90843705239996
 30
0.0
  0
VERTEX
  5
1C7A
  8
3
 10
69.0275
 20
59.77956855970001
 30
0.0
  0
VERTEX
  5
1C7B
  8
3
 10
69.6303411143
 20
59.51522982559999
 30
0.0
  0
VERTEX
  5
1C7C
  8
3
 10
69.98497757299998
 20
59.15566402619999
 30
0.0
  0
VERTEX
  5
1C7D
  8
3
 10
70.0374191901
 20
58.75561179480002
 30
0.0
  0
VERTEX
  5
1C7E
  8
3
 10
69.7796822048
 20
58.3759774573
 30
0.0
  0
SEQEND
  5
1F68
  8
3
  0
LINE
  5
CAD
  8
3
 10
68.0
 20
59.61141529380001
 30
0.0
 11
66.75
 21
59.25057137560003
 31
0.0
  0
LINE
  5
CAE
  8
3
 10
69.25
 20
56.91230278540002
 30
0.0
 11
69.25
 21
59.25057137560003
 31
0.0
  0
LINE
  5
CAF
  8
3
 10
69.25
 20
56.91230278540002
 30
0.0
 11
69.25
 21
56.19061494889996
 31
0.0
  0
LINE
  5
CB0
  8
3
 10
66.75
 20
56.91230278540002
 30
0.0
 11
66.75
 21
59.25057137560003
 31
0.0
  0
LINE
  5
CB1
  8
3
 10
66.75
 20
56.19061494889996
 30
0.0
 11
66.75
 21
56.91230278540002
 31
0.0
  0
LINE
  5
CB2
  8
3
 10
68.0
 20
58.1680396209
 30
0.0
 11
69.25
 21
58.52888353910004
 31
0.0
  0
LINE
  5
CB3
  8
3
 10
68.0
 20
55.8297710306
 30
0.0
 11
69.25
 21
56.19061494889996
 31
0.0
  0
LINE
  5
CB4
  8
3
 10
68.0
 20
58.1680396209
 30
0.0
 11
66.75
 21
58.52888353910004
 31
0.0
  0
LINE
  5
CB5
  8
3
 10
68.0
 20
55.8297710306
 30
0.0
 11
66.75
 21
56.19061494889996
 31
0.0
  0
POLYLINE
  5
CB6
  8
3
 66
     1
 10
0.0
 20
0.0
 30
0.0
  0
VERTEX
  5
1C7F
  8
3
 10
69.5155444566
 20
-54.1310750346
 30
0.0
  0
VERTEX
  5
1C80
  8
3
 10
69.0653325008
 20
-54.38775920739999
 30
0.0
  0
VERTEX
  5
1C81
  8
3
 10
68.4529333289
 20
-54.5387601326
 30
0.0
  0
VERTEX
  5
1C82
  8
3
 10
67.7715791636
 20
-54.5610892883
 30
0.0
  0
VERTEX
  5
1C83
  8
3
 10
67.125
 20
-54.45134726290001
 30
0.0
  0
VERTEX
  5
1C84
  8
3
 10
66.6116316545
 20
-54.22624128500001
 30
0.0
  0
VERTEX
  5
1C85
  8
3
 10
66.309629804
 20
-53.92004169910001
 30
0.0
  0
VERTEX
  5
1C86
  8
3
 10
66.26497149259998
 20
-53.5793646164
 30
0.0
  0
VERTEX
  5
1C87
  8
3
 10
66.4844555434
 20
-53.2560750346
 30
0.0
  0
VERTEX
  5
1C88
  8
3
 10
66.9346674992
 20
-52.9993908619
 30
0.0
  0
VERTEX
  5
1C89
  8
3
 10
67.5470666711
 20
-52.8483899366
 30
0.0
  0
VERTEX
  5
1C8A
  8
3
 10
68.2284208364
 20
-52.82606078089998
 30
0.0
  0
VERTEX
  5
1C8B
  8
3
 10
68.875
 20
-52.93580280629999
 30
0.0
  0
VERTEX
  5
1C8C
  8
3
 10
69.3883683455
 20
-53.16090878429998
 30
0.0
  0
VERTEX
  5
1C8D
  8
3
 10
69.690370196
 20
-53.46710837019998
 30
0.0
  0
VERTEX
  5
1C8E
  8
3
 10
69.73502850739999
 20
-53.80778545279998
 30
0.0
  0
VERTEX
  5
1C8F
  8
3
 10
69.5155444566
 20
-54.1310750346
 30
0.0
  0
SEQEND
  5
1F67
  8
3
  0
POLYLINE
  5
CB7
  8
3
 66
     1
 10
0.0
 20
0.0
 30
0.0
  0
VERTEX
  5
1C90
  8
3
 10
66.8416336283
 20
-55.1875546924
 30
0.0
  0
VERTEX
  5
1C91
  8
3
 10
66.19507852319998
 20
-54.91058744200001
 30
0.0
  0
VERTEX
  5
1C92
  8
3
 10
65.79228806500001
 20
-54.5355418508
 30
0.0
  0
VERTEX
  5
1C93
  8
3
 10
65.68766133699998
 20
-54.1130699041
 30
0.0
  0
VERTEX
  5
1C94
  8
3
 10
65.8953287585
 20
-53.70022877939999
 30
0.0
  0
VERTEX
  5
1C95
  8
3
 10
66.3872436936
 20
-53.35277495809999
 30
0.0
  0
VERTEX
  5
1C96
  8
3
 10
67.0969703044
 20
-53.11763400410001
 30
0.0
  0
VERTEX
  5
1C97
  8
3
 10
67.9286560795
 20
-53.02656300619998
 30
0.0
  0
VERTEX
  5
1C98
  8
3
 10
68.7699772464
 20
-53.09186160740001
 30
0.0
  0
VERTEX
  5
1C99
  8
3
 10
69.50730871959999
 20
-53.3047108696
 30
0.0
  0
VERTEX
  5
1C9A
  8
3
 10
70.04106979790001
 20
-53.63636432070001
 30
0.0
  0
VERTEX
  5
1C9B
  8
3
 10
70.29917308999998
 20
-54.0420303242
 30
0.0
  0
VERTEX
  5
1C9C
  8
3
 10
70.24676031619998
 20
-54.4669214386
 30
0.0
  0
VERTEX
  5
1C9D
  8
3
 10
69.890910112
 20
-54.85365376440001
 30
0.0
  0
VERTEX
  5
1C9E
  8
3
 10
69.27968201919998
 20
-55.14999695809999
 30
0.0
  0
VERTEX
  5
1C9F
  8
3
 10
68.49562577879999
 20
-55.31592822919998
 30
0.0
  0
VERTEX
  5
1CA0
  8
3
 10
67.6446325306
 20
-55.3290376402
 30
0.0
  0
VERTEX
  5
1CA1
  8
3
 10
66.8416336283
 20
-55.1875546924
 30
0.0
  0
SEQEND
  5
1F66
  8
3
  0
POLYLINE
  5
CB8
  8
3
 66
     1
 10
0.0
 20
0.0
 30
0.0
  0
VERTEX
  5
1CA2
  8
3
 10
69.0275
 20
-53.45325297069999
 30
0.0
  0
VERTEX
  5
1CA3
  8
3
 10
69.6303411143
 20
-53.71759170479999
 30
0.0
  0
VERTEX
  5
1CA4
  8
3
 10
69.98497757299998
 20
-54.07715750429998
 30
0.0
  0
VERTEX
  5
1CA5
  8
3
 10
70.0374191901
 20
-54.47720973560001
 30
0.0
  0
VERTEX
  5
1CA6
  8
3
 10
69.7796822048
 20
-54.85684407309998
 30
0.0
  0
VERTEX
  5
1CA7
  8
3
 10
69.25100473659998
 20
-55.15826463029998
 30
0.0
  0
VERTEX
  5
1CA8
  8
3
 10
68.53187313769999
 20
-55.33558285959998
 30
0.0
  0
VERTEX
  5
1CA9
  8
3
 10
67.73176867499998
 20
-55.3618036682
 30
0.0
  0
VERTEX
  5
1CAA
  8
3
 10
66.9725
 20
-55.23293517550002
 30
0.0
  0
VERTEX
  5
1CAB
  8
3
 10
66.3696588857
 20
-54.9685964414
 30
0.0
  0
VERTEX
  5
1CAC
  8
3
 10
66.01502242699999
 20
-54.60903064199999
 30
0.0
  0
VERTEX
  5
1CAD
  8
3
 10
65.9625808099
 20
-54.2089784106
 30
0.0
  0
VERTEX
  5
1CAE
  8
3
 10
66.2203177952
 20
-53.8293440731
 30
0.0
  0
VERTEX
  5
1CAF
  8
3
 10
66.74899526339999
 20
-53.52792351599999
 30
0.0
  0
VERTEX
  5
1CB0
  8
3
 10
67.46812686229998
 20
-53.3506052866
 30
0.0
  0
VERTEX
  5
1CB1
  8
3
 10
68.26823132499999
 20
-53.3243844781
 30
0.0
  0
VERTEX
  5
1CB2
  8
3
 10
69.0275
 20
-53.45325297069999
 30
0.0
  0
SEQEND
  5
1F65
  8
3
  0
POLYLINE
  5
CB9
  8
3
 66
     1
 10
0.0
 20
0.0
 30
0.0
  0
VERTEX
  5
1CB3
  8
3
 10
69.25
 20
-53.53040921299998
 30
0.0
  0
VERTEX
  5
1CB4
  8
3
 10
69.94770143630001
 20
-53.8292862104
 30
0.0
  0
VERTEX
  5
1CB5
  8
3
 10
70.3823550011
 20
-54.23400012510001
 30
0.0
  0
VERTEX
  5
1CB6
  8
3
 10
70.49525832179998
 20
-54.68989210040002
 30
0.0
  0
VERTEX
  5
1CB7
  8
3
 10
70.27116317950001
 20
-55.13539139879998
 30
0.0
  0
VERTEX
  5
1CB8
  8
3
 10
69.7403348649
 20
-55.51033087159999
 30
0.0
  0
VERTEX
  5
1CB9
  8
3
 10
68.97446468319998
 20
-55.76407286519998
 30
0.0
  0
VERTEX
  5
1CBA
  8
3
 10
68.0769876464
 20
-55.86234811740002
 30
0.0
  0
VERTEX
  5
1CBB
  8
3
 10
67.16911300129999
 20
-55.7918840108
 30
0.0
  0
VERTEX
  5
1CBC
  8
3
 10
66.37345424949999
 20
-55.56219711360001
 30
0.0
  0
VERTEX
  5
1CBD
  8
3
 10
65.79746951429999
 20
-55.20430791379999
 30
0.0
  0
VERTEX
  5
1CBE
  8
3
 10
65.51894872579999
 20
-54.7665513311
 30
0.0
  0
VERTEX
  5
1CBF
  8
3
 10
65.57550765989998
 20
-54.3080488176
 30
0.0
  0
VERTEX
  5
1CC0
  8
3
 10
65.9595077191
 20
-53.8907236785
 30
0.0
  0
VERTEX
  5
1CC1
  8
3
 10
66.61908756759999
 20
-53.57093798619999
 30
0.0
  0
VERTEX
  5
1CC2
  8
3
 10
67.46516729199999
 20
-53.39188057050001
 30
0.0
  0
VERTEX
  5
1CC3
  8
3
 10
68.3834791372
 20
-53.37773412759998
 30
0.0
  0
VERTEX
  5
1CC4
  8
3
 10
69.25
 20
-53.53040921299998
 30
0.0
  0
SEQEND
  5
1F64
  8
3
  0
POLYLINE
  5
CBA
  8
3
 66
     1
 10
0.0
 20
0.0
 30
0.0
  0
VERTEX
  5
1CC5
  8
3
 10
69.25
 20
-53.60844876440001
 30
0.0
  0
VERTEX
  5
1CC6
  8
3
 10
69.94770143630001
 20
-53.90732576170001
 30
0.0
  0
VERTEX
  5
1CC7
  8
3
 10
70.3823550011
 20
-54.31203967649998
 30
0.0
  0
VERTEX
  5
1CC8
  8
3
 10
70.49525832179998
 20
-54.76793165179998
 30
0.0
  0
VERTEX
  5
1CC9
  8
3
 10
70.27116317950001
 20
-55.21343095020001
 30
0.0
  0
VERTEX
  5
1CCA
  8
3
 10
69.7403348649
 20
-55.5883704229
 30
0.0
  0
VERTEX
  5
1CCB
  8
3
 10
68.97446468319998
 20
-55.84211241650002
 30
0.0
  0
VERTEX
  5
1CCC
  8
3
 10
68.0769876464
 20
-55.9403876687
 30
0.0
  0
VERTEX
  5
1CCD
  8
3
 10
67.16911300129999
 20
-55.8699235622
 30
0.0
  0
VERTEX
  5
1CCE
  8
3
 10
66.37345424949999
 20
-55.64023666489999
 30
0.0
  0
VERTEX
  5
1CCF
  8
3
 10
65.79746951429999
 20
-55.2823474651
 30
0.0
  0
VERTEX
  5
1CD0
  8
3
 10
65.51894872579999
 20
-54.84459088239998
 30
0.0
  0
VERTEX
  5
1CD1
  8
3
 10
65.57550765989998
 20
-54.38608836899999
 30
0.0
  0
VERTEX
  5
1CD2
  8
3
 10
65.9595077191
 20
-53.9687632298
 30
0.0
  0
VERTEX
  5
1CD3
  8
3
 10
66.61908756759999
 20
-53.64897753759999
 30
0.0
  0
VERTEX
  5
1CD4
  8
3
 10
67.46516729199999
 20
-53.4699201219
 30
0.0
  0
VERTEX
  5
1CD5
  8
3
 10
68.3834791372
 20
-53.455773679
 30
0.0
  0
VERTEX
  5
1CD6
  8
3
 10
69.25
 20
-53.60844876440001
 30
0.0
  0
SEQEND
  5
1F63
  8
3
  0
POLYLINE
  5
CBB
  8
3
 66
     1
 10
0.0
 20
0.0
 30
0.0
  0
VERTEX
  5
1CD7
  8
3
 10
69.0275
 20
-54.0709863113
 30
0.0
  0
VERTEX
  5
1CD8
  8
3
 10
69.6303411143
 20
-54.3353250454
 30
0.0
  0
VERTEX
  5
1CD9
  8
3
 10
69.98497757299998
 20
-54.69489084489999
 30
0.0
  0
VERTEX
  5
1CDA
  8
3
 10
70.0374191901
 20
-55.0949430762
 30
0.0
  0
VERTEX
  5
1CDB
  8
3
 10
69.7796822048
 20
-55.47457741369999
 30
0.0
  0
VERTEX
  5
1CDC
  8
3
 10
69.25100473659998
 20
-55.77599797089999
 30
0.0
  0
VERTEX
  5
1CDD
  8
3
 10
68.53187313769999
 20
-55.95331620019999
 30
0.0
  0
VERTEX
  5
1CDE
  8
3
 10
67.73176867499998
 20
-55.97953700879998
 30
0.0
  0
VERTEX
  5
1CDF
  8
3
 10
66.9725
 20
-55.8506685161
 30
0.0
  0
VERTEX
  5
1CE0
  8
3
 10
66.3696588857
 20
-55.58632978200001
 30
0.0
  0
VERTEX
  5
1CE1
  8
3
 10
66.01502242699999
 20
-55.2267639826
 30
0.0
  0
VERTEX
  5
1CE2
  8
3
 10
65.9625808099
 20
-54.82671175119998
 30
0.0
  0
VERTEX
  5
1CE3
  8
3
 10
66.2203177952
 20
-54.44707741370001
 30
0.0
  0
VERTEX
  5
1CE4
  8
3
 10
66.74899526339999
 20
-54.1456568566
 30
0.0
  0
VERTEX
  5
1CE5
  8
3
 10
67.46812686229998
 20
-53.96833862720001
 30
0.0
  0
VERTEX
  5
1CE6
  8
3
 10
68.26823132499999
 20
-53.94211781870001
 30
0.0
  0
VERTEX
  5
1CE7
  8
3
 10
69.0275
 20
-54.0709863113
 30
0.0
  0
SEQEND
  5
1F62
  8
3
  0
POLYLINE
  5
CBC
  8
3
 66
     1
 10
0.0
 20
0.0
 30
0.0
  0
VERTEX
  5
1CE8
  8
3
 10
69.25
 20
-54.1481425536
 30
0.0
  0
VERTEX
  5
1CE9
  8
3
 10
69.94770143630001
 20
-54.44701955099998
 30
0.0
  0
VERTEX
  5
1CEA
  8
3
 10
70.3823550011
 20
-54.85173346569999
 30
0.0
  0
VERTEX
  5
1CEB
  8
3
 10
70.49525832179998
 20
-55.307625441
 30
0.0
  0
VERTEX
  5
1CEC
  8
3
 10
70.27116317950001
 20
-55.75312473939999
 30
0.0
  0
VERTEX
  5
1CED
  8
3
 10
69.7403348649
 20
-56.1280642122
 30
0.0
  0
VERTEX
  5
1CEE
  8
3
 10
68.97446468319998
 20
-56.38180620579999
 30
0.0
  0
VERTEX
  5
1CEF
  8
3
 10
68.0769876464
 20
-56.480081458
 30
0.0
  0
VERTEX
  5
1CF0
  8
3
 10
67.16911300129999
 20
-56.40961735140002
 30
0.0
  0
VERTEX
  5
1CF1
  8
3
 10
66.37345424949999
 20
-56.17993045419999
 30
0.0
  0
VERTEX
  5
1CF2
  8
3
 10
65.79746951429999
 20
-55.82204125440001
 30
0.0
  0
VERTEX
  5
1CF3
  8
3
 10
65.51894872579999
 20
-55.38428467170002
 30
0.0
  0
VERTEX
  5
1CF4
  8
3
 10
65.57550765989998
 20
-54.92578215819998
 30
0.0
  0
VERTEX
  5
1CF5
  8
3
 10
65.9595077191
 20
-54.50845701909998
 30
0.0
  0
VERTEX
  5
1CF6
  8
3
 10
66.61908756759999
 20
-54.18867132679998
 30
0.0
  0
VERTEX
  5
1CF7
  8
3
 10
67.46516729199999
 20
-54.00961391109999
 30
0.0
  0
VERTEX
  5
1CF8
  8
3
 10
68.3834791372
 20
-53.99546746819999
 30
0.0
  0
VERTEX
  5
1CF9
  8
3
 10
69.25
 20
-54.1481425536
 30
0.0
  0
SEQEND
  5
1F61
  8
3
  0
POLYLINE
  5
CBD
  8
3
 66
     1
 10
0.0
 20
0.0
 30
0.0
  0
VERTEX
  5
1CFA
  8
3
 10
69.25
 20
-54.22618210499999
 30
0.0
  0
VERTEX
  5
1CFB
  8
3
 10
69.94770143630001
 20
-54.52505910229999
 30
0.0
  0
VERTEX
  5
1CFC
  8
3
 10
70.3823550011
 20
-54.92977301709999
 30
0.0
  0
VERTEX
  5
1CFD
  8
3
 10
70.49525832179998
 20
-55.3856649924
 30
0.0
  0
VERTEX
  5
1CFE
  8
3
 10
70.27116317950001
 20
-55.83116429080002
 30
0.0
  0
VERTEX
  5
1CFF
  8
3
 10
69.7403348649
 20
-56.20610376349998
 30
0.0
  0
VERTEX
  5
1D00
  8
3
 10
68.97446468319998
 20
-56.4598457571
 30
0.0
  0
VERTEX
  5
1D01
  8
3
 10
68.0769876464
 20
-56.55812100930001
 30
0.0
  0
VERTEX
  5
1D02
  8
3
 10
67.16911300129999
 20
-56.48765690279998
 30
0.0
  0
VERTEX
  5
1D03
  8
3
 10
66.37345424949999
 20
-56.2579700055
 30
0.0
  0
VERTEX
  5
1D04
  8
3
 10
65.79746951429999
 20
-55.90008080569999
 30
0.0
  0
VERTEX
  5
1D05
  8
3
 10
65.51894872579999
 20
-55.462324223
 30
0.0
  0
VERTEX
  5
1D06
  8
3
 10
65.57550765989998
 20
-55.0038217096
 30
0.0
  0
VERTEX
  5
1D07
  8
3
 10
65.9595077191
 20
-54.58649657040002
 30
0.0
  0
VERTEX
  5
1D08
  8
3
 10
66.61908756759999
 20
-54.2667108782
 30
0.0
  0
VERTEX
  5
1D09
  8
3
 10
67.46516729199999
 20
-54.08765346249999
 30
0.0
  0
VERTEX
  5
1D0A
  8
3
 10
68.3834791372
 20
-54.07350701960002
 30
0.0
  0
VERTEX
  5
1D0B
  8
3
 10
69.25
 20
-54.22618210499999
 30
0.0
  0
SEQEND
  5
1F60
  8
3
  0
POLYLINE
  5
CBE
  8
3
 66
     1
 10
0.0
 20
0.0
 30
0.0
  0
VERTEX
  5
1D0C
  8
3
 10
69.0275
 20
-54.68871965189999
 30
0.0
  0
VERTEX
  5
1D0D
  8
3
 10
69.6303411143
 20
-54.95305838600001
 30
0.0
  0
VERTEX
  5
1D0E
  8
3
 10
69.98497757299998
 20
-55.3126241855
 30
0.0
  0
VERTEX
  5
1D0F
  8
3
 10
70.0374191901
 20
-55.71267641679998
 30
0.0
  0
VERTEX
  5
1D10
  8
3
 10
69.7796822048
 20
-56.0923107543
 30
0.0
  0
VERTEX
  5
1D11
  8
3
 10
69.25100473659998
 20
-56.39373131150001
 30
0.0
  0
VERTEX
  5
1D12
  8
3
 10
68.53187313769999
 20
-56.5710495408
 30
0.0
  0
VERTEX
  5
1D13
  8
3
 10
67.73176867499998
 20
-56.59727034939999
 30
0.0
  0
VERTEX
  5
1D14
  8
3
 10
66.9725
 20
-56.46840185669998
 30
0.0
  0
VERTEX
  5
1D15
  8
3
 10
66.3696588857
 20
-56.20406312259999
 30
0.0
  0
VERTEX
  5
1D16
  8
3
 10
66.01502242699999
 20
-55.84449732320002
 30
0.0
  0
VERTEX
  5
1D17
  8
3
 10
65.9625808099
 20
-55.44444509179999
 30
0.0
  0
VERTEX
  5
1D18
  8
3
 10
66.2203177952
 20
-55.0648107543
 30
0.0
  0
VERTEX
  5
1D19
  8
3
 10
66.74899526339999
 20
-54.76339019720001
 30
0.0
  0
VERTEX
  5
1D1A
  8
3
 10
67.46812686229998
 20
-54.5860719678
 30
0.0
  0
VERTEX
  5
1D1B
  8
3
 10
68.26823132499999
 20
-54.5598511593
 30
0.0
  0
VERTEX
  5
1D1C
  8
3
 10
69.0275
 20
-54.68871965189999
 30
0.0
  0
SEQEND
  5
1F5F
  8
3
  0
POLYLINE
  5
CBF
  8
3
 66
     1
 10
0.0
 20
0.0
 30
0.0
  0
VERTEX
  5
1D1D
  8
3
 10
69.25
 20
-54.76587589420001
 30
0.0
  0
VERTEX
  5
1D1E
  8
3
 10
69.94770143630001
 20
-55.06475289159999
 30
0.0
  0
VERTEX
  5
1D1F
  8
3
 10
70.3823550011
 20
-55.46946680629998
 30
0.0
  0
VERTEX
  5
1D20
  8
3
 10
70.49525832179998
 20
-55.92535878159998
 30
0.0
  0
VERTEX
  5
1D21
  8
3
 10
70.27116317950001
 20
-56.37085808009999
 30
0.0
  0
VERTEX
  5
1D22
  8
3
 10
69.7403348649
 20
-56.74579755280001
 30
0.0
  0
VERTEX
  5
1D23
  8
3
 10
68.97446468319998
 20
-56.9995395464
 30
0.0
  0
VERTEX
  5
1D24
  8
3
 10
68.0769876464
 20
-57.09781479859998
 30
0.0
  0
VERTEX
  5
1D25
  8
3
 10
67.16911300129999
 20
-57.027350692
 30
0.0
  0
VERTEX
  5
1D26
  8
3
 10
66.37345424949999
 20
-56.7976637948
 30
0.0
  0
VERTEX
  5
1D27
  8
3
 10
65.79746951429999
 20
-56.43977459500002
 30
0.0
  0
VERTEX
  5
1D28
  8
3
 10
65.51894872579999
 20
-56.0020180123
 30
0.0
  0
VERTEX
  5
1D29
  8
3
 10
65.57550765989998
 20
-55.54351549879999
 30
0.0
  0
VERTEX
  5
1D2A
  8
3
 10
65.9595077191
 20
-55.12619035969999
 30
0.0
  0
VERTEX
  5
1D2B
  8
3
 10
66.61908756759999
 20
-54.80640466739999
 30
0.0
  0
VERTEX
  5
1D2C
  8
3
 10
67.46516729199999
 20
-54.6273472517
 30
0.0
  0
VERTEX
  5
1D2D
  8
3
 10
68.3834791372
 20
-54.6132008088
 30
0.0
  0
VERTEX
  5
1D2E
  8
3
 10
69.25
 20
-54.76587589420001
 30
0.0
  0
SEQEND
  5
1F5E
  8
3
  0
POLYLINE
  5
CC0
  8
3
 66
     1
 10
0.0
 20
0.0
 30
0.0
  0
VERTEX
  5
1D2F
  8
3
 10
69.25
 20
-54.8439154456
 30
0.0
  0
VERTEX
  5
1D30
  8
3
 10
69.94770143630001
 20
-55.1427924429
 30
0.0
  0
VERTEX
  5
1D31
  8
3
 10
70.3823550011
 20
-55.5475063577
 30
0.0
  0
VERTEX
  5
1D32
  8
3
 10
70.49525832179998
 20
-56.00339833300001
 30
0.0
  0
VERTEX
  5
1D33
  8
3
 10
70.27116317950001
 20
-56.4488976314
 30
0.0
  0
VERTEX
  5
1D34
  8
3
 10
69.7403348649
 20
-56.82383710409999
 30
0.0
  0
VERTEX
  5
1D35
  8
3
 10
68.97446468319998
 20
-57.07757909769998
 30
0.0
  0
VERTEX
  5
1D36
  8
3
 10
68.0769876464
 20
-57.17585434989999
 30
0.0
  0
VERTEX
  5
1D37
  8
3
 10
67.16911300129999
 20
-57.1053902434
 30
0.0
  0
VERTEX
  5
1D38
  8
3
 10
66.37345424949999
 20
-56.87570334610001
 30
0.0
  0
VERTEX
  5
1D39
  8
3
 10
65.79746951429999
 20
-56.5178141463
 30
0.0
  0
VERTEX
  5
1D3A
  8
3
 10
65.51894872579999
 20
-56.08005756360001
 30
0.0
  0
VERTEX
  5
1D3B
  8
3
 10
65.57550765989998
 20
-55.62155505020002
 30
0.0
  0
VERTEX
  5
1D3C
  8
3
 10
65.9595077191
 20
-55.204229911
 30
0.0
  0
VERTEX
  5
1D3D
  8
3
 10
66.61908756759999
 20
-54.88444421880001
 30
0.0
  0
VERTEX
  5
1D3E
  8
3
 10
67.46516729199999
 20
-54.7053868031
 30
0.0
  0
VERTEX
  5
1D3F
  8
3
 10
68.3834791372
 20
-54.6912403602
 30
0.0
  0
VERTEX
  5
1D40
  8
3
 10
69.25
 20
-54.8439154456
 30
0.0
  0
SEQEND
  5
1F5D
  8
3
  0
POLYLINE
  5
CC1
  8
3
 66
     1
 10
0.0
 20
0.0
 30
0.0
  0
VERTEX
  5
1D41
  8
3
 10
69.0275
 20
-55.3064529925
 30
0.0
  0
VERTEX
  5
1D42
  8
3
 10
69.6303411143
 20
-55.57079172659999
 30
0.0
  0
VERTEX
  5
1D43
  8
3
 10
69.98497757299998
 20
-55.93035752610001
 30
0.0
  0
VERTEX
  5
1D44
  8
3
 10
70.0374191901
 20
-56.33040975739999
 30
0.0
  0
VERTEX
  5
1D45
  8
3
 10
69.7796822048
 20
-56.71004409490001
 30
0.0
  0
VERTEX
  5
1D46
  8
3
 10
69.25100473659998
 20
-57.01146465210002
 30
0.0
  0
VERTEX
  5
1D47
  8
3
 10
68.53187313769999
 20
-57.18878288140002
 30
0.0
  0
VERTEX
  5
1D48
  8
3
 10
67.73176867499998
 20
-57.21500369
 30
0.0
  0
VERTEX
  5
1D49
  8
3
 10
66.9725
 20
-57.0861351973
 30
0.0
  0
VERTEX
  5
1D4A
  8
3
 10
66.3696588857
 20
-56.8217964632
 30
0.0
  0
VERTEX
  5
1D4B
  8
3
 10
66.01502242699999
 20
-56.4622306638
 30
0.0
  0
VERTEX
  5
1D4C
  8
3
 10
65.9625808099
 20
-56.0621784324
 30
0.0
  0
VERTEX
  5
1D4D
  8
3
 10
66.2203177952
 20
-55.68254409489998
 30
0.0
  0
VERTEX
  5
1D4E
  8
3
 10
66.74899526339999
 20
-55.38112353779999
 30
0.0
  0
VERTEX
  5
1D4F
  8
3
 10
67.46812686229998
 20
-55.20380530839998
 30
0.0
  0
VERTEX
  5
1D50
  8
3
 10
68.26823132499999
 20
-55.17758449989998
 30
0.0
  0
VERTEX
  5
1D51
  8
3
 10
69.0275
 20
-55.3064529925
 30
0.0
  0
SEQEND
  5
1F5C
  8
3
  0
POLYLINE
  5
CC2
  8
3
 66
     1
 10
0.0
 20
0.0
 30
0.0
  0
VERTEX
  5
1D52
  8
3
 10
69.25
 20
-55.38360923479999
 30
0.0
  0
VERTEX
  5
1D53
  8
3
 10
69.94770143630001
 20
-55.68248623220001
 30
0.0
  0
VERTEX
  5
1D54
  8
3
 10
70.3823550011
 20
-56.08720014689999
 30
0.0
  0
VERTEX
  5
1D55
  8
3
 10
70.49525832179998
 20
-56.54309212219999
 30
0.0
  0
VERTEX
  5
1D56
  8
3
 10
70.27116317950001
 20
-56.9885914207
 30
0.0
  0
VERTEX
  5
1D57
  8
3
 10
69.7403348649
 20
-57.3635308934
 30
0.0
  0
VERTEX
  5
1D58
  8
3
 10
68.97446468319998
 20
-57.61727288700001
 30
0.0
  0
VERTEX
  5
1D59
  8
3
 10
68.0769876464
 20
-57.7155481392
 30
0.0
  0
VERTEX
  5
1D5A
  8
3
 10
67.16911300129999
 20
-57.64508403259998
 30
0.0
  0
VERTEX
  5
1D5B
  8
3
 10
66.37345424949999
 20
-57.41539713539999
 30
0.0
  0
VERTEX
  5
1D5C
  8
3
 10
65.79746951429999
 20
-57.0575079356
 30
0.0
  0
VERTEX
  5
1D5D
  8
3
 10
65.51894872579999
 20
-56.61975135289998
 30
0.0
  0
VERTEX
  5
1D5E
  8
3
 10
65.57550765989998
 20
-56.1612488394
 30
0.0
  0
VERTEX
  5
1D5F
  8
3
 10
65.9595077191
 20
-55.7439237003
 30
0.0
  0
VERTEX
  5
1D60
  8
3
 10
66.61908756759999
 20
-55.424138008
 30
0.0
  0
VERTEX
  5
1D61
  8
3
 10
67.46516729199999
 20
-55.2450805924
 30
0.0
  0
VERTEX
  5
1D62
  8
3
 10
68.3834791372
 20
-55.23093414940001
 30
0.0
  0
VERTEX
  5
1D63
  8
3
 10
69.25
 20
-55.38360923479999
 30
0.0
  0
SEQEND
  5
1F5B
  8
3
  0
POLYLINE
  5
CC3
  8
3
 66
     1
 10
0.0
 20
0.0
 30
0.0
  0
VERTEX
  5
1D64
  8
3
 10
69.25
 20
-55.46164878619999
 30
0.0
  0
VERTEX
  5
1D65
  8
3
 10
69.94770143630001
 20
-55.76052578349999
 30
0.0
  0
VERTEX
  5
1D66
  8
3
 10
70.3823550011
 20
-56.16523969830001
 30
0.0
  0
VERTEX
  5
1D67
  8
3
 10
70.49525832179998
 20
-56.62113167359999
 30
0.0
  0
VERTEX
  5
1D68
  8
3
 10
70.27116317950001
 20
-57.06663097199998
 30
0.0
  0
VERTEX
  5
1D69
  8
3
 10
69.7403348649
 20
-57.44157044470001
 30
0.0
  0
VERTEX
  5
1D6A
  8
3
 10
68.97446468319998
 20
-57.69531243829999
 30
0.0
  0
VERTEX
  5
1D6B
  8
3
 10
68.0769876464
 20
-57.79358769049998
 30
0.0
  0
VERTEX
  5
1D6C
  8
3
 10
67.16911300129999
 20
-57.72312358400001
 30
0.0
  0
VERTEX
  5
1D6D
  8
3
 10
66.37345424949999
 20
-57.49343668669999
 30
0.0
  0
VERTEX
  5
1D6E
  8
3
 10
65.79746951429999
 20
-57.135547487
 30
0.0
  0
VERTEX
  5
1D6F
  8
3
 10
65.51894872579999
 20
-56.69779090419999
 30
0.0
  0
VERTEX
  5
1D70
  8
3
 10
65.57550765989998
 20
-56.2392883908
 30
0.0
  0
VERTEX
  5
1D71
  8
3
 10
65.9595077191
 20
-55.82196325159998
 30
0.0
  0
VERTEX
  5
1D72
  8
3
 10
66.61908756759999
 20
-55.5021775594
 30
0.0
  0
VERTEX
  5
1D73
  8
3
 10
67.46516729199999
 20
-55.32312014370001
 30
0.0
  0
VERTEX
  5
1D74
  8
3
 10
68.3834791372
 20
-55.30897370079998
 30
0.0
  0
VERTEX
  5
1D75
  8
3
 10
69.25
 20
-55.46164878619999
 30
0.0
  0
SEQEND
  5
1F5A
  8
3
  0
POLYLINE
  5
CC4
  8
3
 66
     1
 10
0.0
 20
0.0
 30
0.0
  0
VERTEX
  5
1D76
  8
3
 10
69.0275
 20
-55.92418633310001
 30
0.0
  0
VERTEX
  5
1D77
  8
3
 10
69.6303411143
 20
-56.1885250672
 30
0.0
  0
VERTEX
  5
1D78
  8
3
 10
69.98497757299998
 20
-56.54809086669999
 30
0.0
  0
VERTEX
  5
1D79
  8
3
 10
70.0374191901
 20
-56.948143098
 30
0.0
  0
VERTEX
  5
1D7A
  8
3
 10
69.7796822048
 20
-57.3277774355
 30
0.0
  0
VERTEX
  5
1D7B
  8
3
 10
69.25100473659998
 20
-57.6291979927
 30
0.0
  0
VERTEX
  5
1D7C
  8
3
 10
68.53187313769999
 20
-57.806516222
 30
0.0
  0
VERTEX
  5
1D7D
  8
3
 10
67.73176867499998
 20
-57.83273703060001
 30
0.0
  0
VERTEX
  5
1D7E
  8
3
 10
66.9725
 20
-57.70386853790001
 30
0.0
  0
VERTEX
  5
1D7F
  8
3
 10
66.3696588857
 20
-57.43952980379999
 30
0.0
  0
VERTEX
  5
1D80
  8
3
 10
66.01502242699999
 20
-57.07996400439998
 30
0.0
  0
VERTEX
  5
1D81
  8
3
 10
65.9625808099
 20
-56.67991177300001
 30
0.0
  0
VERTEX
  5
1D82
  8
3
 10
66.2203177952
 20
-56.30027743549999
 30
0.0
  0
VERTEX
  5
1D83
  8
3
 10
66.74899526339999
 20
-55.99885687839998
 30
0.0
  0
VERTEX
  5
1D84
  8
3
 10
67.46812686229998
 20
-55.82153864899999
 30
0.0
  0
VERTEX
  5
1D85
  8
3
 10
68.26823132499999
 20
-55.79531784049999
 30
0.0
  0
VERTEX
  5
1D86
  8
3
 10
69.0275
 20
-55.92418633310001
 30
0.0
  0
SEQEND
  5
1F59
  8
3
  0
POLYLINE
  5
CC5
  8
3
 66
     1
 10
0.0
 20
0.0
 30
0.0
  0
VERTEX
  5
1D87
  8
3
 10
69.25
 20
-56.0013425754
 30
0.0
  0
VERTEX
  5
1D88
  8
3
 10
69.94770143630001
 20
-56.30021957280002
 30
0.0
  0
VERTEX
  5
1D89
  8
3
 10
70.3823550011
 20
-56.7049334875
 30
0.0
  0
VERTEX
  5
1D8A
  8
3
 10
70.49525832179998
 20
-57.16082546280001
 30
0.0
  0
VERTEX
  5
1D8B
  8
3
 10
70.27116317950001
 20
-57.60632476130002
 30
0.0
  0
VERTEX
  5
1D8C
  8
3
 10
69.7403348649
 20
-57.98126423399998
 30
0.0
  0
VERTEX
  5
1D8D
  8
3
 10
68.97446468319998
 20
-58.2350062276
 30
0.0
  0
VERTEX
  5
1D8E
  8
3
 10
68.0769876464
 20
-58.33328147980001
 30
0.0
  0
VERTEX
  5
1D8F
  8
3
 10
67.16911300129999
 20
-58.26281737319999
 30
0.0
  0
VERTEX
  5
1D90
  8
3
 10
66.37345424949999
 20
-58.033130476
 30
0.0
  0
VERTEX
  5
1D91
  8
3
 10
65.79746951429999
 20
-57.67524127619998
 30
0.0
  0
VERTEX
  5
1D92
  8
3
 10
65.51894872579999
 20
-57.23748469349999
 30
0.0
  0
VERTEX
  5
1D93
  8
3
 10
65.57550765989998
 20
-56.77898218000001
 30
0.0
  0
VERTEX
  5
1D94
  8
3
 10
65.9595077191
 20
-56.36165704090001
 30
0.0
  0
VERTEX
  5
1D95
  8
3
 10
66.61908756759999
 20
-56.04187134860001
 30
0.0
  0
VERTEX
  5
1D96
  8
3
 10
67.46516729199999
 20
-55.86281393299998
 30
0.0
  0
VERTEX
  5
1D97
  8
3
 10
68.3834791372
 20
-55.84866749010001
 30
0.0
  0
VERTEX
  5
1D98
  8
3
 10
69.25
 20
-56.0013425754
 30
0.0
  0
SEQEND
  5
1F58
  8
3
  0
POLYLINE
  5
CC6
  8
3
 66
     1
 10
0.0
 20
0.0
 30
0.0
  0
VERTEX
  5
1D99
  8
3
 10
69.25
 20
-56.0793821268
 30
0.0
  0
VERTEX
  5
1D9A
  8
3
 10
69.94770143630001
 20
-56.3782591241
 30
0.0
  0
VERTEX
  5
1D9B
  8
3
 10
70.3823550011
 20
-56.7829730389
 30
0.0
  0
VERTEX
  5
1D9C
  8
3
 10
70.49525832179998
 20
-57.2388650142
 30
0.0
  0
VERTEX
  5
1D9D
  8
3
 10
70.27116317950001
 20
-57.6843643126
 30
0.0
  0
VERTEX
  5
1D9E
  8
3
 10
69.7403348649
 20
-58.05930378530002
 30
0.0
  0
VERTEX
  5
1D9F
  8
3
 10
68.97446468319998
 20
-58.3130457789
 30
0.0
  0
VERTEX
  5
1DA0
  8
3
 10
68.0769876464
 20
-58.4113210312
 30
0.0
  0
VERTEX
  5
1DA1
  8
3
 10
67.16911300129999
 20
-58.34085692459999
 30
0.0
  0
VERTEX
  5
1DA2
  8
3
 10
66.37345424949999
 20
-58.11117002729998
 30
0.0
  0
VERTEX
  5
1DA3
  8
3
 10
65.79746951429999
 20
-57.75328082760001
 30
0.0
  0
VERTEX
  5
1DA4
  8
3
 10
65.51894872579999
 20
-57.3155242448
 30
0.0
  0
VERTEX
  5
1DA5
  8
3
 10
65.57550765989998
 20
-56.85702173139998
 30
0.0
  0
VERTEX
  5
1DA6
  8
3
 10
65.9595077191
 20
-56.43969659219999
 30
0.0
  0
VERTEX
  5
1DA7
  8
3
 10
66.61908756759999
 20
-56.11991089999998
 30
0.0
  0
VERTEX
  5
1DA8
  8
3
 10
67.46516729199999
 20
-55.94085348429999
 30
0.0
  0
VERTEX
  5
1DA9
  8
3
 10
68.3834791372
 20
-55.92670704139999
 30
0.0
  0
VERTEX
  5
1DAA
  8
3
 10
69.25
 20
-56.0793821268
 30
0.0
  0
SEQEND
  5
1F57
  8
3
  0
POLYLINE
  5
CC7
  8
3
 66
     1
 10
0.0
 20
0.0
 30
0.0
  0
VERTEX
  5
1DAB
  8
3
 10
69.0275
 20
-56.54191967369999
 30
0.0
  0
VERTEX
  5
1DAC
  8
3
 10
69.6303411143
 20
-56.80625840779999
 30
0.0
  0
VERTEX
  5
1DAD
  8
3
 10
69.98497757299998
 20
-57.16582420729998
 30
0.0
  0
VERTEX
  5
1DAE
  8
3
 10
70.0374191901
 20
-57.56587643860001
 30
0.0
  0
VERTEX
  5
1DAF
  8
3
 10
69.7796822048
 20
-57.94551077609998
 30
0.0
  0
VERTEX
  5
1DB0
  8
3
 10
69.25100473659998
 20
-58.24693133329998
 30
0.0
  0
VERTEX
  5
1DB1
  8
3
 10
68.53187313769999
 20
-58.42424956259998
 30
0.0
  0
VERTEX
  5
1DB2
  8
3
 10
67.73176867499998
 20
-58.4504703712
 30
0.0
  0
VERTEX
  5
1DB3
  8
3
 10
66.9725
 20
-58.32160187849999
 30
0.0
  0
VERTEX
  5
1DB4
  8
3
 10
66.3696588857
 20
-58.0572631444
 30
0.0
  0
VERTEX
  5
1DB5
  8
3
 10
66.01502242699999
 20
-57.69769734499999
 30
0.0
  0
VERTEX
  5
1DB6
  8
3
 10
65.9625808099
 20
-57.2976451136
 30
0.0
  0
VERTEX
  5
1DB7
  8
3
 10
66.2203177952
 20
-56.9180107761
 30
0.0
  0
VERTEX
  5
1DB8
  8
3
 10
66.74899526339999
 20
-56.61659021899999
 30
0.0
  0
VERTEX
  5
1DB9
  8
3
 10
67.46812686229998
 20
-56.4392719896
 30
0.0
  0
VERTEX
  5
1DBA
  8
3
 10
68.26823132499999
 20
-56.4130511811
 30
0.0
  0
VERTEX
  5
1DBB
  8
3
 10
69.0275
 20
-56.54191967369999
 30
0.0
  0
SEQEND
  5
1F56
  8
3
  0
POLYLINE
  5
CC8
  8
3
 66
     1
 10
0.0
 20
0.0
 30
0.0
  0
VERTEX
  5
1DBC
  8
3
 10
69.25
 20
-56.61907591599999
 30
0.0
  0
VERTEX
  5
1DBD
  8
3
 10
69.94770143630001
 20
-56.9179529134
 30
0.0
  0
VERTEX
  5
1DBE
  8
3
 10
70.3823550011
 20
-57.32266682810001
 30
0.0
  0
VERTEX
  5
1DBF
  8
3
 10
70.49525832179998
 20
-57.77855880340002
 30
0.0
  0
VERTEX
  5
1DC0
  8
3
 10
70.27116317950001
 20
-58.2240581019
 30
0.0
  0
VERTEX
  5
1DC1
  8
3
 10
69.7403348649
 20
-58.59899757459999
 30
0.0
  0
VERTEX
  5
1DC2
  8
3
 10
68.97446468319998
 20
-58.85273956819998
 30
0.0
  0
VERTEX
  5
1DC3
  8
3
 10
68.0769876464
 20
-58.95101482039999
 30
0.0
  0
VERTEX
  5
1DC4
  8
3
 10
67.16911300129999
 20
-58.88055071380001
 30
0.0
  0
VERTEX
  5
1DC5
  8
3
 10
66.37345424949999
 20
-58.65086381660001
 30
0.0
  0
VERTEX
  5
1DC6
  8
3
 10
65.79746951429999
 20
-58.2929746168
 30
0.0
  0
VERTEX
  5
1DC7
  8
3
 10
65.51894872579999
 20
-57.85521803410001
 30
0.0
  0
VERTEX
  5
1DC8
  8
3
 10
65.57550765989998
 20
-57.3967155206
 30
0.0
  0
VERTEX
  5
1DC9
  8
3
 10
65.9595077191
 20
-56.9793903815
 30
0.0
  0
VERTEX
  5
1DCA
  8
3
 10
66.61908756759999
 20
-56.65960468919999
 30
0.0
  0
VERTEX
  5
1DCB
  8
3
 10
67.46516729199999
 20
-56.4805472736
 30
0.0
  0
VERTEX
  5
1DCC
  8
3
 10
68.3834791372
 20
-56.4664008307
 30
0.0
  0
VERTEX
  5
1DCD
  8
3
 10
69.25
 20
-56.61907591599999
 30
0.0
  0
SEQEND
  5
1F55
  8
3
  0
POLYLINE
  5
CC9
  8
3
 66
     1
 10
0.0
 20
0.0
 30
0.0
  0
VERTEX
  5
1DCE
  8
3
 10
69.25
 20
-56.69711546740001
 30
0.0
  0
VERTEX
  5
1DCF
  8
3
 10
69.94770143630001
 20
-56.99599246470001
 30
0.0
  0
VERTEX
  5
1DD0
  8
3
 10
70.3823550011
 20
-57.40070637949998
 30
0.0
  0
VERTEX
  5
1DD1
  8
3
 10
70.49525832179998
 20
-57.85659835479998
 30
0.0
  0
VERTEX
  5
1DD2
  8
3
 10
70.27116317950001
 20
-58.30209765320001
 30
0.0
  0
VERTEX
  5
1DD3
  8
3
 10
69.7403348649
 20
-58.6770371259
 30
0.0
  0
VERTEX
  5
1DD4
  8
3
 10
68.97446468319998
 20
-58.93077911950002
 30
0.0
  0
VERTEX
  5
1DD5
  8
3
 10
68.0769876464
 20
-59.02905437179999
 30
0.0
  0
VERTEX
  5
1DD6
  8
3
 10
67.16911300129999
 20
-58.9585902652
 30
0.0
  0
VERTEX
  5
1DD7
  8
3
 10
66.37345424949999
 20
-58.72890336789999
 30
0.0
  0
VERTEX
  5
1DD8
  8
3
 10
65.79746951429999
 20
-58.37101416819999
 30
0.0
  0
VERTEX
  5
1DD9
  8
3
 10
65.51894872579999
 20
-57.93325758539999
 30
0.0
  0
VERTEX
  5
1DDA
  8
3
 10
65.57550765989998
 20
-57.47475507199999
 30
0.0
  0
VERTEX
  5
1DDB
  8
3
 10
65.9595077191
 20
-57.05742993289999
 30
0.0
  0
VERTEX
  5
1DDC
  8
3
 10
66.61908756759999
 20
-56.73764424059999
 30
0.0
  0
VERTEX
  5
1DDD
  8
3
 10
67.46516729199999
 20
-56.55858682489998
 30
0.0
  0
VERTEX
  5
1DDE
  8
3
 10
68.3834791372
 20
-56.544440382
 30
0.0
  0
VERTEX
  5
1DDF
  8
3
 10
69.25
 20
-56.69711546740001
 30
0.0
  0
SEQEND
  5
1F54
  8
3
  0
POLYLINE
  5
CCA
  8
3
 66
     1
 10
0.0
 20
0.0
 30
0.0
  0
VERTEX
  5
1DE0
  8
3
 10
69.0275
 20
-57.15965301439999
 30
0.0
  0
VERTEX
  5
1DE1
  8
3
 10
69.6303411143
 20
-57.4239917484
 30
0.0
  0
VERTEX
  5
1DE2
  8
3
 10
69.98497757299998
 20
-57.78355754789999
 30
0.0
  0
VERTEX
  5
1DE3
  8
3
 10
70.0374191901
 20
-58.1836097792
 30
0.0
  0
VERTEX
  5
1DE4
  8
3
 10
69.7796822048
 20
-58.56324411669999
 30
0.0
  0
VERTEX
  5
1DE5
  8
3
 10
69.25100473659998
 20
-58.86466467389999
 30
0.0
  0
VERTEX
  5
1DE6
  8
3
 10
68.53187313769999
 20
-59.04198290329998
 30
0.0
  0
VERTEX
  5
1DE7
  8
3
 10
67.73176867499998
 20
-59.06820371179998
 30
0.0
  0
VERTEX
  5
1DE8
  8
3
 10
66.9725
 20
-58.9393352191
 30
0.0
  0
VERTEX
  5
1DE9
  8
3
 10
66.3696588857
 20
-58.67499648500001
 30
0.0
  0
VERTEX
  5
1DEA
  8
3
 10
66.01502242699999
 20
-58.31543068560001
 30
0.0
  0
VERTEX
  5
1DEB
  8
3
 10
65.9625808099
 20
-57.91537845419998
 30
0.0
  0
VERTEX
  5
1DEC
  8
3
 10
66.2203177952
 20
-57.53574411670002
 30
0.0
  0
VERTEX
  5
1DED
  8
3
 10
66.74899526339999
 20
-57.2343235596
 30
0.0
  0
VERTEX
  5
1DEE
  8
3
 10
67.46812686229998
 20
-57.05700533020001
 30
0.0
  0
VERTEX
  5
1DEF
  8
3
 10
68.26823132499999
 20
-57.03078452170001
 30
0.0
  0
VERTEX
  5
1DF0
  8
3
 10
69.0275
 20
-57.15965301439999
 30
0.0
  0
SEQEND
  5
1F53
  8
3
  0
POLYLINE
  5
CCB
  8
3
 66
     1
 10
0.0
 20
0.0
 30
0.0
  0
VERTEX
  5
1DF1
  8
3
 10
69.25
 20
-57.2368092566
 30
0.0
  0
VERTEX
  5
1DF2
  8
3
 10
69.94770143630001
 20
-57.53568625399998
 30
0.0
  0
VERTEX
  5
1DF3
  8
3
 10
70.3823550011
 20
-57.94040016869999
 30
0.0
  0
VERTEX
  5
1DF4
  8
3
 10
70.49525832179998
 20
-58.396292144
 30
0.0
  0
VERTEX
  5
1DF5
  8
3
 10
70.27116317950001
 20
-58.84179144249998
 30
0.0
  0
VERTEX
  5
1DF6
  8
3
 10
69.7403348649
 20
-59.2167309152
 30
0.0
  0
VERTEX
  5
1DF7
  8
3
 10
68.97446468319998
 20
-59.47047290879999
 30
0.0
  0
VERTEX
  5
1DF8
  8
3
 10
68.0769876464
 20
-59.568748161
 30
0.0
  0
VERTEX
  5
1DF9
  8
3
 10
67.16911300129999
 20
-59.4982840545
 30
0.0
  0
VERTEX
  5
1DFA
  8
3
 10
66.37345424949999
 20
-59.26859715719999
 30
0.0
  0
VERTEX
  5
1DFB
  8
3
 10
65.79746951429999
 20
-58.91070795740001
 30
0.0
  0
VERTEX
  5
1DFC
  8
3
 10
65.51894872579999
 20
-58.47295137470002
 30
0.0
  0
VERTEX
  5
1DFD
  8
3
 10
65.57550765989998
 20
-58.01444886119998
 30
0.0
  0
VERTEX
  5
1DFE
  8
3
 10
65.9595077191
 20
-57.59712372209998
 30
0.0
  0
VERTEX
  5
1DFF
  8
3
 10
66.61908756759999
 20
-57.27733802979998
 30
0.0
  0
VERTEX
  5
1E00
  8
3
 10
67.46516729199999
 20
-57.09828061420001
 30
0.0
  0
VERTEX
  5
1E01
  8
3
 10
68.3834791372
 20
-57.08413417129998
 30
0.0
  0
VERTEX
  5
1E02
  8
3
 10
69.25
 20
-57.2368092566
 30
0.0
  0
SEQEND
  5
1F52
  8
3
  0
POLYLINE
  5
CCC
  8
3
 66
     1
 10
0.0
 20
0.0
 30
0.0
  0
VERTEX
  5
1E03
  8
3
 10
69.25
 20
-57.31484880799999
 30
0.0
  0
VERTEX
  5
1E04
  8
3
 10
69.94770143630001
 20
-57.61372580540001
 30
0.0
  0
VERTEX
  5
1E05
  8
3
 10
70.3823550011
 20
-58.01843972009999
 30
0.0
  0
VERTEX
  5
1E06
  8
3
 10
70.49525832179998
 20
-58.4743316954
 30
0.0
  0
VERTEX
  5
1E07
  8
3
 10
70.27116317950001
 20
-58.91983099379999
 30
0.0
  0
VERTEX
  5
1E08
  8
3
 10
69.7403348649
 20
-59.2947704666
 30
0.0
  0
VERTEX
  5
1E09
  8
3
 10
68.97446468319998
 20
-59.54851246019999
 30
0.0
  0
VERTEX
  5
1E0A
  8
3
 10
68.0769876464
 20
-59.6467877124
 30
0.0
  0
VERTEX
  5
1E0B
  8
3
 10
67.16911300129999
 20
-59.57632360579998
 30
0.0
  0
VERTEX
  5
1E0C
  8
3
 10
66.37345424949999
 20
-59.3466367085
 30
0.0
  0
VERTEX
  5
1E0D
  8
3
 10
65.79746951429999
 20
-58.9887475088
 30
0.0
  0
VERTEX
  5
1E0E
  8
3
 10
65.51894872579999
 20
-58.55099092609998
 30
0.0
  0
VERTEX
  5
1E0F
  8
3
 10
65.57550765989998
 20
-58.09248841260001
 30
0.0
  0
VERTEX
  5
1E10
  8
3
 10
65.9595077191
 20
-57.6751632735
 30
0.0
  0
VERTEX
  5
1E11
  8
3
 10
66.61908756759999
 20
-57.3553775812
 30
0.0
  0
VERTEX
  5
1E12
  8
3
 10
67.46516729199999
 20
-57.17632016549999
 30
0.0
  0
VERTEX
  5
1E13
  8
3
 10
68.3834791372
 20
-57.16217372260002
 30
0.0
  0
VERTEX
  5
1E14
  8
3
 10
69.25
 20
-57.31484880799999
 30
0.0
  0
SEQEND
  5
1F51
  8
3
  0
POLYLINE
  5
CCD
  8
3
 66
     1
 10
0.0
 20
0.0
 30
0.0
  0
VERTEX
  5
1E15
  8
3
 10
69.0275
 20
-57.77738635499998
 30
0.0
  0
VERTEX
  5
1E16
  8
3
 10
69.6303411143
 20
-58.04172508900001
 30
0.0
  0
VERTEX
  5
1E17
  8
3
 10
69.98497757299998
 20
-58.4012908885
 30
0.0
  0
VERTEX
  5
1E18
  8
3
 10
70.0374191901
 20
-58.8013431199
 30
0.0
  0
VERTEX
  5
1E19
  8
3
 10
69.7796822048
 20
-59.1809774573
 30
0.0
  0
VERTEX
  5
1E1A
  8
3
 10
69.25100473659998
 20
-59.48239801450001
 30
0.0
  0
VERTEX
  5
1E1B
  8
3
 10
68.53187313769999
 20
-59.65971624389999
 30
0.0
  0
VERTEX
  5
1E1C
  8
3
 10
67.73176867499998
 20
-59.68593705239999
 30
0.0
  0
VERTEX
  5
1E1D
  8
3
 10
66.9725
 20
-59.55706855969999
 30
0.0
  0
VERTEX
  5
1E1E
  8
3
 10
66.3696588857
 20
-59.29272982570001
 30
0.0
  0
VERTEX
  5
1E1F
  8
3
 10
66.01502242699999
 20
-58.93316402620002
 30
0.0
  0
VERTEX
  5
1E20
  8
3
 10
65.9625808099
 20
-58.53311179479999
 30
0.0
  0
VERTEX
  5
1E21
  8
3
 10
66.2203177952
 20
-58.1534774573
 30
0.0
  0
VERTEX
  5
1E22
  8
3
 10
66.74899526339999
 20
-57.85205690020001
 30
0.0
  0
VERTEX
  5
1E23
  8
3
 10
67.46812686229998
 20
-57.6747386708
 30
0.0
  0
VERTEX
  5
1E24
  8
3
 10
68.26823132499999
 20
-57.6485178623
 30
0.0
  0
VERTEX
  5
1E25
  8
3
 10
69.0275
 20
-57.77738635499998
 30
0.0
  0
SEQEND
  5
1F50
  8
3
  0
LINE
  5
CCE
  8
3
 10
68.0
 20
-57.27314670359999
 30
0.0
 11
69.25
 21
-56.91230278540002
 31
0.0
  0
POLYLINE
  5
CCF
  8
3
 66
     1
 10
0.0
 20
0.0
 30
0.0
  0
VERTEX
  5
1E26
  8
3
 10
69.12805156339999
 20
-57.8122545832
 30
0.0
  0
VERTEX
  5
1E27
  8
3
 10
68.34606739219998
 20
-57.6744742882
 30
0.0
  0
VERTEX
  5
1E28
  8
3
 10
67.51734490199999
 20
-57.68724062180002
 30
0.0
  0
VERTEX
  5
1E29
  8
3
 10
66.7538076573
 20
-57.84882942000002
 30
0.0
  0
VERTEX
  5
1E2A
  8
3
 10
66.1585755939
 20
-58.13741722009999
 30
0.0
  0
VERTEX
  5
1E2B
  8
3
 10
65.8120381002
 20
-58.5140286406
 30
0.0
  0
VERTEX
  5
1E2C
  8
3
 10
65.76099698499999
 20
-58.92780022229999
 30
0.0
  0
VERTEX
  5
1E2D
  8
3
 10
66.0123456337
 20
-59.32284982039999
 30
0.0
  0
VERTEX
  5
1E2E
  8
3
 10
66.5321380185
 20
-59.6458237974
 30
0.0
  0
VERTEX
  5
1E2F
  8
3
 10
67.2501732977
 20
-59.8531027283
 30
0.0
  0
VERTEX
  5
1E30
  8
3
 10
68.06947682789999
 20
-59.9166924447
 30
0.0
  0
VERTEX
  5
1E31
  8
3
 10
68.8793971275
 20
-59.8280048032
 30
0.0
  0
VERTEX
  5
1E32
  8
3
 10
69.57054997219998
 20
-59.5990175611
 30
0.0
  0
VERTEX
  5
1E33
  8
3
 10
70.04959134039999
 20
-59.2606567144
 30
0.0
  0
VERTEX
  5
1E34
  8
3
 10
70.2518240409
 20
-58.85861977029998
 30
0.0
  0
VERTEX
  5
1E35
  8
3
 10
70.14993542689999
 20
-58.44720404589998
 30
0.0
  0
VERTEX
  5
1E36
  8
3
 10
69.75768612019999
 20
-58.08197351449999
 30
0.0
  0
VERTEX
  5
1E37
  8
3
 10
69.12805156339999
 20
-57.8122545832
 30
0.0
  0
SEQEND
  5
1F4F
  8
3
  0
LINE
  5
CD0
  8
3
 10
68.0
 20
-57.27314670359999
 30
0.0
 11
66.75
 21
-56.91230278540002
 31
0.0
  0
LINE
  5
CD1
  8
3
 10
68.0
 20
-59.61141529380001
 30
0.0
 11
66.75
 21
-59.2505713756
 31
0.0
  0
POLYLINE
  5
CD2
  8
3
 66
     1
 10
0.0
 20
0.0
 30
0.0
  0
VERTEX
  5
1E38
  8
3
 10
69.7796822048
 20
-59.4034774573
 30
0.0
  0
VERTEX
  5
1E39
  8
3
 10
69.25100473659998
 20
-59.7048980145
 30
0.0
  0
VERTEX
  5
1E3A
  8
3
 10
68.53187313769999
 20
-59.88221624389999
 30
0.0
  0
VERTEX
  5
1E3B
  8
3
 10
67.73176867499998
 20
-59.90843705239999
 30
0.0
  0
VERTEX
  5
1E3C
  8
3
 10
66.9725
 20
-59.77956855970001
 30
0.0
  0
VERTEX
  5
1E3D
  8
3
 10
66.3696588857
 20
-59.5152298257
 30
0.0
  0
VERTEX
  5
1E3E
  8
3
 10
66.01502242699999
 20
-59.15566402619999
 30
0.0
  0
VERTEX
  5
1E3F
  8
3
 10
65.9625808099
 20
-58.75561179480002
 30
0.0
  0
VERTEX
  5
1E40
  8
3
 10
66.2203177952
 20
-58.3759774573
 30
0.0
  0
VERTEX
  5
1E41
  8
3
 10
66.74899526339999
 20
-58.07455690019998
 30
0.0
  0
VERTEX
  5
1E42
  8
3
 10
67.46812686229998
 20
-57.89723867079999
 30
0.0
  0
VERTEX
  5
1E43
  8
3
 10
68.26823132499999
 20
-57.87101786229999
 30
0.0
  0
VERTEX
  5
1E44
  8
3
 10
69.0275
 20
-57.999886355
 30
0.0
  0
VERTEX
  5
1E45
  8
3
 10
69.6303411143
 20
-58.26422508899998
 30
0.0
  0
VERTEX
  5
1E46
  8
3
 10
69.98497757299998
 20
-58.6237908885
 30
0.0
  0
VERTEX
  5
1E47
  8
3
 10
70.0374191901
 20
-59.02384311989999
 30
0.0
  0
VERTEX
  5
1E48
  8
3
 10
69.7796822048
 20
-59.4034774573
 30
0.0
  0
SEQEND
  5
1F4E
  8
3
  0
LINE
  5
CD3
  8
3
 10
68.0
 20
-59.61141529380001
 30
0.0
 11
69.25
 21
-59.2505713756
 31
0.0
  0
LINE
  5
CD4
  8
3
 10
66.75
 20
-56.91230278540002
 30
0.0
 11
66.75
 21
-59.2505713756
 31
0.0
  0
LINE
  5
CD5
  8
3
 10
66.75
 20
-56.91230278540002
 30
0.0
 11
66.75
 21
-56.19061494889999
 31
0.0
  0
LINE
  5
CD6
  8
3
 10
69.25
 20
-56.19061494889999
 30
0.0
 11
69.25
 21
-56.91230278540002
 31
0.0
  0
LINE
  5
CD7
  8
3
 10
69.25
 20
-56.91230278540002
 30
0.0
 11
69.25
 21
-59.2505713756
 31
0.0
  0
LINE
  5
CD8
  8
3
 10
68.0
 20
-58.1680396209
 30
0.0
 11
66.75
 21
-58.52888353909998
 31
0.0
  0
LINE
  5
CD9
  8
3
 10
68.0
 20
-55.8297710306
 30
0.0
 11
66.75
 21
-56.19061494889999
 31
0.0
  0
LINE
  5
CDA
  8
3
 10
69.25
 20
-58.52888353909998
 30
0.0
 11
68.0
 21
-58.1680396209
 31
0.0
  0
LINE
  5
CDB
  8
3
 10
69.25
 20
-56.19061494889999
 30
0.0
 11
68.0
 21
-55.8297710306
 31
0.0
  0
CIRCLE
  5
CDC
  8
3
 10
68.0
 20
0.0
 30
0.0
 40
2.256103126841992
  0
CIRCLE
  5
CDD
  8
3
 10
68.0
 20
0.0
 30
0.0
 40
2.50000000000002
  0
CIRCLE
  5
CDE
  8
3
 10
68.0
 20
0.0
 30
0.0
 40
2.316732743452267
  0
CIRCLE
  5
CDF
  8
3
 10
68.0
 20
0.0
 30
0.0
 40
1.750000000000003
  0
LINE
  5
CE0
  8
3
 10
73.1998051615
 20
-38.09618999999998
 30
0.0
 11
73.1998051615
 21
-63.50380999999999
 31
0.0
  0
LINE
  5
CE1
  8
3
 10
71.8748395106
 20
-38.10619
 30
0.0
 11
71.8748395106
 21
-63.49381
 31
0.0
  0
LINE
  5
CE2
  8
3
 10
70.94999999999999
 20
-38.35399999999998
 30
0.0
 11
70.94999999999999
 21
-63.24599999999998
 31
0.0
  0
LINE
  5
CE3
  8
3
 10
73.1998051615
 20
63.50380999999999
 30
0.0
 11
73.1998051615
 21
38.09619000000001
 31
0.0
  0
LINE
  5
CE4
  8
3
 10
71.8748395106
 20
63.49381
 30
0.0
 11
71.8748395106
 21
38.10619
 31
0.0
  0
LINE
  5
CE5
  8
3
 10
70.94999999999999
 20
63.24600000000004
 30
0.0
 11
70.94999999999999
 21
38.35400000000001
 31
0.0
  0
POLYLINE
  5
CE6
  8
3
 66
     1
 10
0.0
 20
0.0
 30
0.0
  0
VERTEX
  5
1E49
  8
3
 10
68.0
 20
-61.89163858130001
 30
0.0
  0
VERTEX
  5
1E4A
  8
3
 10
67.13145642090001
 20
-61.82238160629998
 30
0.0
  0
VERTEX
  5
1E4B
  8
3
 10
66.36083880839999
 20
-61.62092411539999
 30
0.0
  0
VERTEX
  5
1E4C
  8
3
 10
65.77464000339998
 20
-61.3059181433
 30
0.0
  0
VERTEX
  5
1E4D
  8
3
 10
65.4391926722
 20
-60.90820246319998
 30
0.0
  0
VERTEX
  5
1E4E
  8
3
 10
65.39255262500001
 20
-60.46968192560001
 30
0.0
  0
VERTEX
  5
1E4F
  8
3
 10
65.639574582
 20
-60.03937612160001
 30
0.0
  0
VERTEX
  5
1E50
  8
3
 10
66.15244016399998
 20
-59.66790960259999
 30
0.0
  0
VERTEX
  5
1E51
  8
3
 10
66.8541811248
 20
-59.4086759553
 30
0.0
  0
SEQEND
  5
1F4D
  8
3
  0
POLYLINE
  5
CE7
  8
3
 66
     1
 10
0.0
 20
0.0
 30
0.0
  0
VERTEX
  5
1E52
  8
3
 10
69.1008170215
 20
-59.4155116844
 30
0.0
  0
VERTEX
  5
1E53
  8
3
 10
69.4129845446
 20
-59.4853657045
 30
0.0
  0
VERTEX
  5
1E54
  8
3
 10
70.0654146533
 20
-59.79549571129999
 30
0.0
  0
VERTEX
  5
1E55
  8
3
 10
70.4853002417
 20
-60.1948966484
 30
0.0
  0
VERTEX
  5
1E56
  8
3
 10
70.62487735779999
 20
-60.63446144789998
 30
0.0
  0
VERTEX
  5
1E57
  8
3
 10
70.46868846589999
 20
-61.0630036723
 30
0.0
  0
VERTEX
  5
1E58
  8
3
 10
70.034556522
 20
-61.43409501150001
 30
0.0
  0
VERTEX
  5
1E59
  8
3
 10
69.37092474069999
 20
-61.7100560435
 30
0.0
  0
VERTEX
  5
1E5A
  8
3
 10
68.5524590283
 20
-61.86413096069998
 30
0.0
  0
VERTEX
  5
1E5B
  8
3
 10
68.0
 20
-61.89163858130001
 30
0.0
  0
SEQEND
  5
1F4C
  8
3
  0
POLYLINE
  5
CE8
  8
3
 66
     1
 10
0.0
 20
0.0
 30
0.0
  0
VERTEX
  5
1E5C
  8
3
 10
68.0
 20
59.26663858130001
 30
0.0
  0
VERTEX
  5
1E5D
  8
3
 10
67.13145642090001
 20
59.34523464839998
 30
0.0
  0
VERTEX
  5
1E5E
  8
3
 10
66.36083880839999
 20
59.57061302
 30
0.0
  0
VERTEX
  5
1E5F
  8
3
 10
65.77464000339998
 20
59.91365455990001
 30
0.0
  0
VERTEX
  5
1E60
  8
3
 10
65.4391926722
 20
60.33123554069999
 30
0.0
  0
VERTEX
  5
1E61
  8
3
 10
65.39255262500001
 20
60.77273833420003
 30
0.0
  0
VERTEX
  5
1E62
  8
3
 10
65.639574582
 20
61.18786070850001
 30
0.0
  0
VERTEX
  5
1E63
  8
3
 10
66.15244016399998
 20
61.5326207471
 30
0.0
  0
VERTEX
  5
1E64
  8
3
 10
66.87387160649999
 20
61.77257466790002
 30
0.0
  0
VERTEX
  5
1E65
  8
3
 10
67.72238376299998
 20
61.88475495289998
 30
0.0
  0
VERTEX
  5
1E66
  8
3
 10
68.60171385749999
 20
61.85893265789997
 30
0.0
  0
VERTEX
  5
1E67
  8
3
 10
69.4129845446
 20
61.69762691810001
 30
0.0
  0
VERTEX
  5
1E68
  8
3
 10
70.0654146533
 20
61.41558438480001
 30
0.0
  0
VERTEX
  5
1E69
  8
3
 10
70.4853002417
 20
61.03982724240001
 30
0.0
  0
VERTEX
  5
1E6A
  8
3
 10
70.62487735779999
 20
60.60908711619999
 30
0.0
  0
VERTEX
  5
1E6B
  8
3
 10
70.46868846589999
 20
60.17070200899997
 30
0.0
  0
VERTEX
  5
1E6C
  8
3
 10
70.034556522
 20
59.77541940769999
 30
0.0
  0
VERTEX
  5
1E6D
  8
3
 10
69.37092474069999
 20
59.47148722499998
 30
0.0
  0
VERTEX
  5
1E6E
  8
3
 10
68.5524590283
 20
59.29792480730003
 30
0.0
  0
VERTEX
  5
1E6F
  8
3
 10
68.0
 20
59.26663858130001
 30
0.0
  0
SEQEND
  5
1F4B
  8
3
  0
LINE
  5
CE9
  8
3
 10
52.25
 20
42.92102448430001
 30
0.0
 11
52.25
 21
28.92102448430001
 31
0.0
  0
LINE
  5
CEA
  8
3
 10
52.25
 20
-28.92102448430001
 30
0.0
 11
52.25
 21
-42.92102448430001
 31
0.0
  0
LINE
  5
CEC
  8
3
 10
65.005
 20
2.5
 30
0.0
 11
65.005
 21
-2.5
 31
0.0
  0
LINE
  5
D23
  8
3
 10
22.875
 20
37.72
 30
0.0
 11
34.96299999999999
 21
37.72
 31
0.0
  0
LINE
  5
D24
  8
3
 10
3.384369265499984
 20
37.72
 30
0.0
 11
22.875
 21
37.72
 31
0.0
  0
LINE
  5
D27
  8
3
 10
68.0
 20
-38.09999999999999
 30
0.0
 11
68.0
 21
-63.5
 31
0.0
  0
LINE
  5
D28
  8
3
 10
68.0
 20
63.5
 30
0.0
 11
68.0
 21
38.09999999999999
 31
0.0
  0
LINE
  5
D2E
  8
3
 10
90.005
 20
10.0
 30
0.0
 11
90.005
 21
-10.0
 31
0.0
  0
POLYLINE
  5
D2F
  8
3
 66
     1
 10
0.0
 20
0.0
 30
0.0
  0
VERTEX
  5
1E70
  8
3
 10
68.0
 20
8.629083057999992
 30
0.0
  0
VERTEX
  5
1E71
  8
3
 10
68.6843085991
 20
8.594905842299994
 30
0.0
  0
VERTEX
  5
1E72
  8
3
 10
69.29128262
 20
8.489177701199992
 30
0.0
  0
VERTEX
  5
1E73
  8
3
 10
69.76449635910001
 20
8.300927889999997
 30
0.0
  0
VERTEX
  5
1E74
  8
3
 10
70.0434927867
 20
8.024894193300014
 30
0.0
  0
VERTEX
  5
1E75
  8
3
 10
70.0888602419
 20
7.683975267400001
 30
0.0
  0
VERTEX
  5
1E76
  8
3
 10
69.907452516
 20
7.317804063700009
 30
0.0
  0
VERTEX
  5
1E77
  8
3
 10
69.51999010809999
 20
6.968041860699998
 30
0.0
  0
VERTEX
  5
1E78
  8
3
 10
68.95419668239998
 20
6.688650816400013
 30
0.0
  0
VERTEX
  5
1E79
  8
3
 10
68.27532570899999
 20
6.541896226200009
 30
0.0
  0
VERTEX
  5
1E7A
  8
3
 10
67.57974160699999
 20
6.559057425800006
 30
0.0
  0
VERTEX
  5
1E7B
  8
3
 10
66.9404097934
 20
6.727890465800016
 30
0.0
  0
VERTEX
  5
1E7C
  8
3
 10
66.4073242433
 20
7.019210056199995
 30
0.0
  0
VERTEX
  5
1E7D
  8
3
 10
66.0423391866
 20
7.386402650299999
 30
0.0
  0
VERTEX
  5
1E7E
  8
3
 10
65.9010554088
 20
7.760730271499995
 30
0.0
  0
VERTEX
  5
1E7F
  8
3
 10
65.9931878251
 20
8.085109670200012
 30
0.0
  0
VERTEX
  5
1E80
  8
3
 10
66.2996673874
 20
8.337018209799993
 30
0.0
  0
VERTEX
  5
1E81
  8
3
 10
66.7983619
 20
8.511306352100007
 30
0.0
  0
VERTEX
  5
1E82
  8
3
 10
67.44242148179998
 20
8.606762446400012
 30
0.0
  0
VERTEX
  5
1E83
  8
3
 10
68.0
 20
8.629083057999992
 30
0.0
  0
SEQEND
  5
1F4A
  8
3
  0
POLYLINE
  5
D30
  8
3
 66
     1
 10
0.0
 20
0.0
 30
0.0
  0
VERTEX
  5
1E84
  8
3
 10
68.0
 20
-6.529083057999998
 30
0.0
  0
VERTEX
  5
1E85
  8
3
 10
68.6843085991
 20
-6.609528865199991
 30
0.0
  0
VERTEX
  5
1E86
  8
3
 10
69.29128262
 20
-6.83310125509999
 30
0.0
  0
VERTEX
  5
1E87
  8
3
 10
69.76449635910001
 20
-7.162265253899989
 30
0.0
  0
VERTEX
  5
1E88
  8
3
 10
70.0434927867
 20
-7.541016904599985
 30
0.0
  0
VERTEX
  5
1E89
  8
3
 10
70.0888602419
 20
-7.899991215200004
 30
0.0
  0
VERTEX
  5
1E8A
  8
3
 10
69.907452516
 20
-8.196225886700006
 30
0.0
  0
VERTEX
  5
1E8B
  8
3
 10
69.51999010809999
 20
-8.417051892199993
 30
0.0
  0
VERTEX
  5
1E8C
  8
3
 10
68.95419668239998
 20
-8.559348197399999
 30
0.0
  0
VERTEX
  5
1E8D
  8
3
 10
68.27532570899999
 20
-8.623769362100006
 30
0.0
  0
VERTEX
  5
1E8E
  8
3
 10
67.57974160699999
 20
-8.616576048599995
 30
0.0
  0
VERTEX
  5
1E8F
  8
3
 10
66.9404097934
 20
-8.540973087800012
 30
0.0
  0
VERTEX
  5
1E90
  8
3
 10
66.4073242433
 20
-8.387926218899992
 30
0.0
  0
VERTEX
  5
1E91
  8
3
 10
66.0423391866
 20
-8.146379057499985
 30
0.0
  0
VERTEX
  5
1E92
  8
3
 10
65.9010554088
 20
-7.82730055959999
 30
0.0
  0
VERTEX
  5
1E93
  8
3
 10
65.9931878251
 20
-7.466478201000001
 30
0.0
  0
VERTEX
  5
1E94
  8
3
 10
66.2996673874
 20
-7.10459417300001
 30
0.0
  0
VERTEX
  5
1E95
  8
3
 10
66.7983619
 20
-6.789079341399997
 30
0.0
  0
VERTEX
  5
1E96
  8
3
 10
67.44242148179998
 20
-6.582137494400001
 30
0.0
  0
VERTEX
  5
1E97
  8
3
 10
68.0
 20
-6.529083057999998
 30
0.0
  0
SEQEND
  5
1F49
  8
3
  0
LINE
  5
D31
  8
3
 10
26.97499999999999
 20
29.72
 30
0.0
 11
34.11875000000001
 21
29.72
 31
0.0
  0
LINE
  5
D32
  8
3
 10
19.83124999999998
 20
29.72
 30
0.0
 11
26.97499999999999
 21
29.72
 31
0.0
  0
LINE
  5
D33
  8
3
 10
11.17599999999999
 20
33.12
 30
0.0
 11
16.17599999999999
 21
33.12
 31
0.0
  0
LINE
  5
D34
  8
3
 10
6.175999999999974
 20
33.12
 30
0.0
 11
11.17599999999999
 21
33.12
 31
0.0
  0
POLYLINE
  5
D35
  8
3
 66
     1
 10
0.0
 20
0.0
 30
0.0
  0
VERTEX
  5
1E98
  8
3
 10
68.0
 20
17.19577406319999
 30
0.0
  0
VERTEX
  5
1E99
  8
3
 10
68.43049808519999
 20
17.11573260739999
 30
0.0
  0
VERTEX
  5
1E9A
  8
3
 10
68.96296713659999
 20
16.81295460460001
 30
0.0
  0
VERTEX
  5
1E9B
  8
3
 10
69.5869924788
 20
16.2001465429
 30
0.0
  0
VERTEX
  5
1E9C
  8
3
 10
69.93191287479999
 20
15.6878116282
 30
0.0
  0
VERTEX
  5
1E9D
  8
3
 10
70.08187364669999
 20
15.3062748541
 30
0.0
  0
VERTEX
  5
1E9E
  8
3
 10
70.07727928969999
 20
15.01790853490002
 30
0.0
  0
VERTEX
  5
1E9F
  8
3
 10
69.9339151906
 20
14.8655165975
 30
0.0
  0
VERTEX
  5
1EA0
  8
3
 10
69.6573476021
 20
14.8209318518
 30
0.0
  0
VERTEX
  5
1EA1
  8
3
 10
69.07823587440001
 20
14.91883184740001
 30
0.0
  0
VERTEX
  5
1EA2
  8
3
 10
68.53181526789999
 20
15.0429432741
 30
0.0
  0
VERTEX
  5
1EA3
  8
3
 10
68.12080609
 20
15.09286334890001
 30
0.0
  0
VERTEX
  5
1EA4
  8
3
 10
67.692650582
 20
15.07730321049999
 30
0.0
  0
VERTEX
  5
1EA5
  8
3
 10
67.2100087545
 20
14.9882014243
 30
0.0
  0
VERTEX
  5
1EA6
  8
3
 10
66.57435205729999
 20
14.8453297998
 30
0.0
  0
VERTEX
  5
1EA7
  8
3
 10
66.1023534183
 20
14.85070508199999
 30
0.0
  0
VERTEX
  5
1EA8
  8
3
 10
65.93000750119998
 20
15.00035813990002
 30
0.0
  0
VERTEX
  5
1EA9
  8
3
 10
65.91351671589999
 20
15.28420873780001
 30
0.0
  0
VERTEX
  5
1EAA
  8
3
 10
66.0409212738
 20
15.6350535494
 30
0.0
  0
VERTEX
  5
1EAB
  8
3
 10
66.29871988259998
 20
16.0517184377
 30
0.0
  0
VERTEX
  5
1EAC
  8
3
 10
66.8486549337
 20
16.65778889980001
 30
0.0
  0
VERTEX
  5
1EAD
  8
3
 10
67.4331497499
 20
17.0583515854
 30
0.0
  0
VERTEX
  5
1EAE
  8
3
 10
67.85802959359998
 20
17.18695527
 30
0.0
  0
VERTEX
  5
1EAF
  8
3
 10
68.0
 20
17.19577406319999
 30
0.0
  0
SEQEND
  5
1F48
  8
3
  0
POLYLINE
  5
D36
  8
3
 66
     1
 10
0.0
 20
0.0
 30
0.0
  0
VERTEX
  5
1EB0
  8
3
 10
68.0
 20
-15.0957740632
 30
0.0
  0
VERTEX
  5
1EB1
  8
3
 10
68.43049808519999
 20
-15.06033206289999
 30
0.0
  0
VERTEX
  5
1EB2
  8
3
 10
68.96296713659999
 20
-14.94675678710001
 30
0.0
  0
VERTEX
  5
1EB3
  8
3
 10
69.5869924788
 20
-14.82484480440002
 30
0.0
  0
VERTEX
  5
1EB4
  8
3
 10
69.93191287479999
 20
-14.86457858439999
 30
0.0
  0
VERTEX
  5
1EB5
  8
3
 10
70.08187364669999
 20
-15.03095300759998
 30
0.0
  0
VERTEX
  5
1EB6
  8
3
 10
70.07727928969999
 20
-15.3259844227
 30
0.0
  0
VERTEX
  5
1EB7
  8
3
 10
69.9339151906
 20
-15.6840347925
 30
0.0
  0
VERTEX
  5
1EB8
  8
3
 10
69.6573476021
 20
-16.11058255099999
 30
0.0
  0
VERTEX
  5
1EB9
  8
3
 10
69.07823587440001
 20
-16.7208882836
 30
0.0
  0
VERTEX
  5
1EBA
  8
3
 10
68.53181526789999
 20
-17.0744876425
 30
0.0
  0
VERTEX
  5
1EBB
  8
3
 10
68.12080609
 20
-17.18938568089999
 30
0.0
  0
VERTEX
  5
1EBC
  8
3
 10
67.692650582
 20
-17.15469011120001
 30
0.0
  0
VERTEX
  5
1EBD
  8
3
 10
67.2100087545
 20
-16.93394391289999
 30
0.0
  0
VERTEX
  5
1EBE
  8
3
 10
66.57435205729999
 20
-16.3872532556
 30
0.0
  0
VERTEX
  5
1EBF
  8
3
 10
66.1023534183
 20
-15.7501145832
 30
0.0
  0
VERTEX
  5
1EC0
  8
3
 10
65.93000750119998
 20
-15.35409682149998
 30
0.0
  0
VERTEX
  5
1EC1
  8
3
 10
65.91351671589999
 20
-15.04632745380002
 30
0.0
  0
VERTEX
  5
1EC2
  8
3
 10
66.0409212738
 20
-14.8787397625
 30
0.0
  0
VERTEX
  5
1EC3
  8
3
 10
66.29871988259998
 20
-14.82060269900001
 30
0.0
  0
VERTEX
  5
1EC4
  8
3
 10
66.8486549337
 20
-14.90154161129999
 30
0.0
  0
VERTEX
  5
1EC5
  8
3
 10
67.4331497499
 20
-15.03630292279999
 30
0.0
  0
VERTEX
  5
1EC6
  8
3
 10
67.85802959359998
 20
-15.09175971740001
 30
0.0
  0
VERTEX
  5
1EC7
  8
3
 10
68.0
 20
-15.0957740632
 30
0.0
  0
SEQEND
  5
1F47
  8
3
  0
LINE
  5
D37
  8
3
 10
65.005
 20
-14.82050807569999
 30
0.0
 11
65.005
 21
-19.82050807569999
 31
0.0
  0
POLYLINE
  5
D38
  8
3
 66
     1
 10
0.0
 20
0.0
 30
0.0
  0
VERTEX
  5
1EC8
  8
3
 10
68.0
 20
-17.4452420881
 30
0.0
  0
VERTEX
  5
1EC9
  8
3
 10
67.56950191479999
 20
-17.52528354399999
 30
0.0
  0
VERTEX
  5
1ECA
  8
3
 10
67.03703286339999
 20
-17.8280615468
 30
0.0
  0
VERTEX
  5
1ECB
  8
3
 10
66.4130075212
 20
-18.44086960839999
 30
0.0
  0
VERTEX
  5
1ECC
  8
3
 10
66.06808712519998
 20
-18.95320452319999
 30
0.0
  0
VERTEX
  5
1ECD
  8
3
 10
65.91812635329998
 20
-19.33474129730001
 30
0.0
  0
VERTEX
  5
1ECE
  8
3
 10
65.92272071029998
 20
-19.62310761639998
 30
0.0
  0
VERTEX
  5
1ECF
  8
3
 10
66.0660848094
 20
-19.77549955389998
 30
0.0
  0
VERTEX
  5
1ED0
  8
3
 10
66.3426523979
 20
-19.8200842995
 30
0.0
  0
VERTEX
  5
1ED1
  8
3
 10
66.92176412559999
 20
-19.722184304
 30
0.0
  0
VERTEX
  5
1ED2
  8
3
 10
67.46818473209999
 20
-19.59807287730001
 30
0.0
  0
VERTEX
  5
1ED3
  8
3
 10
67.87919391
 20
-19.5481528025
 30
0.0
  0
VERTEX
  5
1ED4
  8
3
 10
68.307349418
 20
-19.56371294090002
 30
0.0
  0
VERTEX
  5
1ED5
  8
3
 10
68.7899912455
 20
-19.65281472710001
 30
0.0
  0
VERTEX
  5
1ED6
  8
3
 10
69.42564794269998
 20
-19.79568635160001
 30
0.0
  0
VERTEX
  5
1ED7
  8
3
 10
69.8976465817
 20
-19.79031106939999
 30
0.0
  0
VERTEX
  5
1ED8
  8
3
 10
70.06999249879999
 20
-19.64065801149999
 30
0.0
  0
VERTEX
  5
1ED9
  8
3
 10
70.08648328409998
 20
-19.3568074136
 30
0.0
  0
VERTEX
  5
1EDA
  8
3
 10
69.9590787262
 20
-19.00596260189999
 30
0.0
  0
VERTEX
  5
1EDB
  8
3
 10
69.70128011739999
 20
-18.58929771369998
 30
0.0
  0
VERTEX
  5
1EDC
  8
3
 10
69.1513450663
 20
-17.9832272516
 30
0.0
  0
VERTEX
  5
1EDD
  8
3
 10
68.5668502501
 20
-17.58266456600001
 30
0.0
  0
VERTEX
  5
1EDE
  8
3
 10
68.14197040639999
 20
-17.45406088129999
 30
0.0
  0
VERTEX
  5
1EDF
  8
3
 10
68.0
 20
-17.4452420881
 30
0.0
  0
SEQEND
  5
1F46
  8
3
  0
LINE
  5
D39
  8
3
 10
65.005
 20
19.82050807569999
 30
0.0
 11
65.005
 21
14.82050807569999
 31
0.0
  0
POLYLINE
  5
D3A
  8
3
 66
     1
 10
0.0
 20
0.0
 30
0.0
  0
VERTEX
  5
1EE0
  8
3
 10
68.0
 20
19.5452420881
 30
0.0
  0
VERTEX
  5
1EE1
  8
3
 10
67.56950191479999
 20
19.58068408849999
 30
0.0
  0
VERTEX
  5
1EE2
  8
3
 10
67.03703286339999
 20
19.6942593643
 30
0.0
  0
VERTEX
  5
1EE3
  8
3
 10
66.4130075212
 20
19.81617134699999
 30
0.0
  0
VERTEX
  5
1EE4
  8
3
 10
66.06808712519998
 20
19.7764375669
 30
0.0
  0
VERTEX
  5
1EE5
  8
3
 10
65.91812635329998
 20
19.61006314380001
 30
0.0
  0
VERTEX
  5
1EE6
  8
3
 10
65.92272071029998
 20
19.31503172870001
 30
0.0
  0
VERTEX
  5
1EE7
  8
3
 10
66.0660848094
 20
18.95698135890001
 30
0.0
  0
VERTEX
  5
1EE8
  8
3
 10
66.3426523979
 20
18.5304336003
 30
0.0
  0
VERTEX
  5
1EE9
  8
3
 10
66.92176412559999
 20
17.92012786780001
 30
0.0
  0
VERTEX
  5
1EEA
  8
3
 10
67.46818473209999
 20
17.56652850890001
 30
0.0
  0
VERTEX
  5
1EEB
  8
3
 10
67.87919391
 20
17.45163047049999
 30
0.0
  0
VERTEX
  5
1EEC
  8
3
 10
68.307349418
 20
17.4863260402
 30
0.0
  0
VERTEX
  5
1EED
  8
3
 10
68.7899912455
 20
17.7070722384
 30
0.0
  0
VERTEX
  5
1EEE
  8
3
 10
69.42564794269998
 20
18.25376289580001
 30
0.0
  0
VERTEX
  5
1EEF
  8
3
 10
69.8976465817
 20
18.89090156820001
 30
0.0
  0
VERTEX
  5
1EF0
  8
3
 10
70.06999249879999
 20
19.2869193299
 30
0.0
  0
VERTEX
  5
1EF1
  8
3
 10
70.08648328409998
 20
19.59468869759999
 30
0.0
  0
VERTEX
  5
1EF2
  8
3
 10
69.9590787262
 20
19.76227638890001
 30
0.0
  0
VERTEX
  5
1EF3
  8
3
 10
69.70128011739999
 20
19.8204134524
 30
0.0
  0
VERTEX
  5
1EF4
  8
3
 10
69.1513450663
 20
19.73947454
 30
0.0
  0
VERTEX
  5
1EF5
  8
3
 10
68.5668502501
 20
19.60471322859999
 30
0.0
  0
VERTEX
  5
1EF6
  8
3
 10
68.14197040639999
 20
19.54925643390001
 30
0.0
  0
VERTEX
  5
1EF7
  8
3
 10
68.0
 20
19.5452420881
 30
0.0
  0
SEQEND
  5
1F45
  8
3
  0
POLYLINE
  5
D3B
  8
3
 66
     1
 10
0.0
 20
0.0
 30
0.0
  0
VERTEX
  5
1EF8
  8
3
 10
68.0
 20
59.93972745729997
 30
0.0
  0
VERTEX
  5
1EF9
  8
3
 10
68.803635208
 20
59.85980096650002
 30
0.0
  0
VERTEX
  5
1EFA
  8
3
 10
69.48492424049999
 20
59.6321895776
 30
0.0
  0
VERTEX
  5
1EFB
  8
3
 10
69.9401470183
 20
59.29154506130004
 30
0.0
  0
VERTEX
  5
1EFC
  8
3
 10
70.1
 20
58.88972745730001
 30
0.0
  0
VERTEX
  5
1EFD
  8
3
 10
69.9401470183
 20
58.48790985340003
 30
0.0
  0
VERTEX
  5
1EFE
  8
3
 10
69.48492424049999
 20
58.14726533710001
 30
0.0
  0
VERTEX
  5
1EFF
  8
3
 10
68.803635208
 20
57.91965394819999
 30
0.0
  0
VERTEX
  5
1F00
  8
3
 10
68.0
 20
57.8397274573
 30
0.0
  0
VERTEX
  5
1F01
  8
3
 10
67.196364792
 20
57.91965394819999
 30
0.0
  0
VERTEX
  5
1F02
  8
3
 10
66.51507575950001
 20
58.14726533710001
 30
0.0
  0
VERTEX
  5
1F03
  8
3
 10
66.0598529817
 20
58.48790985340003
 30
0.0
  0
VERTEX
  5
1F04
  8
3
 10
65.9
 20
58.88972745730001
 30
0.0
  0
VERTEX
  5
1F05
  8
3
 10
66.0598529817
 20
59.29154506130004
 30
0.0
  0
VERTEX
  5
1F06
  8
3
 10
66.51507575950001
 20
59.6321895776
 30
0.0
  0
VERTEX
  5
1F07
  8
3
 10
67.196364792
 20
59.85980096650002
 30
0.0
  0
VERTEX
  5
1F08
  8
3
 10
68.0
 20
59.93972745729997
 30
0.0
  0
SEQEND
  5
1F44
  8
3
  0
POLYLINE
  5
D3C
  8
3
 66
     1
 10
0.0
 20
0.0
 30
0.0
  0
VERTEX
  5
1F09
  8
3
 10
68.0
 20
-57.8397274573
 30
0.0
  0
VERTEX
  5
1F0A
  8
3
 10
68.803635208
 20
-57.91965394819999
 30
0.0
  0
VERTEX
  5
1F0B
  8
3
 10
69.48492424049999
 20
-58.14726533710001
 30
0.0
  0
VERTEX
  5
1F0C
  8
3
 10
69.9401470183
 20
-58.4879098534
 30
0.0
  0
VERTEX
  5
1F0D
  8
3
 10
70.1
 20
-58.88972745730001
 30
0.0
  0
VERTEX
  5
1F0E
  8
3
 10
69.9401470183
 20
-59.29154506129998
 30
0.0
  0
VERTEX
  5
1F0F
  8
3
 10
69.48492424049999
 20
-59.6321895776
 30
0.0
  0
VERTEX
  5
1F10
  8
3
 10
68.803635208
 20
-59.85980096649999
 30
0.0
  0
VERTEX
  5
1F11
  8
3
 10
68.0
 20
-59.93972745729999
 30
0.0
  0
VERTEX
  5
1F12
  8
3
 10
67.196364792
 20
-59.85980096649999
 30
0.0
  0
VERTEX
  5
1F13
  8
3
 10
66.51507575950001
 20
-59.6321895776
 30
0.0
  0
VERTEX
  5
1F14
  8
3
 10
66.0598529817
 20
-59.29154506129998
 30
0.0
  0
VERTEX
  5
1F15
  8
3
 10
65.9
 20
-58.88972745730001
 30
0.0
  0
VERTEX
  5
1F16
  8
3
 10
66.0598529817
 20
-58.4879098534
 30
0.0
  0
VERTEX
  5
1F17
  8
3
 10
66.51507575950001
 20
-58.14726533710001
 30
0.0
  0
VERTEX
  5
1F18
  8
3
 10
67.196364792
 20
-57.91965394819999
 30
0.0
  0
VERTEX
  5
1F19
  8
3
 10
68.0
 20
-57.8397274573
 30
0.0
  0
SEQEND
  5
1F43
  8
3
  0
POLYLINE
  5
D41
  8
3
 66
     1
 10
0.0
 20
0.0
 30
0.0
  0
VERTEX
  5
1F1A
  8
3
 10
70.625
 20
-58.88972745730001
 30
0.0
  0
VERTEX
  5
1F1B
  8
3
 10
70.4666931296
 20
-59.33862889549999
 30
0.0
  0
VERTEX
  5
1F1C
  8
3
 10
70.0108666632
 20
-59.7333861951
 30
0.0
  0
VERTEX
  5
1F1D
  8
3
 10
69.3125
 20
-60.02638579979998
 30
0.0
  0
VERTEX
  5
1F1E
  8
3
 10
68.4558264664
 20
-60.18228763319999
 30
0.0
  0
VERTEX
  5
1F1F
  8
3
 10
67.5441735336
 20
-60.18228763319999
 30
0.0
  0
VERTEX
  5
1F20
  8
3
 10
66.6875
 20
-60.02638579979998
 30
0.0
  0
VERTEX
  5
1F21
  8
3
 10
65.9891333368
 20
-59.7333861951
 30
0.0
  0
VERTEX
  5
1F22
  8
3
 10
65.5333068704
 20
-59.33862889549999
 30
0.0
  0
VERTEX
  5
1F23
  8
3
 10
65.375
 20
-58.88972745730001
 30
0.0
  0
VERTEX
  5
1F24
  8
3
 10
65.5333068704
 20
-58.44082601920002
 30
0.0
  0
VERTEX
  5
1F25
  8
3
 10
65.9891333368
 20
-58.04606871959999
 30
0.0
  0
VERTEX
  5
1F26
  8
3
 10
66.6875
 20
-57.7530691149
 30
0.0
  0
VERTEX
  5
1F27
  8
3
 10
67.5441735336
 20
-57.59716728149999
 30
0.0
  0
VERTEX
  5
1F28
  8
3
 10
68.4558264664
 20
-57.59716728149999
 30
0.0
  0
VERTEX
  5
1F29
  8
3
 10
69.3125
 20
-57.7530691149
 30
0.0
  0
VERTEX
  5
1F2A
  8
3
 10
70.0108666632
 20
-58.04606871959999
 30
0.0
  0
VERTEX
  5
1F2B
  8
3
 10
70.4666931296
 20
-58.44082601920002
 30
0.0
  0
VERTEX
  5
1F2C
  8
3
 10
70.625
 20
-58.88972745730001
 30
0.0
  0
SEQEND
  5
1F42
  8
3
  0
POLYLINE
  5
D42
  8
3
 66
     1
 10
0.0
 20
0.0
 30
0.0
  0
VERTEX
  5
1F2D
  8
3
 10
70.625
 20
58.88972745730001
 30
0.0
  0
VERTEX
  5
1F2E
  8
3
 10
70.4666931296
 20
58.44082601920002
 30
0.0
  0
VERTEX
  5
1F2F
  8
3
 10
70.0108666632
 20
58.04606871959999
 30
0.0
  0
VERTEX
  5
1F30
  8
3
 10
69.3125
 20
57.75306911490003
 30
0.0
  0
VERTEX
  5
1F31
  8
3
 10
68.4558264664
 20
57.59716728149999
 30
0.0
  0
VERTEX
  5
1F32
  8
3
 10
67.5441735336
 20
57.59716728149999
 30
0.0
  0
VERTEX
  5
1F33
  8
3
 10
66.6875
 20
57.75306911490003
 30
0.0
  0
VERTEX
  5
1F34
  8
3
 10
65.9891333368
 20
58.04606871959999
 30
0.0
  0
VERTEX
  5
1F35
  8
3
 10
65.5333068704
 20
58.44082601920002
 30
0.0
  0
VERTEX
  5
1F36
  8
3
 10
65.375
 20
58.88972745730001
 30
0.0
  0
VERTEX
  5
1F37
  8
3
 10
65.5333068704
 20
59.33862889549999
 30
0.0
  0
VERTEX
  5
1F38
  8
3
 10
65.9891333368
 20
59.73338619509997
 30
0.0
  0
VERTEX
  5
1F39
  8
3
 10
66.6875
 20
60.02638579980004
 30
0.0
  0
VERTEX
  5
1F3A
  8
3
 10
67.5441735336
 20
60.18228763320002
 30
0.0
  0
VERTEX
  5
1F3B
  8
3
 10
68.4558264664
 20
60.18228763320002
 30
0.0
  0
VERTEX
  5
1F3C
  8
3
 10
69.3125
 20
60.02638579980004
 30
0.0
  0
VERTEX
  5
1F3D
  8
3
 10
70.0108666632
 20
59.73338619509997
 30
0.0
  0
VERTEX
  5
1F3E
  8
3
 10
70.4666931296
 20
59.33862889549999
 30
0.0
  0
VERTEX
  5
1F3F
  8
3
 10
70.625
 20
58.88972745730001
 30
0.0
  0
SEQEND
  5
1F41
  8
3
  0
LINE
  5
D43
  8
3
 10
66.10839563599998
 20
53.51559685110004
 30
0.0
 11
66.5711309834
 21
53.1883935491
 31
0.0
  0
LINE
  5
D44
  8
3
 10
69.4288690166
 20
53.1883935491
 30
0.0
 11
69.8916043639
 21
53.51559685110004
 31
0.0
  0
LINE
  5
D45
  8
3
 10
66.585496796
 20
53.58226392260002
 30
0.0
 11
66.83727836629998
 21
53.49587754200002
 31
0.0
  0
LINE
  5
D46
  8
3
 10
69.16272163369999
 20
53.49587754200002
 30
0.0
 11
69.414503204
 21
53.58226392260002
 31
0.0
  0
LINE
  5
D47
  8
3
 10
69.31081035540001
 20
55.13950129100004
 30
0.0
 11
69.16272163369999
 21
55.19031060419996
 31
0.0
  0
LINE
  5
D48
  8
3
 10
66.83727836629998
 20
55.19031060419996
 30
0.0
 11
66.68918964459999
 21
55.13950129100004
 31
0.0
  0
LINE
  5
D49
  8
3
 10
65.5
 20
54.69098051910004
 30
0.0
 11
65.5
 21
54.61294096770001
 31
0.0
  0
LINE
  5
D4A
  8
3
 10
70.5
 20
54.61294096770001
 30
0.0
 11
70.5
 21
54.69098051910004
 31
0.0
  0
LINE
  5
D4B
  8
3
 10
69.414503204
 20
55.72165756430002
 30
0.0
 11
69.16272163369999
 21
55.80804394479998
 31
0.0
  0
LINE
  5
D4C
  8
3
 10
66.83727836629998
 20
55.80804394479998
 30
0.0
 11
66.585496796
 21
55.72165756430002
 31
0.0
  0
LINE
  5
D4D
  8
3
 10
66.585496796
 20
54.19999726320003
 30
0.0
 11
66.83727836629998
 21
54.11361088259997
 31
0.0
  0
LINE
  5
D4E
  8
3
 10
69.16272163369999
 20
54.11361088259997
 30
0.0
 11
69.414503204
 21
54.19999726320003
 31
0.0
  0
LINE
  5
D4F
  8
3
 10
65.5
 20
55.30871385969999
 30
0.0
 11
65.5
 21
55.23067430830002
 31
0.0
  0
LINE
  5
D50
  8
3
 10
70.5
 20
55.23067430830002
 30
0.0
 11
70.5
 21
55.30871385969999
 31
0.0
  0
LINE
  5
D51
  8
3
 10
69.414503204
 20
56.33939090489997
 30
0.0
 11
69.16272163369999
 21
56.42577728539999
 31
0.0
  0
LINE
  5
D52
  8
3
 10
66.83727836629998
 20
56.42577728539999
 30
0.0
 11
66.585496796
 21
56.33939090489997
 31
0.0
  0
LINE
  5
D53
  8
3
 10
66.585496796
 20
54.81773060380004
 30
0.0
 11
66.83727836629998
 21
54.73134422319998
 31
0.0
  0
LINE
  5
D54
  8
3
 10
69.16272163369999
 20
54.73134422319998
 30
0.0
 11
69.414503204
 21
54.81773060380004
 31
0.0
  0
LINE
  5
D55
  8
3
 10
65.5
 20
55.9264472003
 30
0.0
 11
65.5
 21
55.84840764890004
 31
0.0
  0
LINE
  5
D56
  8
3
 10
70.5
 20
55.84840764890004
 30
0.0
 11
70.5
 21
55.9264472003
 31
0.0
  0
LINE
  5
D57
  8
3
 10
69.414503204
 20
56.95712424549998
 30
0.0
 11
69.16272163369999
 21
57.043510626
 31
0.0
  0
LINE
  5
D58
  8
3
 10
66.83727836629998
 20
57.04351062610004
 30
0.0
 11
66.585496796
 21
56.95712424549998
 31
0.0
  0
LINE
  5
D59
  8
3
 10
66.585496796
 20
55.4354639444
 30
0.0
 11
66.83727836629998
 21
55.34907756379999
 31
0.0
  0
LINE
  5
D5A
  8
3
 10
69.16272163369999
 20
55.34907756379999
 30
0.0
 11
69.414503204
 21
55.4354639444
 31
0.0
  0
LINE
  5
D5B
  8
3
 10
65.5
 20
56.54418054090002
 30
0.0
 11
65.5
 21
56.46614098949999
 31
0.0
  0
LINE
  5
D5C
  8
3
 10
70.5
 20
56.46614098949999
 30
0.0
 11
70.5
 21
56.54418054090002
 31
0.0
  0
LINE
  5
D5D
  8
3
 10
69.414503204
 20
57.57485758609999
 30
0.0
 11
69.16272163369999
 21
57.6612439667
 31
0.0
  0
LINE
  5
D5E
  8
3
 10
66.83727836629998
 20
57.6612439667
 30
0.0
 11
66.585496796
 21
57.57485758609999
 31
0.0
  0
LINE
  5
D5F
  8
3
 10
66.585496796
 20
56.05319728500001
 30
0.0
 11
66.83727836629998
 21
55.96681090440001
 31
0.0
  0
LINE
  5
D60
  8
3
 10
69.16272163369999
 20
55.96681090440001
 30
0.0
 11
69.414503204
 21
56.05319728500001
 31
0.0
  0
LINE
  5
D61
  8
3
 10
65.5
 20
57.16191388149997
 30
0.0
 11
65.5
 21
57.0838743301
 31
0.0
  0
LINE
  5
D62
  8
3
 10
70.5
 20
57.0838743301
 30
0.0
 11
70.5
 21
57.16191388149997
 31
0.0
  0
LINE
  5
D63
  8
3
 10
69.414503204
 20
58.19259092670001
 30
0.0
 11
69.16272163369999
 21
58.27897730730001
 31
0.0
  0
LINE
  5
D64
  8
3
 10
66.83727836629998
 20
58.27897730730001
 30
0.0
 11
66.585496796
 21
58.19259092670001
 31
0.0
  0
LINE
  5
D65
  8
3
 10
66.585496796
 20
56.67093062559996
 30
0.0
 11
66.83727836629998
 21
56.58454424500002
 31
0.0
  0
LINE
  5
D66
  8
3
 10
69.16272163369999
 20
56.58454424500002
 30
0.0
 11
69.414503204
 21
56.67093062559996
 31
0.0
  0
LINE
  5
D67
  8
3
 10
65.5
 20
57.77964722209998
 30
0.0
 11
65.5
 21
57.7016076708
 31
0.0
  0
LINE
  5
D68
  8
3
 10
70.5
 20
57.7016076708
 30
0.0
 11
70.5
 21
57.77964722209998
 31
0.0
  0
LINE
  5
D69
  8
3
 10
69.414503204
 20
58.81032426730002
 30
0.0
 11
69.16272163369999
 21
58.89671064789997
 31
0.0
  0
LINE
  5
D6A
  8
3
 10
66.83727836629998
 20
58.89671064789997
 30
0.0
 11
66.585496796
 21
58.81032426730002
 31
0.0
  0
LINE
  5
D6B
  8
3
 10
66.585496796
 20
57.28866396619998
 30
0.0
 11
66.83727836629998
 21
57.20227758560003
 31
0.0
  0
LINE
  5
D6C
  8
3
 10
69.16272163369999
 20
57.20227758560003
 30
0.0
 11
69.414503204
 21
57.28866396619998
 31
0.0
  0
LINE
  5
D6D
  8
3
 10
65.5
 20
58.39738056269999
 30
0.0
 11
65.5
 21
58.31934101140001
 31
0.0
  0
LINE
  5
D6E
  8
3
 10
70.5
 20
58.31934101140001
 30
0.0
 11
70.5
 21
58.39738056269999
 31
0.0
  0
LINE
  5
D6F
  8
3
 10
69.414503204
 20
59.42805760790003
 30
0.0
 11
69.16272163369999
 21
59.51444398849998
 31
0.0
  0
LINE
  5
D70
  8
3
 10
66.83727836629998
 20
59.51444398849998
 30
0.0
 11
66.585496796
 21
59.42805760790003
 31
0.0
  0
LINE
  5
D71
  8
3
 10
66.7234939594
 20
57.85905041220002
 30
0.0
 11
66.83727836629998
 21
57.82001092620004
 31
0.0
  0
LINE
  5
D72
  8
3
 10
69.16272163369999
 20
57.82001092620004
 30
0.0
 11
69.2765060406
 21
57.85905041220002
 31
0.0
  0
LINE
  5
D73
  8
3
 10
69.8916043639
 20
-53.51559685109999
 30
0.0
 11
69.4288690166
 21
-53.1883935491
 31
0.0
  0
LINE
  5
D74
  8
3
 10
66.5711309834
 20
-53.1883935491
 30
0.0
 11
66.10839563599998
 21
-53.51559685109999
 31
0.0
  0
LINE
  5
D75
  8
3
 10
69.414503204
 20
-53.58226392259999
 30
0.0
 11
69.16272163369999
 21
-53.49587754200002
 31
0.0
  0
LINE
  5
D76
  8
3
 10
66.83727836629998
 20
-53.49587754200002
 30
0.0
 11
66.585496796
 21
-53.58226392259999
 31
0.0
  0
LINE
  5
D77
  8
3
 10
66.68918964459999
 20
-55.13950129099999
 30
0.0
 11
66.83727836629998
 21
-55.19031060419999
 31
0.0
  0
LINE
  5
D78
  8
3
 10
69.16272163369999
 20
-55.19031060419999
 30
0.0
 11
69.31081035540001
 21
-55.13950129099999
 31
0.0
  0
LINE
  5
D79
  8
3
 10
70.5
 20
-54.69098051909998
 30
0.0
 11
70.5
 21
-54.61294096770001
 31
0.0
  0
LINE
  5
D7A
  8
3
 10
65.5
 20
-54.61294096770001
 30
0.0
 11
65.5
 21
-54.69098051909998
 31
0.0
  0
LINE
  5
D7B
  8
3
 10
66.585496796
 20
-55.72165756430002
 30
0.0
 11
66.83727836629998
 21
-55.80804394479998
 31
0.0
  0
LINE
  5
D7C
  8
3
 10
69.16272163369999
 20
-55.80804394479998
 30
0.0
 11
69.414503204
 21
-55.72165756430002
 31
0.0
  0
LINE
  5
D7D
  8
3
 10
69.414503204
 20
-54.1999972632
 30
0.0
 11
69.16272163369999
 21
-54.1136108826
 31
0.0
  0
LINE
  5
D7E
  8
3
 10
66.83727836629998
 20
-54.1136108826
 30
0.0
 11
66.585496796
 21
-54.1999972632
 31
0.0
  0
LINE
  5
D7F
  8
3
 10
70.5
 20
-55.30871385969999
 30
0.0
 11
70.5
 21
-55.2306743083
 31
0.0
  0
LINE
  5
D80
  8
3
 10
65.5
 20
-55.2306743083
 30
0.0
 11
65.5
 21
-55.30871385969999
 31
0.0
  0
LINE
  5
D81
  8
3
 10
66.585496796
 20
-56.3393909049
 30
0.0
 11
66.83727836629998
 21
-56.42577728549998
 31
0.0
  0
LINE
  5
D82
  8
3
 10
69.16272163369999
 20
-56.42577728549998
 30
0.0
 11
69.414503204
 21
-56.3393909049
 31
0.0
  0
LINE
  5
D83
  8
3
 10
69.414503204
 20
-54.81773060379999
 30
0.0
 11
69.16272163369999
 21
-54.73134422319998
 31
0.0
  0
LINE
  5
D84
  8
3
 10
66.83727836629998
 20
-54.73134422319998
 30
0.0
 11
66.585496796
 21
-54.81773060379999
 31
0.0
  0
LINE
  5
D85
  8
3
 10
70.5
 20
-55.9264472003
 30
0.0
 11
70.5
 21
-55.84840764889998
 31
0.0
  0
LINE
  5
D86
  8
3
 10
65.5
 20
-55.84840764889998
 30
0.0
 11
65.5
 21
-55.9264472003
 31
0.0
  0
LINE
  5
D87
  8
3
 10
66.585496796
 20
-56.95712424549998
 30
0.0
 11
66.83727836629998
 21
-57.04351062609999
 31
0.0
  0
LINE
  5
D88
  8
3
 10
69.16272163369999
 20
-57.04351062609999
 30
0.0
 11
69.414503204
 21
-56.95712424549998
 31
0.0
  0
LINE
  5
D89
  8
3
 10
69.414503204
 20
-55.4354639444
 30
0.0
 11
69.16272163369999
 21
-55.34907756379999
 31
0.0
  0
LINE
  5
D8A
  8
3
 10
66.83727836629998
 20
-55.34907756379999
 30
0.0
 11
66.585496796
 21
-55.4354639444
 31
0.0
  0
LINE
  5
D8B
  8
3
 10
70.5
 20
-56.54418054090002
 30
0.0
 11
70.5
 21
-56.46614098959998
 31
0.0
  0
LINE
  5
D8C
  8
3
 10
65.5
 20
-56.46614098959998
 30
0.0
 11
65.5
 21
-56.54418054090002
 31
0.0
  0
LINE
  5
D8D
  8
3
 10
66.585496796
 20
-57.57485758609999
 30
0.0
 11
66.83727836629998
 21
-57.6612439667
 31
0.0
  0
LINE
  5
D8E
  8
3
 10
69.16272163369999
 20
-57.6612439667
 30
0.0
 11
69.414503204
 21
-57.57485758609999
 31
0.0
  0
LINE
  5
D8F
  8
3
 10
69.414503204
 20
-56.05319728500001
 30
0.0
 11
69.16272163369999
 21
-55.96681090440001
 31
0.0
  0
LINE
  5
D90
  8
3
 10
66.83727836629998
 20
-55.96681090440001
 30
0.0
 11
66.585496796
 21
-56.05319728500001
 31
0.0
  0
LINE
  5
D91
  8
3
 10
70.5
 20
-57.1619138815
 30
0.0
 11
70.5
 21
-57.08387433019999
 31
0.0
  0
LINE
  5
D92
  8
3
 10
65.5
 20
-57.08387433019999
 30
0.0
 11
65.5
 21
-57.1619138815
 31
0.0
  0
LINE
  5
D93
  8
3
 10
66.585496796
 20
-58.19259092670001
 30
0.0
 11
66.83727836629998
 21
-58.27897730730001
 31
0.0
  0
LINE
  5
D94
  8
3
 10
69.16272163369999
 20
-58.27897730730001
 30
0.0
 11
69.414503204
 21
-58.19259092670001
 31
0.0
  0
LINE
  5
D95
  8
3
 10
69.414503204
 20
-56.67093062559999
 30
0.0
 11
69.16272163369999
 21
-56.58454424500002
 31
0.0
  0
LINE
  5
D96
  8
3
 10
66.83727836629998
 20
-56.58454424500002
 30
0.0
 11
66.585496796
 21
-56.67093062559999
 31
0.0
  0
LINE
  5
D97
  8
3
 10
70.5
 20
-57.77964722209998
 30
0.0
 11
70.5
 21
-57.7016076708
 31
0.0
  0
LINE
  5
D98
  8
3
 10
65.5
 20
-57.7016076708
 30
0.0
 11
65.5
 21
-57.77964722209998
 31
0.0
  0
LINE
  5
D99
  8
3
 10
66.585496796
 20
-58.81032426730002
 30
0.0
 11
66.83727836629998
 21
-58.89671064789999
 31
0.0
  0
LINE
  5
D9A
  8
3
 10
69.16272163369999
 20
-58.89671064789999
 30
0.0
 11
69.414503204
 21
-58.81032426730002
 31
0.0
  0
LINE
  5
D9B
  8
3
 10
69.414503204
 20
-57.28866396619998
 30
0.0
 11
69.16272163369999
 21
-57.2022775856
 31
0.0
  0
LINE
  5
D9C
  8
3
 10
66.83727836629998
 20
-57.2022775856
 30
0.0
 11
66.585496796
 21
-57.28866396619998
 31
0.0
  0
LINE
  5
D9D
  8
3
 10
70.5
 20
-58.39738056269999
 30
0.0
 11
70.5
 21
-58.31934101140001
 31
0.0
  0
LINE
  5
D9E
  8
3
 10
65.5
 20
-58.31934101140001
 30
0.0
 11
65.5
 21
-58.39738056269999
 31
0.0
  0
LINE
  5
D9F
  8
3
 10
66.585496796
 20
-59.4280576079
 30
0.0
 11
66.83727836629998
 21
-59.51444398850001
 31
0.0
  0
LINE
  5
DA0
  8
3
 10
69.16272163369999
 20
-59.51444398850001
 30
0.0
 11
69.414503204
 21
-59.4280576079
 31
0.0
  0
LINE
  5
DA1
  8
3
 10
69.2765060406
 20
-57.85905041219999
 30
0.0
 11
69.16272163369999
 21
-57.82001092619998
 31
0.0
  0
LINE
  5
DA2
  8
3
 10
66.83727836629998
 20
-57.82001092619998
 30
0.0
 11
66.7234939594
 21
-57.85905041219999
 31
0.0
  0
LINE
  5
DA3
  8
3
 10
90.0
 20
-38.09618999999998
 30
0.0
 11
73.1998051615
 21
-38.09618999999998
 31
0.0
  0
LINE
  5
DA4
  8
3
 10
73.1998051615
 20
-63.50380999999999
 30
0.0
 11
90.0
 21
-63.50380999999999
 31
0.0
  0
ARC
  5
DA5
  8
3
 10
72.94999999999999
 20
-34.98105906339998
 30
0.0
 40
3.125130936627997
 50
270.0
 51
274.5847894509001
  0
ARC
  5
DA6
  8
3
 10
72.94999999999999
 20
-66.61894093659998
 30
0.0
 40
3.125130936627985
 50
85.41521054909988
 51
90.0
  0
LINE
  5
DA7
  8
3
 10
72.94999999999999
 20
-38.10619
 30
0.0
 11
71.8748395106
 21
-38.10619
 31
0.0
  0
LINE
  5
DA8
  8
3
 10
71.8748395106
 20
-63.49381
 30
0.0
 11
72.94999999999999
 21
-63.49381
 31
0.0
  0
LINE
  5
DA9
  8
3
 10
71.8748395106
 20
-38.10619
 30
0.0
 11
70.94999999999999
 21
-38.35399999999998
 31
0.0
  0
LINE
  5
DAA
  8
3
 10
70.94999999999999
 20
-63.24599999999998
 30
0.0
 11
71.8748395106
 21
-63.49381
 31
0.0
  0
LINE
  5
DAB
  8
3
 10
90.0
 20
63.50380999999999
 30
0.0
 11
73.1998051615
 21
63.50380999999999
 31
0.0
  0
LINE
  5
DAC
  8
3
 10
73.1998051615
 20
38.09619000000001
 30
0.0
 11
90.0
 21
38.09619000000001
 31
0.0
  0
ARC
  5
DAD
  8
3
 10
72.94999999999999
 20
66.61894093660004
 30
0.0
 40
3.125130936627992
 50
270.0
 51
274.5847894509001
  0
ARC
  5
DAE
  8
3
 10
72.94999999999999
 20
34.98105906340001
 30
0.0
 40
3.125130936628011
 50
85.41521054909994
 51
90.0
  0
LINE
  5
DAF
  8
3
 10
72.94999999999999
 20
63.49381
 30
0.0
 11
71.8748395106
 21
63.49381
 31
0.0
  0
LINE
  5
DB0
  8
3
 10
71.8748395106
 20
38.10619
 30
0.0
 11
72.94999999999999
 21
38.10619
 31
0.0
  0
LINE
  5
DB1
  8
3
 10
71.8748395106
 20
63.49381
 30
0.0
 11
70.94999999999999
 21
63.24600000000004
 31
0.0
  0
LINE
  5
DB2
  8
3
 10
70.94999999999999
 20
38.35400000000001
 30
0.0
 11
71.8748395106
 21
38.10619
 31
0.0
  0
LINE
  5
DB3
  8
3
 10
52.25
 20
42.92102448430001
 30
0.0
 11
48.20854811569998
 21
35.92102448430001
 31
0.0
  0
LINE
  5
DB4
  8
3
 10
48.20854811569998
 20
35.92102448430001
 30
0.0
 11
52.25
 21
28.92102448430001
 31
0.0
  0
LINE
  5
DB5
  8
3
 10
90.0
 20
42.92102448430001
 30
0.0
 11
52.25
 21
42.92102448430001
 31
0.0
  0
LINE
  5
DB6
  8
3
 10
52.25
 20
28.92102448430001
 30
0.0
 11
90.0
 21
28.92102448430001
 31
0.0
  0
LINE
  5
DB7
  8
3
 10
90.0
 20
-28.92102448430001
 30
0.0
 11
52.25
 21
-28.92102448430001
 31
0.0
  0
LINE
  5
DB8
  8
3
 10
52.25
 20
-42.92102448430001
 30
0.0
 11
90.0
 21
-42.92102448430001
 31
0.0
  0
LINE
  5
DB9
  8
3
 10
52.25
 20
-28.92102448430001
 30
0.0
 11
48.20854811569998
 21
-35.92102448430001
 31
0.0
  0
LINE
  5
DBA
  8
3
 10
48.20854811569998
 20
-35.92102448430001
 30
0.0
 11
52.25
 21
-42.92102448430001
 31
0.0
  0
LINE
  5
DBD
  8
3
 10
90.0
 20
30.99907116049999
 30
0.0
 11
89.81362966949999
 21
30.303527618
 31
0.0
  0
LINE
  5
DBE
  8
3
 10
89.81362966949999
 20
-30.303527618
 30
0.0
 11
90.0
 21
-30.99907116060001
 31
0.0
  0
ARC
  5
DBF
  8
3
 10
90.19999999999999
 20
-30.19999999999999
 30
0.0
 40
0.4000000000000108
 50
166.875000000005
 51
195.0000000000026
  0
ARC
  5
DC0
  8
3
 10
90.19999999999999
 20
-30.19999999999999
 30
0.0
 40
0.4000000000000192
 50
120.0000000000022
 51
166.875000000001
  0
ARC
  5
DC1
  8
3
 10
90.19999999999999
 20
30.20000000000002
 30
0.0
 40
0.4000000000000057
 50
165.0000000000014
 51
180.0
  0
ARC
  5
DC2
  8
3
 10
90.19999999999999
 20
30.20000000000002
 30
0.0
 40
0.4000000000000315
 50
180.0
 51
239.9999999999998
  0
LINE
  5
DC3
  8
3
 10
89.79999999999998
 20
30.20000000000002
 30
0.0
 11
89.79999999999998
 21
-30.19999999999999
 31
0.0
  0
LINE
  5
DC4
  8
3
 10
90.0
 20
2.5
 30
0.0
 11
68.75327337299998
 21
2.5
 31
0.0
  0
LINE
  5
DC5
  8
3
 10
67.28149304249999
 20
2.5
 30
0.0
 11
65.005
 21
2.5
 31
0.0
  0
LINE
  5
DC6
  8
3
 10
65.005
 20
-2.5
 30
0.0
 11
67.27524242839999
 21
-2.5
 31
0.0
  0
LINE
  5
DC7
  8
3
 10
68.67079335540001
 20
-2.5
 30
0.0
 11
90.0
 21
-2.5
 31
0.0
  0
LINE
  5
DC8
  8
3
 10
65.005
 20
2.5
 30
0.0
 11
63.5028484524
 21
0.0
 31
0.0
  0
LINE
  5
DC9
  8
3
 10
63.5028484524
 20
0.0
 30
0.0
 11
65.005
 21
-2.5
 31
0.0
  0
LINE
  5
DCC
  8
3
 10
35.72499483729999
 20
44.19999865349999
 30
0.0
 11
36.52499408130001
 21
44.99999841659999
 31
0.0
  0
LINE
  5
DCD
  8
3
 10
35.7999942905
 20
-44.99999841659999
 30
0.0
 11
34.99999483729999
 21
-44.19999886260001
 31
0.0
  0
LINE
  5
DD0
  8
3
 10
35.72499999999999
 20
38.482
 30
0.0
 11
35.72499999999999
 21
44.3001965862
 31
0.0
  0
ARC
  5
DD2
  8
3
 10
34.96299999999999
 20
38.482
 30
0.0
 40
0.7620000000000289
 50
270.0
 51
0.0
  0
LINE
  5
DD4
  8
3
 10
90.0
 20
-38.09999999999999
 30
0.0
 11
68.0
 21
-38.09999999999999
 31
0.0
  0
LINE
  5
DD5
  8
3
 10
68.0
 20
-63.5
 30
0.0
 11
90.0
 21
-63.5
 31
0.0
  0
LINE
  5
DD6
  8
3
 10
90.0
 20
63.5
 30
0.0
 11
68.0
 21
63.5
 31
0.0
  0
LINE
  5
DD7
  8
3
 10
68.0
 20
38.09999999999999
 30
0.0
 11
90.0
 21
38.09999999999999
 31
0.0
  0
LINE
  5
DD8
  8
3
 10
68.0
 20
-38.09999999999999
 30
0.0
 11
60.3690701383
 21
-50.80000000000001
 31
0.0
  0
LINE
  5
DD9
  8
3
 10
60.3690701383
 20
-50.80000000000001
 30
0.0
 11
68.0
 21
-63.5
 31
0.0
  0
LINE
  5
DDA
  8
3
 10
68.0
 20
63.5
 30
0.0
 11
60.3690701383
 21
50.80000000000001
 31
0.0
  0
LINE
  5
DDB
  8
3
 10
60.3690701383
 20
50.80000000000001
 30
0.0
 11
68.0
 21
38.09999999999999
 31
0.0
  0
LINE
  5
DE4
  8
3
 10
90.005
 20
9.0
 30
0.0
 11
-0.0000000000000426
 21
9.0
 31
0.0
  0
LINE
  5
DE5
  8
3
 10
0.0000000000000213
 20
-9.0
 30
0.0
 11
90.005
 21
-9.0
 31
0.0
  0
LINE
  5
DE6
  8
3
 10
19.83124999999998
 20
37.72
 30
0.0
 11
19.83124999999998
 21
29.72
 31
0.0
  0
LINE
  5
DE7
  8
3
 10
34.11875000000001
 20
29.72
 30
0.0
 11
34.11875000000001
 21
37.72
 31
0.0
  0
LINE
  5
DE8
  8
3
 10
19.83124999999998
 20
29.72
 30
0.0
 11
26.97499999999999
 21
25.42760195279999
 31
0.0
  0
LINE
  5
DE9
  8
3
 10
26.97499999999999
 20
25.42760195279999
 30
0.0
 11
34.11875000000001
 21
29.72
 31
0.0
  0
LINE
  5
DEA
  8
3
 10
6.175999999999974
 20
37.72
 30
0.0
 11
6.175999999999974
 21
33.12
 31
0.0
  0
LINE
  5
DEB
  8
3
 10
16.17599999999999
 20
33.12
 30
0.0
 11
16.17599999999999
 21
37.72
 31
0.0
  0
LINE
  5
DEC
  8
3
 10
9.159561145899985
 20
33.12
 30
0.0
 11
11.17599999999999
 21
31.9084013019
 31
0.0
  0
LINE
  5
DED
  8
3
 10
11.17599999999999
 20
31.9084013019
 30
0.0
 11
13.19243885409998
 21
33.12
 31
0.0
  0
LINE
  5
DEE
  8
3
 10
65.9
 20
15.17006543689999
 30
0.0
 11
65.9
 21
7.792280265199992
 31
0.0
  0
LINE
  5
DEF
  8
3
 10
70.1
 20
7.789217855999993
 30
0.0
 11
70.1
 21
15.1701857413
 31
0.0
  0
LINE
  5
DF0
  8
3
 10
70.1
 20
-15.1701857413
 30
0.0
 11
70.1
 21
-7.789217855999993
 31
0.0
  0
LINE
  5
DF1
  8
3
 10
65.9
 20
-7.792280265199992
 30
0.0
 11
65.9
 21
-15.17006543690002
 31
0.0
  0
LINE
  5
DF2
  8
3
 10
66.31674831999999
 20
-14.82050807569999
 30
0.0
 11
65.005
 21
-14.82050807569999
 31
0.0
  0
LINE
  5
DF3
  8
3
 10
90.0
 20
-14.82050807569999
 30
0.0
 11
69.6691052971
 21
-14.82050807569999
 31
0.0
  0
LINE
  5
DF4
  8
3
 10
69.65002753049998
 20
-19.82050807569999
 30
0.0
 11
90.0
 21
-19.82050807569999
 31
0.0
  0
LINE
  5
DF5
  8
3
 10
65.005
 20
-19.82050807569999
 30
0.0
 11
66.3182895025
 21
-19.82050807569999
 31
0.0
  0
LINE
  5
DF6
  8
3
 10
65.005
 20
-14.82050807569999
 30
0.0
 11
63.5028484524
 21
-17.32050807569999
 31
0.0
  0
LINE
  5
DF7
  8
3
 10
63.5028484524
 20
-17.32050807569999
 30
0.0
 11
65.005
 21
-19.82050807569999
 31
0.0
  0
LINE
  5
DF8
  8
3
 10
66.3308947029
 20
19.82050807569999
 30
0.0
 11
65.005
 21
19.82050807569999
 31
0.0
  0
LINE
  5
DF9
  8
3
 10
90.0
 20
19.82050807569999
 30
0.0
 11
69.68325167999998
 21
19.82050807569999
 31
0.0
  0
LINE
  5
DFA
  8
3
 10
69.6817104975
 20
14.82050807569999
 30
0.0
 11
90.0
 21
14.82050807569999
 31
0.0
  0
LINE
  5
DFB
  8
3
 10
65.005
 20
14.82050807569999
 30
0.0
 11
66.34997246949999
 21
14.82050807569999
 31
0.0
  0
LINE
  5
DFC
  8
3
 10
65.005
 20
19.82050807569999
 30
0.0
 11
63.5028484524
 21
17.32050807569999
 31
0.0
  0
LINE
  5
DFD
  8
3
 10
63.5028484524
 20
17.32050807569999
 30
0.0
 11
65.005
 21
14.82050807569999
 31
0.0
  0
LINE
  5
DFE
  8
3
 10
65.9
 20
58.88972745730001
 30
0.0
 11
65.9
 21
19.47083040999999
 31
0.0
  0
LINE
  5
DFF
  8
3
 10
70.1
 20
19.4709507144
 30
0.0
 11
70.1
 21
58.88972745730001
 31
0.0
  0
LINE
  5
E00
  8
3
 10
70.1
 20
-58.88972745730001
 30
0.0
 11
70.1
 21
-19.47095071439998
 31
0.0
  0
LINE
  5
E01
  8
3
 10
65.9
 20
-19.47083040999999
 30
0.0
 11
65.9
 21
-58.88972745730001
 31
0.0
  0
LINE
  5
E02
  8
3
 10
65.375
 20
-58.88972745730001
 30
0.0
 11
65.375
 21
-60.6206996356
 31
0.0
  0
LINE
  5
E03
  8
3
 10
70.625
 20
-60.62164896050001
 30
0.0
 11
70.625
 21
-58.88972745730001
 31
0.0
  0
LINE
  5
E04
  8
3
 10
70.625
 20
58.88972745730001
 30
0.0
 11
70.625
 21
60.62164896050001
 31
0.0
  0
LINE
  5
E05
  8
3
 10
65.375
 20
60.62069963560003
 30
0.0
 11
65.375
 21
58.88972745730001
 31
0.0
  0
LINE
  5
E0B
  8
SK1
 10
90.02857499979999
 20
-38.09619000000001
 30
0.0
 11
90.0
 21
-38.09619000000001
 31
0.0
  0
LINE
  5
E0F
  8
SK1
 10
90.0
 20
38.09619000000001
 30
0.0
 11
90.02857499979999
 21
38.09619000000001
 31
0.0
  0
ARC
  5
E22
  8
SK1
 10
90.19999999999999
 20
-30.20000000000002
 30
0.0
 40
0.4000000000000192
 50
75.00000000000246
 51
120.0000000000002
  0
ARC
  5
E23
  8
SK1
 10
90.19999999999999
 20
30.20000000000002
 30
0.0
 40
0.4000000000000315
 50
239.9999999999998
 51
285.0000000000015
  0
LINE
  5
E24
  8
SK1
 10
90.9990711605
 20
-30.0
 30
0.0
 11
128.005
 21
-30.0
 31
0.0
  0
LINE
  5
E25
  8
SK1
 10
128.005
 20
30.0
 30
0.0
 11
90.9990711605
 21
30.0
 31
0.0
  0
LINE
  5
E26
  8
SK1
 10
90.9990711605
 20
30.0
 30
0.0
 11
90.303527618
 21
29.81362966950002
 31
0.0
  0
LINE
  5
E27
  8
SK1
 10
90.303527618
 20
-29.81362966949999
 30
0.0
 11
90.9990711605
 21
-30.0
 31
0.0
  0
ARC
  5
E28
  8
SK1
 10
128.005
 20
-28.0
 30
0.0
 40
1.999999999999986
 50
270.0
 51
0.0
  0
ARC
  5
E29
  8
SK1
 10
128.005
 20
28.0
 30
0.0
 40
2.0
 50
0.0
 51
90.0
  0
LINE
  5
E33
  8
SK1
 10
102.7
 20
-38.09999999999999
 30
0.0
 11
90.0
 21
-38.09999999999999
 31
0.0
  0
LINE
  5
E34
  8
SK1
 10
102.7
 20
-38.09999999999999
 30
0.0
 11
102.7
 21
-63.5
 31
0.0
  0
LINE
  5
E35
  8
SK1
 10
102.7
 20
-63.5
 30
0.0
 11
90.0
 21
-63.5
 31
0.0
  0
LINE
  5
E36
  8
SK1
 10
102.7
 20
63.50000000000003
 30
0.0
 11
90.0
 21
63.50000000000003
 31
0.0
  0
LINE
  5
E37
  8
SK1
 10
102.7
 20
63.50000000000003
 30
0.0
 11
102.7
 21
38.09999999999999
 31
0.0
  0
LINE
  5
E38
  8
SK1
 10
102.7
 20
38.09999999999999
 30
0.0
 11
90.0
 21
38.09999999999999
 31
0.0
  0
LINE
  5
E69
  8
SK1
 10
90.9990711605
 20
0.0
 30
0.0
 11
90.9990711605
 21
30.0
 31
0.0
  0
LINE
  5
E6A
  8
SK1
 10
90.9990711605
 20
-30.0
 30
0.0
 11
90.9990711605
 21
0.0
 31
0.0
  0
LINE
  5
E6B
  8
SK1
 10
130.005
 20
0.0
 30
0.0
 11
130.005
 21
28.0
 31
0.0
  0
LINE
  5
E6C
  8
SK1
 10
130.005
 20
-28.0
 30
0.0
 11
130.005
 21
0.0
 31
0.0
  0
LINE
  5
F0A
  8
SK3
 10
-40.10000000000001
 20
-0.0000000000000284
 30
0.0
 11
-40.10000000000001
 21
11.09979999999999
 31
0.0
  0
LINE
  5
F0B
  8
SK3
 10
-40.10000000000001
 20
-11.09980000000002
 30
0.0
 11
-40.10000000000001
 21
-0.0000000000000284
 31
0.0
  0
LINE
  5
F0C
  8
SK3
 10
-39.6152229723
 20
-0.0000000000000284
 30
0.0
 11
-39.6152229723
 21
8.999999999999972
 31
0.0
  0
LINE
  5
F0D
  8
SK3
 10
-39.6152229723
 20
-9.000000000000028
 30
0.0
 11
-39.6152229723
 21
-0.0000000000000284
 31
0.0
  0
LINE
  5
F0E
  8
SK3
 10
127.005
 20
10.5
 30
0.0
 11
127.005
 21
-10.5
 31
0.0
  0
LINE
  5
FA5
  8
SK3
 10
130.005
 20
2.5
 30
0.0
 11
90.0
 21
2.5
 31
0.0
  0
LINE
  5
FA8
  8
SK3
 10
90.0
 20
-2.5
 30
0.0
 11
130.005
 21
-2.5
 31
0.0
  0
LINE
  5
FBF
  8
SK3
 10
-40.10000000000001
 20
-11.09980000000002
 30
0.0
 11
-39.6152229723
 21
-9.000000000000028
 31
0.0
  0
LINE
  5
FC0
  8
SK3
 10
-39.6152229723
 20
8.999999999999972
 30
0.0
 11
-40.10000000000001
 21
11.09979999999999
 31
0.0
  0
LINE
  5
FC1
  8
SK3
 10
130.005
 20
10.5
 30
0.0
 11
127.005
 21
10.5
 31
0.0
  0
LINE
  5
FC2
  8
SK3
 10
127.005
 20
-10.5
 30
0.0
 11
130.005
 21
-10.5
 31
0.0
  0
LINE
  5
FC3
  8
SK3
 10
127.005
 20
10.0
 30
0.0
 11
90.005
 21
10.0
 31
0.0
  0
LINE
  5
FC4
  8
SK3
 10
90.005
 20
-10.0
 30
0.0
 11
127.005
 21
-10.0
 31
0.0
  0
LINE
  5
FD4
  8
SK3
 10
130.005
 20
-14.82050807569999
 30
0.0
 11
90.0
 21
-14.82050807569999
 31
0.0
  0
LINE
  5
FD5
  8
SK3
 10
90.0
 20
-19.82050807569999
 30
0.0
 11
130.005
 21
-19.82050807569999
 31
0.0
  0
LINE
  5
FDA
  8
SK3
 10
130.005
 20
19.82050807569999
 30
0.0
 11
90.0
 21
19.82050807569999
 31
0.0
  0
LINE
  5
FDB
  8
SK3
 10
90.0
 20
14.82050807569999
 30
0.0
 11
130.005
 21
14.82050807569999
 31
0.0
  0
LINE
  5
FE8
  8
SK3
 10
-39.6152229723
 20
8.999999999999972
 30
0.0
 11
-0.0000000000000426
 21
9.0
 31
0.0
  0
LINE
  5
FE9
  8
SK3
 10
0.0000000000000213
 20
-9.0
 30
0.0
 11
-39.6152229723
 21
-9.000000000000028
 31
0.0
  0
ARC
  5
1A68
  8
NOCUT
 10
89.0
 20
69.0
 30
0.0
 40
1.0
 50
0.0
 51
90.0
  0
LINE
  5
1A6A
  8
NOCUT
 10
89.0
 20
70.0
 30
0.0
 11
49.0
 21
70.0
 31
0.0
  0
ARC
  5
1A6B
  8
NOCUT
 10
49.0
 20
69.0
 30
0.0
 40
1.0
 50
90.0
 51
180.0
  0
LINE
  5
1A6C
  8
NOCUT
 10
90.0
 20
0.0
 30
0.0
 11
90.0
 21
69.0
 31
0.0
  0
ARC
  5
1A6D
  8
NOCUT
 10
47.0
 20
46.0
 30
0.0
 40
1.0
 50
270.0
 51
0.0
  0
LINE
  5
1A6E
  8
NOCUT
 10
47.0
 20
45.0
 30
0.0
 11
20.04999999999997
 21
45.0
 31
0.0
  0
LINE
  5
1A71
  8
NOCUT
 10
48.0
 20
69.0
 30
0.0
 11
48.0
 21
46.0
 31
0.0
  0
ARC
  5
1A72
  8
NOCUT
 10
20.04999999999997
 20
46.0
 30
0.0
 40
1.0
 50
180.0000000000002
 51
270.0
  0
LINE
  5
1A80
  8
SK4
 10
90.0
 20
0.0
 30
0.0
 11
130.005
 21
0.0
 31
0.0
  0
DIMENSION
  5
1A82
  8
SK2
  2
*D10
 10
172.8979626911315
 20
-70.0
 30
0.0
 11
171.0229626911315
 21
0.0
 31
0.0
 70
    32
  3
ISO-25
 13
89.0
 23
70.0
 33
0.0
 14
89.0
 24
-70.0
 34
0.0
 50
90.0
1001
ACAD
1000
DSTYLE
1002
{
1070
   287
1070
     5
1070
   271
1070
     3
1070
   272
1070
     3
1070
   279
1070
     2
1002
}
  0
DIMENSION
  5
1A91
  8
SK2
  2
*D11
 10
153.3319439602446
 20
-30.0
 30
0.0
 11
151.4569439602446
 21
0.0
 31
0.0
 70
    32
  3
ISO-25
 13
128.005
 23
30.0
 33
0.0
 14
128.005
 24
-30.0
 34
0.0
 50
90.0
1001
ACAD
1000
DSTYLE
1002
{
1070
   287
1070
     5
1070
   271
1070
     3
1070
   272
1070
     3
1070
   279
1070
     2
1002
}
  0
ENDSEC
  0
EOF
