  0
SECTION
  2
HEADER
  9
$ACADVER
  1
AC1009
  9
$DWGCODEPAGE
  3
ansi_1251
  9
$INSBASE
 10
0.0
 20
0.0
 30
0.0
  9
$EXTMIN
 10
-68.25000000000001
 20
-30.5409271246
 30
0.0
  9
$EXTMAX
 10
88.90000000000003
 20
30.50275418977125
 30
0.0
  9
$LIMMIN
 10
0.0
 20
0.0
  9
$LIMMAX
 10
420.0
 20
297.0
  9
$ORTHOMODE
 70
     1
  9
$REGENMODE
 70
     1
  9
$FILLMODE
 70
     1
  9
$QTEXTMODE
 70
     0
  9
$MIRRTEXT
 70
     0
  9
$DRAGMODE
 70
     2
  9
$LTSCALE
 40
1.0
  9
$OSMODE
 70
   279
  9
$ATTMODE
 70
     1
  9
$TEXTSIZE
 40
2.5
  9
$TRACEWID
 40
1.0
  9
$TEXTSTYLE
  7
STANDARD
  9
$CLAYER
  8
0
  9
$CELTYPE
  6
BYLAYER
  9
$CECOLOR
 62
   256
  9
$DIMSCALE
 40
1.0
  9
$DIMASZ
 40
2.5
  9
$DIMEXO
 40
0.625
  9
$DIMDLI
 40
3.75
  9
$DIMRND
 40
0.0
  9
$DIMDLE
 40
0.0
  9
$DIMEXE
 40
1.25
  9
$DIMTP
 40
0.0
  9
$DIMTM
 40
0.0
  9
$DIMTXT
 40
2.5
  9
$DIMCEN
 40
2.5
  9
$DIMTSZ
 40
0.0
  9
$DIMTOL
 70
     0
  9
$DIMLIM
 70
     0
  9
$DIMTIH
 70
     0
  9
$DIMTOH
 70
     0
  9
$DIMSE1
 70
     0
  9
$DIMSE2
 70
     0
  9
$DIMTAD
 70
     1
  9
$DIMZIN
 70
     8
  9
$DIMBLK
  1

  9
$DIMASO
 70
     1
  9
$DIMSHO
 70
     1
  9
$DIMPOST
  1

  9
$DIMAPOST
  1

  9
$DIMALT
 70
     0
  9
$DIMALTD
 70
     3
  9
$DIMALTF
 40
0.03937007874016
  9
$DIMLFAC
 40
1.0
  9
$DIMTOFL
 70
     1
  9
$DIMTVP
 40
0.0
  9
$DIMTIX
 70
     0
  9
$DIMSOXD
 70
     0
  9
$DIMSAH
 70
     0
  9
$DIMBLK1
  1

  9
$DIMBLK2
  1

  9
$DIMSTYLE
  2
ISO-25
  9
$DIMCLRD
 70
     0
  9
$DIMCLRE
 70
     0
  9
$DIMCLRT
 70
     0
  9
$DIMTFAC
 40
1.0
  9
$DIMGAP
 40
0.625
  9
$LUNITS
 70
     2
  9
$LUPREC
 70
     3
  9
$SKETCHINC
 40
1.0
  9
$FILLETRAD
 40
10.0
  9
$AUNITS
 70
     0
  9
$AUPREC
 70
     0
  9
$MENU
  1
.
  9
$ELEVATION
 40
0.0
  9
$PELEVATION
 40
0.0
  9
$THICKNESS
 40
0.0
  9
$LIMCHECK
 70
     0
  9
$CHAMFERA
 40
10.0
  9
$CHAMFERB
 40
10.0
  9
$SKPOLY
 70
     0
  9
$TDCREATE
 40
2455022.429026158
  9
$TDUPDATE
 40
2458659.538982558
  9
$TDINDWG
 40
0.1506771181
  9
$TDUSRTIMER
 40
2458702.651872627
  9
$USRTIMER
 70
     1
  9
$ANGBASE
 50
0.0
  9
$ANGDIR
 70
     0
  9
$PDMODE
 70
     0
  9
$PDSIZE
 40
0.0
  9
$PLINEWID
 40
0.0
  9
$COORDS
 70
     1
  9
$SPLFRAME
 70
     0
  9
$SPLINETYPE
 70
     6
  9
$SPLINESEGS
 70
     8
  9
$ATTDIA
 70
     0
  9
$ATTREQ
 70
     1
  9
$HANDLING
 70
     1
  9
$HANDSEED
  5
16F2
  9
$SURFTAB1
 70
     6
  9
$SURFTAB2
 70
     6
  9
$SURFTYPE
 70
     6
  9
$SURFU
 70
     6
  9
$SURFV
 70
     6
  9
$UCSNAME
  2

  9
$UCSORG
 10
0.0
 20
0.0
 30
0.0
  9
$UCSXDIR
 10
1.0
 20
0.0
 30
0.0
  9
$UCSYDIR
 10
0.0
 20
1.0
 30
0.0
  9
$PUCSNAME
  2

  9
$PUCSORG
 10
0.0
 20
0.0
 30
0.0
  9
$PUCSXDIR
 10
1.0
 20
0.0
 30
0.0
  9
$PUCSYDIR
 10
0.0
 20
1.0
 30
0.0
  9
$USERI1
 70
     0
  9
$USERI2
 70
     0
  9
$USERI3
 70
     0
  9
$USERI4
 70
     0
  9
$USERI5
 70
     0
  9
$USERR1
 40
0.0
  9
$USERR2
 40
0.0
  9
$USERR3
 40
0.0
  9
$USERR4
 40
0.0
  9
$USERR5
 40
0.0
  9
$WORLDVIEW
 70
     1
  9
$SHADEDGE
 70
     3
  9
$SHADEDIF
 70
    70
  9
$TILEMODE
 70
     1
  9
$MAXACTVP
 70
    64
  9
$PLIMCHECK
 70
     0
  9
$PEXTMIN
 10
1.000000000000000E+20
 20
1.000000000000000E+20
 30
1.000000000000000E+20
  9
$PEXTMAX
 10
-1.000000000000000E+20
 20
-1.000000000000000E+20
 30
-1.000000000000000E+20
  9
$PLIMMIN
 10
0.0
 20
0.0
  9
$PLIMMAX
 10
420.0
 20
297.0
  9
$UNITMODE
 70
     0
  9
$VISRETAIN
 70
     1
  9
$PLINEGEN
 70
     0
  9
$PSLTSCALE
 70
     1
  0
ENDSEC
  0
SECTION
  2
TABLES
  0
TABLE
  2
VPORT
 70
     1
  0
VPORT
  2
*ACTIVE
 70
     0
 10
0.0
 20
0.0
 11
1.0
 21
1.0
 12
35.49790288979293
 22
-4.409747193426497
 13
0.0
 23
0.0
 14
10.0
 24
10.0
 15
10.0
 25
10.0
 16
0.0
 26
0.0
 36
1.0
 17
0.0
 27
0.0
 37
0.0
 40
209.8310655605002
 41
1.332880434782609
 42
50.0
 43
0.0
 44
0.0
 50
0.0
 51
0.0
 71
    16
 72
  1000
 73
     1
 74
     3
 75
     0
 76
     0
 77
     0
 78
     0
  0
ENDTAB
  0
TABLE
  2
LTYPE
 70
     6
  0
LTYPE
  2
CONTINUOUS
 70
     0
  3
Solid line
 72
    65
 73
     0
 40
0.0
  0
LTYPE
  2
CENTER
 70
     0
  3
 Center _____  _  _____  _  _____  _  _____  _ 
 72
    65
 73
     4
 40
50.8
 49
31.75
 49
-6.35
 49
6.35
 49
-6.35
  0
LTYPE
  2
DASHED
 70
     0
  3
Dashed __  __  __  __  __  __  __  __  __  __  
 72
    65
 73
     2
 40
19.05
 49
12.7
 49
-6.35
  0
LTYPE
  2
HIDDEN
 70
     0
  3
Hidden __ __ __ __ __ __ __ __ __ __ __ __ __ __
 72
    65
 73
     2
 40
1.905
 49
1.27
 49
-0.635
  0
LTYPE
  2
CENTERX2
 70
     0
  3
Center (2x) ________  __  ________  __  _____
 72
    65
 73
     4
 40
20.32
 49
12.7
 49
-2.54
 49
2.54
 49
-2.54
  0
LTYPE
  2
PHANTOM
 70
     0
  3
Phantom ______  __  __  ______  __  __  ______
 72
    65
 73
     6
 40
12.7
 49
6.35
 49
-1.27
 49
1.27
 49
-1.27
 49
1.27
 49
-1.27
  0
ENDTAB
  0
TABLE
  2
LAYER
 70
    26
  0
LAYER
  2
0
 70
     0
 62
     7
  6
CONTINUOUS
  0
LAYER
  2
1
 70
     0
 62
     4
  6
CONTINUOUS
  0
LAYER
  2
2
 70
     0
 62
     7
  6
CONTINUOUS
  0
LAYER
  2
3
 70
     0
 62
     1
  6
DASHED
  0
LAYER
  2
4
 70
     0
 62
     2
  6
CENTER
  0
LAYER
  2
6
 70
     0
 62
     5
  6
CONTINUOUS
  0
LAYER
  2
7
 70
     0
 62
     5
  6
CONTINUOUS
  0
LAYER
  2
11
 70
     0
 62
     4
  6
CONTINUOUS
  0
LAYER
  2
SK1
 70
     0
 62
     4
  6
CONTINUOUS
  0
LAYER
  2
SK2
 70
     0
 62
     7
  6
CONTINUOUS
  0
LAYER
  2
SK3
 70
     0
 62
     1
  6
DASHED
  0
LAYER
  2
SK4
 70
     0
 62
     2
  6
CENTER
  0
LAYER
  2
SK6
 70
     0
 62
     5
  6
CONTINUOUS
  0
LAYER
  2
SK7
 70
     0
 62
     5
  6
CONTINUOUS
  0
LAYER
  2
SK11
 70
     0
 62
     4
  6
CONTINUOUS
  0
LAYER
  2
CUT
 70
     0
 62
     1
  6
CONTINUOUS
  0
LAYER
  2
NOCUT
 70
     0
 62
    -7
  6
CONTINUOUS
  0
LAYER
  2
SKVIEW1
 70
     0
 62
     4
  6
CONTINUOUS
  0
LAYER
  2
SKVIEW2
 70
     0
 62
     7
  6
CONTINUOUS
  0
LAYER
  2
SKVIEW3
 70
     0
 62
     1
  6
DASHED
  0
LAYER
  2
SKVIEW4
 70
     0
 62
     2
  6
CENTER
  0
LAYER
  2
SKVIEW6
 70
     0
 62
     5
  6
CONTINUOUS
  0
LAYER
  2
SKVIEW7
 70
     0
 62
     5
  6
CONTINUOUS
  0
LAYER
  2
SKVIEW11
 70
     0
 62
     4
  6
CONTINUOUS
  0
LAYER
  2
INFTOTAL
 70
     0
 62
     9
  6
CONTINUOUS
  0
LAYER
  2
DEFPOINTS
 70
     0
 62
     7
  6
CONTINUOUS
  0
ENDTAB
  0
TABLE
  2
STYLE
 70
     1
  0
STYLE
  2
STANDARD
 70
     0
 40
0.0
 41
1.0
 50
0.0
 71
     0
 42
2.5
  3
txt
  4

  0
ENDTAB
  0
TABLE
  2
VIEW
 70
     0
  0
ENDTAB
  0
TABLE
  2
UCS
 70
     0
  0
ENDTAB
  0
TABLE
  2
APPID
 70
     2
  0
APPID
  2
ACAD
 70
     0
  0
APPID
  2
ACAECLAYERSTANDARD
 70
     0
  0
ENDTAB
  0
TABLE
  2
DIMSTYLE
 70
     1
  0
DIMSTYLE
  2
ISO-25
 70
     0
  3

  4

  5

  6

  7

 40
1.0
 41
2.5
 42
0.625
 43
3.75
 44
1.25
 45
0.0
 46
0.0
 47
0.0
 48
0.0
140
2.5
141
2.5
142
0.0
143
0.03937007874016
144
1.0
145
0.0
146
1.0
147
0.625
 71
     0
 72
     0
 73
     0
 74
     0
 75
     0
 76
     0
 77
     1
 78
     8
170
     0
171
     3
172
     1
173
     0
174
     0
175
     0
176
     0
177
     0
178
     0
  0
ENDTAB
  0
ENDSEC
  0
SECTION
  2
BLOCKS
  0
BLOCK
  8
0
  2
$MODEL_SPACE
 70
     0
 10
0.0
 20
0.0
 30
0.0
  3
$MODEL_SPACE
  1

  0
ENDBLK
  5
21
  8
0
  0
BLOCK
 67
     1
  8
0
  2
$PAPER_SPACE
 70
     0
 10
0.0
 20
0.0
 30
0.0
  3
$PAPER_SPACE
  1

  0
ENDBLK
  5
1D
 67
     1
  8
0
  0
BLOCK
  8
0
  2
*U0
 70
     1
 10
0.0
 20
0.0
 30
0.0
  3
*U0
  1

  0
TEXT
  5
77E
  8
SK6
 10
-50.0
 20
78.25
 30
0.0
 40
3.5
  1
BIG KAISER
 41
0.85
  0
TEXT
  5
781
  8
SK6
 10
-50.0
 20
73.0
 30
0.0
 40
3.5
  1
BCV50-SMC.750-4
 41
0.85
  0
ENDBLK
  5
782
  8
0
  0
BLOCK
  8
0
  2
_FILLED
 70
     0
 10
0.0
 20
0.0
 30
0.0
  3
_FILLED
  1

  0
SOLID
  5
789
  8
0
  6
BYBLOCK
 62
     0
 10
0.0
 20
0.0
 30
0.0
 11
-1.0
 21
0.2142857143
 31
0.0
 12
-1.0
 22
-0.2142857143
 32
0.0
 13
-1.0
 23
-0.2142857143
 33
0.0
  0
ENDBLK
  5
78A
  8
0
  6
BYBLOCK
 62
     0
  0
BLOCK
  8
0
  2
*U2
 70
     1
 10
0.0
 20
0.0
 30
0.0
  3
*U2
  1

  0
TEXT
  5
790
  8
SK6
 10
-85.96178542556666
 20
-67.06748653279999
 30
0.0
 40
3.5
  1
BCV50
 41
0.85
  0
ENDBLK
  5
791
  8
0
  0
BLOCK
  8
0
  2
*D3
 70
     1
 10
0.0
 20
0.0
 30
0.0
  3
*D3
  1

  0
LINE
  5
7EA
  8
SK2
 62
     0
 10
35.125
 20
34.92499999999998
 30
0.0
 11
172.5958057795858
 21
34.92499999999998
 31
0.0
  0
LINE
  5
7EB
  8
SK2
 62
     0
 10
35.125
 20
-34.92500000000001
 30
0.0
 11
172.5958057795858
 21
-34.92500000000002
 31
0.0
  0
LINE
  5
7EC
  8
SK2
 62
     0
 10
171.3458057795858
 20
32.42499999999998
 30
0.0
 11
171.3458057795858
 21
-32.42500000000002
 31
0.0
  0
SOLID
  5
7ED
  8
SK2
 62
     0
 10
171.7624724462525
 20
32.42499999999998
 30
0.0
 11
170.9291391129192
 21
32.42499999999998
 31
0.0
 12
171.3458057795858
 22
34.92499999999998
 32
0.0
 13
171.3458057795858
 23
34.92499999999998
 33
0.0
  0
SOLID
  5
7EE
  8
SK2
 62
     0
 10
170.9291391129192
 20
-32.42500000000002
 30
0.0
 11
171.7624724462525
 21
-32.42500000000002
 31
0.0
 12
171.3458057795858
 22
-34.92500000000002
 32
0.0
 13
171.3458057795858
 23
-34.92500000000002
 33
0.0
  0
TEXT
  5
7EF
  8
SK2
  6
CONTINUOUS
 62
     0
 10
170.7208057795858
 20
-5.000000000000028
 30
0.0
 40
2.5
  1
69.85
 50
90.0
  0
POINT
  5
7F0
  8
DEFPOINTS
 62
     0
 10
34.5
 20
34.92499999999998
 30
0.0
  0
POINT
  5
7F1
  8
DEFPOINTS
 62
     0
 10
34.5
 20
-34.92500000000001
 30
0.0
  0
POINT
  5
7F2
  8
DEFPOINTS
 62
     0
 10
171.3458057795858
 20
-34.92500000000002
 30
0.0
  0
ENDBLK
  5
7F4
  8
0
  0
BLOCK
  8
0
  2
*D4
 70
     1
 10
0.0
 20
0.0
 30
0.0
  3
*D4
  1

  0
LINE
  5
7F9
  8
SK2
 62
     0
 10
0.0
 20
-35.55000000000001
 30
0.0
 11
0.0
 21
-74.40665109041375
 31
0.0
  0
LINE
  5
7FA
  8
SK2
 62
     0
 10
35.05
 20
-35.05000000000001
 30
0.0
 11
35.05
 21
-74.40665109041375
 31
0.0
  0
LINE
  5
7FB
  8
SK2
 62
     0
 10
2.5
 20
-73.15665109041375
 30
0.0
 11
32.55
 21
-73.15665109041375
 31
0.0
  0
SOLID
  5
7FC
  8
SK2
 62
     0
 10
2.5
 20
-72.73998442374707
 30
0.0
 11
2.5
 21
-73.57331775708042
 31
0.0
 12
0.0
 22
-73.15665109041375
 32
0.0
 13
0.0
 23
-73.15665109041375
 33
0.0
  0
SOLID
  5
7FD
  8
SK2
 62
     0
 10
32.55
 20
-73.57331775708042
 30
0.0
 11
32.55
 21
-72.73998442374707
 31
0.0
 12
35.05
 22
-73.15665109041375
 32
0.0
 13
35.05
 23
-73.15665109041375
 33
0.0
  0
TEXT
  5
7FE
  8
SK2
  6
CONTINUOUS
 62
     0
 10
12.73333333333333
 20
-72.53165109041375
 30
0.0
 40
2.5
  1
35.05
  0
POINT
  5
7FF
  8
DEFPOINTS
 62
     0
 10
0.0
 20
-34.92500000000001
 30
0.0
  0
POINT
  5
800
  8
DEFPOINTS
 62
     0
 10
35.05
 20
-34.42500000000001
 30
0.0
  0
POINT
  5
801
  8
DEFPOINTS
 62
     0
 10
35.05
 20
-73.15665109041375
 30
0.0
  0
ENDBLK
  5
803
  8
0
  0
BLOCK
  8
0
  2
*D5
 70
     1
 10
0.0
 20
0.0
 30
0.0
  3
*D5
  1

  0
LINE
  5
808
  8
SK2
 62
     0
 10
0.0
 20
35.54999999999998
 30
0.0
 11
0.0
 21
63.71215670356074
 31
0.0
  0
LINE
  5
809
  8
SK2
 62
     0
 10
101.6000000000001
 20
21.07499999999996
 30
0.0
 11
101.6000000000001
 21
63.71215670356074
 31
0.0
  0
LINE
  5
80A
  8
SK2
 62
     0
 10
2.5
 20
62.46215670356074
 30
0.0
 11
99.10000000000007
 21
62.46215670356074
 31
0.0
  0
SOLID
  5
80B
  8
SK2
 62
     0
 10
2.5
 20
62.8788233702274
 30
0.0
 11
2.5
 21
62.04549003689407
 31
0.0
 12
0.0
 22
62.46215670356074
 32
0.0
 13
0.0
 23
62.46215670356074
 33
0.0
  0
SOLID
  5
80C
  8
SK2
 62
     0
 10
99.10000000000007
 20
62.04549003689407
 30
0.0
 11
99.10000000000007
 21
62.8788233702274
 31
0.0
 12
101.6000000000001
 22
62.46215670356074
 32
0.0
 13
101.6000000000001
 23
62.46215670356074
 33
0.0
  0
TEXT
  5
80D
  8
SK2
  6
CONTINUOUS
 62
     0
 10
46.8416666666667
 20
63.08715670356074
 30
0.0
 40
2.5
  1
101.6
  0
POINT
  5
80E
  8
DEFPOINTS
 62
     0
 10
0.0
 20
34.92499999999998
 30
0.0
  0
POINT
  5
80F
  8
DEFPOINTS
 62
     0
 10
101.6000000000001
 20
20.44999999999996
 30
0.0
  0
POINT
  5
810
  8
DEFPOINTS
 62
     0
 10
101.6000000000001
 20
62.46215670356074
 30
0.0
  0
ENDBLK
  5
812
  8
0
  0
BLOCK
  8
0
  2
*D6
 70
     1
 10
0.0
 20
0.0
 30
0.0
  3
*D6
  1

  0
LINE
  5
F76
  8
SK2
 62
     0
 10
118.2250000000001
 20
9.524999999999977
 30
0.0
 11
143.0603360001523
 21
9.524999999999975
 31
0.0
  0
LINE
  5
F77
  8
SK2
 62
     0
 10
118.2250000000001
 20
-9.524999999999977
 30
0.0
 11
143.0603360001523
 21
-9.524999999999979
 31
0.0
  0
LINE
  5
F78
  8
SK2
 62
     0
 10
141.8103360001523
 20
7.024999999999975
 30
0.0
 11
141.8103360001523
 21
-7.024999999999979
 31
0.0
  0
SOLID
  5
F79
  8
SK2
 62
     0
 10
142.2270026668189
 20
7.024999999999975
 30
0.0
 11
141.3936693334856
 21
7.024999999999975
 31
0.0
 12
141.8103360001523
 22
9.524999999999975
 32
0.0
 13
141.8103360001523
 23
9.524999999999975
 33
0.0
  0
SOLID
  5
F7A
  8
SK2
 62
     0
 10
141.3936693334856
 20
-7.024999999999979
 30
0.0
 11
142.2270026668189
 21
-7.024999999999979
 31
0.0
 12
141.8103360001523
 22
-9.524999999999979
 32
0.0
 13
141.8103360001523
 23
-9.524999999999979
 33
0.0
  0
TEXT
  5
F7B
  8
SK2
  6
CONTINUOUS
 62
     0
 10
141.1853360001523
 20
-4.375
 30
0.0
 40
2.5
  1
19.05
 50
90.0
  0
POINT
  5
F7C
  8
DEFPOINTS
 62
     0
 10
117.6000000000001
 20
9.524999999999977
 30
0.0
  0
POINT
  5
F7D
  8
DEFPOINTS
 62
     0
 10
117.6000000000001
 20
-9.524999999999977
 30
0.0
  0
POINT
  5
F7E
  8
DEFPOINTS
 62
     0
 10
141.8103360001523
 20
-9.524999999999979
 30
0.0
  0
ENDBLK
  5
F80
  8
0
  0
BLOCK
  8
0
  2
*D7
 70
     1
 10
0.0
 20
0.0
 30
0.0
  3
*D7
  1

  0
LINE
  5
F85
  8
SK2
 62
     0
 10
101.2250000000001
 20
21.44999999999996
 30
0.0
 11
157.9046758547149
 21
21.44999999999996
 31
0.0
  0
LINE
  5
F86
  8
SK2
 62
     0
 10
101.2250000000001
 20
-21.45000000000005
 30
0.0
 11
157.9046758547149
 21
-21.45000000000005
 31
0.0
  0
LINE
  5
F87
  8
SK2
 62
     0
 10
156.6546758547149
 20
18.94999999999996
 30
0.0
 11
156.6546758547149
 21
-18.95000000000005
 31
0.0
  0
SOLID
  5
F88
  8
SK2
 62
     0
 10
157.0713425213816
 20
18.94999999999996
 30
0.0
 11
156.2380091880482
 21
18.94999999999996
 31
0.0
 12
156.6546758547149
 22
21.44999999999996
 32
0.0
 13
156.6546758547149
 23
21.44999999999996
 33
0.0
  0
SOLID
  5
F89
  8
SK2
 62
     0
 10
156.2380091880482
 20
-18.95000000000005
 30
0.0
 11
157.0713425213816
 21
-18.95000000000005
 31
0.0
 12
156.6546758547149
 22
-21.45000000000005
 32
0.0
 13
156.6546758547149
 23
-21.45000000000005
 33
0.0
  0
TEXT
  5
F8A
  8
SK2
  6
CONTINUOUS
 62
     0
 10
156.0296758547149
 20
-3.750000000000057
 30
0.0
 40
2.5
  1
42.9
 50
90.0
  0
POINT
  5
F8B
  8
DEFPOINTS
 62
     0
 10
100.6000000000001
 20
21.44999999999996
 30
0.0
  0
POINT
  5
F8C
  8
DEFPOINTS
 62
     0
 10
100.6000000000001
 20
-21.45000000000005
 30
0.0
  0
POINT
  5
F8D
  8
DEFPOINTS
 62
     0
 10
156.6546758547149
 20
-21.45000000000005
 30
0.0
  0
ENDBLK
  5
F8F
  8
0
  0
ENDSEC
  0
SECTION
  2
ENTITIES
  0
LINE
  5
685
  8
SK1
 10
0.0
 20
34.92499999999998
 30
0.0
 11
-99.6319088344
 21
20.3952133832
 31
0.0
  0
LINE
  5
686
  8
SK1
 10
-99.6319088344
 20
-20.3952133832
 30
0.0
 11
0.0
 21
-34.92500000000001
 31
0.0
  0
ARC
  5
68D
  8
SK1
 10
-99.3
 20
18.1192879614
 30
0.0
 40
2.299999999999995
 50
98.29722000000018
 51
180.0
  0
ARC
  5
68E
  8
SK1
 10
-99.3
 20
-18.1192879614
 30
0.0
 40
2.299999999999995
 50
180.0
 51
261.7027799999998
  0
LINE
  5
6F6
  8
SK1
 10
-101.6
 20
0.0
 30
0.0
 11
-101.6
 21
-18.1192879614
 31
0.0
  0
LINE
  5
6F7
  8
SK1
 10
-101.6
 20
18.1192879614
 30
0.0
 11
-101.6
 21
0.0
 31
0.0
  0
LINE
  5
71A
  8
SK3
 10
-99.5215390309
 20
-13.10000000000002
 30
0.0
 11
-99.5215390309
 21
13.09999999999999
 31
0.0
  0
LINE
  5
71B
  8
SK3
 10
-95.25
 20
-13.10000000000002
 30
0.0
 11
-95.25
 21
13.09999999999999
 31
0.0
  0
LINE
  5
72A
  8
SK3
 10
-101.6
 20
-14.30000000000001
 30
0.0
 11
-99.5215390309
 21
-13.10000000000002
 31
0.0
  0
LINE
  5
72B
  8
SK3
 10
-99.5215390309
 20
13.09999999999999
 30
0.0
 11
-101.6
 21
14.3
 31
0.0
  0
LINE
  5
72C
  8
SK3
 10
-99.5215390309
 20
-13.10000000000002
 30
0.0
 11
-95.25
 21
-13.10000000000002
 31
0.0
  0
LINE
  5
72D
  8
SK3
 10
-95.25
 20
13.09999999999999
 30
0.0
 11
-99.5215390309
 21
13.09999999999999
 31
0.0
  0
LINE
  5
72E
  8
SK3
 10
-95.25
 20
-11.09980000000002
 30
0.0
 11
-40.09999999999998
 21
-11.09980000000002
 31
0.0
  0
LINE
  5
72F
  8
SK3
 10
-40.09999999999996
 20
11.09979999999999
 30
0.0
 11
-95.25
 21
11.09979999999999
 31
0.0
  0
LINE
  5
760
  8
SK3
 10
-57.1
 20
12.69999999999999
 30
0.0
 11
-95.25
 21
12.69999999999999
 31
0.0
  0
LINE
  5
761
  8
SK3
 10
-95.25
 20
-12.69999999999999
 30
0.0
 11
-57.1
 21
-12.69999999999999
 31
0.0
  0
LINE
  5
774
  8
SK3
 10
-57.1
 20
12.69999999999999
 30
0.0
 11
-57.1
 21
-12.69999999999999
 31
0.0
  0
LINE
  5
777
  8
SK4
 10
0.0
 20
0.0
 30
0.0
 11
-101.6
 21
0.0
 31
0.0
  0
LINE
  5
779
  8
4
 10
0.0
 20
0.0
 30
0.0
 11
101.6000000000001
 21
0.0
 31
0.0
  0
INSERT
  5
77B
  8
SK6
  2
*U0
 10
-44.10380399683656
 20
-23.39313954296377
 30
0.0
  0
INSERT
  5
78D
  8
SK6
  2
*U2
 10
17.55665382414153
 20
-2.560320993650734
 30
0.0
  0
LINE
  5
793
  8
0
 10
3.0
 20
3.0
 30
0.0
 11
-3.0
 21
-3.0
 31
0.0
  0
LINE
  5
794
  8
0
 10
-3.0
 20
3.0
 30
0.0
 11
3.0
 21
-3.0
 31
0.0
  0
CIRCLE
  5
795
  8
0
 10
0.0
 20
0.0
 30
0.0
 40
2.5
  0
LINE
  5
796
  8
0
 10
104.6000000000001
 20
-3.000000000000028
 30
0.0
 11
98.60000000000007
 21
2.999999999999972
 31
0.0
  0
CIRCLE
  5
797
  8
0
 10
101.6000000000001
 20
-0.0000000000000284
 30
0.0
 40
2.5
  0
LINE
  5
798
  8
0
 10
98.60000000000007
 20
-3.000000000000028
 30
0.0
 11
104.6000000000001
 21
2.999999999999972
 31
0.0
  0
LINE
  5
799
  8
NOCUT
 10
0.7999999999999972
 20
34.62500000000001
 30
0.0
 11
0.2999999999999972
 21
34.62500000000001
 31
0.0
  0
LINE
  5
79B
  8
NOCUT
 10
35.05
 20
34.42499999999999
 30
0.0
 11
34.55
 21
34.92499999999999
 31
0.0
  0
LINE
  5
79C
  8
NOCUT
 10
0.2999999999999972
 20
34.62500000000001
 30
0.0
 11
0.0
 21
34.92499999999999
 31
0.0
  0
LINE
  5
79D
  8
NOCUT
 10
34.55
 20
34.92499999999999
 30
0.0
 11
20.05
 21
34.92499999999999
 31
0.0
  0
ARC
  5
79E
  8
NOCUT
 10
0.7999999999999972
 20
35.62500000000001
 30
0.0
 40
1.0
 50
270.0
 51
314.4270040008
  0
ARC
  5
79F
  8
NOCUT
 10
20.05
 20
35.92499999999999
 30
0.0
 40
1.0
 50
180.0
 51
270.0
  0
LINE
  5
7A0
  8
NOCUT
 10
12.55499999999999
 20
45.64499999999999
 30
0.0
 11
9.704999999999998
 21
45.64499999999999
 31
0.0
  0
ARC
  5
7A1
  8
NOCUT
 10
12.55499999999999
 20
46.14499999999999
 30
0.0
 40
0.5
 50
270.0
 51
0.0
  0
ARC
  5
7A2
  8
NOCUT
 10
9.704999999999998
 20
46.14499999999999
 30
0.0
 40
0.5
 50
180.0
 51
270.0
  0
ARC
  5
7A3
  8
NOCUT
 10
2.299999999999997
 20
48.4125
 30
0.0
 40
0.7999999999999972
 50
90.0
 51
180.0
  0
ARC
  5
7A4
  8
NOCUT
 10
18.24999999999999
 20
48.4125
 30
0.0
 40
0.799999999999983
 50
0.0
 51
90.0
  0
LINE
  5
7A5
  8
NOCUT
 10
9.204999999999998
 20
46.43919780459999
 30
0.0
 11
7.603833230999996
 21
49.21250000000001
 31
0.0
  0
LINE
  5
7A6
  8
NOCUT
 10
14.65616676910001
 20
49.21250000000001
 30
0.0
 11
13.05499999999999
 21
46.43919780459999
 31
0.0
  0
LINE
  5
7A7
  8
NOCUT
 10
18.24999999999999
 20
49.21250000000001
 30
0.0
 11
14.65616676910001
 21
49.21250000000001
 31
0.0
  0
LINE
  5
7A8
  8
NOCUT
 10
7.603833230999996
 20
49.21250000000001
 30
0.0
 11
2.299999999999997
 21
49.21250000000001
 31
0.0
  0
LINE
  5
7AC
  8
NOCUT
 10
1.5
 20
48.4125
 30
0.0
 11
1.499999999999929
 21
34.91085715714565
 31
0.0
  0
LINE
  5
7AD
  8
NOCUT
 10
19.04999999999997
 20
48.4125
 30
0.0
 11
19.05
 21
35.92499999999999
 31
0.0
  0
LINE
  5
7AE
  8
NOCUT
 10
9.204999999999998
 20
46.43919780459999
 30
0.0
 11
9.204999999999998
 21
46.14499999999999
 31
0.0
  0
LINE
  5
7AF
  8
NOCUT
 10
13.05499999999999
 20
46.43919780459999
 30
0.0
 11
13.05499999999999
 21
46.14499999999999
 31
0.0
  0
DIMENSION
  5
7E6
  8
SK2
  2
*D3
 10
171.3458057795858
 20
-34.92500000000002
 30
0.0
 11
169.4708057795858
 21
-0.0000000000000213
 31
0.0
 70
    32
  3
ISO-25
 13
34.5
 23
34.92499999999998
 33
0.0
 14
34.5
 24
-34.92500000000001
 34
0.0
 50
90.0
1001
ACAD
1000
DSTYLE
1002
{
1070
   287
1070
     5
1070
   271
1070
     3
1070
   272
1070
     3
1070
   279
1070
     2
1002
}
  0
DIMENSION
  5
7F5
  8
SK2
  2
*D4
 10
35.05
 20
-73.15665109041375
 30
0.0
 11
17.525
 21
-71.28165109041375
 31
0.0
 70
    32
  3
ISO-25
 13
0.0
 23
-34.92500000000001
 33
0.0
 14
35.05
 24
-34.42500000000001
 34
0.0
1001
ACAD
1000
DSTYLE
1002
{
1070
   287
1070
     5
1070
   271
1070
     3
1070
   272
1070
     3
1070
   279
1070
     2
1002
}
  0
DIMENSION
  5
804
  8
SK2
  2
*D5
 10
101.6000000000001
 20
62.46215670356074
 30
0.0
 11
50.80000000000003
 21
64.33715670356074
 31
0.0
 70
    32
  3
ISO-25
 13
0.0
 23
34.92499999999998
 33
0.0
 14
101.6000000000001
 24
20.44999999999996
 34
0.0
1001
ACAD
1000
DSTYLE
1002
{
1070
   287
1070
     5
1070
   271
1070
     3
1070
   272
1070
     3
1070
   279
1070
     2
1002
}
  0
LINE
  5
8BF
  8
NOCUT
 10
0.0
 20
34.92499999999999
 30
0.0
 11
0.0
 21
0.0
 31
0.0
  0
LINE
  5
8C0
  8
NOCUT
 10
0.0
 20
0.0
 30
0.0
 11
101.6000000000001
 21
0.0
 31
0.0
  0
INSERT
  5
A17
  8
SK6
  2
_FILLED
 10
-20.78186483605847
 20
-31.89428358495073
 30
0.0
 41
3.5
 42
3.5
 43
3.5
 50
52.86965044919886
  0
POLYLINE
  5
A18
  8
SK6
 66
     1
 10
0.0
 20
0.0
 30
0.0
  0
VERTEX
  5
1546
  8
SK6
 10
-22.89457117648658
 20
-34.68470862768434
 30
0.0
  0
VERTEX
  5
1547
  8
SK6
 10
-48.02596493475846
 20
-67.87780752645074
 30
0.0
  0
VERTEX
  5
1548
  8
SK6
 10
-49.90096493475846
 20
-66.12780752645074
 30
0.0
  0
VERTEX
  5
1549
  8
SK6
 10
-53.40096493475846
 20
-66.12780752645074
 30
0.0
  0
SEQEND
  5
16F1
  8
SK6
  0
ARC
  5
AC7
  8
1
 10
20.04999999999998
 20
35.92499999999998
 30
0.0
 40
1.0
 50
180.0
 51
270.0
  0
ARC
  5
AC9
  8
1
 10
20.04999999999998
 20
-35.92500000000001
 30
0.0
 40
1.0
 50
90.0
 51
180.0
  0
ARC
  5
ACA
  8
1
 10
1.299999999999983
 20
35.125
 30
0.0
 40
0.5
 50
270.0
 51
293.5781784781994
  0
ARC
  5
ACB
  8
1
 10
1.299999999999983
 20
-35.125
 30
0.0
 40
0.500000000000009
 50
66.42182152180017
 51
90.0
  0
LINE
  5
ACC
  8
1
 10
34.55
 20
34.92499999999998
 30
0.0
 11
20.04999999999998
 21
34.92499999999998
 31
0.0
  0
LINE
  5
ACE
  8
1
 10
20.04999999999998
 20
-34.92500000000001
 30
0.0
 11
34.55
 21
-34.92500000000001
 31
0.0
  0
LINE
  5
ACF
  8
1
 10
0.0
 20
-34.92500000000001
 30
0.0
 11
0.2999999999999829
 21
-34.625
 31
0.0
  0
LINE
  5
AD0
  8
1
 10
0.2999999999999829
 20
34.625
 30
0.0
 11
0.0
 21
34.92499999999998
 31
0.0
  0
LINE
  5
AD3
  8
1
 10
34.55
 20
-34.92500000000001
 30
0.0
 11
35.05
 21
-34.42500000000001
 31
0.0
  0
LINE
  5
AD4
  8
1
 10
35.05
 20
34.42499999999998
 30
0.0
 11
34.55
 21
34.92499999999998
 31
0.0
  0
LINE
  5
AD5
  8
1
 10
1.299999999999983
 20
34.625
 30
0.0
 11
0.2999999999999829
 21
34.625
 31
0.0
  0
LINE
  5
AD6
  8
1
 10
0.2999999999999829
 20
-34.625
 30
0.0
 11
1.299999999999983
 21
-34.625
 31
0.0
  0
LINE
  5
ADB
  8
1
 10
14.65616694409999
 20
-47.282880439
 30
0.0
 11
14.68806954659999
 21
-47.29184187660002
 31
0.0
  0
LINE
  5
ADC
  8
1
 10
14.6561667691
 20
47.30816788690001
 30
0.0
 11
14.6561667691
 21
-47.2826327523
 31
0.0
  0
LINE
  5
ADD
  8
1
 10
14.7615962207
 20
47.3314147463
 30
0.0
 11
14.6561668942
 21
47.30816788690001
 31
0.0
  0
LINE
  5
ADE
  8
1
 10
18.25
 20
47.3314147463
 30
0.0
 11
14.7615962207
 21
47.3314147463
 31
0.0
  0
LINE
  5
ADF
  8
1
 10
14.68806954659999
 20
-47.29184187660002
 30
0.0
 11
18.25
 21
-47.29184187660002
 31
0.0
  0
LINE
  5
AE0
  8
1
 10
7.498403779400007
 20
47.3314147463
 30
0.0
 11
4.006414746699988
 21
47.3314147463
 31
0.0
  0
LINE
  5
AE1
  8
1
 10
7.603833105900009
 20
47.30816788690001
 30
0.0
 11
7.498403779400007
 21
47.3314147463
 31
0.0
  0
LINE
  5
AE2
  8
1
 10
7.603833230899994
 20
47.30844201400001
 30
0.0
 11
7.603833230899994
 21
-47.28288044160001
 31
0.0
  0
LINE
  5
AE3
  8
1
 10
7.571930453299984
 20
-47.29184187660002
 30
0.0
 11
7.603833055899997
 21
-47.282880439
 31
0.0
  0
LINE
  5
AE4
  8
1
 10
4.040356993800003
 20
-47.29184187660002
 30
0.0
 11
7.571930453299984
 21
-47.29184187660002
 31
0.0
  0
LINE
  5
AE5
  8
1
 10
2.300001405499984
 20
-46.74795901499999
 30
0.0
 11
4.040356993800003
 21
-47.29184189310001
 31
0.0
  0
LINE
  5
AE6
  8
1
 10
4.006414746699988
 20
47.33141476029999
 30
0.0
 11
2.299999765199999
 21
46.80267569
 31
0.0
  0
ARC
  5
AE7
  8
1
 10
2.557435939599998
 20
-45.59355264690001
 30
0.0
 40
1.184053137363273
 50
207.7147598986998
 51
257.3157095984005
  0
LINE
  5
AE8
  8
1
 10
1.50922466130001
 20
-46.14422037630001
 30
0.0
 11
1.5
 21
-46.01377680920001
 31
0.0
  0
LINE
  5
AE9
  8
1
 10
1.5
 20
-46.01377680920001
 30
0.0
 11
1.5
 21
46.01377680919998
 31
0.0
  0
ARC
  5
AEA
  8
1
 10
2.572884962100005
 20
45.72649004249999
 30
0.0
 40
1.111555736593689
 50
104.3436511600003
 51
164.8417645594994
  0
LINE
  5
AEB
  8
1
 10
9.204999995999998
 20
44.41431970880001
 30
0.0
 11
7.60383322749999
 21
47.3081678945
 31
0.0
  0
LINE
  5
AEC
  8
1
 10
9.204999999999984
 20
44.4143196734
 30
0.0
 11
9.204999999999984
 21
-44.387299867
 31
0.0
  0
LINE
  5
AED
  8
1
 10
7.603833226399985
 20
-47.28288044990001
 30
0.0
 11
9.2049999921
 21
-44.38762367050001
 31
0.0
  0
LINE
  5
AEE
  8
1
 10
14.65616677259999
 20
47.3081678945
 30
0.0
 11
13.05500000399999
 21
44.41431970880001
 31
0.0
  0
LINE
  5
AEF
  8
1
 10
13.05500000800001
 20
-44.38762367050001
 30
0.0
 11
14.65616677360001
 21
-47.28288044990001
 31
0.0
  0
LINE
  5
AF0
  8
1
 10
13.05500000000001
 20
44.41459195280001
 30
0.0
 11
13.05500000000001
 21
-44.38762365650001
 31
0.0
  0
ARC
  5
AF1
  8
1
 10
17.92302328310001
 20
46.41895288640001
 30
0.0
 40
1.127359624435328
 50
1.493363825500091
 51
43.53750291790048
  0
LINE
  5
AF2
  8
1
 10
19.04999999999998
 20
46.44833319130001
 30
0.0
 11
19.04999999999998
 21
-46.44833319130001
 31
0.0
  0
ARC
  5
AF3
  8
1
 10
17.91824827779999
 20
-46.4157978575
 30
0.0
 40
1.1322192847622
 50
319.2464850235001
 51
358.3533278529993
  0
ARC
  5
AF4
  8
1
 10
18.2616113983
 20
-46.25791326929999
 30
0.0
 40
1.033993805426882
 50
269.3565743835002
 51
299.8289453780985
  0
ARC
  5
AF5
  8
1
 10
18.2610591033
 20
46.41902767409999
 30
0.0
 40
0.9124540938653742
 50
58.31881226410037
 51
90.69445187719943
  0
ARC
  5
AF6
  8
1
 10
12.5158206966
 20
-44.1073442162
 30
0.0
 40
0.5397579791454132
 50
357.3466499737992
 51
85.83742202690154
  0
ARC
  5
AF7
  8
1
 10
12.54139279200001
 20
44.09944295630001
 30
0.0
 40
0.4858431210597904
 50
271.6049163143007
 51
333.441972537701
  0
POLYLINE
  5
AF8
  8
1
 66
     1
 10
0.0
 20
0.0
 30
0.0
  0
VERTEX
  5
154A
  8
1
 10
13.05500000000001
 20
44.14662312639999
 30
0.0
  0
VERTEX
  5
154B
  8
1
 10
13.03542892280001
 20
44.01594229719998
 30
0.0
  0
VERTEX
  5
154C
  8
1
 10
12.97787844319998
 20
43.88571451269999
 30
0.0
  0
SEQEND
  5
16F0
  8
1
  0
ARC
  5
AF9
  8
1
 10
9.744214343399989
 20
-44.10737531749999
 30
0.0
 40
0.5397915428070933
 50
94.16604783349855
 51
182.6498801657025
  0
POLYLINE
  5
AFA
  8
1
 66
     1
 10
0.0
 20
0.0
 30
0.0
  0
VERTEX
  5
154D
  8
1
 10
9.280099379399985
 20
43.88913247470001
 30
0.0
  0
VERTEX
  5
154E
  8
1
 10
9.224055884099982
 20
44.0177026321
 30
0.0
  0
VERTEX
  5
154F
  8
1
 10
9.204999999999984
 20
44.14662312639999
 30
0.0
  0
SEQEND
  5
16EF
  8
1
  0
ARC
  5
AFB
  8
1
 10
9.721350266000002
 20
44.10422581969999
 30
0.0
 40
0.4907078648052702
 50
206.0244317763009
 51
268.0905652222996
  0
LINE
  5
AFC
  8
1
 10
12.55500000000001
 20
43.613790424
 30
0.0
 11
9.704999999999984
 21
43.613790424
 31
0.0
  0
LINE
  5
AFD
  8
1
 10
9.704999999999984
 20
-43.5690100651
 30
0.0
 11
12.55500000000001
 21
-43.5690100651
 31
0.0
  0
LINE
  5
AFF
  8
1
 10
34.55
 20
-34.92500000000001
 30
0.0
 11
34.55
 21
34.92499999999998
 31
0.0
  0
LINE
  5
B00
  8
1
 10
0.2999999999999829
 20
34.625
 30
0.0
 11
0.2999999999999829
 21
-34.625
 31
0.0
  0
LINE
  5
B01
  8
1
 10
0.0
 20
34.92499999999998
 30
0.0
 11
0.0
 21
-34.92500000000001
 31
0.0
  0
LINE
  5
B02
  8
1
 10
35.05
 20
34.42499999999998
 30
0.0
 11
35.05
 21
-34.42500000000001
 31
0.0
  0
LINE
  5
B04
  8
1
 10
14.68806954670001
 20
-47.29184187660002
 30
0.0
 11
14.65616694420001
 21
-47.282880439
 31
0.0
  0
LINE
  5
B1A
  8
3
 10
1.500000000000004
 20
37.72
 30
0.0
 11
19.04999999999998
 21
37.72
 31
0.0
  0
LINE
  5
B3B
  8
3
 10
1.5
 20
-35.30000000000001
 30
0.0
 11
19.26937525020018
 21
-35.30000000000001
 31
0.0
  0
LINE
  5
B42
  8
3
 10
26.97499999999999
 20
28.32499999999999
 30
0.0
 11
33.32499999999999
 21
28.32499999999999
 31
0.0
  0
LINE
  5
B43
  8
3
 10
20.625
 20
28.32499999999999
 30
0.0
 11
26.97499999999999
 21
28.32499999999999
 31
0.0
  0
LINE
  5
B44
  8
3
 10
11.375
 20
37.31999999999999
 30
0.0
 11
16.125
 21
37.31999999999999
 31
0.0
  0
LINE
  5
B45
  8
3
 10
6.625
 20
37.31999999999999
 30
0.0
 11
11.375
 21
37.31999999999999
 31
0.0
  0
LINE
  5
B55
  8
3
 10
20.625
 20
28.32499999999999
 30
0.0
 11
26.97499999999999
 21
24.50953506919998
 31
0.0
  0
LINE
  5
B56
  8
3
 10
26.97499999999999
 20
24.50953506919998
 30
0.0
 11
33.32499999999999
 21
28.32499999999999
 31
0.0
  0
LINE
  5
B57
  8
3
 10
20.625
 20
34.92499999999998
 30
0.0
 11
20.625
 21
28.32499999999999
 31
0.0
  0
LINE
  5
B58
  8
3
 10
33.32499999999999
 20
28.32499999999999
 30
0.0
 11
33.32499999999999
 21
34.92499999999998
 31
0.0
  0
LINE
  5
B59
  8
3
 10
6.625
 20
37.72
 30
0.0
 11
6.625
 21
37.31999999999999
 31
0.0
  0
LINE
  5
B5A
  8
3
 10
16.125
 20
37.31999999999999
 30
0.0
 11
16.125
 21
37.72
 31
0.0
  0
LINE
  5
B5B
  8
1
 10
20.04999999999998
 20
-34.92500000000001
 30
0.0
 11
20.04999999999998
 21
34.92499999999998
 31
0.0
  0
LINE
  5
B5C
  8
1
 10
1.299999999999983
 20
-34.625
 30
0.0
 11
1.299999999999983
 21
34.625
 31
0.0
  0
LINE
  5
B5F
  8
1
 10
12.55500000000001
 20
-43.00413183130001
 30
0.0
 11
12.55500000000001
 21
42.79577481850001
 31
0.0
  0
LINE
  5
B60
  8
1
 10
9.704999999999984
 20
-43.00421493109999
 30
0.0
 11
9.704999999999984
 21
42.7957705776
 31
0.0
  0
LINE
  5
B62
  8
1
 10
18.25
 20
47.3314147463
 30
0.0
 11
18.25
 21
-47.29184187660002
 31
0.0
  0
LINE
  5
B64
  8
1
 10
2.299999999999983
 20
-46.74795854910002
 30
0.0
 11
2.299999999999983
 21
46.80267576719999
 31
0.0
  0
ARC
  5
CE6
  8
1
 10
37.05000000000007
 20
23.44999999999996
 30
0.0
 40
2.000000000000028
 50
180.0
 51
270.0
  0
ARC
  5
CE7
  8
1
 10
37.05000000000007
 20
-23.45000000000005
 30
0.0
 40
2.000000000000028
 50
90.0
 51
180.0
  0
ARC
  5
CE8
  8
1
 10
100.6000000000001
 20
-20.45000000000005
 30
0.0
 40
1.0
 50
270.0
 51
0.0
  0
ARC
  5
CE9
  8
1
 10
100.6000000000001
 20
20.44999999999996
 30
0.0
 40
1.0
 50
0.0
 51
90.0
  0
LINE
  5
CEA
  8
1
 10
37.05000000000007
 20
-21.45000000000002
 30
0.0
 11
100.6000000000001
 21
-21.45000000000005
 31
0.0
  0
LINE
  5
CEB
  8
1
 10
100.6000000000001
 20
21.44999999999996
 30
0.0
 11
37.05000000000007
 21
21.44999999999993
 31
0.0
  0
LINE
  5
D00
  8
1
 10
101.6280313494
 20
19.84755999999996
 30
0.0
 11
101.6000000000001
 21
19.84755999999996
 31
0.0
  0
LINE
  5
D03
  8
1
 10
101.6000000000001
 20
-19.84756000000004
 30
0.0
 11
101.6280313494
 21
-19.84756000000004
 31
0.0
  0
LINE
  5
D26
  8
1
 10
101.6000000000001
 20
-0.0000000000000284
 30
0.0
 11
101.6000000000001
 21
20.44999999999996
 31
0.0
  0
LINE
  5
D27
  8
1
 10
101.6000000000001
 20
-20.45000000000005
 30
0.0
 11
101.6000000000001
 21
-0.0000000000000284
 31
0.0
  0
CIRCLE
  5
D28
  8
1
 10
95.25000000000006
 20
-0.0000000000000284
 30
0.0
 40
1.624999999999915
  0
CIRCLE
  5
D29
  8
1
 10
95.25000000000006
 20
-0.0000000000000284
 30
0.0
 40
1.25
  0
LINE
  5
D30
  8
1
 10
96.00000000000006
 20
0.433012701899969
 30
0.0
 11
95.25000000000006
 21
0.8660254037999664
 31
0.0
  0
LINE
  5
D31
  8
1
 10
94.50000000000006
 20
0.433012701899969
 30
0.0
 11
95.25000000000006
 21
0.8660254037999664
 31
0.0
  0
LINE
  5
D32
  8
1
 10
96.00000000000006
 20
-0.4330127019000258
 30
0.0
 11
95.25000000000006
 21
-0.8660254038000517
 31
0.0
  0
LINE
  5
D33
  8
1
 10
96.00000000000006
 20
-0.4330127019000258
 30
0.0
 11
96.00000000000006
 21
0.433012701899969
 31
0.0
  0
CIRCLE
  5
D34
  8
1
 10
95.25000000000006
 20
-0.0000000000000284
 30
0.0
 40
1.219500000000025
  0
LINE
  5
D35
  8
1
 10
94.50000000000006
 20
-0.4330127019000258
 30
0.0
 11
94.50000000000006
 21
0.433012701899969
 31
0.0
  0
LINE
  5
D36
  8
1
 10
94.50000000000006
 20
-0.4330127019000258
 30
0.0
 11
95.25000000000006
 21
-0.8660254038000517
 31
0.0
  0
POLYLINE
  5
D44
  8
3
 66
     1
 10
0.0
 20
0.0
 30
0.0
  0
VERTEX
  5
1550
  8
3
 10
95.25000000000006
 20
-17.71036171870003
 30
0.0
  0
VERTEX
  5
1551
  8
3
 10
94.71299086610001
 20
-17.76184738900002
 30
0.0
  0
VERTEX
  5
1552
  8
3
 10
94.2365365561
 20
-17.90852270800002
 30
0.0
  0
VERTEX
  5
1553
  8
3
 10
93.87337244190002
 20
-18.12947095830003
 30
0.0
  0
VERTEX
  5
1554
  8
3
 10
93.66505415750004
 20
-18.39436478000005
 30
0.0
  0
VERTEX
  5
1555
  8
3
 10
93.63567012240001
 20
-18.66850419270003
 30
0.0
  0
VERTEX
  5
1556
  8
3
 10
93.78751719290004
 20
-18.92029118830004
 30
0.0
  0
VERTEX
  5
1557
  8
3
 10
94.1035462478
 20
-19.12527082550002
 30
0.0
  0
VERTEX
  5
1558
  8
3
 10
94.54949672820003
 20
-19.26592380230005
 30
0.0
  0
VERTEX
  5
1559
  8
3
 10
95.07473519170001
 20
-19.33124396470004
 30
0.0
  0
VERTEX
  5
155A
  8
3
 10
95.61852059930003
 20
-19.31694174310002
 30
0.0
  0
VERTEX
  5
155B
  8
3
 10
96.12018671110005
 20
-19.22437071130003
 30
0.0
  0
VERTEX
  5
155C
  8
3
 10
96.5249081131
 20
-19.05953316480003
 30
0.0
  0
VERTEX
  5
155D
  8
3
 10
96.78670173340004
 20
-18.83479239330003
 30
0.0
  0
VERTEX
  5
155E
  8
3
 10
96.87496827680005
 20
-18.57116593600003
 30
0.0
  0
VERTEX
  5
155F
  8
3
 10
96.78044508110003
 20
-18.29710785710003
 30
0.0
  0
VERTEX
  5
1560
  8
3
 10
96.51434528530007
 20
-18.04479120620005
 30
0.0
  0
VERTEX
  5
1561
  8
3
 10
96.10542089050006
 20
-17.84685902350003
 30
0.0
  0
VERTEX
  5
1562
  8
3
 10
95.59935208170002
 20
-17.73183098660002
 30
0.0
  0
VERTEX
  5
1563
  8
3
 10
95.25000000000006
 20
-17.71036171870003
 30
0.0
  0
SEQEND
  5
16EE
  8
3
  0
POLYLINE
  5
D45
  8
3
 66
     1
 10
0.0
 20
0.0
 30
0.0
  0
VERTEX
  5
1564
  8
3
 10
95.25000000000006
 20
19.33536171869997
 30
0.0
  0
VERTEX
  5
1565
  8
3
 10
94.71299086610001
 20
19.29555081209998
 30
0.0
  0
VERTEX
  5
1566
  8
3
 10
94.2365365561
 20
19.17876553819997
 30
0.0
  0
VERTEX
  5
1567
  8
3
 10
93.87337244190002
 20
18.99290686559996
 30
0.0
  0
VERTEX
  5
1568
  8
3
 10
93.66505415750004
 20
18.75293370819998
 30
0.0
  0
VERTEX
  5
1569
  8
3
 10
93.63567012240001
 20
18.48259010959998
 30
0.0
  0
VERTEX
  5
156A
  8
3
 10
93.78751719290004
 20
18.21193461199996
 30
0.0
  0
VERTEX
  5
156B
  8
3
 10
94.1035462478
 20
17.97363338499997
 30
0.0
  0
VERTEX
  5
156C
  8
3
 10
94.54949672820003
 20
17.79966319569996
 30
0.0
  0
VERTEX
  5
156D
  8
3
 10
95.07473519170001
 20
17.71572322909998
 30
0.0
  0
VERTEX
  5
156E
  8
3
 10
95.61852059930003
 20
17.73428019749997
 30
0.0
  0
VERTEX
  5
156F
  8
3
 10
96.12018671110005
 20
17.85200046679998
 30
0.0
  0
VERTEX
  5
1570
  8
3
 10
96.5249081131
 20
18.05194480479997
 30
0.0
  0
VERTEX
  5
1571
  8
3
 10
96.78670173340004
 20
18.30642435639996
 30
0.0
  0
VERTEX
  5
1572
  8
3
 10
96.87496827680005
 20
18.58131972379996
 30
0.0
  0
VERTEX
  5
1573
  8
3
 10
96.78044508110003
 20
18.84333386669996
 30
0.0
  0
VERTEX
  5
1574
  8
3
 10
96.51434528530007
 20
19.06560264779998
 30
0.0
  0
VERTEX
  5
1575
  8
3
 10
96.10542089050006
 20
19.22848129459996
 30
0.0
  0
VERTEX
  5
1576
  8
3
 10
95.59935208170002
 20
19.31883386079997
 30
0.0
  0
VERTEX
  5
1577
  8
3
 10
95.25000000000006
 20
19.33536171869997
 30
0.0
  0
SEQEND
  5
16ED
  8
3
  0
LINE
  5
D53
  8
SK3
 10
-40.09999999999997
 20
-0.0000000000000284
 30
0.0
 11
-40.09999999999997
 21
11.09979999999999
 31
0.0
  0
LINE
  5
D54
  8
SK3
 10
-40.09999999999997
 20
-11.09980000000002
 30
0.0
 11
-40.09999999999997
 21
-0.0000000000000284
 31
0.0
  0
LINE
  5
D55
  8
SK3
 10
-38.56932080049995
 20
-0.0000000000000284
 30
0.0
 11
-38.56932080049995
 21
-4.216400000000021
 31
0.0
  0
LINE
  5
D56
  8
SK3
 10
-38.56932080049995
 20
4.216399999999965
 30
0.0
 11
-38.56932080049995
 21
-0.0000000000000284
 31
0.0
  0
LINE
  5
D57
  8
3
 10
95.10000000000007
 20
1.240967364599953
 30
0.0
 11
95.10000000000007
 21
1.249999999999972
 31
0.0
  0
LINE
  5
D58
  8
3
 10
95.10000000000007
 20
-1.24096736460001
 30
0.0
 11
95.10000000000007
 21
-1.250000000000028
 31
0.0
  0
LINE
  5
D5D
  8
3
 10
100.05
 20
4.762499999999989
 30
0.0
 11
100.05
 21
-4.762500000000045
 31
0.0
  0
POLYLINE
  5
D60
  8
3
 66
     1
 10
0.0
 20
0.0
 30
0.0
  0
VERTEX
  5
1578
  8
3
 10
95.25000000000006
 20
-2.862355261500028
 30
0.0
  0
VERTEX
  5
1579
  8
3
 10
95.45166218230003
 20
-2.874912719400015
 30
0.0
  0
VERTEX
  5
157A
  8
3
 10
95.65332436450004
 20
-2.913231849600038
 30
0.0
  0
VERTEX
  5
157B
  8
3
 10
95.83781783890004
 20
-2.972732837500018
 30
0.0
  0
VERTEX
  5
157C
  8
3
 10
96.01096750700002
 20
-3.053237592300036
 30
0.0
  0
VERTEX
  5
157D
  8
3
 10
96.16328801770003
 20
-3.14918874570003
 30
0.0
  0
VERTEX
  5
157E
  8
3
 10
96.2941288873
 20
-3.259061074700014
 30
0.0
  0
VERTEX
  5
157F
  8
3
 10
96.39454387470003
 20
-3.374227221900014
 30
0.0
  0
VERTEX
  5
1580
  8
3
 10
96.46432254460004
 20
-3.494211927800052
 30
0.0
  0
VERTEX
  5
1581
  8
3
 10
96.49650799150002
 20
-3.603929453400042
 30
0.0
  0
VERTEX
  5
1582
  8
3
 10
96.49433477210005
 20
-3.709494900200013
 30
0.0
  0
VERTEX
  5
1583
  8
3
 10
96.45958501099999
 20
-3.798928753900043
 30
0.0
  0
VERTEX
  5
1584
  8
3
 10
96.39198234870007
 20
-3.879031509700042
 30
0.0
  0
VERTEX
  5
1585
  8
3
 10
96.29596128530004
 20
-3.945300775700048
 30
0.0
  0
VERTEX
  5
1586
  8
3
 10
96.16970563350002
 20
-4.000428791200022
 30
0.0
  0
VERTEX
  5
1587
  8
3
 10
96.01711691310003
 20
-4.043535345500032
 30
0.0
  0
VERTEX
  5
1588
  8
3
 10
95.83789921870003
 20
-4.075885052500041
 30
0.0
  0
VERTEX
  5
1589
  8
3
 10
95.64492726900004
 20
-4.097073130300032
 30
0.0
  0
VERTEX
  5
158A
  8
3
 10
95.43351489570006
 20
-4.109202559400046
 30
0.0
  0
VERTEX
  5
158B
  8
3
 10
95.23038740560007
 20
-4.11231968810003
 30
0.0
  0
VERTEX
  5
158C
  8
3
 10
95.02169427200005
 20
-4.107442553600038
 30
0.0
  0
VERTEX
  5
158D
  8
3
 10
94.83033236360001
 20
-4.094965633100031
 30
0.0
  0
VERTEX
  5
158E
  8
3
 10
94.64534721490003
 20
-4.073463606700045
 30
0.0
  0
VERTEX
  5
158F
  8
3
 10
94.47693038110002
 20
-4.042175760900022
 30
0.0
  0
VERTEX
  5
1590
  8
3
 10
94.32524439470005
 20
-3.998645388600039
 30
0.0
  0
VERTEX
  5
1591
  8
3
 10
94.19794254790003
 20
-3.941927720000024
 30
0.0
  0
VERTEX
  5
1592
  8
3
 10
94.09745618590006
 20
-3.86932549520003
 30
0.0
  0
VERTEX
  5
1593
  8
3
 10
94.03300642770004
 20
-3.785814394400035
 30
0.0
  0
VERTEX
  5
1594
  8
3
 10
94.00205826080007
 20
-3.686833298200042
 30
0.0
  0
VERTEX
  5
1595
  8
3
 10
94.00677776939999
 20
-3.584776584600036
 30
0.0
  0
VERTEX
  5
1596
  8
3
 10
94.04539512830006
 20
-3.473144775600019
 30
0.0
  0
VERTEX
  5
1597
  8
3
 10
94.11364069890003
 20
-3.363173922600026
 30
0.0
  0
VERTEX
  5
1598
  8
3
 10
94.21333323700001
 20
-3.25184178110004
 30
0.0
  0
VERTEX
  5
1599
  8
3
 10
94.34079190720006
 20
-3.146236356600014
 30
0.0
  0
VERTEX
  5
159A
  8
3
 10
94.49685804560004
 20
-3.049007322600033
 30
0.0
  0
VERTEX
  5
159B
  8
3
 10
94.67444021650002
 20
-2.96799274350002
 30
0.0
  0
VERTEX
  5
159C
  8
3
 10
94.87502104490004
 20
-2.906227213900024
 30
0.0
  0
VERTEX
  5
159D
  8
3
 10
95.057753072
 20
-2.873763249400042
 30
0.0
  0
VERTEX
  5
159E
  8
3
 10
95.25000000000006
 20
-2.862355261500028
 30
0.0
  0
SEQEND
  5
16EC
  8
3
  0
POLYLINE
  5
D61
  8
3
 66
     1
 10
0.0
 20
0.0
 30
0.0
  0
VERTEX
  5
159F
  8
3
 10
95.25000000000006
 20
4.112355261499971
 30
0.0
  0
VERTEX
  5
15A0
  8
3
 10
95.45166218230003
 20
4.108538417899979
 30
0.0
  0
VERTEX
  5
15A1
  8
3
 10
95.65332436450004
 20
4.096375736399978
 30
0.0
  0
VERTEX
  5
15A2
  8
3
 10
95.83781783890004
 20
4.075896555199961
 30
0.0
  0
VERTEX
  5
15A3
  8
3
 10
96.01096750700002
 20
4.044917204499967
 30
0.0
  0
VERTEX
  5
15A4
  8
3
 10
96.16328801770003
 20
4.002655204599989
 30
0.0
  0
VERTEX
  5
15A5
  8
3
 10
96.2941288873
 20
3.946298200199976
 30
0.0
  0
VERTEX
  5
15A6
  8
3
 10
96.39454387470003
 20
3.876740225499987
 30
0.0
  0
VERTEX
  5
15A7
  8
3
 10
96.46432254460004
 20
3.790726274199983
 30
0.0
  0
VERTEX
  5
15A8
  8
3
 10
96.49650799150002
 20
3.697298758299951
 30
0.0
  0
VERTEX
  5
15A9
  8
3
 10
96.49433477210005
 20
3.590621123199981
 30
0.0
  0
VERTEX
  5
15AA
  8
3
 10
96.45958501099999
 20
3.48364459459998
 30
0.0
  0
VERTEX
  5
15AB
  8
3
 10
96.39198234870007
 20
3.370724205799974
 30
0.0
  0
VERTEX
  5
15AC
  8
3
 10
96.29596128530004
 20
3.26085575259998
 30
0.0
  0
VERTEX
  5
15AD
  8
3
 10
96.16970563350002
 20
3.153881953899969
 30
0.0
  0
VERTEX
  5
15AE
  8
3
 10
96.01711691310003
 20
3.056604931699951
 30
0.0
  0
VERTEX
  5
15AF
  8
3
 10
95.83789921870003
 20
2.972764701499955
 30
0.0
  0
VERTEX
  5
15B0
  8
3
 10
95.64492726900004
 20
2.911099921399966
 30
0.0
  0
VERTEX
  5
15B1
  8
3
 10
95.43351489570006
 20
2.872747027199978
 30
0.0
  0
VERTEX
  5
15B2
  8
3
 10
95.23038740560007
 20
2.862473559099953
 30
0.0
  0
VERTEX
  5
15B3
  8
3
 10
95.02169427200005
 20
2.878468796899966
 30
0.0
  0
VERTEX
  5
15B4
  8
3
 10
94.83033236360001
 20
2.917519636399959
 30
0.0
  0
VERTEX
  5
15B5
  8
3
 10
94.64534721490003
 20
2.979436637299955
 30
0.0
  0
VERTEX
  5
15B6
  8
3
 10
94.47693038110002
 20
3.059901173799972
 30
0.0
  0
VERTEX
  5
15B7
  8
3
 10
94.32524439470005
 20
3.157617998699948
 30
0.0
  0
VERTEX
  5
15B8
  8
3
 10
94.19794254790003
 20
3.26689059689997
 30
0.0
  0
VERTEX
  5
15B9
  8
3
 10
94.09745618590006
 20
3.385442496299959
 30
0.0
  0
VERTEX
  5
15BA
  8
3
 10
94.03300642770004
 20
3.50046085059995
 30
0.0
  0
VERTEX
  5
15BB
  8
3
 10
94.00205826080007
 20
3.615129631899975
 30
0.0
  0
VERTEX
  5
15BC
  8
3
 10
94.00677776939999
 20
3.714770759199951
 30
0.0
  0
VERTEX
  5
15BD
  8
3
 10
94.04539512830006
 20
3.806951760299967
 30
0.0
  0
VERTEX
  5
15BE
  8
3
 10
94.11364069890003
 20
3.883930620799958
 30
0.0
  0
VERTEX
  5
15BF
  8
3
 10
94.21333323700001
 20
3.950284350299967
 30
0.0
  0
VERTEX
  5
15C0
  8
3
 10
94.34079190720006
 20
4.004047899899973
 30
0.0
  0
VERTEX
  5
15C1
  8
3
 10
94.49685804560004
 20
4.04664312609998
 30
0.0
  0
VERTEX
  5
15C2
  8
3
 10
94.67444021650002
 20
4.077601203999961
 30
0.0
  0
VERTEX
  5
15C3
  8
3
 10
94.87502104490004
 20
4.098657833699974
 30
0.0
  0
VERTEX
  5
15C4
  8
3
 10
95.057753072
 20
4.108891225999969
 30
0.0
  0
VERTEX
  5
15C5
  8
3
 10
95.25000000000006
 20
4.112355261499971
 30
0.0
  0
SEQEND
  5
16EB
  8
3
  0
LINE
  5
D62
  8
3
 10
90.40000000000002
 20
19.84249999999997
 30
0.0
 11
90.40000000000002
 21
11.90749999999997
 31
0.0
  0
LINE
  5
D63
  8
3
 10
90.40000000000002
 20
-11.90750000000003
 30
0.0
 11
90.40000000000002
 21
-19.84250000000003
 31
0.0
  0
POLYLINE
  5
D64
  8
3
 66
     1
 10
0.0
 20
0.0
 30
0.0
  0
VERTEX
  5
15C6
  8
3
 10
95.25000000000006
 20
18.01045998089998
 30
0.0
  0
VERTEX
  5
15C7
  8
3
 10
95.72835429040002
 20
17.96288468879996
 30
0.0
  0
VERTEX
  5
15C8
  8
3
 10
96.13388347650002
 20
17.82740171919997
 30
0.0
  0
VERTEX
  5
15C9
  8
3
 10
96.40484941560003
 20
17.62463712619996
 30
0.0
  0
VERTEX
  5
15CA
  8
3
 10
96.50000000000006
 20
17.38545998089998
 30
0.0
  0
VERTEX
  5
15CB
  8
3
 10
96.40484941560003
 20
17.14628283569996
 30
0.0
  0
VERTEX
  5
15CC
  8
3
 10
96.13388347650002
 20
16.94351824269998
 30
0.0
  0
VERTEX
  5
15CD
  8
3
 10
95.72835429040002
 20
16.80803527309996
 30
0.0
  0
VERTEX
  5
15CE
  8
3
 10
95.25000000000006
 20
16.76045998089998
 30
0.0
  0
VERTEX
  5
15CF
  8
3
 10
94.7716457095
 20
16.80803527309996
 30
0.0
  0
VERTEX
  5
15D0
  8
3
 10
94.3661165235
 20
16.94351824269998
 30
0.0
  0
VERTEX
  5
15D1
  8
3
 10
94.09515058430001
 20
17.14628283569996
 30
0.0
  0
VERTEX
  5
15D2
  8
3
 10
94.00000000000006
 20
17.38545998089998
 30
0.0
  0
VERTEX
  5
15D3
  8
3
 10
94.09515058430001
 20
17.62463712619996
 30
0.0
  0
VERTEX
  5
15D4
  8
3
 10
94.3661165235
 20
17.82740171919997
 30
0.0
  0
VERTEX
  5
15D5
  8
3
 10
94.7716457095
 20
17.96288468879996
 30
0.0
  0
VERTEX
  5
15D6
  8
3
 10
95.25000000000006
 20
18.01045998089998
 30
0.0
  0
SEQEND
  5
16EA
  8
3
  0
ARC
  5
D65
  8
3
 10
91.64823740710003
 20
2.530835233299968
 30
0.0
 40
5.499807044526101
 50
49.08877359769957
 51
51.12560407630012
  0
POLYLINE
  5
D66
  8
3
 66
     1
 10
0.0
 20
0.0
 30
0.0
  0
VERTEX
  5
15D7
  8
3
 10
95.25000000000006
 20
6.687177826499976
 30
0.0
  0
VERTEX
  5
15D8
  8
3
 10
95.47968689720004
 20
6.875450701699975
 30
0.0
  0
VERTEX
  5
15D9
  8
3
 10
95.70155208270005
 20
7.036028544599958
 30
0.0
  0
VERTEX
  5
15DA
  8
3
 10
95.90804020360001
 20
7.163443069299973
 30
0.0
  0
VERTEX
  5
15DB
  8
3
 10
96.09211955449999
 20
7.253355326999952
 30
0.0
  0
VERTEX
  5
15DC
  8
3
 10
96.24752153410002
 20
7.302703463599983
 30
0.0
  0
VERTEX
  5
15DD
  8
3
 10
96.36895411420004
 20
7.309806987399952
 30
0.0
  0
VERTEX
  5
15DE
  8
3
 10
96.4522820539
 20
7.274423996499962
 30
0.0
  0
VERTEX
  5
15DF
  8
3
 10
96.49466772029999
 20
7.197759416199972
 30
0.0
  0
VERTEX
  5
15E0
  8
3
 10
96.49466772029999
 20
7.082423966899967
 30
0.0
  0
VERTEX
  5
15E1
  8
3
 10
96.4522820539
 20
6.932345258899971
 30
0.0
  0
VERTEX
  5
15E2
  8
3
 10
96.36895411420004
 20
6.752634042699981
 30
0.0
  0
VERTEX
  5
15E3
  8
3
 10
96.24752153410002
 20
6.549410168099968
 30
0.0
  0
VERTEX
  5
15E4
  8
3
 10
96.09211955449999
 20
6.329594180499953
 30
0.0
  0
VERTEX
  5
15E5
  8
3
 10
95.90804020360001
 20
6.100671649699962
 30
0.0
  0
VERTEX
  5
15E6
  8
3
 10
95.70155208270005
 20
5.870438257899963
 30
0.0
  0
VERTEX
  5
15E7
  8
3
 10
95.47968689720004
 20
5.646734327099978
 30
0.0
  0
VERTEX
  5
15E8
  8
3
 10
95.25000000000006
 20
5.437177826499976
 30
0.0
  0
SEQEND
  5
16E9
  8
3
  0
ARC
  5
D67
  8
3
 10
99.18817751370004
 20
9.982709960399973
 30
0.0
 40
6.014241806760197
 50
227.1759333214001
 51
229.0948581844998
  0
LINE
  5
D68
  8
3
 10
95.10000000000007
 20
5.571597954699968
 30
0.0
 11
95.10000000000007
 21
5.311790333599959
 31
0.0
  0
ARC
  5
D69
  8
3
 10
91.64823740710003
 20
9.593520419599969
 30
0.0
 40
5.499807044534411
 50
308.8743959237
 51
310.9112264022999
  0
POLYLINE
  5
D6A
  8
3
 66
     1
 10
0.0
 20
0.0
 30
0.0
  0
VERTEX
  5
15E9
  8
3
 10
95.25000000000006
 20
5.437177826499976
 30
0.0
  0
VERTEX
  5
15EA
  8
3
 10
95.47968689720004
 20
5.248904951199961
 30
0.0
  0
VERTEX
  5
15EB
  8
3
 10
95.70155208270005
 20
5.08832710829995
 30
0.0
  0
VERTEX
  5
15EC
  8
3
 10
95.90804020360001
 20
4.960912583599963
 30
0.0
  0
VERTEX
  5
15ED
  8
3
 10
96.09211955449999
 20
4.871000325899956
 30
0.0
  0
VERTEX
  5
15EE
  8
3
 10
96.24752153410002
 20
4.82165218939997
 30
0.0
  0
VERTEX
  5
15EF
  8
3
 10
96.36895411420004
 20
4.814548665499956
 30
0.0
  0
VERTEX
  5
15F0
  8
3
 10
96.4522820539
 20
4.849931656399974
 30
0.0
  0
VERTEX
  5
15F1
  8
3
 10
96.49466772029999
 20
4.926596236699964
 30
0.0
  0
VERTEX
  5
15F2
  8
3
 10
96.49466772029999
 20
5.04193168599997
 30
0.0
  0
VERTEX
  5
15F3
  8
3
 10
96.4522820539
 20
5.192010393999965
 30
0.0
  0
VERTEX
  5
15F4
  8
3
 10
96.36895411420004
 20
5.371721610299971
 30
0.0
  0
VERTEX
  5
15F5
  8
3
 10
96.24752153410002
 20
5.574945484899956
 30
0.0
  0
VERTEX
  5
15F6
  8
3
 10
96.09211955449999
 20
5.794761472499971
 30
0.0
  0
VERTEX
  5
15F7
  8
3
 10
95.90804020360001
 20
6.023684003299962
 30
0.0
  0
VERTEX
  5
15F8
  8
3
 10
95.70155208270005
 20
6.253917395099961
 30
0.0
  0
VERTEX
  5
15F9
  8
3
 10
95.47968689720004
 20
6.477621325799987
 30
0.0
  0
VERTEX
  5
15FA
  8
3
 10
95.25000000000006
 20
6.687177826499976
 30
0.0
  0
SEQEND
  5
16E8
  8
3
  0
ARC
  5
D6B
  8
3
 10
99.18817751370004
 20
2.141645692499964
 30
0.0
 40
6.014241806751707
 50
130.9051418154998
 51
132.8240666786004
  0
LINE
  5
D6C
  8
3
 10
95.10000000000007
 20
6.552757698199969
 30
0.0
 11
95.10000000000007
 21
6.812565319299949
 31
0.0
  0
POLYLINE
  5
D6D
  8
3
 66
     1
 10
0.0
 20
0.0
 30
0.0
  0
VERTEX
  5
15FB
  8
3
 10
95.25000000000006
 20
-16.76045998100003
 30
0.0
  0
VERTEX
  5
15FC
  8
3
 10
95.72835429040002
 20
-16.80803527320003
 30
0.0
  0
VERTEX
  5
15FD
  8
3
 10
96.13388347650002
 20
-16.94351824280002
 30
0.0
  0
VERTEX
  5
15FE
  8
3
 10
96.40484941560003
 20
-17.14628283580004
 30
0.0
  0
VERTEX
  5
15FF
  8
3
 10
96.50000000000006
 20
-17.38545998100003
 30
0.0
  0
VERTEX
  5
1600
  8
3
 10
96.40484941560003
 20
-17.62463712620001
 30
0.0
  0
VERTEX
  5
1601
  8
3
 10
96.13388347650002
 20
-17.82740171920003
 30
0.0
  0
VERTEX
  5
1602
  8
3
 10
95.72835429040002
 20
-17.96288468880005
 30
0.0
  0
VERTEX
  5
1603
  8
3
 10
95.25000000000006
 20
-18.01045998100003
 30
0.0
  0
VERTEX
  5
1604
  8
3
 10
94.7716457095
 20
-17.96288468880005
 30
0.0
  0
VERTEX
  5
1605
  8
3
 10
94.3661165235
 20
-17.82740171920003
 30
0.0
  0
VERTEX
  5
1606
  8
3
 10
94.09515058430001
 20
-17.62463712620001
 30
0.0
  0
VERTEX
  5
1607
  8
3
 10
94.00000000000006
 20
-17.38545998100003
 30
0.0
  0
VERTEX
  5
1608
  8
3
 10
94.09515058430001
 20
-17.14628283580004
 30
0.0
  0
VERTEX
  5
1609
  8
3
 10
94.3661165235
 20
-16.94351824280002
 30
0.0
  0
VERTEX
  5
160A
  8
3
 10
94.7716457095
 20
-16.80803527320003
 30
0.0
  0
VERTEX
  5
160B
  8
3
 10
95.25000000000006
 20
-16.76045998100003
 30
0.0
  0
SEQEND
  5
16E7
  8
3
  0
ARC
  5
D6E
  8
3
 10
91.64823740710003
 20
-2.530835233400012
 30
0.0
 40
5.499807044495556
 50
308.8743959237
 51
310.9112264023004
  0
LINE
  5
D6F
  8
3
 10
95.10000000000007
 20
-6.812565319400051
 30
0.0
 11
95.10000000000007
 21
-6.552757698200026
 31
0.0
  0
ARC
  5
D70
  8
3
 10
99.1881775136
 20
-2.141645692600036
 30
0.0
 40
6.014241806715868
 50
227.1759333214004
 51
229.0948581845002
  0
POLYLINE
  5
D71
  8
3
 66
     1
 10
0.0
 20
0.0
 30
0.0
  0
VERTEX
  5
160C
  8
3
 10
95.25000000000006
 20
-6.687177826500033
 30
0.0
  0
VERTEX
  5
160D
  8
3
 10
95.47968689720004
 20
-6.477621325900031
 30
0.0
  0
VERTEX
  5
160E
  8
3
 10
95.70155208270005
 20
-6.253917395100018
 30
0.0
  0
VERTEX
  5
160F
  8
3
 10
95.90804020360001
 20
-6.023684003300048
 30
0.0
  0
VERTEX
  5
1610
  8
3
 10
96.09211955449999
 20
-5.794761472500028
 30
0.0
  0
VERTEX
  5
1611
  8
3
 10
96.24752153410002
 20
-5.574945484900013
 30
0.0
  0
VERTEX
  5
1612
  8
3
 10
96.36895411420004
 20
-5.371721610300028
 30
0.0
  0
VERTEX
  5
1613
  8
3
 10
96.4522820539
 20
-5.192010394100038
 30
0.0
  0
VERTEX
  5
1614
  8
3
 10
96.49466772029999
 20
-5.041931686100042
 30
0.0
  0
VERTEX
  5
1615
  8
3
 10
96.49466772029999
 20
-4.92659623670005
 30
0.0
  0
VERTEX
  5
1616
  8
3
 10
96.4522820539
 20
-4.849931656500019
 30
0.0
  0
VERTEX
  5
1617
  8
3
 10
96.36895411420004
 20
-4.814548665600029
 30
0.0
  0
VERTEX
  5
1618
  8
3
 10
96.24752153410002
 20
-4.821652189400027
 30
0.0
  0
VERTEX
  5
1619
  8
3
 10
96.09211955449999
 20
-4.871000326000029
 30
0.0
  0
VERTEX
  5
161A
  8
3
 10
95.90804020360001
 20
-4.960912583700036
 30
0.0
  0
VERTEX
  5
161B
  8
3
 10
95.70155208270005
 20
-5.088327108400051
 30
0.0
  0
VERTEX
  5
161C
  8
3
 10
95.47968689720004
 20
-5.248904951300034
 30
0.0
  0
VERTEX
  5
161D
  8
3
 10
95.25000000000006
 20
-5.437177826500033
 30
0.0
  0
SEQEND
  5
16E6
  8
3
  0
ARC
  5
D72
  8
3
 10
91.64823740710003
 20
-9.593520419600026
 30
0.0
 40
5.499807044527471
 50
49.08877359770013
 51
51.12560407630024
  0
LINE
  5
D73
  8
3
 10
95.10000000000007
 20
-5.311790333600015
 30
0.0
 11
95.10000000000007
 21
-5.57159795480004
 31
0.0
  0
ARC
  5
D74
  8
3
 10
99.18817751370004
 20
-9.982709960500017
 30
0.0
 40
6.014241806752438
 50
130.9051418154997
 51
132.8240666785999
  0
POLYLINE
  5
D75
  8
3
 66
     1
 10
0.0
 20
0.0
 30
0.0
  0
VERTEX
  5
161E
  8
3
 10
95.25000000000006
 20
-5.437177826500033
 30
0.0
  0
VERTEX
  5
161F
  8
3
 10
95.47968689720004
 20
-5.646734327200022
 30
0.0
  0
VERTEX
  5
1620
  8
3
 10
95.70155208270005
 20
-5.870438257900048
 30
0.0
  0
VERTEX
  5
1621
  8
3
 10
95.90804020360001
 20
-6.100671649700018
 30
0.0
  0
VERTEX
  5
1622
  8
3
 10
96.09211955449999
 20
-6.329594180500038
 30
0.0
  0
VERTEX
  5
1623
  8
3
 10
96.24752153410002
 20
-6.549410168100025
 30
0.0
  0
VERTEX
  5
1624
  8
3
 10
96.36895411420004
 20
-6.752634042700038
 30
0.0
  0
VERTEX
  5
1625
  8
3
 10
96.4522820539
 20
-6.932345259000044
 30
0.0
  0
VERTEX
  5
1626
  8
3
 10
96.49466772029999
 20
-7.082423967000011
 30
0.0
  0
VERTEX
  5
1627
  8
3
 10
96.49466772029999
 20
-7.197759416300016
 30
0.0
  0
VERTEX
  5
1628
  8
3
 10
96.4522820539
 20
-7.274423996600035
 30
0.0
  0
VERTEX
  5
1629
  8
3
 10
96.36895411420004
 20
-7.309806987400037
 30
0.0
  0
VERTEX
  5
162A
  8
3
 10
96.24752153410002
 20
-7.302703463600039
 30
0.0
  0
VERTEX
  5
162B
  8
3
 10
96.09211955449999
 20
-7.253355327000037
 30
0.0
  0
VERTEX
  5
162C
  8
3
 10
95.90804020360001
 20
-7.163443069400046
 30
0.0
  0
VERTEX
  5
162D
  8
3
 10
95.70155208270005
 20
-7.036028544700031
 30
0.0
  0
VERTEX
  5
162E
  8
3
 10
95.47968689720004
 20
-6.875450701800048
 30
0.0
  0
VERTEX
  5
162F
  8
3
 10
95.25000000000006
 20
-6.687177826500033
 30
0.0
  0
SEQEND
  5
16E5
  8
3
  0
LINE
  5
D76
  8
3
 10
95.10000000000007
 20
6.812565319299949
 30
0.0
 11
95.10000000000007
 21
6.552757698199969
 31
0.0
  0
LINE
  5
D77
  8
3
 10
95.10000000000007
 20
-6.552757698200026
 30
0.0
 11
95.10000000000007
 21
-6.812565319400051
 31
0.0
  0
LINE
  5
D78
  8
3
 10
95.10000000000007
 20
5.311790333599959
 30
0.0
 11
95.10000000000007
 21
5.571597954699968
 31
0.0
  0
LINE
  5
D79
  8
3
 10
95.10000000000007
 20
-5.57159795480004
 30
0.0
 11
95.10000000000007
 21
-5.311790333600015
 31
0.0
  0
POLYLINE
  5
D7A
  8
3
 66
     1
 10
0.0
 20
0.0
 30
0.0
  0
VERTEX
  5
1630
  8
3
 10
95.25000000000006
 20
18.52271950739996
 30
0.0
  0
VERTEX
  5
1631
  8
3
 10
95.87186057760002
 20
18.46087162749996
 30
0.0
  0
VERTEX
  5
1632
  8
3
 10
96.39904851940007
 20
18.28474376709997
 30
0.0
  0
VERTEX
  5
1633
  8
3
 10
96.75130424030003
 20
18.02114979619998
 30
0.0
  0
VERTEX
  5
1634
  8
3
 10
96.87500000000006
 20
17.71021950739996
 30
0.0
  0
VERTEX
  5
1635
  8
3
 10
96.75130424030003
 20
17.39928921859996
 30
0.0
  0
VERTEX
  5
1636
  8
3
 10
96.39904851940007
 20
17.13569524769997
 30
0.0
  0
VERTEX
  5
1637
  8
3
 10
95.87186057760002
 20
16.95956738719997
 30
0.0
  0
VERTEX
  5
1638
  8
3
 10
95.25000000000006
 20
16.89771950739996
 30
0.0
  0
VERTEX
  5
1639
  8
3
 10
94.6281394224
 20
16.95956738719997
 30
0.0
  0
VERTEX
  5
163A
  8
3
 10
94.10095148050003
 20
17.13569524769997
 30
0.0
  0
VERTEX
  5
163B
  8
3
 10
93.7486957596
 20
17.39928921859996
 30
0.0
  0
VERTEX
  5
163C
  8
3
 10
93.62500000000006
 20
17.71021950739996
 30
0.0
  0
VERTEX
  5
163D
  8
3
 10
93.7486957596
 20
18.02114979619998
 30
0.0
  0
VERTEX
  5
163E
  8
3
 10
94.10095148050003
 20
18.28474376709997
 30
0.0
  0
VERTEX
  5
163F
  8
3
 10
94.6281394224
 20
18.46087162749996
 30
0.0
  0
VERTEX
  5
1640
  8
3
 10
95.25000000000006
 20
18.52271950739996
 30
0.0
  0
SEQEND
  5
16E4
  8
3
  0
POLYLINE
  5
D7B
  8
3
 66
     1
 10
0.0
 20
0.0
 30
0.0
  0
VERTEX
  5
1641
  8
3
 10
95.25000000000006
 20
-16.89771950740004
 30
0.0
  0
VERTEX
  5
1642
  8
3
 10
95.87186057760002
 20
-16.95956738730001
 30
0.0
  0
VERTEX
  5
1643
  8
3
 10
96.39904851940007
 20
-17.13569524770003
 30
0.0
  0
VERTEX
  5
1644
  8
3
 10
96.75130424030003
 20
-17.39928921860002
 30
0.0
  0
VERTEX
  5
1645
  8
3
 10
96.87500000000006
 20
-17.71021950740004
 30
0.0
  0
VERTEX
  5
1646
  8
3
 10
96.75130424030003
 20
-18.02114979620004
 30
0.0
  0
VERTEX
  5
1647
  8
3
 10
96.39904851940007
 20
-18.28474376710003
 30
0.0
  0
VERTEX
  5
1648
  8
3
 10
95.87186057760002
 20
-18.46087162760003
 30
0.0
  0
VERTEX
  5
1649
  8
3
 10
95.25000000000006
 20
-18.52271950740004
 30
0.0
  0
VERTEX
  5
164A
  8
3
 10
94.6281394224
 20
-18.46087162760003
 30
0.0
  0
VERTEX
  5
164B
  8
3
 10
94.10095148050003
 20
-18.28474376710003
 30
0.0
  0
VERTEX
  5
164C
  8
3
 10
93.7486957596
 20
-18.02114979620004
 30
0.0
  0
VERTEX
  5
164D
  8
3
 10
93.62500000000006
 20
-17.71021950740004
 30
0.0
  0
VERTEX
  5
164E
  8
3
 10
93.7486957596
 20
-17.39928921860002
 30
0.0
  0
VERTEX
  5
164F
  8
3
 10
94.10095148050003
 20
-17.13569524770003
 30
0.0
  0
VERTEX
  5
1650
  8
3
 10
94.6281394224
 20
-16.95956738730001
 30
0.0
  0
VERTEX
  5
1651
  8
3
 10
95.25000000000006
 20
-16.89771950740004
 30
0.0
  0
SEQEND
  5
16E3
  8
3
  0
CIRCLE
  5
D7C
  8
3
 10
95.25000000000006
 20
-0.0000000000000284
 30
0.0
 40
1.500000000000043
  0
CIRCLE
  5
D7D
  8
3
 10
95.25000000000006
 20
-0.0000000000000284
 30
0.0
 40
1.000000000000028
  0
POLYLINE
  5
D7E
  8
3
 66
     1
 10
0.0
 20
0.0
 30
0.0
  0
VERTEX
  5
1652
  8
3
 10
95.25000000000006
 20
14.23834566389996
 30
0.0
  0
VERTEX
  5
1653
  8
3
 10
95.82402514850007
 20
14.18125531329997
 30
0.0
  0
VERTEX
  5
1654
  8
3
 10
96.31066017180004
 20
14.01867574979997
 30
0.0
  0
VERTEX
  5
1655
  8
3
 10
96.63581929870001
 20
13.77535823819997
 30
0.0
  0
VERTEX
  5
1656
  8
3
 10
96.75000000000006
 20
13.48834566389996
 30
0.0
  0
VERTEX
  5
1657
  8
3
 10
96.63581929870001
 20
13.20133308959996
 30
0.0
  0
VERTEX
  5
1658
  8
3
 10
96.31066017180004
 20
12.95801557799996
 30
0.0
  0
VERTEX
  5
1659
  8
3
 10
95.82402514850007
 20
12.79543601449996
 30
0.0
  0
VERTEX
  5
165A
  8
3
 10
95.25000000000006
 20
12.73834566389996
 30
0.0
  0
VERTEX
  5
165B
  8
3
 10
94.67597485140003
 20
12.79543601449996
 30
0.0
  0
VERTEX
  5
165C
  8
3
 10
94.18933982820005
 20
12.95801557799996
 30
0.0
  0
VERTEX
  5
165D
  8
3
 10
93.86418070120003
 20
13.20133308959996
 30
0.0
  0
VERTEX
  5
165E
  8
3
 10
93.75000000000006
 20
13.48834566389996
 30
0.0
  0
VERTEX
  5
165F
  8
3
 10
93.86418070120003
 20
13.77535823819997
 30
0.0
  0
VERTEX
  5
1660
  8
3
 10
94.18933982820005
 20
14.01867574979997
 30
0.0
  0
VERTEX
  5
1661
  8
3
 10
94.67597485140003
 20
14.18125531329997
 30
0.0
  0
VERTEX
  5
1662
  8
3
 10
95.25000000000006
 20
14.23834566389996
 30
0.0
  0
SEQEND
  5
16E2
  8
3
  0
POLYLINE
  5
D7F
  8
3
 66
     1
 10
0.0
 20
0.0
 30
0.0
  0
VERTEX
  5
1663
  8
3
 10
95.25000000000006
 20
13.55533296199997
 30
0.0
  0
VERTEX
  5
1664
  8
3
 10
95.63268343230003
 20
13.51727272829996
 30
0.0
  0
VERTEX
  5
1665
  8
3
 10
95.9571067812
 20
13.40888635259998
 30
0.0
  0
VERTEX
  5
1666
  8
3
 10
96.17387953250004
 20
13.24667467819998
 30
0.0
  0
VERTEX
  5
1667
  8
3
 10
96.25000000000006
 20
13.05533296199997
 30
0.0
  0
VERTEX
  5
1668
  8
3
 10
96.17387953250004
 20
12.86399124579998
 30
0.0
  0
VERTEX
  5
1669
  8
3
 10
95.9571067812
 20
12.70177957139998
 30
0.0
  0
VERTEX
  5
166A
  8
3
 10
95.63268343230003
 20
12.59339319579996
 30
0.0
  0
VERTEX
  5
166B
  8
3
 10
95.25000000000006
 20
12.55533296199997
 30
0.0
  0
VERTEX
  5
166C
  8
3
 10
94.86731656760001
 20
12.59339319579996
 30
0.0
  0
VERTEX
  5
166D
  8
3
 10
94.54289321880002
 20
12.70177957139998
 30
0.0
  0
VERTEX
  5
166E
  8
3
 10
94.32612046750005
 20
12.86399124579998
 30
0.0
  0
VERTEX
  5
166F
  8
3
 10
94.25000000000006
 20
13.05533296199997
 30
0.0
  0
VERTEX
  5
1670
  8
3
 10
94.32612046750005
 20
13.24667467819998
 30
0.0
  0
VERTEX
  5
1671
  8
3
 10
94.54289321880002
 20
13.40888635259998
 30
0.0
  0
VERTEX
  5
1672
  8
3
 10
94.86731656760001
 20
13.51727272829996
 30
0.0
  0
VERTEX
  5
1673
  8
3
 10
95.25000000000006
 20
13.55533296199997
 30
0.0
  0
SEQEND
  5
16E1
  8
3
  0
POLYLINE
  5
D80
  8
3
 66
     1
 10
0.0
 20
0.0
 30
0.0
  0
VERTEX
  5
1674
  8
3
 10
95.25000000000006
 20
17.99520998089997
 30
0.0
  0
VERTEX
  5
1675
  8
3
 10
95.82402514850007
 20
17.93811963029998
 30
0.0
  0
VERTEX
  5
1676
  8
3
 10
96.31066017180004
 20
17.77554006679998
 30
0.0
  0
VERTEX
  5
1677
  8
3
 10
96.63581929870001
 20
17.53222255519998
 30
0.0
  0
VERTEX
  5
1678
  8
3
 10
96.75000000000006
 20
17.24520998089997
 30
0.0
  0
VERTEX
  5
1679
  8
3
 10
96.63581929870001
 20
16.95819740669998
 30
0.0
  0
VERTEX
  5
167A
  8
3
 10
96.31066017180004
 20
16.71487989509995
 30
0.0
  0
VERTEX
  5
167B
  8
3
 10
95.82402514850007
 20
16.55230033159998
 30
0.0
  0
VERTEX
  5
167C
  8
3
 10
95.25000000000006
 20
16.49520998089997
 30
0.0
  0
VERTEX
  5
167D
  8
3
 10
94.67597485140003
 20
16.55230033159998
 30
0.0
  0
VERTEX
  5
167E
  8
3
 10
94.18933982820005
 20
16.71487989509995
 30
0.0
  0
VERTEX
  5
167F
  8
3
 10
93.86418070120003
 20
16.95819740669998
 30
0.0
  0
VERTEX
  5
1680
  8
3
 10
93.75000000000006
 20
17.24520998089997
 30
0.0
  0
VERTEX
  5
1681
  8
3
 10
93.86418070120003
 20
17.53222255519998
 30
0.0
  0
VERTEX
  5
1682
  8
3
 10
94.18933982820005
 20
17.77554006679998
 30
0.0
  0
VERTEX
  5
1683
  8
3
 10
94.67597485140003
 20
17.93811963029998
 30
0.0
  0
VERTEX
  5
1684
  8
3
 10
95.25000000000006
 20
17.99520998089997
 30
0.0
  0
SEQEND
  5
16E0
  8
3
  0
LINE
  5
D81
  8
3
 10
95.25000000000006
 20
15.99981933489997
 30
0.0
 11
95.25000000000006
 21
17.81847268279998
 31
0.0
  0
LINE
  5
D82
  8
3
 10
96.00000000000006
 20
15.78331298389998
 30
0.0
 11
95.25000000000006
 21
15.99981933489997
 31
0.0
  0
LINE
  5
D83
  8
3
 10
94.50000000000006
 20
15.78331298389998
 30
0.0
 11
95.25000000000006
 21
15.99981933489997
 31
0.0
  0
LINE
  5
D84
  8
3
 10
94.50000000000006
 20
15.78331298389998
 30
0.0
 11
94.50000000000006
 21
15.35030028209997
 31
0.0
  0
LINE
  5
D85
  8
3
 10
94.50000000000006
 20
15.78331298389998
 30
0.0
 11
94.50000000000006
 21
17.60196633189997
 31
0.0
  0
LINE
  5
D86
  8
3
 10
96.00000000000006
 20
15.78331298389998
 30
0.0
 11
96.00000000000006
 21
15.35030028209997
 31
0.0
  0
LINE
  5
D87
  8
3
 10
96.00000000000006
 20
15.78331298389998
 30
0.0
 11
96.00000000000006
 21
17.60196633189997
 31
0.0
  0
POLYLINE
  5
D88
  8
3
 66
     1
 10
0.0
 20
0.0
 30
0.0
  0
VERTEX
  5
1685
  8
3
 10
95.25000000000006
 20
17.99520998089997
 30
0.0
  0
VERTEX
  5
1686
  8
3
 10
95.71668244570002
 20
17.94879552589998
 30
0.0
  0
VERTEX
  5
1687
  8
3
 10
96.11231671960006
 20
17.81661834079998
 30
0.0
  0
VERTEX
  5
1688
  8
3
 10
96.37667108990006
 20
17.61880120379996
 30
0.0
  0
VERTEX
  5
1689
  8
3
 10
96.46950000000002
 20
17.38545998089998
 30
0.0
  0
VERTEX
  5
168A
  8
3
 10
96.37667108990006
 20
17.15211875809996
 30
0.0
  0
VERTEX
  5
168B
  8
3
 10
96.11231671960006
 20
16.95430162109997
 30
0.0
  0
VERTEX
  5
168C
  8
3
 10
95.71668244570002
 20
16.82212443599997
 30
0.0
  0
VERTEX
  5
168D
  8
3
 10
95.25000000000006
 20
16.77570998089996
 30
0.0
  0
VERTEX
  5
168E
  8
3
 10
94.78331755420002
 20
16.82212443599997
 30
0.0
  0
VERTEX
  5
168F
  8
3
 10
94.38768328030004
 20
16.95430162109997
 30
0.0
  0
VERTEX
  5
1690
  8
3
 10
94.12332891010003
 20
17.15211875809996
 30
0.0
  0
VERTEX
  5
1691
  8
3
 10
94.03050000000002
 20
17.38545998089998
 30
0.0
  0
VERTEX
  5
1692
  8
3
 10
94.12332891010003
 20
17.61880120379996
 30
0.0
  0
VERTEX
  5
1693
  8
3
 10
94.38768328030004
 20
17.81661834079998
 30
0.0
  0
VERTEX
  5
1694
  8
3
 10
94.78331755420002
 20
17.94879552589998
 30
0.0
  0
VERTEX
  5
1695
  8
3
 10
95.25000000000006
 20
17.99520998089997
 30
0.0
  0
SEQEND
  5
16DF
  8
3
  0
LINE
  5
D89
  8
3
 10
96.00000000000006
 20
17.60196633189997
 30
0.0
 11
95.25000000000006
 21
17.81847268279998
 31
0.0
  0
LINE
  5
D8A
  8
3
 10
94.50000000000006
 20
17.60196633189997
 30
0.0
 11
95.25000000000006
 21
17.81847268279998
 31
0.0
  0
LINE
  5
D8B
  8
3
 10
95.25000000000006
 20
15.13379393109997
 30
0.0
 11
95.25000000000006
 21
15.99981933489997
 31
0.0
  0
LINE
  5
D8C
  8
3
 10
96.00000000000006
 20
17.16895362999998
 30
0.0
 11
95.25000000000006
 21
16.95244727909997
 31
0.0
  0
LINE
  5
D8D
  8
3
 10
96.00000000000006
 20
15.35030028209997
 30
0.0
 11
95.25000000000006
 21
15.13379393109997
 31
0.0
  0
LINE
  5
D8E
  8
3
 10
94.50000000000006
 20
17.16895362999998
 30
0.0
 11
95.25000000000006
 21
16.95244727909997
 31
0.0
  0
LINE
  5
D8F
  8
3
 10
94.50000000000006
 20
15.35030028209997
 30
0.0
 11
95.25000000000006
 21
15.13379393109997
 31
0.0
  0
POLYLINE
  5
D90
  8
3
 66
     1
 10
0.0
 20
0.0
 30
0.0
  0
VERTEX
  5
1696
  8
3
 10
95.25000000000006
 20
-12.73834566400004
 30
0.0
  0
VERTEX
  5
1697
  8
3
 10
95.82402514850007
 20
-12.79543601460003
 30
0.0
  0
VERTEX
  5
1698
  8
3
 10
96.31066017180004
 20
-12.95801557810003
 30
0.0
  0
VERTEX
  5
1699
  8
3
 10
96.63581929870001
 20
-13.20133308970003
 30
0.0
  0
VERTEX
  5
169A
  8
3
 10
96.75000000000006
 20
-13.48834566400004
 30
0.0
  0
VERTEX
  5
169B
  8
3
 10
96.63581929870001
 20
-13.77535823820003
 30
0.0
  0
VERTEX
  5
169C
  8
3
 10
96.31066017180004
 20
-14.01867574990001
 30
0.0
  0
VERTEX
  5
169D
  8
3
 10
95.82402514850007
 20
-14.18125531330003
 30
0.0
  0
VERTEX
  5
169E
  8
3
 10
95.25000000000006
 20
-14.23834566400004
 30
0.0
  0
VERTEX
  5
169F
  8
3
 10
94.67597485140003
 20
-14.18125531330003
 30
0.0
  0
VERTEX
  5
16A0
  8
3
 10
94.18933982820005
 20
-14.01867574990001
 30
0.0
  0
VERTEX
  5
16A1
  8
3
 10
93.86418070120003
 20
-13.77535823820003
 30
0.0
  0
VERTEX
  5
16A2
  8
3
 10
93.75000000000006
 20
-13.48834566400004
 30
0.0
  0
VERTEX
  5
16A3
  8
3
 10
93.86418070120003
 20
-13.20133308970003
 30
0.0
  0
VERTEX
  5
16A4
  8
3
 10
94.18933982820005
 20
-12.95801557810003
 30
0.0
  0
VERTEX
  5
16A5
  8
3
 10
94.67597485140003
 20
-12.79543601460003
 30
0.0
  0
VERTEX
  5
16A6
  8
3
 10
95.25000000000006
 20
-12.73834566400004
 30
0.0
  0
SEQEND
  5
16DE
  8
3
  0
POLYLINE
  5
D91
  8
3
 66
     1
 10
0.0
 20
0.0
 30
0.0
  0
VERTEX
  5
16A7
  8
3
 10
95.25000000000006
 20
-12.55533296210001
 30
0.0
  0
VERTEX
  5
16A8
  8
3
 10
95.63268343230003
 20
-12.59339319580005
 30
0.0
  0
VERTEX
  5
16A9
  8
3
 10
95.9571067812
 20
-12.70177957150003
 30
0.0
  0
VERTEX
  5
16AA
  8
3
 10
96.17387953250004
 20
-12.86399124590002
 30
0.0
  0
VERTEX
  5
16AB
  8
3
 10
96.25000000000006
 20
-13.05533296210001
 30
0.0
  0
VERTEX
  5
16AC
  8
3
 10
96.17387953250004
 20
-13.24667467830002
 30
0.0
  0
VERTEX
  5
16AD
  8
3
 10
95.9571067812
 20
-13.40888635270005
 30
0.0
  0
VERTEX
  5
16AE
  8
3
 10
95.63268343230003
 20
-13.51727272830004
 30
0.0
  0
VERTEX
  5
16AF
  8
3
 10
95.25000000000006
 20
-13.55533296210001
 30
0.0
  0
VERTEX
  5
16B0
  8
3
 10
94.86731656760001
 20
-13.51727272830004
 30
0.0
  0
VERTEX
  5
16B1
  8
3
 10
94.54289321880002
 20
-13.40888635270005
 30
0.0
  0
VERTEX
  5
16B2
  8
3
 10
94.32612046750005
 20
-13.24667467830002
 30
0.0
  0
VERTEX
  5
16B3
  8
3
 10
94.25000000000006
 20
-13.05533296210001
 30
0.0
  0
VERTEX
  5
16B4
  8
3
 10
94.32612046750005
 20
-12.86399124590002
 30
0.0
  0
VERTEX
  5
16B5
  8
3
 10
94.54289321880002
 20
-12.70177957150003
 30
0.0
  0
VERTEX
  5
16B6
  8
3
 10
94.86731656760001
 20
-12.59339319580005
 30
0.0
  0
VERTEX
  5
16B7
  8
3
 10
95.25000000000006
 20
-12.55533296210001
 30
0.0
  0
SEQEND
  5
16DD
  8
3
  0
POLYLINE
  5
D92
  8
3
 66
     1
 10
0.0
 20
0.0
 30
0.0
  0
VERTEX
  5
16B8
  8
3
 10
95.25000000000006
 20
-16.49520998100002
 30
0.0
  0
VERTEX
  5
16B9
  8
3
 10
95.82402514850007
 20
-16.55230033160004
 30
0.0
  0
VERTEX
  5
16BA
  8
3
 10
96.31066017180004
 20
-16.71487989510001
 30
0.0
  0
VERTEX
  5
16BB
  8
3
 10
96.63581929870001
 20
-16.95819740670004
 30
0.0
  0
VERTEX
  5
16BC
  8
3
 10
96.75000000000006
 20
-17.24520998100002
 30
0.0
  0
VERTEX
  5
16BD
  8
3
 10
96.63581929870001
 20
-17.53222255530005
 30
0.0
  0
VERTEX
  5
16BE
  8
3
 10
96.31066017180004
 20
-17.77554006690002
 30
0.0
  0
VERTEX
  5
16BF
  8
3
 10
95.82402514850007
 20
-17.93811963040002
 30
0.0
  0
VERTEX
  5
16C0
  8
3
 10
95.25000000000006
 20
-17.99520998100002
 30
0.0
  0
VERTEX
  5
16C1
  8
3
 10
94.67597485140003
 20
-17.93811963040002
 30
0.0
  0
VERTEX
  5
16C2
  8
3
 10
94.18933982820005
 20
-17.77554006690002
 30
0.0
  0
VERTEX
  5
16C3
  8
3
 10
93.86418070120003
 20
-17.53222255530005
 30
0.0
  0
VERTEX
  5
16C4
  8
3
 10
93.75000000000006
 20
-17.24520998100002
 30
0.0
  0
VERTEX
  5
16C5
  8
3
 10
93.86418070120003
 20
-16.95819740670004
 30
0.0
  0
VERTEX
  5
16C6
  8
3
 10
94.18933982820005
 20
-16.71487989510001
 30
0.0
  0
VERTEX
  5
16C7
  8
3
 10
94.67597485140003
 20
-16.55230033160004
 30
0.0
  0
VERTEX
  5
16C8
  8
3
 10
95.25000000000006
 20
-16.49520998100002
 30
0.0
  0
SEQEND
  5
16DC
  8
3
  0
LINE
  5
D93
  8
3
 10
94.50000000000006
 20
-15.78331298400002
 30
0.0
 11
95.25000000000006
 21
-15.99981933490002
 31
0.0
  0
LINE
  5
D94
  8
3
 10
95.25000000000006
 20
-15.99981933490002
 30
0.0
 11
95.25000000000006
 21
-17.81847268290005
 31
0.0
  0
LINE
  5
D95
  8
3
 10
96.00000000000006
 20
-15.78331298400002
 30
0.0
 11
95.25000000000006
 21
-15.99981933490002
 31
0.0
  0
LINE
  5
D96
  8
3
 10
94.50000000000006
 20
-15.78331298400002
 30
0.0
 11
94.50000000000006
 21
-17.60196633190003
 31
0.0
  0
LINE
  5
D97
  8
3
 10
94.50000000000006
 20
-15.35030028210002
 30
0.0
 11
94.50000000000006
 21
-15.78331298400002
 31
0.0
  0
LINE
  5
D98
  8
3
 10
96.00000000000006
 20
-15.78331298400002
 30
0.0
 11
96.00000000000006
 21
-17.60196633190003
 31
0.0
  0
LINE
  5
D99
  8
3
 10
96.00000000000006
 20
-15.35030028210002
 30
0.0
 11
96.00000000000006
 21
-15.78331298400002
 31
0.0
  0
POLYLINE
  5
D9A
  8
3
 66
     1
 10
0.0
 20
0.0
 30
0.0
  0
VERTEX
  5
16C9
  8
3
 10
95.25000000000006
 20
-16.77570998100003
 30
0.0
  0
VERTEX
  5
16CA
  8
3
 10
95.71668244570002
 20
-16.82212443600002
 30
0.0
  0
VERTEX
  5
16CB
  8
3
 10
96.11231671960006
 20
-16.95430162120005
 30
0.0
  0
VERTEX
  5
16CC
  8
3
 10
96.37667108990006
 20
-17.15211875810002
 30
0.0
  0
VERTEX
  5
16CD
  8
3
 10
96.46950000000002
 20
-17.38545998100003
 30
0.0
  0
VERTEX
  5
16CE
  8
3
 10
96.37667108990006
 20
-17.61880120390003
 30
0.0
  0
VERTEX
  5
16CF
  8
3
 10
96.11231671960006
 20
-17.81661834080003
 30
0.0
  0
VERTEX
  5
16D0
  8
3
 10
95.71668244570002
 20
-17.94879552590004
 30
0.0
  0
VERTEX
  5
16D1
  8
3
 10
95.25000000000006
 20
-17.99520998100002
 30
0.0
  0
VERTEX
  5
16D2
  8
3
 10
94.78331755420002
 20
-17.94879552590004
 30
0.0
  0
VERTEX
  5
16D3
  8
3
 10
94.38768328030004
 20
-17.81661834080003
 30
0.0
  0
VERTEX
  5
16D4
  8
3
 10
94.12332891010003
 20
-17.61880120390003
 30
0.0
  0
VERTEX
  5
16D5
  8
3
 10
94.03050000000002
 20
-17.38545998100003
 30
0.0
  0
VERTEX
  5
16D6
  8
3
 10
94.12332891010003
 20
-17.15211875810002
 30
0.0
  0
VERTEX
  5
16D7
  8
3
 10
94.38768328030004
 20
-16.95430162120005
 30
0.0
  0
VERTEX
  5
16D8
  8
3
 10
94.78331755420002
 20
-16.82212443600002
 30
0.0
  0
VERTEX
  5
16D9
  8
3
 10
95.25000000000006
 20
-16.77570998100003
 30
0.0
  0
SEQEND
  5
16DB
  8
3
  0
LINE
  5
D9B
  8
3
 10
96.00000000000006
 20
-17.60196633190003
 30
0.0
 11
95.25000000000006
 21
-17.81847268290005
 31
0.0
  0
LINE
  5
D9C
  8
3
 10
94.50000000000006
 20
-17.60196633190003
 30
0.0
 11
95.25000000000006
 21
-17.81847268290005
 31
0.0
  0
LINE
  5
D9D
  8
3
 10
95.25000000000006
 20
-15.13379393120005
 30
0.0
 11
95.25000000000006
 21
-15.99981933490002
 31
0.0
  0
LINE
  5
D9E
  8
3
 10
96.00000000000006
 20
-17.16895363010002
 30
0.0
 11
95.25000000000006
 21
-16.95244727910003
 31
0.0
  0
LINE
  5
D9F
  8
3
 10
96.00000000000006
 20
-15.35030028210002
 30
0.0
 11
95.25000000000006
 21
-15.13379393120005
 31
0.0
  0
LINE
  5
DA0
  8
3
 10
94.50000000000006
 20
-17.16895363010002
 30
0.0
 11
95.25000000000006
 21
-16.95244727910003
 31
0.0
  0
LINE
  5
DA1
  8
3
 10
94.50000000000006
 20
-15.35030028210002
 30
0.0
 11
95.25000000000006
 21
-15.13379393120005
 31
0.0
  0
LINE
  5
DAC
  8
3
 10
93.63796030490003
 20
19.84755999999996
 30
0.0
 11
93.63796030490003
 21
11.90243999999996
 31
0.0
  0
LINE
  5
DAD
  8
3
 10
92.07500000000002
 20
19.58974999999998
 30
0.0
 11
92.07500000000002
 21
12.16024999999996
 31
0.0
  0
LINE
  5
DAE
  8
3
 10
92.99983951060004
 20
19.83755999999997
 30
0.0
 11
92.99983951060004
 21
11.91243999999998
 31
0.0
  0
LINE
  5
DAF
  8
3
 10
93.63796030490003
 20
-11.90244000000001
 30
0.0
 11
93.63796030490003
 21
-19.84756000000004
 31
0.0
  0
LINE
  5
DB0
  8
3
 10
92.07500000000002
 20
-12.16025000000002
 30
0.0
 11
92.07500000000002
 21
-19.58975000000004
 31
0.0
  0
LINE
  5
DB1
  8
3
 10
92.99983951060004
 20
-11.91244000000003
 30
0.0
 11
92.99983951060004
 21
-19.83756000000002
 31
0.0
  0
LINE
  5
DBC
  8
SK3
 10
-40.09999999999997
 20
-10.84650002400002
 30
0.0
 11
-38.56932080049995
 21
-4.216400000000021
 31
0.0
  0
LINE
  5
DBD
  8
SK3
 10
-38.56932080049995
 20
4.216399999999965
 30
0.0
 11
-40.09999999999997
 21
10.84650002399997
 31
0.0
  0
LINE
  5
DBE
  8
3
 10
101.6000000000001
 20
10.52407116049997
 30
0.0
 11
101.4136296695
 21
9.828527617999953
 31
0.0
  0
LINE
  5
DBF
  8
3
 10
101.4136296695
 20
-9.828527618100026
 30
0.0
 11
101.6000000000001
 21
-10.52407116060004
 31
0.0
  0
ARC
  5
DC0
  8
3
 10
101.8
 20
-9.725000000000023
 30
0.0
 40
0.4000000000000297
 50
166.8750000000017
 51
195.0000000000017
  0
ARC
  5
DC1
  8
3
 10
101.8
 20
-9.725000000000023
 30
0.0
 40
0.4000000000000108
 50
119.9999999999971
 51
166.8750000000062
  0
ARC
  5
DC2
  8
3
 10
101.8
 20
9.724999999999966
 30
0.0
 40
0.4000000000000224
 50
164.9999999999985
 51
180.0
  0
ARC
  5
DC3
  8
3
 10
101.8
 20
9.724999999999966
 30
0.0
 40
0.4000000000000192
 50
180.0
 51
240.0000000000034
  0
LINE
  5
DC4
  8
3
 10
101.4
 20
9.724999999999966
 30
0.0
 11
101.4
 21
-9.725000000000023
 31
0.0
  0
LINE
  5
DC5
  8
3
 10
101.6000000000001
 20
1.249999999999972
 30
0.0
 11
95.25000000000006
 21
1.249999999999972
 31
0.0
  0
LINE
  5
DC6
  8
3
 10
95.25000000000006
 20
-1.250000000000028
 30
0.0
 11
101.6000000000001
 21
-1.250000000000028
 31
0.0
  0
LINE
  5
DC7
  8
3
 10
95.25000000000006
 20
1.249999999999972
 30
0.0
 11
95.10000000000007
 21
1.249999999999972
 31
0.0
  0
LINE
  5
DC8
  8
3
 10
95.10000000000007
 20
-1.250000000000028
 30
0.0
 11
95.25000000000006
 21
-1.250000000000028
 31
0.0
  0
LINE
  5
DD1
  8
3
 10
101.6000000000001
 20
4.762499999999989
 30
0.0
 11
100.05
 21
4.762499999999989
 31
0.0
  0
LINE
  5
DD2
  8
3
 10
100.05
 20
-4.762500000000045
 30
0.0
 11
101.6000000000001
 21
-4.762500000000045
 31
0.0
  0
LINE
  5
DD5
  8
3
 10
100.05
 20
4.216399999999965
 30
0.0
 11
0.0000000000000142
 21
4.216399999999965
 31
0.0
  0
LINE
  5
DD6
  8
3
 10
0.0
 20
-4.216400000000021
 30
0.0
 11
100.05
 21
-4.216400000000021
 31
0.0
  0
LINE
  5
DD7
  8
3
 10
90.40000000000002
 20
19.84249999999997
 30
0.0
 11
88.01608549400004
 21
15.87499999999997
 31
0.0
  0
LINE
  5
DD8
  8
3
 10
88.01608549400004
 20
15.87499999999997
 30
0.0
 11
90.40000000000002
 21
11.90749999999997
 31
0.0
  0
LINE
  5
DD9
  8
3
 10
101.6000000000001
 20
-11.90750000000003
 30
0.0
 11
90.40000000000002
 21
-11.90750000000003
 31
0.0
  0
LINE
  5
DDA
  8
3
 10
90.40000000000002
 20
-19.84250000000003
 30
0.0
 11
101.6000000000001
 21
-19.84250000000003
 31
0.0
  0
LINE
  5
DDB
  8
3
 10
90.40000000000002
 20
-11.90750000000003
 30
0.0
 11
88.01608549400004
 21
-15.87500000000003
 31
0.0
  0
LINE
  5
DDC
  8
3
 10
88.01608549400004
 20
-15.87500000000003
 30
0.0
 11
90.40000000000002
 21
-19.84250000000003
 31
0.0
  0
LINE
  5
DDD
  8
3
 10
101.6000000000001
 20
19.84249999999997
 30
0.0
 11
90.40000000000002
 21
19.84249999999997
 31
0.0
  0
LINE
  5
DDE
  8
3
 10
90.40000000000002
 20
11.90749999999997
 30
0.0
 11
101.6000000000001
 21
11.90749999999997
 31
0.0
  0
LINE
  5
DDF
  8
3
 10
94.00000000000006
 20
17.38545998089998
 30
0.0
 11
94.00000000000006
 21
3.650552617199963
 31
0.0
  0
LINE
  5
DE0
  8
3
 10
96.50000000000006
 20
7.144709581199976
 30
0.0
 11
96.50000000000006
 21
17.38545998089998
 31
0.0
  0
LINE
  5
DE1
  8
3
 10
96.50000000000006
 20
3.650369589999968
 30
0.0
 11
96.50000000000006
 21
4.97964607169996
 31
0.0
  0
LINE
  5
DE2
  8
3
 10
96.50000000000006
 20
-4.979646071800033
 30
0.0
 11
96.50000000000006
 21
-3.650369590000025
 31
0.0
  0
LINE
  5
DE3
  8
3
 10
96.50000000000006
 20
-17.38545998100003
 30
0.0
 11
96.50000000000006
 21
-7.144709581200033
 31
0.0
  0
LINE
  5
DE4
  8
3
 10
94.00000000000006
 20
-3.650552617300036
 30
0.0
 11
94.00000000000006
 21
-17.38545998100003
 31
0.0
  0
LINE
  5
DE5
  8
3
 10
101.6000000000001
 20
7.312177826499976
 30
0.0
 11
96.33253175470001
 21
7.312177826499976
 31
0.0
  0
LINE
  5
DE6
  8
3
 10
96.33253175470001
 20
4.812177826499976
 30
0.0
 11
101.6000000000001
 21
4.812177826499976
 31
0.0
  0
LINE
  5
DE7
  8
3
 10
101.6000000000001
 20
-4.812177826500033
 30
0.0
 11
96.33253175470001
 21
-4.812177826500033
 31
0.0
  0
LINE
  5
DE8
  8
3
 10
96.33253175470001
 20
-7.312177826500033
 30
0.0
 11
101.6000000000001
 21
-7.312177826500033
 31
0.0
  0
LINE
  5
DE9
  8
3
 10
93.62500000000006
 20
18.57490299279996
 30
0.0
 11
93.62500000000006
 21
17.71021950739996
 31
0.0
  0
LINE
  5
DEA
  8
3
 10
96.87500000000006
 20
17.71021950739996
 30
0.0
 11
96.87500000000006
 21
18.57613942499998
 31
0.0
  0
LINE
  5
DEB
  8
3
 10
93.92319305599999
 20
17.24112241369997
 30
0.0
 11
94.2293792738
 21
17.02461606269998
 31
0.0
  0
LINE
  5
DEC
  8
3
 10
96.27062072610003
 20
17.02461606269998
 30
0.0
 11
96.57680694400004
 21
17.24112241369997
 31
0.0
  0
LINE
  5
DED
  8
3
 10
96.87500000000006
 20
-18.57613942510002
 30
0.0
 11
96.87500000000006
 21
-17.71021950740004
 31
0.0
  0
LINE
  5
DEE
  8
3
 10
93.62500000000006
 20
-17.71021950740004
 30
0.0
 11
93.62500000000006
 21
-18.57490299280005
 31
0.0
  0
LINE
  5
DEF
  8
3
 10
96.57680694400004
 20
-17.24112241370003
 30
0.0
 11
96.27062072610003
 21
-17.02461606280002
 31
0.0
  0
LINE
  5
DF0
  8
3
 10
94.2293792738
 20
-17.02461606280002
 30
0.0
 11
93.92319305599999
 21
-17.24112241370003
 31
0.0
  0
LINE
  5
DF1
  8
3
 10
94.0252551286
 20
13.05533296199997
 30
0.0
 11
94.43350341900002
 21
12.76665782739997
 31
0.0
  0
LINE
  5
DF2
  8
3
 10
96.06649658090004
 20
12.76665782739997
 30
0.0
 11
96.47474487140003
 21
13.05533296199997
 31
0.0
  0
LINE
  5
DF3
  8
3
 10
93.75000000000006
 20
17.24520998089997
 30
0.0
 11
93.75000000000006
 21
13.48834566389996
 31
0.0
  0
LINE
  5
DF4
  8
3
 10
96.75000000000006
 20
13.48834566389996
 30
0.0
 11
96.75000000000006
 21
17.24520998089997
 31
0.0
  0
LINE
  5
DF5
  8
3
 10
96.47474487140003
 20
-13.05533296210001
 30
0.0
 11
96.06649658090004
 21
-12.76665782750001
 31
0.0
  0
LINE
  5
DF6
  8
3
 10
94.43350341900002
 20
-12.76665782750001
 30
0.0
 11
94.0252551286
 21
-13.05533296210001
 31
0.0
  0
LINE
  5
DF7
  8
3
 10
96.75000000000006
 20
-17.24520998100002
 30
0.0
 11
96.75000000000006
 21
-13.48834566400004
 31
0.0
  0
LINE
  5
DF8
  8
3
 10
93.75000000000006
 20
-13.48834566400004
 30
0.0
 11
93.75000000000006
 21
-17.24520998100002
 31
0.0
  0
LINE
  5
E01
  8
3
 10
101.6000000000001
 20
19.84755999999996
 30
0.0
 11
93.63796030490003
 21
19.84755999999996
 31
0.0
  0
LINE
  5
E02
  8
3
 10
93.63796030490003
 20
11.90243999999996
 30
0.0
 11
101.6000000000001
 21
11.90243999999996
 31
0.0
  0
ARC
  5
E03
  8
3
 10
93.57500000000002
 20
20.04075999999998
 30
0.0
 40
0.2032000000000096
 50
270.0
 51
288.0498306933081
  0
ARC
  5
E04
  8
3
 10
93.57500000000002
 20
11.70923999999997
 30
0.0
 40
0.2032000000000076
 50
71.95016930669185
 51
90.0
  0
LINE
  5
E05
  8
3
 10
92.99983951060004
 20
19.83755999999997
 30
0.0
 11
92.07500000000002
 21
19.58974999999998
 31
0.0
  0
LINE
  5
E06
  8
3
 10
92.07500000000002
 20
12.16024999999996
 30
0.0
 11
92.99983951060004
 21
11.91243999999998
 31
0.0
  0
LINE
  5
E07
  8
3
 10
93.57500000000002
 20
19.83755999999997
 30
0.0
 11
92.99983951060004
 21
19.83755999999997
 31
0.0
  0
LINE
  5
E08
  8
3
 10
92.99983951060004
 20
11.91243999999998
 30
0.0
 11
93.57500000000002
 21
11.91243999999998
 31
0.0
  0
LINE
  5
E09
  8
3
 10
101.6000000000001
 20
-11.90244000000001
 30
0.0
 11
93.63796030490003
 21
-11.90244000000001
 31
0.0
  0
LINE
  5
E0A
  8
3
 10
93.63796030490003
 20
-19.84756000000004
 30
0.0
 11
101.6000000000001
 21
-19.84756000000004
 31
0.0
  0
ARC
  5
E0B
  8
3
 10
93.57500000000002
 20
-11.70924000000002
 30
0.0
 40
0.2031999999999954
 50
270.0
 51
288.0498306933094
  0
ARC
  5
E0C
  8
3
 10
93.57500000000002
 20
-20.04076000000003
 30
0.0
 40
0.2032000000000096
 50
71.95016930669185
 51
90.0
  0
LINE
  5
E0D
  8
3
 10
92.99983951060004
 20
-11.91244000000003
 30
0.0
 11
92.07500000000002
 21
-12.16025000000002
 31
0.0
  0
LINE
  5
E0E
  8
3
 10
92.07500000000002
 20
-19.58975000000004
 30
0.0
 11
92.99983951060004
 21
-19.83756000000002
 31
0.0
  0
LINE
  5
E0F
  8
3
 10
93.57500000000002
 20
-11.91244000000003
 30
0.0
 11
92.99983951060004
 21
-11.91244000000003
 31
0.0
  0
LINE
  5
E10
  8
3
 10
92.99983951060004
 20
-19.83756000000002
 30
0.0
 11
93.57500000000002
 21
-19.83756000000002
 31
0.0
  0
ARC
  5
E29
  8
SK1
 10
101.8
 20
-9.725000000000023
 30
0.0
 40
0.3999999999999946
 50
74.99999999999689
 51
119.9999999999893
  0
ARC
  5
E2A
  8
SK1
 10
101.8
 20
9.725000000000023
 30
0.0
 40
0.4000000000000192
 50
240.0000000000034
 51
285.0000000000002
  0
ARC
  5
E2B
  8
SK1
 10
117.6000000000001
 20
-8.024999999999977
 30
0.0
 40
1.5
 50
270.0
 51
0.0
  0
ARC
  5
E2C
  8
SK1
 10
117.6000000000001
 20
8.024999999999977
 30
0.0
 40
1.5
 50
0.0
 51
90.0
  0
LINE
  5
E2D
  8
SK1
 10
102.5990711605
 20
-9.524999999999977
 30
0.0
 11
117.6000000000001
 21
-9.524999999999977
 31
0.0
  0
LINE
  5
E2E
  8
SK1
 10
117.6000000000001
 20
9.524999999999977
 30
0.0
 11
102.5990711605
 21
9.524999999999977
 31
0.0
  0
LINE
  5
E2F
  8
SK1
 10
102.5990711605
 20
9.524999999999977
 30
0.0
 11
101.903527618
 21
9.338629669499994
 31
0.0
  0
LINE
  5
E30
  8
SK1
 10
101.903527618
 20
-9.338629669499994
 30
0.0
 11
102.5990711605
 21
-9.524999999999977
 31
0.0
  0
LINE
  5
E31
  8
SK1
 10
128.863
 20
11.04899999999998
 30
0.0
 11
120.862
 21
11.04899999999998
 31
0.0
  0
LINE
  5
E32
  8
SK1
 10
120.862
 20
-11.04899999999998
 30
0.0
 11
128.863
 21
-11.04899999999998
 31
0.0
  0
LINE
  5
E33
  8
SK1
 10
120.862
 20
11.04899999999998
 30
0.0
 11
120.1000000000001
 21
10.28699999999998
 31
0.0
  0
LINE
  5
E34
  8
SK1
 10
120.1000000000001
 20
-10.28700000000003
 30
0.0
 11
120.862
 21
-11.04899999999998
 31
0.0
  0
LINE
  5
E35
  8
SK1
 10
128.863
 20
-11.04899999999998
 30
0.0
 11
129.6250000000001
 21
-10.28700000000003
 31
0.0
  0
LINE
  5
E36
  8
SK1
 10
129.6250000000001
 20
10.28699999999998
 30
0.0
 11
128.863
 21
11.04899999999998
 31
0.0
  0
ARC
  5
E37
  8
SK1
 10
119.592
 20
-5.27049999999997
 30
0.0
 40
0.5080000000000098
 50
0.0
 51
90.0
  0
ARC
  5
E38
  8
SK1
 10
119.592
 20
5.27049999999997
 30
0.0
 40
0.5080000000000098
 50
270.0
 51
0.0
  0
LINE
  5
E39
  8
SK1
 10
119.592
 20
4.762499999999989
 30
0.0
 11
119.1000000000001
 21
4.762499999999989
 31
0.0
  0
LINE
  5
E3A
  8
SK1
 10
119.1000000000001
 20
-4.762499999999989
 30
0.0
 11
119.592
 21
-4.762499999999989
 31
0.0
  0
LINE
  5
E3C
  8
SK1
 10
101.6000000000001
 20
11.90244000000001
 30
0.0
 11
101.6280313494
 21
11.90244000000001
 31
0.0
  0
LINE
  5
E3D
  8
SK1
 10
101.6280313494
 20
-11.90244000000001
 30
0.0
 11
101.6000000000001
 21
-11.90244000000001
 31
0.0
  0
ARC
  5
E66
  8
SK1
 10
143.6713698892
 20
0.0
 30
0.0
 40
24.58328109801656
 50
178.2163355291
 51
181.7836644709
  0
LINE
  5
E67
  8
SK1
 10
119.1000000000001
 20
-8.024999999999977
 30
0.0
 11
119.1000000000001
 21
-0.7651740380999854
 31
0.0
  0
LINE
  5
E68
  8
SK1
 10
119.1000000000001
 20
0.7651740380999854
 30
0.0
 11
119.1000000000001
 21
8.024999999999977
 31
0.0
  0
LINE
  5
E69
  8
SK1
 10
102.5990711605
 20
0.0
 30
0.0
 11
102.5990711605
 21
9.524999999999977
 31
0.0
  0
LINE
  5
E6A
  8
SK1
 10
102.5990711605
 20
-9.524999999999977
 30
0.0
 11
102.5990711605
 21
0.0
 31
0.0
  0
LINE
  5
E72
  8
SK1
 10
128.863
 20
11.04899999999998
 30
0.0
 11
128.863
 21
-11.04899999999998
 31
0.0
  0
LINE
  5
E73
  8
SK1
 10
120.862
 20
11.04899999999998
 30
0.0
 11
120.862
 21
-11.04899999999998
 31
0.0
  0
LINE
  5
E74
  8
SK1
 10
120.1000000000001
 20
10.28699999999998
 30
0.0
 11
120.1000000000001
 21
-10.28700000000003
 31
0.0
  0
LINE
  5
E75
  8
SK1
 10
129.6250000000001
 20
10.28699999999998
 30
0.0
 11
129.6250000000001
 21
-10.28700000000003
 31
0.0
  0
LINE
  5
E76
  8
SK1
 10
105.5624000000001
 20
19.84375
 30
0.0
 11
101.6000000000001
 21
19.84375
 31
0.0
  0
LINE
  5
E77
  8
SK1
 10
105.5624000000001
 20
19.84375
 30
0.0
 11
105.5624000000001
 21
11.90625
 31
0.0
  0
LINE
  5
E78
  8
SK1
 10
105.5624000000001
 20
11.90625
 30
0.0
 11
101.6000000000001
 21
11.90625
 31
0.0
  0
LINE
  5
E79
  8
SK1
 10
105.5624000000001
 20
-11.90625
 30
0.0
 11
101.6000000000001
 21
-11.90625
 31
0.0
  0
LINE
  5
E7A
  8
SK1
 10
105.5624000000001
 20
-11.90625
 30
0.0
 11
105.5624000000001
 21
-19.84375
 31
0.0
  0
LINE
  5
E7B
  8
SK1
 10
105.5624000000001
 20
-19.84375
 30
0.0
 11
101.6000000000001
 21
-19.84375
 31
0.0
  0
LINE
  5
E96
  8
SK3
 10
118.2339745113
 20
-5.0
 30
0.0
 11
118.2339745113
 21
5.0
 31
0.0
  0
LINE
  5
E97
  8
SK3
 10
116.1000000000001
 20
5.0
 30
0.0
 11
116.1000000000001
 21
-5.0
 31
0.0
  0
LINE
  5
EDD
  8
SK3
 10
104.85492
 20
4.762499999999989
 30
0.0
 11
104.85492
 21
-4.762499999999989
 31
0.0
  0
LINE
  5
EDE
  8
SK3
 10
104.2250000000001
 20
4.132580000000019
 30
0.0
 11
104.2250000000001
 21
-4.132580000000019
 31
0.0
  0
LINE
  5
EDF
  8
SK3
 10
124.799
 20
0.0
 30
0.0
 11
124.799
 21
-1.619250000000022
 31
0.0
  0
LINE
  5
EE0
  8
SK3
 10
124.799
 20
1.619249999999965
 30
0.0
 11
124.799
 21
0.0
 31
0.0
  0
LINE
  5
EE1
  8
SK3
 10
124.799
 20
0.0
 30
0.0
 11
129.6250000000001
 21
0.0
 31
0.0
  0
LINE
  5
EE2
  8
SK3
 10
124.545
 20
3.238499999999988
 30
0.0
 11
124.545
 21
-3.238499999999988
 31
0.0
  0
LINE
  5
EE3
  8
SK3
 10
124.799
 20
-1.619250000000022
 30
0.0
 11
124.799
 21
-3.238499999999988
 31
0.0
  0
LINE
  5
EE4
  8
SK3
 10
124.799
 20
3.238499999999988
 30
0.0
 11
124.799
 21
1.619249999999965
 31
0.0
  0
LINE
  5
EE5
  8
SK3
 10
124.799
 20
-3.238499999999988
 30
0.0
 11
129.6250000000001
 21
-3.238499999999988
 31
0.0
  0
LINE
  5
EE6
  8
SK3
 10
124.799
 20
3.238499999999988
 30
0.0
 11
129.6250000000001
 21
3.238499999999988
 31
0.0
  0
LINE
  5
F00
  8
SK3
 10
119.1000000000001
 20
1.25
 30
0.0
 11
101.6000000000001
 21
1.25
 31
0.0
  0
LINE
  5
F01
  8
SK3
 10
101.6000000000001
 20
-1.25
 30
0.0
 11
119.1000000000001
 21
-1.25
 31
0.0
  0
LINE
  5
F08
  8
SK3
 10
119.1000000000001
 20
5.500000048999993
 30
0.0
 11
118.2339745113
 21
5.0
 31
0.0
  0
LINE
  5
F09
  8
SK3
 10
118.2339745113
 20
-5.0
 30
0.0
 11
119.1000000000001
 21
-5.500000048999993
 31
0.0
  0
LINE
  5
F0A
  8
SK3
 10
118.2339745113
 20
5.0
 30
0.0
 11
116.1000000000001
 21
5.0
 31
0.0
  0
LINE
  5
F0B
  8
SK3
 10
116.1000000000001
 20
-5.0
 30
0.0
 11
118.2339745113
 21
-5.0
 31
0.0
  0
LINE
  5
F0C
  8
SK3
 10
116.1000000000001
 20
4.762499999999989
 30
0.0
 11
101.6000000000001
 21
4.762499999999989
 31
0.0
  0
LINE
  5
F0D
  8
SK3
 10
101.6000000000001
 20
-4.762499999999989
 30
0.0
 11
116.1000000000001
 21
-4.762499999999989
 31
0.0
  0
LINE
  5
F20
  8
SK3
 10
119.1705915006
 20
7.312177826499976
 30
0.0
 11
101.6000000000001
 21
7.312177826499976
 31
0.0
  0
LINE
  5
F21
  8
SK3
 10
101.6000000000001
 20
4.812177826499976
 30
0.0
 11
119.1000000000001
 21
4.812177826499976
 31
0.0
  0
LINE
  5
F22
  8
SK3
 10
119.1000000000001
 20
-4.812177826500033
 30
0.0
 11
101.6000000000001
 21
-4.812177826500033
 31
0.0
  0
LINE
  5
F23
  8
SK3
 10
101.6000000000001
 20
-7.312177826500033
 30
0.0
 11
119.1705915006
 21
-7.312177826500033
 31
0.0
  0
LINE
  5
F34
  8
SK3
 10
119.1000000000001
 20
4.762499999999989
 30
0.0
 11
104.85492
 21
4.762499999999989
 31
0.0
  0
LINE
  5
F35
  8
SK3
 10
104.85492
 20
-4.762499999999989
 30
0.0
 11
119.1000000000001
 21
-4.762499999999989
 31
0.0
  0
LINE
  5
F36
  8
SK3
 10
104.85492
 20
4.762499999999989
 30
0.0
 11
104.2250000000001
 21
4.132580000000019
 31
0.0
  0
LINE
  5
F37
  8
SK3
 10
104.2250000000001
 20
-4.132580000000019
 30
0.0
 11
104.85492
 21
-4.762499999999989
 31
0.0
  0
LINE
  5
F38
  8
SK3
 10
124.545
 20
3.238499999999988
 30
0.0
 11
122.5991128853
 21
0.0
 31
0.0
  0
LINE
  5
F39
  8
SK3
 10
122.5991128853
 20
0.0
 30
0.0
 11
124.545
 21
-3.238499999999988
 31
0.0
  0
LINE
  5
F3A
  8
SK3
 10
124.799
 20
3.238499999999988
 30
0.0
 11
124.545
 21
3.238499999999988
 31
0.0
  0
LINE
  5
F3B
  8
SK3
 10
124.545
 20
-3.238499999999988
 30
0.0
 11
124.799
 21
-3.238499999999988
 31
0.0
  0
LINE
  5
F51
  8
SK3
 10
-38.56932080049995
 20
4.216399999999965
 30
0.0
 11
-0.0000000000000071
 21
4.216399999999965
 31
0.0
  0
LINE
  5
F52
  8
SK3
 10
-38.56932080049995
 20
-4.216400000000021
 30
0.0
 11
0.0
 21
-4.216400000000021
 31
0.0
  0
LINE
  5
F56
  8
NOCUT
 10
100.6000000000001
 20
21.44999999999997
 30
0.0
 11
37.05000000000007
 21
21.44999999999993
 31
0.0
  0
ARC
  5
F58
  8
NOCUT
 10
37.05000000000007
 20
23.44999999999997
 30
0.0
 40
2.000000000000028
 50
180.0
 51
270.0
  0
LINE
  5
F59
  8
NOCUT
 10
101.6280313494
 20
19.84755999999997
 30
0.0
 11
101.6000000000001
 21
19.84755999999997
 31
0.0
  0
ARC
  5
F5A
  8
NOCUT
 10
100.6000000000001
 20
20.44999999999997
 30
0.0
 40
1.0
 50
0.0
 51
90.0
  0
LINE
  5
F5B
  8
NOCUT
 10
101.6000000000001
 20
-0.0000000000000284
 30
0.0
 11
101.6000000000001
 21
20.44999999999997
 31
0.0
  0
LINE
  5
F5F
  8
NOCUT
 10
35.05
 20
34.42499999999999
 30
0.0
 11
35.05000000000004
 21
23.44999999999996
 31
0.0
  0
LINE
  5
F70
  8
SK4
 10
101.6000000000001
 20
-0.0000000000000284
 30
0.0
 11
129.6250000000001
 21
-0.0000000000000284
 31
0.0
  0
DIMENSION
  5
F72
  8
SK2
  2
*D6
 10
141.8103360001523
 20
-9.524999999999979
 30
0.0
 11
139.9353360001523
 21
-0.0000000000000018
 31
0.0
 70
    32
  3
ISO-25
 13
117.6000000000001
 23
9.524999999999977
 33
0.0
 14
117.6000000000001
 24
-9.524999999999977
 34
0.0
 50
90.0
1001
ACAD
1000
DSTYLE
1002
{
1070
   287
1070
     5
1070
   271
1070
     3
1070
   272
1070
     3
1070
   279
1070
     2
1002
}
  0
DIMENSION
  5
F81
  8
SK2
  2
*D7
 10
156.6546758547149
 20
-21.45000000000005
 30
0.0
 11
154.7796758547149
 21
-0.0000000000000462
 31
0.0
 70
    32
  3
ISO-25
 13
100.6000000000001
 23
21.44999999999996
 33
0.0
 14
100.6000000000001
 24
-21.45000000000005
 34
0.0
 50
90.0
1001
ACAD
1000
DSTYLE
1002
{
1070
   287
1070
     5
1070
   271
1070
     3
1070
   272
1070
     3
1070
   279
1070
     2
1002
}
  0
ENDSEC
  0
EOF
