  0
SECTION
  2
HEADER
  9
$ACADVER
  1
AC1009
  9
$DWGCODEPAGE
  3
ansi_1251
  9
$INSBASE
 10
0.0
 20
0.0
 30
0.0
  9
$EXTMIN
 10
-68.25000000000001
 20
-30.5409271246
 30
0.0
  9
$EXTMAX
 10
88.90000000000003
 20
30.50275418977125
 30
0.0
  9
$LIMMIN
 10
0.0
 20
0.0
  9
$LIMMAX
 10
420.0
 20
297.0
  9
$ORTHOMODE
 70
     1
  9
$REGENMODE
 70
     1
  9
$FILLMODE
 70
     1
  9
$QTEXTMODE
 70
     0
  9
$MIRRTEXT
 70
     0
  9
$DRAGMODE
 70
     2
  9
$LTSCALE
 40
1.0
  9
$OSMODE
 70
   279
  9
$ATTMODE
 70
     1
  9
$TEXTSIZE
 40
2.5
  9
$TRACEWID
 40
1.0
  9
$TEXTSTYLE
  7
STANDARD
  9
$CLAYER
  8
0
  9
$CELTYPE
  6
BYLAYER
  9
$CECOLOR
 62
   256
  9
$DIMSCALE
 40
1.0
  9
$DIMASZ
 40
2.5
  9
$DIMEXO
 40
0.625
  9
$DIMDLI
 40
3.75
  9
$DIMRND
 40
0.0
  9
$DIMDLE
 40
0.0
  9
$DIMEXE
 40
1.25
  9
$DIMTP
 40
0.0
  9
$DIMTM
 40
0.0
  9
$DIMTXT
 40
2.5
  9
$DIMCEN
 40
2.5
  9
$DIMTSZ
 40
0.0
  9
$DIMTOL
 70
     0
  9
$DIMLIM
 70
     0
  9
$DIMTIH
 70
     0
  9
$DIMTOH
 70
     0
  9
$DIMSE1
 70
     0
  9
$DIMSE2
 70
     0
  9
$DIMTAD
 70
     1
  9
$DIMZIN
 70
     8
  9
$DIMBLK
  1

  9
$DIMASO
 70
     1
  9
$DIMSHO
 70
     1
  9
$DIMPOST
  1

  9
$DIMAPOST
  1

  9
$DIMALT
 70
     0
  9
$DIMALTD
 70
     3
  9
$DIMALTF
 40
0.03937007874016
  9
$DIMLFAC
 40
1.0
  9
$DIMTOFL
 70
     1
  9
$DIMTVP
 40
0.0
  9
$DIMTIX
 70
     0
  9
$DIMSOXD
 70
     0
  9
$DIMSAH
 70
     0
  9
$DIMBLK1
  1

  9
$DIMBLK2
  1

  9
$DIMSTYLE
  2
ISO-25
  9
$DIMCLRD
 70
     0
  9
$DIMCLRE
 70
     0
  9
$DIMCLRT
 70
     0
  9
$DIMTFAC
 40
1.0
  9
$DIMGAP
 40
0.625
  9
$LUNITS
 70
     2
  9
$LUPREC
 70
     3
  9
$SKETCHINC
 40
1.0
  9
$FILLETRAD
 40
2.0
  9
$AUNITS
 70
     0
  9
$AUPREC
 70
     0
  9
$MENU
  1
.
  9
$ELEVATION
 40
0.0
  9
$PELEVATION
 40
0.0
  9
$THICKNESS
 40
0.0
  9
$LIMCHECK
 70
     0
  9
$CHAMFERA
 40
10.0
  9
$CHAMFERB
 40
10.0
  9
$SKPOLY
 70
     0
  9
$TDCREATE
 40
2455022.429026158
  9
$TDUPDATE
 40
2458659.538982558
  9
$TDINDWG
 40
0.1506771181
  9
$TDUSRTIMER
 40
2458702.804091065
  9
$USRTIMER
 70
     1
  9
$ANGBASE
 50
0.0
  9
$ANGDIR
 70
     0
  9
$PDMODE
 70
     0
  9
$PDSIZE
 40
0.0
  9
$PLINEWID
 40
0.0
  9
$COORDS
 70
     1
  9
$SPLFRAME
 70
     0
  9
$SPLINETYPE
 70
     6
  9
$SPLINESEGS
 70
     8
  9
$ATTDIA
 70
     0
  9
$ATTREQ
 70
     1
  9
$HANDLING
 70
     1
  9
$HANDSEED
  5
1B98
  9
$SURFTAB1
 70
     6
  9
$SURFTAB2
 70
     6
  9
$SURFTYPE
 70
     6
  9
$SURFU
 70
     6
  9
$SURFV
 70
     6
  9
$UCSNAME
  2

  9
$UCSORG
 10
0.0
 20
0.0
 30
0.0
  9
$UCSXDIR
 10
1.0
 20
0.0
 30
0.0
  9
$UCSYDIR
 10
0.0
 20
1.0
 30
0.0
  9
$PUCSNAME
  2

  9
$PUCSORG
 10
0.0
 20
0.0
 30
0.0
  9
$PUCSXDIR
 10
1.0
 20
0.0
 30
0.0
  9
$PUCSYDIR
 10
0.0
 20
1.0
 30
0.0
  9
$USERI1
 70
     0
  9
$USERI2
 70
     0
  9
$USERI3
 70
     0
  9
$USERI4
 70
     0
  9
$USERI5
 70
     0
  9
$USERR1
 40
0.0
  9
$USERR2
 40
0.0
  9
$USERR3
 40
0.0
  9
$USERR4
 40
0.0
  9
$USERR5
 40
0.0
  9
$WORLDVIEW
 70
     1
  9
$SHADEDGE
 70
     3
  9
$SHADEDIF
 70
    70
  9
$TILEMODE
 70
     1
  9
$MAXACTVP
 70
    64
  9
$PLIMCHECK
 70
     0
  9
$PEXTMIN
 10
1.000000000000000E+20
 20
1.000000000000000E+20
 30
1.000000000000000E+20
  9
$PEXTMAX
 10
-1.000000000000000E+20
 20
-1.000000000000000E+20
 30
-1.000000000000000E+20
  9
$PLIMMIN
 10
0.0
 20
0.0
  9
$PLIMMAX
 10
420.0
 20
297.0
  9
$UNITMODE
 70
     0
  9
$VISRETAIN
 70
     1
  9
$PLINEGEN
 70
     0
  9
$PSLTSCALE
 70
     1
  0
ENDSEC
  0
SECTION
  2
TABLES
  0
TABLE
  2
VPORT
 70
     1
  0
VPORT
  2
*ACTIVE
 70
     0
 10
0.0
 20
0.0
 11
1.0
 21
1.0
 12
22.46226693392572
 22
1.574302454377118
 13
0.0
 23
0.0
 14
10.0
 24
10.0
 15
10.0
 25
10.0
 16
0.0
 26
0.0
 36
1.0
 17
0.0
 27
0.0
 37
0.0
 40
189.8797656118995
 41
1.332880434782609
 42
50.0
 43
0.0
 44
0.0
 50
0.0
 51
0.0
 71
    16
 72
  1000
 73
     1
 74
     3
 75
     0
 76
     0
 77
     0
 78
     0
  0
ENDTAB
  0
TABLE
  2
LTYPE
 70
     6
  0
LTYPE
  2
CONTINUOUS
 70
     0
  3
Solid line
 72
    65
 73
     0
 40
0.0
  0
LTYPE
  2
CENTER
 70
     0
  3
 Center _____  _  _____  _  _____  _  _____  _ 
 72
    65
 73
     4
 40
50.8
 49
31.75
 49
-6.35
 49
6.35
 49
-6.35
  0
LTYPE
  2
DASHED
 70
     0
  3
Dashed __  __  __  __  __  __  __  __  __  __  
 72
    65
 73
     2
 40
19.05
 49
12.7
 49
-6.35
  0
LTYPE
  2
HIDDEN
 70
     0
  3
Hidden __ __ __ __ __ __ __ __ __ __ __ __ __ __
 72
    65
 73
     2
 40
1.905
 49
1.27
 49
-0.635
  0
LTYPE
  2
CENTERX2
 70
     0
  3
Center (2x) ________  __  ________  __  _____
 72
    65
 73
     4
 40
20.32
 49
12.7
 49
-2.54
 49
2.54
 49
-2.54
  0
LTYPE
  2
PHANTOM
 70
     0
  3
Phantom ______  __  __  ______  __  __  ______
 72
    65
 73
     6
 40
12.7
 49
6.35
 49
-1.27
 49
1.27
 49
-1.27
 49
1.27
 49
-1.27
  0
ENDTAB
  0
TABLE
  2
LAYER
 70
    26
  0
LAYER
  2
0
 70
     0
 62
     7
  6
CONTINUOUS
  0
LAYER
  2
1
 70
     0
 62
     4
  6
CONTINUOUS
  0
LAYER
  2
2
 70
     0
 62
     7
  6
CONTINUOUS
  0
LAYER
  2
3
 70
     0
 62
     1
  6
DASHED
  0
LAYER
  2
4
 70
     0
 62
     2
  6
CENTER
  0
LAYER
  2
6
 70
     0
 62
     5
  6
CONTINUOUS
  0
LAYER
  2
7
 70
     0
 62
     5
  6
CONTINUOUS
  0
LAYER
  2
11
 70
     0
 62
     4
  6
CONTINUOUS
  0
LAYER
  2
SK1
 70
     0
 62
     4
  6
CONTINUOUS
  0
LAYER
  2
SK2
 70
     0
 62
     7
  6
CONTINUOUS
  0
LAYER
  2
SK3
 70
     0
 62
     1
  6
DASHED
  0
LAYER
  2
SK4
 70
     0
 62
     2
  6
CENTER
  0
LAYER
  2
SK6
 70
     0
 62
     5
  6
CONTINUOUS
  0
LAYER
  2
SK7
 70
     0
 62
     5
  6
CONTINUOUS
  0
LAYER
  2
SK11
 70
     0
 62
     4
  6
CONTINUOUS
  0
LAYER
  2
CUT
 70
     0
 62
     1
  6
CONTINUOUS
  0
LAYER
  2
NOCUT
 70
     0
 62
    -7
  6
CONTINUOUS
  0
LAYER
  2
SKVIEW1
 70
     0
 62
     4
  6
CONTINUOUS
  0
LAYER
  2
SKVIEW2
 70
     0
 62
     7
  6
CONTINUOUS
  0
LAYER
  2
SKVIEW3
 70
     0
 62
     1
  6
DASHED
  0
LAYER
  2
SKVIEW4
 70
     0
 62
     2
  6
CENTER
  0
LAYER
  2
SKVIEW6
 70
     0
 62
     5
  6
CONTINUOUS
  0
LAYER
  2
SKVIEW7
 70
     0
 62
     5
  6
CONTINUOUS
  0
LAYER
  2
SKVIEW11
 70
     0
 62
     4
  6
CONTINUOUS
  0
LAYER
  2
INFTOTAL
 70
     0
 62
     9
  6
CONTINUOUS
  0
LAYER
  2
DEFPOINTS
 70
     0
 62
     7
  6
CONTINUOUS
  0
ENDTAB
  0
TABLE
  2
STYLE
 70
     1
  0
STYLE
  2
STANDARD
 70
     0
 40
0.0
 41
1.0
 50
0.0
 71
     0
 42
2.5
  3
txt
  4

  0
ENDTAB
  0
TABLE
  2
VIEW
 70
     0
  0
ENDTAB
  0
TABLE
  2
UCS
 70
     0
  0
ENDTAB
  0
TABLE
  2
APPID
 70
     2
  0
APPID
  2
ACAD
 70
     0
  0
APPID
  2
ACAECLAYERSTANDARD
 70
     0
  0
ENDTAB
  0
TABLE
  2
DIMSTYLE
 70
     1
  0
DIMSTYLE
  2
ISO-25
 70
     0
  3

  4

  5

  6

  7

 40
1.0
 41
2.5
 42
0.625
 43
3.75
 44
1.25
 45
0.0
 46
0.0
 47
0.0
 48
0.0
140
2.5
141
2.5
142
0.0
143
0.03937007874016
144
1.0
145
0.0
146
1.0
147
0.625
 71
     0
 72
     0
 73
     0
 74
     0
 75
     0
 76
     0
 77
     1
 78
     8
170
     0
171
     3
172
     1
173
     0
174
     0
175
     0
176
     0
177
     0
178
     0
  0
ENDTAB
  0
ENDSEC
  0
SECTION
  2
BLOCKS
  0
BLOCK
  8
0
  2
$MODEL_SPACE
 70
     0
 10
0.0
 20
0.0
 30
0.0
  3
$MODEL_SPACE
  1

  0
ENDBLK
  5
21
  8
0
  0
BLOCK
 67
     1
  8
0
  2
$PAPER_SPACE
 70
     0
 10
0.0
 20
0.0
 30
0.0
  3
$PAPER_SPACE
  1

  0
ENDBLK
  5
1D
 67
     1
  8
0
  0
BLOCK
  8
0
  2
*U0
 70
     1
 10
0.0
 20
0.0
 30
0.0
  3
*U0
  1

  0
TEXT
  5
77E
  8
SK6
 10
-50.0
 20
78.25
 30
0.0
 40
3.5
  1
BIG KAISER
 41
0.85
  0
TEXT
  5
781
  8
SK6
 10
-50.0
 20
73.0
 30
0.0
 40
3.5
  1
BCV50-SMC2.500-2.5
 41
0.85
  0
ENDBLK
  5
782
  8
0
  0
BLOCK
  8
0
  2
_FILLED
 70
     0
 10
0.0
 20
0.0
 30
0.0
  3
_FILLED
  1

  0
SOLID
  5
789
  8
0
  6
BYBLOCK
 62
     0
 10
0.0
 20
0.0
 30
0.0
 11
-1.0
 21
0.2142857143
 31
0.0
 12
-1.0
 22
-0.2142857143
 32
0.0
 13
-1.0
 23
-0.2142857143
 33
0.0
  0
ENDBLK
  5
78A
  8
0
  6
BYBLOCK
 62
     0
  0
BLOCK
  8
0
  2
*U2
 70
     1
 10
0.0
 20
0.0
 30
0.0
  3
*U2
  1

  0
TEXT
  5
790
  8
SK6
 10
-85.96178542556666
 20
-67.06748653279999
 30
0.0
 40
3.5
  1
BCV50
 41
0.85
  0
ENDBLK
  5
791
  8
0
  0
BLOCK
  8
0
  2
*D5
 70
     1
 10
0.0
 20
0.0
 30
0.0
  3
*D5
  1

  0
LINE
  5
808
  8
SK2
 62
     0
 10
0.0
 20
35.54999999999998
 30
0.0
 11
0.0
 21
70.90141243520497
 31
0.0
  0
LINE
  5
809
  8
SK2
 62
     0
 10
63.5
 20
61.52500000000009
 30
0.0
 11
63.5
 21
70.90141243520497
 31
0.0
  0
LINE
  5
80A
  8
SK2
 62
     0
 10
2.5
 20
69.65141243520497
 30
0.0
 11
61.0
 21
69.65141243520497
 31
0.0
  0
SOLID
  5
80B
  8
SK2
 62
     0
 10
2.5
 20
70.06807910187165
 30
0.0
 11
2.5
 21
69.2347457685383
 31
0.0
 12
0.0
 22
69.65141243520497
 32
0.0
 13
0.0
 23
69.65141243520497
 33
0.0
  0
SOLID
  5
80C
  8
SK2
 62
     0
 10
61.0
 20
69.2347457685383
 30
0.0
 11
61.0
 21
70.06807910187165
 31
0.0
 12
63.5
 22
69.65141243520497
 32
0.0
 13
63.5
 23
69.65141243520497
 33
0.0
  0
TEXT
  5
80D
  8
SK2
  6
CONTINUOUS
 62
     0
 10
28.0
 20
70.27641243520497
 30
0.0
 40
2.5
  1
63.5
  0
POINT
  5
80E
  8
DEFPOINTS
 62
     0
 10
0.0
 20
34.92499999999998
 30
0.0
  0
POINT
  5
80F
  8
DEFPOINTS
 62
     0
 10
63.5
 20
60.90000000000009
 30
0.0
  0
POINT
  5
810
  8
DEFPOINTS
 62
     0
 10
63.5
 20
69.65141243520497
 30
0.0
  0
ENDBLK
  5
812
  8
0
  0
BLOCK
  8
0
  2
*D6
 70
     1
 10
0.0
 20
0.0
 30
0.0
  3
*D6
  1

  0
LINE
  5
10FB
  8
SK2
 62
     0
 10
63.125
 20
61.90000000000009
 30
0.0
 11
146.5245338678514
 21
61.90000000000008
 31
0.0
  0
LINE
  5
10FC
  8
SK2
 62
     0
 10
63.125
 20
-61.90000000000009
 30
0.0
 11
146.5245338678514
 21
-61.9000000000001
 31
0.0
  0
LINE
  5
10FD
  8
SK2
 62
     0
 10
145.2745338678514
 20
59.40000000000008
 30
0.0
 11
145.2745338678514
 21
-59.4000000000001
 31
0.0
  0
SOLID
  5
10FE
  8
SK2
 62
     0
 10
145.6912005345181
 20
59.40000000000008
 30
0.0
 11
144.8578672011848
 21
59.40000000000008
 31
0.0
 12
145.2745338678514
 22
61.90000000000008
 32
0.0
 13
145.2745338678514
 23
61.90000000000008
 33
0.0
  0
SOLID
  5
10FF
  8
SK2
 62
     0
 10
144.8578672011848
 20
-59.4000000000001
 30
0.0
 11
145.6912005345181
 21
-59.4000000000001
 31
0.0
 12
145.2745338678514
 22
-61.9000000000001
 32
0.0
 13
145.2745338678514
 23
-61.9000000000001
 33
0.0
  0
TEXT
  5
1100
  8
SK2
  6
CONTINUOUS
 62
     0
 10
144.6495338678514
 20
-4.583333333333343
 30
0.0
 40
2.5
  1
123.8
 50
90.0
  0
POINT
  5
1101
  8
DEFPOINTS
 62
     0
 10
62.5
 20
61.90000000000009
 30
0.0
  0
POINT
  5
1102
  8
DEFPOINTS
 62
     0
 10
62.5
 20
-61.90000000000009
 30
0.0
  0
POINT
  5
1103
  8
DEFPOINTS
 62
     0
 10
145.2745338678514
 20
-61.9000000000001
 30
0.0
  0
ENDBLK
  5
1105
  8
0
  0
BLOCK
  8
0
  2
*D7
 70
     1
 10
0.0
 20
0.0
 30
0.0
  3
*D7
  1

  0
LINE
  5
110A
  8
SK2
 62
     0
 10
90.72499999999991
 20
31.75
 30
0.0
 11
126.9547100529363
 21
31.75
 31
0.0
  0
LINE
  5
110B
  8
SK2
 62
     0
 10
90.72499999999991
 20
-31.75
 30
0.0
 11
126.9547100529363
 21
-31.75
 31
0.0
  0
LINE
  5
110C
  8
SK2
 62
     0
 10
125.7047100529363
 20
29.25
 30
0.0
 11
125.7047100529363
 21
-29.25
 31
0.0
  0
SOLID
  5
110D
  8
SK2
 62
     0
 10
126.121376719603
 20
29.25
 30
0.0
 11
125.2880433862696
 21
29.25
 31
0.0
 12
125.7047100529363
 22
31.75
 32
0.0
 13
125.7047100529363
 23
31.75
 33
0.0
  0
SOLID
  5
110E
  8
SK2
 62
     0
 10
125.2880433862696
 20
-29.25
 30
0.0
 11
126.121376719603
 21
-29.25
 31
0.0
 12
125.7047100529363
 22
-31.75
 32
0.0
 13
125.7047100529363
 23
-31.75
 33
0.0
  0
TEXT
  5
110F
  8
SK2
  6
CONTINUOUS
 62
     0
 10
125.0797100529363
 20
-3.75
 30
0.0
 40
2.5
  1
63.5
 50
90.0
  0
POINT
  5
1110
  8
DEFPOINTS
 62
     0
 10
90.09999999999991
 20
31.75
 30
0.0
  0
POINT
  5
1111
  8
DEFPOINTS
 62
     0
 10
90.09999999999991
 20
-31.75
 30
0.0
  0
POINT
  5
1112
  8
DEFPOINTS
 62
     0
 10
125.7047100529363
 20
-31.75
 30
0.0
  0
ENDBLK
  5
1114
  8
0
  0
ENDSEC
  0
SECTION
  2
ENTITIES
  0
LINE
  5
685
  8
SK1
 10
0.0
 20
34.92499999999998
 30
0.0
 11
-99.6319088344
 21
20.3952133832
 31
0.0
  0
LINE
  5
686
  8
SK1
 10
-99.6319088344
 20
-20.3952133832
 30
0.0
 11
0.0
 21
-34.92500000000001
 31
0.0
  0
ARC
  5
68D
  8
SK1
 10
-99.3
 20
18.1192879614
 30
0.0
 40
2.299999999999995
 50
98.29722000000018
 51
180.0
  0
ARC
  5
68E
  8
SK1
 10
-99.3
 20
-18.1192879614
 30
0.0
 40
2.299999999999995
 50
180.0
 51
261.7027799999998
  0
LINE
  5
6F6
  8
SK1
 10
-101.6
 20
0.0
 30
0.0
 11
-101.6
 21
-18.1192879614
 31
0.0
  0
LINE
  5
6F7
  8
SK1
 10
-101.6
 20
18.1192879614
 30
0.0
 11
-101.6
 21
0.0
 31
0.0
  0
LINE
  5
71A
  8
SK3
 10
-99.5215390309
 20
-13.10000000000002
 30
0.0
 11
-99.5215390309
 21
13.09999999999999
 31
0.0
  0
LINE
  5
71B
  8
SK3
 10
-95.25
 20
-13.10000000000002
 30
0.0
 11
-95.25
 21
13.09999999999999
 31
0.0
  0
LINE
  5
72A
  8
SK3
 10
-101.6
 20
-14.30000000000001
 30
0.0
 11
-99.5215390309
 21
-13.10000000000002
 31
0.0
  0
LINE
  5
72B
  8
SK3
 10
-99.5215390309
 20
13.09999999999999
 30
0.0
 11
-101.6
 21
14.3
 31
0.0
  0
LINE
  5
72C
  8
SK3
 10
-99.5215390309
 20
-13.10000000000002
 30
0.0
 11
-95.25
 21
-13.10000000000002
 31
0.0
  0
LINE
  5
72D
  8
SK3
 10
-95.25
 20
13.09999999999999
 30
0.0
 11
-99.5215390309
 21
13.09999999999999
 31
0.0
  0
LINE
  5
72E
  8
SK3
 10
-95.25
 20
-11.09980000000002
 30
0.0
 11
0.0
 21
-11.09980000000002
 31
0.0
  0
LINE
  5
72F
  8
SK3
 10
0.0
 20
11.09979999999999
 30
0.0
 11
-95.25
 21
11.09979999999999
 31
0.0
  0
LINE
  5
760
  8
SK3
 10
-57.1
 20
12.69999999999999
 30
0.0
 11
-95.25
 21
12.69999999999999
 31
0.0
  0
LINE
  5
761
  8
SK3
 10
-95.25
 20
-12.69999999999999
 30
0.0
 11
-57.1
 21
-12.69999999999999
 31
0.0
  0
LINE
  5
774
  8
SK3
 10
-57.1
 20
12.69999999999999
 30
0.0
 11
-57.1
 21
-12.69999999999999
 31
0.0
  0
LINE
  5
777
  8
SK4
 10
0.0
 20
0.0
 30
0.0
 11
-101.6
 21
0.0
 31
0.0
  0
LINE
  5
779
  8
4
 10
0.0
 20
0.0
 30
0.0
 11
63.49999999999999
 21
0.0
 31
0.0
  0
INSERT
  5
77B
  8
SK6
  2
*U0
 10
-44.10380399683656
 20
-23.39313954296377
 30
0.0
  0
INSERT
  5
78D
  8
SK6
  2
*U2
 10
17.55665382414153
 20
-2.560320993650734
 30
0.0
  0
LINE
  5
793
  8
0
 10
3.0
 20
3.0
 30
0.0
 11
-3.0
 21
-3.0
 31
0.0
  0
LINE
  5
794
  8
0
 10
-3.0
 20
3.0
 30
0.0
 11
3.0
 21
-3.0
 31
0.0
  0
CIRCLE
  5
795
  8
0
 10
0.0
 20
0.0
 30
0.0
 40
2.5
  0
LINE
  5
796
  8
0
 10
66.5
 20
-3.0
 30
0.0
 11
60.5
 21
3.0
 31
0.0
  0
CIRCLE
  5
797
  8
0
 10
63.5
 20
0.0
 30
0.0
 40
2.5
  0
LINE
  5
798
  8
0
 10
60.5
 20
-3.0
 30
0.0
 11
66.5
 21
3.0
 31
0.0
  0
LINE
  5
799
  8
NOCUT
 10
0.7999999999999972
 20
34.62500000000001
 30
0.0
 11
0.2999999999999972
 21
34.62500000000001
 31
0.0
  0
LINE
  5
79C
  8
NOCUT
 10
0.2999999999999972
 20
34.62500000000001
 30
0.0
 11
0.0
 21
34.92499999999999
 31
0.0
  0
LINE
  5
79D
  8
NOCUT
 10
40.0
 20
34.92499999999999
 30
0.0
 11
20.05
 21
34.92499999999999
 31
0.0
  0
ARC
  5
79E
  8
NOCUT
 10
0.7999999999999972
 20
35.62500000000001
 30
0.0
 40
1.0
 50
270.0
 51
314.4270040008
  0
ARC
  5
79F
  8
NOCUT
 10
20.05
 20
35.92499999999999
 30
0.0
 40
1.0
 50
180.0
 51
270.0
  0
LINE
  5
7A0
  8
NOCUT
 10
12.55499999999999
 20
45.64499999999999
 30
0.0
 11
9.704999999999998
 21
45.64499999999999
 31
0.0
  0
ARC
  5
7A1
  8
NOCUT
 10
12.55499999999999
 20
46.14499999999999
 30
0.0
 40
0.5
 50
270.0
 51
0.0
  0
ARC
  5
7A2
  8
NOCUT
 10
9.704999999999998
 20
46.14499999999999
 30
0.0
 40
0.5
 50
180.0
 51
270.0
  0
ARC
  5
7A3
  8
NOCUT
 10
2.299999999999997
 20
48.4125
 30
0.0
 40
0.7999999999999972
 50
90.0
 51
180.0
  0
ARC
  5
7A4
  8
NOCUT
 10
18.24999999999999
 20
48.4125
 30
0.0
 40
0.799999999999983
 50
0.0
 51
90.0
  0
LINE
  5
7A5
  8
NOCUT
 10
9.204999999999998
 20
46.43919780459999
 30
0.0
 11
7.603833230999996
 21
49.21250000000001
 31
0.0
  0
LINE
  5
7A6
  8
NOCUT
 10
14.65616676910001
 20
49.21250000000001
 30
0.0
 11
13.05499999999999
 21
46.43919780459999
 31
0.0
  0
LINE
  5
7A7
  8
NOCUT
 10
18.24999999999999
 20
49.21250000000001
 30
0.0
 11
14.65616676910001
 21
49.21250000000001
 31
0.0
  0
LINE
  5
7A8
  8
NOCUT
 10
7.603833230999996
 20
49.21250000000001
 30
0.0
 11
2.299999999999997
 21
49.21250000000001
 31
0.0
  0
LINE
  5
7AC
  8
NOCUT
 10
1.5
 20
48.4125
 30
0.0
 11
1.499999999999929
 21
34.91085715714565
 31
0.0
  0
LINE
  5
7AD
  8
NOCUT
 10
19.04999999999997
 20
48.4125
 30
0.0
 11
19.05
 21
35.92499999999999
 31
0.0
  0
LINE
  5
7AE
  8
NOCUT
 10
9.204999999999998
 20
46.43919780459999
 30
0.0
 11
9.204999999999998
 21
46.14499999999999
 31
0.0
  0
LINE
  5
7AF
  8
NOCUT
 10
13.05499999999999
 20
46.43919780459999
 30
0.0
 11
13.05499999999999
 21
46.14499999999999
 31
0.0
  0
DIMENSION
  5
804
  8
SK2
  2
*D5
 10
63.5
 20
69.65141243520497
 30
0.0
 11
31.75
 21
71.52641243520497
 31
0.0
 70
    32
  3
ISO-25
 13
0.0
 23
34.92499999999998
 33
0.0
 14
63.5
 24
60.90000000000009
 34
0.0
1001
ACAD
1000
DSTYLE
1002
{
1070
   287
1070
     5
1070
   271
1070
     3
1070
   272
1070
     3
1070
   279
1070
     2
1002
}
  0
LINE
  5
8BF
  8
NOCUT
 10
0.0
 20
34.92499999999999
 30
0.0
 11
0.0
 21
0.0
 31
0.0
  0
LINE
  5
8C0
  8
NOCUT
 10
0.0
 20
0.0
 30
0.0
 11
63.49999999999999
 21
0.0
 31
0.0
  0
INSERT
  5
A17
  8
SK6
  2
_FILLED
 10
-20.78186483605847
 20
-31.89428358495073
 30
0.0
 41
3.5
 42
3.5
 43
3.5
 50
52.86965044919886
  0
POLYLINE
  5
A18
  8
SK6
 66
     1
 10
0.0
 20
0.0
 30
0.0
  0
VERTEX
  5
1680
  8
SK6
 10
-22.89457117648658
 20
-34.68470862768434
 30
0.0
  0
VERTEX
  5
1681
  8
SK6
 10
-48.02596493475846
 20
-67.87780752645074
 30
0.0
  0
VERTEX
  5
1682
  8
SK6
 10
-49.90096493475846
 20
-66.12780752645074
 30
0.0
  0
VERTEX
  5
1683
  8
SK6
 10
-53.40096493475846
 20
-66.12780752645074
 30
0.0
  0
SEQEND
  5
1B97
  8
SK6
  0
ARC
  5
AC7
  8
1
 10
20.04999999999998
 20
35.92499999999998
 30
0.0
 40
1.0
 50
180.0
 51
270.0
  0
ARC
  5
AC9
  8
1
 10
20.04999999999998
 20
-35.92500000000001
 30
0.0
 40
1.0
 50
90.0
 51
180.0
  0
ARC
  5
ACA
  8
1
 10
1.299999999999983
 20
35.125
 30
0.0
 40
0.5
 50
270.0
 51
293.5781784781994
  0
ARC
  5
ACB
  8
1
 10
1.299999999999983
 20
-35.125
 30
0.0
 40
0.500000000000009
 50
66.42182152180017
 51
90.0
  0
LINE
  5
ACC
  8
1
 10
38.5492882855999
 20
34.92499999999998
 30
0.0
 11
20.04999999999998
 21
34.92499999999998
 31
0.0
  0
LINE
  5
ACE
  8
1
 10
20.04999999999998
 20
-34.92500000000001
 30
0.0
 11
38.54928828559988
 21
-34.92500000000001
 31
0.0
  0
LINE
  5
ACF
  8
1
 10
0.0
 20
-34.92500000000001
 30
0.0
 11
0.2999999999999829
 21
-34.625
 31
0.0
  0
LINE
  5
AD0
  8
1
 10
0.2999999999999829
 20
34.625
 30
0.0
 11
0.0
 21
34.92499999999998
 31
0.0
  0
LINE
  5
AD5
  8
1
 10
1.299999999999983
 20
34.625
 30
0.0
 11
0.2999999999999829
 21
34.625
 31
0.0
  0
LINE
  5
AD6
  8
1
 10
0.2999999999999829
 20
-34.625
 30
0.0
 11
1.299999999999983
 21
-34.625
 31
0.0
  0
LINE
  5
ADB
  8
1
 10
14.65616694409999
 20
-47.282880439
 30
0.0
 11
14.68806954659999
 21
-47.29184187660002
 31
0.0
  0
LINE
  5
ADC
  8
1
 10
14.6561667691
 20
47.30816788690001
 30
0.0
 11
14.6561667691
 21
-47.2826327523
 31
0.0
  0
LINE
  5
ADD
  8
1
 10
14.7615962207
 20
47.3314147463
 30
0.0
 11
14.6561668942
 21
47.30816788690001
 31
0.0
  0
LINE
  5
ADE
  8
1
 10
18.25
 20
47.3314147463
 30
0.0
 11
14.7615962207
 21
47.3314147463
 31
0.0
  0
LINE
  5
ADF
  8
1
 10
14.68806954659999
 20
-47.29184187660002
 30
0.0
 11
18.25
 21
-47.29184187660002
 31
0.0
  0
LINE
  5
AE0
  8
1
 10
7.498403779400007
 20
47.3314147463
 30
0.0
 11
4.006414746699988
 21
47.3314147463
 31
0.0
  0
LINE
  5
AE1
  8
1
 10
7.603833105900009
 20
47.30816788690001
 30
0.0
 11
7.498403779400007
 21
47.3314147463
 31
0.0
  0
LINE
  5
AE2
  8
1
 10
7.603833230899994
 20
47.30844201400001
 30
0.0
 11
7.603833230899994
 21
-47.28288044160001
 31
0.0
  0
LINE
  5
AE3
  8
1
 10
7.571930453299984
 20
-47.29184187660002
 30
0.0
 11
7.603833055899997
 21
-47.282880439
 31
0.0
  0
LINE
  5
AE4
  8
1
 10
4.040356993800003
 20
-47.29184187660002
 30
0.0
 11
7.571930453299984
 21
-47.29184187660002
 31
0.0
  0
LINE
  5
AE5
  8
1
 10
2.300001405499984
 20
-46.74795901499999
 30
0.0
 11
4.040356993800003
 21
-47.29184189310001
 31
0.0
  0
LINE
  5
AE6
  8
1
 10
4.006414746699988
 20
47.33141476029999
 30
0.0
 11
2.299999765199999
 21
46.80267569
 31
0.0
  0
ARC
  5
AE7
  8
1
 10
2.557435939599998
 20
-45.59355264690001
 30
0.0
 40
1.184053137363273
 50
207.7147598986998
 51
257.3157095984005
  0
LINE
  5
AE8
  8
1
 10
1.50922466130001
 20
-46.14422037630001
 30
0.0
 11
1.5
 21
-46.01377680920001
 31
0.0
  0
LINE
  5
AE9
  8
1
 10
1.5
 20
-46.01377680920001
 30
0.0
 11
1.5
 21
46.01377680919998
 31
0.0
  0
ARC
  5
AEA
  8
1
 10
2.572884962100005
 20
45.72649004249999
 30
0.0
 40
1.111555736593689
 50
104.3436511600003
 51
164.8417645594994
  0
LINE
  5
AEB
  8
1
 10
9.204999995999998
 20
44.41431970880001
 30
0.0
 11
7.60383322749999
 21
47.3081678945
 31
0.0
  0
LINE
  5
AEC
  8
1
 10
9.204999999999984
 20
44.4143196734
 30
0.0
 11
9.204999999999984
 21
-44.387299867
 31
0.0
  0
LINE
  5
AED
  8
1
 10
7.603833226399985
 20
-47.28288044990001
 30
0.0
 11
9.2049999921
 21
-44.38762367050001
 31
0.0
  0
LINE
  5
AEE
  8
1
 10
14.65616677259999
 20
47.3081678945
 30
0.0
 11
13.05500000399999
 21
44.41431970880001
 31
0.0
  0
LINE
  5
AEF
  8
1
 10
13.05500000800001
 20
-44.38762367050001
 30
0.0
 11
14.65616677360001
 21
-47.28288044990001
 31
0.0
  0
LINE
  5
AF0
  8
1
 10
13.05500000000001
 20
44.41459195280001
 30
0.0
 11
13.05500000000001
 21
-44.38762365650001
 31
0.0
  0
ARC
  5
AF1
  8
1
 10
17.92302328310001
 20
46.41895288640001
 30
0.0
 40
1.127359624435328
 50
1.493363825500091
 51
43.53750291790048
  0
LINE
  5
AF2
  8
1
 10
19.04999999999998
 20
46.44833319130001
 30
0.0
 11
19.04999999999998
 21
-46.44833319130001
 31
0.0
  0
ARC
  5
AF3
  8
1
 10
17.91824827779999
 20
-46.4157978575
 30
0.0
 40
1.1322192847622
 50
319.2464850235001
 51
358.3533278529993
  0
ARC
  5
AF4
  8
1
 10
18.2616113983
 20
-46.25791326929999
 30
0.0
 40
1.033993805426882
 50
269.3565743835002
 51
299.8289453780985
  0
ARC
  5
AF5
  8
1
 10
18.2610591033
 20
46.41902767409999
 30
0.0
 40
0.9124540938653742
 50
58.31881226410037
 51
90.69445187719943
  0
ARC
  5
AF6
  8
1
 10
12.5158206966
 20
-44.1073442162
 30
0.0
 40
0.5397579791454132
 50
357.3466499737992
 51
85.83742202690154
  0
ARC
  5
AF7
  8
1
 10
12.54139279200001
 20
44.09944295630001
 30
0.0
 40
0.4858431210597904
 50
271.6049163143007
 51
333.441972537701
  0
POLYLINE
  5
AF8
  8
1
 66
     1
 10
0.0
 20
0.0
 30
0.0
  0
VERTEX
  5
1684
  8
1
 10
13.05500000000001
 20
44.14662312639999
 30
0.0
  0
VERTEX
  5
1685
  8
1
 10
13.03542892280001
 20
44.01594229719998
 30
0.0
  0
VERTEX
  5
1686
  8
1
 10
12.97787844319998
 20
43.88571451269999
 30
0.0
  0
SEQEND
  5
1B96
  8
1
  0
ARC
  5
AF9
  8
1
 10
9.744214343399989
 20
-44.10737531749999
 30
0.0
 40
0.5397915428070933
 50
94.16604783349855
 51
182.6498801657025
  0
POLYLINE
  5
AFA
  8
1
 66
     1
 10
0.0
 20
0.0
 30
0.0
  0
VERTEX
  5
1687
  8
1
 10
9.280099379399985
 20
43.88913247470001
 30
0.0
  0
VERTEX
  5
1688
  8
1
 10
9.224055884099982
 20
44.0177026321
 30
0.0
  0
VERTEX
  5
1689
  8
1
 10
9.204999999999984
 20
44.14662312639999
 30
0.0
  0
SEQEND
  5
1B95
  8
1
  0
ARC
  5
AFB
  8
1
 10
9.721350266000002
 20
44.10422581969999
 30
0.0
 40
0.4907078648052702
 50
206.0244317763009
 51
268.0905652222996
  0
LINE
  5
AFC
  8
1
 10
12.55500000000001
 20
43.613790424
 30
0.0
 11
9.704999999999984
 21
43.613790424
 31
0.0
  0
LINE
  5
AFD
  8
1
 10
9.704999999999984
 20
-43.5690100651
 30
0.0
 11
12.55500000000001
 21
-43.5690100651
 31
0.0
  0
LINE
  5
B00
  8
1
 10
0.2999999999999829
 20
34.625
 30
0.0
 11
0.2999999999999829
 21
-34.625
 31
0.0
  0
LINE
  5
B01
  8
1
 10
0.0
 20
34.92499999999998
 30
0.0
 11
0.0
 21
-34.92500000000001
 31
0.0
  0
LINE
  5
B04
  8
1
 10
14.68806954670001
 20
-47.29184187660002
 30
0.0
 11
14.65616694420001
 21
-47.282880439
 31
0.0
  0
LINE
  5
B1A
  8
3
 10
1.500000000000004
 20
37.72
 30
0.0
 11
19.04999999999998
 21
37.72
 31
0.0
  0
LINE
  5
B3B
  8
3
 10
1.5
 20
-35.30000000000001
 30
0.0
 11
19.26937525020018
 21
-35.30000000000001
 31
0.0
  0
LINE
  5
B42
  8
3
 10
26.97499999999999
 20
28.32499999999999
 30
0.0
 11
33.32499999999999
 21
28.32499999999999
 31
0.0
  0
LINE
  5
B43
  8
3
 10
20.625
 20
28.32499999999999
 30
0.0
 11
26.97499999999999
 21
28.32499999999999
 31
0.0
  0
LINE
  5
B44
  8
3
 10
11.375
 20
37.31999999999999
 30
0.0
 11
16.125
 21
37.31999999999999
 31
0.0
  0
LINE
  5
B45
  8
3
 10
6.625
 20
37.31999999999999
 30
0.0
 11
11.375
 21
37.31999999999999
 31
0.0
  0
LINE
  5
B55
  8
3
 10
20.625
 20
28.32499999999999
 30
0.0
 11
26.97499999999999
 21
24.50953506919998
 31
0.0
  0
LINE
  5
B56
  8
3
 10
26.97499999999999
 20
24.50953506919998
 30
0.0
 11
33.32499999999999
 21
28.32499999999999
 31
0.0
  0
LINE
  5
B57
  8
3
 10
20.625
 20
34.92499999999998
 30
0.0
 11
20.625
 21
28.32499999999999
 31
0.0
  0
LINE
  5
B58
  8
3
 10
33.32499999999999
 20
28.32499999999999
 30
0.0
 11
33.32499999999999
 21
34.92499999999998
 31
0.0
  0
LINE
  5
B59
  8
3
 10
6.625
 20
37.72
 30
0.0
 11
6.625
 21
37.31999999999999
 31
0.0
  0
LINE
  5
B5A
  8
3
 10
16.125
 20
37.31999999999999
 30
0.0
 11
16.125
 21
37.72
 31
0.0
  0
LINE
  5
B5B
  8
1
 10
20.04999999999998
 20
-34.92500000000001
 30
0.0
 11
20.04999999999998
 21
34.92499999999998
 31
0.0
  0
LINE
  5
B5C
  8
1
 10
1.299999999999983
 20
-34.625
 30
0.0
 11
1.299999999999983
 21
34.625
 31
0.0
  0
LINE
  5
B5F
  8
1
 10
12.55500000000001
 20
-43.00413183130001
 30
0.0
 11
12.55500000000001
 21
42.79577481850001
 31
0.0
  0
LINE
  5
B60
  8
1
 10
9.704999999999984
 20
-43.00421493109999
 30
0.0
 11
9.704999999999984
 21
42.7957705776
 31
0.0
  0
LINE
  5
B62
  8
1
 10
18.25
 20
47.3314147463
 30
0.0
 11
18.25
 21
-47.29184187660002
 31
0.0
  0
LINE
  5
B64
  8
1
 10
2.299999999999983
 20
-46.74795854910002
 30
0.0
 11
2.299999999999983
 21
46.80267576719999
 31
0.0
  0
LINE
  5
D69
  8
1
 10
63.5
 20
-58.74380999999994
 30
0.0
 11
63.52857499979996
 21
-58.74380999999994
 31
0.0
  0
LINE
  5
D6A
  8
1
 10
63.52857499979996
 20
58.74380999999994
 30
0.0
 11
63.5
 21
58.74380999999994
 31
0.0
  0
LINE
  5
D6C
  8
1
 10
43.0
 20
-61.90000000000009
 30
0.0
 11
62.5
 21
-61.90000000000009
 31
0.0
  0
LINE
  5
D6D
  8
1
 10
62.5
 20
61.90000000000009
 30
0.0
 11
43.0
 21
61.90000000000009
 31
0.0
  0
ARC
  5
D6E
  8
1
 10
62.5
 20
-60.90000000000009
 30
0.0
 40
1.000000000000227
 50
270.0
 51
0.0
  0
ARC
  5
D6F
  8
1
 10
62.5
 20
60.90000000000009
 30
0.0
 40
1.0
 50
0.0
 51
90.0
  0
ARC
  5
D70
  8
1
 10
43.0
 20
60.90000000000009
 30
0.0
 40
1.0
 50
90.0
 51
180.0
  0
ARC
  5
D71
  8
1
 10
43.0
 20
-60.90000000000009
 30
0.0
 40
1.000000000000227
 50
180.0
 51
270.0
  0
CIRCLE
  5
D93
  8
1
 10
50.79999999999995
 20
0.0
 30
0.0
 40
2.625
  0
LINE
  5
D94
  8
1
 10
63.5
 20
0.0
 30
0.0
 11
63.5
 21
60.90000000000009
 31
0.0
  0
LINE
  5
D95
  8
1
 10
63.5
 20
-60.90000000000009
 30
0.0
 11
63.5
 21
0.0
 31
0.0
  0
LINE
  5
D96
  8
1
 10
42.0
 20
-60.90000000000009
 30
0.0
 11
42.0
 21
60.90000000000009
 31
0.0
  0
CIRCLE
  5
D97
  8
1
 10
50.79999999999995
 20
0.0
 30
0.0
 40
2.099999999999909
  0
ARC
  5
DB6
  8
1
 10
40.18820907219992
 20
-36.33648147870008
 30
0.0
 40
1.830359682132506
 50
8.168242731203325
 51
95.90194348679982
  0
ARC
  5
DB7
  8
1
 10
40.16231088789982
 20
36.36967152490001
 30
0.0
 40
1.860939475316869
 50
264.9963120821023
 51
350.933501699901
  0
LINE
  5
DB9
  8
1
 10
40.0
 20
-34.51582392959995
 30
0.0
 11
39.50000000009982
 21
-34.51582392959995
 31
0.0
  0
POLYLINE
  5
DBA
  8
1
 66
     1
 10
0.0
 20
0.0
 30
0.0
  0
VERTEX
  5
168A
  8
1
 10
39.50000000009982
 20
-34.51582392959995
 30
0.0
  0
VERTEX
  5
168B
  8
1
 10
38.79331328709986
 20
-34.82516165540005
 30
0.0
  0
VERTEX
  5
168C
  8
1
 10
38.57162588069991
 20
-34.91587484010006
 30
0.0
  0
SEQEND
  5
1B94
  8
1
  0
POLYLINE
  5
DBB
  8
1
 66
     1
 10
0.0
 20
0.0
 30
0.0
  0
VERTEX
  5
168D
  8
1
 10
38.57162588069991
 20
34.91587484010006
 30
0.0
  0
VERTEX
  5
168E
  8
1
 10
38.55136620359985
 20
34.9241649810001
 30
0.0
  0
VERTEX
  5
168F
  8
1
 10
38.82156602379996
 20
34.8133711692999
 30
0.0
  0
VERTEX
  5
1690
  8
1
 10
39.50000000009982
 20
34.51582392959995
 30
0.0
  0
SEQEND
  5
1B93
  8
1
  0
LINE
  5
DBC
  8
1
 10
39.50000000009982
 20
34.51582392959995
 30
0.0
 11
40.0
 21
34.51582392959995
 31
0.0
  0
LINE
  5
DC4
  8
1
 10
49.54999999999995
 20
-0.7216878364999957
 30
0.0
 11
50.79999999999995
 21
-1.443375672999991
 31
0.0
  0
LINE
  5
DC5
  8
1
 10
52.04999999999995
 20
-0.7216878364999957
 30
0.0
 11
50.79999999999995
 21
-1.443375672999991
 31
0.0
  0
LINE
  5
DC6
  8
1
 10
52.04999999999995
 20
0.7216878364999957
 30
0.0
 11
52.04999999999995
 21
-0.7216878364999957
 31
0.0
  0
LINE
  5
DC7
  8
1
 10
52.04999999999995
 20
0.7216878364999957
 30
0.0
 11
50.79999999999995
 21
1.443375672999991
 31
0.0
  0
LINE
  5
DC8
  8
1
 10
49.54999999999995
 20
0.7216878364999957
 30
0.0
 11
50.79999999999995
 21
1.443375672999991
 31
0.0
  0
LINE
  5
DC9
  8
1
 10
49.54999999999995
 20
0.7216878364999957
 30
0.0
 11
49.54999999999995
 21
-0.7216878364999957
 31
0.0
  0
CIRCLE
  5
DCA
  8
1
 10
50.79999999999995
 20
0.0
 30
0.0
 40
2.055000000000064
  0
LINE
  5
DD6
  8
3
 10
46.6998051615999
 20
-33.33618999999999
 30
0.0
 11
46.6998051615999
 21
-58.74380999999994
 31
0.0
  0
LINE
  5
DD7
  8
3
 10
45.37483951069999
 20
-33.34618999999998
 30
0.0
 11
45.37483951069999
 21
-58.73380999999995
 31
0.0
  0
LINE
  5
DD8
  8
3
 10
44.44999999999982
 20
-33.59400000000005
 30
0.0
 11
44.44999999999982
 21
-58.4860000000001
 31
0.0
  0
LINE
  5
DD9
  8
3
 10
46.6998051615999
 20
58.74380999999994
 30
0.0
 11
46.6998051615999
 21
33.33618999999999
 31
0.0
  0
LINE
  5
DDA
  8
3
 10
45.37483951069999
 20
58.73380999999995
 30
0.0
 11
45.37483951069999
 21
33.34618999999998
 31
0.0
  0
LINE
  5
DDB
  8
3
 10
44.44999999999982
 20
58.4860000000001
 30
0.0
 11
44.44999999999982
 21
33.59400000000005
 31
0.0
  0
POLYLINE
  5
DDC
  8
3
 66
     1
 10
0.0
 20
0.0
 30
0.0
  0
VERTEX
  5
1691
  8
3
 10
50.79999999999995
 20
54.87124841009995
 30
0.0
  0
VERTEX
  5
1692
  8
3
 10
49.93155295029987
 20
54.80261920220005
 30
0.0
  0
VERTEX
  5
1693
  8
3
 10
49.16102218929996
 20
54.6027821432001
 30
0.0
  0
VERTEX
  5
1694
  8
3
 10
48.5747824604
 20
54.28965218269991
 30
0.0
  0
VERTEX
  5
1695
  8
3
 10
48.23923872779983
 20
53.89322775150004
 30
0.0
  0
VERTEX
  5
1696
  8
3
 10
48.19252385350001
 20
53.45492668399993
 30
0.0
  0
VERTEX
  5
1697
  8
3
 10
48.43938862749997
 20
53.02369968399989
 30
0.0
  0
VERTEX
  5
1698
  8
3
 10
48.95204075109996
 20
52.6504957482
 30
0.0
  0
VERTEX
  5
1699
  8
3
 10
49.67337797369987
 20
52.38216563130004
 30
0.0
  0
VERTEX
  5
169A
  8
3
 10
49.70659209649989
 20
52.37715562919993
 30
0.0
  0
SEQEND
  5
1B92
  8
3
  0
POLYLINE
  5
DDD
  8
3
 66
     1
 10
0.0
 20
0.0
 30
0.0
  0
VERTEX
  5
169B
  8
3
 10
51.89096654269997
 20
52.39398802300002
 30
0.0
  0
VERTEX
  5
169C
  8
3
 10
52.21232363149988
 20
52.46637089980004
 30
0.0
  0
VERTEX
  5
169D
  8
3
 10
52.86487751499999
 20
52.77820658220003
 30
0.0
  0
VERTEX
  5
169E
  8
3
 10
53.28503589970001
 20
53.17911516050003
 30
0.0
  0
VERTEX
  5
169F
  8
3
 10
53.42488508889983
 20
53.61924905480009
 30
0.0
  0
VERTEX
  5
16A0
  8
3
 10
53.2690138854
 20
54.04711413929999
 30
0.0
  0
VERTEX
  5
16A1
  8
3
 10
52.83526980219995
 20
54.41664383819989
 30
0.0
  0
VERTEX
  5
16A2
  8
3
 10
52.17191325889985
 20
54.69090649970008
 30
0.0
  0
VERTEX
  5
16A3
  8
3
 10
51.35353469989991
 20
54.84388085170008
 30
0.0
  0
VERTEX
  5
16A4
  8
3
 10
50.79999999999995
 20
54.87124841009995
 30
0.0
  0
SEQEND
  5
1B91
  8
3
  0
POLYLINE
  5
DDE
  8
3
 66
     1
 10
0.0
 20
0.0
 30
0.0
  0
VERTEX
  5
16A5
  8
3
 10
50.79999999999995
 20
-52.24624840999991
 30
0.0
  0
VERTEX
  5
16A6
  8
3
 10
49.93155295029987
 20
-52.32543840099993
 30
0.0
  0
VERTEX
  5
16A7
  8
3
 10
49.16102218929996
 20
-52.55232445370007
 30
0.0
  0
VERTEX
  5
16A8
  8
3
 10
48.5747824604
 20
-52.89716092549997
 30
0.0
  0
VERTEX
  5
16A9
  8
3
 10
48.23923872779983
 20
-53.31605645409991
 30
0.0
  0
VERTEX
  5
16AA
  8
3
 10
48.19252385350001
 20
-53.75773544399999
 30
0.0
  0
VERTEX
  5
16AB
  8
3
 10
48.43938862749997
 20
-54.17180200870007
 30
0.0
  0
VERTEX
  5
16AC
  8
3
 10
48.95204075109996
 20
-54.51481106870006
 30
0.0
  0
VERTEX
  5
16AD
  8
3
 10
49.67337797369987
 20
-54.75310380209999
 30
0.0
  0
VERTEX
  5
16AE
  8
3
 10
50.52188512880002
 20
-54.8644027165999
 30
0.0
  0
VERTEX
  5
16AF
  8
3
 10
51.40113239489983
 20
-54.83889977989998
 30
0.0
  0
VERTEX
  5
16B0
  8
3
 10
52.21232363149988
 20
-54.67905410339995
 30
0.0
  0
VERTEX
  5
16B1
  8
3
 10
52.86487751499999
 20
-54.39897980770002
 30
0.0
  0
VERTEX
  5
16B2
  8
3
 10
53.28503589970001
 20
-54.02482289799991
 30
0.0
  0
VERTEX
  5
16B3
  8
3
 10
53.42488508889983
 20
-53.59468749350003
 30
0.0
  0
VERTEX
  5
16B4
  8
3
 10
53.2690138854
 20
-53.15571331270007
 30
0.0
  0
VERTEX
  5
16B5
  8
3
 10
52.83526980219995
 20
-52.75884353879997
 30
0.0
  0
VERTEX
  5
16B6
  8
3
 10
52.17191325889985
 20
-52.45294336100005
 30
0.0
  0
VERTEX
  5
16B7
  8
3
 10
51.35353469989991
 20
-52.27790650730003
 30
0.0
  0
VERTEX
  5
16B8
  8
3
 10
50.79999999999995
 20
-52.24624840999991
 30
0.0
  0
SEQEND
  5
1B90
  8
3
  0
LINE
  5
DE0
  8
3
 10
48.09999999999991
 20
2.5
 30
0.0
 11
48.09999999999991
 21
-2.5
 31
0.0
  0
LINE
  5
DEE
  8
3
 10
39.50000000009982
 20
-33.34275000000002
 30
0.0
 11
39.50000000009982
 21
-34.51582392959995
 31
0.0
  0
LINE
  5
DEF
  8
3
 10
39.50000000009982
 20
34.51582392959995
 30
0.0
 11
39.50000000009982
 21
33.34275000000002
 31
0.0
  0
LINE
  5
DF1
  8
3
 10
32.09999999999991
 20
11.90625
 30
0.0
 11
32.09999999999991
 21
-11.90625
 31
0.0
  0
POLYLINE
  5
DF2
  8
3
 66
     1
 10
0.0
 20
0.0
 30
0.0
  0
VERTEX
  5
16B9
  8
3
 10
50.79999999999995
 20
11.19946263590009
 30
0.0
  0
VERTEX
  5
16BA
  8
3
 10
51.48896009140003
 20
11.15886917240005
 30
0.0
  0
VERTEX
  5
16BB
  8
3
 10
52.10015323740004
 20
11.03628881750001
 30
0.0
  0
VERTEX
  5
16BC
  8
3
 10
52.57153861459983
 20
10.82860022189993
 30
0.0
  0
VERTEX
  5
16BD
  8
3
 10
52.84580252479986
 20
10.53994846060004
 30
0.0
  0
VERTEX
  5
16BE
  8
3
 10
52.88763476960003
 20
10.19545432049995
 30
0.0
  0
VERTEX
  5
16BF
  8
3
 10
52.69928825109992
 20
9.833911570000055
 30
0.0
  0
VERTEX
  5
16C0
  8
3
 10
52.30185507199985
 20
9.498562433399911
 30
0.0
  0
VERTEX
  5
16C1
  8
3
 10
51.73077882869984
 20
9.240192637000064
 30
0.0
  0
VERTEX
  5
16C2
  8
3
 10
51.05207148559998
 20
9.109401761599884
 30
0.0
  0
VERTEX
  5
16C3
  8
3
 10
50.35329922949995
 20
9.130862495999963
 30
0.0
  0
VERTEX
  5
16C4
  8
3
 10
49.70945015989992
 20
9.295994279099887
 30
0.0
  0
VERTEX
  5
16C5
  8
3
 10
49.18070616019986
 20
9.577326273400104
 30
0.0
  0
VERTEX
  5
16C6
  8
3
 10
48.82839004649986
 20
9.930576897000037
 30
0.0
  0
VERTEX
  5
16C7
  8
3
 10
48.7001947407
 20
10.2967859808
 30
0.0
  0
VERTEX
  5
16C8
  8
3
 10
48.80640011979995
 20
10.6252467874001
 30
0.0
  0
VERTEX
  5
16C9
  8
3
 10
49.13053629649994
 20
10.88888660630005
 30
0.0
  0
VERTEX
  5
16CA
  8
3
 10
49.64397196849995
 20
11.07530430020006
 30
0.0
  0
VERTEX
  5
16CB
  8
3
 10
50.29311983889988
 20
11.17790552609995
 30
0.0
  0
VERTEX
  5
16CC
  8
3
 10
50.79999999999995
 20
11.19946263590009
 30
0.0
  0
SEQEND
  5
1B8F
  8
3
  0
POLYLINE
  5
DF3
  8
3
 66
     1
 10
0.0
 20
0.0
 30
0.0
  0
VERTEX
  5
16CD
  8
3
 10
50.79999999999995
 20
-9.09946263579991
 30
0.0
  0
VERTEX
  5
16CE
  8
3
 10
51.48896009140003
 20
-9.175101546800079
 30
0.0
  0
VERTEX
  5
16CF
  8
3
 10
52.10015323740004
 20
-9.387167366699941
 30
0.0
  0
VERTEX
  5
16D0
  8
3
 10
52.57153861459983
 20
-9.7009252078999
 30
0.0
  0
VERTEX
  5
16D1
  8
3
 10
52.84580252479986
 20
-10.06593155209998
 30
0.0
  0
VERTEX
  5
16D2
  8
3
 10
52.88763476960003
 20
-10.4230088613001
 30
0.0
  0
VERTEX
  5
16D3
  8
3
 10
52.69928825109992
 20
-10.72984914559993
 30
0.0
  0
VERTEX
  5
16D4
  8
3
 10
52.30185507199985
 20
-10.96636056080001
 30
0.0
  0
VERTEX
  5
16D5
  8
3
 10
51.73077882869984
 20
-11.12265134089989
 30
0.0
  0
VERTEX
  5
16D6
  8
3
 10
51.05207148559998
 20
-11.19421829220005
 30
0.0
  0
VERTEX
  5
16D7
  8
3
 10
50.35329922949995
 20
-11.18280265630005
 30
0.0
  0
VERTEX
  5
16D8
  8
3
 10
49.70945015989992
 20
-11.09062545179995
 30
0.0
  0
VERTEX
  5
16D9
  8
3
 10
49.18070616019986
 20
-10.9144453632
 30
0.0
  0
VERTEX
  5
16DA
  8
3
 10
48.82839004649986
 20
-10.65359431809998
 30
0.0
  0
VERTEX
  5
16DB
  8
3
 10
48.7001947407
 20
-10.32538445709997
 30
0.0
  0
VERTEX
  5
16DC
  8
3
 10
48.80640011979995
 20
-9.965277456399917
 30
0.0
  0
VERTEX
  5
16DD
  8
3
 10
49.13053629649994
 20
-9.61495923689995
 30
0.0
  0
VERTEX
  5
16DE
  8
3
 10
49.64397196849995
 20
-9.32213597100008
 30
0.0
  0
VERTEX
  5
16DF
  8
3
 10
50.29311983889988
 20
-9.139996670799974
 30
0.0
  0
VERTEX
  5
16E0
  8
3
 10
50.79999999999995
 20
-9.09946263579991
 30
0.0
  0
SEQEND
  5
1B8E
  8
3
  0
LINE
  5
DF4
  8
3
 10
31.62306688369995
 20
11.11249999999995
 30
0.0
 11
31.62306688369995
 21
-11.11249999999995
 31
0.0
  0
POLYLINE
  5
DF9
  8
3
 66
     1
 10
0.0
 20
0.0
 30
0.0
  0
VERTEX
  5
16E1
  8
3
 10
50.79999999999995
 20
17.19577406329995
 30
0.0
  0
VERTEX
  5
16E2
  8
3
 10
51.2304980852
 20
17.1157326074001
 30
0.0
  0
VERTEX
  5
16E3
  8
3
 10
51.76296713659985
 20
16.81295460460001
 30
0.0
  0
VERTEX
  5
16E4
  8
3
 10
52.38699247889986
 20
16.20014654300007
 30
0.0
  0
VERTEX
  5
16E5
  8
3
 10
52.73191287479995
 20
15.68781162820005
 30
0.0
  0
VERTEX
  5
16E6
  8
3
 10
52.88187364669989
 20
15.30627485409991
 30
0.0
  0
VERTEX
  5
16E7
  8
3
 10
52.87727928970003
 20
15.01790853500006
 30
0.0
  0
VERTEX
  5
16E8
  8
3
 10
52.73391519069992
 20
14.86551659749989
 30
0.0
  0
VERTEX
  5
16E9
  8
3
 10
52.45734760209984
 20
14.82093185190001
 30
0.0
  0
VERTEX
  5
16EA
  8
3
 10
51.87823587439993
 20
14.91883184740004
 30
0.0
  0
VERTEX
  5
16EB
  8
3
 10
51.33181526789986
 20
15.04294327410003
 30
0.0
  0
VERTEX
  5
16EC
  8
3
 10
50.92080609009986
 20
15.09286334889998
 30
0.0
  0
VERTEX
  5
16ED
  8
3
 10
50.4926505819999
 20
15.07730321050008
 30
0.0
  0
VERTEX
  5
16EE
  8
3
 10
50.01000875449995
 20
14.98820142430009
 30
0.0
  0
VERTEX
  5
16EF
  8
3
 10
49.37435205730003
 20
14.84532979980008
 30
0.0
  0
VERTEX
  5
16F0
  8
3
 10
48.90235341829998
 20
14.8507050820001
 30
0.0
  0
VERTEX
  5
16F1
  8
3
 10
48.73000750119991
 20
15.00035813990007
 30
0.0
  0
VERTEX
  5
16F2
  8
3
 10
48.71351671599996
 20
15.2842087378001
 30
0.0
  0
VERTEX
  5
16F3
  8
3
 10
48.84092127379995
 20
15.63505354950007
 30
0.0
  0
VERTEX
  5
16F4
  8
3
 10
49.09871988259988
 20
16.05171843769995
 30
0.0
  0
VERTEX
  5
16F5
  8
3
 10
49.64865493369985
 20
16.65778889979993
 30
0.0
  0
VERTEX
  5
16F6
  8
3
 10
50.23314974999994
 20
17.05835158540003
 30
0.0
  0
VERTEX
  5
16F7
  8
3
 10
50.65802959359985
 20
17.18695527010004
 30
0.0
  0
VERTEX
  5
16F8
  8
3
 10
50.79999999999995
 20
17.19577406329995
 30
0.0
  0
SEQEND
  5
1B8D
  8
3
  0
POLYLINE
  5
DFA
  8
3
 66
     1
 10
0.0
 20
0.0
 30
0.0
  0
VERTEX
  5
16F9
  8
3
 10
50.79999999999995
 20
-15.0957740632
 30
0.0
  0
VERTEX
  5
16FA
  8
3
 10
51.2304980852
 20
-15.06033206279994
 30
0.0
  0
VERTEX
  5
16FB
  8
3
 10
51.76296713659985
 20
-14.94675678709996
 30
0.0
  0
VERTEX
  5
16FC
  8
3
 10
52.38699247889986
 20
-14.82484480430003
 30
0.0
  0
VERTEX
  5
16FD
  8
3
 10
52.73191287479995
 20
-14.86457858440008
 30
0.0
  0
VERTEX
  5
16FE
  8
3
 10
52.88187364669989
 20
-15.03095300759992
 30
0.0
  0
VERTEX
  5
16FF
  8
3
 10
52.87727928970003
 20
-15.3259844227
 30
0.0
  0
VERTEX
  5
1700
  8
3
 10
52.73391519069992
 20
-15.68403479249992
 30
0.0
  0
VERTEX
  5
1701
  8
3
 10
52.45734760209984
 20
-16.11058255100011
 30
0.0
  0
VERTEX
  5
1702
  8
3
 10
51.87823587439993
 20
-16.72088828350002
 30
0.0
  0
VERTEX
  5
1703
  8
3
 10
51.33181526789986
 20
-17.07448764250012
 30
0.0
  0
VERTEX
  5
1704
  8
3
 10
50.92080609009986
 20
-17.18938568089993
 30
0.0
  0
VERTEX
  5
1705
  8
3
 10
50.4926505819999
 20
-17.15469011110008
 30
0.0
  0
VERTEX
  5
1706
  8
3
 10
50.01000875449995
 20
-16.93394391290008
 30
0.0
  0
VERTEX
  5
1707
  8
3
 10
49.37435205730003
 20
-16.38725325559994
 30
0.0
  0
VERTEX
  5
1708
  8
3
 10
48.90235341829998
 20
-15.75011458309996
 30
0.0
  0
VERTEX
  5
1709
  8
3
 10
48.73000750119991
 20
-15.35409682149998
 30
0.0
  0
VERTEX
  5
170A
  8
3
 10
48.71351671599996
 20
-15.04632745370009
 30
0.0
  0
VERTEX
  5
170B
  8
3
 10
48.84092127379995
 20
-14.87873976240007
 30
0.0
  0
VERTEX
  5
170C
  8
3
 10
49.09871988259988
 20
-14.82060269899989
 30
0.0
  0
VERTEX
  5
170D
  8
3
 10
49.64865493369985
 20
-14.90154161129999
 30
0.0
  0
VERTEX
  5
170E
  8
3
 10
50.23314974999994
 20
-15.0363029227999
 30
0.0
  0
VERTEX
  5
170F
  8
3
 10
50.65802959359985
 20
-15.09175971740001
 30
0.0
  0
VERTEX
  5
1710
  8
3
 10
50.79999999999995
 20
-15.0957740632
 30
0.0
  0
SEQEND
  5
1B8C
  8
3
  0
LINE
  5
DFB
  8
3
 10
48.09999999999991
 20
-14.82050807569999
 30
0.0
 11
48.09999999999991
 21
-19.82050807569999
 31
0.0
  0
POLYLINE
  5
DFC
  8
3
 66
     1
 10
0.0
 20
0.0
 30
0.0
  0
VERTEX
  5
1711
  8
3
 10
50.79999999999995
 20
-17.44524208810003
 30
0.0
  0
VERTEX
  5
1712
  8
3
 10
50.36950191479991
 20
-17.52528354390006
 30
0.0
  0
VERTEX
  5
1713
  8
3
 10
49.83703286349987
 20
-17.82806154679997
 30
0.0
  0
VERTEX
  5
1714
  8
3
 10
49.21300752119987
 20
-18.44086960839991
 30
0.0
  0
VERTEX
  5
1715
  8
3
 10
48.86808712530001
 20
-18.95320452319993
 30
0.0
  0
VERTEX
  5
1716
  8
3
 10
48.71812635330002
 20
-19.33474129730007
 30
0.0
  0
VERTEX
  5
1717
  8
3
 10
48.72272071029988
 20
-19.62310761639992
 30
0.0
  0
VERTEX
  5
1718
  8
3
 10
48.86608480940004
 20
-19.77549955380005
 30
0.0
  0
VERTEX
  5
1719
  8
3
 10
49.14265239799988
 20
-19.82008429949997
 30
0.0
  0
VERTEX
  5
171A
  8
3
 10
49.72176412559998
 20
-19.72218430399994
 30
0.0
  0
VERTEX
  5
171B
  8
3
 10
50.26818473209983
 20
-19.59807287729996
 30
0.0
  0
VERTEX
  5
171C
  8
3
 10
50.67919390999987
 20
-19.5481528025
 30
0.0
  0
VERTEX
  5
171D
  8
3
 10
51.10734941809983
 20
-19.5637129408999
 30
0.0
  0
VERTEX
  5
171E
  8
3
 10
51.58999124549996
 20
-19.65281472700008
 30
0.0
  0
VERTEX
  5
171F
  8
3
 10
52.22564794279992
 20
-19.79568635150008
 30
0.0
  0
VERTEX
  5
1720
  8
3
 10
52.69764658179997
 20
-19.7903110694001
 30
0.0
  0
VERTEX
  5
1721
  8
3
 10
52.8699924988
 20
-19.64065801149991
 30
0.0
  0
VERTEX
  5
1722
  8
3
 10
52.8864832841
 20
-19.35680741360011
 30
0.0
  0
VERTEX
  5
1723
  8
3
 10
52.7590787263
 20
-19.00596260189991
 30
0.0
  0
VERTEX
  5
1724
  8
3
 10
52.50128011749985
 20
-18.58929771370003
 30
0.0
  0
VERTEX
  5
1725
  8
3
 10
51.95134506639988
 20
-17.98322725160006
 30
0.0
  0
VERTEX
  5
1726
  8
3
 10
51.36685025010001
 20
-17.58266456599995
 30
0.0
  0
VERTEX
  5
1727
  8
3
 10
50.94197040649988
 20
-17.45406088129994
 30
0.0
  0
VERTEX
  5
1728
  8
3
 10
50.79999999999995
 20
-17.44524208810003
 30
0.0
  0
SEQEND
  5
1B8B
  8
3
  0
LINE
  5
DFD
  8
3
 10
48.09999999999991
 20
19.82050807569999
 30
0.0
 11
48.09999999999991
 21
14.82050807569999
 31
0.0
  0
POLYLINE
  5
DFE
  8
3
 66
     1
 10
0.0
 20
0.0
 30
0.0
  0
VERTEX
  5
1729
  8
3
 10
50.79999999999995
 20
19.54524208819998
 30
0.0
  0
VERTEX
  5
172A
  8
3
 10
50.36950191479991
 20
19.58068408849999
 30
0.0
  0
VERTEX
  5
172B
  8
3
 10
49.83703286349987
 20
19.69425936430002
 30
0.0
  0
VERTEX
  5
172C
  8
3
 10
49.21300752119987
 20
19.81617134699991
 30
0.0
  0
VERTEX
  5
172D
  8
3
 10
48.86808712530001
 20
19.7764375669999
 30
0.0
  0
VERTEX
  5
172E
  8
3
 10
48.71812635330002
 20
19.61006314380006
 30
0.0
  0
VERTEX
  5
172F
  8
3
 10
48.72272071029988
 20
19.31503172869998
 30
0.0
  0
VERTEX
  5
1730
  8
3
 10
48.86608480940004
 20
18.95698135890007
 30
0.0
  0
VERTEX
  5
1731
  8
3
 10
49.14265239799988
 20
18.5304336004001
 30
0.0
  0
VERTEX
  5
1732
  8
3
 10
49.72176412559998
 20
17.92012786779992
 30
0.0
  0
VERTEX
  5
1733
  8
3
 10
50.26818473209983
 20
17.56652850890009
 30
0.0
  0
VERTEX
  5
1734
  8
3
 10
50.67919390999987
 20
17.45163047050005
 30
0.0
  0
VERTEX
  5
1735
  8
3
 10
51.10734941809983
 20
17.48632604020008
 30
0.0
  0
VERTEX
  5
1736
  8
3
 10
51.58999124549996
 20
17.7070722384999
 30
0.0
  0
VERTEX
  5
1737
  8
3
 10
52.22564794279992
 20
18.25376289580004
 30
0.0
  0
VERTEX
  5
1738
  8
3
 10
52.69764658179997
 20
18.89090156819998
 30
0.0
  0
VERTEX
  5
1739
  8
3
 10
52.8699924988
 20
19.2869193299
 30
0.0
  0
VERTEX
  5
173A
  8
3
 10
52.8864832841
 20
19.59468869760008
 30
0.0
  0
VERTEX
  5
173B
  8
3
 10
52.7590787263
 20
19.76227638890009
 30
0.0
  0
VERTEX
  5
173C
  8
3
 10
52.50128011749985
 20
19.82041345240009
 30
0.0
  0
VERTEX
  5
173D
  8
3
 10
51.95134506639988
 20
19.73947454009999
 30
0.0
  0
VERTEX
  5
173E
  8
3
 10
51.36685025010001
 20
19.60471322860008
 30
0.0
  0
VERTEX
  5
173F
  8
3
 10
50.94197040649988
 20
19.54925643399997
 30
0.0
  0
VERTEX
  5
1740
  8
3
 10
50.79999999999995
 20
19.54524208819998
 30
0.0
  0
SEQEND
  5
1B8A
  8
3
  0
POLYLINE
  5
DFF
  8
3
 66
     1
 10
0.0
 20
0.0
 30
0.0
  0
VERTEX
  5
1741
  8
3
 10
50.79999999999995
 20
53.51775779640002
 30
0.0
  0
VERTEX
  5
1742
  8
3
 10
51.55860749899989
 20
53.44685363729991
 30
0.0
  0
VERTEX
  5
1743
  8
3
 10
52.21476085170002
 20
53.24371715949997
 30
0.0
  0
VERTEX
  5
1744
  8
3
 10
52.67984291189987
 20
52.93578306990003
 30
0.0
  0
VERTEX
  5
1745
  8
3
 10
52.89104177019999
 20
52.56463957379992
 30
0.0
  0
VERTEX
  5
1746
  8
3
 10
52.81983385069998
 20
52.18041165680006
 30
0.0
  0
VERTEX
  5
1747
  8
3
 10
52.47583617729993
 20
51.83499142820006
 30
0.0
  0
VERTEX
  5
1748
  8
3
 10
51.90550754209994
 20
51.57502980389995
 30
0.0
  0
VERTEX
  5
1749
  8
3
 10
51.18587398739987
 20
51.43563604170004
 30
0.0
  0
VERTEX
  5
174A
  8
3
 10
50.41412601260004
 20
51.43563604170004
 30
0.0
  0
VERTEX
  5
174B
  8
3
 10
49.69449245800001
 20
51.57502980389995
 30
0.0
  0
VERTEX
  5
174C
  8
3
 10
49.12416382269998
 20
51.83499142820006
 30
0.0
  0
VERTEX
  5
174D
  8
3
 10
48.78016614939997
 20
52.18041165680006
 30
0.0
  0
VERTEX
  5
174E
  8
3
 10
48.70895822979992
 20
52.56463957379992
 30
0.0
  0
VERTEX
  5
174F
  8
3
 10
48.92015708819986
 20
52.93578306990003
 30
0.0
  0
VERTEX
  5
1750
  8
3
 10
49.38523914839993
 20
53.24371715949997
 30
0.0
  0
VERTEX
  5
1751
  8
3
 10
50.04139250100002
 20
53.44685363729991
 30
0.0
  0
VERTEX
  5
1752
  8
3
 10
50.79999999999995
 20
53.51775779640002
 30
0.0
  0
SEQEND
  5
1B89
  8
3
  0
POLYLINE
  5
E00
  8
3
 66
     1
 10
0.0
 20
0.0
 30
0.0
  0
VERTEX
  5
1753
  8
3
 10
50.79999999999995
 20
-51.41775779630007
 30
0.0
  0
VERTEX
  5
1754
  8
3
 10
51.55860749899989
 20
-51.48866195549999
 30
0.0
  0
VERTEX
  5
1755
  8
3
 10
52.21476085170002
 20
-51.69179843329994
 30
0.0
  0
VERTEX
  5
1756
  8
3
 10
52.67984291189987
 20
-51.99973252280006
 30
0.0
  0
VERTEX
  5
1757
  8
3
 10
52.89104177019999
 20
-52.37087601889993
 30
0.0
  0
VERTEX
  5
1758
  8
3
 10
52.81983385069998
 20
-52.75510393590002
 30
0.0
  0
VERTEX
  5
1759
  8
3
 10
52.47583617729993
 20
-53.10052416450003
 30
0.0
  0
VERTEX
  5
175A
  8
3
 10
51.90550754209994
 20
-53.36048578889995
 30
0.0
  0
VERTEX
  5
175B
  8
3
 10
51.18587398739987
 20
-53.49987955100005
 30
0.0
  0
VERTEX
  5
175C
  8
3
 10
50.41412601260004
 20
-53.49987955100005
 30
0.0
  0
VERTEX
  5
175D
  8
3
 10
49.69449245800001
 20
-53.36048578889995
 30
0.0
  0
VERTEX
  5
175E
  8
3
 10
49.12416382269998
 20
-53.10052416450003
 30
0.0
  0
VERTEX
  5
175F
  8
3
 10
48.78016614939997
 20
-52.75510393590002
 30
0.0
  0
VERTEX
  5
1760
  8
3
 10
48.70895822979992
 20
-52.37087601889993
 30
0.0
  0
VERTEX
  5
1761
  8
3
 10
48.92015708819986
 20
-51.99973252280006
 30
0.0
  0
VERTEX
  5
1762
  8
3
 10
49.38523914839993
 20
-51.69179843329994
 30
0.0
  0
VERTEX
  5
1763
  8
3
 10
50.04139250100002
 20
-51.48866195549999
 30
0.0
  0
VERTEX
  5
1764
  8
3
 10
50.79999999999995
 20
-51.41775779630007
 30
0.0
  0
SEQEND
  5
1B88
  8
3
  0
POLYLINE
  5
E01
  8
3
 66
     1
 10
0.0
 20
0.0
 30
0.0
  0
VERTEX
  5
1765
  8
3
 10
50.79999999999995
 20
-51.42844709049996
 30
0.0
  0
VERTEX
  5
1766
  8
3
 10
51.65233610669998
 20
-51.49956196070002
 30
0.0
  0
VERTEX
  5
1767
  8
3
 10
52.41230837080002
 20
-51.70520017190006
 30
0.0
  0
VERTEX
  5
1768
  8
3
 10
52.99756200549996
 20
-52.02307763289991
 30
0.0
  0
VERTEX
  5
1769
  8
3
 10
53.34467569809999
 20
-52.41874738859997
 30
0.0
  0
VERTEX
  5
176A
  8
3
 10
53.41603429420002
 20
-52.8493324814001
 30
0.0
  0
VERTEX
  5
176B
  8
3
 10
53.20390498250003
 20
-53.26817233530005
 30
0.0
  0
VERTEX
  5
176C
  8
3
 10
52.73127526550002
 20
-53.62987915319991
 30
0.0
  0
VERTEX
  5
176D
  8
3
 10
52.04936190679996
 20
-53.89525638889995
 30
0.0
  0
VERTEX
  5
176E
  8
3
 10
51.2320607995
 20
-54.03554630119993
 30
0.0
  0
VERTEX
  5
176F
  8
3
 10
50.3679392004999
 20
-54.03554630119993
 30
0.0
  0
VERTEX
  5
1770
  8
3
 10
49.55063809329999
 20
-53.89525638889995
 30
0.0
  0
VERTEX
  5
1771
  8
3
 10
48.86872473449989
 20
-53.62987915319991
 30
0.0
  0
VERTEX
  5
1772
  8
3
 10
48.39609501759992
 20
-53.26817233530005
 30
0.0
  0
VERTEX
  5
1773
  8
3
 10
48.18396570589994
 20
-52.8493324814001
 30
0.0
  0
VERTEX
  5
1774
  8
3
 10
48.25532430189992
 20
-52.41874738859997
 30
0.0
  0
VERTEX
  5
1775
  8
3
 10
48.6024379946
 20
-52.02307763289991
 30
0.0
  0
VERTEX
  5
1776
  8
3
 10
49.18769162919989
 20
-51.70520017190006
 30
0.0
  0
VERTEX
  5
1777
  8
3
 10
49.94766389339998
 20
-51.49956196070002
 30
0.0
  0
VERTEX
  5
1778
  8
3
 10
50.79999999999995
 20
-51.42844709049996
 30
0.0
  0
SEQEND
  5
1B87
  8
3
  0
POLYLINE
  5
E02
  8
3
 66
     1
 10
0.0
 20
0.0
 30
0.0
  0
VERTEX
  5
1779
  8
3
 10
50.79999999999995
 20
54.05344709049996
 30
0.0
  0
VERTEX
  5
177A
  8
3
 10
51.65233610669998
 20
53.98233222020008
 30
0.0
  0
VERTEX
  5
177B
  8
3
 10
52.41230837080002
 20
53.77669400910008
 30
0.0
  0
VERTEX
  5
177C
  8
3
 10
52.99756200549996
 20
53.45881654799996
 30
0.0
  0
VERTEX
  5
177D
  8
3
 10
53.34467569809999
 20
53.06314679239995
 30
0.0
  0
VERTEX
  5
177E
  8
3
 10
53.41603429420002
 20
52.63256169960005
 30
0.0
  0
VERTEX
  5
177F
  8
3
 10
53.20390498250003
 20
52.21372184560005
 30
0.0
  0
VERTEX
  5
1780
  8
3
 10
52.73127526550002
 20
51.85201502769996
 30
0.0
  0
VERTEX
  5
1781
  8
3
 10
52.04936190679996
 20
51.58663779199992
 30
0.0
  0
VERTEX
  5
1782
  8
3
 10
51.2320607995
 20
51.44634787979999
 30
0.0
  0
VERTEX
  5
1783
  8
3
 10
50.3679392004999
 20
51.44634787979999
 30
0.0
  0
VERTEX
  5
1784
  8
3
 10
49.55063809329999
 20
51.58663779199992
 30
0.0
  0
VERTEX
  5
1785
  8
3
 10
48.86872473449989
 20
51.85201502769996
 30
0.0
  0
VERTEX
  5
1786
  8
3
 10
48.39609501759992
 20
52.21372184560005
 30
0.0
  0
VERTEX
  5
1787
  8
3
 10
48.18396570589994
 20
52.63256169960005
 30
0.0
  0
VERTEX
  5
1788
  8
3
 10
48.25532430189992
 20
53.06314679239995
 30
0.0
  0
VERTEX
  5
1789
  8
3
 10
48.6024379946
 20
53.45881654799996
 30
0.0
  0
VERTEX
  5
178A
  8
3
 10
49.18769162919989
 20
53.77669400910008
 30
0.0
  0
VERTEX
  5
178B
  8
3
 10
49.94766389339998
 20
53.98233222020008
 30
0.0
  0
VERTEX
  5
178C
  8
3
 10
50.79999999999995
 20
54.05344709049996
 30
0.0
  0
SEQEND
  5
1B86
  8
3
  0
POLYLINE
  5
E03
  8
3
 66
     1
 10
0.0
 20
0.0
 30
0.0
  0
VERTEX
  5
178D
  8
3
 10
50.79999999999995
 20
46.39660537369991
 30
0.0
  0
VERTEX
  5
178E
  8
3
 10
50.13030399339982
 20
46.46321078269989
 30
0.0
  0
VERTEX
  5
178F
  8
3
 10
49.56256313289987
 20
46.65288694009996
 30
0.0
  0
VERTEX
  5
1790
  8
3
 10
49.18321081809995
 20
46.93675737040007
 30
0.0
  0
VERTEX
  5
1791
  8
3
 10
49.04999999999995
 20
47.27160537369991
 30
0.0
  0
VERTEX
  5
1792
  8
3
 10
49.18321081809995
 20
47.60645337699998
 30
0.0
  0
VERTEX
  5
1793
  8
3
 10
49.56256313289987
 20
47.89032380720005
 30
0.0
  0
VERTEX
  5
1794
  8
3
 10
50.13030399339982
 20
48.07999996459989
 30
0.0
  0
VERTEX
  5
1795
  8
3
 10
50.79999999999995
 20
48.14660537369991
 30
0.0
  0
VERTEX
  5
1796
  8
3
 10
51.46969600669991
 20
48.07999996459989
 30
0.0
  0
VERTEX
  5
1797
  8
3
 10
52.03743686709981
 20
47.89032380720005
 30
0.0
  0
VERTEX
  5
1798
  8
3
 10
52.41678918189996
 20
47.60645337699998
 30
0.0
  0
VERTEX
  5
1799
  8
3
 10
52.54999999999995
 20
47.27160537369991
 30
0.0
  0
VERTEX
  5
179A
  8
3
 10
52.41678918189996
 20
46.93675737040007
 30
0.0
  0
VERTEX
  5
179B
  8
3
 10
52.03743686709981
 20
46.65288694009996
 30
0.0
  0
VERTEX
  5
179C
  8
3
 10
51.46969600669991
 20
46.46321078269989
 30
0.0
  0
VERTEX
  5
179D
  8
3
 10
50.79999999999995
 20
46.39660537369991
 30
0.0
  0
SEQEND
  5
1B85
  8
3
  0
POLYLINE
  5
E04
  8
3
 66
     1
 10
0.0
 20
0.0
 30
0.0
  0
VERTEX
  5
179E
  8
3
 10
48.4832672565999
 20
47.76241032670009
 30
0.0
  0
VERTEX
  5
179F
  8
3
 10
48.62298333669992
 20
48.1585949590999
 30
0.0
  0
VERTEX
  5
17A0
  8
3
 10
49.02527975570001
 20
48.50699387789996
 30
0.0
  0
VERTEX
  5
17A1
  8
3
 10
49.64163362829981
 20
48.7655850315
 30
0.0
  0
VERTEX
  5
17A2
  8
3
 10
50.39770358099986
 20
48.90317851040004
 30
0.0
  0
VERTEX
  5
17A3
  8
3
 10
51.20229641909987
 20
48.90317851040004
 30
0.0
  0
VERTEX
  5
17A4
  8
3
 10
51.95836637169987
 20
48.7655850315
 30
0.0
  0
VERTEX
  5
17A5
  8
3
 10
52.5747202442999
 20
48.50699387789996
 30
0.0
  0
VERTEX
  5
17A6
  8
3
 10
52.97701666340004
 20
48.1585949590999
 30
0.0
  0
VERTEX
  5
17A7
  8
3
 10
53.11673274349982
 20
47.76241032670009
 30
0.0
  0
VERTEX
  5
17A8
  8
3
 10
52.97701666340004
 20
47.36622569420001
 30
0.0
  0
VERTEX
  5
17A9
  8
3
 10
52.5747202442999
 20
47.01782677539995
 30
0.0
  0
VERTEX
  5
17AA
  8
3
 10
51.95836637169987
 20
46.75923562189996
 30
0.0
  0
VERTEX
  5
17AB
  8
3
 10
51.20229641909987
 20
46.62164214299992
 30
0.0
  0
VERTEX
  5
17AC
  8
3
 10
50.39770358099986
 20
46.62164214299992
 30
0.0
  0
VERTEX
  5
17AD
  8
3
 10
49.64163362829981
 20
46.75923562189996
 30
0.0
  0
VERTEX
  5
17AE
  8
3
 10
49.02527975570001
 20
47.01782677539995
 30
0.0
  0
VERTEX
  5
17AF
  8
3
 10
48.62298333669992
 20
47.36622569420001
 30
0.0
  0
VERTEX
  5
17B0
  8
3
 10
48.4832672565999
 20
47.76241032670009
 30
0.0
  0
SEQEND
  5
1B84
  8
3
  0
POLYLINE
  5
E05
  8
3
 66
     1
 10
0.0
 20
0.0
 30
0.0
  0
VERTEX
  5
17B1
  8
3
 10
52.85500000000002
 20
47.92112441209997
 30
0.0
  0
VERTEX
  5
17B2
  8
3
 10
52.71623043139994
 20
47.54994860009992
 30
0.0
  0
VERTEX
  5
17B3
  8
3
 10
52.31866332489994
 20
47.2289021383001
 30
0.0
  0
VERTEX
  5
17B4
  8
3
 10
51.71599232109998
 20
47.00134413029991
 30
0.0
  0
VERTEX
  5
17B5
  8
3
 10
50.9896114787
 20
46.89800754599992
 30
0.0
  0
VERTEX
  5
17B6
  8
3
 10
50.23762255539987
 20
46.93284856380001
 30
0.0
  0
VERTEX
  5
17B7
  8
3
 10
49.5615858223
 20
47.10116171110008
 30
0.0
  0
VERTEX
  5
17B8
  8
3
 10
49.05280378609996
 20
47.38021536480005
 30
0.0
  0
VERTEX
  5
17B9
  8
3
 10
48.77999028019985
 20
47.73232178259991
 30
0.0
  0
VERTEX
  5
17BA
  8
3
 10
48.77999028019985
 20
48.10992704170008
 30
0.0
  0
VERTEX
  5
17BB
  8
3
 10
49.05280378609996
 20
48.46203345949993
 30
0.0
  0
VERTEX
  5
17BC
  8
3
 10
49.5615858223
 20
48.74108711319991
 30
0.0
  0
VERTEX
  5
17BD
  8
3
 10
50.23762255539987
 20
48.90940026049998
 30
0.0
  0
VERTEX
  5
17BE
  8
3
 10
50.9896114787
 20
48.94424127830007
 30
0.0
  0
VERTEX
  5
17BF
  8
3
 10
51.71599232109998
 20
48.84090469400007
 30
0.0
  0
VERTEX
  5
17C0
  8
3
 10
52.31866332489994
 20
48.61334668599989
 30
0.0
  0
VERTEX
  5
17C1
  8
3
 10
52.71623043139994
 20
48.29230022420006
 30
0.0
  0
VERTEX
  5
17C2
  8
3
 10
52.85500000000002
 20
47.92112441209997
 30
0.0
  0
SEQEND
  5
1B83
  8
3
  0
POLYLINE
  5
E06
  8
3
 66
     1
 10
0.0
 20
0.0
 30
0.0
  0
VERTEX
  5
17C3
  8
3
 10
53.29999999999995
 20
48.19097130680007
 30
0.0
  0
VERTEX
  5
17C4
  8
3
 10
53.14923155199995
 20
47.76344612759999
 30
0.0
  0
VERTEX
  5
17C5
  8
3
 10
52.71511110779988
 20
47.38748679469995
 30
0.0
  0
VERTEX
  5
17C6
  8
3
 10
52.04999999999995
 20
47.10843955199994
 30
0.0
  0
VERTEX
  5
17C7
  8
3
 10
51.23412044420002
 20
46.95996161550011
 30
0.0
  0
VERTEX
  5
17C8
  8
3
 10
50.36587955579989
 20
46.95996161550011
 30
0.0
  0
VERTEX
  5
17C9
  8
3
 10
49.54999999999995
 20
47.10843955199994
 30
0.0
  0
VERTEX
  5
17CA
  8
3
 10
48.88488889220002
 20
47.38748679469995
 30
0.0
  0
VERTEX
  5
17CB
  8
3
 10
48.45076844799996
 20
47.76344612759999
 30
0.0
  0
VERTEX
  5
17CC
  8
3
 10
48.29999999999995
 20
48.19097130680007
 30
0.0
  0
VERTEX
  5
17CD
  8
3
 10
48.45076844799996
 20
48.6184964859001
 30
0.0
  0
VERTEX
  5
17CE
  8
3
 10
48.88488889220002
 20
48.99445581889995
 30
0.0
  0
VERTEX
  5
17CF
  8
3
 10
49.54999999999995
 20
49.27350306149992
 30
0.0
  0
VERTEX
  5
17D0
  8
3
 10
50.36587955579989
 20
49.42198099799998
 30
0.0
  0
VERTEX
  5
17D1
  8
3
 10
51.23412044420002
 20
49.42198099799998
 30
0.0
  0
VERTEX
  5
17D2
  8
3
 10
52.04999999999995
 20
49.27350306149992
 30
0.0
  0
VERTEX
  5
17D3
  8
3
 10
52.71511110779988
 20
48.99445581889995
 30
0.0
  0
VERTEX
  5
17D4
  8
3
 10
53.14923155199995
 20
48.6184964859001
 30
0.0
  0
VERTEX
  5
17D5
  8
3
 10
53.29999999999995
 20
48.19097130680007
 30
0.0
  0
SEQEND
  5
1B82
  8
3
  0
POLYLINE
  5
E07
  8
3
 66
     1
 10
0.0
 20
0.0
 30
0.0
  0
VERTEX
  5
17D6
  8
3
 10
53.29999999999995
 20
48.26901085810005
 30
0.0
  0
VERTEX
  5
17D7
  8
3
 10
53.14923155199995
 20
47.84148567900002
 30
0.0
  0
VERTEX
  5
17D8
  8
3
 10
52.71511110779988
 20
47.46552634599993
 30
0.0
  0
VERTEX
  5
17D9
  8
3
 10
52.04999999999995
 20
47.18647910339996
 30
0.0
  0
VERTEX
  5
17DA
  8
3
 10
51.23412044420002
 20
47.0380011668999
 30
0.0
  0
VERTEX
  5
17DB
  8
3
 10
50.36587955579989
 20
47.0380011668999
 30
0.0
  0
VERTEX
  5
17DC
  8
3
 10
49.54999999999995
 20
47.18647910339996
 30
0.0
  0
VERTEX
  5
17DD
  8
3
 10
48.88488889220002
 20
47.46552634599993
 30
0.0
  0
VERTEX
  5
17DE
  8
3
 10
48.45076844799996
 20
47.84148567900002
 30
0.0
  0
VERTEX
  5
17DF
  8
3
 10
48.29999999999995
 20
48.26901085810005
 30
0.0
  0
VERTEX
  5
17E0
  8
3
 10
48.45076844799996
 20
48.69653603729989
 30
0.0
  0
VERTEX
  5
17E1
  8
3
 10
48.88488889220002
 20
49.07249537019993
 30
0.0
  0
VERTEX
  5
17E2
  8
3
 10
49.54999999999995
 20
49.35154261289995
 30
0.0
  0
VERTEX
  5
17E3
  8
3
 10
50.36587955579989
 20
49.50002054940001
 30
0.0
  0
VERTEX
  5
17E4
  8
3
 10
51.23412044420002
 20
49.50002054940001
 30
0.0
  0
VERTEX
  5
17E5
  8
3
 10
52.04999999999995
 20
49.35154261289995
 30
0.0
  0
VERTEX
  5
17E6
  8
3
 10
52.71511110779988
 20
49.07249537019993
 30
0.0
  0
VERTEX
  5
17E7
  8
3
 10
53.14923155199995
 20
48.69653603729989
 30
0.0
  0
VERTEX
  5
17E8
  8
3
 10
53.29999999999995
 20
48.26901085810005
 30
0.0
  0
SEQEND
  5
1B81
  8
3
  0
POLYLINE
  5
E08
  8
3
 66
     1
 10
0.0
 20
0.0
 30
0.0
  0
VERTEX
  5
17E9
  8
3
 10
52.85500000000002
 20
48.53885775279991
 30
0.0
  0
VERTEX
  5
17EA
  8
3
 10
52.71623043139994
 20
48.16768194070005
 30
0.0
  0
VERTEX
  5
17EB
  8
3
 10
52.31866332489994
 20
47.8466354789
 30
0.0
  0
VERTEX
  5
17EC
  8
3
 10
51.71599232109998
 20
47.61907747090004
 30
0.0
  0
VERTEX
  5
17ED
  8
3
 10
50.9896114787
 20
47.51574088660004
 30
0.0
  0
VERTEX
  5
17EE
  8
3
 10
50.23762255539987
 20
47.55058190439991
 30
0.0
  0
VERTEX
  5
17EF
  8
3
 10
49.56158582219996
 20
47.71889505169997
 30
0.0
  0
VERTEX
  5
17F0
  8
3
 10
49.05280378609996
 20
47.99794870539995
 30
0.0
  0
VERTEX
  5
17F1
  8
3
 10
48.77999028010004
 20
48.35005512320004
 30
0.0
  0
VERTEX
  5
17F2
  8
3
 10
48.77999028010004
 20
48.72766038229997
 30
0.0
  0
VERTEX
  5
17F3
  8
3
 10
49.05280378609996
 20
49.07976680010006
 30
0.0
  0
VERTEX
  5
17F4
  8
3
 10
49.56158582219996
 20
49.35882045380004
 30
0.0
  0
VERTEX
  5
17F5
  8
3
 10
50.23762255539987
 20
49.5271336011001
 30
0.0
  0
VERTEX
  5
17F6
  8
3
 10
50.9896114787
 20
49.56197461889997
 30
0.0
  0
VERTEX
  5
17F7
  8
3
 10
51.71599232109998
 20
49.45863803459997
 30
0.0
  0
VERTEX
  5
17F8
  8
3
 10
52.31866332489994
 20
49.23108002660001
 30
0.0
  0
VERTEX
  5
17F9
  8
3
 10
52.71623043139994
 20
48.91003356479996
 30
0.0
  0
VERTEX
  5
17FA
  8
3
 10
52.85500000000002
 20
48.53885775279991
 30
0.0
  0
SEQEND
  5
1B80
  8
3
  0
POLYLINE
  5
E09
  8
3
 66
     1
 10
0.0
 20
0.0
 30
0.0
  0
VERTEX
  5
17FB
  8
3
 10
53.29999999999995
 20
48.80870464739996
 30
0.0
  0
VERTEX
  5
17FC
  8
3
 10
53.14923155199995
 20
48.38117946819989
 30
0.0
  0
VERTEX
  5
17FD
  8
3
 10
52.71511110779988
 20
48.00522013530008
 30
0.0
  0
VERTEX
  5
17FE
  8
3
 10
52.04999999999995
 20
47.72617289260006
 30
0.0
  0
VERTEX
  5
17FF
  8
3
 10
51.23412044420002
 20
47.5776949561
 30
0.0
  0
VERTEX
  5
1800
  8
3
 10
50.36587955579989
 20
47.5776949561
 30
0.0
  0
VERTEX
  5
1801
  8
3
 10
49.54999999999995
 20
47.72617289260006
 30
0.0
  0
VERTEX
  5
1802
  8
3
 10
48.88488889220002
 20
48.00522013530008
 30
0.0
  0
VERTEX
  5
1803
  8
3
 10
48.45076844799996
 20
48.38117946819989
 30
0.0
  0
VERTEX
  5
1804
  8
3
 10
48.29999999999995
 20
48.80870464739996
 30
0.0
  0
VERTEX
  5
1805
  8
3
 10
48.45076844799996
 20
49.23622982649999
 30
0.0
  0
VERTEX
  5
1806
  8
3
 10
48.88488889220002
 20
49.61218915950008
 30
0.0
  0
VERTEX
  5
1807
  8
3
 10
49.54999999999995
 20
49.89123640210005
 30
0.0
  0
VERTEX
  5
1808
  8
3
 10
50.36587955579989
 20
50.03971433860011
 30
0.0
  0
VERTEX
  5
1809
  8
3
 10
51.23412044420002
 20
50.03971433860011
 30
0.0
  0
VERTEX
  5
180A
  8
3
 10
52.04999999999995
 20
49.89123640210005
 30
0.0
  0
VERTEX
  5
180B
  8
3
 10
52.71511110779988
 20
49.61218915950008
 30
0.0
  0
VERTEX
  5
180C
  8
3
 10
53.14923155199995
 20
49.23622982649999
 30
0.0
  0
VERTEX
  5
180D
  8
3
 10
53.29999999999995
 20
48.80870464739996
 30
0.0
  0
SEQEND
  5
1B7F
  8
3
  0
POLYLINE
  5
E0A
  8
3
 66
     1
 10
0.0
 20
0.0
 30
0.0
  0
VERTEX
  5
180E
  8
3
 10
53.29999999999995
 20
48.88674419869994
 30
0.0
  0
VERTEX
  5
180F
  8
3
 10
53.14923155199995
 20
48.45921901959991
 30
0.0
  0
VERTEX
  5
1810
  8
3
 10
52.71511110779988
 20
48.08325968660006
 30
0.0
  0
VERTEX
  5
1811
  8
3
 10
52.04999999999995
 20
47.80421244400009
 30
0.0
  0
VERTEX
  5
1812
  8
3
 10
51.23412044420002
 20
47.65573450750003
 30
0.0
  0
VERTEX
  5
1813
  8
3
 10
50.36587955579989
 20
47.65573450750003
 30
0.0
  0
VERTEX
  5
1814
  8
3
 10
49.54999999999995
 20
47.80421244400009
 30
0.0
  0
VERTEX
  5
1815
  8
3
 10
48.88488889220002
 20
48.08325968660006
 30
0.0
  0
VERTEX
  5
1816
  8
3
 10
48.45076844799996
 20
48.45921901959991
 30
0.0
  0
VERTEX
  5
1817
  8
3
 10
48.29999999999995
 20
48.88674419869994
 30
0.0
  0
VERTEX
  5
1818
  8
3
 10
48.45076844799996
 20
49.31426937790002
 30
0.0
  0
VERTEX
  5
1819
  8
3
 10
48.88488889220002
 20
49.69022871080006
 30
0.0
  0
VERTEX
  5
181A
  8
3
 10
49.54999999999995
 20
49.96927595350007
 30
0.0
  0
VERTEX
  5
181B
  8
3
 10
50.36587955579989
 20
50.1177538899999
 30
0.0
  0
VERTEX
  5
181C
  8
3
 10
51.23412044420002
 20
50.1177538899999
 30
0.0
  0
VERTEX
  5
181D
  8
3
 10
52.04999999999995
 20
49.96927595350007
 30
0.0
  0
VERTEX
  5
181E
  8
3
 10
52.71511110779988
 20
49.69022871080006
 30
0.0
  0
VERTEX
  5
181F
  8
3
 10
53.14923155199995
 20
49.31426937790002
 30
0.0
  0
VERTEX
  5
1820
  8
3
 10
53.29999999999995
 20
48.88674419869994
 30
0.0
  0
SEQEND
  5
1B7E
  8
3
  0
POLYLINE
  5
E0B
  8
3
 66
     1
 10
0.0
 20
0.0
 30
0.0
  0
VERTEX
  5
1821
  8
3
 10
52.85500000000002
 20
49.15659109340004
 30
0.0
  0
VERTEX
  5
1822
  8
3
 10
52.71623043139994
 20
48.78541528129995
 30
0.0
  0
VERTEX
  5
1823
  8
3
 10
52.31866332489994
 20
48.4643688194999
 30
0.0
  0
VERTEX
  5
1824
  8
3
 10
51.71599232109998
 20
48.23681081149994
 30
0.0
  0
VERTEX
  5
1825
  8
3
 10
50.9896114787
 20
48.13347422719994
 30
0.0
  0
VERTEX
  5
1826
  8
3
 10
50.23762255539987
 20
48.16831524500003
 30
0.0
  0
VERTEX
  5
1827
  8
3
 10
49.56158582219996
 20
48.3366283923001
 30
0.0
  0
VERTEX
  5
1828
  8
3
 10
49.05280378609996
 20
48.61568204600007
 30
0.0
  0
VERTEX
  5
1829
  8
3
 10
48.77999028010004
 20
48.96778846379993
 30
0.0
  0
VERTEX
  5
182A
  8
3
 10
48.77999028010004
 20
49.3453937229001
 30
0.0
  0
VERTEX
  5
182B
  8
3
 10
49.05280378609996
 20
49.69750014069996
 30
0.0
  0
VERTEX
  5
182C
  8
3
 10
49.56158582219996
 20
49.97655379439993
 30
0.0
  0
VERTEX
  5
182D
  8
3
 10
50.23762255539987
 20
50.1448669417
 30
0.0
  0
VERTEX
  5
182E
  8
3
 10
50.9896114787
 20
50.17970795950009
 30
0.0
  0
VERTEX
  5
182F
  8
3
 10
51.71599232109998
 20
50.0763713752001
 30
0.0
  0
VERTEX
  5
1830
  8
3
 10
52.31866332489994
 20
49.84881336719991
 30
0.0
  0
VERTEX
  5
1831
  8
3
 10
52.71623043139994
 20
49.52776690540009
 30
0.0
  0
VERTEX
  5
1832
  8
3
 10
52.85500000000002
 20
49.15659109340004
 30
0.0
  0
SEQEND
  5
1B7D
  8
3
  0
POLYLINE
  5
E0C
  8
3
 66
     1
 10
0.0
 20
0.0
 30
0.0
  0
VERTEX
  5
1833
  8
3
 10
53.29999999999995
 20
49.42643798800009
 30
0.0
  0
VERTEX
  5
1834
  8
3
 10
53.14923155199995
 20
48.99891280880001
 30
0.0
  0
VERTEX
  5
1835
  8
3
 10
52.71511110779988
 20
48.62295347589998
 30
0.0
  0
VERTEX
  5
1836
  8
3
 10
52.04999999999995
 20
48.3439062333
 30
0.0
  0
VERTEX
  5
1837
  8
3
 10
51.23412044420002
 20
48.1954282966999
 30
0.0
  0
VERTEX
  5
1838
  8
3
 10
50.36587955579989
 20
48.1954282966999
 30
0.0
  0
VERTEX
  5
1839
  8
3
 10
49.54999999999995
 20
48.3439062333
 30
0.0
  0
VERTEX
  5
183A
  8
3
 10
48.88488889220002
 20
48.62295347589998
 30
0.0
  0
VERTEX
  5
183B
  8
3
 10
48.45076844799996
 20
48.99891280880001
 30
0.0
  0
VERTEX
  5
183C
  8
3
 10
48.29999999999995
 20
49.42643798800009
 30
0.0
  0
VERTEX
  5
183D
  8
3
 10
48.45076844799996
 20
49.85396316709989
 30
0.0
  0
VERTEX
  5
183E
  8
3
 10
48.88488889220002
 20
50.22992250009997
 30
0.0
  0
VERTEX
  5
183F
  8
3
 10
49.54999999999995
 20
50.50896974269995
 30
0.0
  0
VERTEX
  5
1840
  8
3
 10
50.36587955579989
 20
50.6574476792
 30
0.0
  0
VERTEX
  5
1841
  8
3
 10
51.23412044420002
 20
50.6574476792
 30
0.0
  0
VERTEX
  5
1842
  8
3
 10
52.04999999999995
 20
50.50896974269995
 30
0.0
  0
VERTEX
  5
1843
  8
3
 10
52.71511110779988
 20
50.22992250009997
 30
0.0
  0
VERTEX
  5
1844
  8
3
 10
53.14923155199995
 20
49.85396316709989
 30
0.0
  0
VERTEX
  5
1845
  8
3
 10
53.29999999999995
 20
49.42643798800009
 30
0.0
  0
SEQEND
  5
1B7C
  8
3
  0
POLYLINE
  5
E0D
  8
3
 66
     1
 10
0.0
 20
0.0
 30
0.0
  0
VERTEX
  5
1846
  8
3
 10
53.29999999999995
 20
49.50447753930007
 30
0.0
  0
VERTEX
  5
1847
  8
3
 10
53.14923155199995
 20
49.07695236020004
 30
0.0
  0
VERTEX
  5
1848
  8
3
 10
52.71511110779988
 20
48.70099302719996
 30
0.0
  0
VERTEX
  5
1849
  8
3
 10
52.04999999999995
 20
48.42194578459998
 30
0.0
  0
VERTEX
  5
184A
  8
3
 10
51.23412044420002
 20
48.27346784809993
 30
0.0
  0
VERTEX
  5
184B
  8
3
 10
50.36587955579989
 20
48.27346784809993
 30
0.0
  0
VERTEX
  5
184C
  8
3
 10
49.54999999999995
 20
48.42194578459998
 30
0.0
  0
VERTEX
  5
184D
  8
3
 10
48.88488889220002
 20
48.70099302719996
 30
0.0
  0
VERTEX
  5
184E
  8
3
 10
48.45076844799996
 20
49.07695236020004
 30
0.0
  0
VERTEX
  5
184F
  8
3
 10
48.29999999999995
 20
49.50447753930007
 30
0.0
  0
VERTEX
  5
1850
  8
3
 10
48.45076844799996
 20
49.93200271849992
 30
0.0
  0
VERTEX
  5
1851
  8
3
 10
48.88488889220002
 20
50.30796205139995
 30
0.0
  0
VERTEX
  5
1852
  8
3
 10
49.54999999999995
 20
50.58700929409997
 30
0.0
  0
VERTEX
  5
1853
  8
3
 10
50.36587955579989
 20
50.73548723060003
 30
0.0
  0
VERTEX
  5
1854
  8
3
 10
51.23412044420002
 20
50.73548723060003
 30
0.0
  0
VERTEX
  5
1855
  8
3
 10
52.04999999999995
 20
50.58700929409997
 30
0.0
  0
VERTEX
  5
1856
  8
3
 10
52.71511110779988
 20
50.30796205139995
 30
0.0
  0
VERTEX
  5
1857
  8
3
 10
53.14923155199995
 20
49.93200271849992
 30
0.0
  0
VERTEX
  5
1858
  8
3
 10
53.29999999999995
 20
49.50447753930007
 30
0.0
  0
SEQEND
  5
1B7B
  8
3
  0
POLYLINE
  5
E0E
  8
3
 66
     1
 10
0.0
 20
0.0
 30
0.0
  0
VERTEX
  5
1859
  8
3
 10
52.85500000000002
 20
49.77432443399994
 30
0.0
  0
VERTEX
  5
185A
  8
3
 10
52.71623043139994
 20
49.40314862199989
 30
0.0
  0
VERTEX
  5
185B
  8
3
 10
52.31866332489994
 20
49.08210216010002
 30
0.0
  0
VERTEX
  5
185C
  8
3
 10
51.71599232109998
 20
48.85454415210006
 30
0.0
  0
VERTEX
  5
185D
  8
3
 10
50.9896114787
 20
48.75120756780007
 30
0.0
  0
VERTEX
  5
185E
  8
3
 10
50.23762255539987
 20
48.78604858559993
 30
0.0
  0
VERTEX
  5
185F
  8
3
 10
49.5615858223
 20
48.9543617329
 30
0.0
  0
VERTEX
  5
1860
  8
3
 10
49.05280378609996
 20
49.23341538659997
 30
0.0
  0
VERTEX
  5
1861
  8
3
 10
48.77999028019985
 20
49.58552180440006
 30
0.0
  0
VERTEX
  5
1862
  8
3
 10
48.77999028019985
 20
49.9631270635
 30
0.0
  0
VERTEX
  5
1863
  8
3
 10
49.05280378609996
 20
50.31523348130008
 30
0.0
  0
VERTEX
  5
1864
  8
3
 10
49.5615858223
 20
50.59428713500006
 30
0.0
  0
VERTEX
  5
1865
  8
3
 10
50.23762255539987
 20
50.7626002822999
 30
0.0
  0
VERTEX
  5
1866
  8
3
 10
50.9896114787
 20
50.79744130009999
 30
0.0
  0
VERTEX
  5
1867
  8
3
 10
51.71599232109998
 20
50.69410471579999
 30
0.0
  0
VERTEX
  5
1868
  8
3
 10
52.31866332489994
 20
50.46654670780003
 30
0.0
  0
VERTEX
  5
1869
  8
3
 10
52.71623043139994
 20
50.14550024599998
 30
0.0
  0
VERTEX
  5
186A
  8
3
 10
52.85500000000002
 20
49.77432443399994
 30
0.0
  0
SEQEND
  5
1B7A
  8
3
  0
POLYLINE
  5
E0F
  8
3
 66
     1
 10
0.0
 20
0.0
 30
0.0
  0
VERTEX
  5
186B
  8
3
 10
53.29999999999995
 20
50.04417132859999
 30
0.0
  0
VERTEX
  5
186C
  8
3
 10
53.14923155199995
 20
49.61664614939991
 30
0.0
  0
VERTEX
  5
186D
  8
3
 10
52.71511110779988
 20
49.2406868165001
 30
0.0
  0
VERTEX
  5
186E
  8
3
 10
52.04999999999995
 20
48.9616395738999
 30
0.0
  0
VERTEX
  5
186F
  8
3
 10
51.23412044420002
 20
48.81316163730003
 30
0.0
  0
VERTEX
  5
1870
  8
3
 10
50.36587955579989
 20
48.81316163730003
 30
0.0
  0
VERTEX
  5
1871
  8
3
 10
49.54999999999995
 20
48.9616395738999
 30
0.0
  0
VERTEX
  5
1872
  8
3
 10
48.88488889220002
 20
49.2406868165001
 30
0.0
  0
VERTEX
  5
1873
  8
3
 10
48.45076844810001
 20
49.61664614939991
 30
0.0
  0
VERTEX
  5
1874
  8
3
 10
48.29999999999995
 20
50.04417132859999
 30
0.0
  0
VERTEX
  5
1875
  8
3
 10
48.45076844810001
 20
50.47169650770002
 30
0.0
  0
VERTEX
  5
1876
  8
3
 10
48.88488889220002
 20
50.8476558407001
 30
0.0
  0
VERTEX
  5
1877
  8
3
 10
49.54999999999995
 20
51.12670308330007
 30
0.0
  0
VERTEX
  5
1878
  8
3
 10
50.36587955579989
 20
51.27518101989995
 30
0.0
  0
VERTEX
  5
1879
  8
3
 10
51.23412044420002
 20
51.27518101989995
 30
0.0
  0
VERTEX
  5
187A
  8
3
 10
52.04999999999995
 20
51.12670308330007
 30
0.0
  0
VERTEX
  5
187B
  8
3
 10
52.71511110779988
 20
50.8476558407001
 30
0.0
  0
VERTEX
  5
187C
  8
3
 10
53.14923155199995
 20
50.47169650770002
 30
0.0
  0
VERTEX
  5
187D
  8
3
 10
53.29999999999995
 20
50.04417132859999
 30
0.0
  0
SEQEND
  5
1B79
  8
3
  0
POLYLINE
  5
E10
  8
3
 66
     1
 10
0.0
 20
0.0
 30
0.0
  0
VERTEX
  5
187E
  8
3
 10
53.29999999999995
 20
50.12221087989997
 30
0.0
  0
VERTEX
  5
187F
  8
3
 10
53.14923155199995
 20
49.69468570079994
 30
0.0
  0
VERTEX
  5
1880
  8
3
 10
52.71511110779988
 20
49.31872636780008
 30
0.0
  0
VERTEX
  5
1881
  8
3
 10
52.04999999999995
 20
49.03967912520011
 30
0.0
  0
VERTEX
  5
1882
  8
3
 10
51.23412044420002
 20
48.89120118870005
 30
0.0
  0
VERTEX
  5
1883
  8
3
 10
50.36587955579989
 20
48.89120118870005
 30
0.0
  0
VERTEX
  5
1884
  8
3
 10
49.54999999999995
 20
49.03967912520011
 30
0.0
  0
VERTEX
  5
1885
  8
3
 10
48.88488889220002
 20
49.31872636780008
 30
0.0
  0
VERTEX
  5
1886
  8
3
 10
48.45076844810001
 20
49.69468570079994
 30
0.0
  0
VERTEX
  5
1887
  8
3
 10
48.29999999999995
 20
50.12221087989997
 30
0.0
  0
VERTEX
  5
1888
  8
3
 10
48.45076844810001
 20
50.54973605910004
 30
0.0
  0
VERTEX
  5
1889
  8
3
 10
48.88488889220002
 20
50.9256953920999
 30
0.0
  0
VERTEX
  5
188A
  8
3
 10
49.54999999999995
 20
51.2047426347001
 30
0.0
  0
VERTEX
  5
188B
  8
3
 10
50.36587955579989
 20
51.35322057119993
 30
0.0
  0
VERTEX
  5
188C
  8
3
 10
51.23412044420002
 20
51.35322057119993
 30
0.0
  0
VERTEX
  5
188D
  8
3
 10
52.04999999999995
 20
51.2047426347001
 30
0.0
  0
VERTEX
  5
188E
  8
3
 10
52.71511110779988
 20
50.9256953920999
 30
0.0
  0
VERTEX
  5
188F
  8
3
 10
53.14923155199995
 20
50.54973605910004
 30
0.0
  0
VERTEX
  5
1890
  8
3
 10
53.29999999999995
 20
50.12221087989997
 30
0.0
  0
SEQEND
  5
1B78
  8
3
  0
POLYLINE
  5
E11
  8
3
 66
     1
 10
0.0
 20
0.0
 30
0.0
  0
VERTEX
  5
1891
  8
3
 10
52.85500000000002
 20
50.39205777460006
 30
0.0
  0
VERTEX
  5
1892
  8
3
 10
52.71623043139994
 20
50.02088196260001
 30
0.0
  0
VERTEX
  5
1893
  8
3
 10
52.31866332489994
 20
49.69983550069992
 30
0.0
  0
VERTEX
  5
1894
  8
3
 10
51.71599232109998
 20
49.47227749269996
 30
0.0
  0
VERTEX
  5
1895
  8
3
 10
50.9896114787
 20
49.36894090839996
 30
0.0
  0
VERTEX
  5
1896
  8
3
 10
50.23762255539987
 20
49.40378192620005
 30
0.0
  0
VERTEX
  5
1897
  8
3
 10
49.5615858223
 20
49.5720950734999
 30
0.0
  0
VERTEX
  5
1898
  8
3
 10
49.05280378609996
 20
49.8511487272001
 30
0.0
  0
VERTEX
  5
1899
  8
3
 10
48.77999028019985
 20
50.20325514499996
 30
0.0
  0
VERTEX
  5
189A
  8
3
 10
48.77999028019985
 20
50.58086040409989
 30
0.0
  0
VERTEX
  5
189B
  8
3
 10
49.05280378609996
 20
50.93296682189998
 30
0.0
  0
VERTEX
  5
189C
  8
3
 10
49.5615858223
 20
51.21202047559996
 30
0.0
  0
VERTEX
  5
189D
  8
3
 10
50.23762255539987
 20
51.38033362290003
 30
0.0
  0
VERTEX
  5
189E
  8
3
 10
50.9896114787
 20
51.41517464069989
 30
0.0
  0
VERTEX
  5
189F
  8
3
 10
51.71599232109998
 20
51.31183805639989
 30
0.0
  0
VERTEX
  5
18A0
  8
3
 10
52.31866332489994
 20
51.08428004839993
 30
0.0
  0
VERTEX
  5
18A1
  8
3
 10
52.71623043139994
 20
50.76323358660011
 30
0.0
  0
VERTEX
  5
18A2
  8
3
 10
52.85500000000002
 20
50.39205777460006
 30
0.0
  0
SEQEND
  5
1B77
  8
3
  0
POLYLINE
  5
E12
  8
3
 66
     1
 10
0.0
 20
0.0
 30
0.0
  0
VERTEX
  5
18A3
  8
3
 10
53.29999999999995
 20
50.66190466919988
 30
0.0
  0
VERTEX
  5
18A4
  8
3
 10
53.14923155199995
 20
50.23437949000004
 30
0.0
  0
VERTEX
  5
18A5
  8
3
 10
52.71511110779988
 20
49.8584201571
 30
0.0
  0
VERTEX
  5
18A6
  8
3
 10
52.04999999999995
 20
49.57937291450003
 30
0.0
  0
VERTEX
  5
18A7
  8
3
 10
51.23412044420002
 20
49.43089497789992
 30
0.0
  0
VERTEX
  5
18A8
  8
3
 10
50.36587955589994
 20
49.43089497789992
 30
0.0
  0
VERTEX
  5
18A9
  8
3
 10
49.54999999999995
 20
49.57937291450003
 30
0.0
  0
VERTEX
  5
18AA
  8
3
 10
48.88488889220002
 20
49.8584201571
 30
0.0
  0
VERTEX
  5
18AB
  8
3
 10
48.45076844810001
 20
50.23437949000004
 30
0.0
  0
VERTEX
  5
18AC
  8
3
 10
48.29999999999995
 20
50.66190466919988
 30
0.0
  0
VERTEX
  5
18AD
  8
3
 10
48.45076844810001
 20
51.08942984829991
 30
0.0
  0
VERTEX
  5
18AE
  8
3
 10
48.88488889220002
 20
51.4653891813
 30
0.0
  0
VERTEX
  5
18AF
  8
3
 10
49.54999999999995
 20
51.74443642389997
 30
0.0
  0
VERTEX
  5
18B0
  8
3
 10
50.36587955589994
 20
51.89291436050007
 30
0.0
  0
VERTEX
  5
18B1
  8
3
 10
51.23412044420002
 20
51.89291436050007
 30
0.0
  0
VERTEX
  5
18B2
  8
3
 10
52.04999999999995
 20
51.74443642389997
 30
0.0
  0
VERTEX
  5
18B3
  8
3
 10
52.71511110779988
 20
51.4653891813
 30
0.0
  0
VERTEX
  5
18B4
  8
3
 10
53.14923155199995
 20
51.08942984829991
 30
0.0
  0
VERTEX
  5
18B5
  8
3
 10
53.29999999999995
 20
50.66190466919988
 30
0.0
  0
SEQEND
  5
1B76
  8
3
  0
POLYLINE
  5
E13
  8
3
 66
     1
 10
0.0
 20
0.0
 30
0.0
  0
VERTEX
  5
18B6
  8
3
 10
53.29999999999995
 20
50.73994422050009
 30
0.0
  0
VERTEX
  5
18B7
  8
3
 10
53.14923155199995
 20
50.31241904140006
 30
0.0
  0
VERTEX
  5
18B8
  8
3
 10
52.71511110779988
 20
49.93645970839998
 30
0.0
  0
VERTEX
  5
18B9
  8
3
 10
52.04999999999995
 20
49.65741246580001
 30
0.0
  0
VERTEX
  5
18BA
  8
3
 10
51.23412044420002
 20
49.50893452929995
 30
0.0
  0
VERTEX
  5
18BB
  8
3
 10
50.36587955589994
 20
49.50893452929995
 30
0.0
  0
VERTEX
  5
18BC
  8
3
 10
49.54999999999995
 20
49.65741246580001
 30
0.0
  0
VERTEX
  5
18BD
  8
3
 10
48.88488889220002
 20
49.93645970839998
 30
0.0
  0
VERTEX
  5
18BE
  8
3
 10
48.45076844810001
 20
50.31241904140006
 30
0.0
  0
VERTEX
  5
18BF
  8
3
 10
48.29999999999995
 20
50.73994422050009
 30
0.0
  0
VERTEX
  5
18C0
  8
3
 10
48.45076844810001
 20
51.16746939969994
 30
0.0
  0
VERTEX
  5
18C1
  8
3
 10
48.88488889220002
 20
51.54342873270002
 30
0.0
  0
VERTEX
  5
18C2
  8
3
 10
49.54999999999995
 20
51.82247597529999
 30
0.0
  0
VERTEX
  5
18C3
  8
3
 10
50.36587955589994
 20
51.97095391180005
 30
0.0
  0
VERTEX
  5
18C4
  8
3
 10
51.23412044420002
 20
51.97095391180005
 30
0.0
  0
VERTEX
  5
18C5
  8
3
 10
52.04999999999995
 20
51.82247597529999
 30
0.0
  0
VERTEX
  5
18C6
  8
3
 10
52.71511110779988
 20
51.54342873270002
 30
0.0
  0
VERTEX
  5
18C7
  8
3
 10
53.14923155199995
 20
51.16746939969994
 30
0.0
  0
VERTEX
  5
18C8
  8
3
 10
53.29999999999995
 20
50.73994422050009
 30
0.0
  0
SEQEND
  5
1B75
  8
3
  0
POLYLINE
  5
E14
  8
3
 66
     1
 10
0.0
 20
0.0
 30
0.0
  0
VERTEX
  5
18C9
  8
3
 10
52.85500000000002
 20
51.00979111519996
 30
0.0
  0
VERTEX
  5
18CA
  8
3
 10
52.71623043139994
 20
50.63861530319991
 30
0.0
  0
VERTEX
  5
18CB
  8
3
 10
52.31866332489994
 20
50.31756884130004
 30
0.0
  0
VERTEX
  5
18CC
  8
3
 10
51.71599232109998
 20
50.09001083330008
 30
0.0
  0
VERTEX
  5
18CD
  8
3
 10
50.9896114787
 20
49.98667424900009
 30
0.0
  0
VERTEX
  5
18CE
  8
3
 10
50.23762255539987
 20
50.02151526679995
 30
0.0
  0
VERTEX
  5
18CF
  8
3
 10
49.5615858223
 20
50.18982841410002
 30
0.0
  0
VERTEX
  5
18D0
  8
3
 10
49.05280378609996
 20
50.4688820678
 30
0.0
  0
VERTEX
  5
18D1
  8
3
 10
48.77999028019985
 20
50.82098848560008
 30
0.0
  0
VERTEX
  5
18D2
  8
3
 10
48.77999028019985
 20
51.19859374470002
 30
0.0
  0
VERTEX
  5
18D3
  8
3
 10
49.05280378609996
 20
51.55070016250011
 30
0.0
  0
VERTEX
  5
18D4
  8
3
 10
49.5615858223
 20
51.82975381620008
 30
0.0
  0
VERTEX
  5
18D5
  8
3
 10
50.23762255539987
 20
51.99806696349992
 30
0.0
  0
VERTEX
  5
18D6
  8
3
 10
50.9896114787
 20
52.03290798130001
 30
0.0
  0
VERTEX
  5
18D7
  8
3
 10
51.71599232109998
 20
51.92957139700002
 30
0.0
  0
VERTEX
  5
18D8
  8
3
 10
52.31866332489994
 20
51.70201338900006
 30
0.0
  0
VERTEX
  5
18D9
  8
3
 10
52.71623043139994
 20
51.38096692720001
 30
0.0
  0
VERTEX
  5
18DA
  8
3
 10
52.85500000000002
 20
51.00979111519996
 30
0.0
  0
SEQEND
  5
1B74
  8
3
  0
POLYLINE
  5
E15
  8
3
 66
     1
 10
0.0
 20
0.0
 30
0.0
  0
VERTEX
  5
18DB
  8
3
 10
53.29999999999995
 20
51.27963800980001
 30
0.0
  0
VERTEX
  5
18DC
  8
3
 10
53.14923155199995
 20
50.85211283059994
 30
0.0
  0
VERTEX
  5
18DD
  8
3
 10
52.71511110779988
 20
50.4761534976999
 30
0.0
  0
VERTEX
  5
18DE
  8
3
 10
52.04999999999995
 20
50.19710625509992
 30
0.0
  0
VERTEX
  5
18DF
  8
3
 10
51.23412044420002
 20
50.04862831850005
 30
0.0
  0
VERTEX
  5
18E0
  8
3
 10
50.36587955589994
 20
50.04862831850005
 30
0.0
  0
VERTEX
  5
18E1
  8
3
 10
49.54999999999995
 20
50.19710625509992
 30
0.0
  0
VERTEX
  5
18E2
  8
3
 10
48.88488889220002
 20
50.4761534976999
 30
0.0
  0
VERTEX
  5
18E3
  8
3
 10
48.45076844810001
 20
50.85211283059994
 30
0.0
  0
VERTEX
  5
18E4
  8
3
 10
48.29999999999995
 20
51.27963800980001
 30
0.0
  0
VERTEX
  5
18E5
  8
3
 10
48.45076844810001
 20
51.70716318900008
 30
0.0
  0
VERTEX
  5
18E6
  8
3
 10
48.88488889220002
 20
52.0831225218999
 30
0.0
  0
VERTEX
  5
18E7
  8
3
 10
49.54999999999995
 20
52.36216976450009
 30
0.0
  0
VERTEX
  5
18E8
  8
3
 10
50.36587955589994
 20
52.51064770109997
 30
0.0
  0
VERTEX
  5
18E9
  8
3
 10
51.23412044420002
 20
52.51064770109997
 30
0.0
  0
VERTEX
  5
18EA
  8
3
 10
52.04999999999995
 20
52.36216976450009
 30
0.0
  0
VERTEX
  5
18EB
  8
3
 10
52.71511110779988
 20
52.0831225218999
 30
0.0
  0
VERTEX
  5
18EC
  8
3
 10
53.14923155199995
 20
51.70716318900008
 30
0.0
  0
VERTEX
  5
18ED
  8
3
 10
53.29999999999995
 20
51.27963800980001
 30
0.0
  0
SEQEND
  5
1B73
  8
3
  0
POLYLINE
  5
E16
  8
3
 66
     1
 10
0.0
 20
0.0
 30
0.0
  0
VERTEX
  5
18EE
  8
3
 10
53.29999999999995
 20
51.35767756120003
 30
0.0
  0
VERTEX
  5
18EF
  8
3
 10
53.14923155199995
 20
50.93015238199996
 30
0.0
  0
VERTEX
  5
18F0
  8
3
 10
52.71511110779988
 20
50.55419304900011
 30
0.0
  0
VERTEX
  5
18F1
  8
3
 10
52.04999999999995
 20
50.27514580639991
 30
0.0
  0
VERTEX
  5
18F2
  8
3
 10
51.23412044420002
 20
50.12666786990007
 30
0.0
  0
VERTEX
  5
18F3
  8
3
 10
50.36587955589994
 20
50.12666786990007
 30
0.0
  0
VERTEX
  5
18F4
  8
3
 10
49.54999999999995
 20
50.27514580639991
 30
0.0
  0
VERTEX
  5
18F5
  8
3
 10
48.88488889220002
 20
50.55419304900011
 30
0.0
  0
VERTEX
  5
18F6
  8
3
 10
48.45076844810001
 20
50.93015238199996
 30
0.0
  0
VERTEX
  5
18F7
  8
3
 10
48.29999999999995
 20
51.35767756120003
 30
0.0
  0
VERTEX
  5
18F8
  8
3
 10
48.45076844810001
 20
51.78520274030006
 30
0.0
  0
VERTEX
  5
18F9
  8
3
 10
48.88488889220002
 20
52.16116207329992
 30
0.0
  0
VERTEX
  5
18FA
  8
3
 10
49.54999999999995
 20
52.44020931589989
 30
0.0
  0
VERTEX
  5
18FB
  8
3
 10
50.36587955589994
 20
52.58868725239995
 30
0.0
  0
VERTEX
  5
18FC
  8
3
 10
51.23412044420002
 20
52.58868725239995
 30
0.0
  0
VERTEX
  5
18FD
  8
3
 10
52.04999999999995
 20
52.44020931589989
 30
0.0
  0
VERTEX
  5
18FE
  8
3
 10
52.71511110779988
 20
52.16116207329992
 30
0.0
  0
VERTEX
  5
18FF
  8
3
 10
53.14923155199995
 20
51.78520274030006
 30
0.0
  0
VERTEX
  5
1900
  8
3
 10
53.29999999999995
 20
51.35767756120003
 30
0.0
  0
SEQEND
  5
1B72
  8
3
  0
POLYLINE
  5
E17
  8
3
 66
     1
 10
0.0
 20
0.0
 30
0.0
  0
VERTEX
  5
1901
  8
3
 10
52.85500000000002
 20
51.62752445580008
 30
0.0
  0
VERTEX
  5
1902
  8
3
 10
52.71623043149998
 20
51.25634864380004
 30
0.0
  0
VERTEX
  5
1903
  8
3
 10
52.31866332489994
 20
50.93530218189994
 30
0.0
  0
VERTEX
  5
1904
  8
3
 10
51.71599232109998
 20
50.70774417389998
 30
0.0
  0
VERTEX
  5
1905
  8
3
 10
50.9896114787
 20
50.60440758959999
 30
0.0
  0
VERTEX
  5
1906
  8
3
 10
50.23762255539987
 20
50.63924860740008
 30
0.0
  0
VERTEX
  5
1907
  8
3
 10
49.5615858223
 20
50.80756175469992
 30
0.0
  0
VERTEX
  5
1908
  8
3
 10
49.05280378609996
 20
51.08661540839989
 30
0.0
  0
VERTEX
  5
1909
  8
3
 10
48.77999028019985
 20
51.43872182619998
 30
0.0
  0
VERTEX
  5
190A
  8
3
 10
48.77999028019985
 20
51.81632708529992
 30
0.0
  0
VERTEX
  5
190B
  8
3
 10
49.05280378609996
 20
52.1684335031
 30
0.0
  0
VERTEX
  5
190C
  8
3
 10
49.5615858223
 20
52.44748715679998
 30
0.0
  0
VERTEX
  5
190D
  8
3
 10
50.23762255539987
 20
52.61580030410005
 30
0.0
  0
VERTEX
  5
190E
  8
3
 10
50.9896114787
 20
52.65064132189991
 30
0.0
  0
VERTEX
  5
190F
  8
3
 10
51.71599232109998
 20
52.54730473759992
 30
0.0
  0
VERTEX
  5
1910
  8
3
 10
52.31866332489994
 20
52.31974672959996
 30
0.0
  0
VERTEX
  5
1911
  8
3
 10
52.71623043149998
 20
51.9987002677999
 30
0.0
  0
VERTEX
  5
1912
  8
3
 10
52.85500000000002
 20
51.62752445580008
 30
0.0
  0
SEQEND
  5
1B71
  8
3
  0
POLYLINE
  5
E18
  8
3
 66
     1
 10
0.0
 20
0.0
 30
0.0
  0
VERTEX
  5
1913
  8
3
 10
53.29999999999995
 20
51.89737135039991
 30
0.0
  0
VERTEX
  5
1914
  8
3
 10
53.14923155199995
 20
51.46984617120006
 30
0.0
  0
VERTEX
  5
1915
  8
3
 10
52.71511110779988
 20
51.09388683830002
 30
0.0
  0
VERTEX
  5
1916
  8
3
 10
52.04999999999995
 20
50.81483959570005
 30
0.0
  0
VERTEX
  5
1917
  8
3
 10
51.23412044420002
 20
50.66636165909995
 30
0.0
  0
VERTEX
  5
1918
  8
3
 10
50.36587955589994
 20
50.66636165909995
 30
0.0
  0
VERTEX
  5
1919
  8
3
 10
49.54999999999995
 20
50.81483959570005
 30
0.0
  0
VERTEX
  5
191A
  8
3
 10
48.88488889220002
 20
51.09388683830002
 30
0.0
  0
VERTEX
  5
191B
  8
3
 10
48.45076844810001
 20
51.46984617120006
 30
0.0
  0
VERTEX
  5
191C
  8
3
 10
48.29999999999995
 20
51.89737135039991
 30
0.0
  0
VERTEX
  5
191D
  8
3
 10
48.45076844810001
 20
52.32489652959998
 30
0.0
  0
VERTEX
  5
191E
  8
3
 10
48.88488889220002
 20
52.70085586250002
 30
0.0
  0
VERTEX
  5
191F
  8
3
 10
49.54999999999995
 20
52.97990310509999
 30
0.0
  0
VERTEX
  5
1920
  8
3
 10
50.36587955589994
 20
53.1283810417001
 30
0.0
  0
VERTEX
  5
1921
  8
3
 10
51.23412044420002
 20
53.1283810417001
 30
0.0
  0
VERTEX
  5
1922
  8
3
 10
52.04999999999995
 20
52.97990310509999
 30
0.0
  0
VERTEX
  5
1923
  8
3
 10
52.71511110779988
 20
52.70085586250002
 30
0.0
  0
VERTEX
  5
1924
  8
3
 10
53.14923155199995
 20
52.32489652959998
 30
0.0
  0
VERTEX
  5
1925
  8
3
 10
53.29999999999995
 20
51.89737135039991
 30
0.0
  0
SEQEND
  5
1B70
  8
3
  0
LINE
  5
E19
  8
3
 10
50.79999999999995
 20
50.85117704260006
 30
0.0
 11
50.79999999999995
 21
53.18944563290006
 31
0.0
  0
LINE
  5
E1A
  8
3
 10
52.04999999999995
 20
50.49033312439997
 30
0.0
 11
50.79999999999995
 21
50.85117704260006
 31
0.0
  0
LINE
  5
E1B
  8
3
 10
49.54999999999995
 20
50.49033312439997
 30
0.0
 11
50.79999999999995
 21
50.85117704260006
 31
0.0
  0
POLYLINE
  5
E1C
  8
3
 66
     1
 10
0.0
 20
0.0
 30
0.0
  0
VERTEX
  5
1926
  8
3
 10
53.29999999999995
 20
51.97541090179993
 30
0.0
  0
VERTEX
  5
1927
  8
3
 10
53.14923155199995
 20
51.54788572260009
 30
0.0
  0
VERTEX
  5
1928
  8
3
 10
52.71511110779988
 20
51.1719263896
 30
0.0
  0
VERTEX
  5
1929
  8
3
 10
52.04999999999995
 20
50.89287914700003
 30
0.0
  0
VERTEX
  5
192A
  8
3
 10
51.23412044420002
 20
50.74440121049997
 30
0.0
  0
VERTEX
  5
192B
  8
3
 10
50.36587955589994
 20
50.74440121049997
 30
0.0
  0
VERTEX
  5
192C
  8
3
 10
49.54999999999995
 20
50.89287914700003
 30
0.0
  0
VERTEX
  5
192D
  8
3
 10
48.88488889220002
 20
51.1719263896
 30
0.0
  0
VERTEX
  5
192E
  8
3
 10
48.45076844810001
 20
51.54788572260009
 30
0.0
  0
VERTEX
  5
192F
  8
3
 10
48.29999999999995
 20
51.97541090179993
 30
0.0
  0
VERTEX
  5
1930
  8
3
 10
48.45076844810001
 20
52.40293608089996
 30
0.0
  0
VERTEX
  5
1931
  8
3
 10
48.88488889220002
 20
52.77889541390005
 30
0.0
  0
VERTEX
  5
1932
  8
3
 10
49.54999999999995
 20
53.05794265650002
 30
0.0
  0
VERTEX
  5
1933
  8
3
 10
50.36587955589994
 20
53.20642059300008
 30
0.0
  0
VERTEX
  5
1934
  8
3
 10
51.23412044420002
 20
53.20642059300008
 30
0.0
  0
VERTEX
  5
1935
  8
3
 10
52.04999999999995
 20
53.05794265650002
 30
0.0
  0
VERTEX
  5
1936
  8
3
 10
52.71511110779988
 20
52.77889541390005
 30
0.0
  0
VERTEX
  5
1937
  8
3
 10
53.14923155199995
 20
52.40293608089996
 30
0.0
  0
VERTEX
  5
1938
  8
3
 10
53.29999999999995
 20
51.97541090179993
 30
0.0
  0
SEQEND
  5
1B6F
  8
3
  0
POLYLINE
  5
E1D
  8
3
 66
     1
 10
0.0
 20
0.0
 30
0.0
  0
VERTEX
  5
1939
  8
3
 10
52.85500000000002
 20
52.24525779639998
 30
0.0
  0
VERTEX
  5
193A
  8
3
 10
52.71623043149998
 20
51.87408198439994
 30
0.0
  0
VERTEX
  5
193B
  8
3
 10
52.31866332489994
 20
51.55303552250007
 30
0.0
  0
VERTEX
  5
193C
  8
3
 10
51.71599232120002
 20
51.32547751450011
 30
0.0
  0
VERTEX
  5
193D
  8
3
 10
50.9896114787
 20
51.22214093019988
 30
0.0
  0
VERTEX
  5
193E
  8
3
 10
50.23762255539987
 20
51.25698194799998
 30
0.0
  0
VERTEX
  5
193F
  8
3
 10
49.5615858223
 20
51.42529509530004
 30
0.0
  0
VERTEX
  5
1940
  8
3
 10
49.05280378609996
 20
51.70434874900002
 30
0.0
  0
VERTEX
  5
1941
  8
3
 10
48.77999028019985
 20
52.05645516680011
 30
0.0
  0
VERTEX
  5
1942
  8
3
 10
48.77999028019985
 20
52.43406042590004
 30
0.0
  0
VERTEX
  5
1943
  8
3
 10
49.05280378609996
 20
52.7861668436999
 30
0.0
  0
VERTEX
  5
1944
  8
3
 10
49.5615858223
 20
53.06522049740011
 30
0.0
  0
VERTEX
  5
1945
  8
3
 10
50.23762255539987
 20
53.23353364469995
 30
0.0
  0
VERTEX
  5
1946
  8
3
 10
50.9896114787
 20
53.26837466250004
 30
0.0
  0
VERTEX
  5
1947
  8
3
 10
51.71599232120002
 20
53.16503807820004
 30
0.0
  0
VERTEX
  5
1948
  8
3
 10
52.31866332489994
 20
52.93748007020008
 30
0.0
  0
VERTEX
  5
1949
  8
3
 10
52.71623043149998
 20
52.61643360840003
 30
0.0
  0
VERTEX
  5
194A
  8
3
 10
52.85500000000002
 20
52.24525779639998
 30
0.0
  0
SEQEND
  5
1B6E
  8
3
  0
POLYLINE
  5
E1E
  8
3
 66
     1
 10
0.0
 20
0.0
 30
0.0
  0
VERTEX
  5
194B
  8
3
 10
53.05610312689987
 20
52.36720623299993
 30
0.0
  0
VERTEX
  5
194C
  8
3
 10
52.90375351249986
 20
52.77470545930009
 30
0.0
  0
VERTEX
  5
194D
  8
3
 10
52.46728032889996
 20
53.12716965699997
 30
0.0
  0
VERTEX
  5
194E
  8
3
 10
51.80563169829998
 20
53.37699658330007
 30
0.0
  0
VERTEX
  5
194F
  8
3
 10
51.00816693429988
 20
53.49044572730008
 30
0.0
  0
VERTEX
  5
1950
  8
3
 10
50.18258807239999
 20
53.45219515350004
 30
0.0
  0
VERTEX
  5
1951
  8
3
 10
49.44039411259996
 20
53.2674108138001
 30
0.0
  0
VERTEX
  5
1952
  8
3
 10
48.8818224616
 20
52.96104885730006
 30
0.0
  0
VERTEX
  5
1953
  8
3
 10
48.58231131619982
 20
52.57448516380009
 30
0.0
  0
VERTEX
  5
1954
  8
3
 10
48.58231131619982
 20
52.15992730209996
 30
0.0
  0
VERTEX
  5
1955
  8
3
 10
48.8818224616
 20
51.77336360859999
 30
0.0
  0
VERTEX
  5
1956
  8
3
 10
49.44039411259996
 20
51.46700165209995
 30
0.0
  0
VERTEX
  5
1957
  8
3
 10
50.18258807239999
 20
51.28221731240001
 30
0.0
  0
VERTEX
  5
1958
  8
3
 10
51.00816693429988
 20
51.24396673859997
 30
0.0
  0
VERTEX
  5
1959
  8
3
 10
51.80563169829998
 20
51.35741588259998
 30
0.0
  0
VERTEX
  5
195A
  8
3
 10
52.46728032889996
 20
51.60724280890008
 30
0.0
  0
VERTEX
  5
195B
  8
3
 10
52.90375351249986
 20
51.95970700659996
 30
0.0
  0
VERTEX
  5
195C
  8
3
 10
53.05610312689987
 20
52.36720623299993
 30
0.0
  0
SEQEND
  5
1B6D
  8
3
  0
LINE
  5
E1F
  8
3
 10
49.54999999999995
 20
49.76864528789997
 30
0.0
 11
49.54999999999995
 21
50.49033312439997
 31
0.0
  0
LINE
  5
E20
  8
3
 10
49.54999999999995
 20
50.49033312439997
 30
0.0
 11
49.54999999999995
 21
52.82860171459993
 31
0.0
  0
LINE
  5
E21
  8
3
 10
52.04999999999995
 20
49.76864528789997
 30
0.0
 11
52.04999999999995
 21
50.49033312439997
 31
0.0
  0
LINE
  5
E22
  8
3
 10
52.04999999999995
 20
50.49033312439997
 30
0.0
 11
52.04999999999995
 21
52.82860171459993
 31
0.0
  0
POLYLINE
  5
E23
  8
3
 66
     1
 10
0.0
 20
0.0
 30
0.0
  0
VERTEX
  5
195D
  8
3
 10
50.79999999999995
 20
51.44025779639992
 30
0.0
  0
VERTEX
  5
195E
  8
3
 10
50.05764837599986
 20
51.50964258070007
 30
0.0
  0
VERTEX
  5
195F
  8
3
 10
49.41555545229994
 20
51.70842613390005
 30
0.0
  0
VERTEX
  5
1960
  8
3
 10
48.96043943630002
 20
52.00976163580003
 30
0.0
  0
VERTEX
  5
1961
  8
3
 10
48.75376626770003
 20
52.37295205700002
 30
0.0
  0
VERTEX
  5
1962
  8
3
 10
48.82344830329998
 20
52.7489465187
 30
0.0
  0
VERTEX
  5
1963
  8
3
 10
49.16007459799994
 20
53.08696488529995
 30
0.0
  0
VERTEX
  5
1964
  8
3
 10
49.71818190529984
 20
53.34135590329993
 30
0.0
  0
VERTEX
  5
1965
  8
3
 10
50.42239474090002
 20
53.4777626563
 30
0.0
  0
VERTEX
  5
1966
  8
3
 10
51.17760525909989
 20
53.4777626563
 30
0.0
  0
VERTEX
  5
1967
  8
3
 10
51.88181809469984
 20
53.34135590329993
 30
0.0
  0
VERTEX
  5
1968
  8
3
 10
52.43992540210002
 20
53.08696488529995
 30
0.0
  0
VERTEX
  5
1969
  8
3
 10
52.77655169669993
 20
52.7489465187
 30
0.0
  0
VERTEX
  5
196A
  8
3
 10
52.84623373229988
 20
52.37295205700002
 30
0.0
  0
VERTEX
  5
196B
  8
3
 10
52.63956056379993
 20
52.00976163580003
 30
0.0
  0
VERTEX
  5
196C
  8
3
 10
52.18444454769997
 20
51.70842613390005
 30
0.0
  0
VERTEX
  5
196D
  8
3
 10
51.54235162399982
 20
51.50964258070007
 30
0.0
  0
VERTEX
  5
196E
  8
3
 10
50.79999999999995
 20
51.44025779639992
 30
0.0
  0
SEQEND
  5
1B6C
  8
3
  0
LINE
  5
E24
  8
3
 10
52.04999999999995
 20
52.82860171459993
 30
0.0
 11
50.79999999999995
 21
53.18944563290006
 31
0.0
  0
LINE
  5
E25
  8
3
 10
49.54999999999995
 20
52.82860171459993
 30
0.0
 11
50.79999999999995
 21
53.18944563290006
 31
0.0
  0
LINE
  5
E26
  8
3
 10
50.79999999999995
 20
49.40780136969988
 30
0.0
 11
50.79999999999995
 21
50.85117704260006
 31
0.0
  0
LINE
  5
E27
  8
3
 10
49.54999999999995
 20
52.10691387809993
 30
0.0
 11
50.79999999999995
 21
51.74606995990007
 31
0.0
  0
LINE
  5
E28
  8
3
 10
49.54999999999995
 20
49.76864528789997
 30
0.0
 11
50.79999999999995
 21
49.40780136969988
 31
0.0
  0
LINE
  5
E29
  8
3
 10
52.04999999999995
 20
52.10691387809993
 30
0.0
 11
50.79999999999995
 21
51.74606995990007
 31
0.0
  0
LINE
  5
E2A
  8
3
 10
52.04999999999995
 20
49.76864528789997
 30
0.0
 11
50.79999999999995
 21
49.40780136969988
 31
0.0
  0
CIRCLE
  5
E2B
  8
3
 10
50.79999999999995
 20
0.0
 30
0.0
 40
2.256103126841936
  0
CIRCLE
  5
E2C
  8
3
 10
50.79999999999995
 20
0.0
 30
0.0
 40
2.500000000000227
  0
CIRCLE
  5
E2D
  8
3
 10
50.79999999999995
 20
0.0
 30
0.0
 40
2.316732743452576
  0
CIRCLE
  5
E2E
  8
3
 10
50.79999999999995
 20
0.0
 30
0.0
 40
1.750000000000227
  0
POLYLINE
  5
E2F
  8
3
 66
     1
 10
0.0
 20
0.0
 30
0.0
  0
VERTEX
  5
196F
  8
3
 10
50.79999999999995
 20
-48.1466053736001
 30
0.0
  0
VERTEX
  5
1970
  8
3
 10
50.13030399339982
 20
-48.07999996459989
 30
0.0
  0
VERTEX
  5
1971
  8
3
 10
49.56256313289987
 20
-47.89032380720005
 30
0.0
  0
VERTEX
  5
1972
  8
3
 10
49.18321081809995
 20
-47.60645337699998
 30
0.0
  0
VERTEX
  5
1973
  8
3
 10
49.04999999999995
 20
-47.2716053736001
 30
0.0
  0
VERTEX
  5
1974
  8
3
 10
49.18321081809995
 20
-46.93675737030003
 30
0.0
  0
VERTEX
  5
1975
  8
3
 10
49.56256313289987
 20
-46.65288694009996
 30
0.0
  0
VERTEX
  5
1976
  8
3
 10
50.13030399339982
 20
-46.46321078270012
 30
0.0
  0
VERTEX
  5
1977
  8
3
 10
50.79999999999995
 20
-46.3966053736001
 30
0.0
  0
VERTEX
  5
1978
  8
3
 10
51.46969600669991
 20
-46.46321078270012
 30
0.0
  0
VERTEX
  5
1979
  8
3
 10
52.03743686709981
 20
-46.65288694009996
 30
0.0
  0
VERTEX
  5
197A
  8
3
 10
52.41678918189996
 20
-46.93675737030003
 30
0.0
  0
VERTEX
  5
197B
  8
3
 10
52.54999999999995
 20
-47.2716053736001
 30
0.0
  0
VERTEX
  5
197C
  8
3
 10
52.41678918189996
 20
-47.60645337699998
 30
0.0
  0
VERTEX
  5
197D
  8
3
 10
52.03743686709981
 20
-47.89032380720005
 30
0.0
  0
VERTEX
  5
197E
  8
3
 10
51.46969600669991
 20
-48.07999996459989
 30
0.0
  0
VERTEX
  5
197F
  8
3
 10
50.79999999999995
 20
-48.1466053736001
 30
0.0
  0
SEQEND
  5
1B6B
  8
3
  0
POLYLINE
  5
E30
  8
3
 66
     1
 10
0.0
 20
0.0
 30
0.0
  0
VERTEX
  5
1980
  8
3
 10
48.4832672565999
 20
-47.76241032660005
 30
0.0
  0
VERTEX
  5
1981
  8
3
 10
48.62298333669992
 20
-47.36622569409997
 30
0.0
  0
VERTEX
  5
1982
  8
3
 10
49.02527975570001
 20
-47.01782677539995
 30
0.0
  0
VERTEX
  5
1983
  8
3
 10
49.64163362829981
 20
-46.75923562179992
 30
0.0
  0
VERTEX
  5
1984
  8
3
 10
50.39770358099986
 20
-46.6216421429001
 30
0.0
  0
VERTEX
  5
1985
  8
3
 10
51.20229641909987
 20
-46.6216421429001
 30
0.0
  0
VERTEX
  5
1986
  8
3
 10
51.95836637169987
 20
-46.75923562179992
 30
0.0
  0
VERTEX
  5
1987
  8
3
 10
52.5747202442999
 20
-47.01782677539995
 30
0.0
  0
VERTEX
  5
1988
  8
3
 10
52.97701666340004
 20
-47.36622569409997
 30
0.0
  0
VERTEX
  5
1989
  8
3
 10
53.11673274349982
 20
-47.76241032660005
 30
0.0
  0
VERTEX
  5
198A
  8
3
 10
52.97701666340004
 20
-48.1585949590999
 30
0.0
  0
VERTEX
  5
198B
  8
3
 10
52.5747202442999
 20
-48.50699387779991
 30
0.0
  0
VERTEX
  5
198C
  8
3
 10
51.95836637169987
 20
-48.76558503139995
 30
0.0
  0
VERTEX
  5
198D
  8
3
 10
51.20229641909987
 20
-48.90317851029999
 30
0.0
  0
VERTEX
  5
198E
  8
3
 10
50.39770358099986
 20
-48.90317851029999
 30
0.0
  0
VERTEX
  5
198F
  8
3
 10
49.64163362829981
 20
-48.76558503139995
 30
0.0
  0
VERTEX
  5
1990
  8
3
 10
49.02527975570001
 20
-48.50699387779991
 30
0.0
  0
VERTEX
  5
1991
  8
3
 10
48.62298333669992
 20
-48.1585949590999
 30
0.0
  0
VERTEX
  5
1992
  8
3
 10
48.4832672565999
 20
-47.76241032660005
 30
0.0
  0
SEQEND
  5
1B6A
  8
3
  0
POLYLINE
  5
E31
  8
3
 66
     1
 10
0.0
 20
0.0
 30
0.0
  0
VERTEX
  5
1993
  8
3
 10
52.85500000000002
 20
-47.92112441209997
 30
0.0
  0
VERTEX
  5
1994
  8
3
 10
52.71623043139994
 20
-48.29230022410002
 30
0.0
  0
VERTEX
  5
1995
  8
3
 10
52.31866332489994
 20
-48.61334668600011
 30
0.0
  0
VERTEX
  5
1996
  8
3
 10
51.71599232109998
 20
-48.84090469400007
 30
0.0
  0
VERTEX
  5
1997
  8
3
 10
50.9896114787
 20
-48.94424127830007
 30
0.0
  0
VERTEX
  5
1998
  8
3
 10
50.23762255539987
 20
-48.90940026049998
 30
0.0
  0
VERTEX
  5
1999
  8
3
 10
49.5615858223
 20
-48.74108711310009
 30
0.0
  0
VERTEX
  5
199A
  8
3
 10
49.05280378609996
 20
-48.46203345949993
 30
0.0
  0
VERTEX
  5
199B
  8
3
 10
48.77999028019985
 20
-48.10992704170008
 30
0.0
  0
VERTEX
  5
199C
  8
3
 10
48.77999028019985
 20
-47.73232178259991
 30
0.0
  0
VERTEX
  5
199D
  8
3
 10
49.05280378609996
 20
-47.38021536480005
 30
0.0
  0
VERTEX
  5
199E
  8
3
 10
49.5615858223
 20
-47.10116171110008
 30
0.0
  0
VERTEX
  5
199F
  8
3
 10
50.23762255539987
 20
-46.93284856369996
 30
0.0
  0
VERTEX
  5
19A0
  8
3
 10
50.9896114787
 20
-46.89800754599992
 30
0.0
  0
VERTEX
  5
19A1
  8
3
 10
51.71599232109998
 20
-47.0013441302001
 30
0.0
  0
VERTEX
  5
19A2
  8
3
 10
52.31866332489994
 20
-47.2289021383001
 30
0.0
  0
VERTEX
  5
19A3
  8
3
 10
52.71623043139994
 20
-47.54994860009992
 30
0.0
  0
VERTEX
  5
19A4
  8
3
 10
52.85500000000002
 20
-47.92112441209997
 30
0.0
  0
SEQEND
  5
1B69
  8
3
  0
POLYLINE
  5
E32
  8
3
 66
     1
 10
0.0
 20
0.0
 30
0.0
  0
VERTEX
  5
19A5
  8
3
 10
53.29999999999995
 20
-48.19097130670002
 30
0.0
  0
VERTEX
  5
19A6
  8
3
 10
53.14923155199995
 20
-48.6184964859001
 30
0.0
  0
VERTEX
  5
19A7
  8
3
 10
52.71511110779988
 20
-48.99445581879991
 30
0.0
  0
VERTEX
  5
19A8
  8
3
 10
52.04999999999995
 20
-49.27350306149992
 30
0.0
  0
VERTEX
  5
19A9
  8
3
 10
51.23412044420002
 20
-49.42198099799998
 30
0.0
  0
VERTEX
  5
19AA
  8
3
 10
50.36587955579989
 20
-49.42198099799998
 30
0.0
  0
VERTEX
  5
19AB
  8
3
 10
49.54999999999995
 20
-49.27350306149992
 30
0.0
  0
VERTEX
  5
19AC
  8
3
 10
48.88488889220002
 20
-48.99445581879991
 30
0.0
  0
VERTEX
  5
19AD
  8
3
 10
48.45076844799996
 20
-48.6184964859001
 30
0.0
  0
VERTEX
  5
19AE
  8
3
 10
48.29999999999995
 20
-48.19097130670002
 30
0.0
  0
VERTEX
  5
19AF
  8
3
 10
48.45076844799996
 20
-47.76344612759999
 30
0.0
  0
VERTEX
  5
19B0
  8
3
 10
48.88488889220002
 20
-47.38748679459991
 30
0.0
  0
VERTEX
  5
19B1
  8
3
 10
49.54999999999995
 20
-47.10843955199994
 30
0.0
  0
VERTEX
  5
19B2
  8
3
 10
50.36587955579989
 20
-46.95996161550011
 30
0.0
  0
VERTEX
  5
19B3
  8
3
 10
51.23412044420002
 20
-46.95996161550011
 30
0.0
  0
VERTEX
  5
19B4
  8
3
 10
52.04999999999995
 20
-47.10843955199994
 30
0.0
  0
VERTEX
  5
19B5
  8
3
 10
52.71511110779988
 20
-47.38748679459991
 30
0.0
  0
VERTEX
  5
19B6
  8
3
 10
53.14923155199995
 20
-47.76344612759999
 30
0.0
  0
VERTEX
  5
19B7
  8
3
 10
53.29999999999995
 20
-48.19097130670002
 30
0.0
  0
SEQEND
  5
1B68
  8
3
  0
POLYLINE
  5
E33
  8
3
 66
     1
 10
0.0
 20
0.0
 30
0.0
  0
VERTEX
  5
19B8
  8
3
 10
53.29999999999995
 20
-48.26901085810005
 30
0.0
  0
VERTEX
  5
19B9
  8
3
 10
53.14923155199995
 20
-48.69653603720008
 30
0.0
  0
VERTEX
  5
19BA
  8
3
 10
52.71511110779988
 20
-49.07249537019993
 30
0.0
  0
VERTEX
  5
19BB
  8
3
 10
52.04999999999995
 20
-49.3515426127999
 30
0.0
  0
VERTEX
  5
19BC
  8
3
 10
51.23412044420002
 20
-49.50002054940001
 30
0.0
  0
VERTEX
  5
19BD
  8
3
 10
50.36587955579989
 20
-49.50002054940001
 30
0.0
  0
VERTEX
  5
19BE
  8
3
 10
49.54999999999995
 20
-49.3515426127999
 30
0.0
  0
VERTEX
  5
19BF
  8
3
 10
48.88488889220002
 20
-49.07249537019993
 30
0.0
  0
VERTEX
  5
19C0
  8
3
 10
48.45076844799996
 20
-48.69653603720008
 30
0.0
  0
VERTEX
  5
19C1
  8
3
 10
48.29999999999995
 20
-48.26901085810005
 30
0.0
  0
VERTEX
  5
19C2
  8
3
 10
48.45076844799996
 20
-47.84148567889997
 30
0.0
  0
VERTEX
  5
19C3
  8
3
 10
48.88488889220002
 20
-47.46552634599993
 30
0.0
  0
VERTEX
  5
19C4
  8
3
 10
49.54999999999995
 20
-47.18647910339996
 30
0.0
  0
VERTEX
  5
19C5
  8
3
 10
50.36587955579989
 20
-47.03800116680009
 30
0.0
  0
VERTEX
  5
19C6
  8
3
 10
51.23412044420002
 20
-47.03800116680009
 30
0.0
  0
VERTEX
  5
19C7
  8
3
 10
52.04999999999995
 20
-47.18647910339996
 30
0.0
  0
VERTEX
  5
19C8
  8
3
 10
52.71511110779988
 20
-47.46552634599993
 30
0.0
  0
VERTEX
  5
19C9
  8
3
 10
53.14923155199995
 20
-47.84148567889997
 30
0.0
  0
VERTEX
  5
19CA
  8
3
 10
53.29999999999995
 20
-48.26901085810005
 30
0.0
  0
SEQEND
  5
1B67
  8
3
  0
POLYLINE
  5
E34
  8
3
 66
     1
 10
0.0
 20
0.0
 30
0.0
  0
VERTEX
  5
19CB
  8
3
 10
52.85500000000002
 20
-48.5388577527001
 30
0.0
  0
VERTEX
  5
19CC
  8
3
 10
52.71623043139994
 20
-48.91003356469992
 30
0.0
  0
VERTEX
  5
19CD
  8
3
 10
52.31866332489994
 20
-49.23108002660001
 30
0.0
  0
VERTEX
  5
19CE
  8
3
 10
51.71599232109998
 20
-49.45863803459997
 30
0.0
  0
VERTEX
  5
19CF
  8
3
 10
50.9896114787
 20
-49.56197461889997
 30
0.0
  0
VERTEX
  5
19D0
  8
3
 10
50.23762255539987
 20
-49.5271336011001
 30
0.0
  0
VERTEX
  5
19D1
  8
3
 10
49.56158582219996
 20
-49.35882045369999
 30
0.0
  0
VERTEX
  5
19D2
  8
3
 10
49.05280378609996
 20
-49.07976680010006
 30
0.0
  0
VERTEX
  5
19D3
  8
3
 10
48.77999028010004
 20
-48.72766038229997
 30
0.0
  0
VERTEX
  5
19D4
  8
3
 10
48.77999028010004
 20
-48.35005512320004
 30
0.0
  0
VERTEX
  5
19D5
  8
3
 10
49.05280378609996
 20
-47.99794870539995
 30
0.0
  0
VERTEX
  5
19D6
  8
3
 10
49.56158582219996
 20
-47.71889505169997
 30
0.0
  0
VERTEX
  5
19D7
  8
3
 10
50.23762255539987
 20
-47.55058190439991
 30
0.0
  0
VERTEX
  5
19D8
  8
3
 10
50.9896114787
 20
-47.51574088660004
 30
0.0
  0
VERTEX
  5
19D9
  8
3
 10
51.71599232109998
 20
-47.61907747079999
 30
0.0
  0
VERTEX
  5
19DA
  8
3
 10
52.31866332489994
 20
-47.8466354789
 30
0.0
  0
VERTEX
  5
19DB
  8
3
 10
52.71623043139994
 20
-48.16768194070005
 30
0.0
  0
VERTEX
  5
19DC
  8
3
 10
52.85500000000002
 20
-48.5388577527001
 30
0.0
  0
SEQEND
  5
1B66
  8
3
  0
POLYLINE
  5
E35
  8
3
 66
     1
 10
0.0
 20
0.0
 30
0.0
  0
VERTEX
  5
19DD
  8
3
 10
53.29999999999995
 20
-48.80870464729992
 30
0.0
  0
VERTEX
  5
19DE
  8
3
 10
53.14923155199995
 20
-49.23622982649999
 30
0.0
  0
VERTEX
  5
19DF
  8
3
 10
52.71511110779988
 20
-49.61218915940003
 30
0.0
  0
VERTEX
  5
19E0
  8
3
 10
52.04999999999995
 20
-49.89123640210005
 30
0.0
  0
VERTEX
  5
19E1
  8
3
 10
51.23412044420002
 20
-50.03971433860011
 30
0.0
  0
VERTEX
  5
19E2
  8
3
 10
50.36587955579989
 20
-50.03971433860011
 30
0.0
  0
VERTEX
  5
19E3
  8
3
 10
49.54999999999995
 20
-49.89123640210005
 30
0.0
  0
VERTEX
  5
19E4
  8
3
 10
48.88488889220002
 20
-49.61218915940003
 30
0.0
  0
VERTEX
  5
19E5
  8
3
 10
48.45076844799996
 20
-49.23622982649999
 30
0.0
  0
VERTEX
  5
19E6
  8
3
 10
48.29999999999995
 20
-48.80870464729992
 30
0.0
  0
VERTEX
  5
19E7
  8
3
 10
48.45076844799996
 20
-48.38117946820012
 30
0.0
  0
VERTEX
  5
19E8
  8
3
 10
48.88488889220002
 20
-48.00522013520003
 30
0.0
  0
VERTEX
  5
19E9
  8
3
 10
49.54999999999995
 20
-47.72617289260006
 30
0.0
  0
VERTEX
  5
19EA
  8
3
 10
50.36587955579989
 20
-47.5776949561
 30
0.0
  0
VERTEX
  5
19EB
  8
3
 10
51.23412044420002
 20
-47.5776949561
 30
0.0
  0
VERTEX
  5
19EC
  8
3
 10
52.04999999999995
 20
-47.72617289260006
 30
0.0
  0
VERTEX
  5
19ED
  8
3
 10
52.71511110779988
 20
-48.00522013520003
 30
0.0
  0
VERTEX
  5
19EE
  8
3
 10
53.14923155199995
 20
-48.38117946820012
 30
0.0
  0
VERTEX
  5
19EF
  8
3
 10
53.29999999999995
 20
-48.80870464729992
 30
0.0
  0
SEQEND
  5
1B65
  8
3
  0
POLYLINE
  5
E36
  8
3
 66
     1
 10
0.0
 20
0.0
 30
0.0
  0
VERTEX
  5
19F0
  8
3
 10
53.29999999999995
 20
-48.88674419869994
 30
0.0
  0
VERTEX
  5
19F1
  8
3
 10
53.14923155199995
 20
-49.31426937790002
 30
0.0
  0
VERTEX
  5
19F2
  8
3
 10
52.71511110779988
 20
-49.69022871080006
 30
0.0
  0
VERTEX
  5
19F3
  8
3
 10
52.04999999999995
 20
-49.96927595340003
 30
0.0
  0
VERTEX
  5
19F4
  8
3
 10
51.23412044420002
 20
-50.1177538899999
 30
0.0
  0
VERTEX
  5
19F5
  8
3
 10
50.36587955579989
 20
-50.1177538899999
 30
0.0
  0
VERTEX
  5
19F6
  8
3
 10
49.54999999999995
 20
-49.96927595340003
 30
0.0
  0
VERTEX
  5
19F7
  8
3
 10
48.88488889220002
 20
-49.69022871080006
 30
0.0
  0
VERTEX
  5
19F8
  8
3
 10
48.45076844799996
 20
-49.31426937790002
 30
0.0
  0
VERTEX
  5
19F9
  8
3
 10
48.29999999999995
 20
-48.88674419869994
 30
0.0
  0
VERTEX
  5
19FA
  8
3
 10
48.45076844799996
 20
-48.4592190195001
 30
0.0
  0
VERTEX
  5
19FB
  8
3
 10
48.88488889220002
 20
-48.08325968660006
 30
0.0
  0
VERTEX
  5
19FC
  8
3
 10
49.54999999999995
 20
-47.80421244400009
 30
0.0
  0
VERTEX
  5
19FD
  8
3
 10
50.36587955579989
 20
-47.65573450739998
 30
0.0
  0
VERTEX
  5
19FE
  8
3
 10
51.23412044420002
 20
-47.65573450739998
 30
0.0
  0
VERTEX
  5
19FF
  8
3
 10
52.04999999999995
 20
-47.80421244400009
 30
0.0
  0
VERTEX
  5
1A00
  8
3
 10
52.71511110779988
 20
-48.08325968660006
 30
0.0
  0
VERTEX
  5
1A01
  8
3
 10
53.14923155199995
 20
-48.4592190195001
 30
0.0
  0
VERTEX
  5
1A02
  8
3
 10
53.29999999999995
 20
-48.88674419869994
 30
0.0
  0
SEQEND
  5
1B64
  8
3
  0
POLYLINE
  5
E37
  8
3
 66
     1
 10
0.0
 20
0.0
 30
0.0
  0
VERTEX
  5
1A03
  8
3
 10
52.85500000000002
 20
-49.15659109329999
 30
0.0
  0
VERTEX
  5
1A04
  8
3
 10
52.71623043139994
 20
-49.52776690530004
 30
0.0
  0
VERTEX
  5
1A05
  8
3
 10
52.31866332489994
 20
-49.84881336719991
 30
0.0
  0
VERTEX
  5
1A06
  8
3
 10
51.71599232109998
 20
-50.0763713752001
 30
0.0
  0
VERTEX
  5
1A07
  8
3
 10
50.9896114787
 20
-50.17970795950009
 30
0.0
  0
VERTEX
  5
1A08
  8
3
 10
50.23762255539987
 20
-50.1448669417
 30
0.0
  0
VERTEX
  5
1A09
  8
3
 10
49.56158582219996
 20
-49.97655379430012
 30
0.0
  0
VERTEX
  5
1A0A
  8
3
 10
49.05280378609996
 20
-49.69750014069996
 30
0.0
  0
VERTEX
  5
1A0B
  8
3
 10
48.77999028010004
 20
-49.3453937229001
 30
0.0
  0
VERTEX
  5
1A0C
  8
3
 10
48.77999028010004
 20
-48.96778846379993
 30
0.0
  0
VERTEX
  5
1A0D
  8
3
 10
49.05280378609996
 20
-48.61568204600007
 30
0.0
  0
VERTEX
  5
1A0E
  8
3
 10
49.56158582219996
 20
-48.3366283923001
 30
0.0
  0
VERTEX
  5
1A0F
  8
3
 10
50.23762255539987
 20
-48.16831524500003
 30
0.0
  0
VERTEX
  5
1A10
  8
3
 10
50.9896114787
 20
-48.13347422719994
 30
0.0
  0
VERTEX
  5
1A11
  8
3
 10
51.71599232109998
 20
-48.23681081149994
 30
0.0
  0
VERTEX
  5
1A12
  8
3
 10
52.31866332489994
 20
-48.4643688194999
 30
0.0
  0
VERTEX
  5
1A13
  8
3
 10
52.71623043139994
 20
-48.78541528129995
 30
0.0
  0
VERTEX
  5
1A14
  8
3
 10
52.85500000000002
 20
-49.15659109329999
 30
0.0
  0
SEQEND
  5
1B63
  8
3
  0
POLYLINE
  5
E38
  8
3
 66
     1
 10
0.0
 20
0.0
 30
0.0
  0
VERTEX
  5
1A15
  8
3
 10
53.29999999999995
 20
-49.42643798790004
 30
0.0
  0
VERTEX
  5
1A16
  8
3
 10
53.14923155199995
 20
-49.85396316709989
 30
0.0
  0
VERTEX
  5
1A17
  8
3
 10
52.71511110779988
 20
-50.22992250009997
 30
0.0
  0
VERTEX
  5
1A18
  8
3
 10
52.04999999999995
 20
-50.50896974269995
 30
0.0
  0
VERTEX
  5
1A19
  8
3
 10
51.23412044420002
 20
-50.6574476792
 30
0.0
  0
VERTEX
  5
1A1A
  8
3
 10
50.36587955579989
 20
-50.6574476792
 30
0.0
  0
VERTEX
  5
1A1B
  8
3
 10
49.54999999999995
 20
-50.50896974269995
 30
0.0
  0
VERTEX
  5
1A1C
  8
3
 10
48.88488889220002
 20
-50.22992250009997
 30
0.0
  0
VERTEX
  5
1A1D
  8
3
 10
48.45076844799996
 20
-49.85396316709989
 30
0.0
  0
VERTEX
  5
1A1E
  8
3
 10
48.29999999999995
 20
-49.42643798790004
 30
0.0
  0
VERTEX
  5
1A1F
  8
3
 10
48.45076844799996
 20
-48.99891280880001
 30
0.0
  0
VERTEX
  5
1A20
  8
3
 10
48.88488889220002
 20
-48.62295347579993
 30
0.0
  0
VERTEX
  5
1A21
  8
3
 10
49.54999999999995
 20
-48.34390623319996
 30
0.0
  0
VERTEX
  5
1A22
  8
3
 10
50.36587955579989
 20
-48.1954282966999
 30
0.0
  0
VERTEX
  5
1A23
  8
3
 10
51.23412044420002
 20
-48.1954282966999
 30
0.0
  0
VERTEX
  5
1A24
  8
3
 10
52.04999999999995
 20
-48.34390623319996
 30
0.0
  0
VERTEX
  5
1A25
  8
3
 10
52.71511110779988
 20
-48.62295347579993
 30
0.0
  0
VERTEX
  5
1A26
  8
3
 10
53.14923155199995
 20
-48.99891280880001
 30
0.0
  0
VERTEX
  5
1A27
  8
3
 10
53.29999999999995
 20
-49.42643798790004
 30
0.0
  0
SEQEND
  5
1B62
  8
3
  0
POLYLINE
  5
E39
  8
3
 66
     1
 10
0.0
 20
0.0
 30
0.0
  0
VERTEX
  5
1A28
  8
3
 10
53.29999999999995
 20
-49.50447753930007
 30
0.0
  0
VERTEX
  5
1A29
  8
3
 10
53.14923155199995
 20
-49.93200271849992
 30
0.0
  0
VERTEX
  5
1A2A
  8
3
 10
52.71511110779988
 20
-50.30796205139995
 30
0.0
  0
VERTEX
  5
1A2B
  8
3
 10
52.04999999999995
 20
-50.58700929399993
 30
0.0
  0
VERTEX
  5
1A2C
  8
3
 10
51.23412044420002
 20
-50.73548723060003
 30
0.0
  0
VERTEX
  5
1A2D
  8
3
 10
50.36587955579989
 20
-50.73548723060003
 30
0.0
  0
VERTEX
  5
1A2E
  8
3
 10
49.54999999999995
 20
-50.58700929399993
 30
0.0
  0
VERTEX
  5
1A2F
  8
3
 10
48.88488889220002
 20
-50.30796205139995
 30
0.0
  0
VERTEX
  5
1A30
  8
3
 10
48.45076844799996
 20
-49.93200271849992
 30
0.0
  0
VERTEX
  5
1A31
  8
3
 10
48.29999999999995
 20
-49.50447753930007
 30
0.0
  0
VERTEX
  5
1A32
  8
3
 10
48.45076844799996
 20
-49.07695236009999
 30
0.0
  0
VERTEX
  5
1A33
  8
3
 10
48.88488889220002
 20
-48.70099302719996
 30
0.0
  0
VERTEX
  5
1A34
  8
3
 10
49.54999999999995
 20
-48.42194578459998
 30
0.0
  0
VERTEX
  5
1A35
  8
3
 10
50.36587955579989
 20
-48.27346784800011
 30
0.0
  0
VERTEX
  5
1A36
  8
3
 10
51.23412044420002
 20
-48.27346784800011
 30
0.0
  0
VERTEX
  5
1A37
  8
3
 10
52.04999999999995
 20
-48.42194578459998
 30
0.0
  0
VERTEX
  5
1A38
  8
3
 10
52.71511110779988
 20
-48.70099302719996
 30
0.0
  0
VERTEX
  5
1A39
  8
3
 10
53.14923155199995
 20
-49.07695236009999
 30
0.0
  0
VERTEX
  5
1A3A
  8
3
 10
53.29999999999995
 20
-49.50447753930007
 30
0.0
  0
SEQEND
  5
1B61
  8
3
  0
POLYLINE
  5
E3A
  8
3
 66
     1
 10
0.0
 20
0.0
 30
0.0
  0
VERTEX
  5
1A3B
  8
3
 10
52.85500000000002
 20
-49.77432443389989
 30
0.0
  0
VERTEX
  5
1A3C
  8
3
 10
52.71623043139994
 20
-50.14550024589994
 30
0.0
  0
VERTEX
  5
1A3D
  8
3
 10
52.31866332489994
 20
-50.46654670780003
 30
0.0
  0
VERTEX
  5
1A3E
  8
3
 10
51.71599232109998
 20
-50.69410471579999
 30
0.0
  0
VERTEX
  5
1A3F
  8
3
 10
50.9896114787
 20
-50.79744130009999
 30
0.0
  0
VERTEX
  5
1A40
  8
3
 10
50.23762255539987
 20
-50.7626002822999
 30
0.0
  0
VERTEX
  5
1A41
  8
3
 10
49.5615858223
 20
-50.59428713500006
 30
0.0
  0
VERTEX
  5
1A42
  8
3
 10
49.05280378609996
 20
-50.31523348130008
 30
0.0
  0
VERTEX
  5
1A43
  8
3
 10
48.77999028019985
 20
-49.9631270635
 30
0.0
  0
VERTEX
  5
1A44
  8
3
 10
48.77999028019985
 20
-49.58552180440006
 30
0.0
  0
VERTEX
  5
1A45
  8
3
 10
49.05280378609996
 20
-49.23341538659997
 30
0.0
  0
VERTEX
  5
1A46
  8
3
 10
49.5615858223
 20
-48.9543617329
 30
0.0
  0
VERTEX
  5
1A47
  8
3
 10
50.23762255539987
 20
-48.78604858559993
 30
0.0
  0
VERTEX
  5
1A48
  8
3
 10
50.9896114787
 20
-48.75120756780007
 30
0.0
  0
VERTEX
  5
1A49
  8
3
 10
51.71599232109998
 20
-48.85454415210006
 30
0.0
  0
VERTEX
  5
1A4A
  8
3
 10
52.31866332489994
 20
-49.08210216010002
 30
0.0
  0
VERTEX
  5
1A4B
  8
3
 10
52.71623043139994
 20
-49.40314862190007
 30
0.0
  0
VERTEX
  5
1A4C
  8
3
 10
52.85500000000002
 20
-49.77432443389989
 30
0.0
  0
SEQEND
  5
1B60
  8
3
  0
POLYLINE
  5
E3B
  8
3
 66
     1
 10
0.0
 20
0.0
 30
0.0
  0
VERTEX
  5
1A4D
  8
3
 10
53.29999999999995
 20
-50.04417132849994
 30
0.0
  0
VERTEX
  5
1A4E
  8
3
 10
53.14923155199995
 20
-50.47169650770002
 30
0.0
  0
VERTEX
  5
1A4F
  8
3
 10
52.71511110779988
 20
-50.8476558407001
 30
0.0
  0
VERTEX
  5
1A50
  8
3
 10
52.04999999999995
 20
-51.12670308330007
 30
0.0
  0
VERTEX
  5
1A51
  8
3
 10
51.23412044420002
 20
-51.2751810197999
 30
0.0
  0
VERTEX
  5
1A52
  8
3
 10
50.36587955579989
 20
-51.2751810197999
 30
0.0
  0
VERTEX
  5
1A53
  8
3
 10
49.54999999999995
 20
-51.12670308330007
 30
0.0
  0
VERTEX
  5
1A54
  8
3
 10
48.88488889220002
 20
-50.8476558407001
 30
0.0
  0
VERTEX
  5
1A55
  8
3
 10
48.45076844810001
 20
-50.47169650770002
 30
0.0
  0
VERTEX
  5
1A56
  8
3
 10
48.29999999999995
 20
-50.04417132849994
 30
0.0
  0
VERTEX
  5
1A57
  8
3
 10
48.45076844810001
 20
-49.61664614939991
 30
0.0
  0
VERTEX
  5
1A58
  8
3
 10
48.88488889220002
 20
-49.24068681640006
 30
0.0
  0
VERTEX
  5
1A59
  8
3
 10
49.54999999999995
 20
-48.96163957380008
 30
0.0
  0
VERTEX
  5
1A5A
  8
3
 10
50.36587955579989
 20
-48.81316163730003
 30
0.0
  0
VERTEX
  5
1A5B
  8
3
 10
51.23412044420002
 20
-48.81316163730003
 30
0.0
  0
VERTEX
  5
1A5C
  8
3
 10
52.04999999999995
 20
-48.96163957380008
 30
0.0
  0
VERTEX
  5
1A5D
  8
3
 10
52.71511110779988
 20
-49.24068681640006
 30
0.0
  0
VERTEX
  5
1A5E
  8
3
 10
53.14923155199995
 20
-49.61664614939991
 30
0.0
  0
VERTEX
  5
1A5F
  8
3
 10
53.29999999999995
 20
-50.04417132849994
 30
0.0
  0
SEQEND
  5
1B5F
  8
3
  0
POLYLINE
  5
E3C
  8
3
 66
     1
 10
0.0
 20
0.0
 30
0.0
  0
VERTEX
  5
1A60
  8
3
 10
53.29999999999995
 20
-50.12221087989997
 30
0.0
  0
VERTEX
  5
1A61
  8
3
 10
53.14923155199995
 20
-50.54973605910004
 30
0.0
  0
VERTEX
  5
1A62
  8
3
 10
52.71511110779988
 20
-50.92569539200008
 30
0.0
  0
VERTEX
  5
1A63
  8
3
 10
52.04999999999995
 20
-51.20474263460005
 30
0.0
  0
VERTEX
  5
1A64
  8
3
 10
51.23412044420002
 20
-51.35322057119993
 30
0.0
  0
VERTEX
  5
1A65
  8
3
 10
50.36587955579989
 20
-51.35322057119993
 30
0.0
  0
VERTEX
  5
1A66
  8
3
 10
49.54999999999995
 20
-51.20474263460005
 30
0.0
  0
VERTEX
  5
1A67
  8
3
 10
48.88488889220002
 20
-50.92569539200008
 30
0.0
  0
VERTEX
  5
1A68
  8
3
 10
48.45076844810001
 20
-50.54973605910004
 30
0.0
  0
VERTEX
  5
1A69
  8
3
 10
48.29999999999995
 20
-50.12221087989997
 30
0.0
  0
VERTEX
  5
1A6A
  8
3
 10
48.45076844810001
 20
-49.69468570069989
 30
0.0
  0
VERTEX
  5
1A6B
  8
3
 10
48.88488889220002
 20
-49.31872636780008
 30
0.0
  0
VERTEX
  5
1A6C
  8
3
 10
49.54999999999995
 20
-49.03967912520011
 30
0.0
  0
VERTEX
  5
1A6D
  8
3
 10
50.36587955579989
 20
-48.89120118860001
 30
0.0
  0
VERTEX
  5
1A6E
  8
3
 10
51.23412044420002
 20
-48.89120118860001
 30
0.0
  0
VERTEX
  5
1A6F
  8
3
 10
52.04999999999995
 20
-49.03967912520011
 30
0.0
  0
VERTEX
  5
1A70
  8
3
 10
52.71511110779988
 20
-49.31872636780008
 30
0.0
  0
VERTEX
  5
1A71
  8
3
 10
53.14923155199995
 20
-49.69468570069989
 30
0.0
  0
VERTEX
  5
1A72
  8
3
 10
53.29999999999995
 20
-50.12221087989997
 30
0.0
  0
SEQEND
  5
1B5E
  8
3
  0
POLYLINE
  5
E3D
  8
3
 66
     1
 10
0.0
 20
0.0
 30
0.0
  0
VERTEX
  5
1A73
  8
3
 10
52.85500000000002
 20
-50.39205777450002
 30
0.0
  0
VERTEX
  5
1A74
  8
3
 10
52.71623043139994
 20
-50.76323358650006
 30
0.0
  0
VERTEX
  5
1A75
  8
3
 10
52.31866332489994
 20
-51.08428004839993
 30
0.0
  0
VERTEX
  5
1A76
  8
3
 10
51.71599232109998
 20
-51.31183805639989
 30
0.0
  0
VERTEX
  5
1A77
  8
3
 10
50.9896114787
 20
-51.41517464070012
 30
0.0
  0
VERTEX
  5
1A78
  8
3
 10
50.23762255539987
 20
-51.38033362290003
 30
0.0
  0
VERTEX
  5
1A79
  8
3
 10
49.5615858223
 20
-51.21202047559996
 30
0.0
  0
VERTEX
  5
1A7A
  8
3
 10
49.05280378609996
 20
-50.93296682189998
 30
0.0
  0
VERTEX
  5
1A7B
  8
3
 10
48.77999028019985
 20
-50.58086040409989
 30
0.0
  0
VERTEX
  5
1A7C
  8
3
 10
48.77999028019985
 20
-50.20325514499996
 30
0.0
  0
VERTEX
  5
1A7D
  8
3
 10
49.05280378609996
 20
-49.8511487272001
 30
0.0
  0
VERTEX
  5
1A7E
  8
3
 10
49.5615858223
 20
-49.5720950734999
 30
0.0
  0
VERTEX
  5
1A7F
  8
3
 10
50.23762255539987
 20
-49.40378192620005
 30
0.0
  0
VERTEX
  5
1A80
  8
3
 10
50.9896114787
 20
-49.36894090839996
 30
0.0
  0
VERTEX
  5
1A81
  8
3
 10
51.71599232109998
 20
-49.47227749269996
 30
0.0
  0
VERTEX
  5
1A82
  8
3
 10
52.31866332489994
 20
-49.69983550069992
 30
0.0
  0
VERTEX
  5
1A83
  8
3
 10
52.71623043139994
 20
-50.02088196249997
 30
0.0
  0
VERTEX
  5
1A84
  8
3
 10
52.85500000000002
 20
-50.39205777450002
 30
0.0
  0
SEQEND
  5
1B5D
  8
3
  0
POLYLINE
  5
E3E
  8
3
 66
     1
 10
0.0
 20
0.0
 30
0.0
  0
VERTEX
  5
1A85
  8
3
 10
53.29999999999995
 20
-50.66190466920011
 30
0.0
  0
VERTEX
  5
1A86
  8
3
 10
53.14923155199995
 20
-51.08942984829991
 30
0.0
  0
VERTEX
  5
1A87
  8
3
 10
52.71511110779988
 20
-51.4653891813
 30
0.0
  0
VERTEX
  5
1A88
  8
3
 10
52.04999999999995
 20
-51.74443642389997
 30
0.0
  0
VERTEX
  5
1A89
  8
3
 10
51.23412044420002
 20
-51.89291436040003
 30
0.0
  0
VERTEX
  5
1A8A
  8
3
 10
50.36587955589994
 20
-51.89291436040003
 30
0.0
  0
VERTEX
  5
1A8B
  8
3
 10
49.54999999999995
 20
-51.74443642389997
 30
0.0
  0
VERTEX
  5
1A8C
  8
3
 10
48.88488889220002
 20
-51.4653891813
 30
0.0
  0
VERTEX
  5
1A8D
  8
3
 10
48.45076844810001
 20
-51.08942984829991
 30
0.0
  0
VERTEX
  5
1A8E
  8
3
 10
48.29999999999995
 20
-50.66190466920011
 30
0.0
  0
VERTEX
  5
1A8F
  8
3
 10
48.45076844810001
 20
-50.23437949000004
 30
0.0
  0
VERTEX
  5
1A90
  8
3
 10
48.88488889220002
 20
-49.85842015699995
 30
0.0
  0
VERTEX
  5
1A91
  8
3
 10
49.54999999999995
 20
-49.57937291439998
 30
0.0
  0
VERTEX
  5
1A92
  8
3
 10
50.36587955589994
 20
-49.43089497789992
 30
0.0
  0
VERTEX
  5
1A93
  8
3
 10
51.23412044420002
 20
-49.43089497789992
 30
0.0
  0
VERTEX
  5
1A94
  8
3
 10
52.04999999999995
 20
-49.57937291439998
 30
0.0
  0
VERTEX
  5
1A95
  8
3
 10
52.71511110779988
 20
-49.85842015699995
 30
0.0
  0
VERTEX
  5
1A96
  8
3
 10
53.14923155199995
 20
-50.23437949000004
 30
0.0
  0
VERTEX
  5
1A97
  8
3
 10
53.29999999999995
 20
-50.66190466920011
 30
0.0
  0
SEQEND
  5
1B5C
  8
3
  0
POLYLINE
  5
E3F
  8
3
 66
     1
 10
0.0
 20
0.0
 30
0.0
  0
VERTEX
  5
1A98
  8
3
 10
53.29999999999995
 20
-50.73994422050009
 30
0.0
  0
VERTEX
  5
1A99
  8
3
 10
53.14923155199995
 20
-51.16746939969994
 30
0.0
  0
VERTEX
  5
1A9A
  8
3
 10
52.71511110779988
 20
-51.54342873259998
 30
0.0
  0
VERTEX
  5
1A9B
  8
3
 10
52.04999999999995
 20
-51.82247597519995
 30
0.0
  0
VERTEX
  5
1A9C
  8
3
 10
51.23412044420002
 20
-51.97095391180005
 30
0.0
  0
VERTEX
  5
1A9D
  8
3
 10
50.36587955589994
 20
-51.97095391180005
 30
0.0
  0
VERTEX
  5
1A9E
  8
3
 10
49.54999999999995
 20
-51.82247597519995
 30
0.0
  0
VERTEX
  5
1A9F
  8
3
 10
48.88488889220002
 20
-51.54342873259998
 30
0.0
  0
VERTEX
  5
1AA0
  8
3
 10
48.45076844810001
 20
-51.16746939969994
 30
0.0
  0
VERTEX
  5
1AA1
  8
3
 10
48.29999999999995
 20
-50.73994422050009
 30
0.0
  0
VERTEX
  5
1AA2
  8
3
 10
48.45076844810001
 20
-50.31241904140006
 30
0.0
  0
VERTEX
  5
1AA3
  8
3
 10
48.88488889220002
 20
-49.93645970839998
 30
0.0
  0
VERTEX
  5
1AA4
  8
3
 10
49.54999999999995
 20
-49.65741246580001
 30
0.0
  0
VERTEX
  5
1AA5
  8
3
 10
50.36587955589994
 20
-49.50893452919991
 30
0.0
  0
VERTEX
  5
1AA6
  8
3
 10
51.23412044420002
 20
-49.50893452919991
 30
0.0
  0
VERTEX
  5
1AA7
  8
3
 10
52.04999999999995
 20
-49.65741246580001
 30
0.0
  0
VERTEX
  5
1AA8
  8
3
 10
52.71511110779988
 20
-49.93645970839998
 30
0.0
  0
VERTEX
  5
1AA9
  8
3
 10
53.14923155199995
 20
-50.31241904140006
 30
0.0
  0
VERTEX
  5
1AAA
  8
3
 10
53.29999999999995
 20
-50.73994422050009
 30
0.0
  0
SEQEND
  5
1B5B
  8
3
  0
POLYLINE
  5
E40
  8
3
 66
     1
 10
0.0
 20
0.0
 30
0.0
  0
VERTEX
  5
1AAB
  8
3
 10
52.85500000000002
 20
-51.00979111509992
 30
0.0
  0
VERTEX
  5
1AAC
  8
3
 10
52.71623043139994
 20
-51.38096692709996
 30
0.0
  0
VERTEX
  5
1AAD
  8
3
 10
52.31866332489994
 20
-51.70201338900006
 30
0.0
  0
VERTEX
  5
1AAE
  8
3
 10
51.71599232109998
 20
-51.92957139700002
 30
0.0
  0
VERTEX
  5
1AAF
  8
3
 10
50.9896114787
 20
-52.03290798130001
 30
0.0
  0
VERTEX
  5
1AB0
  8
3
 10
50.23762255539987
 20
-51.99806696349992
 30
0.0
  0
VERTEX
  5
1AB1
  8
3
 10
49.5615858223
 20
-51.82975381620008
 30
0.0
  0
VERTEX
  5
1AB2
  8
3
 10
49.05280378609996
 20
-51.55070016250011
 30
0.0
  0
VERTEX
  5
1AB3
  8
3
 10
48.77999028019985
 20
-51.19859374470002
 30
0.0
  0
VERTEX
  5
1AB4
  8
3
 10
48.77999028019985
 20
-50.82098848560008
 30
0.0
  0
VERTEX
  5
1AB5
  8
3
 10
49.05280378609996
 20
-50.4688820678
 30
0.0
  0
VERTEX
  5
1AB6
  8
3
 10
49.5615858223
 20
-50.18982841410002
 30
0.0
  0
VERTEX
  5
1AB7
  8
3
 10
50.23762255539987
 20
-50.02151526679995
 30
0.0
  0
VERTEX
  5
1AB8
  8
3
 10
50.9896114787
 20
-49.98667424900009
 30
0.0
  0
VERTEX
  5
1AB9
  8
3
 10
51.71599232109998
 20
-50.09001083330008
 30
0.0
  0
VERTEX
  5
1ABA
  8
3
 10
52.31866332489994
 20
-50.31756884130004
 30
0.0
  0
VERTEX
  5
1ABB
  8
3
 10
52.71623043139994
 20
-50.6386153031001
 30
0.0
  0
VERTEX
  5
1ABC
  8
3
 10
52.85500000000002
 20
-51.00979111509992
 30
0.0
  0
SEQEND
  5
1B5A
  8
3
  0
POLYLINE
  5
E41
  8
3
 66
     1
 10
0.0
 20
0.0
 30
0.0
  0
VERTEX
  5
1ABD
  8
3
 10
53.29999999999995
 20
-51.27963800980001
 30
0.0
  0
VERTEX
  5
1ABE
  8
3
 10
53.14923155199995
 20
-51.70716318890004
 30
0.0
  0
VERTEX
  5
1ABF
  8
3
 10
52.71511110779988
 20
-52.0831225218999
 30
0.0
  0
VERTEX
  5
1AC0
  8
3
 10
52.04999999999995
 20
-52.36216976450009
 30
0.0
  0
VERTEX
  5
1AC1
  8
3
 10
51.23412044420002
 20
-52.51064770099993
 30
0.0
  0
VERTEX
  5
1AC2
  8
3
 10
50.36587955589994
 20
-52.51064770099993
 30
0.0
  0
VERTEX
  5
1AC3
  8
3
 10
49.54999999999995
 20
-52.36216976450009
 30
0.0
  0
VERTEX
  5
1AC4
  8
3
 10
48.88488889220002
 20
-52.0831225218999
 30
0.0
  0
VERTEX
  5
1AC5
  8
3
 10
48.45076844810001
 20
-51.70716318890004
 30
0.0
  0
VERTEX
  5
1AC6
  8
3
 10
48.29999999999995
 20
-51.27963800980001
 30
0.0
  0
VERTEX
  5
1AC7
  8
3
 10
48.45076844810001
 20
-50.85211283059994
 30
0.0
  0
VERTEX
  5
1AC8
  8
3
 10
48.88488889220002
 20
-50.47615349760008
 30
0.0
  0
VERTEX
  5
1AC9
  8
3
 10
49.54999999999995
 20
-50.19710625500011
 30
0.0
  0
VERTEX
  5
1ACA
  8
3
 10
50.36587955589994
 20
-50.04862831850005
 30
0.0
  0
VERTEX
  5
1ACB
  8
3
 10
51.23412044420002
 20
-50.04862831850005
 30
0.0
  0
VERTEX
  5
1ACC
  8
3
 10
52.04999999999995
 20
-50.19710625500011
 30
0.0
  0
VERTEX
  5
1ACD
  8
3
 10
52.71511110779988
 20
-50.47615349760008
 30
0.0
  0
VERTEX
  5
1ACE
  8
3
 10
53.14923155199995
 20
-50.85211283059994
 30
0.0
  0
VERTEX
  5
1ACF
  8
3
 10
53.29999999999995
 20
-51.27963800980001
 30
0.0
  0
SEQEND
  5
1B59
  8
3
  0
POLYLINE
  5
E42
  8
3
 66
     1
 10
0.0
 20
0.0
 30
0.0
  0
VERTEX
  5
1AD0
  8
3
 10
53.29999999999995
 20
-51.35767756109999
 30
0.0
  0
VERTEX
  5
1AD1
  8
3
 10
53.14923155199995
 20
-51.78520274030006
 30
0.0
  0
VERTEX
  5
1AD2
  8
3
 10
52.71511110779988
 20
-52.1611620732001
 30
0.0
  0
VERTEX
  5
1AD3
  8
3
 10
52.04999999999995
 20
-52.44020931580008
 30
0.0
  0
VERTEX
  5
1AD4
  8
3
 10
51.23412044420002
 20
-52.58868725239995
 30
0.0
  0
VERTEX
  5
1AD5
  8
3
 10
50.36587955589994
 20
-52.58868725239995
 30
0.0
  0
VERTEX
  5
1AD6
  8
3
 10
49.54999999999995
 20
-52.44020931580008
 30
0.0
  0
VERTEX
  5
1AD7
  8
3
 10
48.88488889220002
 20
-52.1611620732001
 30
0.0
  0
VERTEX
  5
1AD8
  8
3
 10
48.45076844810001
 20
-51.78520274030006
 30
0.0
  0
VERTEX
  5
1AD9
  8
3
 10
48.29999999999995
 20
-51.35767756109999
 30
0.0
  0
VERTEX
  5
1ADA
  8
3
 10
48.45076844810001
 20
-50.93015238199996
 30
0.0
  0
VERTEX
  5
1ADB
  8
3
 10
48.88488889220002
 20
-50.55419304900011
 30
0.0
  0
VERTEX
  5
1ADC
  8
3
 10
49.54999999999995
 20
-50.27514580639991
 30
0.0
  0
VERTEX
  5
1ADD
  8
3
 10
50.36587955589994
 20
-50.12666786980003
 30
0.0
  0
VERTEX
  5
1ADE
  8
3
 10
51.23412044420002
 20
-50.12666786980003
 30
0.0
  0
VERTEX
  5
1ADF
  8
3
 10
52.04999999999995
 20
-50.27514580639991
 30
0.0
  0
VERTEX
  5
1AE0
  8
3
 10
52.71511110779988
 20
-50.55419304900011
 30
0.0
  0
VERTEX
  5
1AE1
  8
3
 10
53.14923155199995
 20
-50.93015238199996
 30
0.0
  0
VERTEX
  5
1AE2
  8
3
 10
53.29999999999995
 20
-51.35767756109999
 30
0.0
  0
SEQEND
  5
1B58
  8
3
  0
POLYLINE
  5
E43
  8
3
 66
     1
 10
0.0
 20
0.0
 30
0.0
  0
VERTEX
  5
1AE3
  8
3
 10
52.85500000000002
 20
-51.62752445570004
 30
0.0
  0
VERTEX
  5
1AE4
  8
3
 10
52.71623043149998
 20
-51.99870026770009
 30
0.0
  0
VERTEX
  5
1AE5
  8
3
 10
52.31866332489994
 20
-52.31974672959996
 30
0.0
  0
VERTEX
  5
1AE6
  8
3
 10
51.71599232109998
 20
-52.54730473759992
 30
0.0
  0
VERTEX
  5
1AE7
  8
3
 10
50.9896114787
 20
-52.65064132189991
 30
0.0
  0
VERTEX
  5
1AE8
  8
3
 10
50.23762255539987
 20
-52.61580030410005
 30
0.0
  0
VERTEX
  5
1AE9
  8
3
 10
49.5615858223
 20
-52.44748715679998
 30
0.0
  0
VERTEX
  5
1AEA
  8
3
 10
49.05280378609996
 20
-52.1684335031
 30
0.0
  0
VERTEX
  5
1AEB
  8
3
 10
48.77999028019985
 20
-51.81632708529992
 30
0.0
  0
VERTEX
  5
1AEC
  8
3
 10
48.77999028019985
 20
-51.43872182619998
 30
0.0
  0
VERTEX
  5
1AED
  8
3
 10
49.05280378609996
 20
-51.08661540839989
 30
0.0
  0
VERTEX
  5
1AEE
  8
3
 10
49.5615858223
 20
-50.80756175469992
 30
0.0
  0
VERTEX
  5
1AEF
  8
3
 10
50.23762255539987
 20
-50.63924860740008
 30
0.0
  0
VERTEX
  5
1AF0
  8
3
 10
50.9896114787
 20
-50.60440758959999
 30
0.0
  0
VERTEX
  5
1AF1
  8
3
 10
51.71599232109998
 20
-50.70774417389998
 30
0.0
  0
VERTEX
  5
1AF2
  8
3
 10
52.31866332489994
 20
-50.93530218189994
 30
0.0
  0
VERTEX
  5
1AF3
  8
3
 10
52.71623043149998
 20
-51.25634864369999
 30
0.0
  0
VERTEX
  5
1AF4
  8
3
 10
52.85500000000002
 20
-51.62752445570004
 30
0.0
  0
SEQEND
  5
1B57
  8
3
  0
POLYLINE
  5
E44
  8
3
 66
     1
 10
0.0
 20
0.0
 30
0.0
  0
VERTEX
  5
1AF5
  8
3
 10
53.29999999999995
 20
-51.89737135039991
 30
0.0
  0
VERTEX
  5
1AF6
  8
3
 10
53.14923155199995
 20
-52.32489652949994
 30
0.0
  0
VERTEX
  5
1AF7
  8
3
 10
52.71511110779988
 20
-52.70085586250002
 30
0.0
  0
VERTEX
  5
1AF8
  8
3
 10
52.04999999999995
 20
-52.97990310509999
 30
0.0
  0
VERTEX
  5
1AF9
  8
3
 10
51.23412044420002
 20
-53.12838104160005
 30
0.0
  0
VERTEX
  5
1AFA
  8
3
 10
50.36587955589994
 20
-53.12838104160005
 30
0.0
  0
VERTEX
  5
1AFB
  8
3
 10
49.54999999999995
 20
-52.97990310509999
 30
0.0
  0
VERTEX
  5
1AFC
  8
3
 10
48.88488889220002
 20
-52.70085586250002
 30
0.0
  0
VERTEX
  5
1AFD
  8
3
 10
48.45076844810001
 20
-52.32489652949994
 30
0.0
  0
VERTEX
  5
1AFE
  8
3
 10
48.29999999999995
 20
-51.89737135039991
 30
0.0
  0
VERTEX
  5
1AFF
  8
3
 10
48.45076844810001
 20
-51.46984617120006
 30
0.0
  0
VERTEX
  5
1B00
  8
3
 10
48.88488889220002
 20
-51.09388683830002
 30
0.0
  0
VERTEX
  5
1B01
  8
3
 10
49.54999999999995
 20
-50.81483959560001
 30
0.0
  0
VERTEX
  5
1B02
  8
3
 10
50.36587955589994
 20
-50.66636165909995
 30
0.0
  0
VERTEX
  5
1B03
  8
3
 10
51.23412044420002
 20
-50.66636165909995
 30
0.0
  0
VERTEX
  5
1B04
  8
3
 10
52.04999999999995
 20
-50.81483959560001
 30
0.0
  0
VERTEX
  5
1B05
  8
3
 10
52.71511110779988
 20
-51.09388683830002
 30
0.0
  0
VERTEX
  5
1B06
  8
3
 10
53.14923155199995
 20
-51.46984617120006
 30
0.0
  0
VERTEX
  5
1B07
  8
3
 10
53.29999999999995
 20
-51.89737135039991
 30
0.0
  0
SEQEND
  5
1B56
  8
3
  0
LINE
  5
E45
  8
3
 10
49.54999999999995
 20
-50.49033312439997
 30
0.0
 11
50.79999999999995
 21
-50.85117704260006
 31
0.0
  0
LINE
  5
E46
  8
3
 10
52.04999999999995
 20
-50.49033312439997
 30
0.0
 11
50.79999999999995
 21
-50.85117704260006
 31
0.0
  0
LINE
  5
E47
  8
3
 10
50.79999999999995
 20
-50.85117704260006
 30
0.0
 11
50.79999999999995
 21
-53.18944563280002
 31
0.0
  0
POLYLINE
  5
E48
  8
3
 66
     1
 10
0.0
 20
0.0
 30
0.0
  0
VERTEX
  5
1B08
  8
3
 10
53.29999999999995
 20
-51.97541090170012
 30
0.0
  0
VERTEX
  5
1B09
  8
3
 10
53.14923155199995
 20
-52.40293608089996
 30
0.0
  0
VERTEX
  5
1B0A
  8
3
 10
52.71511110779988
 20
-52.7788954138
 30
0.0
  0
VERTEX
  5
1B0B
  8
3
 10
52.04999999999995
 20
-53.05794265639997
 30
0.0
  0
VERTEX
  5
1B0C
  8
3
 10
51.23412044420002
 20
-53.20642059300008
 30
0.0
  0
VERTEX
  5
1B0D
  8
3
 10
50.36587955589994
 20
-53.20642059300008
 30
0.0
  0
VERTEX
  5
1B0E
  8
3
 10
49.54999999999995
 20
-53.05794265639997
 30
0.0
  0
VERTEX
  5
1B0F
  8
3
 10
48.88488889220002
 20
-52.7788954138
 30
0.0
  0
VERTEX
  5
1B10
  8
3
 10
48.45076844810001
 20
-52.40293608089996
 30
0.0
  0
VERTEX
  5
1B11
  8
3
 10
48.29999999999995
 20
-51.97541090170012
 30
0.0
  0
VERTEX
  5
1B12
  8
3
 10
48.45076844810001
 20
-51.54788572260009
 30
0.0
  0
VERTEX
  5
1B13
  8
3
 10
48.88488889220002
 20
-51.1719263896
 30
0.0
  0
VERTEX
  5
1B14
  8
3
 10
49.54999999999995
 20
-50.89287914700003
 30
0.0
  0
VERTEX
  5
1B15
  8
3
 10
50.36587955589994
 20
-50.74440121049997
 30
0.0
  0
VERTEX
  5
1B16
  8
3
 10
51.23412044420002
 20
-50.74440121049997
 30
0.0
  0
VERTEX
  5
1B17
  8
3
 10
52.04999999999995
 20
-50.89287914700003
 30
0.0
  0
VERTEX
  5
1B18
  8
3
 10
52.71511110779988
 20
-51.1719263896
 30
0.0
  0
VERTEX
  5
1B19
  8
3
 10
53.14923155199995
 20
-51.54788572260009
 30
0.0
  0
VERTEX
  5
1B1A
  8
3
 10
53.29999999999995
 20
-51.97541090170012
 30
0.0
  0
SEQEND
  5
1B55
  8
3
  0
POLYLINE
  5
E49
  8
3
 66
     1
 10
0.0
 20
0.0
 30
0.0
  0
VERTEX
  5
1B1B
  8
3
 10
52.85500000000002
 20
-52.24525779629994
 30
0.0
  0
VERTEX
  5
1B1C
  8
3
 10
52.71623043149998
 20
-52.61643360829999
 30
0.0
  0
VERTEX
  5
1B1D
  8
3
 10
52.31866332489994
 20
-52.93748007020008
 30
0.0
  0
VERTEX
  5
1B1E
  8
3
 10
51.71599232120002
 20
-53.16503807820004
 30
0.0
  0
VERTEX
  5
1B1F
  8
3
 10
50.9896114787
 20
-53.26837466250004
 30
0.0
  0
VERTEX
  5
1B20
  8
3
 10
50.23762255539987
 20
-53.23353364469995
 30
0.0
  0
VERTEX
  5
1B21
  8
3
 10
49.5615858223
 20
-53.06522049740011
 30
0.0
  0
VERTEX
  5
1B22
  8
3
 10
49.05280378609996
 20
-52.7861668436999
 30
0.0
  0
VERTEX
  5
1B23
  8
3
 10
48.77999028019985
 20
-52.43406042590004
 30
0.0
  0
VERTEX
  5
1B24
  8
3
 10
48.77999028019985
 20
-52.05645516680011
 30
0.0
  0
VERTEX
  5
1B25
  8
3
 10
49.05280378609996
 20
-51.70434874900002
 30
0.0
  0
VERTEX
  5
1B26
  8
3
 10
49.5615858223
 20
-51.42529509530004
 30
0.0
  0
VERTEX
  5
1B27
  8
3
 10
50.23762255539987
 20
-51.25698194799998
 30
0.0
  0
VERTEX
  5
1B28
  8
3
 10
50.9896114787
 20
-51.22214093020011
 30
0.0
  0
VERTEX
  5
1B29
  8
3
 10
51.71599232120002
 20
-51.32547751450011
 30
0.0
  0
VERTEX
  5
1B2A
  8
3
 10
52.31866332489994
 20
-51.55303552250007
 30
0.0
  0
VERTEX
  5
1B2B
  8
3
 10
52.71623043149998
 20
-51.87408198429989
 30
0.0
  0
VERTEX
  5
1B2C
  8
3
 10
52.85500000000002
 20
-52.24525779629994
 30
0.0
  0
SEQEND
  5
1B54
  8
3
  0
POLYLINE
  5
E4A
  8
3
 66
     1
 10
0.0
 20
0.0
 30
0.0
  0
VERTEX
  5
1B2D
  8
3
 10
53.05610312689987
 20
-52.36720623290012
 30
0.0
  0
VERTEX
  5
1B2E
  8
3
 10
52.90375351249986
 20
-51.95970700659996
 30
0.0
  0
VERTEX
  5
1B2F
  8
3
 10
52.46728032889996
 20
-51.60724280880004
 30
0.0
  0
VERTEX
  5
1B30
  8
3
 10
51.80563169829998
 20
-51.35741588259998
 30
0.0
  0
VERTEX
  5
1B31
  8
3
 10
51.00816693429988
 20
-51.24396673859997
 30
0.0
  0
VERTEX
  5
1B32
  8
3
 10
50.18258807239999
 20
-51.28221731240001
 30
0.0
  0
VERTEX
  5
1B33
  8
3
 10
49.44039411259996
 20
-51.46700165209995
 30
0.0
  0
VERTEX
  5
1B34
  8
3
 10
48.8818224616
 20
-51.77336360859999
 30
0.0
  0
VERTEX
  5
1B35
  8
3
 10
48.58231131619982
 20
-52.15992730209996
 30
0.0
  0
VERTEX
  5
1B36
  8
3
 10
48.58231131619982
 20
-52.57448516380009
 30
0.0
  0
VERTEX
  5
1B37
  8
3
 10
48.8818224616
 20
-52.96104885730006
 30
0.0
  0
VERTEX
  5
1B38
  8
3
 10
49.44039411259996
 20
-53.2674108138001
 30
0.0
  0
VERTEX
  5
1B39
  8
3
 10
50.18258807239999
 20
-53.4521951534
 30
0.0
  0
VERTEX
  5
1B3A
  8
3
 10
51.00816693429988
 20
-53.49044572720004
 30
0.0
  0
VERTEX
  5
1B3B
  8
3
 10
51.80563169829998
 20
-53.37699658330007
 30
0.0
  0
VERTEX
  5
1B3C
  8
3
 10
52.46728032889996
 20
-53.12716965699997
 30
0.0
  0
VERTEX
  5
1B3D
  8
3
 10
52.90375351249986
 20
-52.77470545920005
 30
0.0
  0
VERTEX
  5
1B3E
  8
3
 10
53.05610312689987
 20
-52.36720623290012
 30
0.0
  0
SEQEND
  5
1B53
  8
3
  0
LINE
  5
E4B
  8
3
 10
49.54999999999995
 20
-50.49033312439997
 30
0.0
 11
49.54999999999995
 21
-49.76864528789997
 31
0.0
  0
LINE
  5
E4C
  8
3
 10
49.54999999999995
 20
-50.49033312439997
 30
0.0
 11
49.54999999999995
 21
-52.82860171459993
 31
0.0
  0
LINE
  5
E4D
  8
3
 10
52.04999999999995
 20
-50.49033312439997
 30
0.0
 11
52.04999999999995
 21
-52.82860171459993
 31
0.0
  0
LINE
  5
E4E
  8
3
 10
52.04999999999995
 20
-50.49033312439997
 30
0.0
 11
52.04999999999995
 21
-49.76864528789997
 31
0.0
  0
POLYLINE
  5
E4F
  8
3
 66
     1
 10
0.0
 20
0.0
 30
0.0
  0
VERTEX
  5
1B3F
  8
3
 10
50.79999999999995
 20
-53.49525779629994
 30
0.0
  0
VERTEX
  5
1B40
  8
3
 10
50.05764837599986
 20
-53.42587301210006
 30
0.0
  0
VERTEX
  5
1B41
  8
3
 10
49.41555545229994
 20
-53.22708945880004
 30
0.0
  0
VERTEX
  5
1B42
  8
3
 10
48.96043943630002
 20
-52.92575395690005
 30
0.0
  0
VERTEX
  5
1B43
  8
3
 10
48.75376626770003
 20
-52.56256353570006
 30
0.0
  0
VERTEX
  5
1B44
  8
3
 10
48.82344830329998
 20
-52.18656907400009
 30
0.0
  0
VERTEX
  5
1B45
  8
3
 10
49.16007459799994
 20
-51.84855070749995
 30
0.0
  0
VERTEX
  5
1B46
  8
3
 10
49.71818190529984
 20
-51.59415968939993
 30
0.0
  0
VERTEX
  5
1B47
  8
3
 10
50.42239474090002
 20
-51.45775293640008
 30
0.0
  0
VERTEX
  5
1B48
  8
3
 10
51.17760525909989
 20
-51.45775293640008
 30
0.0
  0
VERTEX
  5
1B49
  8
3
 10
51.88181809469984
 20
-51.59415968939993
 30
0.0
  0
VERTEX
  5
1B4A
  8
3
 10
52.43992540210002
 20
-51.84855070749995
 30
0.0
  0
VERTEX
  5
1B4B
  8
3
 10
52.77655169669993
 20
-52.18656907400009
 30
0.0
  0
VERTEX
  5
1B4C
  8
3
 10
52.84623373229988
 20
-52.56256353570006
 30
0.0
  0
VERTEX
  5
1B4D
  8
3
 10
52.63956056379993
 20
-52.92575395690005
 30
0.0
  0
VERTEX
  5
1B4E
  8
3
 10
52.18444454769997
 20
-53.22708945880004
 30
0.0
  0
VERTEX
  5
1B4F
  8
3
 10
51.54235162399982
 20
-53.42587301210006
 30
0.0
  0
VERTEX
  5
1B50
  8
3
 10
50.79999999999995
 20
-53.49525779629994
 30
0.0
  0
SEQEND
  5
1B52
  8
3
  0
LINE
  5
E50
  8
3
 10
52.04999999999995
 20
-52.82860171459993
 30
0.0
 11
50.79999999999995
 21
-53.18944563280002
 31
0.0
  0
LINE
  5
E51
  8
3
 10
49.54999999999995
 20
-52.82860171459993
 30
0.0
 11
50.79999999999995
 21
-53.18944563280002
 31
0.0
  0
LINE
  5
E52
  8
3
 10
50.79999999999995
 20
-49.40780136960007
 30
0.0
 11
50.79999999999995
 21
-50.85117704260006
 31
0.0
  0
LINE
  5
E53
  8
3
 10
49.54999999999995
 20
-52.10691387809993
 30
0.0
 11
50.79999999999995
 21
-51.74606995990007
 31
0.0
  0
LINE
  5
E54
  8
3
 10
49.54999999999995
 20
-49.76864528789997
 30
0.0
 11
50.79999999999995
 21
-49.40780136960007
 31
0.0
  0
LINE
  5
E55
  8
3
 10
52.04999999999995
 20
-52.10691387809993
 30
0.0
 11
50.79999999999995
 21
-51.74606995990007
 31
0.0
  0
LINE
  5
E56
  8
3
 10
52.04999999999995
 20
-49.76864528789997
 30
0.0
 11
50.79999999999995
 21
-49.40780136960007
 31
0.0
  0
LINE
  5
E5F
  8
3
 10
63.5
 20
-33.33618999999999
 30
0.0
 11
46.6998051615999
 21
-33.33618999999999
 31
0.0
  0
LINE
  5
E60
  8
3
 10
46.6998051615999
 20
-58.74380999999994
 30
0.0
 11
63.5
 21
-58.74380999999994
 31
0.0
  0
ARC
  5
E61
  8
3
 10
46.44999999999982
 20
-30.22105906339993
 30
0.0
 40
3.12513093662803
 50
270.0
 51
274.584789450901
  0
ARC
  5
E62
  8
3
 10
46.44999999999982
 20
-61.85894093659999
 30
0.0
 40
3.12513093662803
 50
85.4152105490989
 51
90.0
  0
LINE
  5
E63
  8
3
 10
46.44999999999982
 20
-33.34618999999998
 30
0.0
 11
45.37483951069999
 21
-33.34618999999998
 31
0.0
  0
LINE
  5
E64
  8
3
 10
45.37483951069999
 20
-58.73380999999995
 30
0.0
 11
46.44999999999982
 21
-58.73380999999995
 31
0.0
  0
LINE
  5
E65
  8
3
 10
45.37483951069999
 20
-33.34618999999998
 30
0.0
 11
44.44999999999982
 21
-33.59400000000005
 31
0.0
  0
LINE
  5
E66
  8
3
 10
44.44999999999982
 20
-58.4860000000001
 30
0.0
 11
45.37483951069999
 21
-58.73380999999995
 31
0.0
  0
LINE
  5
E67
  8
3
 10
63.5
 20
58.74380999999994
 30
0.0
 11
46.6998051615999
 21
58.74380999999994
 31
0.0
  0
LINE
  5
E68
  8
3
 10
46.6998051615999
 20
33.33618999999999
 30
0.0
 11
63.5
 21
33.33618999999999
 31
0.0
  0
ARC
  5
E69
  8
3
 10
46.44999999999982
 20
61.85894093659999
 30
0.0
 40
3.12513093662803
 50
270.0
 51
274.584789450901
  0
ARC
  5
E6A
  8
3
 10
46.44999999999982
 20
30.22105906339993
 30
0.0
 40
3.125130936628238
 50
85.41521054909923
 51
90.0
  0
LINE
  5
E6B
  8
3
 10
46.44999999999982
 20
58.73380999999995
 30
0.0
 11
45.37483951069999
 21
58.73380999999995
 31
0.0
  0
LINE
  5
E6C
  8
3
 10
45.37483951069999
 20
33.34618999999998
 30
0.0
 11
46.44999999999982
 21
33.34618999999998
 31
0.0
  0
LINE
  5
E6D
  8
3
 10
45.37483951069999
 20
58.73380999999995
 30
0.0
 11
44.44999999999982
 21
58.4860000000001
 31
0.0
  0
LINE
  5
E6E
  8
3
 10
44.44999999999982
 20
33.59400000000005
 30
0.0
 11
45.37483951069999
 21
33.34618999999998
 31
0.0
  0
LINE
  5
E6F
  8
3
 10
63.5
 20
42.66726448429995
 30
0.0
 11
42.0
 21
42.66726448429995
 31
0.0
  0
LINE
  5
E70
  8
3
 10
42.0
 20
29.17478448430006
 30
0.0
 11
63.5
 21
29.17478448430006
 31
0.0
  0
LINE
  5
E71
  8
3
 10
63.5
 20
-29.17478448430006
 30
0.0
 11
42.0
 21
-29.17478448430006
 31
0.0
  0
LINE
  5
E72
  8
3
 10
42.0
 20
-42.66726448429995
 30
0.0
 11
63.5
 21
-42.66726448429995
 31
0.0
  0
LINE
  5
E76
  8
3
 10
63.5
 20
32.7490711605999
 30
0.0
 11
63.31362966949996
 21
32.05352761809991
 31
0.0
  0
LINE
  5
E77
  8
3
 10
63.31362966949996
 20
-32.05352761800009
 30
0.0
 11
63.5
 21
-32.74907116050008
 31
0.0
  0
ARC
  5
E78
  8
3
 10
63.69999999999982
 20
-31.95000000000005
 30
0.0
 40
0.399999999999925
 50
166.8750000000042
 51
194.9999999999978
  0
ARC
  5
E79
  8
3
 10
63.69999999999982
 20
-31.95000000000005
 30
0.0
 40
0.399999999999925
 50
120.0000000000139
 51
166.8750000000042
  0
ARC
  5
E7A
  8
3
 10
63.69999999999982
 20
31.95000000000005
 30
0.0
 40
0.3999999999999126
 50
165.0000000000022
 51
180.0
  0
ARC
  5
E7B
  8
3
 10
63.69999999999982
 20
31.95000000000005
 30
0.0
 40
0.399999999999898
 50
180.0
 51
239.999999999984
  0
LINE
  5
E7C
  8
3
 10
63.29999999999995
 20
31.95000000000005
 30
0.0
 11
63.29999999999995
 21
-31.95000000000005
 31
0.0
  0
LINE
  5
E7D
  8
3
 10
63.5
 20
2.5
 30
0.0
 11
51.51907942079993
 21
2.5
 31
0.0
  0
LINE
  5
E7E
  8
3
 10
50.0474123043
 20
2.5
 30
0.0
 11
48.09999999999991
 21
2.5
 31
0.0
  0
LINE
  5
E7F
  8
3
 10
48.09999999999991
 20
-2.5
 30
0.0
 11
50.12918006309997
 21
-2.5
 31
0.0
  0
LINE
  5
E80
  8
3
 10
51.52481173909996
 20
-2.5
 30
0.0
 11
63.5
 21
-2.5
 31
0.0
  0
LINE
  5
E81
  8
3
 10
48.09999999999991
 20
2.5
 30
0.0
 11
46.59784845249987
 21
0.0
 31
0.0
  0
LINE
  5
E82
  8
3
 10
46.59784845249987
 20
0.0
 30
0.0
 11
48.09999999999991
 21
-2.5
 31
0.0
  0
LINE
  5
E8D
  8
3
 10
63.50000000009982
 20
-33.34275000000002
 30
0.0
 11
39.50000000009982
 21
-33.34275000000002
 31
0.0
  0
LINE
  5
E8E
  8
3
 10
42.0
 20
-58.7372499999999
 30
0.0
 11
63.50000000009982
 21
-58.7372499999999
 31
0.0
  0
LINE
  5
E8F
  8
3
 10
63.50000000009982
 20
58.7372499999999
 30
0.0
 11
42.0
 21
58.7372499999999
 31
0.0
  0
LINE
  5
E90
  8
3
 10
39.50000000009982
 20
33.34275000000002
 30
0.0
 11
63.50000000009982
 21
33.34275000000002
 31
0.0
  0
LINE
  5
E93
  8
3
 10
63.5
 20
11.90625
 30
0.0
 11
32.09999999999991
 21
11.90625
 31
0.0
  0
LINE
  5
E94
  8
3
 10
32.09999999999991
 20
-11.90625
 30
0.0
 11
63.5
 21
-11.90625
 31
0.0
  0
LINE
  5
E95
  8
3
 10
32.09999999999991
 20
11.90625
 30
0.0
 11
31.62306688369995
 21
11.11249999999995
 31
0.0
  0
LINE
  5
E96
  8
3
 10
31.62306688369995
 20
-11.11249999999995
 30
0.0
 11
32.09999999999991
 21
-11.90625
 31
0.0
  0
LINE
  5
E9D
  8
3
 10
39.50000000009982
 20
-33.34275000000002
 30
0.0
 11
38.54928828559991
 21
-34.92499999999995
 31
0.0
  0
LINE
  5
E9E
  8
3
 10
38.54928828559991
 20
34.92499999999995
 30
0.0
 11
39.50000000009982
 21
33.34275000000002
 31
0.0
  0
LINE
  5
EA1
  8
3
 10
48.69999999999982
 20
15.17006543699995
 30
0.0
 11
48.69999999999982
 21
10.31044397939991
 31
0.0
  0
LINE
  5
EA2
  8
3
 10
52.89999999999986
 20
10.30720473499991
 30
0.0
 11
52.89999999999986
 21
15.17018574140002
 31
0.0
  0
LINE
  5
EA3
  8
3
 10
52.89999999999986
 20
-15.17018574129997
 30
0.0
 11
52.89999999999986
 21
-10.3072047349001
 31
0.0
  0
LINE
  5
EA4
  8
3
 10
48.69999999999982
 20
-10.31044397939991
 30
0.0
 11
48.69999999999982
 21
-15.1700654368999
 31
0.0
  0
LINE
  5
EA5
  8
3
 10
49.11674831999994
 20
-14.82050807569999
 30
0.0
 11
48.09999999999991
 21
-14.82050807569999
 31
0.0
  0
LINE
  5
EA6
  8
3
 10
63.5
 20
-14.82050807569999
 30
0.0
 11
52.46910529709999
 21
-14.82050807569999
 31
0.0
  0
LINE
  5
EA7
  8
3
 10
52.45002753049994
 20
-19.82050807569999
 30
0.0
 11
63.5
 21
-19.82050807569999
 31
0.0
  0
LINE
  5
EA8
  8
3
 10
48.09999999999991
 20
-19.82050807569999
 30
0.0
 11
49.11828950249992
 21
-19.82050807569999
 31
0.0
  0
LINE
  5
EA9
  8
3
 10
48.09999999999991
 20
-14.82050807569999
 30
0.0
 11
46.59784845249987
 21
-17.32050807569999
 31
0.0
  0
LINE
  5
EAA
  8
3
 10
46.59784845249987
 20
-17.32050807569999
 30
0.0
 11
48.09999999999991
 21
-19.82050807569999
 31
0.0
  0
LINE
  5
EAB
  8
3
 10
49.13089470289992
 20
19.82050807569999
 30
0.0
 11
48.09999999999991
 21
19.82050807569999
 31
0.0
  0
LINE
  5
EAC
  8
3
 10
63.5
 20
19.82050807569999
 30
0.0
 11
52.48325167999997
 21
19.82050807569999
 31
0.0
  0
LINE
  5
EAD
  8
3
 10
52.48171049760003
 20
14.82050807569999
 30
0.0
 11
63.5
 21
14.82050807569999
 31
0.0
  0
LINE
  5
EAE
  8
3
 10
48.09999999999991
 20
14.82050807569999
 30
0.0
 11
49.14997246949997
 21
14.82050807569999
 31
0.0
  0
LINE
  5
EAF
  8
3
 10
48.09999999999991
 20
19.82050807569999
 30
0.0
 11
46.59784845249987
 21
17.32050807569999
 31
0.0
  0
LINE
  5
EB0
  8
3
 10
46.59784845249987
 20
17.32050807569999
 30
0.0
 11
48.09999999999991
 21
14.82050807569999
 31
0.0
  0
LINE
  5
EB1
  8
3
 10
48.69999999999982
 20
52.46775779640006
 30
0.0
 11
48.69999999999982
 21
19.47083041010001
 31
0.0
  0
LINE
  5
EB2
  8
3
 10
52.89999999999986
 20
19.47095071450008
 30
0.0
 11
52.89999999999986
 21
52.46775779640006
 31
0.0
  0
LINE
  5
EB3
  8
3
 10
52.89999999999986
 20
-52.46775779630002
 30
0.0
 11
52.89999999999986
 21
-19.47095071440003
 31
0.0
  0
LINE
  5
EB4
  8
3
 10
48.69999999999982
 20
-19.47083040999996
 30
0.0
 11
48.69999999999982
 21
-52.46775779630002
 31
0.0
  0
LINE
  5
EB5
  8
3
 10
51.52710415870001
 20
-51.47980231859992
 30
0.0
 11
51.38168332689997
 21
-51.45884197879991
 31
0.0
  0
LINE
  5
EB6
  8
3
 10
50.21831667309993
 20
-51.45884197879991
 30
0.0
 11
50.07289584139994
 21
-51.47980231859992
 31
0.0
  0
LINE
  5
EB7
  8
3
 10
53.42499999999995
 20
-53.60683083589993
 30
0.0
 11
53.42499999999995
 21
-52.74094709049996
 31
0.0
  0
LINE
  5
EB8
  8
3
 10
48.17499999999995
 20
-52.74094709049996
 30
0.0
 11
48.17499999999995
 21
-53.60575329149992
 31
0.0
  0
LINE
  5
EB9
  8
3
 10
48.17499999999995
 20
53.60575329159997
 30
0.0
 11
48.17499999999995
 21
52.74094709049996
 31
0.0
  0
LINE
  5
EBA
  8
3
 10
53.42499999999995
 20
52.74094709049996
 30
0.0
 11
53.42499999999995
 21
53.60683083599997
 31
0.0
  0
LINE
  5
EBB
  8
3
 10
50.07289584139994
 20
51.47980231859992
 30
0.0
 11
50.21831667309993
 21
51.45884197889995
 31
0.0
  0
LINE
  5
EBC
  8
3
 10
51.38168332689997
 20
51.45884197889995
 30
0.0
 11
51.52710415870001
 21
51.47980231859992
 31
0.0
  0
LINE
  5
EBD
  8
3
 10
48.90839563609984
 20
47.09362719010005
 30
0.0
 11
49.37113098340001
 21
46.76642388810001
 31
0.0
  0
LINE
  5
EBE
  8
3
 10
52.2288690165999
 20
46.76642388810001
 30
0.0
 11
52.69160436399989
 21
47.09362719010005
 31
0.0
  0
LINE
  5
EBF
  8
3
 10
49.38549679599987
 20
47.16029426160003
 30
0.0
 11
49.63727836629982
 21
47.07390788099997
 31
0.0
  0
LINE
  5
EC0
  8
3
 10
51.96272163369986
 20
47.07390788099997
 30
0.0
 11
52.21450320409986
 21
47.16029426160003
 31
0.0
  0
LINE
  5
EC1
  8
3
 10
52.11081035539996
 20
48.71753162999994
 30
0.0
 11
51.96272163369986
 21
48.76834094330002
 31
0.0
  0
LINE
  5
EC2
  8
3
 10
49.63727836629982
 20
48.76834094330002
 30
0.0
 11
49.48918964459995
 21
48.71753162999994
 31
0.0
  0
LINE
  5
EC3
  8
3
 10
48.29999999999995
 20
48.26901085810005
 30
0.0
 11
48.29999999999995
 21
48.19097130680007
 31
0.0
  0
LINE
  5
EC4
  8
3
 10
53.29999999999995
 20
48.19097130680007
 30
0.0
 11
53.29999999999995
 21
48.26901085810005
 31
0.0
  0
LINE
  5
EC5
  8
3
 10
52.21450320409986
 20
49.29968790330008
 30
0.0
 11
51.96272163369986
 21
49.38607428389992
 31
0.0
  0
LINE
  5
EC6
  8
3
 10
49.63727836629982
 20
49.38607428389992
 30
0.0
 11
49.38549679599987
 21
49.29968790330008
 31
0.0
  0
LINE
  5
EC7
  8
3
 10
49.38549679599987
 20
47.77802760219993
 30
0.0
 11
49.63727836629982
 21
47.69164122160009
 31
0.0
  0
LINE
  5
EC8
  8
3
 10
51.96272163369986
 20
47.69164122160009
 30
0.0
 11
52.21450320399981
 21
47.77802760219993
 31
0.0
  0
LINE
  5
EC9
  8
3
 10
48.29999999999995
 20
48.88674419869994
 30
0.0
 11
48.29999999999995
 21
48.80870464739996
 31
0.0
  0
LINE
  5
ECA
  8
3
 10
53.29999999999995
 20
48.80870464739996
 30
0.0
 11
53.29999999999995
 21
48.88674419869994
 31
0.0
  0
LINE
  5
ECB
  8
3
 10
52.21450320399981
 20
49.91742124389998
 30
0.0
 11
51.96272163369986
 21
50.00380762450004
 31
0.0
  0
LINE
  5
ECC
  8
3
 10
49.63727836629982
 20
50.00380762450004
 30
0.0
 11
49.38549679599987
 21
49.91742124389998
 31
0.0
  0
LINE
  5
ECD
  8
3
 10
49.38549679599987
 20
48.39576094280005
 30
0.0
 11
49.63727836629982
 21
48.30937456219999
 31
0.0
  0
LINE
  5
ECE
  8
3
 10
51.96272163369986
 20
48.30937456219999
 30
0.0
 11
52.21450320399981
 21
48.39576094280005
 31
0.0
  0
LINE
  5
ECF
  8
3
 10
48.29999999999995
 20
49.50447753930007
 30
0.0
 11
48.29999999999995
 21
49.42643798800009
 31
0.0
  0
LINE
  5
ED0
  8
3
 10
53.29999999999995
 20
49.42643798800009
 30
0.0
 11
53.29999999999995
 21
49.50447753930007
 31
0.0
  0
LINE
  5
ED1
  8
3
 10
52.21450320409986
 20
50.53515458450011
 30
0.0
 11
51.96272163369986
 21
50.62154096509994
 31
0.0
  0
LINE
  5
ED2
  8
3
 10
49.63727836629982
 20
50.62154096509994
 30
0.0
 11
49.38549679599987
 21
50.53515458450011
 31
0.0
  0
LINE
  5
ED3
  8
3
 10
49.38549679599987
 20
49.01349428339995
 30
0.0
 11
49.63727836629982
 21
48.92710790279989
 31
0.0
  0
LINE
  5
ED4
  8
3
 10
51.96272163369986
 20
48.92710790279989
 30
0.0
 11
52.21450320409986
 21
49.01349428339995
 31
0.0
  0
LINE
  5
ED5
  8
3
 10
48.29999999999995
 20
50.12221087989997
 30
0.0
 11
48.29999999999995
 21
50.04417132859999
 31
0.0
  0
LINE
  5
ED6
  8
3
 10
53.29999999999995
 20
50.04417132859999
 30
0.0
 11
53.29999999999995
 21
50.12221087989997
 31
0.0
  0
LINE
  5
ED7
  8
3
 10
52.21450320409986
 20
51.1528879251
 30
0.0
 11
51.96272163369986
 21
51.23927430570006
 31
0.0
  0
LINE
  5
ED8
  8
3
 10
49.63727836629982
 20
51.23927430570006
 30
0.0
 11
49.38549679599987
 21
51.1528879251
 31
0.0
  0
LINE
  5
ED9
  8
3
 10
49.38549679599987
 20
49.63122762400008
 30
0.0
 11
49.63727836629982
 21
49.54484124340001
 31
0.0
  0
LINE
  5
EDA
  8
3
 10
51.96272163369986
 20
49.54484124340001
 30
0.0
 11
52.21450320409986
 21
49.63122762400008
 31
0.0
  0
LINE
  5
EDB
  8
3
 10
48.29999999999995
 20
50.73994422050009
 30
0.0
 11
48.29999999999995
 21
50.66190466919988
 31
0.0
  0
LINE
  5
EDC
  8
3
 10
53.29999999999995
 20
50.66190466919988
 30
0.0
 11
53.29999999999995
 21
50.73994422050009
 31
0.0
  0
LINE
  5
EDD
  8
3
 10
52.21450320409986
 20
51.7706212656999
 30
0.0
 11
51.96272163369986
 21
51.85700764629996
 31
0.0
  0
LINE
  5
EDE
  8
3
 10
49.63727836629982
 20
51.85700764629996
 30
0.0
 11
49.38549679599987
 21
51.7706212656999
 31
0.0
  0
LINE
  5
EDF
  8
3
 10
49.38549679599987
 20
50.24896096459997
 30
0.0
 11
49.63727836629982
 21
50.16257458399991
 31
0.0
  0
LINE
  5
EE0
  8
3
 10
51.96272163369986
 20
50.16257458399991
 30
0.0
 11
52.21450320409986
 21
50.24896096459997
 31
0.0
  0
LINE
  5
EE1
  8
3
 10
48.29999999999995
 20
51.35767756120003
 30
0.0
 11
48.29999999999995
 21
51.27963800980001
 31
0.0
  0
LINE
  5
EE2
  8
3
 10
53.29999999999995
 20
51.27963800980001
 30
0.0
 11
53.29999999999995
 21
51.35767756120003
 31
0.0
  0
LINE
  5
EE3
  8
3
 10
52.21450320409986
 20
52.38835460630003
 30
0.0
 11
51.96272163369986
 21
52.47474098690009
 31
0.0
  0
LINE
  5
EE4
  8
3
 10
49.63727836629982
 20
52.47474098690009
 30
0.0
 11
49.38549679599987
 21
52.38835460630003
 31
0.0
  0
LINE
  5
EE5
  8
3
 10
49.38549679599987
 20
50.8666943052001
 30
0.0
 11
49.63727836629982
 21
50.78030792460004
 31
0.0
  0
LINE
  5
EE6
  8
3
 10
51.96272163369986
 20
50.78030792460004
 30
0.0
 11
52.21450320409986
 21
50.8666943052001
 31
0.0
  0
LINE
  5
EE7
  8
3
 10
48.29999999999995
 20
51.97541090179993
 30
0.0
 11
48.29999999999995
 21
51.89737135039991
 31
0.0
  0
LINE
  5
EE8
  8
3
 10
53.29999999999995
 20
51.89737135039991
 30
0.0
 11
53.29999999999995
 21
51.97541090179993
 31
0.0
  0
LINE
  5
EE9
  8
3
 10
52.21450320409986
 20
53.00608794689992
 30
0.0
 11
51.96272163369986
 21
53.09247432749999
 31
0.0
  0
LINE
  5
EEA
  8
3
 10
49.63727836629982
 20
53.09247432749999
 30
0.0
 11
49.38549679599987
 21
53.00608794689992
 31
0.0
  0
LINE
  5
EEB
  8
3
 10
49.52349395939996
 20
51.43708075120003
 30
0.0
 11
49.63727836629982
 21
51.39804126529998
 31
0.0
  0
LINE
  5
EEC
  8
3
 10
51.9627216337999
 20
51.39804126529998
 30
0.0
 11
52.0765060407
 21
51.43708075120003
 31
0.0
  0
LINE
  5
EED
  8
3
 10
52.69160436399989
 20
-47.09362719010005
 30
0.0
 11
52.2288690165999
 21
-46.76642388810001
 31
0.0
  0
LINE
  5
EEE
  8
3
 10
49.37113098340001
 20
-46.76642388810001
 30
0.0
 11
48.90839563609984
 21
-47.09362719010005
 31
0.0
  0
LINE
  5
EEF
  8
3
 10
52.21450320409986
 20
-47.16029426160003
 30
0.0
 11
51.96272163369986
 21
-47.07390788099997
 31
0.0
  0
LINE
  5
EF0
  8
3
 10
49.63727836629982
 20
-47.07390788099997
 30
0.0
 11
49.38549679599987
 21
-47.16029426160003
 31
0.0
  0
LINE
  5
EF1
  8
3
 10
49.48918964459995
 20
-48.71753162999994
 30
0.0
 11
49.63727836629982
 21
-48.76834094319997
 31
0.0
  0
LINE
  5
EF2
  8
3
 10
51.96272163369986
 20
-48.76834094319997
 30
0.0
 11
52.11081035539996
 21
-48.71753162999994
 31
0.0
  0
LINE
  5
EF3
  8
3
 10
53.29999999999995
 20
-48.26901085810005
 30
0.0
 11
53.29999999999995
 21
-48.19097130670002
 31
0.0
  0
LINE
  5
EF4
  8
3
 10
48.29999999999995
 20
-48.19097130670002
 30
0.0
 11
48.29999999999995
 21
-48.26901085810005
 31
0.0
  0
LINE
  5
EF5
  8
3
 10
49.38549679599987
 20
-49.29968790330008
 30
0.0
 11
49.63727836629982
 21
-49.3860742838001
 31
0.0
  0
LINE
  5
EF6
  8
3
 10
51.96272163369986
 20
-49.3860742838001
 30
0.0
 11
52.21450320409986
 21
-49.29968790330008
 31
0.0
  0
LINE
  5
EF7
  8
3
 10
52.21450320399981
 20
-47.77802760219993
 30
0.0
 11
51.96272163369986
 21
-47.69164122160009
 31
0.0
  0
LINE
  5
EF8
  8
3
 10
49.63727836629982
 20
-47.69164122160009
 30
0.0
 11
49.38549679599987
 21
-47.77802760219993
 31
0.0
  0
LINE
  5
EF9
  8
3
 10
53.29999999999995
 20
-48.88674419869994
 30
0.0
 11
53.29999999999995
 21
-48.80870464729992
 31
0.0
  0
LINE
  5
EFA
  8
3
 10
48.29999999999995
 20
-48.80870464729992
 30
0.0
 11
48.29999999999995
 21
-48.88674419869994
 31
0.0
  0
LINE
  5
EFB
  8
3
 10
49.38549679599987
 20
-49.91742124389998
 30
0.0
 11
49.63727836629982
 21
-50.0038076244
 31
0.0
  0
LINE
  5
EFC
  8
3
 10
51.96272163369986
 20
-50.0038076244
 30
0.0
 11
52.21450320399981
 21
-49.91742124389998
 31
0.0
  0
LINE
  5
EFD
  8
3
 10
52.21450320399981
 20
-48.39576094280005
 30
0.0
 11
51.96272163369986
 21
-48.30937456219999
 31
0.0
  0
LINE
  5
EFE
  8
3
 10
49.63727836629982
 20
-48.30937456219999
 30
0.0
 11
49.38549679599987
 21
-48.39576094280005
 31
0.0
  0
LINE
  5
EFF
  8
3
 10
53.29999999999995
 20
-49.50447753930007
 30
0.0
 11
53.29999999999995
 21
-49.42643798790004
 31
0.0
  0
LINE
  5
F00
  8
3
 10
48.29999999999995
 20
-49.42643798790004
 30
0.0
 11
48.29999999999995
 21
-49.50447753930007
 31
0.0
  0
LINE
  5
F01
  8
3
 10
49.38549679599987
 20
-50.53515458450011
 30
0.0
 11
49.63727836629982
 21
-50.62154096509994
 31
0.0
  0
LINE
  5
F02
  8
3
 10
51.96272163369986
 20
-50.62154096509994
 30
0.0
 11
52.21450320409986
 21
-50.53515458450011
 31
0.0
  0
LINE
  5
F03
  8
3
 10
52.21450320409986
 20
-49.01349428339995
 30
0.0
 11
51.96272163369986
 21
-48.92710790280012
 31
0.0
  0
LINE
  5
F04
  8
3
 10
49.63727836629982
 20
-48.92710790280012
 30
0.0
 11
49.38549679599987
 21
-49.01349428339995
 31
0.0
  0
LINE
  5
F05
  8
3
 10
53.29999999999995
 20
-50.12221087989997
 30
0.0
 11
53.29999999999995
 21
-50.04417132849994
 31
0.0
  0
LINE
  5
F06
  8
3
 10
48.29999999999995
 20
-50.04417132849994
 30
0.0
 11
48.29999999999995
 21
-50.12221087989997
 31
0.0
  0
LINE
  5
F07
  8
3
 10
49.38549679599987
 20
-51.1528879251
 30
0.0
 11
49.63727836629982
 21
-51.23927430570006
 31
0.0
  0
LINE
  5
F08
  8
3
 10
51.96272163369986
 20
-51.23927430570006
 30
0.0
 11
52.21450320409986
 21
-51.1528879251
 31
0.0
  0
LINE
  5
F09
  8
3
 10
52.21450320409986
 20
-49.63122762400008
 30
0.0
 11
51.96272163369986
 21
-49.54484124340001
 31
0.0
  0
LINE
  5
F0A
  8
3
 10
49.63727836629982
 20
-49.54484124340001
 30
0.0
 11
49.38549679599987
 21
-49.63122762400008
 31
0.0
  0
LINE
  5
F0B
  8
3
 10
53.29999999999995
 20
-50.73994422050009
 30
0.0
 11
53.29999999999995
 21
-50.66190466920011
 31
0.0
  0
LINE
  5
F0C
  8
3
 10
48.29999999999995
 20
-50.66190466920011
 30
0.0
 11
48.29999999999995
 21
-50.73994422050009
 31
0.0
  0
LINE
  5
F0D
  8
3
 10
49.38549679599987
 20
-51.7706212656999
 30
0.0
 11
49.63727836629982
 21
-51.85700764629996
 31
0.0
  0
LINE
  5
F0E
  8
3
 10
51.96272163369986
 20
-51.85700764629996
 30
0.0
 11
52.21450320409986
 21
-51.7706212656999
 31
0.0
  0
LINE
  5
F0F
  8
3
 10
52.21450320409986
 20
-50.24896096459997
 30
0.0
 11
51.96272163369986
 21
-50.16257458399991
 31
0.0
  0
LINE
  5
F10
  8
3
 10
49.63727836629982
 20
-50.16257458399991
 30
0.0
 11
49.38549679599987
 21
-50.24896096459997
 31
0.0
  0
LINE
  5
F11
  8
3
 10
53.29999999999995
 20
-51.35767756109999
 30
0.0
 11
53.29999999999995
 21
-51.27963800980001
 31
0.0
  0
LINE
  5
F12
  8
3
 10
48.29999999999995
 20
-51.27963800980001
 30
0.0
 11
48.29999999999995
 21
-51.35767756109999
 31
0.0
  0
LINE
  5
F13
  8
3
 10
49.38549679599987
 20
-52.38835460630003
 30
0.0
 11
49.63727836629982
 21
-52.47474098690009
 31
0.0
  0
LINE
  5
F14
  8
3
 10
51.96272163369986
 20
-52.47474098690009
 30
0.0
 11
52.21450320409986
 21
-52.38835460630003
 31
0.0
  0
LINE
  5
F15
  8
3
 10
52.21450320409986
 20
-50.8666943052001
 30
0.0
 11
51.96272163369986
 21
-50.78030792460004
 31
0.0
  0
LINE
  5
F16
  8
3
 10
49.63727836629982
 20
-50.78030792460004
 30
0.0
 11
49.38549679599987
 21
-50.8666943052001
 31
0.0
  0
LINE
  5
F17
  8
3
 10
53.29999999999995
 20
-51.97541090170012
 30
0.0
 11
53.29999999999995
 21
-51.89737135039991
 31
0.0
  0
LINE
  5
F18
  8
3
 10
48.29999999999995
 20
-51.89737135039991
 30
0.0
 11
48.29999999999995
 21
-51.97541090170012
 31
0.0
  0
LINE
  5
F19
  8
3
 10
49.38549679599987
 20
-53.00608794689992
 30
0.0
 11
49.63727836629982
 21
-53.09247432749999
 31
0.0
  0
LINE
  5
F1A
  8
3
 10
51.96272163369986
 20
-53.09247432749999
 30
0.0
 11
52.21450320409986
 21
-53.00608794689992
 31
0.0
  0
LINE
  5
F1B
  8
3
 10
52.0765060407
 20
-51.43708075120003
 30
0.0
 11
51.9627216337999
 21
-51.39804126519994
 31
0.0
  0
LINE
  5
F1C
  8
3
 10
49.63727836629982
 20
-51.39804126519994
 30
0.0
 11
49.52349395939996
 21
-51.43708075120003
 31
0.0
  0
LINE
  5
F1D
  8
SK1
 10
107.1879999999999
 20
39.62400000000002
 30
0.0
 11
96.01199999999994
 21
39.62400000000002
 31
0.0
  0
LINE
  5
F1F
  8
SK1
 10
96.01199999999994
 20
-39.62400000000002
 30
0.0
 11
107.1879999999999
 21
-39.62400000000002
 31
0.0
  0
LINE
  5
F20
  8
SK1
 10
96.01199999999994
 20
39.62400000000002
 30
0.0
 11
95.25
 21
38.86200000000008
 31
0.0
  0
LINE
  5
F21
  8
SK1
 10
95.25
 20
-38.86200000000008
 30
0.0
 11
96.01199999999994
 21
-39.62400000000002
 31
0.0
  0
LINE
  5
F22
  8
SK1
 10
107.1879999999999
 20
-39.62400000000002
 30
0.0
 11
107.9499999999998
 21
-38.86200000000008
 31
0.0
  0
LINE
  5
F23
  8
SK1
 10
107.9499999999998
 20
38.86200000000008
 30
0.0
 11
107.1879999999999
 21
39.62400000000002
 31
0.0
  0
ARC
  5
F24
  8
SK1
 10
94.46259999999984
 20
13.48739999999998
 30
0.0
 40
0.7873999999999342
 50
270.0
 51
0.0
  0
ARC
  5
F25
  8
SK1
 10
94.46259999999984
 20
-13.48739999999998
 30
0.0
 40
0.7874000000001615
 50
0.0
 51
90.0
  0
LINE
  5
F26
  8
SK1
 10
94.46259999999984
 20
12.70000000000005
 30
0.0
 11
92.09999999999991
 21
12.70000000000005
 31
0.0
  0
LINE
  5
F27
  8
SK1
 10
92.09999999999991
 20
-12.70000000000005
 30
0.0
 11
94.46259999999984
 21
-12.70000000000005
 31
0.0
  0
LINE
  5
F28
  8
SK1
 10
63.52857499979996
 20
-33.33618999999999
 30
0.0
 11
63.5
 21
-33.33618999999999
 31
0.0
  0
LINE
  5
F2B
  8
SK1
 10
63.5
 20
33.33618999999999
 30
0.0
 11
63.52857499979996
 21
33.33618999999999
 31
0.0
  0
ARC
  5
F3F
  8
SK1
 10
63.69999999999982
 20
-31.95000000000005
 30
0.0
 40
0.3999999999999126
 50
75.00000000000219
 51
120.000000000016
  0
ARC
  5
F40
  8
SK1
 10
63.69999999999982
 20
31.95000000000005
 30
0.0
 40
0.4000000000001322
 50
240.0000000000044
 51
284.9999999999894
  0
ARC
  5
F41
  8
SK1
 10
90.09999999999991
 20
-29.75
 30
0.0
 40
2.0
 50
270.0
 51
0.0
  0
ARC
  5
F42
  8
SK1
 10
90.09999999999991
 20
29.75
 30
0.0
 40
2.0
 50
0.0
 51
90.0
  0
LINE
  5
F43
  8
SK1
 10
64.4990711605999
 20
-31.75
 30
0.0
 11
90.09999999999991
 21
-31.75
 31
0.0
  0
LINE
  5
F44
  8
SK1
 10
90.09999999999991
 20
31.75
 30
0.0
 11
64.4990711605999
 21
31.75
 31
0.0
  0
LINE
  5
F45
  8
SK1
 10
64.4990711605999
 20
31.75
 30
0.0
 11
63.80352761809991
 21
31.56362966949996
 31
0.0
  0
LINE
  5
F46
  8
SK1
 10
63.80352761809991
 20
-31.56362966949996
 30
0.0
 11
64.4990711605999
 21
-31.75
 31
0.0
  0
LINE
  5
F49
  8
SK1
 10
107.1879999999999
 20
39.62400000000002
 30
0.0
 11
107.1879999999999
 21
-39.62400000000002
 31
0.0
  0
LINE
  5
F4A
  8
SK1
 10
96.01199999999994
 20
39.62400000000002
 30
0.0
 11
96.01199999999994
 21
-39.62400000000002
 31
0.0
  0
LINE
  5
F4B
  8
SK1
 10
95.25
 20
38.86200000000008
 30
0.0
 11
95.25
 21
-38.86200000000008
 31
0.0
  0
LINE
  5
F4C
  8
SK1
 10
107.9499999999998
 20
38.86200000000008
 30
0.0
 11
107.9499999999998
 21
-38.86200000000008
 31
0.0
  0
LINE
  5
F4D
  8
SK1
 10
76.19999999999982
 20
-33.33999999999992
 30
0.0
 11
63.5
 21
-33.33999999999992
 31
0.0
  0
LINE
  5
F4E
  8
SK1
 10
76.19999999999982
 20
-33.33999999999992
 30
0.0
 11
76.19999999999982
 21
-58.74000000000001
 31
0.0
  0
LINE
  5
F4F
  8
SK1
 10
76.19999999999982
 20
-58.74000000000001
 30
0.0
 11
63.5
 21
-58.74000000000001
 31
0.0
  0
LINE
  5
F50
  8
SK1
 10
76.19999999999982
 20
58.74000000000001
 30
0.0
 11
63.5
 21
58.74000000000001
 31
0.0
  0
LINE
  5
F51
  8
SK1
 10
76.19999999999982
 20
58.74000000000001
 30
0.0
 11
76.19999999999982
 21
33.33999999999992
 31
0.0
  0
LINE
  5
F52
  8
SK1
 10
76.19999999999982
 20
33.33999999999992
 30
0.0
 11
63.5
 21
33.33999999999992
 31
0.0
  0
LINE
  5
F7F
  8
SK1
 10
92.09999999999991
 20
0.0
 30
0.0
 11
92.09999999999991
 21
29.75
 31
0.0
  0
LINE
  5
F80
  8
SK1
 10
92.09999999999991
 20
-29.75
 30
0.0
 11
92.09999999999991
 21
0.0
 31
0.0
  0
LINE
  5
F81
  8
SK1
 10
64.4990711605999
 20
0.0
 30
0.0
 11
64.4990711605999
 21
31.75
 31
0.0
  0
LINE
  5
F82
  8
SK1
 10
64.4990711605999
 20
-31.75
 30
0.0
 11
64.4990711605999
 21
0.0
 31
0.0
  0
LINE
  5
F8B
  8
SK3
 10
64.76873
 20
12.70000000000005
 30
0.0
 11
64.76873
 21
-12.70000000000005
 31
0.0
  0
LINE
  5
F8E
  8
SK3
 10
98.42499999999995
 20
0.0
 30
0.0
 11
107.9499999999998
 21
0.0
 31
0.0
  0
LINE
  5
F8F
  8
SK3
 10
98.42499999999995
 20
4.775200000000041
 30
0.0
 11
98.42499999999995
 21
0.0
 31
0.0
  0
LINE
  5
F90
  8
SK3
 10
98.42499999999995
 20
0.0
 30
0.0
 11
98.42499999999995
 21
-4.775200000000041
 31
0.0
  0
LINE
  5
F91
  8
SK3
 10
97.78999999999996
 20
9.550400000000081
 30
0.0
 11
97.78999999999996
 21
-9.550400000000081
 31
0.0
  0
LINE
  5
F92
  8
SK3
 10
98.42499999999995
 20
9.550400000000081
 30
0.0
 11
98.42499999999995
 21
4.775200000000041
 31
0.0
  0
LINE
  5
F93
  8
SK3
 10
98.42499999999995
 20
-4.775200000000041
 30
0.0
 11
98.42499999999995
 21
-9.550400000000081
 31
0.0
  0
LINE
  5
F94
  8
SK3
 10
98.42499999999995
 20
9.550400000000081
 30
0.0
 11
107.9499999999998
 21
9.550400000000081
 31
0.0
  0
LINE
  5
F95
  8
SK3
 10
98.42499999999995
 20
-9.550400000000081
 30
0.0
 11
107.9499999999998
 21
-9.550400000000081
 31
0.0
  0
LINE
  5
FA2
  8
SK3
 10
91.23397449409981
 20
-13.25
 30
0.0
 11
91.23397449409981
 21
13.25
 31
0.0
  0
LINE
  5
FA7
  8
SK3
 10
89.09999999999991
 20
13.25
 30
0.0
 11
89.09999999999991
 21
-13.25
 31
0.0
  0
LINE
  5
FB0
  8
SK3
 10
88.90653122139997
 20
11.90625
 30
0.0
 11
88.90653122139997
 21
-11.90625
 31
0.0
  0
LINE
  5
1017
  8
SK3
 10
92.09999999999991
 20
12.70000000000005
 30
0.0
 11
64.76873
 21
12.70000000000005
 31
0.0
  0
LINE
  5
1018
  8
SK3
 10
64.76873
 20
-12.70000000000005
 30
0.0
 11
92.09999999999991
 21
-12.70000000000005
 31
0.0
  0
LINE
  5
1019
  8
SK3
 10
64.76873
 20
12.70000000000005
 30
0.0
 11
63.5
 21
11.43127000000004
 31
0.0
  0
LINE
  5
101A
  8
SK3
 10
63.5
 20
-11.43127000000004
 30
0.0
 11
64.76873
 21
-12.70000000000005
 31
0.0
  0
LINE
  5
101B
  8
SK3
 10
98.42499999999995
 20
9.550400000000081
 30
0.0
 11
97.78999999999996
 21
9.550400000000081
 31
0.0
  0
LINE
  5
101C
  8
SK3
 10
97.78999999999996
 20
-9.550400000000081
 30
0.0
 11
98.42499999999995
 21
-9.550400000000081
 31
0.0
  0
LINE
  5
101D
  8
SK3
 10
97.78999999999996
 20
9.550400000000081
 30
0.0
 11
92.05154074409984
 21
0.0
 31
0.0
  0
LINE
  5
101E
  8
SK3
 10
92.05154074409984
 20
0.0
 30
0.0
 11
97.78999999999996
 21
-9.550400000000081
 31
0.0
  0
LINE
  5
103D
  8
SK3
 10
92.09999999999991
 20
2.5
 30
0.0
 11
63.5
 21
2.5
 31
0.0
  0
LINE
  5
1040
  8
SK3
 10
63.5
 20
-2.5
 30
0.0
 11
92.09999999999991
 21
-2.5
 31
0.0
  0
LINE
  5
1045
  8
SK3
 10
92.09999999999991
 20
13.75000005900006
 30
0.0
 11
91.23397449409981
 21
13.25
 31
0.0
  0
LINE
  5
1046
  8
SK3
 10
91.23397449409981
 20
-13.25
 30
0.0
 11
92.09999999999991
 21
-13.75000005900006
 31
0.0
  0
LINE
  5
1049
  8
SK3
 10
91.23397449409981
 20
13.25
 30
0.0
 11
89.09999999999991
 21
13.25
 31
0.0
  0
LINE
  5
104A
  8
SK3
 10
89.09999999999991
 20
-13.25
 30
0.0
 11
91.23397449409981
 21
-13.25
 31
0.0
  0
LINE
  5
1051
  8
SK3
 10
89.09999999999991
 20
12.01794925149989
 30
0.0
 11
88.90653122139997
 21
11.90625
 31
0.0
  0
LINE
  5
1052
  8
SK3
 10
88.90653122139997
 20
-11.90625
 30
0.0
 11
89.09999999999991
 21
-12.01794925140007
 31
0.0
  0
LINE
  5
1053
  8
SK3
 10
88.90653122139997
 20
11.90625
 30
0.0
 11
63.5
 21
11.90625
 31
0.0
  0
LINE
  5
1054
  8
SK3
 10
63.5
 20
-11.90625
 30
0.0
 11
88.90653122139997
 21
-11.90625
 31
0.0
  0
LINE
  5
1066
  8
SK3
 10
92.09999999999991
 20
-14.82050807569999
 30
0.0
 11
63.5
 21
-14.82050807569999
 31
0.0
  0
LINE
  5
1067
  8
SK3
 10
63.5
 20
-19.82050807569999
 30
0.0
 11
92.09999999999991
 21
-19.82050807569999
 31
0.0
  0
LINE
  5
106C
  8
SK3
 10
92.09999999999991
 20
19.82050807569999
 30
0.0
 11
63.5
 21
19.82050807569999
 31
0.0
  0
LINE
  5
106D
  8
SK3
 10
63.5
 20
14.82050807569999
 30
0.0
 11
92.09999999999991
 21
14.82050807569999
 31
0.0
  0
LINE
  5
10E2
  8
3
 10
31.62306688369995
 20
11.11249999999995
 30
0.0
 11
0.0
 21
11.11249999999995
 31
0.0
  0
LINE
  5
10E3
  8
3
 10
31.62306688369995
 20
-11.11249999999995
 30
0.0
 11
0.0
 21
-11.11249999999995
 31
0.0
  0
ARC
  5
10EB
  8
NOCUT
 10
43.0
 20
60.90000000000009
 30
0.0
 40
1.0
 50
90.0
 51
180.0
  0
ARC
  5
10ED
  8
NOCUT
 10
62.5
 20
60.90000000000009
 30
0.0
 40
1.0
 50
0.0
 51
90.0
  0
LINE
  5
10EE
  8
NOCUT
 10
62.5
 20
61.90000000000009
 30
0.0
 11
43.0
 21
61.90000000000009
 31
0.0
  0
LINE
  5
10EF
  8
NOCUT
 10
63.52857499979996
 20
58.74380999999994
 30
0.0
 11
63.5
 21
58.74380999999994
 31
0.0
  0
LINE
  5
10F0
  8
NOCUT
 10
63.5
 20
0.0
 30
0.0
 11
63.5
 21
60.90000000000009
 31
0.0
  0
LINE
  5
10F5
  8
SK4
 10
63.49999999999999
 20
0.0
 30
0.0
 11
107.9499999999998
 21
0.0
 31
0.0
  0
DIMENSION
  5
10F7
  8
SK2
  2
*D6
 10
145.2745338678514
 20
-61.9000000000001
 30
0.0
 11
143.3995338678514
 21
-0.0000000000000071
 31
0.0
 70
    32
  3
ISO-25
 13
62.5
 23
61.90000000000009
 33
0.0
 14
62.5
 24
-61.90000000000009
 34
0.0
 50
90.0
1001
ACAD
1000
DSTYLE
1002
{
1070
   287
1070
     5
1070
   271
1070
     3
1070
   272
1070
     3
1070
   279
1070
     2
1002
}
  0
DIMENSION
  5
1106
  8
SK2
  2
*D7
 10
125.7047100529363
 20
-31.75
 30
0.0
 11
123.8297100529363
 21
-0.0000000000000036
 31
0.0
 70
    32
  3
ISO-25
 13
90.09999999999991
 23
31.75
 33
0.0
 14
90.09999999999991
 24
-31.75
 34
0.0
 50
90.0
1001
ACAD
1000
DSTYLE
1002
{
1070
   287
1070
     5
1070
   271
1070
     3
1070
   272
1070
     3
1070
   279
1070
     2
1002
}
  0
LINE
  5
1117
  8
NOCUT
 10
42.0
 20
60.90000000000009
 30
0.0
 11
42.0
 21
36.92499999999999
 31
0.0
  0
ARC
  5
111C
  8
NOCUT
 10
40.0
 20
36.92499999999999
 30
0.0
 40
2.000000000000001
 50
270.0
 51
0.0
  0
ENDSEC
  0
EOF
