  0
SECTION
  2
HEADER
  9
$ACADVER
  1
AC1009
  9
$DWGCODEPAGE
  3
ansi_1251
  9
$INSBASE
 10
0.0
 20
0.0
 30
0.0
  9
$EXTMIN
 10
-68.25000000000001
 20
-30.5409271246
 30
0.0
  9
$EXTMAX
 10
88.90000000000003
 20
30.50275418977125
 30
0.0
  9
$LIMMIN
 10
0.0
 20
0.0
  9
$LIMMAX
 10
420.0
 20
297.0
  9
$ORTHOMODE
 70
     1
  9
$REGENMODE
 70
     1
  9
$FILLMODE
 70
     1
  9
$QTEXTMODE
 70
     0
  9
$MIRRTEXT
 70
     0
  9
$DRAGMODE
 70
     2
  9
$LTSCALE
 40
1.0
  9
$OSMODE
 70
   279
  9
$ATTMODE
 70
     1
  9
$TEXTSIZE
 40
2.5
  9
$TRACEWID
 40
1.0
  9
$TEXTSTYLE
  7
STANDARD
  9
$CLAYER
  8
1
  9
$CELTYPE
  6
BYLAYER
  9
$CECOLOR
 62
   256
  9
$DIMSCALE
 40
1.0
  9
$DIMASZ
 40
2.5
  9
$DIMEXO
 40
0.625
  9
$DIMDLI
 40
3.75
  9
$DIMRND
 40
0.0
  9
$DIMDLE
 40
0.0
  9
$DIMEXE
 40
1.25
  9
$DIMTP
 40
0.0
  9
$DIMTM
 40
0.0
  9
$DIMTXT
 40
2.5
  9
$DIMCEN
 40
2.5
  9
$DIMTSZ
 40
0.0
  9
$DIMTOL
 70
     0
  9
$DIMLIM
 70
     0
  9
$DIMTIH
 70
     0
  9
$DIMTOH
 70
     0
  9
$DIMSE1
 70
     0
  9
$DIMSE2
 70
     0
  9
$DIMTAD
 70
     1
  9
$DIMZIN
 70
     8
  9
$DIMBLK
  1

  9
$DIMASO
 70
     1
  9
$DIMSHO
 70
     1
  9
$DIMPOST
  1

  9
$DIMAPOST
  1

  9
$DIMALT
 70
     0
  9
$DIMALTD
 70
     3
  9
$DIMALTF
 40
0.03937007874016
  9
$DIMLFAC
 40
1.0
  9
$DIMTOFL
 70
     1
  9
$DIMTVP
 40
0.0
  9
$DIMTIX
 70
     0
  9
$DIMSOXD
 70
     0
  9
$DIMSAH
 70
     0
  9
$DIMBLK1
  1

  9
$DIMBLK2
  1

  9
$DIMSTYLE
  2
ISO-25
  9
$DIMCLRD
 70
     0
  9
$DIMCLRE
 70
     0
  9
$DIMCLRT
 70
     0
  9
$DIMTFAC
 40
1.0
  9
$DIMGAP
 40
0.625
  9
$LUNITS
 70
     2
  9
$LUPREC
 70
     3
  9
$SKETCHINC
 40
1.0
  9
$FILLETRAD
 40
10.0
  9
$AUNITS
 70
     0
  9
$AUPREC
 70
     0
  9
$MENU
  1
.
  9
$ELEVATION
 40
0.0
  9
$PELEVATION
 40
0.0
  9
$THICKNESS
 40
0.0
  9
$LIMCHECK
 70
     0
  9
$CHAMFERA
 40
10.0
  9
$CHAMFERB
 40
10.0
  9
$SKPOLY
 70
     0
  9
$TDCREATE
 40
2455022.429026158
  9
$TDUPDATE
 40
2458659.538982558
  9
$TDINDWG
 40
0.1506771181
  9
$TDUSRTIMER
 40
2458702.795585336
  9
$USRTIMER
 70
     1
  9
$ANGBASE
 50
0.0
  9
$ANGDIR
 70
     0
  9
$PDMODE
 70
     0
  9
$PDSIZE
 40
0.0
  9
$PLINEWID
 40
0.0
  9
$COORDS
 70
     1
  9
$SPLFRAME
 70
     0
  9
$SPLINETYPE
 70
     6
  9
$SPLINESEGS
 70
     8
  9
$ATTDIA
 70
     0
  9
$ATTREQ
 70
     1
  9
$HANDLING
 70
     1
  9
$HANDSEED
  5
2107
  9
$SURFTAB1
 70
     6
  9
$SURFTAB2
 70
     6
  9
$SURFTYPE
 70
     6
  9
$SURFU
 70
     6
  9
$SURFV
 70
     6
  9
$UCSNAME
  2

  9
$UCSORG
 10
0.0
 20
0.0
 30
0.0
  9
$UCSXDIR
 10
1.0
 20
0.0
 30
0.0
  9
$UCSYDIR
 10
0.0
 20
1.0
 30
0.0
  9
$PUCSNAME
  2

  9
$PUCSORG
 10
0.0
 20
0.0
 30
0.0
  9
$PUCSXDIR
 10
1.0
 20
0.0
 30
0.0
  9
$PUCSYDIR
 10
0.0
 20
1.0
 30
0.0
  9
$USERI1
 70
     0
  9
$USERI2
 70
     0
  9
$USERI3
 70
     0
  9
$USERI4
 70
     0
  9
$USERI5
 70
     0
  9
$USERR1
 40
0.0
  9
$USERR2
 40
0.0
  9
$USERR3
 40
0.0
  9
$USERR4
 40
0.0
  9
$USERR5
 40
0.0
  9
$WORLDVIEW
 70
     1
  9
$SHADEDGE
 70
     3
  9
$SHADEDIF
 70
    70
  9
$TILEMODE
 70
     1
  9
$MAXACTVP
 70
    64
  9
$PLIMCHECK
 70
     0
  9
$PEXTMIN
 10
1.000000000000000E+20
 20
1.000000000000000E+20
 30
1.000000000000000E+20
  9
$PEXTMAX
 10
-1.000000000000000E+20
 20
-1.000000000000000E+20
 30
-1.000000000000000E+20
  9
$PLIMMIN
 10
0.0
 20
0.0
  9
$PLIMMAX
 10
420.0
 20
297.0
  9
$UNITMODE
 70
     0
  9
$VISRETAIN
 70
     1
  9
$PLINEGEN
 70
     0
  9
$PSLTSCALE
 70
     1
  0
ENDSEC
  0
SECTION
  2
TABLES
  0
TABLE
  2
VPORT
 70
     1
  0
VPORT
  2
*ACTIVE
 70
     0
 10
0.0
 20
0.0
 11
1.0
 21
1.0
 12
65.62284772637136
 22
2.364054822916685
 13
0.0
 23
0.0
 14
10.0
 24
10.0
 15
10.0
 25
10.0
 16
0.0
 26
0.0
 36
1.0
 17
0.0
 27
0.0
 37
0.0
 40
255.9378924467717
 41
1.332880434782609
 42
50.0
 43
0.0
 44
0.0
 50
0.0
 51
0.0
 71
    16
 72
  1000
 73
     1
 74
     3
 75
     0
 76
     0
 77
     0
 78
     0
  0
ENDTAB
  0
TABLE
  2
LTYPE
 70
     6
  0
LTYPE
  2
CONTINUOUS
 70
     0
  3
Solid line
 72
    65
 73
     0
 40
0.0
  0
LTYPE
  2
CENTER
 70
     0
  3
 Center _____  _  _____  _  _____  _  _____  _ 
 72
    65
 73
     4
 40
50.8
 49
31.75
 49
-6.35
 49
6.35
 49
-6.35
  0
LTYPE
  2
DASHED
 70
     0
  3
Dashed __  __  __  __  __  __  __  __  __  __  
 72
    65
 73
     2
 40
19.05
 49
12.7
 49
-6.35
  0
LTYPE
  2
HIDDEN
 70
     0
  3
Hidden __ __ __ __ __ __ __ __ __ __ __ __ __ __
 72
    65
 73
     2
 40
1.905
 49
1.27
 49
-0.635
  0
LTYPE
  2
CENTERX2
 70
     0
  3
Center (2x) ________  __  ________  __  _____
 72
    65
 73
     4
 40
20.32
 49
12.7
 49
-2.54
 49
2.54
 49
-2.54
  0
LTYPE
  2
PHANTOM
 70
     0
  3
Phantom ______  __  __  ______  __  __  ______
 72
    65
 73
     6
 40
12.7
 49
6.35
 49
-1.27
 49
1.27
 49
-1.27
 49
1.27
 49
-1.27
  0
ENDTAB
  0
TABLE
  2
LAYER
 70
    26
  0
LAYER
  2
0
 70
     0
 62
     7
  6
CONTINUOUS
  0
LAYER
  2
1
 70
     0
 62
     4
  6
CONTINUOUS
  0
LAYER
  2
2
 70
     0
 62
     7
  6
CONTINUOUS
  0
LAYER
  2
3
 70
     0
 62
     1
  6
DASHED
  0
LAYER
  2
4
 70
     0
 62
     2
  6
CENTER
  0
LAYER
  2
6
 70
     0
 62
     5
  6
CONTINUOUS
  0
LAYER
  2
7
 70
     0
 62
     5
  6
CONTINUOUS
  0
LAYER
  2
11
 70
     0
 62
     4
  6
CONTINUOUS
  0
LAYER
  2
SK1
 70
     0
 62
     4
  6
CONTINUOUS
  0
LAYER
  2
SK2
 70
     0
 62
     7
  6
CONTINUOUS
  0
LAYER
  2
SK3
 70
     0
 62
     1
  6
DASHED
  0
LAYER
  2
SK4
 70
     0
 62
     2
  6
CENTER
  0
LAYER
  2
SK6
 70
     0
 62
     5
  6
CONTINUOUS
  0
LAYER
  2
SK7
 70
     0
 62
     5
  6
CONTINUOUS
  0
LAYER
  2
SK11
 70
     0
 62
     4
  6
CONTINUOUS
  0
LAYER
  2
CUT
 70
     0
 62
     1
  6
CONTINUOUS
  0
LAYER
  2
NOCUT
 70
     0
 62
    -7
  6
CONTINUOUS
  0
LAYER
  2
SKVIEW1
 70
     0
 62
     4
  6
CONTINUOUS
  0
LAYER
  2
SKVIEW2
 70
     0
 62
     7
  6
CONTINUOUS
  0
LAYER
  2
SKVIEW3
 70
     0
 62
     1
  6
DASHED
  0
LAYER
  2
SKVIEW4
 70
     0
 62
     2
  6
CENTER
  0
LAYER
  2
SKVIEW6
 70
     0
 62
     5
  6
CONTINUOUS
  0
LAYER
  2
SKVIEW7
 70
     0
 62
     5
  6
CONTINUOUS
  0
LAYER
  2
SKVIEW11
 70
     0
 62
     4
  6
CONTINUOUS
  0
LAYER
  2
INFTOTAL
 70
     0
 62
     9
  6
CONTINUOUS
  0
LAYER
  2
DEFPOINTS
 70
     0
 62
     7
  6
CONTINUOUS
  0
ENDTAB
  0
TABLE
  2
STYLE
 70
     1
  0
STYLE
  2
STANDARD
 70
     0
 40
0.0
 41
1.0
 50
0.0
 71
     0
 42
2.5
  3
txt
  4

  0
ENDTAB
  0
TABLE
  2
VIEW
 70
     0
  0
ENDTAB
  0
TABLE
  2
UCS
 70
     0
  0
ENDTAB
  0
TABLE
  2
APPID
 70
     2
  0
APPID
  2
ACAD
 70
     0
  0
APPID
  2
ACAECLAYERSTANDARD
 70
     0
  0
ENDTAB
  0
TABLE
  2
DIMSTYLE
 70
     1
  0
DIMSTYLE
  2
ISO-25
 70
     0
  3

  4

  5

  6

  7

 40
1.0
 41
2.5
 42
0.625
 43
3.75
 44
1.25
 45
0.0
 46
0.0
 47
0.0
 48
0.0
140
2.5
141
2.5
142
0.0
143
0.03937007874016
144
1.0
145
0.0
146
1.0
147
0.625
 71
     0
 72
     0
 73
     0
 74
     0
 75
     0
 76
     0
 77
     1
 78
     8
170
     0
171
     3
172
     1
173
     0
174
     0
175
     0
176
     0
177
     0
178
     0
  0
ENDTAB
  0
ENDSEC
  0
SECTION
  2
BLOCKS
  0
BLOCK
  8
0
  2
$MODEL_SPACE
 70
     0
 10
0.0
 20
0.0
 30
0.0
  3
$MODEL_SPACE
  1

  0
ENDBLK
  5
21
  8
0
  0
BLOCK
 67
     1
  8
0
  2
$PAPER_SPACE
 70
     0
 10
0.0
 20
0.0
 30
0.0
  3
$PAPER_SPACE
  1

  0
ENDBLK
  5
1D
 67
     1
  8
0
  0
BLOCK
  8
0
  2
*U0
 70
     1
 10
0.0
 20
0.0
 30
0.0
  3
*U0
  1

  0
TEXT
  5
77E
  8
SK6
 10
-50.0
 20
78.25
 30
0.0
 40
3.5
  1
BIG KAISER
 41
0.85
  0
TEXT
  5
781
  8
SK6
 10
-50.0
 20
73.0
 30
0.0
 40
3.5
  1
BCV50-SMC2.000-6
 41
0.85
  0
ENDBLK
  5
782
  8
0
  0
BLOCK
  8
0
  2
_FILLED
 70
     0
 10
0.0
 20
0.0
 30
0.0
  3
_FILLED
  1

  0
SOLID
  5
789
  8
0
  6
BYBLOCK
 62
     0
 10
0.0
 20
0.0
 30
0.0
 11
-1.0
 21
0.2142857143
 31
0.0
 12
-1.0
 22
-0.2142857143
 32
0.0
 13
-1.0
 23
-0.2142857143
 33
0.0
  0
ENDBLK
  5
78A
  8
0
  6
BYBLOCK
 62
     0
  0
BLOCK
  8
0
  2
*U2
 70
     1
 10
0.0
 20
0.0
 30
0.0
  3
*U2
  1

  0
TEXT
  5
790
  8
SK6
 10
-85.96178542556666
 20
-67.06748653279999
 30
0.0
 40
3.5
  1
BCV50
 41
0.85
  0
ENDBLK
  5
791
  8
0
  0
BLOCK
  8
0
  2
*D5
 70
     1
 10
0.0
 20
0.0
 30
0.0
  3
*D5
  1

  0
LINE
  5
808
  8
SK2
 62
     0
 10
0.0
 20
35.54999999999998
 30
0.0
 11
0.0
 21
72.48091717228411
 31
0.0
  0
LINE
  5
809
  8
SK2
 62
     0
 10
152.3999999999999
 20
61.52499999999986
 30
0.0
 11
152.3999999999999
 21
72.48091717228411
 31
0.0
  0
LINE
  5
80A
  8
SK2
 62
     0
 10
2.5
 20
71.23091717228411
 30
0.0
 11
149.8999999999999
 21
71.23091717228411
 31
0.0
  0
SOLID
  5
80B
  8
SK2
 62
     0
 10
2.5
 20
71.64758383895078
 30
0.0
 11
2.5
 21
70.81425050561744
 31
0.0
 12
0.0
 22
71.23091717228411
 32
0.0
 13
0.0
 23
71.23091717228411
 33
0.0
  0
SOLID
  5
80C
  8
SK2
 62
     0
 10
149.8999999999999
 20
70.81425050561744
 30
0.0
 11
149.8999999999999
 21
71.64758383895078
 31
0.0
 12
152.3999999999999
 22
71.23091717228411
 32
0.0
 13
152.3999999999999
 23
71.23091717228411
 33
0.0
  0
TEXT
  5
80D
  8
SK2
  6
CONTINUOUS
 62
     0
 10
71.61666666666663
 20
71.85591717228411
 30
0.0
 40
2.5
  1
152.4
  0
POINT
  5
80E
  8
DEFPOINTS
 62
     0
 10
0.0
 20
34.92499999999998
 30
0.0
  0
POINT
  5
80F
  8
DEFPOINTS
 62
     0
 10
152.3999999999999
 20
60.89999999999986
 30
0.0
  0
POINT
  5
810
  8
DEFPOINTS
 62
     0
 10
152.3999999999999
 20
71.23091717228411
 30
0.0
  0
ENDBLK
  5
812
  8
0
  0
BLOCK
  8
0
  2
*D6
 70
     1
 10
0.0
 20
0.0
 30
0.0
  3
*D6
  1

  0
LINE
  5
10F2
  8
SK2
 62
     0
 10
152.0249999999999
 20
61.89999999999986
 30
0.0
 11
232.8456954527427
 21
61.89999999999986
 31
0.0
  0
LINE
  5
10F3
  8
SK2
 62
     0
 10
152.0249999999999
 20
-61.90000000000009
 30
0.0
 11
232.8456954527427
 21
-61.9000000000001
 31
0.0
  0
LINE
  5
10F4
  8
SK2
 62
     0
 10
231.5956954527427
 20
59.39999999999986
 30
0.0
 11
231.5956954527427
 21
-59.4000000000001
 31
0.0
  0
SOLID
  5
10F5
  8
SK2
 62
     0
 10
232.0123621194093
 20
59.39999999999986
 30
0.0
 11
231.179028786076
 21
59.39999999999986
 31
0.0
 12
231.5956954527427
 22
61.89999999999986
 32
0.0
 13
231.5956954527427
 23
61.89999999999986
 33
0.0
  0
SOLID
  5
10F6
  8
SK2
 62
     0
 10
231.179028786076
 20
-59.4000000000001
 30
0.0
 11
232.0123621194093
 21
-59.4000000000001
 31
0.0
 12
231.5956954527427
 22
-61.9000000000001
 32
0.0
 13
231.5956954527427
 23
-61.9000000000001
 33
0.0
  0
TEXT
  5
10F7
  8
SK2
  6
CONTINUOUS
 62
     0
 10
230.9706954527427
 20
-4.583333333333456
 30
0.0
 40
2.5
  1
123.8
 50
90.0
  0
POINT
  5
10F8
  8
DEFPOINTS
 62
     0
 10
151.3999999999999
 20
61.89999999999986
 30
0.0
  0
POINT
  5
10F9
  8
DEFPOINTS
 62
     0
 10
151.3999999999999
 20
-61.90000000000009
 30
0.0
  0
POINT
  5
10FA
  8
DEFPOINTS
 62
     0
 10
231.5956954527427
 20
-61.9000000000001
 30
0.0
  0
ENDBLK
  5
10FC
  8
0
  0
BLOCK
  8
0
  2
*D7
 70
     1
 10
0.0
 20
0.0
 30
0.0
  3
*D7
  1

  0
LINE
  5
1101
  8
SK2
 62
     0
 10
174.6249999999998
 20
25.39999999999986
 30
0.0
 11
212.7742581438742
 21
25.39999999999986
 31
0.0
  0
LINE
  5
1102
  8
SK2
 62
     0
 10
174.6249999999998
 20
-25.40000000000009
 30
0.0
 11
212.7742581438742
 21
-25.40000000000009
 31
0.0
  0
LINE
  5
1103
  8
SK2
 62
     0
 10
211.5242581438742
 20
22.89999999999986
 30
0.0
 11
211.5242581438742
 21
-22.90000000000009
 31
0.0
  0
SOLID
  5
1104
  8
SK2
 62
     0
 10
211.9409248105408
 20
22.89999999999986
 30
0.0
 11
211.1075914772075
 21
22.89999999999986
 31
0.0
 12
211.5242581438742
 22
25.39999999999986
 32
0.0
 13
211.5242581438742
 23
25.39999999999986
 33
0.0
  0
SOLID
  5
1105
  8
SK2
 62
     0
 10
211.1075914772075
 20
-22.90000000000009
 30
0.0
 11
211.9409248105408
 21
-22.90000000000009
 31
0.0
 12
211.5242581438742
 22
-25.40000000000009
 32
0.0
 13
211.5242581438742
 23
-25.40000000000009
 33
0.0
  0
TEXT
  5
1106
  8
SK2
  6
CONTINUOUS
 62
     0
 10
210.8992581438742
 20
-3.541666666666771
 30
0.0
 40
2.5
  1
50.8
 50
90.0
  0
POINT
  5
1107
  8
DEFPOINTS
 62
     0
 10
173.9999999999998
 20
25.39999999999986
 30
0.0
  0
POINT
  5
1108
  8
DEFPOINTS
 62
     0
 10
173.9999999999998
 20
-25.40000000000009
 30
0.0
  0
POINT
  5
1109
  8
DEFPOINTS
 62
     0
 10
211.5242581438742
 20
-25.40000000000009
 30
0.0
  0
ENDBLK
  5
110B
  8
0
  0
ENDSEC
  0
SECTION
  2
ENTITIES
  0
LINE
  5
685
  8
SK1
 10
0.0
 20
34.92499999999998
 30
0.0
 11
-99.6319088344
 21
20.3952133832
 31
0.0
  0
LINE
  5
686
  8
SK1
 10
-99.6319088344
 20
-20.3952133832
 30
0.0
 11
0.0
 21
-34.92500000000001
 31
0.0
  0
ARC
  5
68D
  8
SK1
 10
-99.3
 20
18.1192879614
 30
0.0
 40
2.299999999999995
 50
98.29722000000018
 51
180.0
  0
ARC
  5
68E
  8
SK1
 10
-99.3
 20
-18.1192879614
 30
0.0
 40
2.299999999999995
 50
180.0
 51
261.7027799999998
  0
LINE
  5
6F6
  8
SK1
 10
-101.6
 20
0.0
 30
0.0
 11
-101.6
 21
-18.1192879614
 31
0.0
  0
LINE
  5
6F7
  8
SK1
 10
-101.6
 20
18.1192879614
 30
0.0
 11
-101.6
 21
0.0
 31
0.0
  0
LINE
  5
71A
  8
SK3
 10
-99.5215390309
 20
-13.10000000000002
 30
0.0
 11
-99.5215390309
 21
13.09999999999999
 31
0.0
  0
LINE
  5
71B
  8
SK3
 10
-95.25
 20
-13.10000000000002
 30
0.0
 11
-95.25
 21
13.09999999999999
 31
0.0
  0
LINE
  5
72A
  8
SK3
 10
-101.6
 20
-14.30000000000001
 30
0.0
 11
-99.5215390309
 21
-13.10000000000002
 31
0.0
  0
LINE
  5
72B
  8
SK3
 10
-99.5215390309
 20
13.09999999999999
 30
0.0
 11
-101.6
 21
14.3
 31
0.0
  0
LINE
  5
72C
  8
SK3
 10
-99.5215390309
 20
-13.10000000000002
 30
0.0
 11
-95.25
 21
-13.10000000000002
 31
0.0
  0
LINE
  5
72D
  8
SK3
 10
-95.25
 20
13.09999999999999
 30
0.0
 11
-99.5215390309
 21
13.09999999999999
 31
0.0
  0
LINE
  5
72E
  8
SK3
 10
-95.25
 20
-11.09980000000002
 30
0.0
 11
0.0
 21
-11.09980000000002
 31
0.0
  0
LINE
  5
72F
  8
SK3
 10
0.0
 20
11.09979999999999
 30
0.0
 11
-95.25
 21
11.09979999999999
 31
0.0
  0
LINE
  5
760
  8
SK3
 10
-57.1
 20
12.69999999999999
 30
0.0
 11
-95.25
 21
12.69999999999999
 31
0.0
  0
LINE
  5
761
  8
SK3
 10
-95.25
 20
-12.69999999999999
 30
0.0
 11
-57.1
 21
-12.69999999999999
 31
0.0
  0
LINE
  5
774
  8
SK3
 10
-57.1
 20
12.69999999999999
 30
0.0
 11
-57.1
 21
-12.69999999999999
 31
0.0
  0
LINE
  5
777
  8
SK4
 10
0.0
 20
0.0
 30
0.0
 11
-101.6
 21
0.0
 31
0.0
  0
LINE
  5
779
  8
4
 10
0.0
 20
0.0
 30
0.0
 11
152.3999999999999
 21
0.0
 31
0.0
  0
INSERT
  5
77B
  8
SK6
  2
*U0
 10
-44.10380399683656
 20
-23.39313954296377
 30
0.0
  0
INSERT
  5
78D
  8
SK6
  2
*U2
 10
17.55665382414153
 20
-2.560320993650734
 30
0.0
  0
LINE
  5
793
  8
0
 10
3.0
 20
3.0
 30
0.0
 11
-3.0
 21
-3.0
 31
0.0
  0
LINE
  5
794
  8
0
 10
-3.0
 20
3.0
 30
0.0
 11
3.0
 21
-3.0
 31
0.0
  0
CIRCLE
  5
795
  8
0
 10
0.0
 20
0.0
 30
0.0
 40
2.5
  0
LINE
  5
796
  8
0
 10
155.3999999999999
 20
-3.0
 30
0.0
 11
149.3999999999999
 21
3.0
 31
0.0
  0
CIRCLE
  5
797
  8
0
 10
152.3999999999999
 20
0.0
 30
0.0
 40
2.5
  0
LINE
  5
798
  8
0
 10
149.3999999999999
 20
-3.0
 30
0.0
 11
155.3999999999999
 21
3.0
 31
0.0
  0
LINE
  5
799
  8
NOCUT
 10
0.7999999999999972
 20
34.62500000000001
 30
0.0
 11
0.2999999999999972
 21
34.62500000000001
 31
0.0
  0
LINE
  5
79C
  8
NOCUT
 10
0.2999999999999972
 20
34.62500000000001
 30
0.0
 11
0.0
 21
34.92499999999999
 31
0.0
  0
LINE
  5
79D
  8
NOCUT
 10
121.8999999999999
 20
34.92499999999995
 30
0.0
 11
20.05
 21
34.92499999999999
 31
0.0
  0
ARC
  5
79E
  8
NOCUT
 10
0.7999999999999972
 20
35.62500000000001
 30
0.0
 40
1.0
 50
270.0
 51
314.4270040008
  0
ARC
  5
79F
  8
NOCUT
 10
20.05
 20
35.92499999999999
 30
0.0
 40
1.0
 50
180.0
 51
270.0
  0
LINE
  5
7A0
  8
NOCUT
 10
12.55499999999999
 20
45.64499999999999
 30
0.0
 11
9.704999999999998
 21
45.64499999999999
 31
0.0
  0
ARC
  5
7A1
  8
NOCUT
 10
12.55499999999999
 20
46.14499999999999
 30
0.0
 40
0.5
 50
270.0
 51
0.0
  0
ARC
  5
7A2
  8
NOCUT
 10
9.704999999999998
 20
46.14499999999999
 30
0.0
 40
0.5
 50
180.0
 51
270.0
  0
ARC
  5
7A3
  8
NOCUT
 10
2.299999999999997
 20
48.4125
 30
0.0
 40
0.7999999999999972
 50
90.0
 51
180.0
  0
ARC
  5
7A4
  8
NOCUT
 10
18.24999999999999
 20
48.4125
 30
0.0
 40
0.799999999999983
 50
0.0
 51
90.0
  0
LINE
  5
7A5
  8
NOCUT
 10
9.204999999999998
 20
46.43919780459999
 30
0.0
 11
7.603833230999996
 21
49.21250000000001
 31
0.0
  0
LINE
  5
7A6
  8
NOCUT
 10
14.65616676910001
 20
49.21250000000001
 30
0.0
 11
13.05499999999999
 21
46.43919780459999
 31
0.0
  0
LINE
  5
7A7
  8
NOCUT
 10
18.24999999999999
 20
49.21250000000001
 30
0.0
 11
14.65616676910001
 21
49.21250000000001
 31
0.0
  0
LINE
  5
7A8
  8
NOCUT
 10
7.603833230999996
 20
49.21250000000001
 30
0.0
 11
2.299999999999997
 21
49.21250000000001
 31
0.0
  0
LINE
  5
7AC
  8
NOCUT
 10
1.5
 20
48.4125
 30
0.0
 11
1.499999999999929
 21
34.91085715714565
 31
0.0
  0
LINE
  5
7AD
  8
NOCUT
 10
19.04999999999997
 20
48.4125
 30
0.0
 11
19.05
 21
35.92499999999999
 31
0.0
  0
LINE
  5
7AE
  8
NOCUT
 10
9.204999999999998
 20
46.43919780459999
 30
0.0
 11
9.204999999999998
 21
46.14499999999999
 31
0.0
  0
LINE
  5
7AF
  8
NOCUT
 10
13.05499999999999
 20
46.43919780459999
 30
0.0
 11
13.05499999999999
 21
46.14499999999999
 31
0.0
  0
DIMENSION
  5
804
  8
SK2
  2
*D5
 10
152.3999999999999
 20
71.23091717228411
 30
0.0
 11
76.19999999999996
 21
73.10591717228411
 31
0.0
 70
    32
  3
ISO-25
 13
0.0
 23
34.92499999999998
 33
0.0
 14
152.3999999999999
 24
60.89999999999986
 34
0.0
1001
ACAD
1000
DSTYLE
1002
{
1070
   287
1070
     5
1070
   271
1070
     3
1070
   272
1070
     3
1070
   279
1070
     2
1002
}
  0
LINE
  5
8BF
  8
NOCUT
 10
0.0
 20
34.92499999999999
 30
0.0
 11
0.0
 21
0.0
 31
0.0
  0
LINE
  5
8C0
  8
NOCUT
 10
0.0
 20
0.0
 30
0.0
 11
152.3999999999999
 21
0.0
 31
0.0
  0
INSERT
  5
A17
  8
SK6
  2
_FILLED
 10
-20.78186483605847
 20
-31.89428358495073
 30
0.0
 41
3.5
 42
3.5
 43
3.5
 50
52.86965044919886
  0
POLYLINE
  5
A18
  8
SK6
 66
     1
 10
0.0
 20
0.0
 30
0.0
  0
VERTEX
  5
1BE3
  8
SK6
 10
-22.89457117648658
 20
-34.68470862768434
 30
0.0
  0
VERTEX
  5
1BE4
  8
SK6
 10
-48.02596493475846
 20
-67.87780752645074
 30
0.0
  0
VERTEX
  5
1BE5
  8
SK6
 10
-49.90096493475846
 20
-66.12780752645074
 30
0.0
  0
VERTEX
  5
1BE6
  8
SK6
 10
-53.40096493475846
 20
-66.12780752645074
 30
0.0
  0
SEQEND
  5
2106
  8
SK6
  0
ARC
  5
AC7
  8
1
 10
20.04999999999998
 20
35.92499999999998
 30
0.0
 40
1.0
 50
180.0
 51
270.0
  0
ARC
  5
AC9
  8
1
 10
20.04999999999998
 20
-35.92500000000001
 30
0.0
 40
1.0
 50
90.0
 51
180.0
  0
ARC
  5
ACA
  8
1
 10
1.299999999999983
 20
35.125
 30
0.0
 40
0.5
 50
270.0
 51
293.5781784781994
  0
ARC
  5
ACB
  8
1
 10
1.299999999999983
 20
-35.125
 30
0.0
 40
0.500000000000009
 50
66.42182152180017
 51
90.0
  0
LINE
  5
ACC
  8
1
 10
121.8999999999999
 20
34.92499999999995
 30
0.0
 11
20.04999999999998
 21
34.92499999999998
 31
0.0
  0
LINE
  5
ACE
  8
1
 10
20.04999999999998
 20
-34.92500000000001
 30
0.0
 11
121.8999999999999
 21
-34.92499999999973
 31
0.0
  0
LINE
  5
ACF
  8
1
 10
0.0
 20
-34.92500000000001
 30
0.0
 11
0.2999999999999829
 21
-34.625
 31
0.0
  0
LINE
  5
AD0
  8
1
 10
0.2999999999999829
 20
34.625
 30
0.0
 11
0.0
 21
34.92499999999998
 31
0.0
  0
LINE
  5
AD5
  8
1
 10
1.299999999999983
 20
34.625
 30
0.0
 11
0.2999999999999829
 21
34.625
 31
0.0
  0
LINE
  5
AD6
  8
1
 10
0.2999999999999829
 20
-34.625
 30
0.0
 11
1.299999999999983
 21
-34.625
 31
0.0
  0
LINE
  5
ADB
  8
1
 10
14.65616694409999
 20
-47.282880439
 30
0.0
 11
14.68806954659999
 21
-47.29184187660002
 31
0.0
  0
LINE
  5
ADC
  8
1
 10
14.6561667691
 20
47.30816788690001
 30
0.0
 11
14.6561667691
 21
-47.2826327523
 31
0.0
  0
LINE
  5
ADD
  8
1
 10
14.7615962207
 20
47.3314147463
 30
0.0
 11
14.6561668942
 21
47.30816788690001
 31
0.0
  0
LINE
  5
ADE
  8
1
 10
18.25
 20
47.3314147463
 30
0.0
 11
14.7615962207
 21
47.3314147463
 31
0.0
  0
LINE
  5
ADF
  8
1
 10
14.68806954659999
 20
-47.29184187660002
 30
0.0
 11
18.25
 21
-47.29184187660002
 31
0.0
  0
LINE
  5
AE0
  8
1
 10
7.498403779400007
 20
47.3314147463
 30
0.0
 11
4.006414746699988
 21
47.3314147463
 31
0.0
  0
LINE
  5
AE1
  8
1
 10
7.603833105900009
 20
47.30816788690001
 30
0.0
 11
7.498403779400007
 21
47.3314147463
 31
0.0
  0
LINE
  5
AE2
  8
1
 10
7.603833230899994
 20
47.30844201400001
 30
0.0
 11
7.603833230899994
 21
-47.28288044160001
 31
0.0
  0
LINE
  5
AE3
  8
1
 10
7.571930453299984
 20
-47.29184187660002
 30
0.0
 11
7.603833055899997
 21
-47.282880439
 31
0.0
  0
LINE
  5
AE4
  8
1
 10
4.040356993800003
 20
-47.29184187660002
 30
0.0
 11
7.571930453299984
 21
-47.29184187660002
 31
0.0
  0
LINE
  5
AE5
  8
1
 10
2.300001405499984
 20
-46.74795901499999
 30
0.0
 11
4.040356993800003
 21
-47.29184189310001
 31
0.0
  0
LINE
  5
AE6
  8
1
 10
4.006414746699988
 20
47.33141476029999
 30
0.0
 11
2.299999765199999
 21
46.80267569
 31
0.0
  0
ARC
  5
AE7
  8
1
 10
2.557435939599998
 20
-45.59355264690001
 30
0.0
 40
1.184053137363273
 50
207.7147598986998
 51
257.3157095984005
  0
LINE
  5
AE8
  8
1
 10
1.50922466130001
 20
-46.14422037630001
 30
0.0
 11
1.5
 21
-46.01377680920001
 31
0.0
  0
LINE
  5
AE9
  8
1
 10
1.5
 20
-46.01377680920001
 30
0.0
 11
1.5
 21
46.01377680919998
 31
0.0
  0
ARC
  5
AEA
  8
1
 10
2.572884962100005
 20
45.72649004249999
 30
0.0
 40
1.111555736593689
 50
104.3436511600003
 51
164.8417645594994
  0
LINE
  5
AEB
  8
1
 10
9.204999995999998
 20
44.41431970880001
 30
0.0
 11
7.60383322749999
 21
47.3081678945
 31
0.0
  0
LINE
  5
AEC
  8
1
 10
9.204999999999984
 20
44.4143196734
 30
0.0
 11
9.204999999999984
 21
-44.387299867
 31
0.0
  0
LINE
  5
AED
  8
1
 10
7.603833226399985
 20
-47.28288044990001
 30
0.0
 11
9.2049999921
 21
-44.38762367050001
 31
0.0
  0
LINE
  5
AEE
  8
1
 10
14.65616677259999
 20
47.3081678945
 30
0.0
 11
13.05500000399999
 21
44.41431970880001
 31
0.0
  0
LINE
  5
AEF
  8
1
 10
13.05500000800001
 20
-44.38762367050001
 30
0.0
 11
14.65616677360001
 21
-47.28288044990001
 31
0.0
  0
LINE
  5
AF0
  8
1
 10
13.05500000000001
 20
44.41459195280001
 30
0.0
 11
13.05500000000001
 21
-44.38762365650001
 31
0.0
  0
ARC
  5
AF1
  8
1
 10
17.92302328310001
 20
46.41895288640001
 30
0.0
 40
1.127359624435328
 50
1.493363825500091
 51
43.53750291790048
  0
LINE
  5
AF2
  8
1
 10
19.04999999999998
 20
46.44833319130001
 30
0.0
 11
19.04999999999998
 21
-46.44833319130001
 31
0.0
  0
ARC
  5
AF3
  8
1
 10
17.91824827779999
 20
-46.4157978575
 30
0.0
 40
1.1322192847622
 50
319.2464850235001
 51
358.3533278529993
  0
ARC
  5
AF4
  8
1
 10
18.2616113983
 20
-46.25791326929999
 30
0.0
 40
1.033993805426882
 50
269.3565743835002
 51
299.8289453780985
  0
ARC
  5
AF5
  8
1
 10
18.2610591033
 20
46.41902767409999
 30
0.0
 40
0.9124540938653742
 50
58.31881226410037
 51
90.69445187719943
  0
ARC
  5
AF6
  8
1
 10
12.5158206966
 20
-44.1073442162
 30
0.0
 40
0.5397579791454132
 50
357.3466499737992
 51
85.83742202690154
  0
ARC
  5
AF7
  8
1
 10
12.54139279200001
 20
44.09944295630001
 30
0.0
 40
0.4858431210597904
 50
271.6049163143007
 51
333.441972537701
  0
POLYLINE
  5
AF8
  8
1
 66
     1
 10
0.0
 20
0.0
 30
0.0
  0
VERTEX
  5
1BE7
  8
1
 10
13.05500000000001
 20
44.14662312639999
 30
0.0
  0
VERTEX
  5
1BE8
  8
1
 10
13.03542892280001
 20
44.01594229719998
 30
0.0
  0
VERTEX
  5
1BE9
  8
1
 10
12.97787844319998
 20
43.88571451269999
 30
0.0
  0
SEQEND
  5
2105
  8
1
  0
ARC
  5
AF9
  8
1
 10
9.744214343399989
 20
-44.10737531749999
 30
0.0
 40
0.5397915428070933
 50
94.16604783349855
 51
182.6498801657025
  0
POLYLINE
  5
AFA
  8
1
 66
     1
 10
0.0
 20
0.0
 30
0.0
  0
VERTEX
  5
1BEA
  8
1
 10
9.280099379399985
 20
43.88913247470001
 30
0.0
  0
VERTEX
  5
1BEB
  8
1
 10
9.224055884099982
 20
44.0177026321
 30
0.0
  0
VERTEX
  5
1BEC
  8
1
 10
9.204999999999984
 20
44.14662312639999
 30
0.0
  0
SEQEND
  5
2104
  8
1
  0
ARC
  5
AFB
  8
1
 10
9.721350266000002
 20
44.10422581969999
 30
0.0
 40
0.4907078648052702
 50
206.0244317763009
 51
268.0905652222996
  0
LINE
  5
AFC
  8
1
 10
12.55500000000001
 20
43.613790424
 30
0.0
 11
9.704999999999984
 21
43.613790424
 31
0.0
  0
LINE
  5
AFD
  8
1
 10
9.704999999999984
 20
-43.5690100651
 30
0.0
 11
12.55500000000001
 21
-43.5690100651
 31
0.0
  0
LINE
  5
B00
  8
1
 10
0.2999999999999829
 20
34.625
 30
0.0
 11
0.2999999999999829
 21
-34.625
 31
0.0
  0
LINE
  5
B01
  8
1
 10
0.0
 20
34.92499999999998
 30
0.0
 11
0.0
 21
-34.92500000000001
 31
0.0
  0
LINE
  5
B04
  8
1
 10
14.68806954670001
 20
-47.29184187660002
 30
0.0
 11
14.65616694420001
 21
-47.282880439
 31
0.0
  0
LINE
  5
B1A
  8
3
 10
1.500000000000004
 20
37.72
 30
0.0
 11
19.04999999999998
 21
37.72
 31
0.0
  0
LINE
  5
B3B
  8
3
 10
1.5
 20
-35.30000000000001
 30
0.0
 11
19.26937525020018
 21
-35.30000000000001
 31
0.0
  0
LINE
  5
B42
  8
3
 10
26.97499999999999
 20
28.32499999999999
 30
0.0
 11
33.32499999999999
 21
28.32499999999999
 31
0.0
  0
LINE
  5
B43
  8
3
 10
20.625
 20
28.32499999999999
 30
0.0
 11
26.97499999999999
 21
28.32499999999999
 31
0.0
  0
LINE
  5
B44
  8
3
 10
11.375
 20
37.31999999999999
 30
0.0
 11
16.125
 21
37.31999999999999
 31
0.0
  0
LINE
  5
B45
  8
3
 10
6.625
 20
37.31999999999999
 30
0.0
 11
11.375
 21
37.31999999999999
 31
0.0
  0
LINE
  5
B55
  8
3
 10
20.625
 20
28.32499999999999
 30
0.0
 11
26.97499999999999
 21
24.50953506919998
 31
0.0
  0
LINE
  5
B56
  8
3
 10
26.97499999999999
 20
24.50953506919998
 30
0.0
 11
33.32499999999999
 21
28.32499999999999
 31
0.0
  0
LINE
  5
B57
  8
3
 10
20.625
 20
34.92499999999998
 30
0.0
 11
20.625
 21
28.32499999999999
 31
0.0
  0
LINE
  5
B58
  8
3
 10
33.32499999999999
 20
28.32499999999999
 30
0.0
 11
33.32499999999999
 21
34.92499999999998
 31
0.0
  0
LINE
  5
B59
  8
3
 10
6.625
 20
37.72
 30
0.0
 11
6.625
 21
37.31999999999999
 31
0.0
  0
LINE
  5
B5A
  8
3
 10
16.125
 20
37.31999999999999
 30
0.0
 11
16.125
 21
37.72
 31
0.0
  0
LINE
  5
B5B
  8
1
 10
20.04999999999998
 20
-34.92500000000001
 30
0.0
 11
20.04999999999998
 21
34.92499999999998
 31
0.0
  0
LINE
  5
B5C
  8
1
 10
1.299999999999983
 20
-34.625
 30
0.0
 11
1.299999999999983
 21
34.625
 31
0.0
  0
LINE
  5
B5F
  8
1
 10
12.55500000000001
 20
-43.00413183130001
 30
0.0
 11
12.55500000000001
 21
42.79577481850001
 31
0.0
  0
LINE
  5
B60
  8
1
 10
9.704999999999984
 20
-43.00421493109999
 30
0.0
 11
9.704999999999984
 21
42.7957705776
 31
0.0
  0
LINE
  5
B62
  8
1
 10
18.25
 20
47.3314147463
 30
0.0
 11
18.25
 21
-47.29184187660002
 31
0.0
  0
LINE
  5
B64
  8
1
 10
2.299999999999983
 20
-46.74795854910002
 30
0.0
 11
2.299999999999983
 21
46.80267576719999
 31
0.0
  0
ARC
  5
D5D
  8
1
 10
151.3999999999999
 20
-60.90000000000009
 30
0.0
 40
1.000000000000227
 50
270.0
 51
0.0
  0
ARC
  5
D5F
  8
1
 10
151.3999999999999
 20
60.89999999999986
 30
0.0
 40
1.0
 50
0.0
 51
90.0
  0
LINE
  5
D60
  8
1
 10
124.8999999999999
 20
-61.90000000000009
 30
0.0
 11
151.3999999999999
 21
-61.90000000000009
 31
0.0
  0
LINE
  5
D61
  8
1
 10
151.3999999999999
 20
61.89999999999986
 30
0.0
 11
124.8999999999999
 21
61.89999999999986
 31
0.0
  0
ARC
  5
D62
  8
1
 10
124.8999999999999
 20
60.89999999999986
 30
0.0
 40
1.000000000000227
 50
90.0
 51
180.0
  0
ARC
  5
D63
  8
1
 10
124.8999999999999
 20
-60.90000000000009
 30
0.0
 40
1.000000000000227
 50
180.0
 51
270.0
  0
ARC
  5
D64
  8
1
 10
121.8999999999999
 20
36.92499999999995
 30
0.0
 40
2.0
 50
270.0
 51
0.0
  0
ARC
  5
D65
  8
1
 10
121.8999999999999
 20
-36.92499999999995
 30
0.0
 40
2.000000000000227
 50
0.0
 51
90.0
  0
LINE
  5
D87
  8
1
 10
152.4285749996998
 20
50.80380999999988
 30
0.0
 11
152.3999999999999
 21
50.80380999999988
 31
0.0
  0
LINE
  5
D8B
  8
1
 10
152.3999999999999
 20
0.0
 30
0.0
 11
152.3999999999999
 21
60.89999999999986
 31
0.0
  0
LINE
  5
D8C
  8
1
 10
152.3999999999999
 20
-60.90000000000009
 30
0.0
 11
152.3999999999999
 21
0.0
 31
0.0
  0
LINE
  5
D8D
  8
1
 10
123.8999999999999
 20
-60.90000000000009
 30
0.0
 11
123.8999999999999
 21
60.89999999999986
 31
0.0
  0
CIRCLE
  5
DAD
  8
1
 10
114.3
 20
0.0
 30
0.0
 40
2.624999999999545
  0
LINE
  5
DBF
  8
1
 10
113.05
 20
-0.7216878363999513
 30
0.0
 11
114.3
 21
-1.443375672899947
 31
0.0
  0
LINE
  5
DC0
  8
1
 10
115.55
 20
-0.7216878363999513
 30
0.0
 11
114.3
 21
-1.443375672899947
 31
0.0
  0
LINE
  5
DC1
  8
1
 10
115.55
 20
0.7216878364999957
 30
0.0
 11
115.55
 21
-0.7216878363999513
 31
0.0
  0
LINE
  5
DC2
  8
1
 10
115.55
 20
0.7216878364999957
 30
0.0
 11
114.3
 21
1.443375672999991
 31
0.0
  0
LINE
  5
DC3
  8
1
 10
113.05
 20
0.7216878364999957
 30
0.0
 11
114.3
 21
1.443375672999991
 31
0.0
  0
LINE
  5
DC4
  8
1
 10
113.05
 20
0.7216878364999957
 30
0.0
 11
113.05
 21
-0.7216878363999513
 31
0.0
  0
CIRCLE
  5
DC5
  8
1
 10
114.3
 20
0.0
 30
0.0
 40
2.055000000000064
  0
CIRCLE
  5
DC6
  8
1
 10
114.3
 20
0.0
 30
0.0
 40
2.25610312684239
  0
CIRCLE
  5
DC7
  8
1
 10
114.3
 20
0.0
 30
0.0
 40
2.5
  0
POLYLINE
  5
DCB
  8
3
 66
     1
 10
0.0
 20
0.0
 30
0.0
  0
VERTEX
  5
1BED
  8
3
 10
114.3
 20
31.47288378410008
 30
0.0
  0
VERTEX
  5
1BEE
  8
3
 10
115.1674984816998
 20
31.40849580269992
 30
0.0
  0
VERTEX
  5
1BEF
  8
3
 10
115.9371754238999
 20
31.21964005929999
 30
0.0
  0
VERTEX
  5
1BF0
  8
3
 10
116.5238158073999
 20
30.91917383810005
 30
0.0
  0
VERTEX
  5
1BF1
  8
3
 10
116.8603077589999
 20
30.53136779529996
 30
0.0
  0
VERTEX
  5
1BF2
  8
3
 10
116.9077571142998
 20
30.09462878880004
 30
0.0
  0
VERTEX
  5
1BF3
  8
3
 10
116.6624298797999
 20
29.65751872390001
 30
0.0
  0
VERTEX
  5
1BF4
  8
3
 10
116.1518724710998
 20
29.27277948679989
 30
0.0
  0
VERTEX
  5
1BF5
  8
3
 10
115.4808547608
 20
29.01123225169999
 30
0.0
  0
SEQEND
  5
2103
  8
3
  0
POLYLINE
  5
DCC
  8
3
 66
     1
 10
0.0
 20
0.0
 30
0.0
  0
VERTEX
  5
1BF6
  8
3
 10
113.203720323
 20
29.00395118789993
 30
0.0
  0
VERTEX
  5
1BF7
  8
3
 10
112.8941622498999
 20
29.07654230930007
 30
0.0
  0
VERTEX
  5
1BF8
  8
3
 10
112.240409202
 20
29.39933670229993
 30
0.0
  0
VERTEX
  5
1BF9
  8
3
 10
111.8175743298998
 20
29.81023794480006
 30
0.0
  0
VERTEX
  5
1BFA
  8
3
 10
111.6750524152999
 20
30.25422805449989
 30
0.0
  0
VERTEX
  5
1BFB
  8
3
 10
111.8278161118999
 20
30.6775637799999
 30
0.0
  0
VERTEX
  5
1BFC
  8
3
 10
112.2577583492999
 20
31.03679846289992
 30
0.0
  0
VERTEX
  5
1BFD
  8
3
 10
112.9183925844998
 20
31.30010379660007
 30
0.0
  0
VERTEX
  5
1BFE
  8
3
 10
113.7359086637999
 20
31.44617701619995
 30
0.0
  0
VERTEX
  5
1BFF
  8
3
 10
114.3
 20
31.47288378410008
 30
0.0
  0
SEQEND
  5
2102
  8
3
  0
POLYLINE
  5
DCD
  8
3
 66
     1
 10
0.0
 20
0.0
 30
0.0
  0
VERTEX
  5
1C00
  8
3
 10
114.3
 20
-28.84788378400003
 30
0.0
  0
VERTEX
  5
1C01
  8
3
 10
115.1674984816998
 20
-28.93098265749995
 30
0.0
  0
VERTEX
  5
1C02
  8
3
 10
115.9371754238999
 20
-29.16774297810002
 30
0.0
  0
VERTEX
  5
1C03
  8
3
 10
116.5238158073999
 20
-29.52444509919997
 30
0.0
  0
VERTEX
  5
1C04
  8
3
 10
116.8603077589999
 20
-29.95218804809997
 30
0.0
  0
VERTEX
  5
1C05
  8
3
 10
116.9077571142998
 20
-30.39500827000006
 30
0.0
  0
VERTEX
  5
1C06
  8
3
 10
116.6624298797999
 20
-30.80187446529999
 30
0.0
  0
VERTEX
  5
1C07
  8
3
 10
116.1518724710998
 20
-31.13320775750003
 30
0.0
  0
VERTEX
  5
1C08
  8
3
 10
115.4314689164999
 20
-31.36061173550002
 30
0.0
  0
VERTEX
  5
1C09
  8
3
 10
114.5830058600998
 20
-31.46622946289995
 30
0.0
  0
VERTEX
  5
1C0A
  8
3
 10
113.7045645977999
 20
-31.44307976840014
 30
0.0
  0
VERTEX
  5
1C0B
  8
3
 10
112.8941622498999
 20
-31.2933520035001
 30
0.0
  0
VERTEX
  5
1C0C
  8
3
 10
112.240409202
 20
-31.02682272200013
 30
0.0
  0
VERTEX
  5
1C0D
  8
3
 10
111.8175743298998
 20
-30.66357714590004
 30
0.0
  0
VERTEX
  5
1C0E
  8
3
 10
111.6750524152999
 20
-30.23763957630013
 30
0.0
  0
VERTEX
  5
1C0F
  8
3
 10
111.8278161118999
 20
-29.79499263640014
 30
0.0
  0
VERTEX
  5
1C10
  8
3
 10
112.2577583492999
 20
-29.38759440030003
 30
0.0
  0
VERTEX
  5
1C11
  8
3
 10
112.9183925844998
 20
-29.06811232040013
 30
0.0
  0
VERTEX
  5
1C12
  8
3
 10
113.7359086637999
 20
-28.88250270670005
 30
0.0
  0
VERTEX
  5
1C13
  8
3
 10
114.3
 20
-28.84788378400003
 30
0.0
  0
SEQEND
  5
2101
  8
3
  0
CIRCLE
  5
DCE
  8
3
 10
114.3
 20
0.0
 30
0.0
 40
2.100000000000136
  0
LINE
  5
DCF
  8
3
 10
113.9999999999998
 20
-2.078460968999934
 30
0.0
 11
113.9999999999998
 21
-2.5
 31
0.0
  0
LINE
  5
DD0
  8
3
 10
113.9999999999998
 20
2.5
 30
0.0
 11
113.9999999999998
 21
2.078460969099979
 31
0.0
  0
LINE
  5
DDF
  8
3
 10
105.9999999999998
 20
11.90499993899994
 30
0.0
 11
105.9999999999998
 21
-11.90499993899994
 31
0.0
  0
POLYLINE
  5
DE0
  8
3
 66
     1
 10
0.0
 20
0.0
 30
0.0
  0
VERTEX
  5
1C14
  8
3
 10
114.3
 20
11.19836280699997
 30
0.0
  0
VERTEX
  5
1C15
  8
3
 10
114.6444793967999
 20
11.18852353619991
 30
0.0
  0
VERTEX
  5
1C16
  8
3
 10
114.9889587935
 20
11.15777139869988
 30
0.0
  0
VERTEX
  5
1C17
  8
3
 10
115.3043883425999
 20
11.10768907300007
 30
0.0
  0
VERTEX
  5
1C18
  8
3
 10
115.6001507650999
 20
11.03519643389996
 30
0.0
  0
VERTEX
  5
1C19
  8
3
 10
115.8544336578998
 20
10.94325728259992
 30
0.0
  0
VERTEX
  5
1C1A
  8
3
 10
116.0715366637999
 20
10.827514028
 30
0.0
  0
VERTEX
  5
1C1B
  8
3
 10
116.2343407522999
 20
10.69445107470005
 30
0.0
  0
VERTEX
  5
1C1C
  8
3
 10
116.3458018876
 20
10.5388662972
 30
0.0
  0
VERTEX
  5
1C1D
  8
3
 10
116.3959591433998
 20
10.37452185799998
 30
0.0
  0
VERTEX
  5
1C1E
  8
3
 10
116.3876351237998
 20
10.19437321689998
 30
0.0
  0
VERTEX
  5
1C1F
  8
3
 10
116.3225660944
 20
10.01591420630007
 30
0.0
  0
VERTEX
  5
1C20
  8
3
 10
116.1992905892999
 20
9.832828709400019
 30
0.0
  0
VERTEX
  5
1C21
  8
3
 10
116.0271426507998
 20
9.660717558600027
 30
0.0
  0
VERTEX
  5
1C22
  8
3
 10
115.8018602195998
 20
9.497474726799965
 30
0.0
  0
VERTEX
  5
1C23
  8
3
 10
115.5380652332999
 20
9.356730761800009
 30
0.0
  0
VERTEX
  5
1C24
  8
3
 10
115.2307853918999
 20
9.239098333499896
 30
0.0
  0
VERTEX
  5
1C25
  8
3
 10
114.9052401845
 20
9.156444093699974
 30
0.0
  0
VERTEX
  5
1C26
  8
3
 10
114.5520780299999
 20
9.108302704599964
 30
0.0
  0
VERTEX
  5
1C27
  8
3
 10
114.2063759045
 20
9.09973072899993
 30
0.0
  0
VERTEX
  5
1C28
  8
3
 10
113.8533067300998
 20
9.129762401400058
 30
0.0
  0
VERTEX
  5
1C29
  8
3
 10
113.5250304009999
 20
9.19464396440003
 30
0.0
  0
VERTEX
  5
1C2A
  8
3
 10
113.2094588718999
 20
9.294895835500029
 30
0.0
  0
VERTEX
  5
1C2B
  8
3
 10
112.9295868560999
 20
9.421915846099864
 30
0.0
  0
VERTEX
  5
1C2C
  8
3
 10
112.6807135331999
 20
9.576231457499944
 30
0.0
  0
VERTEX
  5
1C2D
  8
3
 10
112.4811511097999
 20
9.745048938500076
 30
0.0
  0
VERTEX
  5
1C2E
  8
3
 10
112.3283938420998
 20
9.929486590199986
 30
0.0
  0
VERTEX
  5
1C2F
  8
3
 10
112.2358786318999
 20
10.11133340380002
 30
0.0
  0
VERTEX
  5
1C30
  8
3
 10
112.2001948861999
 20
10.29569803000004
 30
0.0
  0
VERTEX
  5
1C31
  8
3
 10
112.2237989235999
 20
10.46404690819986
 30
0.0
  0
VERTEX
  5
1C32
  8
3
 10
112.3063962490999
 20
10.62415725160008
 30
0.0
  0
VERTEX
  5
1C33
  8
3
 10
112.4407390667998
 20
10.76345233860002
 30
0.0
  0
VERTEX
  5
1C34
  8
3
 10
112.6305274106999
 20
10.88779303349997
 30
0.0
  0
VERTEX
  5
1C35
  8
3
 10
112.8634120344998
 20
10.99020689679992
 30
0.0
  0
VERTEX
  5
1C36
  8
3
 10
113.1439590727999
 20
11.07420662849995
 30
0.0
  0
VERTEX
  5
1C37
  8
3
 10
113.4514644401
 20
11.13540076060008
 30
0.0
  0
VERTEX
  5
1C38
  8
3
 10
113.7931056132998
 20
11.17680548769999
 30
0.0
  0
VERTEX
  5
1C39
  8
3
 10
114.0426526116999
 20
11.19289566969996
 30
0.0
  0
VERTEX
  5
1C3A
  8
3
 10
114.3
 20
11.19836280699997
 30
0.0
  0
SEQEND
  5
2100
  8
3
  0
POLYLINE
  5
DE1
  8
3
 66
     1
 10
0.0
 20
0.0
 30
0.0
  0
VERTEX
  5
1C3B
  8
3
 10
114.3
 20
-9.098362806900013
 30
0.0
  0
VERTEX
  5
1C3C
  8
3
 10
114.6444793967999
 20
-9.11697002599999
 30
0.0
  0
VERTEX
  5
1C3D
  8
3
 10
114.9889587935
 20
-9.174003322199951
 30
0.0
  0
VERTEX
  5
1C3E
  8
3
 10
115.3043883425999
 20
-9.263453714499974
 30
0.0
  0
VERTEX
  5
1C3F
  8
3
 10
115.6001507650999
 20
-9.386073033899947
 30
0.0
  0
VERTEX
  5
1C40
  8
3
 10
115.8544336578998
 20
-9.531260114199995
 30
0.0
  0
VERTEX
  5
1C41
  8
3
 10
116.0715366637999
 20
-9.69983594940004
 30
0.0
  0
VERTEX
  5
1C42
  8
3
 10
116.2343407522999
 20
-9.876939084500009
 30
0.0
  0
VERTEX
  5
1C43
  8
3
 10
116.3458018876
 20
-10.06484663840001
 30
0.0
  0
VERTEX
  5
1C44
  8
3
 10
116.3959591433998
 20
-10.24430945790004
 30
0.0
  0
VERTEX
  5
1C45
  8
3
 10
116.3876351237998
 20
-10.42192450779999
 30
0.0
  0
VERTEX
  5
1C46
  8
3
 10
116.3225660944
 20
-10.58091543959995
 30
0.0
  0
VERTEX
  5
1C47
  8
3
 10
116.1992905892999
 20
-10.72876132810006
 30
0.0
  0
VERTEX
  5
1C48
  8
3
 10
116.0271426507998
 20
-10.8552795132
 30
0.0
  0
VERTEX
  5
1C49
  8
3
 10
115.8018602195998
 20
-10.96526758699997
 30
0.0
  0
VERTEX
  5
1C4A
  8
3
 10
115.5380652332999
 20
-11.05296025029998
 30
0.0
  0
VERTEX
  5
1C4B
  8
3
 10
115.2307853918999
 20
-11.12155379210003
 30
0.0
  0
VERTEX
  5
1C4C
  8
3
 10
114.9052401845
 20
-11.16733551760012
 30
0.0
  0
VERTEX
  5
1C4D
  8
3
 10
114.5520780299999
 20
-11.19311844380013
 30
0.0
  0
VERTEX
  5
1C4E
  8
3
 10
114.2063759045
 20
-11.19764267389996
 30
0.0
  0
VERTEX
  5
1C4F
  8
3
 10
113.8533067300998
 20
-11.18170419450007
 30
0.0
  0
VERTEX
  5
1C50
  8
3
 10
113.5250304009999
 20
-11.14641806000009
 30
0.0
  0
VERTEX
  5
1C51
  8
3
 10
113.2094588718999
 20
-11.08953230220004
 30
0.0
  0
VERTEX
  5
1C52
  8
3
 10
112.9295868560999
 20
-11.01313167519993
 30
0.0
  0
VERTEX
  5
1C53
  8
3
 10
112.6807135331999
 20
-10.91335947610014
 30
0.0
  0
VERTEX
  5
1C54
  8
3
 10
112.4811511097999
 20
-10.79471017640003
 30
0.0
  0
VERTEX
  5
1C55
  8
3
 10
112.3283938420998
 20
-10.65251436130006
 30
0.0
  0
VERTEX
  5
1C56
  8
3
 10
112.2358786318999
 20
-10.49786021730006
 30
0.0
  0
VERTEX
  5
1C57
  8
3
 10
112.2001948861999
 20
-10.32430718799992
 30
0.0
  0
VERTEX
  5
1C58
  8
3
 10
112.2237989235999
 20
-10.14878655479993
 30
0.0
  0
VERTEX
  5
1C59
  8
3
 10
112.3063962490999
 20
-9.964199613099936
 30
0.0
  0
VERTEX
  5
1C5A
  8
3
 10
112.4407390667998
 20
-9.787158949100103
 30
0.0
  0
VERTEX
  5
1C5B
  8
3
 10
112.6305274106999
 20
-9.613877308800056
 30
0.0
  0
VERTEX
  5
1C5C
  8
3
 10
112.8634120344998
 20
-9.458470947799924
 30
0.0
  0
VERTEX
  5
1C5D
  8
3
 10
113.1439590727999
 20
-9.321046802700039
 30
0.0
  0
VERTEX
  5
1C5E
  8
3
 10
113.4514644401
 20
-9.214466767999966
 30
0.0
  0
VERTEX
  5
1C5F
  8
3
 10
113.7931056132998
 20
-9.138900170700026
 30
0.0
  0
VERTEX
  5
1C60
  8
3
 10
114.0426526116999
 20
-9.108723814400037
 30
0.0
  0
VERTEX
  5
1C61
  8
3
 10
114.3
 20
-9.098362806900013
 30
0.0
  0
SEQEND
  5
20FF
  8
3
  0
LINE
  5
DE2
  8
3
 10
105.3639890713999
 20
-10.84650000000011
 30
0.0
 11
105.3639890713999
 21
10.84649999999988
 31
0.0
  0
LINE
  5
DE3
  8
3
 10
134.3999999999999
 20
-31.75275000000011
 30
0.0
 11
134.3999999999999
 21
-50.79725000000008
 31
0.0
  0
LINE
  5
DE4
  8
3
 10
134.3999999999999
 20
50.79725000000008
 30
0.0
 11
134.3999999999999
 21
31.75274999999988
 31
0.0
  0
POLYLINE
  5
DE9
  8
3
 66
     1
 10
0.0
 20
0.0
 30
0.0
  0
VERTEX
  5
1C62
  8
3
 10
114.3
 20
29.97524848640001
 30
0.0
  0
VERTEX
  5
1C63
  8
3
 10
115.1036352079998
 20
29.89532199559994
 30
0.0
  0
VERTEX
  5
1C64
  8
3
 10
115.7849242404998
 20
29.66771060669998
 30
0.0
  0
VERTEX
  5
1C65
  8
3
 10
116.2401470183
 20
29.32706609039997
 30
0.0
  0
VERTEX
  5
1C66
  8
3
 10
116.3999999999999
 20
28.92524848640005
 30
0.0
  0
VERTEX
  5
1C67
  8
3
 10
116.2401470183
 20
28.52343088249995
 30
0.0
  0
VERTEX
  5
1C68
  8
3
 10
115.7849242404998
 20
28.18278636619993
 30
0.0
  0
VERTEX
  5
1C69
  8
3
 10
115.1036352079998
 20
27.95517497729998
 30
0.0
  0
VERTEX
  5
1C6A
  8
3
 10
114.3
 20
27.87524848639987
 30
0.0
  0
VERTEX
  5
1C6B
  8
3
 10
113.4963647919999
 20
27.95517497729998
 30
0.0
  0
VERTEX
  5
1C6C
  8
3
 10
112.8150757594999
 20
28.18278636619993
 30
0.0
  0
VERTEX
  5
1C6D
  8
3
 10
112.3598529816998
 20
28.52343088249995
 30
0.0
  0
VERTEX
  5
1C6E
  8
3
 10
112.1999999999999
 20
28.92524848640005
 30
0.0
  0
VERTEX
  5
1C6F
  8
3
 10
112.3598529816998
 20
29.32706609039997
 30
0.0
  0
VERTEX
  5
1C70
  8
3
 10
112.8150757594999
 20
29.66771060669998
 30
0.0
  0
VERTEX
  5
1C71
  8
3
 10
113.4963647919999
 20
29.89532199559994
 30
0.0
  0
VERTEX
  5
1C72
  8
3
 10
114.3
 20
29.97524848640001
 30
0.0
  0
SEQEND
  5
20FE
  8
3
  0
POLYLINE
  5
DEA
  8
3
 66
     1
 10
0.0
 20
0.0
 30
0.0
  0
VERTEX
  5
1C73
  8
3
 10
113.9999999999998
 20
13.34610584209986
 30
0.0
  0
VERTEX
  5
1C74
  8
3
 10
114.2270584423
 20
13.36265965519988
 30
0.0
  0
VERTEX
  5
1C75
  8
3
 10
114.4662344875999
 20
13.35822972200003
 30
0.0
  0
VERTEX
  5
1C76
  8
3
 10
114.6898573484998
 20
13.33442033620008
 30
0.0
  0
VERTEX
  5
1C77
  8
3
 10
114.9079259889
 20
13.2961014908999
 30
0.0
  0
VERTEX
  5
1C78
  8
3
 10
115.2179053629998
 20
13.22565349989986
 30
0.0
  0
VERTEX
  5
1C79
  8
3
 10
115.5037898441999
 20
13.15748010139987
 30
0.0
  0
VERTEX
  5
1C7A
  8
3
 10
115.7687208957
 20
13.1065492107
 30
0.0
  0
VERTEX
  5
1C7B
  8
3
 10
116.0026480224999
 20
13.08857175069988
 30
0.0
  0
VERTEX
  5
1C7C
  8
3
 10
116.1611436581998
 20
13.10764223830006
 30
0.0
  0
VERTEX
  5
1C7D
  8
3
 10
116.2870213613999
 20
13.16514539869991
 30
0.0
  0
VERTEX
  5
1C7E
  8
3
 10
116.3672842730999
 20
13.26251965639995
 30
0.0
  0
VERTEX
  5
1C7F
  8
3
 10
116.3997643103999
 20
13.4078343438
 30
0.0
  0
VERTEX
  5
1C80
  8
3
 10
116.3853764184999
 20
13.55771930729998
 30
0.0
  0
VERTEX
  5
1C81
  8
3
 10
116.3327392288
 20
13.73570224579998
 30
0.0
  0
VERTEX
  5
1C82
  8
3
 10
116.2502561167999
 20
13.92051392019994
 30
0.0
  0
VERTEX
  5
1C83
  8
3
 10
116.1371625617999
 20
14.11937158170008
 30
0.0
  0
VERTEX
  5
1C84
  8
3
 10
115.9396663679
 20
14.40155904540006
 30
0.0
  0
VERTEX
  5
1C85
  8
3
 10
115.6954722367998
 20
14.68771966479994
 30
0.0
  0
VERTEX
  5
1C86
  8
3
 10
115.4173159381999
 20
14.95556411849998
 30
0.0
  0
VERTEX
  5
1C87
  8
3
 10
115.0968300711
 20
15.19750754729989
 30
0.0
  0
VERTEX
  5
1C88
  8
3
 10
114.8863516382999
 20
15.31690973490004
 30
0.0
  0
VERTEX
  5
1C89
  8
3
 10
114.6571236828
 20
15.40839827979994
 30
0.0
  0
VERTEX
  5
1C8A
  8
3
 10
114.4630583177
 20
15.45209621399999
 30
0.0
  0
VERTEX
  5
1C8B
  8
3
 10
114.2588783186
 20
15.46298225099986
 30
0.0
  0
VERTEX
  5
1C8C
  8
3
 10
113.9999999999998
 20
15.42456681120007
 30
0.0
  0
SEQEND
  5
20FD
  8
3
  0
ARC
  5
DEB
  8
3
 10
116.5082342162998
 20
16.62768775270001
 30
0.0
 40
2.781858889949102
 50
154.3744331115974
 51
205.6255668884999
  0
POLYLINE
  5
DEC
  8
3
 66
     1
 10
0.0
 20
0.0
 30
0.0
  0
VERTEX
  5
1C8D
  8
3
 10
113.9999999999998
 20
17.8308086943
 30
0.0
  0
VERTEX
  5
1C8E
  8
3
 10
114.2270584423
 20
17.81425488119999
 30
0.0
  0
VERTEX
  5
1C8F
  8
3
 10
114.4662344875999
 20
17.81868481430001
 30
0.0
  0
VERTEX
  5
1C90
  8
3
 10
114.6898573484998
 20
17.84249420009996
 30
0.0
  0
VERTEX
  5
1C91
  8
3
 10
114.9079259889
 20
17.88081304539992
 30
0.0
  0
VERTEX
  5
1C92
  8
3
 10
115.2179053629998
 20
17.9512610365
 30
0.0
  0
VERTEX
  5
1C93
  8
3
 10
115.5037898441999
 20
18.01943443489995
 30
0.0
  0
VERTEX
  5
1C94
  8
3
 10
115.7687208957
 20
18.07036532560005
 30
0.0
  0
VERTEX
  5
1C95
  8
3
 10
116.0026480224999
 20
18.08834278569998
 30
0.0
  0
VERTEX
  5
1C96
  8
3
 10
116.1611436581998
 20
18.06927229810003
 30
0.0
  0
VERTEX
  5
1C97
  8
3
 10
116.2870213613999
 20
18.01176913759991
 30
0.0
  0
VERTEX
  5
1C98
  8
3
 10
116.3672842730999
 20
17.91439487989987
 30
0.0
  0
VERTEX
  5
1C99
  8
3
 10
116.3997643103999
 20
17.76908019259986
 30
0.0
  0
VERTEX
  5
1C9A
  8
3
 10
116.3853764184999
 20
17.61919522909989
 30
0.0
  0
VERTEX
  5
1C9B
  8
3
 10
116.3327392288
 20
17.44121229050006
 30
0.0
  0
VERTEX
  5
1C9C
  8
3
 10
116.2502561167999
 20
17.25640061609988
 30
0.0
  0
VERTEX
  5
1C9D
  8
3
 10
116.1371625617999
 20
17.05754295459997
 30
0.0
  0
VERTEX
  5
1C9E
  8
3
 10
115.9396663679
 20
16.77535549089998
 30
0.0
  0
VERTEX
  5
1C9F
  8
3
 10
115.6954722367998
 20
16.48919487149988
 30
0.0
  0
VERTEX
  5
1CA0
  8
3
 10
115.4173159381999
 20
16.22135041789988
 30
0.0
  0
VERTEX
  5
1CA1
  8
3
 10
115.0968300711
 20
15.97940698899993
 30
0.0
  0
VERTEX
  5
1CA2
  8
3
 10
114.8863516382999
 20
15.86000480140001
 30
0.0
  0
VERTEX
  5
1CA3
  8
3
 10
114.6571236828
 20
15.76851625659992
 30
0.0
  0
VERTEX
  5
1CA4
  8
3
 10
114.4630583177
 20
15.72481832239987
 30
0.0
  0
VERTEX
  5
1CA5
  8
3
 10
114.2588783186
 20
15.71393228529996
 30
0.0
  0
VERTEX
  5
1CA6
  8
3
 10
113.9999999999998
 20
15.75234772520002
 30
0.0
  0
SEQEND
  5
20FC
  8
3
  0
ARC
  5
DED
  8
3
 10
116.5082342162998
 20
14.54922678360003
 30
0.0
 40
2.781858889948897
 50
154.3744331115022
 51
205.6255668884979
  0
POLYLINE
  5
DEE
  8
3
 66
     1
 10
0.0
 20
0.0
 30
0.0
  0
VERTEX
  5
1CA7
  8
3
 10
114.3
 20
-27.8752484864001
 30
0.0
  0
VERTEX
  5
1CA8
  8
3
 10
115.1036352079998
 20
-27.95517497719993
 30
0.0
  0
VERTEX
  5
1CA9
  8
3
 10
115.7849242404998
 20
-28.18278636610012
 30
0.0
  0
VERTEX
  5
1CAA
  8
3
 10
116.2401470183
 20
-28.52343088240013
 30
0.0
  0
VERTEX
  5
1CAB
  8
3
 10
116.3999999999999
 20
-28.92524848640005
 30
0.0
  0
VERTEX
  5
1CAC
  8
3
 10
116.2401470183
 20
-29.32706609029992
 30
0.0
  0
VERTEX
  5
1CAD
  8
3
 10
115.7849242404998
 20
-29.66771060659994
 30
0.0
  0
VERTEX
  5
1CAE
  8
3
 10
115.1036352079998
 20
-29.89532199550013
 30
0.0
  0
VERTEX
  5
1CAF
  8
3
 10
114.3
 20
-29.97524848640001
 30
0.0
  0
VERTEX
  5
1CB0
  8
3
 10
113.4963647919999
 20
-29.89532199550013
 30
0.0
  0
VERTEX
  5
1CB1
  8
3
 10
112.8150757594999
 20
-29.66771060659994
 30
0.0
  0
VERTEX
  5
1CB2
  8
3
 10
112.3598529816998
 20
-29.32706609029992
 30
0.0
  0
VERTEX
  5
1CB3
  8
3
 10
112.1999999999999
 20
-28.92524848640005
 30
0.0
  0
VERTEX
  5
1CB4
  8
3
 10
112.3598529816998
 20
-28.52343088240013
 30
0.0
  0
VERTEX
  5
1CB5
  8
3
 10
112.8150757594999
 20
-28.18278636610012
 30
0.0
  0
VERTEX
  5
1CB6
  8
3
 10
113.4963647919999
 20
-27.95517497719993
 30
0.0
  0
VERTEX
  5
1CB7
  8
3
 10
114.3
 20
-27.8752484864001
 30
0.0
  0
SEQEND
  5
20FB
  8
3
  0
POLYLINE
  5
DEF
  8
3
 66
     1
 10
0.0
 20
0.0
 30
0.0
  0
VERTEX
  5
1CB8
  8
3
 10
113.9999999999998
 20
-15.75234772509998
 30
0.0
  0
VERTEX
  5
1CB9
  8
3
 10
114.2270584423
 20
-15.71552204220006
 30
0.0
  0
VERTEX
  5
1CBA
  8
3
 10
114.4662344875999
 20
-15.72527465489998
 30
0.0
  0
VERTEX
  5
1CBB
  8
3
 10
114.6898573484998
 20
-15.77899928900001
 30
0.0
  0
VERTEX
  5
1CBC
  8
3
 10
114.9079259889
 20
-15.87073195440007
 30
0.0
  0
VERTEX
  5
1CBD
  8
3
 10
115.2179053629998
 20
-16.06249166330008
 30
0.0
  0
VERTEX
  5
1CBE
  8
3
 10
115.5037898441999
 20
-16.29871074669995
 30
0.0
  0
VERTEX
  5
1CBF
  8
3
 10
115.7687208957
 20
-16.56941265130013
 30
0.0
  0
VERTEX
  5
1CC0
  8
3
 10
116.0026480224999
 20
-16.85911957090002
 30
0.0
  0
VERTEX
  5
1CC1
  8
3
 10
116.1611436581998
 20
-17.09657281540012
 30
0.0
  0
VERTEX
  5
1CC2
  8
3
 10
116.2870213613999
 20
-17.33225010959995
 30
0.0
  0
VERTEX
  5
1CC3
  8
3
 10
116.3672842730999
 20
-17.54515818849995
 30
0.0
  0
VERTEX
  5
1CC4
  8
3
 10
116.3997643103999
 20
-17.73761845810009
 30
0.0
  0
VERTEX
  5
1CC5
  8
3
 10
116.3853764184999
 20
-17.86659206240006
 30
0.0
  0
VERTEX
  5
1CC6
  8
3
 10
116.3327392288
 20
-17.96844205790012
 30
0.0
  0
VERTEX
  5
1CC7
  8
3
 10
116.2502561167999
 20
-18.03518240769995
 30
0.0
  0
VERTEX
  5
1CC8
  8
3
 10
116.1371625617999
 20
-18.07481072730002
 30
0.0
  0
VERTEX
  5
1CC9
  8
3
 10
115.9396663679
 20
-18.08741273119995
 30
0.0
  0
VERTEX
  5
1CCA
  8
3
 10
115.6954722367998
 20
-18.05848045290008
 30
0.0
  0
VERTEX
  5
1CCB
  8
3
 10
115.4173159381999
 20
-17.99944071200002
 30
0.0
  0
VERTEX
  5
1CCC
  8
3
 10
115.0968300711
 20
-17.92235882509999
 30
0.0
  0
VERTEX
  5
1CCD
  8
3
 10
114.8863516382999
 20
-17.87648484240003
 30
0.0
  0
VERTEX
  5
1CCE
  8
3
 10
114.6571236828
 20
-17.83792744690004
 30
0.0
  0
VERTEX
  5
1CCF
  8
3
 10
114.4630583177
 20
-17.81847827199999
 30
0.0
  0
VERTEX
  5
1CD0
  8
3
 10
114.2588783186
 20
-17.81352962930009
 30
0.0
  0
VERTEX
  5
1CD1
  8
3
 10
113.9999999999998
 20
-17.83080869419996
 30
0.0
  0
SEQEND
  5
20FA
  8
3
  0
ARC
  5
DF0
  8
3
 10
116.4624902679998
 20
-16.62768775259997
 30
0.0
 40
2.740685739043568
 50
153.9608383779994
 51
206.0391616220006
  0
POLYLINE
  5
DF1
  8
3
 66
     1
 10
0.0
 20
0.0
 30
0.0
  0
VERTEX
  5
1CD2
  8
3
 10
113.9999999999998
 20
-15.42456681110002
 30
0.0
  0
VERTEX
  5
1CD3
  8
3
 10
114.2270584423
 20
-15.46139249399994
 30
0.0
  0
VERTEX
  5
1CD4
  8
3
 10
114.4662344875999
 20
-15.45163988130003
 30
0.0
  0
VERTEX
  5
1CD5
  8
3
 10
114.6898573484998
 20
-15.39791524719999
 30
0.0
  0
VERTEX
  5
1CD6
  8
3
 10
114.9079259889
 20
-15.30618258179993
 30
0.0
  0
VERTEX
  5
1CD7
  8
3
 10
115.2179053629998
 20
-15.11442287280011
 30
0.0
  0
VERTEX
  5
1CD8
  8
3
 10
115.5037898441999
 20
-14.87820378950005
 30
0.0
  0
VERTEX
  5
1CD9
  8
3
 10
115.7687208957
 20
-14.6075018849001
 30
0.0
  0
VERTEX
  5
1CDA
  8
3
 10
116.0026480224999
 20
-14.31779496529998
 30
0.0
  0
VERTEX
  5
1CDB
  8
3
 10
116.1611436581998
 20
-14.08034172080011
 30
0.0
  0
VERTEX
  5
1CDC
  8
3
 10
116.2870213613999
 20
-13.84466442660005
 30
0.0
  0
VERTEX
  5
1CDD
  8
3
 10
116.3672842730999
 20
-13.6317563476
 30
0.0
  0
VERTEX
  5
1CDE
  8
3
 10
116.3997643103999
 20
-13.4392960780001
 30
0.0
  0
VERTEX
  5
1CDF
  8
3
 10
116.3853764184999
 20
-13.31032247379994
 30
0.0
  0
VERTEX
  5
1CE0
  8
3
 10
116.3327392288
 20
-13.20847247830011
 30
0.0
  0
VERTEX
  5
1CE1
  8
3
 10
116.2502561167999
 20
-13.14173212840001
 30
0.0
  0
VERTEX
  5
1CE2
  8
3
 10
116.1371625617999
 20
-13.10210380879994
 30
0.0
  0
VERTEX
  5
1CE3
  8
3
 10
115.9396663679
 20
-13.08950180490001
 30
0.0
  0
VERTEX
  5
1CE4
  8
3
 10
115.6954722367998
 20
-13.1184340832001
 30
0.0
  0
VERTEX
  5
1CE5
  8
3
 10
115.4173159381999
 20
-13.17747382419998
 30
0.0
  0
VERTEX
  5
1CE6
  8
3
 10
115.0968300711
 20
-13.25455571099997
 30
0.0
  0
VERTEX
  5
1CE7
  8
3
 10
114.8863516382999
 20
-13.30042969369993
 30
0.0
  0
VERTEX
  5
1CE8
  8
3
 10
114.6571236828
 20
-13.33898708919992
 30
0.0
  0
VERTEX
  5
1CE9
  8
3
 10
114.4630583177
 20
-13.35843626420001
 30
0.0
  0
VERTEX
  5
1CEA
  8
3
 10
114.2588783186
 20
-13.36338490680009
 30
0.0
  0
VERTEX
  5
1CEB
  8
3
 10
113.9999999999998
 20
-13.34610584200004
 30
0.0
  0
SEQEND
  5
20F9
  8
3
  0
ARC
  5
DF2
  8
3
 10
116.4624902680999
 20
-14.54922678349999
 30
0.0
 40
2.74068573904602
 50
153.9608383780011
 51
206.0391616219989
  0
LINE
  5
DF3
  8
3
 10
113.9999999999998
 20
-15.42456681110002
 30
0.0
 11
113.9999999999998
 21
-17.83080869419996
 31
0.0
  0
LINE
  5
DF4
  8
3
 10
113.9999999999998
 20
-15.42456681110002
 30
0.0
 11
113.9999999999998
 21
-13.34610584200004
 31
0.0
  0
LINE
  5
DF5
  8
3
 10
113.9999999999998
 20
17.8308086943
 30
0.0
 11
113.9999999999998
 21
15.42456681120007
 31
0.0
  0
LINE
  5
DF6
  8
3
 10
113.9999999999998
 20
13.34610584209986
 30
0.0
 11
113.9999999999998
 21
15.42456681120007
 31
0.0
  0
POLYLINE
  5
DF7
  8
3
 66
     1
 10
0.0
 20
0.0
 30
0.0
  0
VERTEX
  5
1CEC
  8
3
 10
114.3
 20
-28.06741182330006
 30
0.0
  0
VERTEX
  5
1CED
  8
3
 10
115.1978028761999
 20
-28.14656525860005
 30
0.0
  0
VERTEX
  5
1CEE
  8
3
 10
115.9873174753998
 20
-28.37447849170007
 30
0.0
  0
VERTEX
  5
1CEF
  8
3
 10
116.5733166849
 20
-28.72366182330006
 30
0.0
  0
VERTEX
  5
1CF0
  8
3
 10
116.8851203517
 20
-29.15199859020004
 30
0.0
  0
VERTEX
  5
1CF1
  8
3
 10
116.8851203517
 20
-29.60782505650013
 30
0.0
  0
VERTEX
  5
1CF2
  8
3
 10
116.5733166849
 20
-30.03616182330006
 30
0.0
  0
VERTEX
  5
1CF3
  8
3
 10
115.9873174753998
 20
-30.38534515490005
 30
0.0
  0
VERTEX
  5
1CF4
  8
3
 10
115.1978028761999
 20
-30.61325838810012
 30
0.0
  0
VERTEX
  5
1CF5
  8
3
 10
114.3
 20
-30.69241182330006
 30
0.0
  0
VERTEX
  5
1CF6
  8
3
 10
113.4021971237999
 20
-30.61325838810012
 30
0.0
  0
VERTEX
  5
1CF7
  8
3
 10
112.6126825245999
 20
-30.38534515490005
 30
0.0
  0
VERTEX
  5
1CF8
  8
3
 10
112.0266833151
 20
-30.03616182330006
 30
0.0
  0
VERTEX
  5
1CF9
  8
3
 10
111.7148796483998
 20
-29.60782505650013
 30
0.0
  0
VERTEX
  5
1CFA
  8
3
 10
111.7148796483998
 20
-29.15199859020004
 30
0.0
  0
VERTEX
  5
1CFB
  8
3
 10
112.0266833151
 20
-28.72366182330006
 30
0.0
  0
VERTEX
  5
1CFC
  8
3
 10
112.6126825245999
 20
-28.37447849170007
 30
0.0
  0
VERTEX
  5
1CFD
  8
3
 10
113.4021971237999
 20
-28.14656525860005
 30
0.0
  0
VERTEX
  5
1CFE
  8
3
 10
114.3
 20
-28.06741182330006
 30
0.0
  0
SEQEND
  5
20F8
  8
3
  0
POLYLINE
  5
DF8
  8
3
 66
     1
 10
0.0
 20
0.0
 30
0.0
  0
VERTEX
  5
1CFF
  8
3
 10
114.3
 20
30.69241182339988
 30
0.0
  0
VERTEX
  5
1D00
  8
3
 10
115.1978028761999
 20
30.61325838819994
 30
0.0
  0
VERTEX
  5
1D01
  8
3
 10
115.9873174753998
 20
30.38534515499987
 30
0.0
  0
VERTEX
  5
1D02
  8
3
 10
116.5733166849
 20
30.03616182339988
 30
0.0
  0
VERTEX
  5
1D03
  8
3
 10
116.8851203517
 20
29.60782505659995
 30
0.0
  0
VERTEX
  5
1D04
  8
3
 10
116.8851203517
 20
29.15199859020004
 30
0.0
  0
VERTEX
  5
1D05
  8
3
 10
116.5733166849
 20
28.72366182339988
 30
0.0
  0
VERTEX
  5
1D06
  8
3
 10
115.9873174753998
 20
28.37447849179989
 30
0.0
  0
VERTEX
  5
1D07
  8
3
 10
115.1978028761999
 20
28.14656525860005
 30
0.0
  0
VERTEX
  5
1D08
  8
3
 10
114.3
 20
28.06741182339988
 30
0.0
  0
VERTEX
  5
1D09
  8
3
 10
113.4021971237999
 20
28.14656525860005
 30
0.0
  0
VERTEX
  5
1D0A
  8
3
 10
112.6126825245999
 20
28.37447849179989
 30
0.0
  0
VERTEX
  5
1D0B
  8
3
 10
112.0266833151
 20
28.72366182339988
 30
0.0
  0
VERTEX
  5
1D0C
  8
3
 10
111.7148796483998
 20
29.15199859020004
 30
0.0
  0
VERTEX
  5
1D0D
  8
3
 10
111.7148796483998
 20
29.60782505659995
 30
0.0
  0
VERTEX
  5
1D0E
  8
3
 10
112.0266833151
 20
30.03616182339988
 30
0.0
  0
VERTEX
  5
1D0F
  8
3
 10
112.6126825245999
 20
30.38534515499987
 30
0.0
  0
VERTEX
  5
1D10
  8
3
 10
113.4021971237999
 20
30.61325838819994
 30
0.0
  0
VERTEX
  5
1D11
  8
3
 10
114.3
 20
30.69241182339988
 30
0.0
  0
SEQEND
  5
20F7
  8
3
  0
LINE
  5
DF9
  8
3
 10
147.31873
 20
12.70000000000005
 30
0.0
 11
147.31873
 21
-12.70000000000005
 31
0.0
  0
LINE
  5
DFA
  8
3
 10
146.05
 20
11.43127000000004
 30
0.0
 11
146.05
 21
-11.43127000000004
 31
0.0
  0
LINE
  5
E03
  8
3
 10
139.2229603049998
 20
50.80380999999988
 30
0.0
 11
139.2229603049998
 21
31.74619000000007
 31
0.0
  0
LINE
  5
E04
  8
3
 10
138.0848395105998
 20
50.79380999999989
 30
0.0
 11
138.0848395105998
 21
31.75619000000006
 31
0.0
  0
LINE
  5
E05
  8
3
 10
137.1599999999999
 20
50.54600000000005
 30
0.0
 11
137.1599999999999
 21
32.00399999999991
 31
0.0
  0
LINE
  5
E06
  8
3
 10
139.2229603049998
 20
-31.74619000000007
 30
0.0
 11
139.2229603049998
 21
-50.80381000000011
 31
0.0
  0
LINE
  5
E07
  8
3
 10
137.1599999999999
 20
-32.00400000000013
 30
0.0
 11
137.1599999999999
 21
-50.54600000000005
 31
0.0
  0
LINE
  5
E08
  8
3
 10
138.0848395105998
 20
-31.75619000000006
 30
0.0
 11
138.0848395105998
 21
-50.79381000000012
 31
0.0
  0
CIRCLE
  5
E09
  8
3
 10
114.3
 20
0.0
 30
0.0
 40
2.316732743452349
  0
CIRCLE
  5
E0A
  8
3
 10
114.3
 20
0.0
 30
0.0
 40
1.75
  0
POLYLINE
  5
E0B
  8
3
 66
     1
 10
0.0
 20
0.0
 30
0.0
  0
VERTEX
  5
1D12
  8
3
 10
114.3
 20
-25.92478480440013
 30
0.0
  0
VERTEX
  5
1D13
  8
3
 10
113.6303039933999
 20
-25.85817939539993
 30
0.0
  0
VERTEX
  5
1D14
  8
3
 10
113.0625631328999
 20
-25.66850323800008
 30
0.0
  0
VERTEX
  5
1D15
  8
3
 10
112.6832108181
 20
-25.38463280769997
 30
0.0
  0
VERTEX
  5
1D16
  8
3
 10
112.55
 20
-25.04978480440013
 30
0.0
  0
VERTEX
  5
1D17
  8
3
 10
112.6832108181
 20
-24.71493680110007
 30
0.0
  0
VERTEX
  5
1D18
  8
3
 10
113.0625631328999
 20
-24.4310663709
 30
0.0
  0
VERTEX
  5
1D19
  8
3
 10
113.6303039933999
 20
-24.24139021349993
 30
0.0
  0
VERTEX
  5
1D1A
  8
3
 10
114.3
 20
-24.17478480440013
 30
0.0
  0
VERTEX
  5
1D1B
  8
3
 10
114.9696960065999
 20
-24.24139021349993
 30
0.0
  0
VERTEX
  5
1D1C
  8
3
 10
115.5374368670999
 20
-24.4310663709
 30
0.0
  0
VERTEX
  5
1D1D
  8
3
 10
115.9167891819
 20
-24.71493680110007
 30
0.0
  0
VERTEX
  5
1D1E
  8
3
 10
116.05
 20
-25.04978480440013
 30
0.0
  0
VERTEX
  5
1D1F
  8
3
 10
115.9167891819
 20
-25.38463280769997
 30
0.0
  0
VERTEX
  5
1D20
  8
3
 10
115.5374368670999
 20
-25.66850323800008
 30
0.0
  0
VERTEX
  5
1D21
  8
3
 10
114.9696960065999
 20
-25.85817939539993
 30
0.0
  0
VERTEX
  5
1D22
  8
3
 10
114.3
 20
-25.92478480440013
 30
0.0
  0
SEQEND
  5
20F6
  8
3
  0
POLYLINE
  5
E0C
  8
3
 66
     1
 10
0.0
 20
0.0
 30
0.0
  0
VERTEX
  5
1D23
  8
3
 10
111.9832672564999
 20
-25.54058975740008
 30
0.0
  0
VERTEX
  5
1D24
  8
3
 10
112.1397110537999
 20
-25.12213955919992
 30
0.0
  0
VERTEX
  5
1D25
  8
3
 10
112.5879138438
 20
-24.76020337900013
 30
0.0
  0
VERTEX
  5
1D26
  8
3
 10
113.2673433560999
 20
-24.50366270350014
 30
0.0
  0
VERTEX
  5
1D27
  8
3
 10
114.0862388704
 20
-24.38716477239996
 30
0.0
  0
VERTEX
  5
1D28
  8
3
 10
114.9340040097998
 20
-24.42644327690005
 30
0.0
  0
VERTEX
  5
1D29
  8
3
 10
115.6961433943998
 20
-24.61619343730013
 30
0.0
  0
VERTEX
  5
1D2A
  8
3
 10
116.2697258773999
 20
-24.93078844289994
 30
0.0
  0
VERTEX
  5
1D2B
  8
3
 10
116.5772859659999
 20
-25.32774049509999
 30
0.0
  0
VERTEX
  5
1D2C
  8
3
 10
116.5772859659999
 20
-25.75343901969995
 30
0.0
  0
VERTEX
  5
1D2D
  8
3
 10
116.2697258773999
 20
-26.1503910719
 30
0.0
  0
VERTEX
  5
1D2E
  8
3
 10
115.6961433943998
 20
-26.46498607750004
 30
0.0
  0
VERTEX
  5
1D2F
  8
3
 10
114.9340040097998
 20
-26.65473623790012
 30
0.0
  0
VERTEX
  5
1D30
  8
3
 10
114.0862388704
 20
-26.69401474239999
 30
0.0
  0
VERTEX
  5
1D31
  8
3
 10
113.2673433560999
 20
-26.57751681130003
 30
0.0
  0
VERTEX
  5
1D32
  8
3
 10
112.5879138438
 20
-26.32097613580004
 30
0.0
  0
VERTEX
  5
1D33
  8
3
 10
112.1397110537999
 20
-25.95903995560002
 30
0.0
  0
VERTEX
  5
1D34
  8
3
 10
111.9832672564999
 20
-25.54058975740008
 30
0.0
  0
SEQEND
  5
20F5
  8
3
  0
POLYLINE
  5
E0D
  8
3
 66
     1
 10
0.0
 20
0.0
 30
0.0
  0
VERTEX
  5
1D35
  8
3
 10
116.3549999999998
 20
-25.69930384290001
 30
0.0
  0
VERTEX
  5
1D36
  8
3
 10
116.1985724392999
 20
-26.09251106970009
 30
0.0
  0
VERTEX
  5
1D37
  8
3
 10
115.7531044352998
 20
-26.42585606059993
 30
0.0
  0
VERTEX
  5
1D38
  8
3
 10
115.0864144534999
 20
-26.64859006260008
 30
0.0
  0
VERTEX
  5
1D39
  8
3
 10
114.3
 20
-26.72680384289993
 30
0.0
  0
VERTEX
  5
1D3A
  8
3
 10
113.5135855464999
 20
-26.64859006260008
 30
0.0
  0
VERTEX
  5
1D3B
  8
3
 10
112.8468955645999
 20
-26.42585606059993
 30
0.0
  0
VERTEX
  5
1D3C
  8
3
 10
112.4014275606999
 20
-26.09251106970009
 30
0.0
  0
VERTEX
  5
1D3D
  8
3
 10
112.2449999999999
 20
-25.69930384290001
 30
0.0
  0
VERTEX
  5
1D3E
  8
3
 10
112.4014275606999
 20
-25.30609661609992
 30
0.0
  0
VERTEX
  5
1D3F
  8
3
 10
112.8468955645999
 20
-24.97275162520009
 30
0.0
  0
VERTEX
  5
1D40
  8
3
 10
113.5135855464999
 20
-24.75001762319994
 30
0.0
  0
VERTEX
  5
1D41
  8
3
 10
114.3
 20
-24.67180384290009
 30
0.0
  0
VERTEX
  5
1D42
  8
3
 10
115.0864144534999
 20
-24.75001762319994
 30
0.0
  0
VERTEX
  5
1D43
  8
3
 10
115.7531044352998
 20
-24.97275162520009
 30
0.0
  0
VERTEX
  5
1D44
  8
3
 10
116.1985724392999
 20
-25.30609661609992
 30
0.0
  0
VERTEX
  5
1D45
  8
3
 10
116.3549999999998
 20
-25.69930384290001
 30
0.0
  0
SEQEND
  5
20F4
  8
3
  0
POLYLINE
  5
E0E
  8
3
 66
     1
 10
0.0
 20
0.0
 30
0.0
  0
VERTEX
  5
1D46
  8
3
 10
116.8
 20
-25.96915073750006
 30
0.0
  0
VERTEX
  5
1D47
  8
3
 10
116.649231552
 20
-26.39667591670013
 30
0.0
  0
VERTEX
  5
1D48
  8
3
 10
116.2151111077999
 20
-26.77263524959994
 30
0.0
  0
VERTEX
  5
1D49
  8
3
 10
115.55
 20
-27.05168249229996
 30
0.0
  0
VERTEX
  5
1D4A
  8
3
 10
114.7341204441998
 20
-27.20016042880002
 30
0.0
  0
VERTEX
  5
1D4B
  8
3
 10
113.8658795557999
 20
-27.20016042880002
 30
0.0
  0
VERTEX
  5
1D4C
  8
3
 10
113.05
 20
-27.05168249229996
 30
0.0
  0
VERTEX
  5
1D4D
  8
3
 10
112.3848888921998
 20
-26.77263524959994
 30
0.0
  0
VERTEX
  5
1D4E
  8
3
 10
111.950768448
 20
-26.39667591670013
 30
0.0
  0
VERTEX
  5
1D4F
  8
3
 10
111.8
 20
-25.96915073750006
 30
0.0
  0
VERTEX
  5
1D50
  8
3
 10
111.950768448
 20
-25.54162555840003
 30
0.0
  0
VERTEX
  5
1D51
  8
3
 10
112.3848888921998
 20
-25.16566622539995
 30
0.0
  0
VERTEX
  5
1D52
  8
3
 10
113.05
 20
-24.88661898279997
 30
0.0
  0
VERTEX
  5
1D53
  8
3
 10
113.8658795557999
 20
-24.73814104630014
 30
0.0
  0
VERTEX
  5
1D54
  8
3
 10
114.7341204441998
 20
-24.73814104630014
 30
0.0
  0
VERTEX
  5
1D55
  8
3
 10
115.55
 20
-24.88661898279997
 30
0.0
  0
VERTEX
  5
1D56
  8
3
 10
116.2151111077999
 20
-25.16566622539995
 30
0.0
  0
VERTEX
  5
1D57
  8
3
 10
116.649231552
 20
-25.54162555840003
 30
0.0
  0
VERTEX
  5
1D58
  8
3
 10
116.8
 20
-25.96915073750006
 30
0.0
  0
SEQEND
  5
20F3
  8
3
  0
POLYLINE
  5
E0F
  8
3
 66
     1
 10
0.0
 20
0.0
 30
0.0
  0
VERTEX
  5
1D59
  8
3
 10
116.8
 20
-26.04719028890008
 30
0.0
  0
VERTEX
  5
1D5A
  8
3
 10
116.6492315518999
 20
-26.47471546800011
 30
0.0
  0
VERTEX
  5
1D5B
  8
3
 10
116.2151111077999
 20
-26.85067480099997
 30
0.0
  0
VERTEX
  5
1D5C
  8
3
 10
115.55
 20
-27.12972204359994
 30
0.0
  0
VERTEX
  5
1D5D
  8
3
 10
114.7341204441998
 20
-27.2781999801
 30
0.0
  0
VERTEX
  5
1D5E
  8
3
 10
113.8658795557999
 20
-27.2781999801
 30
0.0
  0
VERTEX
  5
1D5F
  8
3
 10
113.05
 20
-27.12972204359994
 30
0.0
  0
VERTEX
  5
1D60
  8
3
 10
112.3848888921998
 20
-26.85067480099997
 30
0.0
  0
VERTEX
  5
1D61
  8
3
 10
111.950768448
 20
-26.47471546800011
 30
0.0
  0
VERTEX
  5
1D62
  8
3
 10
111.8
 20
-26.04719028890008
 30
0.0
  0
VERTEX
  5
1D63
  8
3
 10
111.950768448
 20
-25.61966510970001
 30
0.0
  0
VERTEX
  5
1D64
  8
3
 10
112.3848888921998
 20
-25.24370577679997
 30
0.0
  0
VERTEX
  5
1D65
  8
3
 10
113.05
 20
-24.96465853409995
 30
0.0
  0
VERTEX
  5
1D66
  8
3
 10
113.8658795557999
 20
-24.81618059760012
 30
0.0
  0
VERTEX
  5
1D67
  8
3
 10
114.7341204441998
 20
-24.81618059760012
 30
0.0
  0
VERTEX
  5
1D68
  8
3
 10
115.55
 20
-24.96465853409995
 30
0.0
  0
VERTEX
  5
1D69
  8
3
 10
116.2151111077999
 20
-25.24370577679997
 30
0.0
  0
VERTEX
  5
1D6A
  8
3
 10
116.6492315518999
 20
-25.61966510970001
 30
0.0
  0
VERTEX
  5
1D6B
  8
3
 10
116.8
 20
-26.04719028890008
 30
0.0
  0
SEQEND
  5
20F2
  8
3
  0
POLYLINE
  5
E10
  8
3
 66
     1
 10
0.0
 20
0.0
 30
0.0
  0
VERTEX
  5
1D6C
  8
3
 10
116.3549999999998
 20
-26.31703718350013
 30
0.0
  0
VERTEX
  5
1D6D
  8
3
 10
116.1985724392999
 20
-26.71024441029999
 30
0.0
  0
VERTEX
  5
1D6E
  8
3
 10
115.7531044352998
 20
-27.04358940120005
 30
0.0
  0
VERTEX
  5
1D6F
  8
3
 10
115.0864144534999
 20
-27.26632340319998
 30
0.0
  0
VERTEX
  5
1D70
  8
3
 10
114.3
 20
-27.34453718350005
 30
0.0
  0
VERTEX
  5
1D71
  8
3
 10
113.5135855464999
 20
-27.26632340319998
 30
0.0
  0
VERTEX
  5
1D72
  8
3
 10
112.8468955645999
 20
-27.04358940120005
 30
0.0
  0
VERTEX
  5
1D73
  8
3
 10
112.4014275606999
 20
-26.71024441029999
 30
0.0
  0
VERTEX
  5
1D74
  8
3
 10
112.2449999999999
 20
-26.31703718350013
 30
0.0
  0
VERTEX
  5
1D75
  8
3
 10
112.4014275606999
 20
-25.92382995670005
 30
0.0
  0
VERTEX
  5
1D76
  8
3
 10
112.8468955645999
 20
-25.59048496579999
 30
0.0
  0
VERTEX
  5
1D77
  8
3
 10
113.5135855464999
 20
-25.36775096380006
 30
0.0
  0
VERTEX
  5
1D78
  8
3
 10
114.3
 20
-25.28953718349999
 30
0.0
  0
VERTEX
  5
1D79
  8
3
 10
115.0864144534999
 20
-25.36775096380006
 30
0.0
  0
VERTEX
  5
1D7A
  8
3
 10
115.7531044352998
 20
-25.59048496579999
 30
0.0
  0
VERTEX
  5
1D7B
  8
3
 10
116.1985724392999
 20
-25.92382995670005
 30
0.0
  0
VERTEX
  5
1D7C
  8
3
 10
116.3549999999998
 20
-26.31703718350013
 30
0.0
  0
SEQEND
  5
20F1
  8
3
  0
POLYLINE
  5
E11
  8
3
 66
     1
 10
0.0
 20
0.0
 30
0.0
  0
VERTEX
  5
1D7D
  8
3
 10
116.8
 20
-26.58688407809996
 30
0.0
  0
VERTEX
  5
1D7E
  8
3
 10
116.6492315518999
 20
-27.01440925730003
 30
0.0
  0
VERTEX
  5
1D7F
  8
3
 10
116.2151111077999
 20
-27.39036859020007
 30
0.0
  0
VERTEX
  5
1D80
  8
3
 10
115.55
 20
-27.66941583290009
 30
0.0
  0
VERTEX
  5
1D81
  8
3
 10
114.7341204441
 20
-27.81789376940014
 30
0.0
  0
VERTEX
  5
1D82
  8
3
 10
113.8658795557999
 20
-27.81789376940014
 30
0.0
  0
VERTEX
  5
1D83
  8
3
 10
113.05
 20
-27.66941583290009
 30
0.0
  0
VERTEX
  5
1D84
  8
3
 10
112.3848888921998
 20
-27.39036859020007
 30
0.0
  0
VERTEX
  5
1D85
  8
3
 10
111.950768448
 20
-27.01440925730003
 30
0.0
  0
VERTEX
  5
1D86
  8
3
 10
111.8
 20
-26.58688407809996
 30
0.0
  0
VERTEX
  5
1D87
  8
3
 10
111.950768448
 20
-26.15935889899993
 30
0.0
  0
VERTEX
  5
1D88
  8
3
 10
112.3848888921998
 20
-25.78339956600007
 30
0.0
  0
VERTEX
  5
1D89
  8
3
 10
113.05
 20
-25.5043523234001
 30
0.0
  0
VERTEX
  5
1D8A
  8
3
 10
113.8658795557999
 20
-25.35587438690004
 30
0.0
  0
VERTEX
  5
1D8B
  8
3
 10
114.7341204441
 20
-25.35587438690004
 30
0.0
  0
VERTEX
  5
1D8C
  8
3
 10
115.55
 20
-25.5043523234001
 30
0.0
  0
VERTEX
  5
1D8D
  8
3
 10
116.2151111077999
 20
-25.78339956600007
 30
0.0
  0
VERTEX
  5
1D8E
  8
3
 10
116.6492315518999
 20
-26.15935889899993
 30
0.0
  0
VERTEX
  5
1D8F
  8
3
 10
116.8
 20
-26.58688407809996
 30
0.0
  0
SEQEND
  5
20F0
  8
3
  0
POLYLINE
  5
E12
  8
3
 66
     1
 10
0.0
 20
0.0
 30
0.0
  0
VERTEX
  5
1D90
  8
3
 10
116.8
 20
-26.66492362949998
 30
0.0
  0
VERTEX
  5
1D91
  8
3
 10
116.6492315518999
 20
-27.09244880860001
 30
0.0
  0
VERTEX
  5
1D92
  8
3
 10
116.2151111077999
 20
-27.46840814160009
 30
0.0
  0
VERTEX
  5
1D93
  8
3
 10
115.55
 20
-27.74745538420007
 30
0.0
  0
VERTEX
  5
1D94
  8
3
 10
114.7341204441
 20
-27.89593332070012
 30
0.0
  0
VERTEX
  5
1D95
  8
3
 10
113.8658795557999
 20
-27.89593332070012
 30
0.0
  0
VERTEX
  5
1D96
  8
3
 10
113.05
 20
-27.74745538420007
 30
0.0
  0
VERTEX
  5
1D97
  8
3
 10
112.3848888921998
 20
-27.46840814160009
 30
0.0
  0
VERTEX
  5
1D98
  8
3
 10
111.950768448
 20
-27.09244880860001
 30
0.0
  0
VERTEX
  5
1D99
  8
3
 10
111.8
 20
-26.66492362949998
 30
0.0
  0
VERTEX
  5
1D9A
  8
3
 10
111.950768448
 20
-26.23739845030013
 30
0.0
  0
VERTEX
  5
1D9B
  8
3
 10
112.3848888921998
 20
-25.8614391174001
 30
0.0
  0
VERTEX
  5
1D9C
  8
3
 10
113.05
 20
-25.58239187470008
 30
0.0
  0
VERTEX
  5
1D9D
  8
3
 10
113.8658795557999
 20
-25.43391393820002
 30
0.0
  0
VERTEX
  5
1D9E
  8
3
 10
114.7341204441
 20
-25.43391393820002
 30
0.0
  0
VERTEX
  5
1D9F
  8
3
 10
115.55
 20
-25.58239187470008
 30
0.0
  0
VERTEX
  5
1DA0
  8
3
 10
116.2151111077999
 20
-25.8614391174001
 30
0.0
  0
VERTEX
  5
1DA1
  8
3
 10
116.6492315518999
 20
-26.23739845030013
 30
0.0
  0
VERTEX
  5
1DA2
  8
3
 10
116.8
 20
-26.66492362949998
 30
0.0
  0
SEQEND
  5
20EF
  8
3
  0
POLYLINE
  5
E13
  8
3
 66
     1
 10
0.0
 20
0.0
 30
0.0
  0
VERTEX
  5
1DA3
  8
3
 10
116.3549999999998
 20
-26.93477052410003
 30
0.0
  0
VERTEX
  5
1DA4
  8
3
 10
116.1985724392999
 20
-27.32797775090012
 30
0.0
  0
VERTEX
  5
1DA5
  8
3
 10
115.7531044352998
 20
-27.66132274179995
 30
0.0
  0
VERTEX
  5
1DA6
  8
3
 10
115.0864144534999
 20
-27.8840567438001
 30
0.0
  0
VERTEX
  5
1DA7
  8
3
 10
114.3
 20
-27.96227052409995
 30
0.0
  0
VERTEX
  5
1DA8
  8
3
 10
113.5135855464999
 20
-27.8840567438001
 30
0.0
  0
VERTEX
  5
1DA9
  8
3
 10
112.8468955645999
 20
-27.66132274179995
 30
0.0
  0
VERTEX
  5
1DAA
  8
3
 10
112.4014275606999
 20
-27.32797775090012
 30
0.0
  0
VERTEX
  5
1DAB
  8
3
 10
112.2449999999999
 20
-26.93477052410003
 30
0.0
  0
VERTEX
  5
1DAC
  8
3
 10
112.4014275606999
 20
-26.54156329729994
 30
0.0
  0
VERTEX
  5
1DAD
  8
3
 10
112.8468955645999
 20
-26.20821830640011
 30
0.0
  0
VERTEX
  5
1DAE
  8
3
 10
113.5135855464999
 20
-25.98548430439996
 30
0.0
  0
VERTEX
  5
1DAF
  8
3
 10
114.3
 20
-25.90727052410011
 30
0.0
  0
VERTEX
  5
1DB0
  8
3
 10
115.0864144534999
 20
-25.98548430439996
 30
0.0
  0
VERTEX
  5
1DB1
  8
3
 10
115.7531044352998
 20
-26.20821830640011
 30
0.0
  0
VERTEX
  5
1DB2
  8
3
 10
116.1985724392999
 20
-26.54156329729994
 30
0.0
  0
VERTEX
  5
1DB3
  8
3
 10
116.3549999999998
 20
-26.93477052410003
 30
0.0
  0
SEQEND
  5
20EE
  8
3
  0
POLYLINE
  5
E14
  8
3
 66
     1
 10
0.0
 20
0.0
 30
0.0
  0
VERTEX
  5
1DB4
  8
3
 10
116.8
 20
-27.20461741870008
 30
0.0
  0
VERTEX
  5
1DB5
  8
3
 10
116.6492315518999
 20
-27.63214259789993
 30
0.0
  0
VERTEX
  5
1DB6
  8
3
 10
116.2151111077999
 20
-28.00810193079997
 30
0.0
  0
VERTEX
  5
1DB7
  8
3
 10
115.55
 20
-28.28714917349998
 30
0.0
  0
VERTEX
  5
1DB8
  8
3
 10
114.7341204441
 20
-28.43562711000004
 30
0.0
  0
VERTEX
  5
1DB9
  8
3
 10
113.8658795557999
 20
-28.43562711000004
 30
0.0
  0
VERTEX
  5
1DBA
  8
3
 10
113.05
 20
-28.28714917349998
 30
0.0
  0
VERTEX
  5
1DBB
  8
3
 10
112.3848888921998
 20
-28.00810193079997
 30
0.0
  0
VERTEX
  5
1DBC
  8
3
 10
111.950768448
 20
-27.63214259789993
 30
0.0
  0
VERTEX
  5
1DBD
  8
3
 10
111.8
 20
-27.20461741870008
 30
0.0
  0
VERTEX
  5
1DBE
  8
3
 10
111.950768448
 20
-26.77709223960005
 30
0.0
  0
VERTEX
  5
1DBF
  8
3
 10
112.3848888921998
 20
-26.40113290659997
 30
0.0
  0
VERTEX
  5
1DC0
  8
3
 10
113.05
 20
-26.122085664
 30
0.0
  0
VERTEX
  5
1DC1
  8
3
 10
113.8658795557999
 20
-25.97360772749994
 30
0.0
  0
VERTEX
  5
1DC2
  8
3
 10
114.7341204441
 20
-25.97360772749994
 30
0.0
  0
VERTEX
  5
1DC3
  8
3
 10
115.55
 20
-26.122085664
 30
0.0
  0
VERTEX
  5
1DC4
  8
3
 10
116.2151111077999
 20
-26.40113290659997
 30
0.0
  0
VERTEX
  5
1DC5
  8
3
 10
116.6492315518999
 20
-26.77709223960005
 30
0.0
  0
VERTEX
  5
1DC6
  8
3
 10
116.8
 20
-27.20461741870008
 30
0.0
  0
SEQEND
  5
20ED
  8
3
  0
POLYLINE
  5
E15
  8
3
 66
     1
 10
0.0
 20
0.0
 30
0.0
  0
VERTEX
  5
1DC7
  8
3
 10
116.8
 20
-27.28265697010011
 30
0.0
  0
VERTEX
  5
1DC8
  8
3
 10
116.649231552
 20
-27.71018214920014
 30
0.0
  0
VERTEX
  5
1DC9
  8
3
 10
116.2151111077999
 20
-28.08614148219999
 30
0.0
  0
VERTEX
  5
1DCA
  8
3
 10
115.55
 20
-28.36518872479996
 30
0.0
  0
VERTEX
  5
1DCB
  8
3
 10
114.7341204441998
 20
-28.51366666140007
 30
0.0
  0
VERTEX
  5
1DCC
  8
3
 10
113.8658795557999
 20
-28.51366666140007
 30
0.0
  0
VERTEX
  5
1DCD
  8
3
 10
113.05
 20
-28.36518872479996
 30
0.0
  0
VERTEX
  5
1DCE
  8
3
 10
112.3848888921998
 20
-28.08614148219999
 30
0.0
  0
VERTEX
  5
1DCF
  8
3
 10
111.950768448
 20
-27.71018214920014
 30
0.0
  0
VERTEX
  5
1DD0
  8
3
 10
111.8
 20
-27.28265697010011
 30
0.0
  0
VERTEX
  5
1DD1
  8
3
 10
111.950768448
 20
-26.85513179090003
 30
0.0
  0
VERTEX
  5
1DD2
  8
3
 10
112.3848888921998
 20
-26.47917245799999
 30
0.0
  0
VERTEX
  5
1DD3
  8
3
 10
113.05
 20
-26.20012521540002
 30
0.0
  0
VERTEX
  5
1DD4
  8
3
 10
113.8658795557999
 20
-26.05164727879992
 30
0.0
  0
VERTEX
  5
1DD5
  8
3
 10
114.7341204441998
 20
-26.05164727879992
 30
0.0
  0
VERTEX
  5
1DD6
  8
3
 10
115.55
 20
-26.20012521540002
 30
0.0
  0
VERTEX
  5
1DD7
  8
3
 10
116.2151111077999
 20
-26.47917245799999
 30
0.0
  0
VERTEX
  5
1DD8
  8
3
 10
116.649231552
 20
-26.85513179090003
 30
0.0
  0
VERTEX
  5
1DD9
  8
3
 10
116.8
 20
-27.28265697010011
 30
0.0
  0
SEQEND
  5
20EC
  8
3
  0
POLYLINE
  5
E16
  8
3
 66
     1
 10
0.0
 20
0.0
 30
0.0
  0
VERTEX
  5
1DDA
  8
3
 10
116.3549999999998
 20
-27.55250386469993
 30
0.0
  0
VERTEX
  5
1DDB
  8
3
 10
116.1985724392999
 20
-27.94571109150002
 30
0.0
  0
VERTEX
  5
1DDC
  8
3
 10
115.7531044352998
 20
-28.27905608240007
 30
0.0
  0
VERTEX
  5
1DDD
  8
3
 10
115.0864144534999
 20
-28.5017900844
 30
0.0
  0
VERTEX
  5
1DDE
  8
3
 10
114.3
 20
-28.58000386470007
 30
0.0
  0
VERTEX
  5
1DDF
  8
3
 10
113.5135855464999
 20
-28.5017900844
 30
0.0
  0
VERTEX
  5
1DE0
  8
3
 10
112.8468955647
 20
-28.27905608240007
 30
0.0
  0
VERTEX
  5
1DE1
  8
3
 10
112.4014275606999
 20
-27.94571109150002
 30
0.0
  0
VERTEX
  5
1DE2
  8
3
 10
112.2449999999999
 20
-27.55250386469993
 30
0.0
  0
VERTEX
  5
1DE3
  8
3
 10
112.4014275606999
 20
-27.15929663800011
 30
0.0
  0
VERTEX
  5
1DE4
  8
3
 10
112.8468955647
 20
-26.82595164700001
 30
0.0
  0
VERTEX
  5
1DE5
  8
3
 10
113.5135855464999
 20
-26.60321764510013
 30
0.0
  0
VERTEX
  5
1DE6
  8
3
 10
114.3
 20
-26.52500386470001
 30
0.0
  0
VERTEX
  5
1DE7
  8
3
 10
115.0864144534999
 20
-26.60321764510013
 30
0.0
  0
VERTEX
  5
1DE8
  8
3
 10
115.7531044352998
 20
-26.82595164700001
 30
0.0
  0
VERTEX
  5
1DE9
  8
3
 10
116.1985724392999
 20
-27.15929663800011
 30
0.0
  0
VERTEX
  5
1DEA
  8
3
 10
116.3549999999998
 20
-27.55250386469993
 30
0.0
  0
SEQEND
  5
20EB
  8
3
  0
POLYLINE
  5
E17
  8
3
 66
     1
 10
0.0
 20
0.0
 30
0.0
  0
VERTEX
  5
1DEB
  8
3
 10
116.8
 20
-27.82235075929998
 30
0.0
  0
VERTEX
  5
1DEC
  8
3
 10
116.649231552
 20
-28.24987593850005
 30
0.0
  0
VERTEX
  5
1DED
  8
3
 10
116.2151111077999
 20
-28.62583527140009
 30
0.0
  0
VERTEX
  5
1DEE
  8
3
 10
115.55
 20
-28.90488251410011
 30
0.0
  0
VERTEX
  5
1DEF
  8
3
 10
114.7341204441998
 20
-29.05336045059994
 30
0.0
  0
VERTEX
  5
1DF0
  8
3
 10
113.8658795557999
 20
-29.05336045059994
 30
0.0
  0
VERTEX
  5
1DF1
  8
3
 10
113.05
 20
-28.90488251410011
 30
0.0
  0
VERTEX
  5
1DF2
  8
3
 10
112.3848888921998
 20
-28.62583527140009
 30
0.0
  0
VERTEX
  5
1DF3
  8
3
 10
111.950768448
 20
-28.24987593850005
 30
0.0
  0
VERTEX
  5
1DF4
  8
3
 10
111.8
 20
-27.82235075929998
 30
0.0
  0
VERTEX
  5
1DF5
  8
3
 10
111.950768448
 20
-27.39482558019995
 30
0.0
  0
VERTEX
  5
1DF6
  8
3
 10
112.3848888921998
 20
-27.01886624720009
 30
0.0
  0
VERTEX
  5
1DF7
  8
3
 10
113.05
 20
-26.73981900460012
 30
0.0
  0
VERTEX
  5
1DF8
  8
3
 10
113.8658795557999
 20
-26.59134106810006
 30
0.0
  0
VERTEX
  5
1DF9
  8
3
 10
114.7341204441998
 20
-26.59134106810006
 30
0.0
  0
VERTEX
  5
1DFA
  8
3
 10
115.55
 20
-26.73981900460012
 30
0.0
  0
VERTEX
  5
1DFB
  8
3
 10
116.2151111077999
 20
-27.01886624720009
 30
0.0
  0
VERTEX
  5
1DFC
  8
3
 10
116.649231552
 20
-27.39482558019995
 30
0.0
  0
VERTEX
  5
1DFD
  8
3
 10
116.8
 20
-27.82235075929998
 30
0.0
  0
SEQEND
  5
20EA
  8
3
  0
POLYLINE
  5
E18
  8
3
 66
     1
 10
0.0
 20
0.0
 30
0.0
  0
VERTEX
  5
1DFE
  8
3
 10
116.8
 20
-27.9003903107
 30
0.0
  0
VERTEX
  5
1DFF
  8
3
 10
116.649231552
 20
-28.32791548980003
 30
0.0
  0
VERTEX
  5
1E00
  8
3
 10
116.2151111077999
 20
-28.70387482280012
 30
0.0
  0
VERTEX
  5
1E01
  8
3
 10
115.55
 20
-28.98292206540009
 30
0.0
  0
VERTEX
  5
1E02
  8
3
 10
114.7341204441998
 20
-29.13140000199996
 30
0.0
  0
VERTEX
  5
1E03
  8
3
 10
113.8658795557999
 20
-29.13140000199996
 30
0.0
  0
VERTEX
  5
1E04
  8
3
 10
113.05
 20
-28.98292206540009
 30
0.0
  0
VERTEX
  5
1E05
  8
3
 10
112.3848888921998
 20
-28.70387482280012
 30
0.0
  0
VERTEX
  5
1E06
  8
3
 10
111.950768448
 20
-28.32791548980003
 30
0.0
  0
VERTEX
  5
1E07
  8
3
 10
111.8
 20
-27.9003903107
 30
0.0
  0
VERTEX
  5
1E08
  8
3
 10
111.950768448
 20
-27.47286513149993
 30
0.0
  0
VERTEX
  5
1E09
  8
3
 10
112.3848888921998
 20
-27.09690579860012
 30
0.0
  0
VERTEX
  5
1E0A
  8
3
 10
113.05
 20
-26.81785855599992
 30
0.0
  0
VERTEX
  5
1E0B
  8
3
 10
113.8658795557999
 20
-26.66938061940004
 30
0.0
  0
VERTEX
  5
1E0C
  8
3
 10
114.7341204441998
 20
-26.66938061940004
 30
0.0
  0
VERTEX
  5
1E0D
  8
3
 10
115.55
 20
-26.81785855599992
 30
0.0
  0
VERTEX
  5
1E0E
  8
3
 10
116.2151111077999
 20
-27.09690579860012
 30
0.0
  0
VERTEX
  5
1E0F
  8
3
 10
116.649231552
 20
-27.47286513149993
 30
0.0
  0
VERTEX
  5
1E10
  8
3
 10
116.8
 20
-27.9003903107
 30
0.0
  0
SEQEND
  5
20E9
  8
3
  0
POLYLINE
  5
E19
  8
3
 66
     1
 10
0.0
 20
0.0
 30
0.0
  0
VERTEX
  5
1E11
  8
3
 10
116.3549999999998
 20
-28.17023720530005
 30
0.0
  0
VERTEX
  5
1E12
  8
3
 10
116.1985724392999
 20
-28.56344443210014
 30
0.0
  0
VERTEX
  5
1E13
  8
3
 10
115.7531044352998
 20
-28.89678942299997
 30
0.0
  0
VERTEX
  5
1E14
  8
3
 10
115.0864144534999
 20
-29.11952342500012
 30
0.0
  0
VERTEX
  5
1E15
  8
3
 10
114.3
 20
-29.19773720529997
 30
0.0
  0
VERTEX
  5
1E16
  8
3
 10
113.5135855464999
 20
-29.11952342500012
 30
0.0
  0
VERTEX
  5
1E17
  8
3
 10
112.8468955647
 20
-28.89678942299997
 30
0.0
  0
VERTEX
  5
1E18
  8
3
 10
112.4014275606999
 20
-28.56344443210014
 30
0.0
  0
VERTEX
  5
1E19
  8
3
 10
112.2449999999999
 20
-28.17023720530005
 30
0.0
  0
VERTEX
  5
1E1A
  8
3
 10
112.4014275606999
 20
-27.77702997860001
 30
0.0
  0
VERTEX
  5
1E1B
  8
3
 10
112.8468955647
 20
-27.44368498760014
 30
0.0
  0
VERTEX
  5
1E1C
  8
3
 10
113.5135855464999
 20
-27.22095098570003
 30
0.0
  0
VERTEX
  5
1E1D
  8
3
 10
114.3
 20
-27.14273720530014
 30
0.0
  0
VERTEX
  5
1E1E
  8
3
 10
115.0864144534999
 20
-27.22095098570003
 30
0.0
  0
VERTEX
  5
1E1F
  8
3
 10
115.7531044352998
 20
-27.44368498760014
 30
0.0
  0
VERTEX
  5
1E20
  8
3
 10
116.1985724392999
 20
-27.77702997860001
 30
0.0
  0
VERTEX
  5
1E21
  8
3
 10
116.3549999999998
 20
-28.17023720530005
 30
0.0
  0
SEQEND
  5
20E8
  8
3
  0
POLYLINE
  5
E1A
  8
3
 66
     1
 10
0.0
 20
0.0
 30
0.0
  0
VERTEX
  5
1E22
  8
3
 10
116.8
 20
-28.4400840999001
 30
0.0
  0
VERTEX
  5
1E23
  8
3
 10
116.649231552
 20
-28.86760927909995
 30
0.0
  0
VERTEX
  5
1E24
  8
3
 10
116.2151111077999
 20
-29.24356861199999
 30
0.0
  0
VERTEX
  5
1E25
  8
3
 10
115.55
 20
-29.52261585470001
 30
0.0
  0
VERTEX
  5
1E26
  8
3
 10
114.7341204441998
 20
-29.67109379120006
 30
0.0
  0
VERTEX
  5
1E27
  8
3
 10
113.8658795557999
 20
-29.67109379120006
 30
0.0
  0
VERTEX
  5
1E28
  8
3
 10
113.05
 20
-29.52261585470001
 30
0.0
  0
VERTEX
  5
1E29
  8
3
 10
112.3848888921998
 20
-29.24356861199999
 30
0.0
  0
VERTEX
  5
1E2A
  8
3
 10
111.950768448
 20
-28.86760927909995
 30
0.0
  0
VERTEX
  5
1E2B
  8
3
 10
111.8
 20
-28.4400840999001
 30
0.0
  0
VERTEX
  5
1E2C
  8
3
 10
111.950768448
 20
-28.01255892080007
 30
0.0
  0
VERTEX
  5
1E2D
  8
3
 10
112.3848888921998
 20
-27.63659958779999
 30
0.0
  0
VERTEX
  5
1E2E
  8
3
 10
113.05
 20
-27.35755234520002
 30
0.0
  0
VERTEX
  5
1E2F
  8
3
 10
113.8658795557999
 20
-27.20907440869996
 30
0.0
  0
VERTEX
  5
1E30
  8
3
 10
114.7341204441998
 20
-27.20907440869996
 30
0.0
  0
VERTEX
  5
1E31
  8
3
 10
115.55
 20
-27.35755234520002
 30
0.0
  0
VERTEX
  5
1E32
  8
3
 10
116.2151111077999
 20
-27.63659958779999
 30
0.0
  0
VERTEX
  5
1E33
  8
3
 10
116.649231552
 20
-28.01255892080007
 30
0.0
  0
VERTEX
  5
1E34
  8
3
 10
116.8
 20
-28.4400840999001
 30
0.0
  0
SEQEND
  5
20E7
  8
3
  0
POLYLINE
  5
E1B
  8
3
 66
     1
 10
0.0
 20
0.0
 30
0.0
  0
VERTEX
  5
1E35
  8
3
 10
116.8
 20
-28.51812365130013
 30
0.0
  0
VERTEX
  5
1E36
  8
3
 10
116.649231552
 20
-28.94564883049998
 30
0.0
  0
VERTEX
  5
1E37
  8
3
 10
116.2151111077999
 20
-29.32160816340001
 30
0.0
  0
VERTEX
  5
1E38
  8
3
 10
115.55
 20
-29.60065540599999
 30
0.0
  0
VERTEX
  5
1E39
  8
3
 10
114.7341204441998
 20
-29.74913334260009
 30
0.0
  0
VERTEX
  5
1E3A
  8
3
 10
113.8658795557999
 20
-29.74913334260009
 30
0.0
  0
VERTEX
  5
1E3B
  8
3
 10
113.05
 20
-29.60065540599999
 30
0.0
  0
VERTEX
  5
1E3C
  8
3
 10
112.3848888921998
 20
-29.32160816340001
 30
0.0
  0
VERTEX
  5
1E3D
  8
3
 10
111.950768448
 20
-28.94564883049998
 30
0.0
  0
VERTEX
  5
1E3E
  8
3
 10
111.8
 20
-28.51812365130013
 30
0.0
  0
VERTEX
  5
1E3F
  8
3
 10
111.950768448
 20
-28.09059847210006
 30
0.0
  0
VERTEX
  5
1E40
  8
3
 10
112.3848888921998
 20
-27.71463913920002
 30
0.0
  0
VERTEX
  5
1E41
  8
3
 10
113.05
 20
-27.43559189660004
 30
0.0
  0
VERTEX
  5
1E42
  8
3
 10
113.8658795557999
 20
-27.28711395999994
 30
0.0
  0
VERTEX
  5
1E43
  8
3
 10
114.7341204441998
 20
-27.28711395999994
 30
0.0
  0
VERTEX
  5
1E44
  8
3
 10
115.55
 20
-27.43559189660004
 30
0.0
  0
VERTEX
  5
1E45
  8
3
 10
116.2151111077999
 20
-27.71463913920002
 30
0.0
  0
VERTEX
  5
1E46
  8
3
 10
116.649231552
 20
-28.09059847210006
 30
0.0
  0
VERTEX
  5
1E47
  8
3
 10
116.8
 20
-28.51812365130013
 30
0.0
  0
SEQEND
  5
20E6
  8
3
  0
POLYLINE
  5
E1C
  8
3
 66
     1
 10
0.0
 20
0.0
 30
0.0
  0
VERTEX
  5
1E48
  8
3
 10
116.3549999999998
 20
-28.78797054589995
 30
0.0
  0
VERTEX
  5
1E49
  8
3
 10
116.1985724392999
 20
-29.18117777270004
 30
0.0
  0
VERTEX
  5
1E4A
  8
3
 10
115.7531044352998
 20
-29.5145227636001
 30
0.0
  0
VERTEX
  5
1E4B
  8
3
 10
115.0864144534999
 20
-29.73725676560002
 30
0.0
  0
VERTEX
  5
1E4C
  8
3
 10
114.3
 20
-29.8154705459001
 30
0.0
  0
VERTEX
  5
1E4D
  8
3
 10
113.5135855464999
 20
-29.73725676560002
 30
0.0
  0
VERTEX
  5
1E4E
  8
3
 10
112.8468955647
 20
-29.5145227636001
 30
0.0
  0
VERTEX
  5
1E4F
  8
3
 10
112.4014275606999
 20
-29.18117777270004
 30
0.0
  0
VERTEX
  5
1E50
  8
3
 10
112.2449999999999
 20
-28.78797054589995
 30
0.0
  0
VERTEX
  5
1E51
  8
3
 10
112.4014275606999
 20
-28.39476331920014
 30
0.0
  0
VERTEX
  5
1E52
  8
3
 10
112.8468955647
 20
-28.06141832820003
 30
0.0
  0
VERTEX
  5
1E53
  8
3
 10
113.5135855464999
 20
-27.83868432629993
 30
0.0
  0
VERTEX
  5
1E54
  8
3
 10
114.3
 20
-27.76047054590003
 30
0.0
  0
VERTEX
  5
1E55
  8
3
 10
115.0864144534999
 20
-27.83868432629993
 30
0.0
  0
VERTEX
  5
1E56
  8
3
 10
115.7531044352998
 20
-28.06141832820003
 30
0.0
  0
VERTEX
  5
1E57
  8
3
 10
116.1985724392999
 20
-28.39476331920014
 30
0.0
  0
VERTEX
  5
1E58
  8
3
 10
116.3549999999998
 20
-28.78797054589995
 30
0.0
  0
SEQEND
  5
20E5
  8
3
  0
POLYLINE
  5
E1D
  8
3
 66
     1
 10
0.0
 20
0.0
 30
0.0
  0
VERTEX
  5
1E59
  8
3
 10
116.8
 20
-29.0578174405
 30
0.0
  0
VERTEX
  5
1E5A
  8
3
 10
116.649231552
 20
-29.48534261970008
 30
0.0
  0
VERTEX
  5
1E5B
  8
3
 10
116.2151111077999
 20
-29.86130195269993
 30
0.0
  0
VERTEX
  5
1E5C
  8
3
 10
115.55
 20
-30.14034919530013
 30
0.0
  0
VERTEX
  5
1E5D
  8
3
 10
114.7341204441998
 20
-30.28882713179996
 30
0.0
  0
VERTEX
  5
1E5E
  8
3
 10
113.8658795557999
 20
-30.28882713179996
 30
0.0
  0
VERTEX
  5
1E5F
  8
3
 10
113.05
 20
-30.14034919530013
 30
0.0
  0
VERTEX
  5
1E60
  8
3
 10
112.3848888921998
 20
-29.86130195269993
 30
0.0
  0
VERTEX
  5
1E61
  8
3
 10
111.950768448
 20
-29.48534261970008
 30
0.0
  0
VERTEX
  5
1E62
  8
3
 10
111.8
 20
-29.0578174405
 30
0.0
  0
VERTEX
  5
1E63
  8
3
 10
111.950768448
 20
-28.63029226139997
 30
0.0
  0
VERTEX
  5
1E64
  8
3
 10
112.3848888921998
 20
-28.25433292840012
 30
0.0
  0
VERTEX
  5
1E65
  8
3
 10
113.05
 20
-27.97528568579992
 30
0.0
  0
VERTEX
  5
1E66
  8
3
 10
113.8658795557999
 20
-27.82680774930009
 30
0.0
  0
VERTEX
  5
1E67
  8
3
 10
114.7341204441998
 20
-27.82680774930009
 30
0.0
  0
VERTEX
  5
1E68
  8
3
 10
115.55
 20
-27.97528568579992
 30
0.0
  0
VERTEX
  5
1E69
  8
3
 10
116.2151111077999
 20
-28.25433292840012
 30
0.0
  0
VERTEX
  5
1E6A
  8
3
 10
116.649231552
 20
-28.63029226139997
 30
0.0
  0
VERTEX
  5
1E6B
  8
3
 10
116.8
 20
-29.0578174405
 30
0.0
  0
SEQEND
  5
20E4
  8
3
  0
POLYLINE
  5
E1E
  8
3
 66
     1
 10
0.0
 20
0.0
 30
0.0
  0
VERTEX
  5
1E6C
  8
3
 10
116.8
 20
-29.13585699190003
 30
0.0
  0
VERTEX
  5
1E6D
  8
3
 10
116.649231552
 20
-29.5633821711001
 30
0.0
  0
VERTEX
  5
1E6E
  8
3
 10
116.2151111077999
 20
-29.93934150400014
 30
0.0
  0
VERTEX
  5
1E6F
  8
3
 10
115.55
 20
-30.21838874660011
 30
0.0
  0
VERTEX
  5
1E70
  8
3
 10
114.7341204441998
 20
-30.36686668319999
 30
0.0
  0
VERTEX
  5
1E71
  8
3
 10
113.8658795557999
 20
-30.36686668319999
 30
0.0
  0
VERTEX
  5
1E72
  8
3
 10
113.05
 20
-30.21838874660011
 30
0.0
  0
VERTEX
  5
1E73
  8
3
 10
112.3848888921998
 20
-29.93934150400014
 30
0.0
  0
VERTEX
  5
1E74
  8
3
 10
111.950768448
 20
-29.5633821711001
 30
0.0
  0
VERTEX
  5
1E75
  8
3
 10
111.8
 20
-29.13585699190003
 30
0.0
  0
VERTEX
  5
1E76
  8
3
 10
111.950768448
 20
-28.70833181269995
 30
0.0
  0
VERTEX
  5
1E77
  8
3
 10
112.3848888921998
 20
-28.33237247980014
 30
0.0
  0
VERTEX
  5
1E78
  8
3
 10
113.05
 20
-28.05332523719994
 30
0.0
  0
VERTEX
  5
1E79
  8
3
 10
113.8658795557999
 20
-27.90484730060007
 30
0.0
  0
VERTEX
  5
1E7A
  8
3
 10
114.7341204441998
 20
-27.90484730060007
 30
0.0
  0
VERTEX
  5
1E7B
  8
3
 10
115.55
 20
-28.05332523719994
 30
0.0
  0
VERTEX
  5
1E7C
  8
3
 10
116.2151111077999
 20
-28.33237247980014
 30
0.0
  0
VERTEX
  5
1E7D
  8
3
 10
116.649231552
 20
-28.70833181269995
 30
0.0
  0
VERTEX
  5
1E7E
  8
3
 10
116.8
 20
-29.13585699190003
 30
0.0
  0
SEQEND
  5
20E3
  8
3
  0
POLYLINE
  5
E1F
  8
3
 66
     1
 10
0.0
 20
0.0
 30
0.0
  0
VERTEX
  5
1E7F
  8
3
 10
116.3549999999998
 20
-29.40570388650008
 30
0.0
  0
VERTEX
  5
1E80
  8
3
 10
116.1985724392999
 20
-29.79891111329994
 30
0.0
  0
VERTEX
  5
1E81
  8
3
 10
115.7531044352998
 20
-30.1322561042
 30
0.0
  0
VERTEX
  5
1E82
  8
3
 10
115.0864144534999
 20
-30.35499010619992
 30
0.0
  0
VERTEX
  5
1E83
  8
3
 10
114.3
 20
-30.4332038865
 30
0.0
  0
VERTEX
  5
1E84
  8
3
 10
113.5135855464999
 20
-30.35499010619992
 30
0.0
  0
VERTEX
  5
1E85
  8
3
 10
112.8468955647
 20
-30.1322561042
 30
0.0
  0
VERTEX
  5
1E86
  8
3
 10
112.4014275606999
 20
-29.79891111329994
 30
0.0
  0
VERTEX
  5
1E87
  8
3
 10
112.2449999999999
 20
-29.40570388650008
 30
0.0
  0
VERTEX
  5
1E88
  8
3
 10
112.4014275606999
 20
-29.01249665980004
 30
0.0
  0
VERTEX
  5
1E89
  8
3
 10
112.8468955647
 20
-28.67915166889998
 30
0.0
  0
VERTEX
  5
1E8A
  8
3
 10
113.5135855464999
 20
-28.45641766690005
 30
0.0
  0
VERTEX
  5
1E8B
  8
3
 10
114.3
 20
-28.37820388649993
 30
0.0
  0
VERTEX
  5
1E8C
  8
3
 10
115.0864144534999
 20
-28.45641766690005
 30
0.0
  0
VERTEX
  5
1E8D
  8
3
 10
115.7531044352998
 20
-28.67915166889998
 30
0.0
  0
VERTEX
  5
1E8E
  8
3
 10
116.1985724392999
 20
-29.01249665980004
 30
0.0
  0
VERTEX
  5
1E8F
  8
3
 10
116.3549999999998
 20
-29.40570388650008
 30
0.0
  0
SEQEND
  5
20E2
  8
3
  0
POLYLINE
  5
E20
  8
3
 66
     1
 10
0.0
 20
0.0
 30
0.0
  0
VERTEX
  5
1E90
  8
3
 10
116.8
 20
-29.67555078110013
 30
0.0
  0
VERTEX
  5
1E91
  8
3
 10
116.649231552
 20
-30.10307596029998
 30
0.0
  0
VERTEX
  5
1E92
  8
3
 10
116.2151111077999
 20
-30.47903529330006
 30
0.0
  0
VERTEX
  5
1E93
  8
3
 10
115.55
 20
-30.75808253590003
 30
0.0
  0
VERTEX
  5
1E94
  8
3
 10
114.7341204441998
 20
-30.90656047240009
 30
0.0
  0
VERTEX
  5
1E95
  8
3
 10
113.8658795557999
 20
-30.90656047240009
 30
0.0
  0
VERTEX
  5
1E96
  8
3
 10
113.05
 20
-30.75808253590003
 30
0.0
  0
VERTEX
  5
1E97
  8
3
 10
112.3848888921998
 20
-30.47903529330006
 30
0.0
  0
VERTEX
  5
1E98
  8
3
 10
111.950768448
 20
-30.10307596029998
 30
0.0
  0
VERTEX
  5
1E99
  8
3
 10
111.8
 20
-29.67555078110013
 30
0.0
  0
VERTEX
  5
1E9A
  8
3
 10
111.950768448
 20
-29.2480256020001
 30
0.0
  0
VERTEX
  5
1E9B
  8
3
 10
112.3848888921998
 20
-28.87206626900002
 30
0.0
  0
VERTEX
  5
1E9C
  8
3
 10
113.05
 20
-28.59301902640004
 30
0.0
  0
VERTEX
  5
1E9D
  8
3
 10
113.8658795557999
 20
-28.44454108989999
 30
0.0
  0
VERTEX
  5
1E9E
  8
3
 10
114.7341204441998
 20
-28.44454108989999
 30
0.0
  0
VERTEX
  5
1E9F
  8
3
 10
115.55
 20
-28.59301902640004
 30
0.0
  0
VERTEX
  5
1EA0
  8
3
 10
116.2151111077999
 20
-28.87206626900002
 30
0.0
  0
VERTEX
  5
1EA1
  8
3
 10
116.649231552
 20
-29.2480256020001
 30
0.0
  0
VERTEX
  5
1EA2
  8
3
 10
116.8
 20
-29.67555078110013
 30
0.0
  0
SEQEND
  5
20E1
  8
3
  0
LINE
  5
E21
  8
3
 10
113.05
 20
-28.2685125552
 30
0.0
 11
114.3
 21
-28.62935647340009
 31
0.0
  0
LINE
  5
E22
  8
3
 10
115.55
 20
-28.2685125552
 30
0.0
 11
114.3
 21
-28.62935647340009
 31
0.0
  0
LINE
  5
E23
  8
3
 10
114.3
 20
-28.62935647340009
 30
0.0
 11
114.3
 21
-30.96762506360005
 31
0.0
  0
POLYLINE
  5
E24
  8
3
 66
     1
 10
0.0
 20
0.0
 30
0.0
  0
VERTEX
  5
1EA3
  8
3
 10
116.8
 20
-29.75359033249993
 30
0.0
  0
VERTEX
  5
1EA4
  8
3
 10
116.649231552
 20
-30.1811155117
 30
0.0
  0
VERTEX
  5
1EA5
  8
3
 10
116.2151111077999
 20
-30.55707484460004
 30
0.0
  0
VERTEX
  5
1EA6
  8
3
 10
115.55
 20
-30.83612208720001
 30
0.0
  0
VERTEX
  5
1EA7
  8
3
 10
114.7341204441998
 20
-30.98460002380011
 30
0.0
  0
VERTEX
  5
1EA8
  8
3
 10
113.8658795557999
 20
-30.98460002380011
 30
0.0
  0
VERTEX
  5
1EA9
  8
3
 10
113.05
 20
-30.83612208720001
 30
0.0
  0
VERTEX
  5
1EAA
  8
3
 10
112.3848888921998
 20
-30.55707484460004
 30
0.0
  0
VERTEX
  5
1EAB
  8
3
 10
111.950768448
 20
-30.1811155117
 30
0.0
  0
VERTEX
  5
1EAC
  8
3
 10
111.8
 20
-29.75359033249993
 30
0.0
  0
VERTEX
  5
1EAD
  8
3
 10
111.950768448
 20
-29.32606515330008
 30
0.0
  0
VERTEX
  5
1EAE
  8
3
 10
112.3848888921998
 20
-28.95010582040004
 30
0.0
  0
VERTEX
  5
1EAF
  8
3
 10
113.05
 20
-28.67105857780007
 30
0.0
  0
VERTEX
  5
1EB0
  8
3
 10
113.8658795557999
 20
-28.52258064119997
 30
0.0
  0
VERTEX
  5
1EB1
  8
3
 10
114.7341204441998
 20
-28.52258064119997
 30
0.0
  0
VERTEX
  5
1EB2
  8
3
 10
115.55
 20
-28.67105857780007
 30
0.0
  0
VERTEX
  5
1EB3
  8
3
 10
116.2151111077999
 20
-28.95010582040004
 30
0.0
  0
VERTEX
  5
1EB4
  8
3
 10
116.649231552
 20
-29.32606515330008
 30
0.0
  0
VERTEX
  5
1EB5
  8
3
 10
116.8
 20
-29.75359033249993
 30
0.0
  0
SEQEND
  5
20E0
  8
3
  0
POLYLINE
  5
E25
  8
3
 66
     1
 10
0.0
 20
0.0
 30
0.0
  0
VERTEX
  5
1EB6
  8
3
 10
116.3549999999998
 20
-30.02343722709998
 30
0.0
  0
VERTEX
  5
1EB7
  8
3
 10
116.1985724392999
 20
-30.41664445390006
 30
0.0
  0
VERTEX
  5
1EB8
  8
3
 10
115.7531044352998
 20
-30.74998944480012
 30
0.0
  0
VERTEX
  5
1EB9
  8
3
 10
115.0864144534999
 20
-30.97272344680005
 30
0.0
  0
VERTEX
  5
1EBA
  8
3
 10
114.3
 20
-31.05093722710012
 30
0.0
  0
VERTEX
  5
1EBB
  8
3
 10
113.5135855464999
 20
-30.97272344680005
 30
0.0
  0
VERTEX
  5
1EBC
  8
3
 10
112.8468955647
 20
-30.74998944480012
 30
0.0
  0
VERTEX
  5
1EBD
  8
3
 10
112.4014275606999
 20
-30.41664445390006
 30
0.0
  0
VERTEX
  5
1EBE
  8
3
 10
112.2449999999999
 20
-30.02343722709998
 30
0.0
  0
VERTEX
  5
1EBF
  8
3
 10
112.4014275606999
 20
-29.63023000039993
 30
0.0
  0
VERTEX
  5
1EC0
  8
3
 10
112.8468955647
 20
-29.2968850095001
 30
0.0
  0
VERTEX
  5
1EC1
  8
3
 10
113.5135855464999
 20
-29.07415100749995
 30
0.0
  0
VERTEX
  5
1EC2
  8
3
 10
114.3
 20
-28.99593722710006
 30
0.0
  0
VERTEX
  5
1EC3
  8
3
 10
115.0864144534999
 20
-29.07415100749995
 30
0.0
  0
VERTEX
  5
1EC4
  8
3
 10
115.7531044352998
 20
-29.2968850095001
 30
0.0
  0
VERTEX
  5
1EC5
  8
3
 10
116.1985724392999
 20
-29.63023000039993
 30
0.0
  0
VERTEX
  5
1EC6
  8
3
 10
116.3549999999998
 20
-30.02343722709998
 30
0.0
  0
SEQEND
  5
20DF
  8
3
  0
POLYLINE
  5
E26
  8
3
 66
     1
 10
0.0
 20
0.0
 30
0.0
  0
VERTEX
  5
1EC7
  8
3
 10
116.5561031267999
 20
-30.14538566369993
 30
0.0
  0
VERTEX
  5
1EC8
  8
3
 10
116.4037535124999
 20
-29.73788643739999
 30
0.0
  0
VERTEX
  5
1EC9
  8
3
 10
115.9672803289
 20
-29.38542223960008
 30
0.0
  0
VERTEX
  5
1ECA
  8
3
 10
115.3056316982
 20
-29.13559531340002
 30
0.0
  0
VERTEX
  5
1ECB
  8
3
 10
114.5081669342999
 20
-29.0221461694
 30
0.0
  0
VERTEX
  5
1ECC
  8
3
 10
113.6825880723998
 20
-29.06039674320004
 30
0.0
  0
VERTEX
  5
1ECD
  8
3
 10
112.9403941125
 20
-29.24518108279995
 30
0.0
  0
VERTEX
  5
1ECE
  8
3
 10
112.3818224615998
 20
-29.55154303929999
 30
0.0
  0
VERTEX
  5
1ECF
  8
3
 10
112.0823113161999
 20
-29.9381067329
 30
0.0
  0
VERTEX
  5
1ED0
  8
3
 10
112.0823113161999
 20
-30.35266459460013
 30
0.0
  0
VERTEX
  5
1ED1
  8
3
 10
112.3818224615998
 20
-30.73922828810009
 30
0.0
  0
VERTEX
  5
1ED2
  8
3
 10
112.9403941125
 20
-31.04559024460013
 30
0.0
  0
VERTEX
  5
1ED3
  8
3
 10
113.6825880723998
 20
-31.23037458420004
 30
0.0
  0
VERTEX
  5
1ED4
  8
3
 10
114.5081669342999
 20
-31.26862515800008
 30
0.0
  0
VERTEX
  5
1ED5
  8
3
 10
115.3056316982
 20
-31.15517601400006
 30
0.0
  0
VERTEX
  5
1ED6
  8
3
 10
115.9672803289
 20
-30.9053490878
 30
0.0
  0
VERTEX
  5
1ED7
  8
3
 10
116.4037535124999
 20
-30.55288489000009
 30
0.0
  0
VERTEX
  5
1ED8
  8
3
 10
116.5561031267999
 20
-30.14538566369993
 30
0.0
  0
SEQEND
  5
20DE
  8
3
  0
LINE
  5
E27
  8
3
 10
113.05
 20
-28.2685125552
 30
0.0
 11
113.05
 21
-27.54682471870001
 31
0.0
  0
LINE
  5
E28
  8
3
 10
113.05
 20
-28.2685125552
 30
0.0
 11
113.05
 21
-30.60678114539996
 31
0.0
  0
LINE
  5
E29
  8
3
 10
115.55
 20
-28.2685125552
 30
0.0
 11
115.55
 21
-30.60678114539996
 31
0.0
  0
LINE
  5
E2A
  8
3
 10
115.55
 20
-28.2685125552
 30
0.0
 11
115.55
 21
-27.54682471870001
 31
0.0
  0
POLYLINE
  5
E2B
  8
3
 66
     1
 10
0.0
 20
0.0
 30
0.0
  0
VERTEX
  5
1ED9
  8
3
 10
114.3
 20
-31.27343722709998
 30
0.0
  0
VERTEX
  5
1EDA
  8
3
 10
113.5135855464999
 20
-31.19522344680013
 30
0.0
  0
VERTEX
  5
1EDB
  8
3
 10
112.8468955647
 20
-30.97248944479998
 30
0.0
  0
VERTEX
  5
1EDC
  8
3
 10
112.4014275606999
 20
-30.63914445389992
 30
0.0
  0
VERTEX
  5
1EDD
  8
3
 10
112.2449999999999
 20
-30.24593722710006
 30
0.0
  0
VERTEX
  5
1EDE
  8
3
 10
112.4014275606999
 20
-29.85273000040002
 30
0.0
  0
VERTEX
  5
1EDF
  8
3
 10
112.8468955647
 20
-29.51938500949996
 30
0.0
  0
VERTEX
  5
1EE0
  8
3
 10
113.5135855464999
 20
-29.29665100750003
 30
0.0
  0
VERTEX
  5
1EE1
  8
3
 10
114.3
 20
-29.21843722710014
 30
0.0
  0
VERTEX
  5
1EE2
  8
3
 10
115.0864144534999
 20
-29.29665100750003
 30
0.0
  0
VERTEX
  5
1EE3
  8
3
 10
115.7531044352998
 20
-29.51938500949996
 30
0.0
  0
VERTEX
  5
1EE4
  8
3
 10
116.1985724392999
 20
-29.85273000040002
 30
0.0
  0
VERTEX
  5
1EE5
  8
3
 10
116.3549999999998
 20
-30.24593722710006
 30
0.0
  0
VERTEX
  5
1EE6
  8
3
 10
116.1985724392999
 20
-30.63914445389992
 30
0.0
  0
VERTEX
  5
1EE7
  8
3
 10
115.7531044352998
 20
-30.97248944479998
 30
0.0
  0
VERTEX
  5
1EE8
  8
3
 10
115.0864144534999
 20
-31.19522344680013
 30
0.0
  0
VERTEX
  5
1EE9
  8
3
 10
114.3
 20
-31.27343722709998
 30
0.0
  0
SEQEND
  5
20DD
  8
3
  0
LINE
  5
E2C
  8
3
 10
115.55
 20
-30.60678114539996
 30
0.0
 11
114.3
 21
-30.96762506360005
 31
0.0
  0
LINE
  5
E2D
  8
3
 10
113.05
 20
-30.60678114539996
 30
0.0
 11
114.3
 21
-30.96762506360005
 31
0.0
  0
LINE
  5
E2E
  8
3
 10
114.3
 20
-27.1859808004001
 30
0.0
 11
114.3
 21
-28.62935647340009
 31
0.0
  0
LINE
  5
E2F
  8
3
 10
113.05
 20
-29.88509330889997
 30
0.0
 11
114.3
 21
-29.52424939060006
 31
0.0
  0
LINE
  5
E30
  8
3
 10
113.05
 20
-27.54682471870001
 30
0.0
 11
114.3
 21
-27.1859808004001
 31
0.0
  0
LINE
  5
E31
  8
3
 10
115.55
 20
-29.88509330889997
 30
0.0
 11
114.3
 21
-29.52424939060006
 31
0.0
  0
LINE
  5
E32
  8
3
 10
115.55
 20
-27.54682471870001
 30
0.0
 11
114.3
 21
-27.1859808004001
 31
0.0
  0
POLYLINE
  5
E33
  8
3
 66
     1
 10
0.0
 20
0.0
 30
0.0
  0
VERTEX
  5
1EEA
  8
3
 10
114.3
 20
25.92478480449995
 30
0.0
  0
VERTEX
  5
1EEB
  8
3
 10
114.9696960066999
 20
25.85817939549997
 30
0.0
  0
VERTEX
  5
1EEC
  8
3
 10
115.5374368670999
 20
25.66850323799986
 30
0.0
  0
VERTEX
  5
1EED
  8
3
 10
115.9167891819
 20
25.38463280780002
 30
0.0
  0
VERTEX
  5
1EEE
  8
3
 10
116.05
 20
25.04978480449995
 30
0.0
  0
VERTEX
  5
1EEF
  8
3
 10
115.9167891819
 20
24.71493680119988
 30
0.0
  0
VERTEX
  5
1EF0
  8
3
 10
115.5374368670999
 20
24.43106637100004
 30
0.0
  0
VERTEX
  5
1EF1
  8
3
 10
114.9696960066999
 20
24.24139021359997
 30
0.0
  0
VERTEX
  5
1EF2
  8
3
 10
114.3
 20
24.17478480449995
 30
0.0
  0
VERTEX
  5
1EF3
  8
3
 10
113.6303039933999
 20
24.24139021359997
 30
0.0
  0
VERTEX
  5
1EF4
  8
3
 10
113.0625631328999
 20
24.43106637100004
 30
0.0
  0
VERTEX
  5
1EF5
  8
3
 10
112.6832108181
 20
24.71493680119988
 30
0.0
  0
VERTEX
  5
1EF6
  8
3
 10
112.55
 20
25.04978480449995
 30
0.0
  0
VERTEX
  5
1EF7
  8
3
 10
112.6832108181
 20
25.38463280780002
 30
0.0
  0
VERTEX
  5
1EF8
  8
3
 10
113.0625631328999
 20
25.66850323799986
 30
0.0
  0
VERTEX
  5
1EF9
  8
3
 10
113.6303039933999
 20
25.85817939549997
 30
0.0
  0
VERTEX
  5
1EFA
  8
3
 10
114.3
 20
25.92478480449995
 30
0.0
  0
SEQEND
  5
20DC
  8
3
  0
POLYLINE
  5
E34
  8
3
 66
     1
 10
0.0
 20
0.0
 30
0.0
  0
VERTEX
  5
1EFB
  8
3
 10
116.6167327434999
 20
25.5405897574999
 30
0.0
  0
VERTEX
  5
1EFC
  8
3
 10
116.4602889461999
 20
25.12213955929997
 30
0.0
  0
VERTEX
  5
1EFD
  8
3
 10
116.0120861562998
 20
24.76020337909995
 30
0.0
  0
VERTEX
  5
1EFE
  8
3
 10
115.3326566438998
 20
24.50366270359996
 30
0.0
  0
VERTEX
  5
1EFF
  8
3
 10
114.5137611296
 20
24.3871647725
 30
0.0
  0
VERTEX
  5
1F00
  8
3
 10
113.6659959903
 20
24.42644327699986
 30
0.0
  0
VERTEX
  5
1F01
  8
3
 10
112.9038566056
 20
24.61619343739994
 30
0.0
  0
VERTEX
  5
1F02
  8
3
 10
112.3302741225998
 20
24.93078844299998
 30
0.0
  0
VERTEX
  5
1F03
  8
3
 10
112.0227140340999
 20
25.32774049520003
 30
0.0
  0
VERTEX
  5
1F04
  8
3
 10
112.0227140340999
 20
25.7534390198
 30
0.0
  0
VERTEX
  5
1F05
  8
3
 10
112.3302741225998
 20
26.15039107200005
 30
0.0
  0
VERTEX
  5
1F06
  8
3
 10
112.9038566056
 20
26.46498607759986
 30
0.0
  0
VERTEX
  5
1F07
  8
3
 10
113.6659959903
 20
26.65473623799994
 30
0.0
  0
VERTEX
  5
1F08
  8
3
 10
114.5137611296
 20
26.69401474250003
 30
0.0
  0
VERTEX
  5
1F09
  8
3
 10
115.3326566438998
 20
26.57751681140007
 30
0.0
  0
VERTEX
  5
1F0A
  8
3
 10
116.0120861562998
 20
26.32097613590008
 30
0.0
  0
VERTEX
  5
1F0B
  8
3
 10
116.4602889461999
 20
25.95903995570006
 30
0.0
  0
VERTEX
  5
1F0C
  8
3
 10
116.6167327434999
 20
25.5405897574999
 30
0.0
  0
SEQEND
  5
20DB
  8
3
  0
POLYLINE
  5
E35
  8
3
 66
     1
 10
0.0
 20
0.0
 30
0.0
  0
VERTEX
  5
1F0D
  8
3
 10
112.2449999999999
 20
25.69930384300005
 30
0.0
  0
VERTEX
  5
1F0E
  8
3
 10
112.4014275606999
 20
26.09251106969987
 30
0.0
  0
VERTEX
  5
1F0F
  8
3
 10
112.8468955647
 20
26.42585606069997
 30
0.0
  0
VERTEX
  5
1F10
  8
3
 10
113.5135855464999
 20
26.64859006260008
 30
0.0
  0
VERTEX
  5
1F11
  8
3
 10
114.3
 20
26.72680384299997
 30
0.0
  0
VERTEX
  5
1F12
  8
3
 10
115.0864144534999
 20
26.64859006260008
 30
0.0
  0
VERTEX
  5
1F13
  8
3
 10
115.7531044353998
 20
26.42585606069997
 30
0.0
  0
VERTEX
  5
1F14
  8
3
 10
116.1985724392999
 20
26.09251106969987
 30
0.0
  0
VERTEX
  5
1F15
  8
3
 10
116.3549999999998
 20
25.69930384300005
 30
0.0
  0
VERTEX
  5
1F16
  8
3
 10
116.1985724392999
 20
25.30609661619997
 30
0.0
  0
VERTEX
  5
1F17
  8
3
 10
115.7531044353998
 20
24.97275162529991
 30
0.0
  0
VERTEX
  5
1F18
  8
3
 10
115.0864144534999
 20
24.75001762329998
 30
0.0
  0
VERTEX
  5
1F19
  8
3
 10
114.3
 20
24.67180384299991
 30
0.0
  0
VERTEX
  5
1F1A
  8
3
 10
113.5135855464999
 20
24.75001762329998
 30
0.0
  0
VERTEX
  5
1F1B
  8
3
 10
112.8468955647
 20
24.97275162529991
 30
0.0
  0
VERTEX
  5
1F1C
  8
3
 10
112.4014275606999
 20
25.30609661619997
 30
0.0
  0
VERTEX
  5
1F1D
  8
3
 10
112.2449999999999
 20
25.69930384300005
 30
0.0
  0
SEQEND
  5
20DA
  8
3
  0
POLYLINE
  5
E36
  8
3
 66
     1
 10
0.0
 20
0.0
 30
0.0
  0
VERTEX
  5
1F1E
  8
3
 10
111.8
 20
25.96915073759988
 30
0.0
  0
VERTEX
  5
1F1F
  8
3
 10
111.9507684480998
 20
26.39667591679995
 30
0.0
  0
VERTEX
  5
1F20
  8
3
 10
112.3848888921998
 20
26.77263524969999
 30
0.0
  0
VERTEX
  5
1F21
  8
3
 10
113.05
 20
27.05168249229996
 30
0.0
  0
VERTEX
  5
1F22
  8
3
 10
113.8658795559
 20
27.20016042890006
 30
0.0
  0
VERTEX
  5
1F23
  8
3
 10
114.7341204441998
 20
27.20016042890006
 30
0.0
  0
VERTEX
  5
1F24
  8
3
 10
115.55
 20
27.05168249229996
 30
0.0
  0
VERTEX
  5
1F25
  8
3
 10
116.2151111077999
 20
26.77263524969999
 30
0.0
  0
VERTEX
  5
1F26
  8
3
 10
116.649231552
 20
26.39667591679995
 30
0.0
  0
VERTEX
  5
1F27
  8
3
 10
116.8
 20
25.96915073759988
 30
0.0
  0
VERTEX
  5
1F28
  8
3
 10
116.649231552
 20
25.54162555840003
 30
0.0
  0
VERTEX
  5
1F29
  8
3
 10
116.2151111077999
 20
25.16566622549999
 30
0.0
  0
VERTEX
  5
1F2A
  8
3
 10
115.55
 20
24.88661898290002
 30
0.0
  0
VERTEX
  5
1F2B
  8
3
 10
114.7341204441998
 20
24.73814104629992
 30
0.0
  0
VERTEX
  5
1F2C
  8
3
 10
113.8658795559
 20
24.73814104629992
 30
0.0
  0
VERTEX
  5
1F2D
  8
3
 10
113.05
 20
24.88661898290002
 30
0.0
  0
VERTEX
  5
1F2E
  8
3
 10
112.3848888921998
 20
25.16566622549999
 30
0.0
  0
VERTEX
  5
1F2F
  8
3
 10
111.9507684480998
 20
25.54162555840003
 30
0.0
  0
VERTEX
  5
1F30
  8
3
 10
111.8
 20
25.96915073759988
 30
0.0
  0
SEQEND
  5
20D9
  8
3
  0
POLYLINE
  5
E37
  8
3
 66
     1
 10
0.0
 20
0.0
 30
0.0
  0
VERTEX
  5
1F31
  8
3
 10
111.8
 20
26.0471902889999
 30
0.0
  0
VERTEX
  5
1F32
  8
3
 10
111.9507684480998
 20
26.47471546809993
 30
0.0
  0
VERTEX
  5
1F33
  8
3
 10
112.3848888921998
 20
26.85067480110001
 30
0.0
  0
VERTEX
  5
1F34
  8
3
 10
113.05
 20
27.12972204369999
 30
0.0
  0
VERTEX
  5
1F35
  8
3
 10
113.8658795559
 20
27.27819998020004
 30
0.0
  0
VERTEX
  5
1F36
  8
3
 10
114.7341204441998
 20
27.27819998020004
 30
0.0
  0
VERTEX
  5
1F37
  8
3
 10
115.55
 20
27.12972204369999
 30
0.0
  0
VERTEX
  5
1F38
  8
3
 10
116.2151111077999
 20
26.85067480110001
 30
0.0
  0
VERTEX
  5
1F39
  8
3
 10
116.649231552
 20
26.47471546809993
 30
0.0
  0
VERTEX
  5
1F3A
  8
3
 10
116.8
 20
26.0471902889999
 30
0.0
  0
VERTEX
  5
1F3B
  8
3
 10
116.649231552
 20
25.61966510980005
 30
0.0
  0
VERTEX
  5
1F3C
  8
3
 10
116.2151111077999
 20
25.24370577690001
 30
0.0
  0
VERTEX
  5
1F3D
  8
3
 10
115.55
 20
24.9646585342
 30
0.0
  0
VERTEX
  5
1F3E
  8
3
 10
114.7341204441998
 20
24.81618059769994
 30
0.0
  0
VERTEX
  5
1F3F
  8
3
 10
113.8658795559
 20
24.81618059769994
 30
0.0
  0
VERTEX
  5
1F40
  8
3
 10
113.05
 20
24.9646585342
 30
0.0
  0
VERTEX
  5
1F41
  8
3
 10
112.3848888921998
 20
25.24370577690001
 30
0.0
  0
VERTEX
  5
1F42
  8
3
 10
111.9507684480998
 20
25.61966510980005
 30
0.0
  0
VERTEX
  5
1F43
  8
3
 10
111.8
 20
26.0471902889999
 30
0.0
  0
SEQEND
  5
20D8
  8
3
  0
POLYLINE
  5
E38
  8
3
 66
     1
 10
0.0
 20
0.0
 30
0.0
  0
VERTEX
  5
1F44
  8
3
 10
112.2449999999999
 20
26.31703718359995
 30
0.0
  0
VERTEX
  5
1F45
  8
3
 10
112.4014275606999
 20
26.71024441029999
 30
0.0
  0
VERTEX
  5
1F46
  8
3
 10
112.8468955647
 20
27.04358940129987
 30
0.0
  0
VERTEX
  5
1F47
  8
3
 10
113.5135855464999
 20
27.26632340319998
 30
0.0
  0
VERTEX
  5
1F48
  8
3
 10
114.3
 20
27.34453718359987
 30
0.0
  0
VERTEX
  5
1F49
  8
3
 10
115.0864144535999
 20
27.26632340319998
 30
0.0
  0
VERTEX
  5
1F4A
  8
3
 10
115.7531044353998
 20
27.04358940129987
 30
0.0
  0
VERTEX
  5
1F4B
  8
3
 10
116.1985724393999
 20
26.71024441029999
 30
0.0
  0
VERTEX
  5
1F4C
  8
3
 10
116.3549999999998
 20
26.31703718359995
 30
0.0
  0
VERTEX
  5
1F4D
  8
3
 10
116.1985724393999
 20
25.92382995679986
 30
0.0
  0
VERTEX
  5
1F4E
  8
3
 10
115.7531044353998
 20
25.59048496590003
 30
0.0
  0
VERTEX
  5
1F4F
  8
3
 10
115.0864144535999
 20
25.36775096389988
 30
0.0
  0
VERTEX
  5
1F50
  8
3
 10
114.3
 20
25.28953718360003
 30
0.0
  0
VERTEX
  5
1F51
  8
3
 10
113.5135855464999
 20
25.36775096389988
 30
0.0
  0
VERTEX
  5
1F52
  8
3
 10
112.8468955647
 20
25.59048496590003
 30
0.0
  0
VERTEX
  5
1F53
  8
3
 10
112.4014275606999
 20
25.92382995679986
 30
0.0
  0
VERTEX
  5
1F54
  8
3
 10
112.2449999999999
 20
26.31703718359995
 30
0.0
  0
SEQEND
  5
20D7
  8
3
  0
POLYLINE
  5
E39
  8
3
 66
     1
 10
0.0
 20
0.0
 30
0.0
  0
VERTEX
  5
1F55
  8
3
 10
111.8
 20
26.5868840782
 30
0.0
  0
VERTEX
  5
1F56
  8
3
 10
111.9507684480998
 20
27.01440925740008
 30
0.0
  0
VERTEX
  5
1F57
  8
3
 10
112.3848888921998
 20
27.39036859029989
 30
0.0
  0
VERTEX
  5
1F58
  8
3
 10
113.05
 20
27.66941583289986
 30
0.0
  0
VERTEX
  5
1F59
  8
3
 10
113.8658795559
 20
27.81789376949996
 30
0.0
  0
VERTEX
  5
1F5A
  8
3
 10
114.7341204441998
 20
27.81789376949996
 30
0.0
  0
VERTEX
  5
1F5B
  8
3
 10
115.55
 20
27.66941583289986
 30
0.0
  0
VERTEX
  5
1F5C
  8
3
 10
116.2151111077999
 20
27.39036859029989
 30
0.0
  0
VERTEX
  5
1F5D
  8
3
 10
116.649231552
 20
27.01440925740008
 30
0.0
  0
VERTEX
  5
1F5E
  8
3
 10
116.8
 20
26.5868840782
 30
0.0
  0
VERTEX
  5
1F5F
  8
3
 10
116.649231552
 20
26.15935889909997
 30
0.0
  0
VERTEX
  5
1F60
  8
3
 10
116.2151111077999
 20
25.78339956609989
 30
0.0
  0
VERTEX
  5
1F61
  8
3
 10
115.55
 20
25.50435232349992
 30
0.0
  0
VERTEX
  5
1F62
  8
3
 10
114.7341204441998
 20
25.35587438690004
 30
0.0
  0
VERTEX
  5
1F63
  8
3
 10
113.8658795559
 20
25.35587438690004
 30
0.0
  0
VERTEX
  5
1F64
  8
3
 10
113.05
 20
25.50435232349992
 30
0.0
  0
VERTEX
  5
1F65
  8
3
 10
112.3848888921998
 20
25.78339956609989
 30
0.0
  0
VERTEX
  5
1F66
  8
3
 10
111.9507684480998
 20
26.15935889909997
 30
0.0
  0
VERTEX
  5
1F67
  8
3
 10
111.8
 20
26.5868840782
 30
0.0
  0
SEQEND
  5
20D6
  8
3
  0
POLYLINE
  5
E3A
  8
3
 66
     1
 10
0.0
 20
0.0
 30
0.0
  0
VERTEX
  5
1F68
  8
3
 10
111.8
 20
26.66492362960003
 30
0.0
  0
VERTEX
  5
1F69
  8
3
 10
111.9507684480998
 20
27.09244880870006
 30
0.0
  0
VERTEX
  5
1F6A
  8
3
 10
112.3848888921998
 20
27.46840814169991
 30
0.0
  0
VERTEX
  5
1F6B
  8
3
 10
113.05
 20
27.74745538429988
 30
0.0
  0
VERTEX
  5
1F6C
  8
3
 10
113.8658795559
 20
27.89593332079994
 30
0.0
  0
VERTEX
  5
1F6D
  8
3
 10
114.7341204441998
 20
27.89593332079994
 30
0.0
  0
VERTEX
  5
1F6E
  8
3
 10
115.55
 20
27.74745538429988
 30
0.0
  0
VERTEX
  5
1F6F
  8
3
 10
116.2151111077999
 20
27.46840814169991
 30
0.0
  0
VERTEX
  5
1F70
  8
3
 10
116.649231552
 20
27.09244880870006
 30
0.0
  0
VERTEX
  5
1F71
  8
3
 10
116.8
 20
26.66492362960003
 30
0.0
  0
VERTEX
  5
1F72
  8
3
 10
116.649231552
 20
26.23739845039995
 30
0.0
  0
VERTEX
  5
1F73
  8
3
 10
116.2151111077999
 20
25.86143911749991
 30
0.0
  0
VERTEX
  5
1F74
  8
3
 10
115.55
 20
25.5823918747999
 30
0.0
  0
VERTEX
  5
1F75
  8
3
 10
114.7341204441998
 20
25.43391393830007
 30
0.0
  0
VERTEX
  5
1F76
  8
3
 10
113.8658795559
 20
25.43391393830007
 30
0.0
  0
VERTEX
  5
1F77
  8
3
 10
113.05
 20
25.5823918747999
 30
0.0
  0
VERTEX
  5
1F78
  8
3
 10
112.3848888921998
 20
25.86143911749991
 30
0.0
  0
VERTEX
  5
1F79
  8
3
 10
111.9507684480998
 20
26.23739845039995
 30
0.0
  0
VERTEX
  5
1F7A
  8
3
 10
111.8
 20
26.66492362960003
 30
0.0
  0
SEQEND
  5
20D5
  8
3
  0
POLYLINE
  5
E3B
  8
3
 66
     1
 10
0.0
 20
0.0
 30
0.0
  0
VERTEX
  5
1F7B
  8
3
 10
112.2449999999999
 20
26.93477052420008
 30
0.0
  0
VERTEX
  5
1F7C
  8
3
 10
112.4014275606999
 20
27.32797775089989
 30
0.0
  0
VERTEX
  5
1F7D
  8
3
 10
112.8468955647
 20
27.66132274189999
 30
0.0
  0
VERTEX
  5
1F7E
  8
3
 10
113.5135855464999
 20
27.88405674379987
 30
0.0
  0
VERTEX
  5
1F7F
  8
3
 10
114.3
 20
27.96227052419999
 30
0.0
  0
VERTEX
  5
1F80
  8
3
 10
115.0864144534999
 20
27.88405674379987
 30
0.0
  0
VERTEX
  5
1F81
  8
3
 10
115.7531044353998
 20
27.66132274189999
 30
0.0
  0
VERTEX
  5
1F82
  8
3
 10
116.1985724392999
 20
27.32797775089989
 30
0.0
  0
VERTEX
  5
1F83
  8
3
 10
116.3549999999998
 20
26.93477052420008
 30
0.0
  0
VERTEX
  5
1F84
  8
3
 10
116.1985724392999
 20
26.54156329739999
 30
0.0
  0
VERTEX
  5
1F85
  8
3
 10
115.7531044353998
 20
26.20821830649993
 30
0.0
  0
VERTEX
  5
1F86
  8
3
 10
115.0864144534999
 20
25.98548430450001
 30
0.0
  0
VERTEX
  5
1F87
  8
3
 10
114.3
 20
25.90727052419993
 30
0.0
  0
VERTEX
  5
1F88
  8
3
 10
113.5135855464999
 20
25.98548430450001
 30
0.0
  0
VERTEX
  5
1F89
  8
3
 10
112.8468955647
 20
26.20821830649993
 30
0.0
  0
VERTEX
  5
1F8A
  8
3
 10
112.4014275606999
 20
26.54156329739999
 30
0.0
  0
VERTEX
  5
1F8B
  8
3
 10
112.2449999999999
 20
26.93477052420008
 30
0.0
  0
SEQEND
  5
20D4
  8
3
  0
POLYLINE
  5
E3C
  8
3
 66
     1
 10
0.0
 20
0.0
 30
0.0
  0
VERTEX
  5
1F8C
  8
3
 10
111.8
 20
27.2046174187999
 30
0.0
  0
VERTEX
  5
1F8D
  8
3
 10
111.9507684480998
 20
27.63214259799997
 30
0.0
  0
VERTEX
  5
1F8E
  8
3
 10
112.3848888921998
 20
28.00810193090001
 30
0.0
  0
VERTEX
  5
1F8F
  8
3
 10
113.05
 20
28.28714917349998
 30
0.0
  0
VERTEX
  5
1F90
  8
3
 10
113.8658795559
 20
28.43562711009986
 30
0.0
  0
VERTEX
  5
1F91
  8
3
 10
114.7341204441998
 20
28.43562711009986
 30
0.0
  0
VERTEX
  5
1F92
  8
3
 10
115.55
 20
28.28714917349998
 30
0.0
  0
VERTEX
  5
1F93
  8
3
 10
116.2151111077999
 20
28.00810193090001
 30
0.0
  0
VERTEX
  5
1F94
  8
3
 10
116.649231552
 20
27.63214259799997
 30
0.0
  0
VERTEX
  5
1F95
  8
3
 10
116.8
 20
27.2046174187999
 30
0.0
  0
VERTEX
  5
1F96
  8
3
 10
116.649231552
 20
26.77709223969987
 30
0.0
  0
VERTEX
  5
1F97
  8
3
 10
116.2151111077999
 20
26.40113290670001
 30
0.0
  0
VERTEX
  5
1F98
  8
3
 10
115.55
 20
26.12208566410004
 30
0.0
  0
VERTEX
  5
1F99
  8
3
 10
114.7341204441998
 20
25.97360772759998
 30
0.0
  0
VERTEX
  5
1F9A
  8
3
 10
113.8658795559
 20
25.97360772759998
 30
0.0
  0
VERTEX
  5
1F9B
  8
3
 10
113.05
 20
26.12208566410004
 30
0.0
  0
VERTEX
  5
1F9C
  8
3
 10
112.3848888921998
 20
26.40113290670001
 30
0.0
  0
VERTEX
  5
1F9D
  8
3
 10
111.9507684480998
 20
26.77709223969987
 30
0.0
  0
VERTEX
  5
1F9E
  8
3
 10
111.8
 20
27.2046174187999
 30
0.0
  0
SEQEND
  5
20D3
  8
3
  0
POLYLINE
  5
E3D
  8
3
 66
     1
 10
0.0
 20
0.0
 30
0.0
  0
VERTEX
  5
1F9F
  8
3
 10
111.8
 20
27.28265697019992
 30
0.0
  0
VERTEX
  5
1FA0
  8
3
 10
111.9507684480998
 20
27.71018214929995
 30
0.0
  0
VERTEX
  5
1FA1
  8
3
 10
112.3848888921998
 20
28.08614148230004
 30
0.0
  0
VERTEX
  5
1FA2
  8
3
 10
113.05
 20
28.36518872490001
 30
0.0
  0
VERTEX
  5
1FA3
  8
3
 10
113.8658795559
 20
28.51366666140007
 30
0.0
  0
VERTEX
  5
1FA4
  8
3
 10
114.7341204441998
 20
28.51366666140007
 30
0.0
  0
VERTEX
  5
1FA5
  8
3
 10
115.55
 20
28.36518872490001
 30
0.0
  0
VERTEX
  5
1FA6
  8
3
 10
116.2151111077999
 20
28.08614148230004
 30
0.0
  0
VERTEX
  5
1FA7
  8
3
 10
116.649231552
 20
27.71018214929995
 30
0.0
  0
VERTEX
  5
1FA8
  8
3
 10
116.8
 20
27.28265697019992
 30
0.0
  0
VERTEX
  5
1FA9
  8
3
 10
116.649231552
 20
26.85513179100008
 30
0.0
  0
VERTEX
  5
1FAA
  8
3
 10
116.2151111077999
 20
26.47917245810004
 30
0.0
  0
VERTEX
  5
1FAB
  8
3
 10
115.55
 20
26.20012521540002
 30
0.0
  0
VERTEX
  5
1FAC
  8
3
 10
114.7341204441998
 20
26.05164727889996
 30
0.0
  0
VERTEX
  5
1FAD
  8
3
 10
113.8658795559
 20
26.05164727889996
 30
0.0
  0
VERTEX
  5
1FAE
  8
3
 10
113.05
 20
26.20012521540002
 30
0.0
  0
VERTEX
  5
1FAF
  8
3
 10
112.3848888921998
 20
26.47917245810004
 30
0.0
  0
VERTEX
  5
1FB0
  8
3
 10
111.9507684480998
 20
26.85513179100008
 30
0.0
  0
VERTEX
  5
1FB1
  8
3
 10
111.8
 20
27.28265697019992
 30
0.0
  0
SEQEND
  5
20D2
  8
3
  0
POLYLINE
  5
E3E
  8
3
 66
     1
 10
0.0
 20
0.0
 30
0.0
  0
VERTEX
  5
1FB2
  8
3
 10
112.2449999999999
 20
27.55250386479997
 30
0.0
  0
VERTEX
  5
1FB3
  8
3
 10
112.4014275606999
 20
27.94571109160006
 30
0.0
  0
VERTEX
  5
1FB4
  8
3
 10
112.8468955647
 20
28.27905608249989
 30
0.0
  0
VERTEX
  5
1FB5
  8
3
 10
113.5135855464999
 20
28.50179008450004
 30
0.0
  0
VERTEX
  5
1FB6
  8
3
 10
114.3
 20
28.58000386479989
 30
0.0
  0
VERTEX
  5
1FB7
  8
3
 10
115.0864144534999
 20
28.50179008450004
 30
0.0
  0
VERTEX
  5
1FB8
  8
3
 10
115.7531044353998
 20
28.27905608249989
 30
0.0
  0
VERTEX
  5
1FB9
  8
3
 10
116.1985724392999
 20
27.94571109160006
 30
0.0
  0
VERTEX
  5
1FBA
  8
3
 10
116.3549999999998
 20
27.55250386479997
 30
0.0
  0
VERTEX
  5
1FBB
  8
3
 10
116.1985724392999
 20
27.15929663799989
 30
0.0
  0
VERTEX
  5
1FBC
  8
3
 10
115.7531044353998
 20
26.82595164710006
 30
0.0
  0
VERTEX
  5
1FBD
  8
3
 10
115.0864144534999
 20
26.6032176450999
 30
0.0
  0
VERTEX
  5
1FBE
  8
3
 10
114.3
 20
26.52500386480006
 30
0.0
  0
VERTEX
  5
1FBF
  8
3
 10
113.5135855464999
 20
26.6032176450999
 30
0.0
  0
VERTEX
  5
1FC0
  8
3
 10
112.8468955647
 20
26.82595164710006
 30
0.0
  0
VERTEX
  5
1FC1
  8
3
 10
112.4014275606999
 20
27.15929663799989
 30
0.0
  0
VERTEX
  5
1FC2
  8
3
 10
112.2449999999999
 20
27.55250386479997
 30
0.0
  0
SEQEND
  5
20D1
  8
3
  0
POLYLINE
  5
E3F
  8
3
 66
     1
 10
0.0
 20
0.0
 30
0.0
  0
VERTEX
  5
1FC3
  8
3
 10
111.8
 20
27.82235075940002
 30
0.0
  0
VERTEX
  5
1FC4
  8
3
 10
111.9507684480998
 20
28.24987593859987
 30
0.0
  0
VERTEX
  5
1FC5
  8
3
 10
112.3848888921998
 20
28.62583527149991
 30
0.0
  0
VERTEX
  5
1FC6
  8
3
 10
113.05
 20
28.90488251419993
 30
0.0
  0
VERTEX
  5
1FC7
  8
3
 10
113.8658795559
 20
29.05336045069998
 30
0.0
  0
VERTEX
  5
1FC8
  8
3
 10
114.7341204441998
 20
29.05336045069998
 30
0.0
  0
VERTEX
  5
1FC9
  8
3
 10
115.55
 20
28.90488251419993
 30
0.0
  0
VERTEX
  5
1FCA
  8
3
 10
116.2151111077999
 20
28.62583527149991
 30
0.0
  0
VERTEX
  5
1FCB
  8
3
 10
116.649231552
 20
28.24987593859987
 30
0.0
  0
VERTEX
  5
1FCC
  8
3
 10
116.8
 20
27.82235075940002
 30
0.0
  0
VERTEX
  5
1FCD
  8
3
 10
116.649231552
 20
27.39482558029999
 30
0.0
  0
VERTEX
  5
1FCE
  8
3
 10
116.2151111077999
 20
27.01886624729991
 30
0.0
  0
VERTEX
  5
1FCF
  8
3
 10
115.55
 20
26.73981900469994
 30
0.0
  0
VERTEX
  5
1FD0
  8
3
 10
114.7341204441998
 20
26.59134106819988
 30
0.0
  0
VERTEX
  5
1FD1
  8
3
 10
113.8658795559
 20
26.59134106819988
 30
0.0
  0
VERTEX
  5
1FD2
  8
3
 10
113.05
 20
26.73981900469994
 30
0.0
  0
VERTEX
  5
1FD3
  8
3
 10
112.3848888921998
 20
27.01886624729991
 30
0.0
  0
VERTEX
  5
1FD4
  8
3
 10
111.9507684480998
 20
27.39482558029999
 30
0.0
  0
VERTEX
  5
1FD5
  8
3
 10
111.8
 20
27.82235075940002
 30
0.0
  0
SEQEND
  5
20D0
  8
3
  0
POLYLINE
  5
E40
  8
3
 66
     1
 10
0.0
 20
0.0
 30
0.0
  0
VERTEX
  5
1FD6
  8
3
 10
111.8
 20
27.90039031080005
 30
0.0
  0
VERTEX
  5
1FD7
  8
3
 10
111.9507684480998
 20
28.32791548990008
 30
0.0
  0
VERTEX
  5
1FD8
  8
3
 10
112.3848888921998
 20
28.70387482289993
 30
0.0
  0
VERTEX
  5
1FD9
  8
3
 10
113.05
 20
28.98292206549991
 30
0.0
  0
VERTEX
  5
1FDA
  8
3
 10
113.8658795559
 20
29.13140000199996
 30
0.0
  0
VERTEX
  5
1FDB
  8
3
 10
114.7341204441998
 20
29.13140000199996
 30
0.0
  0
VERTEX
  5
1FDC
  8
3
 10
115.55
 20
28.98292206549991
 30
0.0
  0
VERTEX
  5
1FDD
  8
3
 10
116.2151111077999
 20
28.70387482289993
 30
0.0
  0
VERTEX
  5
1FDE
  8
3
 10
116.649231552
 20
28.32791548990008
 30
0.0
  0
VERTEX
  5
1FDF
  8
3
 10
116.8
 20
27.90039031080005
 30
0.0
  0
VERTEX
  5
1FE0
  8
3
 10
116.649231552
 20
27.47286513159997
 30
0.0
  0
VERTEX
  5
1FE1
  8
3
 10
116.2151111077999
 20
27.09690579869994
 30
0.0
  0
VERTEX
  5
1FE2
  8
3
 10
115.55
 20
26.81785855599992
 30
0.0
  0
VERTEX
  5
1FE3
  8
3
 10
114.7341204441998
 20
26.66938061949986
 30
0.0
  0
VERTEX
  5
1FE4
  8
3
 10
113.8658795559
 20
26.66938061949986
 30
0.0
  0
VERTEX
  5
1FE5
  8
3
 10
113.05
 20
26.81785855599992
 30
0.0
  0
VERTEX
  5
1FE6
  8
3
 10
112.3848888921998
 20
27.09690579869994
 30
0.0
  0
VERTEX
  5
1FE7
  8
3
 10
111.9507684480998
 20
27.47286513159997
 30
0.0
  0
VERTEX
  5
1FE8
  8
3
 10
111.8
 20
27.90039031080005
 30
0.0
  0
SEQEND
  5
20CF
  8
3
  0
POLYLINE
  5
E41
  8
3
 66
     1
 10
0.0
 20
0.0
 30
0.0
  0
VERTEX
  5
1FE9
  8
3
 10
112.2449999999999
 20
28.17023720539987
 30
0.0
  0
VERTEX
  5
1FEA
  8
3
 10
112.4014275606999
 20
28.56344443219996
 30
0.0
  0
VERTEX
  5
1FEB
  8
3
 10
112.8468955647
 20
28.89678942310002
 30
0.0
  0
VERTEX
  5
1FEC
  8
3
 10
113.5135855464999
 20
29.11952342509994
 30
0.0
  0
VERTEX
  5
1FED
  8
3
 10
114.3
 20
29.19773720540002
 30
0.0
  0
VERTEX
  5
1FEE
  8
3
 10
115.0864144534999
 20
29.11952342509994
 30
0.0
  0
VERTEX
  5
1FEF
  8
3
 10
115.7531044353998
 20
28.89678942310002
 30
0.0
  0
VERTEX
  5
1FF0
  8
3
 10
116.1985724392999
 20
28.56344443219996
 30
0.0
  0
VERTEX
  5
1FF1
  8
3
 10
116.3549999999998
 20
28.17023720539987
 30
0.0
  0
VERTEX
  5
1FF2
  8
3
 10
116.1985724392999
 20
27.77702997860001
 30
0.0
  0
VERTEX
  5
1FF3
  8
3
 10
115.7531044353998
 20
27.44368498769995
 30
0.0
  0
VERTEX
  5
1FF4
  8
3
 10
115.0864144534999
 20
27.22095098570003
 30
0.0
  0
VERTEX
  5
1FF5
  8
3
 10
114.3
 20
27.14273720539995
 30
0.0
  0
VERTEX
  5
1FF6
  8
3
 10
113.5135855464999
 20
27.22095098570003
 30
0.0
  0
VERTEX
  5
1FF7
  8
3
 10
112.8468955647
 20
27.44368498769995
 30
0.0
  0
VERTEX
  5
1FF8
  8
3
 10
112.4014275606999
 20
27.77702997860001
 30
0.0
  0
VERTEX
  5
1FF9
  8
3
 10
112.2449999999999
 20
28.17023720539987
 30
0.0
  0
SEQEND
  5
20CE
  8
3
  0
POLYLINE
  5
E42
  8
3
 66
     1
 10
0.0
 20
0.0
 30
0.0
  0
VERTEX
  5
1FFA
  8
3
 10
111.8
 20
28.44008409999992
 30
0.0
  0
VERTEX
  5
1FFB
  8
3
 10
111.9507684480998
 20
28.8676092792
 30
0.0
  0
VERTEX
  5
1FFC
  8
3
 10
112.3848888921998
 20
29.24356861210003
 30
0.0
  0
VERTEX
  5
1FFD
  8
3
 10
113.05
 20
29.52261585480005
 30
0.0
  0
VERTEX
  5
1FFE
  8
3
 10
113.8658795559
 20
29.67109379129988
 30
0.0
  0
VERTEX
  5
1FFF
  8
3
 10
114.7341204441998
 20
29.67109379129988
 30
0.0
  0
VERTEX
  5
2000
  8
3
 10
115.55
 20
29.52261585480005
 30
0.0
  0
VERTEX
  5
2001
  8
3
 10
116.2151111077999
 20
29.24356861210003
 30
0.0
  0
VERTEX
  5
2002
  8
3
 10
116.649231552
 20
28.8676092792
 30
0.0
  0
VERTEX
  5
2003
  8
3
 10
116.8
 20
28.44008409999992
 30
0.0
  0
VERTEX
  5
2004
  8
3
 10
116.649231552
 20
28.01255892089989
 30
0.0
  0
VERTEX
  5
2005
  8
3
 10
116.2151111077999
 20
27.63659958790004
 30
0.0
  0
VERTEX
  5
2006
  8
3
 10
115.55
 20
27.35755234530006
 30
0.0
  0
VERTEX
  5
2007
  8
3
 10
114.7341204441998
 20
27.20907440880001
 30
0.0
  0
VERTEX
  5
2008
  8
3
 10
113.8658795559
 20
27.20907440880001
 30
0.0
  0
VERTEX
  5
2009
  8
3
 10
113.05
 20
27.35755234530006
 30
0.0
  0
VERTEX
  5
200A
  8
3
 10
112.3848888921998
 20
27.63659958790004
 30
0.0
  0
VERTEX
  5
200B
  8
3
 10
111.9507684480998
 20
28.01255892089989
 30
0.0
  0
VERTEX
  5
200C
  8
3
 10
111.8
 20
28.44008409999992
 30
0.0
  0
SEQEND
  5
20CD
  8
3
  0
POLYLINE
  5
E43
  8
3
 66
     1
 10
0.0
 20
0.0
 30
0.0
  0
VERTEX
  5
200D
  8
3
 10
111.8
 20
28.51812365139995
 30
0.0
  0
VERTEX
  5
200E
  8
3
 10
111.9507684480998
 20
28.94564883049998
 30
0.0
  0
VERTEX
  5
200F
  8
3
 10
112.3848888921998
 20
29.32160816350006
 30
0.0
  0
VERTEX
  5
2010
  8
3
 10
113.05
 20
29.60065540610003
 30
0.0
  0
VERTEX
  5
2011
  8
3
 10
113.8658795559
 20
29.74913334259986
 30
0.0
  0
VERTEX
  5
2012
  8
3
 10
114.7341204441998
 20
29.74913334259986
 30
0.0
  0
VERTEX
  5
2013
  8
3
 10
115.55
 20
29.60065540610003
 30
0.0
  0
VERTEX
  5
2014
  8
3
 10
116.2151111077999
 20
29.32160816350006
 30
0.0
  0
VERTEX
  5
2015
  8
3
 10
116.649231552
 20
28.94564883049998
 30
0.0
  0
VERTEX
  5
2016
  8
3
 10
116.8
 20
28.51812365139995
 30
0.0
  0
VERTEX
  5
2017
  8
3
 10
116.649231552
 20
28.09059847219987
 30
0.0
  0
VERTEX
  5
2018
  8
3
 10
116.2151111077999
 20
27.71463913930006
 30
0.0
  0
VERTEX
  5
2019
  8
3
 10
115.55
 20
27.43559189660004
 30
0.0
  0
VERTEX
  5
201A
  8
3
 10
114.7341204441998
 20
27.28711396009999
 30
0.0
  0
VERTEX
  5
201B
  8
3
 10
113.8658795559
 20
27.28711396009999
 30
0.0
  0
VERTEX
  5
201C
  8
3
 10
113.05
 20
27.43559189660004
 30
0.0
  0
VERTEX
  5
201D
  8
3
 10
112.3848888921998
 20
27.71463913930006
 30
0.0
  0
VERTEX
  5
201E
  8
3
 10
111.9507684480998
 20
28.09059847219987
 30
0.0
  0
VERTEX
  5
201F
  8
3
 10
111.8
 20
28.51812365139995
 30
0.0
  0
SEQEND
  5
20CC
  8
3
  0
POLYLINE
  5
E44
  8
3
 66
     1
 10
0.0
 20
0.0
 30
0.0
  0
VERTEX
  5
2020
  8
3
 10
112.2449999999999
 20
28.787970546
 30
0.0
  0
VERTEX
  5
2021
  8
3
 10
112.4014275606999
 20
29.18117777280008
 30
0.0
  0
VERTEX
  5
2022
  8
3
 10
112.8468955647
 20
29.51452276369992
 30
0.0
  0
VERTEX
  5
2023
  8
3
 10
113.5135855464999
 20
29.73725676570007
 30
0.0
  0
VERTEX
  5
2024
  8
3
 10
114.3
 20
29.81547054599991
 30
0.0
  0
VERTEX
  5
2025
  8
3
 10
115.0864144534999
 20
29.73725676570007
 30
0.0
  0
VERTEX
  5
2026
  8
3
 10
115.7531044353998
 20
29.51452276369992
 30
0.0
  0
VERTEX
  5
2027
  8
3
 10
116.1985724392999
 20
29.18117777280008
 30
0.0
  0
VERTEX
  5
2028
  8
3
 10
116.3549999999998
 20
28.787970546
 30
0.0
  0
VERTEX
  5
2029
  8
3
 10
116.1985724392999
 20
28.39476331929995
 30
0.0
  0
VERTEX
  5
202A
  8
3
 10
115.7531044353998
 20
28.06141832830008
 30
0.0
  0
VERTEX
  5
202B
  8
3
 10
115.0864144534999
 20
27.83868432639997
 30
0.0
  0
VERTEX
  5
202C
  8
3
 10
114.3
 20
27.76047054600008
 30
0.0
  0
VERTEX
  5
202D
  8
3
 10
113.5135855464999
 20
27.83868432639997
 30
0.0
  0
VERTEX
  5
202E
  8
3
 10
112.8468955647
 20
28.06141832830008
 30
0.0
  0
VERTEX
  5
202F
  8
3
 10
112.4014275606999
 20
28.39476331929995
 30
0.0
  0
VERTEX
  5
2030
  8
3
 10
112.2449999999999
 20
28.787970546
 30
0.0
  0
SEQEND
  5
20CB
  8
3
  0
POLYLINE
  5
E45
  8
3
 66
     1
 10
0.0
 20
0.0
 30
0.0
  0
VERTEX
  5
2031
  8
3
 10
111.8
 20
29.05781744060005
 30
0.0
  0
VERTEX
  5
2032
  8
3
 10
111.950768448
 20
29.48534261979989
 30
0.0
  0
VERTEX
  5
2033
  8
3
 10
112.3848888921998
 20
29.86130195269993
 30
0.0
  0
VERTEX
  5
2034
  8
3
 10
113.05
 20
30.14034919539995
 30
0.0
  0
VERTEX
  5
2035
  8
3
 10
113.8658795557999
 20
30.28882713190001
 30
0.0
  0
VERTEX
  5
2036
  8
3
 10
114.7341204441998
 20
30.28882713190001
 30
0.0
  0
VERTEX
  5
2037
  8
3
 10
115.55
 20
30.14034919539995
 30
0.0
  0
VERTEX
  5
2038
  8
3
 10
116.2151111077999
 20
29.86130195269993
 30
0.0
  0
VERTEX
  5
2039
  8
3
 10
116.649231552
 20
29.48534261979989
 30
0.0
  0
VERTEX
  5
203A
  8
3
 10
116.8
 20
29.05781744060005
 30
0.0
  0
VERTEX
  5
203B
  8
3
 10
116.649231552
 20
28.63029226150002
 30
0.0
  0
VERTEX
  5
203C
  8
3
 10
116.2151111077999
 20
28.25433292849993
 30
0.0
  0
VERTEX
  5
203D
  8
3
 10
115.55
 20
27.97528568589996
 30
0.0
  0
VERTEX
  5
203E
  8
3
 10
114.7341204441998
 20
27.8268077493999
 30
0.0
  0
VERTEX
  5
203F
  8
3
 10
113.8658795557999
 20
27.8268077493999
 30
0.0
  0
VERTEX
  5
2040
  8
3
 10
113.05
 20
27.97528568589996
 30
0.0
  0
VERTEX
  5
2041
  8
3
 10
112.3848888921998
 20
28.25433292849993
 30
0.0
  0
VERTEX
  5
2042
  8
3
 10
111.950768448
 20
28.63029226150002
 30
0.0
  0
VERTEX
  5
2043
  8
3
 10
111.8
 20
29.05781744060005
 30
0.0
  0
SEQEND
  5
20CA
  8
3
  0
POLYLINE
  5
E46
  8
3
 66
     1
 10
0.0
 20
0.0
 30
0.0
  0
VERTEX
  5
2044
  8
3
 10
111.8
 20
29.13585699200007
 30
0.0
  0
VERTEX
  5
2045
  8
3
 10
111.950768448
 20
29.56338217109987
 30
0.0
  0
VERTEX
  5
2046
  8
3
 10
112.3848888921998
 20
29.93934150409996
 30
0.0
  0
VERTEX
  5
2047
  8
3
 10
113.05
 20
30.21838874669993
 30
0.0
  0
VERTEX
  5
2048
  8
3
 10
113.8658795557999
 20
30.36686668330003
 30
0.0
  0
VERTEX
  5
2049
  8
3
 10
114.7341204441998
 20
30.36686668330003
 30
0.0
  0
VERTEX
  5
204A
  8
3
 10
115.55
 20
30.21838874669993
 30
0.0
  0
VERTEX
  5
204B
  8
3
 10
116.2151111077999
 20
29.93934150409996
 30
0.0
  0
VERTEX
  5
204C
  8
3
 10
116.649231552
 20
29.56338217109987
 30
0.0
  0
VERTEX
  5
204D
  8
3
 10
116.8
 20
29.13585699200007
 30
0.0
  0
VERTEX
  5
204E
  8
3
 10
116.649231552
 20
28.7083318128
 30
0.0
  0
VERTEX
  5
204F
  8
3
 10
116.2151111077999
 20
28.33237247989996
 30
0.0
  0
VERTEX
  5
2050
  8
3
 10
115.55
 20
28.05332523729999
 30
0.0
  0
VERTEX
  5
2051
  8
3
 10
114.7341204441998
 20
27.90484730069988
 30
0.0
  0
VERTEX
  5
2052
  8
3
 10
113.8658795557999
 20
27.90484730069988
 30
0.0
  0
VERTEX
  5
2053
  8
3
 10
113.05
 20
28.05332523729999
 30
0.0
  0
VERTEX
  5
2054
  8
3
 10
112.3848888921998
 20
28.33237247989996
 30
0.0
  0
VERTEX
  5
2055
  8
3
 10
111.950768448
 20
28.7083318128
 30
0.0
  0
VERTEX
  5
2056
  8
3
 10
111.8
 20
29.13585699200007
 30
0.0
  0
SEQEND
  5
20C9
  8
3
  0
POLYLINE
  5
E47
  8
3
 66
     1
 10
0.0
 20
0.0
 30
0.0
  0
VERTEX
  5
2057
  8
3
 10
112.2449999999999
 20
29.40570388659989
 30
0.0
  0
VERTEX
  5
2058
  8
3
 10
112.4014275606999
 20
29.79891111339998
 30
0.0
  0
VERTEX
  5
2059
  8
3
 10
112.8468955647
 20
30.13225610430004
 30
0.0
  0
VERTEX
  5
205A
  8
3
 10
113.5135855464999
 20
30.35499010629997
 30
0.0
  0
VERTEX
  5
205B
  8
3
 10
114.3
 20
30.43320388660004
 30
0.0
  0
VERTEX
  5
205C
  8
3
 10
115.0864144534999
 20
30.35499010629997
 30
0.0
  0
VERTEX
  5
205D
  8
3
 10
115.7531044352998
 20
30.13225610430004
 30
0.0
  0
VERTEX
  5
205E
  8
3
 10
116.1985724392999
 20
29.79891111339998
 30
0.0
  0
VERTEX
  5
205F
  8
3
 10
116.3549999999998
 20
29.40570388659989
 30
0.0
  0
VERTEX
  5
2060
  8
3
 10
116.1985724392999
 20
29.01249665990008
 30
0.0
  0
VERTEX
  5
2061
  8
3
 10
115.7531044352998
 20
28.67915166889998
 30
0.0
  0
VERTEX
  5
2062
  8
3
 10
115.0864144534999
 20
28.45641766699987
 30
0.0
  0
VERTEX
  5
2063
  8
3
 10
114.3
 20
28.37820388659998
 30
0.0
  0
VERTEX
  5
2064
  8
3
 10
113.5135855464999
 20
28.45641766699987
 30
0.0
  0
VERTEX
  5
2065
  8
3
 10
112.8468955647
 20
28.67915166889998
 30
0.0
  0
VERTEX
  5
2066
  8
3
 10
112.4014275606999
 20
29.01249665990008
 30
0.0
  0
VERTEX
  5
2067
  8
3
 10
112.2449999999999
 20
29.40570388659989
 30
0.0
  0
SEQEND
  5
20C8
  8
3
  0
POLYLINE
  5
E48
  8
3
 66
     1
 10
0.0
 20
0.0
 30
0.0
  0
VERTEX
  5
2068
  8
3
 10
111.8
 20
29.67555078119995
 30
0.0
  0
VERTEX
  5
2069
  8
3
 10
111.950768448
 20
30.10307596040002
 30
0.0
  0
VERTEX
  5
206A
  8
3
 10
112.3848888921998
 20
30.47903529330006
 30
0.0
  0
VERTEX
  5
206B
  8
3
 10
113.05
 20
30.75808253600007
 30
0.0
  0
VERTEX
  5
206C
  8
3
 10
113.8658795557999
 20
30.9065604724999
 30
0.0
  0
VERTEX
  5
206D
  8
3
 10
114.7341204441998
 20
30.9065604724999
 30
0.0
  0
VERTEX
  5
206E
  8
3
 10
115.55
 20
30.75808253600007
 30
0.0
  0
VERTEX
  5
206F
  8
3
 10
116.2151111077999
 20
30.47903529330006
 30
0.0
  0
VERTEX
  5
2070
  8
3
 10
116.649231552
 20
30.10307596040002
 30
0.0
  0
VERTEX
  5
2071
  8
3
 10
116.8
 20
29.67555078119995
 30
0.0
  0
VERTEX
  5
2072
  8
3
 10
116.649231552
 20
29.24802560209991
 30
0.0
  0
VERTEX
  5
2073
  8
3
 10
116.2151111077999
 20
28.87206626910006
 30
0.0
  0
VERTEX
  5
2074
  8
3
 10
115.55
 20
28.59301902649986
 30
0.0
  0
VERTEX
  5
2075
  8
3
 10
114.7341204441998
 20
28.44454109000003
 30
0.0
  0
VERTEX
  5
2076
  8
3
 10
113.8658795557999
 20
28.44454109000003
 30
0.0
  0
VERTEX
  5
2077
  8
3
 10
113.05
 20
28.59301902649986
 30
0.0
  0
VERTEX
  5
2078
  8
3
 10
112.3848888921998
 20
28.87206626910006
 30
0.0
  0
VERTEX
  5
2079
  8
3
 10
111.950768448
 20
29.24802560209991
 30
0.0
  0
VERTEX
  5
207A
  8
3
 10
111.8
 20
29.67555078119995
 30
0.0
  0
SEQEND
  5
20C7
  8
3
  0
LINE
  5
E49
  8
3
 10
115.55
 20
28.2685125552
 30
0.0
 11
114.3
 21
28.62935647349991
 31
0.0
  0
LINE
  5
E4A
  8
3
 10
113.05
 20
28.2685125552
 30
0.0
 11
114.3
 21
28.62935647349991
 31
0.0
  0
LINE
  5
E4B
  8
3
 10
114.3
 20
28.62935647349991
 30
0.0
 11
114.3
 21
30.96762506369987
 31
0.0
  0
POLYLINE
  5
E4C
  8
3
 66
     1
 10
0.0
 20
0.0
 30
0.0
  0
VERTEX
  5
207B
  8
3
 10
111.8
 20
29.75359033259997
 30
0.0
  0
VERTEX
  5
207C
  8
3
 10
111.950768448
 20
30.1811155117
 30
0.0
  0
VERTEX
  5
207D
  8
3
 10
112.3848888921998
 20
30.55707484470008
 30
0.0
  0
VERTEX
  5
207E
  8
3
 10
113.05
 20
30.83612208730005
 30
0.0
  0
VERTEX
  5
207F
  8
3
 10
113.8658795557999
 20
30.98460002389993
 30
0.0
  0
VERTEX
  5
2080
  8
3
 10
114.7341204441998
 20
30.98460002389993
 30
0.0
  0
VERTEX
  5
2081
  8
3
 10
115.55
 20
30.83612208730005
 30
0.0
  0
VERTEX
  5
2082
  8
3
 10
116.2151111077999
 20
30.55707484470008
 30
0.0
  0
VERTEX
  5
2083
  8
3
 10
116.649231552
 20
30.1811155117
 30
0.0
  0
VERTEX
  5
2084
  8
3
 10
116.8
 20
29.75359033259997
 30
0.0
  0
VERTEX
  5
2085
  8
3
 10
116.649231552
 20
29.3260651533999
 30
0.0
  0
VERTEX
  5
2086
  8
3
 10
116.2151111077999
 20
28.95010582049986
 30
0.0
  0
VERTEX
  5
2087
  8
3
 10
115.55
 20
28.67105857789988
 30
0.0
  0
VERTEX
  5
2088
  8
3
 10
114.7341204441998
 20
28.52258064130001
 30
0.0
  0
VERTEX
  5
2089
  8
3
 10
113.8658795557999
 20
28.52258064130001
 30
0.0
  0
VERTEX
  5
208A
  8
3
 10
113.05
 20
28.67105857789988
 30
0.0
  0
VERTEX
  5
208B
  8
3
 10
112.3848888921998
 20
28.95010582049986
 30
0.0
  0
VERTEX
  5
208C
  8
3
 10
111.950768448
 20
29.3260651533999
 30
0.0
  0
VERTEX
  5
208D
  8
3
 10
111.8
 20
29.75359033259997
 30
0.0
  0
SEQEND
  5
20C6
  8
3
  0
POLYLINE
  5
E4D
  8
3
 66
     1
 10
0.0
 20
0.0
 30
0.0
  0
VERTEX
  5
208E
  8
3
 10
112.2449999999999
 20
30.02343722720002
 30
0.0
  0
VERTEX
  5
208F
  8
3
 10
112.4014275606999
 20
30.41664445399988
 30
0.0
  0
VERTEX
  5
2090
  8
3
 10
112.8468955647
 20
30.74998944489994
 30
0.0
  0
VERTEX
  5
2091
  8
3
 10
113.5135855464999
 20
30.97272344689986
 30
0.0
  0
VERTEX
  5
2092
  8
3
 10
114.3
 20
31.05093722719994
 30
0.0
  0
VERTEX
  5
2093
  8
3
 10
115.0864144534999
 20
30.97272344689986
 30
0.0
  0
VERTEX
  5
2094
  8
3
 10
115.7531044352998
 20
30.74998944489994
 30
0.0
  0
VERTEX
  5
2095
  8
3
 10
116.1985724392999
 20
30.41664445399988
 30
0.0
  0
VERTEX
  5
2096
  8
3
 10
116.3549999999998
 20
30.02343722720002
 30
0.0
  0
VERTEX
  5
2097
  8
3
 10
116.1985724392999
 20
29.63023000049998
 30
0.0
  0
VERTEX
  5
2098
  8
3
 10
115.7531044352998
 20
29.29688500949987
 30
0.0
  0
VERTEX
  5
2099
  8
3
 10
115.0864144534999
 20
29.07415100759999
 30
0.0
  0
VERTEX
  5
209A
  8
3
 10
114.3
 20
28.99593722719987
 30
0.0
  0
VERTEX
  5
209B
  8
3
 10
113.5135855464999
 20
29.07415100759999
 30
0.0
  0
VERTEX
  5
209C
  8
3
 10
112.8468955647
 20
29.29688500949987
 30
0.0
  0
VERTEX
  5
209D
  8
3
 10
112.4014275606999
 20
29.63023000049998
 30
0.0
  0
VERTEX
  5
209E
  8
3
 10
112.2449999999999
 20
30.02343722720002
 30
0.0
  0
SEQEND
  5
20C5
  8
3
  0
POLYLINE
  5
E4E
  8
3
 66
     1
 10
0.0
 20
0.0
 30
0.0
  0
VERTEX
  5
209F
  8
3
 10
112.0438968731999
 20
30.14538566379997
 30
0.0
  0
VERTEX
  5
20A0
  8
3
 10
112.1962464875999
 20
29.73788643750004
 30
0.0
  0
VERTEX
  5
20A1
  8
3
 10
112.6327196711
 20
29.38542223969989
 30
0.0
  0
VERTEX
  5
20A2
  8
3
 10
113.2943683017998
 20
29.13559531350006
 30
0.0
  0
VERTEX
  5
20A3
  8
3
 10
114.0918330656998
 20
29.02214616950005
 30
0.0
  0
VERTEX
  5
20A4
  8
3
 10
114.9174119276
 20
29.06039674329986
 30
0.0
  0
VERTEX
  5
20A5
  8
3
 10
115.6596058874998
 20
29.24518108289999
 30
0.0
  0
VERTEX
  5
20A6
  8
3
 10
116.2181775384
 20
29.55154303940003
 30
0.0
  0
VERTEX
  5
20A7
  8
3
 10
116.5176886837999
 20
29.9381067329
 30
0.0
  0
VERTEX
  5
20A8
  8
3
 10
116.5176886837999
 20
30.3526645945999
 30
0.0
  0
VERTEX
  5
20A9
  8
3
 10
116.2181775384
 20
30.73922828819991
 30
0.0
  0
VERTEX
  5
20AA
  8
3
 10
115.6596058874998
 20
31.04559024469995
 30
0.0
  0
VERTEX
  5
20AB
  8
3
 10
114.9174119276
 20
31.23037458430008
 30
0.0
  0
VERTEX
  5
20AC
  8
3
 10
114.0918330656998
 20
31.26862515809989
 30
0.0
  0
VERTEX
  5
20AD
  8
3
 10
113.2943683017998
 20
31.15517601409988
 30
0.0
  0
VERTEX
  5
20AE
  8
3
 10
112.6327196711
 20
30.90534908790005
 30
0.0
  0
VERTEX
  5
20AF
  8
3
 10
112.1962464875999
 20
30.5528848900999
 30
0.0
  0
VERTEX
  5
20B0
  8
3
 10
112.0438968731999
 20
30.14538566379997
 30
0.0
  0
SEQEND
  5
20C4
  8
3
  0
LINE
  5
E4F
  8
3
 10
115.55
 20
28.2685125552
 30
0.0
 11
115.55
 21
27.54682471880005
 31
0.0
  0
LINE
  5
E50
  8
3
 10
115.55
 20
28.2685125552
 30
0.0
 11
115.55
 21
30.60678114550001
 31
0.0
  0
LINE
  5
E51
  8
3
 10
113.05
 20
28.2685125552
 30
0.0
 11
113.05
 21
30.60678114550001
 31
0.0
  0
LINE
  5
E52
  8
3
 10
113.05
 20
28.2685125552
 30
0.0
 11
113.05
 21
27.54682471880005
 31
0.0
  0
POLYLINE
  5
E53
  8
3
 66
     1
 10
0.0
 20
0.0
 30
0.0
  0
VERTEX
  5
20B1
  8
3
 10
114.3
 20
31.27343722720002
 30
0.0
  0
VERTEX
  5
20B2
  8
3
 10
115.0864144534999
 20
31.19522344689994
 30
0.0
  0
VERTEX
  5
20B3
  8
3
 10
115.7531044352998
 20
30.97248944490002
 30
0.0
  0
VERTEX
  5
20B4
  8
3
 10
116.1985724392999
 20
30.63914445399996
 30
0.0
  0
VERTEX
  5
20B5
  8
3
 10
116.3549999999998
 20
30.24593722719987
 30
0.0
  0
VERTEX
  5
20B6
  8
3
 10
116.1985724392999
 20
29.85273000050006
 30
0.0
  0
VERTEX
  5
20B7
  8
3
 10
115.7531044352998
 20
29.51938500949996
 30
0.0
  0
VERTEX
  5
20B8
  8
3
 10
115.0864144534999
 20
29.29665100760008
 30
0.0
  0
VERTEX
  5
20B9
  8
3
 10
114.3
 20
29.21843722719996
 30
0.0
  0
VERTEX
  5
20BA
  8
3
 10
113.5135855464999
 20
29.29665100760008
 30
0.0
  0
VERTEX
  5
20BB
  8
3
 10
112.8468955647
 20
29.51938500949996
 30
0.0
  0
VERTEX
  5
20BC
  8
3
 10
112.4014275606999
 20
29.85273000050006
 30
0.0
  0
VERTEX
  5
20BD
  8
3
 10
112.2449999999999
 20
30.24593722719987
 30
0.0
  0
VERTEX
  5
20BE
  8
3
 10
112.4014275606999
 20
30.63914445399996
 30
0.0
  0
VERTEX
  5
20BF
  8
3
 10
112.8468955647
 20
30.97248944490002
 30
0.0
  0
VERTEX
  5
20C0
  8
3
 10
113.5135855464999
 20
31.19522344689994
 30
0.0
  0
VERTEX
  5
20C1
  8
3
 10
114.3
 20
31.27343722720002
 30
0.0
  0
SEQEND
  5
20C3
  8
3
  0
LINE
  5
E54
  8
3
 10
113.05
 20
30.60678114550001
 30
0.0
 11
114.3
 21
30.96762506369987
 31
0.0
  0
LINE
  5
E55
  8
3
 10
115.55
 20
30.60678114550001
 30
0.0
 11
114.3
 21
30.96762506369987
 31
0.0
  0
LINE
  5
E56
  8
3
 10
114.3
 20
27.18598080049992
 30
0.0
 11
114.3
 21
28.62935647349991
 31
0.0
  0
LINE
  5
E57
  8
3
 10
115.55
 20
29.88509330900001
 30
0.0
 11
114.3
 21
29.52424939069988
 31
0.0
  0
LINE
  5
E58
  8
3
 10
115.55
 20
27.54682471880005
 30
0.0
 11
114.3
 21
27.18598080049992
 31
0.0
  0
LINE
  5
E59
  8
3
 10
113.05
 20
29.88509330900001
 30
0.0
 11
114.3
 21
29.52424939069988
 31
0.0
  0
LINE
  5
E5A
  8
3
 10
113.05
 20
27.54682471880005
 30
0.0
 11
114.3
 21
27.18598080049992
 31
0.0
  0
LINE
  5
E5B
  8
3
 10
152.3999999999999
 20
42.66726448429995
 30
0.0
 11
123.8999999999999
 21
42.66726448429995
 31
0.0
  0
LINE
  5
E5C
  8
3
 10
123.8999999999999
 20
29.17478448430006
 30
0.0
 11
152.3999999999999
 21
29.17478448430006
 31
0.0
  0
LINE
  5
E5D
  8
3
 10
152.3999999999999
 20
-29.17478448420002
 30
0.0
 11
123.8999999999999
 21
-29.17478448420002
 31
0.0
  0
LINE
  5
E5E
  8
3
 10
123.8999999999999
 20
-42.66726448420013
 30
0.0
 11
152.3999999999999
 21
-42.66726448420013
 31
0.0
  0
LINE
  5
E62
  8
3
 10
152.3999999999999
 20
26.39907116059999
 30
0.0
 11
152.2136296694999
 21
25.7035276181
 31
0.0
  0
LINE
  5
E63
  8
3
 10
152.2136296694999
 20
-25.70352761799995
 30
0.0
 11
152.3999999999999
 21
-26.39907116049994
 31
0.0
  0
ARC
  5
E64
  8
3
 10
152.6
 20
-25.60000000000014
 30
0.0
 40
0.4000000000004107
 50
166.8749999999853
 51
195.0000000000124
  0
ARC
  5
E65
  8
3
 10
152.6
 20
-25.60000000000014
 30
0.0
 40
0.4000000000001981
 50
120.0000000000006
 51
166.8750000000114
  0
ARC
  5
E66
  8
3
 10
152.6
 20
25.59999999999991
 30
0.0
 40
0.4000000000003519
 50
164.9999999999855
 51
180.0
  0
ARC
  5
E67
  8
3
 10
152.6
 20
25.59999999999991
 30
0.0
 40
0.4000000000003183
 50
180.0
 51
239.9999999999909
  0
LINE
  5
E68
  8
3
 10
152.1999999999999
 20
25.59999999999991
 30
0.0
 11
152.1999999999999
 21
-25.60000000000014
 31
0.0
  0
LINE
  5
E69
  8
3
 10
152.3999999999999
 20
2.5
 30
0.0
 11
113.9999999999998
 21
2.5
 31
0.0
  0
LINE
  5
E6A
  8
3
 10
113.9999999999998
 20
-2.5
 30
0.0
 11
152.3999999999999
 21
-2.5
 31
0.0
  0
LINE
  5
E6B
  8
3
 10
113.9999999999998
 20
2.5
 30
0.0
 11
113.7256888119999
 21
2.043469518099982
 31
0.0
  0
LINE
  5
E6C
  8
3
 10
113.7256888119999
 20
-2.043469517999938
 30
0.0
 11
113.9999999999998
 21
-2.5
 31
0.0
  0
LINE
  5
E79
  8
3
 10
152.3999999999999
 20
11.90499993899994
 30
0.0
 11
105.9999999999998
 21
11.90499993899994
 31
0.0
  0
LINE
  5
E7A
  8
3
 10
105.9999999999998
 20
-11.90499993899994
 30
0.0
 11
152.3999999999999
 21
-11.90499993899994
 31
0.0
  0
LINE
  5
E7B
  8
3
 10
105.9999999999998
 20
11.90499993899994
 30
0.0
 11
105.3639890713999
 21
10.84649999999988
 31
0.0
  0
LINE
  5
E7C
  8
3
 10
105.3639890713999
 20
-10.84650000000011
 30
0.0
 11
105.9999999999998
 21
-11.90499993899994
 31
0.0
  0
LINE
  5
E7F
  8
3
 10
134.3999999999999
 20
-31.75275000000011
 30
0.0
 11
128.6784549704999
 21
-41.27500000000009
 31
0.0
  0
LINE
  5
E80
  8
3
 10
128.6784549704999
 20
-41.27500000000009
 30
0.0
 11
134.3999999999999
 21
-50.79725000000008
 31
0.0
  0
LINE
  5
E81
  8
3
 10
134.3999999999999
 20
50.79725000000008
 30
0.0
 11
128.6784549704999
 21
41.27499999999986
 31
0.0
  0
LINE
  5
E82
  8
3
 10
128.6784549704999
 20
41.27499999999986
 30
0.0
 11
134.3999999999999
 21
31.75274999999988
 31
0.0
  0
LINE
  5
E83
  8
3
 10
152.3999999999999
 20
50.79725000000008
 30
0.0
 11
134.3999999999999
 21
50.79725000000008
 31
0.0
  0
LINE
  5
E84
  8
3
 10
134.3999999999999
 20
31.75274999999988
 30
0.0
 11
152.3999999999999
 21
31.75274999999988
 31
0.0
  0
LINE
  5
E85
  8
3
 10
152.3999999999999
 20
-31.75275000000011
 30
0.0
 11
134.3999999999999
 21
-31.75275000000011
 31
0.0
  0
LINE
  5
E86
  8
3
 10
134.3999999999999
 20
-50.79725000000008
 30
0.0
 11
152.3999999999999
 21
-50.79725000000008
 31
0.0
  0
LINE
  5
E8D
  8
3
 10
112.1999999999999
 20
28.92524848640005
 30
0.0
 11
112.1999999999999
 21
10.30970581020006
 31
0.0
  0
LINE
  5
E8E
  8
3
 10
116.3999999999999
 20
17.75217326820007
 30
0.0
 11
116.3999999999999
 21
28.92524848640005
 31
0.0
  0
LINE
  5
E8F
  8
3
 10
116.3999999999999
 20
10.30895517470003
 30
0.0
 11
116.3999999999999
 21
13.42474126809998
 31
0.0
  0
LINE
  5
E90
  8
3
 10
116.3999999999999
 20
-13.42474126799993
 30
0.0
 11
116.3999999999999
 21
-10.30895517459999
 31
0.0
  0
LINE
  5
E91
  8
3
 10
116.3999999999999
 20
-28.92524848640005
 30
0.0
 11
116.3999999999999
 21
-17.75217326810002
 31
0.0
  0
LINE
  5
E92
  8
3
 10
112.1999999999999
 20
-10.30970581010001
 30
0.0
 11
112.1999999999999
 21
-28.92524848640005
 31
0.0
  0
LINE
  5
E93
  8
3
 10
152.3999999999999
 20
-13.0884572681
 30
0.0
 11
115.9824230282998
 21
-13.0884572681
 31
0.0
  0
LINE
  5
E94
  8
3
 10
115.9824230282998
 20
-18.0884572681
 30
0.0
 11
152.3999999999999
 21
-18.0884572681
 31
0.0
  0
LINE
  5
E95
  8
3
 10
152.3999999999999
 20
18.08845726820005
 30
0.0
 11
115.9854395966
 21
18.08845726820005
 31
0.0
  0
LINE
  5
E96
  8
3
 10
115.9854395966
 20
13.08845726820005
 30
0.0
 11
152.3999999999999
 21
13.08845726820005
 31
0.0
  0
LINE
  5
E97
  8
3
 10
116.925
 20
-30.24378634680011
 30
0.0
 11
116.925
 21
-29.37991182330006
 31
0.0
  0
LINE
  5
E98
  8
3
 10
111.675
 20
-29.37991182330006
 30
0.0
 11
111.675
 21
-30.24576628110003
 31
0.0
  0
LINE
  5
E99
  8
3
 10
116.4433035248999
 20
-28.62213959500014
 30
0.0
 11
116.0146428199999
 21
-28.31903070370004
 31
0.0
  0
LINE
  5
E9A
  8
3
 10
112.5853571800999
 20
-28.31903070370004
 30
0.0
 11
112.1566964750998
 21
-28.62213959500014
 31
0.0
  0
LINE
  5
E9B
  8
3
 10
111.675
 20
30.24576628120008
 30
0.0
 11
111.675
 21
29.37991182339988
 31
0.0
  0
LINE
  5
E9C
  8
3
 10
116.925
 20
29.37991182339988
 30
0.0
 11
116.925
 21
30.24378634689992
 31
0.0
  0
LINE
  5
E9D
  8
3
 10
112.1566964750998
 20
28.62213959509995
 30
0.0
 11
112.5853571800999
 21
28.31903070380008
 31
0.0
  0
LINE
  5
E9E
  8
3
 10
116.0146428199999
 20
28.31903070380008
 30
0.0
 11
116.4433035248999
 21
28.62213959509995
 31
0.0
  0
LINE
  5
E9F
  8
3
 10
152.3999999999999
 20
12.70000000000005
 30
0.0
 11
147.31873
 21
12.70000000000005
 31
0.0
  0
LINE
  5
EA0
  8
3
 10
147.31873
 20
-12.70000000000005
 30
0.0
 11
152.3999999999999
 21
-12.70000000000005
 31
0.0
  0
LINE
  5
EA1
  8
3
 10
147.31873
 20
12.70000000000005
 30
0.0
 11
146.05
 21
11.43127000000004
 31
0.0
  0
LINE
  5
EA2
  8
3
 10
146.05
 20
-11.43127000000004
 30
0.0
 11
147.31873
 21
-12.70000000000005
 31
0.0
  0
LINE
  5
EA7
  8
3
 10
152.3999999999999
 20
50.80380999999988
 30
0.0
 11
139.2229603049998
 21
50.80380999999988
 31
0.0
  0
LINE
  5
EA8
  8
3
 10
139.2229603049998
 20
31.74619000000007
 30
0.0
 11
152.3999999999999
 21
31.74619000000007
 31
0.0
  0
ARC
  5
EA9
  8
3
 10
139.1599999999999
 20
50.99701000000005
 30
0.0
 40
0.2032000000001914
 50
270.0
 51
288.0498306933082
  0
ARC
  5
EAA
  8
3
 10
139.1599999999999
 20
31.55298999999991
 30
0.0
 40
0.2031999999999753
 50
71.95016930667195
 51
90.0
  0
LINE
  5
EAB
  8
3
 10
139.1599999999999
 20
50.79380999999989
 30
0.0
 11
138.0848395105998
 21
50.79380999999989
 31
0.0
  0
LINE
  5
EAC
  8
3
 10
138.0848395105998
 20
31.75619000000006
 30
0.0
 11
139.1599999999999
 21
31.75619000000006
 31
0.0
  0
LINE
  5
EAD
  8
3
 10
138.0848395105998
 20
50.79380999999989
 30
0.0
 11
137.1599999999999
 21
50.54600000000005
 31
0.0
  0
LINE
  5
EAE
  8
3
 10
137.1599999999999
 20
32.00399999999991
 30
0.0
 11
138.0848395105998
 21
31.75619000000006
 31
0.0
  0
LINE
  5
EAF
  8
3
 10
152.3999999999999
 20
-31.74619000000007
 30
0.0
 11
139.2229603049998
 21
-31.74619000000007
 31
0.0
  0
LINE
  5
EB0
  8
3
 10
139.2229603049998
 20
-50.80381000000011
 30
0.0
 11
152.3999999999999
 21
-50.80381000000011
 31
0.0
  0
ARC
  5
EB1
  8
3
 10
139.1599999999999
 20
-31.55299000000014
 30
0.0
 40
0.2032000000001517
 50
270.0
 51
288.0498306933116
  0
ARC
  5
EB2
  8
3
 10
139.1599999999999
 20
-50.99701000000005
 30
0.0
 40
0.2031999999999753
 50
71.95016930667195
 51
90.0
  0
LINE
  5
EB3
  8
3
 10
138.0848395105998
 20
-31.75619000000006
 30
0.0
 11
137.1599999999999
 21
-32.00400000000013
 31
0.0
  0
LINE
  5
EB4
  8
3
 10
137.1599999999999
 20
-50.54600000000005
 30
0.0
 11
138.0848395105998
 21
-50.79381000000012
 31
0.0
  0
LINE
  5
EB5
  8
3
 10
139.1599999999999
 20
-31.75619000000006
 30
0.0
 11
138.0848395105998
 21
-31.75619000000006
 31
0.0
  0
LINE
  5
EB6
  8
3
 10
138.0848395105998
 20
-50.79381000000012
 30
0.0
 11
139.1599999999999
 21
-50.79381000000012
 31
0.0
  0
LINE
  5
EB7
  8
3
 10
116.1916043638999
 20
-24.87180662090009
 30
0.0
 11
115.7288690165999
 21
-24.54460331890004
 31
0.0
  0
LINE
  5
EB8
  8
3
 10
112.8711309833998
 20
-24.54460331890004
 30
0.0
 11
112.4083956359998
 21
-24.87180662090009
 31
0.0
  0
LINE
  5
EB9
  8
3
 10
115.7145032039999
 20
-24.93847369240007
 30
0.0
 11
115.4627216336999
 21
-24.85208731180001
 31
0.0
  0
LINE
  5
EBA
  8
3
 10
113.1372783662999
 20
-24.85208731180001
 30
0.0
 11
112.8854967958999
 21
-24.93847369240007
 31
0.0
  0
LINE
  5
EBB
  8
3
 10
112.9891896446
 20
-26.49571106079998
 30
0.0
 11
113.1372783662999
 21
-26.54652037400001
 31
0.0
  0
LINE
  5
EBC
  8
3
 10
115.4627216336999
 20
-26.54652037400001
 30
0.0
 11
115.6108103554
 21
-26.49571106079998
 31
0.0
  0
LINE
  5
EBD
  8
3
 10
116.8
 20
-26.04719028890008
 30
0.0
 11
116.8
 21
-25.96915073750006
 31
0.0
  0
LINE
  5
EBE
  8
3
 10
111.8
 20
-25.96915073750006
 30
0.0
 11
111.8
 21
-26.04719028890008
 31
0.0
  0
LINE
  5
EBF
  8
3
 10
112.8854967958999
 20
-27.07786733400008
 30
0.0
 11
113.1372783662999
 21
-27.16425371460014
 31
0.0
  0
LINE
  5
EC0
  8
3
 10
115.4627216336999
 20
-27.16425371460014
 30
0.0
 11
115.7145032039999
 21
-27.07786733400008
 31
0.0
  0
LINE
  5
EC1
  8
3
 10
115.7145032039999
 20
-25.55620703299996
 30
0.0
 11
115.4627216336999
 21
-25.46982065240013
 31
0.0
  0
LINE
  5
EC2
  8
3
 10
113.1372783661998
 20
-25.46982065240013
 30
0.0
 11
112.8854967958999
 21
-25.55620703299996
 31
0.0
  0
LINE
  5
EC3
  8
3
 10
116.8
 20
-26.66492362949998
 30
0.0
 11
116.8
 21
-26.58688407809996
 31
0.0
  0
LINE
  5
EC4
  8
3
 10
111.8
 20
-26.58688407809996
 30
0.0
 11
111.8
 21
-26.66492362949998
 31
0.0
  0
LINE
  5
EC5
  8
3
 10
112.8854967958999
 20
-27.69560067459997
 30
0.0
 11
113.1372783662999
 21
-27.78198705520003
 31
0.0
  0
LINE
  5
EC6
  8
3
 10
115.4627216336999
 20
-27.78198705520003
 30
0.0
 11
115.7145032039999
 21
-27.69560067459997
 31
0.0
  0
LINE
  5
EC7
  8
3
 10
115.7145032039999
 20
-26.17394037360009
 30
0.0
 11
115.4627216336999
 21
-26.08755399300003
 31
0.0
  0
LINE
  5
EC8
  8
3
 10
113.1372783662999
 20
-26.08755399300003
 30
0.0
 11
112.8854967958999
 21
-26.17394037360009
 31
0.0
  0
LINE
  5
EC9
  8
3
 10
116.8
 20
-27.28265697010011
 30
0.0
 11
116.8
 21
-27.20461741870008
 31
0.0
  0
LINE
  5
ECA
  8
3
 10
111.8
 20
-27.20461741870008
 30
0.0
 11
111.8
 21
-27.28265697010011
 31
0.0
  0
LINE
  5
ECB
  8
3
 10
112.8854967958999
 20
-28.31333401530014
 30
0.0
 11
113.1372783662999
 21
-28.39972039579993
 31
0.0
  0
LINE
  5
ECC
  8
3
 10
115.4627216336999
 20
-28.39972039579993
 30
0.0
 11
115.7145032039999
 21
-28.31333401530014
 31
0.0
  0
LINE
  5
ECD
  8
3
 10
115.7145032039999
 20
-26.79167371419999
 30
0.0
 11
115.4627216336999
 21
-26.70528733359993
 31
0.0
  0
LINE
  5
ECE
  8
3
 10
113.1372783662999
 20
-26.70528733359993
 30
0.0
 11
112.8854967958999
 21
-26.79167371419999
 31
0.0
  0
LINE
  5
ECF
  8
3
 10
116.8
 20
-27.9003903107
 30
0.0
 11
116.8
 21
-27.82235075929998
 31
0.0
  0
LINE
  5
ED0
  8
3
 10
111.8
 20
-27.82235075929998
 30
0.0
 11
111.8
 21
-27.9003903107
 31
0.0
  0
LINE
  5
ED1
  8
3
 10
112.8854967959999
 20
-28.93106735590004
 30
0.0
 11
113.1372783662999
 21
-29.01745373640006
 31
0.0
  0
LINE
  5
ED2
  8
3
 10
115.4627216336999
 20
-29.01745373640006
 30
0.0
 11
115.7145032039999
 21
-28.93106735590004
 31
0.0
  0
LINE
  5
ED3
  8
3
 10
115.7145032039999
 20
-27.40940705480011
 30
0.0
 11
115.4627216336999
 21
-27.32302067420005
 31
0.0
  0
LINE
  5
ED4
  8
3
 10
113.1372783662999
 20
-27.32302067420005
 30
0.0
 11
112.8854967959999
 21
-27.40940705480011
 31
0.0
  0
LINE
  5
ED5
  8
3
 10
116.8
 20
-28.51812365130013
 30
0.0
 11
116.8
 21
-28.4400840999001
 31
0.0
  0
LINE
  5
ED6
  8
3
 10
111.8
 20
-28.4400840999001
 30
0.0
 11
111.8
 21
-28.51812365130013
 31
0.0
  0
LINE
  5
ED7
  8
3
 10
112.8854967959999
 20
-29.54880069649994
 30
0.0
 11
113.1372783662999
 21
-29.63518707699996
 31
0.0
  0
LINE
  5
ED8
  8
3
 10
115.4627216336999
 20
-29.63518707699996
 30
0.0
 11
115.7145032039999
 21
-29.54880069649994
 31
0.0
  0
LINE
  5
ED9
  8
3
 10
115.7145032039999
 20
-28.02714039540001
 30
0.0
 11
115.4627216336999
 21
-27.94075401479995
 31
0.0
  0
LINE
  5
EDA
  8
3
 10
113.1372783662999
 20
-27.94075401479995
 30
0.0
 11
112.8854967959999
 21
-28.02714039540001
 31
0.0
  0
LINE
  5
EDB
  8
3
 10
116.8
 20
-29.13585699190003
 30
0.0
 11
116.8
 21
-29.0578174405
 31
0.0
  0
LINE
  5
EDC
  8
3
 10
111.8
 20
-29.0578174405
 30
0.0
 11
111.8
 21
-29.13585699190003
 31
0.0
  0
LINE
  5
EDD
  8
3
 10
112.8854967959999
 20
-30.16653403710006
 30
0.0
 11
113.1372783662999
 21
-30.25292041770012
 31
0.0
  0
LINE
  5
EDE
  8
3
 10
115.4627216336999
 20
-30.25292041770012
 30
0.0
 11
115.7145032039999
 21
-30.16653403710006
 31
0.0
  0
LINE
  5
EDF
  8
3
 10
115.7145032039999
 20
-28.64487373600014
 30
0.0
 11
115.4627216336999
 21
-28.55848735540008
 31
0.0
  0
LINE
  5
EE0
  8
3
 10
113.1372783662999
 20
-28.55848735540008
 30
0.0
 11
112.8854967959999
 21
-28.64487373600014
 31
0.0
  0
LINE
  5
EE1
  8
3
 10
116.8
 20
-29.75359033249993
 30
0.0
 11
116.8
 21
-29.67555078110013
 31
0.0
  0
LINE
  5
EE2
  8
3
 10
111.8
 20
-29.67555078110013
 30
0.0
 11
111.8
 21
-29.75359033249993
 31
0.0
  0
LINE
  5
EE3
  8
3
 10
112.8854967959999
 20
-30.78426737769996
 30
0.0
 11
113.1372783662999
 21
-30.87065375830002
 31
0.0
  0
LINE
  5
EE4
  8
3
 10
115.4627216336999
 20
-30.87065375830002
 30
0.0
 11
115.7145032039999
 21
-30.78426737769996
 31
0.0
  0
LINE
  5
EE5
  8
3
 10
115.5765060406
 20
-29.21526018200007
 30
0.0
 11
115.4627216336999
 21
-29.17622069599997
 31
0.0
  0
LINE
  5
EE6
  8
3
 10
113.1372783662999
 20
-29.17622069599997
 30
0.0
 11
113.0234939594
 21
-29.21526018200007
 31
0.0
  0
LINE
  5
EE7
  8
3
 10
112.4083956360999
 20
24.87180662099991
 30
0.0
 11
112.8711309833998
 21
24.54460331899986
 31
0.0
  0
LINE
  5
EE8
  8
3
 10
115.7288690165999
 20
24.54460331899986
 30
0.0
 11
116.1916043639999
 21
24.87180662099991
 31
0.0
  0
LINE
  5
EE9
  8
3
 10
112.8854967959999
 20
24.93847369240007
 30
0.0
 11
113.1372783662999
 21
24.85208731190005
 31
0.0
  0
LINE
  5
EEA
  8
3
 10
115.4627216336999
 20
24.85208731190005
 30
0.0
 11
115.7145032040999
 21
24.93847369240007
 31
0.0
  0
LINE
  5
EEB
  8
3
 10
115.6108103554
 20
26.49571106090002
 30
0.0
 11
115.4627216336999
 21
26.54652037410006
 31
0.0
  0
LINE
  5
EEC
  8
3
 10
113.1372783662999
 20
26.54652037410006
 30
0.0
 11
112.9891896446
 21
26.49571106090002
 31
0.0
  0
LINE
  5
EED
  8
3
 10
111.8
 20
26.0471902889999
 30
0.0
 11
111.8
 21
25.96915073759988
 31
0.0
  0
LINE
  5
EEE
  8
3
 10
116.8
 20
25.96915073759988
 30
0.0
 11
116.8
 21
26.0471902889999
 31
0.0
  0
LINE
  5
EEF
  8
3
 10
115.7145032040999
 20
27.07786733409989
 30
0.0
 11
115.4627216337999
 21
27.16425371469995
 31
0.0
  0
LINE
  5
EF0
  8
3
 10
113.1372783662999
 20
27.16425371469995
 30
0.0
 11
112.8854967959999
 21
27.07786733409989
 31
0.0
  0
LINE
  5
EF1
  8
3
 10
112.8854967959999
 20
25.55620703299996
 30
0.0
 11
113.1372783662999
 21
25.46982065249995
 31
0.0
  0
LINE
  5
EF2
  8
3
 10
115.4627216337999
 20
25.46982065249995
 30
0.0
 11
115.7145032040999
 21
25.55620703299996
 31
0.0
  0
LINE
  5
EF3
  8
3
 10
111.8
 20
26.66492362960003
 30
0.0
 11
111.8
 21
26.5868840782
 31
0.0
  0
LINE
  5
EF4
  8
3
 10
116.8
 20
26.5868840782
 30
0.0
 11
116.8
 21
26.66492362960003
 31
0.0
  0
LINE
  5
EF5
  8
3
 10
115.7145032040999
 20
27.69560067470002
 30
0.0
 11
115.4627216337999
 21
27.78198705530008
 31
0.0
  0
LINE
  5
EF6
  8
3
 10
113.1372783662999
 20
27.78198705530008
 30
0.0
 11
112.8854967959999
 21
27.69560067470002
 31
0.0
  0
LINE
  5
EF7
  8
3
 10
112.8854967959999
 20
26.17394037359986
 30
0.0
 11
113.1372783662999
 21
26.08755399310007
 31
0.0
  0
LINE
  5
EF8
  8
3
 10
115.4627216337999
 20
26.08755399310007
 30
0.0
 11
115.7145032040999
 21
26.17394037359986
 31
0.0
  0
LINE
  5
EF9
  8
3
 10
111.8
 20
27.28265697019992
 30
0.0
 11
111.8
 21
27.2046174187999
 31
0.0
  0
LINE
  5
EFA
  8
3
 10
116.8
 20
27.2046174187999
 30
0.0
 11
116.8
 21
27.28265697019992
 31
0.0
  0
LINE
  5
EFB
  8
3
 10
115.7145032040999
 20
28.31333401529992
 30
0.0
 11
115.4627216337999
 21
28.39972039589998
 31
0.0
  0
LINE
  5
EFC
  8
3
 10
113.1372783662999
 20
28.39972039589998
 30
0.0
 11
112.8854967959999
 21
28.31333401529992
 31
0.0
  0
LINE
  5
EFD
  8
3
 10
112.8854967959999
 20
26.79167371430003
 30
0.0
 11
113.1372783662999
 21
26.70528733369997
 31
0.0
  0
LINE
  5
EFE
  8
3
 10
115.4627216336999
 20
26.70528733369997
 30
0.0
 11
115.7145032040999
 21
26.79167371430003
 31
0.0
  0
LINE
  5
EFF
  8
3
 10
111.8
 20
27.90039031080005
 30
0.0
 11
111.8
 21
27.82235075940002
 31
0.0
  0
LINE
  5
F00
  8
3
 10
116.8
 20
27.82235075940002
 30
0.0
 11
116.8
 21
27.90039031080005
 31
0.0
  0
LINE
  5
F01
  8
3
 10
115.7145032040999
 20
28.93106735590004
 30
0.0
 11
115.4627216336999
 21
29.01745373649987
 31
0.0
  0
LINE
  5
F02
  8
3
 10
113.1372783662999
 20
29.01745373649987
 30
0.0
 11
112.8854967959999
 21
28.93106735590004
 31
0.0
  0
LINE
  5
F03
  8
3
 10
112.8854967959999
 20
27.40940705489993
 30
0.0
 11
113.1372783662999
 21
27.32302067429987
 31
0.0
  0
LINE
  5
F04
  8
3
 10
115.4627216336999
 20
27.32302067429987
 30
0.0
 11
115.7145032040999
 21
27.40940705489993
 31
0.0
  0
LINE
  5
F05
  8
3
 10
111.8
 20
28.51812365139995
 30
0.0
 11
111.8
 21
28.44008409999992
 31
0.0
  0
LINE
  5
F06
  8
3
 10
116.8
 20
28.44008409999992
 30
0.0
 11
116.8
 21
28.51812365139995
 31
0.0
  0
LINE
  5
F07
  8
3
 10
115.7145032040999
 20
29.54880069649994
 30
0.0
 11
115.4627216336999
 21
29.6351870771
 31
0.0
  0
LINE
  5
F08
  8
3
 10
113.1372783662999
 20
29.6351870771
 30
0.0
 11
112.8854967959999
 21
29.54880069649994
 31
0.0
  0
LINE
  5
F09
  8
3
 10
112.8854967959999
 20
28.02714039550006
 30
0.0
 11
113.1372783662999
 21
27.94075401489999
 31
0.0
  0
LINE
  5
F0A
  8
3
 10
115.4627216336999
 20
27.94075401489999
 30
0.0
 11
115.7145032040999
 21
28.02714039550006
 31
0.0
  0
LINE
  5
F0B
  8
3
 10
111.8
 20
29.13585699200007
 30
0.0
 11
111.8
 21
29.05781744060005
 31
0.0
  0
LINE
  5
F0C
  8
3
 10
116.8
 20
29.05781744060005
 30
0.0
 11
116.8
 21
29.13585699200007
 31
0.0
  0
LINE
  5
F0D
  8
3
 10
115.7145032040999
 20
30.16653403719988
 30
0.0
 11
115.4627216336999
 21
30.2529204176999
 31
0.0
  0
LINE
  5
F0E
  8
3
 10
113.1372783662999
 20
30.2529204176999
 30
0.0
 11
112.8854967959999
 21
30.16653403719988
 31
0.0
  0
LINE
  5
F0F
  8
3
 10
112.8854967959999
 20
28.64487373609995
 30
0.0
 11
113.1372783662999
 21
28.55848735549989
 31
0.0
  0
LINE
  5
F10
  8
3
 10
115.4627216336999
 20
28.55848735549989
 30
0.0
 11
115.7145032040999
 21
28.64487373609995
 31
0.0
  0
LINE
  5
F11
  8
3
 10
111.8
 20
29.75359033259997
 30
0.0
 11
111.8
 21
29.67555078119995
 31
0.0
  0
LINE
  5
F12
  8
3
 10
116.8
 20
29.67555078119995
 30
0.0
 11
116.8
 21
29.75359033259997
 31
0.0
  0
LINE
  5
F13
  8
3
 10
115.7145032040999
 20
30.78426737780001
 30
0.0
 11
115.4627216336999
 21
30.87065375830002
 31
0.0
  0
LINE
  5
F14
  8
3
 10
113.1372783662999
 20
30.87065375830002
 30
0.0
 11
112.8854967959999
 21
30.78426737780001
 31
0.0
  0
LINE
  5
F15
  8
3
 10
113.0234939594
 20
29.21526018200007
 30
0.0
 11
113.1372783662999
 21
29.17622069610002
 31
0.0
  0
LINE
  5
F16
  8
3
 10
115.4627216336999
 20
29.17622069610002
 30
0.0
 11
115.5765060406
 21
29.21526018200007
 31
0.0
  0
ARC
  5
F2D
  8
SK1
 10
152.6
 20
-25.60000000000014
 30
0.0
 40
0.4000000000001322
 50
75.00000000001062
 51
119.9999999999964
  0
ARC
  5
F2E
  8
SK1
 10
152.6
 20
25.59999999999991
 30
0.0
 40
0.4000000000002086
 50
240.0000000000006
 51
284.9999999999865
  0
ARC
  5
F2F
  8
SK1
 10
173.9999999999998
 20
-23.40000000000009
 30
0.0
 40
2.0
 50
270.0
 51
0.0
  0
ARC
  5
F30
  8
SK1
 10
173.9999999999998
 20
23.39999999999986
 30
0.0
 40
2.0
 50
0.0
 51
90.0
  0
LINE
  5
F31
  8
SK1
 10
153.3990711605998
 20
-25.40000000000009
 30
0.0
 11
173.9999999999998
 21
-25.40000000000009
 31
0.0
  0
LINE
  5
F32
  8
SK1
 10
173.9999999999998
 20
25.39999999999986
 30
0.0
 11
153.3990711605998
 21
25.39999999999986
 31
0.0
  0
LINE
  5
F33
  8
SK1
 10
153.3990711605998
 20
25.39999999999986
 30
0.0
 11
152.703527618
 21
25.21362966950005
 31
0.0
  0
LINE
  5
F34
  8
SK1
 10
152.703527618
 20
-25.21362966940001
 30
0.0
 11
153.3990711605998
 21
-25.40000000000009
 31
0.0
  0
LINE
  5
F37
  8
SK1
 10
189.7379999999999
 20
31.75
 30
0.0
 11
178.562
 21
31.75
 31
0.0
  0
LINE
  5
F38
  8
SK1
 10
178.562
 20
-31.75
 30
0.0
 11
189.7379999999999
 21
-31.75
 31
0.0
  0
LINE
  5
F39
  8
SK1
 10
178.562
 20
31.75
 30
0.0
 11
177.8
 21
30.98800000000006
 31
0.0
  0
LINE
  5
F3A
  8
SK1
 10
177.8
 20
-30.98800000000006
 30
0.0
 11
178.562
 21
-31.75
 31
0.0
  0
LINE
  5
F3B
  8
SK1
 10
189.7379999999999
 20
-31.75
 30
0.0
 11
190.4999999999998
 21
-30.98800000000006
 31
0.0
  0
LINE
  5
F3C
  8
SK1
 10
190.4999999999998
 20
30.98800000000006
 30
0.0
 11
189.7379999999999
 21
31.75
 31
0.0
  0
ARC
  5
F3D
  8
SK1
 10
177.0125999999998
 20
13.48739999999998
 30
0.0
 40
0.7874000000001615
 50
270.0
 51
0.0
  0
ARC
  5
F3E
  8
SK1
 10
177.0125999999998
 20
-13.48739999999998
 30
0.0
 40
0.7874000000001615
 50
0.0
 51
90.0
  0
LINE
  5
F3F
  8
SK1
 10
177.0125999999998
 20
12.70000000000005
 30
0.0
 11
175.9999999999998
 21
12.70000000000005
 31
0.0
  0
LINE
  5
F40
  8
SK1
 10
175.9999999999998
 20
-12.70000000000005
 30
0.0
 11
177.0125999999998
 21
-12.70000000000005
 31
0.0
  0
LINE
  5
F41
  8
SK1
 10
152.4285749996998
 20
50.80380999999988
 30
0.0
 11
152.3999999999999
 21
50.80380999999988
 31
0.0
  0
LINE
  5
F42
  8
SK1
 10
152.3999999999999
 20
31.74619000000007
 30
0.0
 11
152.4285749996998
 21
31.74619000000007
 31
0.0
  0
LINE
  5
F43
  8
SK1
 10
152.4285749996998
 20
-31.74619000000007
 30
0.0
 11
152.3999999999999
 21
-31.74619000000007
 31
0.0
  0
LINE
  5
F44
  8
SK1
 10
152.3999999999999
 20
-50.80381000000011
 30
0.0
 11
152.4285749996998
 21
-50.80381000000011
 31
0.0
  0
LINE
  5
F6A
  8
SK1
 10
175.9999999999998
 20
0.0
 30
0.0
 11
175.9999999999998
 21
23.39999999999986
 31
0.0
  0
LINE
  5
F6B
  8
SK1
 10
175.9999999999998
 20
-23.40000000000009
 30
0.0
 11
175.9999999999998
 21
0.0
 31
0.0
  0
LINE
  5
F6C
  8
SK1
 10
153.3990711605998
 20
0.0
 30
0.0
 11
153.3990711605998
 21
25.39999999999986
 31
0.0
  0
LINE
  5
F6D
  8
SK1
 10
153.3990711605998
 20
-25.40000000000009
 30
0.0
 11
153.3990711605998
 21
0.0
 31
0.0
  0
LINE
  5
F6F
  8
SK1
 10
189.7379999999999
 20
31.75
 30
0.0
 11
189.7379999999999
 21
-31.75
 31
0.0
  0
LINE
  5
F70
  8
SK1
 10
178.562
 20
31.75
 30
0.0
 11
178.562
 21
-31.75
 31
0.0
  0
LINE
  5
F71
  8
SK1
 10
177.8
 20
30.98800000000006
 30
0.0
 11
177.8
 21
-30.98800000000006
 31
0.0
  0
LINE
  5
F72
  8
SK1
 10
190.4999999999998
 20
30.98800000000006
 30
0.0
 11
190.4999999999998
 21
-30.98800000000006
 31
0.0
  0
LINE
  5
F73
  8
SK1
 10
162.052
 20
50.79999999999995
 30
0.0
 11
152.3999999999999
 21
50.79999999999995
 31
0.0
  0
LINE
  5
F74
  8
SK1
 10
162.052
 20
50.79999999999995
 30
0.0
 11
162.052
 21
31.75
 31
0.0
  0
LINE
  5
F75
  8
SK1
 10
162.052
 20
31.75
 30
0.0
 11
152.3999999999999
 21
31.75
 31
0.0
  0
LINE
  5
F76
  8
SK1
 10
162.052
 20
-31.75
 30
0.0
 11
152.3999999999999
 21
-31.75
 31
0.0
  0
LINE
  5
F77
  8
SK1
 10
162.052
 20
-31.75
 30
0.0
 11
162.052
 21
-50.79999999999995
 31
0.0
  0
LINE
  5
F78
  8
SK1
 10
162.052
 20
-50.79999999999995
 30
0.0
 11
152.3999999999999
 21
-50.79999999999995
 31
0.0
  0
LINE
  5
F8C
  8
SK3
 10
175.1339744939999
 20
-13.25
 30
0.0
 11
175.1339744939999
 21
13.25
 31
0.0
  0
LINE
  5
F8D
  8
SK3
 10
172.9999999999998
 20
13.25
 30
0.0
 11
172.9999999999998
 21
-13.25
 31
0.0
  0
LINE
  5
F98
  8
SK3
 10
172.8043660521999
 20
11.90499993899994
 30
0.0
 11
172.8043660521999
 21
-11.90499993899994
 31
0.0
  0
LINE
  5
FB5
  8
SK3
 10
180.975
 20
0.0
 30
0.0
 11
190.4999999999998
 21
0.0
 31
0.0
  0
LINE
  5
FB6
  8
SK3
 10
180.975
 20
3.225799999999936
 30
0.0
 11
180.975
 21
0.0
 31
0.0
  0
LINE
  5
FB7
  8
SK3
 10
180.975
 20
0.0
 30
0.0
 11
180.975
 21
-3.225799999999936
 31
0.0
  0
LINE
  5
FB8
  8
SK3
 10
180.34
 20
6.451599999999871
 30
0.0
 11
180.34
 21
-6.451600000000099
 31
0.0
  0
LINE
  5
FB9
  8
SK3
 10
180.975
 20
-3.225799999999936
 30
0.0
 11
180.975
 21
-6.451600000000099
 31
0.0
  0
LINE
  5
FBA
  8
SK3
 10
180.975
 20
6.451599999999871
 30
0.0
 11
180.975
 21
3.225799999999936
 31
0.0
  0
LINE
  5
FBB
  8
SK3
 10
180.975
 20
6.451599999999871
 30
0.0
 11
190.4999999999998
 21
6.451599999999871
 31
0.0
  0
LINE
  5
FBC
  8
SK3
 10
180.975
 20
-6.451600000000099
 30
0.0
 11
190.4999999999998
 21
-6.451600000000099
 31
0.0
  0
LINE
  5
1023
  8
SK3
 10
175.9999999999998
 20
2.5
 30
0.0
 11
152.3999999999999
 21
2.5
 31
0.0
  0
LINE
  5
1024
  8
SK3
 10
152.3999999999999
 20
-2.5
 30
0.0
 11
175.9999999999998
 21
-2.5
 31
0.0
  0
LINE
  5
1029
  8
SK3
 10
175.9999999999998
 20
13.75000005900006
 30
0.0
 11
175.1339744939999
 21
13.25
 31
0.0
  0
LINE
  5
102A
  8
SK3
 10
175.1339744939999
 20
-13.25
 30
0.0
 11
175.9999999999998
 21
-13.75000005900006
 31
0.0
  0
LINE
  5
102B
  8
SK3
 10
175.1339744939999
 20
13.25
 30
0.0
 11
172.9999999999998
 21
13.25
 31
0.0
  0
LINE
  5
102C
  8
SK3
 10
172.9999999999998
 20
-13.25
 30
0.0
 11
175.1339744939999
 21
-13.25
 31
0.0
  0
LINE
  5
1031
  8
SK3
 10
172.9999999999998
 20
12.01794925149989
 30
0.0
 11
172.8043660521999
 21
11.90499993899994
 31
0.0
  0
LINE
  5
1032
  8
SK3
 10
172.8043660521999
 20
-11.90499993899994
 30
0.0
 11
172.9999999999998
 21
-12.01794925140007
 31
0.0
  0
LINE
  5
1033
  8
SK3
 10
172.8043660521999
 20
11.90499993899994
 30
0.0
 11
152.3999999999999
 21
11.90499993899994
 31
0.0
  0
LINE
  5
1034
  8
SK3
 10
152.3999999999999
 20
-11.90499993899994
 30
0.0
 11
172.8043660521999
 21
-11.90499993899994
 31
0.0
  0
LINE
  5
104D
  8
SK3
 10
175.9999999999998
 20
-13.0884572681
 30
0.0
 11
152.3999999999999
 21
-13.0884572681
 31
0.0
  0
LINE
  5
104E
  8
SK3
 10
152.3999999999999
 20
-18.0884572681
 30
0.0
 11
175.9999999999998
 21
-18.0884572681
 31
0.0
  0
LINE
  5
104F
  8
SK3
 10
175.9999999999998
 20
18.08845726820005
 30
0.0
 11
152.3999999999999
 21
18.08845726820005
 31
0.0
  0
LINE
  5
1050
  8
SK3
 10
152.3999999999999
 20
13.08845726820005
 30
0.0
 11
175.9999999999998
 21
13.08845726820005
 31
0.0
  0
LINE
  5
1059
  8
SK3
 10
175.9999999999998
 20
12.70000000000005
 30
0.0
 11
152.3999999999999
 21
12.70000000000005
 31
0.0
  0
LINE
  5
105A
  8
SK3
 10
152.3999999999999
 20
-12.70000000000005
 30
0.0
 11
175.9999999999998
 21
-12.70000000000005
 31
0.0
  0
LINE
  5
105D
  8
SK3
 10
180.34
 20
6.451599999999871
 30
0.0
 11
176.4634876302999
 21
0.0
 31
0.0
  0
LINE
  5
105E
  8
SK3
 10
176.4634876302999
 20
0.0
 30
0.0
 11
180.34
 21
-6.451600000000099
 31
0.0
  0
LINE
  5
105F
  8
SK3
 10
180.975
 20
6.451599999999871
 30
0.0
 11
180.34
 21
6.451599999999871
 31
0.0
  0
LINE
  5
1060
  8
SK3
 10
180.34
 20
-6.451600000000099
 30
0.0
 11
180.975
 21
-6.451600000000099
 31
0.0
  0
LINE
  5
10D6
  8
3
 10
105.3639890713999
 20
10.84649999999987
 30
0.0
 11
0.0
 21
10.84649999999988
 31
0.0
  0
LINE
  5
10D7
  8
3
 10
105.3639890713999
 20
-10.84650000000011
 30
0.0
 11
0.0
 21
-10.84650000000011
 31
0.0
  0
ARC
  5
10DA
  8
NOCUT
 10
124.8999999999999
 20
60.89999999999986
 30
0.0
 40
1.000000000000227
 50
90.0
 51
180.0
  0
LINE
  5
10DC
  8
NOCUT
 10
151.3999999999999
 20
61.89999999999986
 30
0.0
 11
124.8999999999999
 21
61.89999999999986
 31
0.0
  0
ARC
  5
10DD
  8
NOCUT
 10
151.3999999999999
 20
60.89999999999986
 30
0.0
 40
1.0
 50
0.0
 51
90.0
  0
LINE
  5
10DE
  8
NOCUT
 10
152.3999999999999
 20
0.0
 30
0.0
 11
152.3999999999999
 21
60.89999999999986
 31
0.0
  0
ARC
  5
10DF
  8
NOCUT
 10
121.8999999999999
 20
36.92499999999995
 30
0.0
 40
2.0
 50
270.0
 51
0.0
  0
LINE
  5
10E2
  8
NOCUT
 10
123.8999999999997
 20
60.89999999999986
 30
0.0
 11
123.8999999999999
 21
36.92499999999998
 31
0.0
  0
LINE
  5
10EC
  8
SK4
 10
152.3999999999999
 20
0.0
 30
0.0
 11
190.4999999999998
 21
0.0
 31
0.0
  0
DIMENSION
  5
10EE
  8
SK2
  2
*D6
 10
231.5956954527427
 20
-61.9000000000001
 30
0.0
 11
229.7206954527427
 21
-0.0000000000001208
 31
0.0
 70
    32
  3
ISO-25
 13
151.3999999999999
 23
61.89999999999986
 33
0.0
 14
151.3999999999999
 24
-61.90000000000009
 34
0.0
 50
90.0
1001
ACAD
1000
DSTYLE
1002
{
1070
   287
1070
     5
1070
   271
1070
     3
1070
   272
1070
     3
1070
   279
1070
     2
1002
}
  0
DIMENSION
  5
10FD
  8
SK2
  2
*D7
 10
211.5242581438742
 20
-25.40000000000009
 30
0.0
 11
209.6492581438742
 21
-0.0000000000001172
 31
0.0
 70
    32
  3
ISO-25
 13
173.9999999999998
 23
25.39999999999986
 33
0.0
 14
173.9999999999998
 24
-25.40000000000009
 34
0.0
 50
90.0
1001
ACAD
1000
DSTYLE
1002
{
1070
   287
1070
     5
1070
   271
1070
     3
1070
   272
1070
     3
1070
   279
1070
     2
1002
}
  0
ENDSEC
  0
EOF
