  0
SECTION
  2
HEADER
  9
$ACADVER
  1
AC1009
  9
$DWGCODEPAGE
  3
ansi_1251
  9
$INSBASE
 10
0.0
 20
0.0
 30
0.0
  9
$EXTMIN
 10
-68.25000000000001
 20
-30.5409271246
 30
0.0
  9
$EXTMAX
 10
88.90000000000003
 20
30.50275418977125
 30
0.0
  9
$LIMMIN
 10
0.0
 20
0.0
  9
$LIMMAX
 10
420.0
 20
297.0
  9
$ORTHOMODE
 70
     1
  9
$REGENMODE
 70
     1
  9
$FILLMODE
 70
     1
  9
$QTEXTMODE
 70
     0
  9
$MIRRTEXT
 70
     0
  9
$DRAGMODE
 70
     2
  9
$LTSCALE
 40
1.0
  9
$OSMODE
 70
   279
  9
$ATTMODE
 70
     1
  9
$TEXTSIZE
 40
2.5
  9
$TRACEWID
 40
1.0
  9
$TEXTSTYLE
  7
STANDARD
  9
$CLAYER
  8
SK2
  9
$CELTYPE
  6
BYLAYER
  9
$CECOLOR
 62
   256
  9
$DIMSCALE
 40
1.0
  9
$DIMASZ
 40
2.5
  9
$DIMEXO
 40
0.625
  9
$DIMDLI
 40
3.75
  9
$DIMRND
 40
0.0
  9
$DIMDLE
 40
0.0
  9
$DIMEXE
 40
1.25
  9
$DIMTP
 40
0.0
  9
$DIMTM
 40
0.0
  9
$DIMTXT
 40
2.5
  9
$DIMCEN
 40
2.5
  9
$DIMTSZ
 40
0.0
  9
$DIMTOL
 70
     0
  9
$DIMLIM
 70
     0
  9
$DIMTIH
 70
     0
  9
$DIMTOH
 70
     0
  9
$DIMSE1
 70
     0
  9
$DIMSE2
 70
     0
  9
$DIMTAD
 70
     1
  9
$DIMZIN
 70
     8
  9
$DIMBLK
  1

  9
$DIMASO
 70
     1
  9
$DIMSHO
 70
     1
  9
$DIMPOST
  1

  9
$DIMAPOST
  1

  9
$DIMALT
 70
     0
  9
$DIMALTD
 70
     3
  9
$DIMALTF
 40
0.03937007874016
  9
$DIMLFAC
 40
1.0
  9
$DIMTOFL
 70
     1
  9
$DIMTVP
 40
0.0
  9
$DIMTIX
 70
     0
  9
$DIMSOXD
 70
     0
  9
$DIMSAH
 70
     0
  9
$DIMBLK1
  1

  9
$DIMBLK2
  1

  9
$DIMSTYLE
  2
ISO-25
  9
$DIMCLRD
 70
     0
  9
$DIMCLRE
 70
     0
  9
$DIMCLRT
 70
     0
  9
$DIMTFAC
 40
1.0
  9
$DIMGAP
 40
0.625
  9
$LUNITS
 70
     2
  9
$LUPREC
 70
     3
  9
$SKETCHINC
 40
1.0
  9
$FILLETRAD
 40
10.0
  9
$AUNITS
 70
     0
  9
$AUPREC
 70
     0
  9
$MENU
  1
.
  9
$ELEVATION
 40
0.0
  9
$PELEVATION
 40
0.0
  9
$THICKNESS
 40
0.0
  9
$LIMCHECK
 70
     0
  9
$CHAMFERA
 40
10.0
  9
$CHAMFERB
 40
10.0
  9
$SKPOLY
 70
     0
  9
$TDCREATE
 40
2455022.429026158
  9
$TDUPDATE
 40
2458659.538982558
  9
$TDINDWG
 40
0.1506771181
  9
$TDUSRTIMER
 40
2458702.795585336
  9
$USRTIMER
 70
     1
  9
$ANGBASE
 50
0.0
  9
$ANGDIR
 70
     0
  9
$PDMODE
 70
     0
  9
$PDSIZE
 40
0.0
  9
$PLINEWID
 40
0.0
  9
$COORDS
 70
     1
  9
$SPLFRAME
 70
     0
  9
$SPLINETYPE
 70
     6
  9
$SPLINESEGS
 70
     8
  9
$ATTDIA
 70
     0
  9
$ATTREQ
 70
     1
  9
$HANDLING
 70
     1
  9
$HANDSEED
  5
1632
  9
$SURFTAB1
 70
     6
  9
$SURFTAB2
 70
     6
  9
$SURFTYPE
 70
     6
  9
$SURFU
 70
     6
  9
$SURFV
 70
     6
  9
$UCSNAME
  2

  9
$UCSORG
 10
0.0
 20
0.0
 30
0.0
  9
$UCSXDIR
 10
1.0
 20
0.0
 30
0.0
  9
$UCSYDIR
 10
0.0
 20
1.0
 30
0.0
  9
$PUCSNAME
  2

  9
$PUCSORG
 10
0.0
 20
0.0
 30
0.0
  9
$PUCSXDIR
 10
1.0
 20
0.0
 30
0.0
  9
$PUCSYDIR
 10
0.0
 20
1.0
 30
0.0
  9
$USERI1
 70
     0
  9
$USERI2
 70
     0
  9
$USERI3
 70
     0
  9
$USERI4
 70
     0
  9
$USERI5
 70
     0
  9
$USERR1
 40
0.0
  9
$USERR2
 40
0.0
  9
$USERR3
 40
0.0
  9
$USERR4
 40
0.0
  9
$USERR5
 40
0.0
  9
$WORLDVIEW
 70
     1
  9
$SHADEDGE
 70
     3
  9
$SHADEDIF
 70
    70
  9
$TILEMODE
 70
     1
  9
$MAXACTVP
 70
    64
  9
$PLIMCHECK
 70
     0
  9
$PEXTMIN
 10
1.000000000000000E+20
 20
1.000000000000000E+20
 30
1.000000000000000E+20
  9
$PEXTMAX
 10
-1.000000000000000E+20
 20
-1.000000000000000E+20
 30
-1.000000000000000E+20
  9
$PLIMMIN
 10
0.0
 20
0.0
  9
$PLIMMAX
 10
420.0
 20
297.0
  9
$UNITMODE
 70
     0
  9
$VISRETAIN
 70
     1
  9
$PLINEGEN
 70
     0
  9
$PSLTSCALE
 70
     1
  0
ENDSEC
  0
SECTION
  2
TABLES
  0
TABLE
  2
VPORT
 70
     1
  0
VPORT
  2
*ACTIVE
 70
     0
 10
0.0
 20
0.0
 11
1.0
 21
1.0
 12
40.22284772637133
 22
2.364054822916685
 13
0.0
 23
0.0
 14
10.0
 24
10.0
 15
10.0
 25
10.0
 16
0.0
 26
0.0
 36
1.0
 17
0.0
 27
0.0
 37
0.0
 40
217.0626875538053
 41
1.332880434782609
 42
50.0
 43
0.0
 44
0.0
 50
0.0
 51
0.0
 71
    16
 72
  1000
 73
     1
 74
     3
 75
     0
 76
     0
 77
     0
 78
     0
  0
ENDTAB
  0
TABLE
  2
LTYPE
 70
     6
  0
LTYPE
  2
CONTINUOUS
 70
     0
  3
Solid line
 72
    65
 73
     0
 40
0.0
  0
LTYPE
  2
CENTER
 70
     0
  3
 Center _____  _  _____  _  _____  _  _____  _ 
 72
    65
 73
     4
 40
50.8
 49
31.75
 49
-6.35
 49
6.35
 49
-6.35
  0
LTYPE
  2
DASHED
 70
     0
  3
Dashed __  __  __  __  __  __  __  __  __  __  
 72
    65
 73
     2
 40
19.05
 49
12.7
 49
-6.35
  0
LTYPE
  2
HIDDEN
 70
     0
  3
Hidden __ __ __ __ __ __ __ __ __ __ __ __ __ __
 72
    65
 73
     2
 40
1.905
 49
1.27
 49
-0.635
  0
LTYPE
  2
CENTERX2
 70
     0
  3
Center (2x) ________  __  ________  __  _____
 72
    65
 73
     4
 40
20.32
 49
12.7
 49
-2.54
 49
2.54
 49
-2.54
  0
LTYPE
  2
PHANTOM
 70
     0
  3
Phantom ______  __  __  ______  __  __  ______
 72
    65
 73
     6
 40
12.7
 49
6.35
 49
-1.27
 49
1.27
 49
-1.27
 49
1.27
 49
-1.27
  0
ENDTAB
  0
TABLE
  2
LAYER
 70
    26
  0
LAYER
  2
0
 70
     0
 62
     7
  6
CONTINUOUS
  0
LAYER
  2
1
 70
     0
 62
     4
  6
CONTINUOUS
  0
LAYER
  2
2
 70
     0
 62
     7
  6
CONTINUOUS
  0
LAYER
  2
3
 70
     0
 62
     1
  6
DASHED
  0
LAYER
  2
4
 70
     0
 62
     2
  6
CENTER
  0
LAYER
  2
6
 70
     0
 62
     5
  6
CONTINUOUS
  0
LAYER
  2
7
 70
     0
 62
     5
  6
CONTINUOUS
  0
LAYER
  2
11
 70
     0
 62
     4
  6
CONTINUOUS
  0
LAYER
  2
SK1
 70
     0
 62
     4
  6
CONTINUOUS
  0
LAYER
  2
SK2
 70
     0
 62
     7
  6
CONTINUOUS
  0
LAYER
  2
SK3
 70
     0
 62
     1
  6
DASHED
  0
LAYER
  2
SK4
 70
     0
 62
     2
  6
CENTER
  0
LAYER
  2
SK6
 70
     0
 62
     5
  6
CONTINUOUS
  0
LAYER
  2
SK7
 70
     0
 62
     5
  6
CONTINUOUS
  0
LAYER
  2
SK11
 70
     0
 62
     4
  6
CONTINUOUS
  0
LAYER
  2
CUT
 70
     0
 62
     1
  6
CONTINUOUS
  0
LAYER
  2
NOCUT
 70
     0
 62
    -7
  6
CONTINUOUS
  0
LAYER
  2
SKVIEW1
 70
     0
 62
     4
  6
CONTINUOUS
  0
LAYER
  2
SKVIEW2
 70
     0
 62
     7
  6
CONTINUOUS
  0
LAYER
  2
SKVIEW3
 70
     0
 62
     1
  6
DASHED
  0
LAYER
  2
SKVIEW4
 70
     0
 62
     2
  6
CENTER
  0
LAYER
  2
SKVIEW6
 70
     0
 62
     5
  6
CONTINUOUS
  0
LAYER
  2
SKVIEW7
 70
     0
 62
     5
  6
CONTINUOUS
  0
LAYER
  2
SKVIEW11
 70
     0
 62
     4
  6
CONTINUOUS
  0
LAYER
  2
INFTOTAL
 70
     0
 62
     9
  6
CONTINUOUS
  0
LAYER
  2
DEFPOINTS
 70
     0
 62
     7
  6
CONTINUOUS
  0
ENDTAB
  0
TABLE
  2
STYLE
 70
     1
  0
STYLE
  2
STANDARD
 70
     0
 40
0.0
 41
1.0
 50
0.0
 71
     0
 42
2.5
  3
txt
  4

  0
ENDTAB
  0
TABLE
  2
VIEW
 70
     0
  0
ENDTAB
  0
TABLE
  2
UCS
 70
     0
  0
ENDTAB
  0
TABLE
  2
APPID
 70
     2
  0
APPID
  2
ACAD
 70
     0
  0
APPID
  2
ACAECLAYERSTANDARD
 70
     0
  0
ENDTAB
  0
TABLE
  2
DIMSTYLE
 70
     1
  0
DIMSTYLE
  2
ISO-25
 70
     0
  3

  4

  5

  6

  7

 40
1.0
 41
2.5
 42
0.625
 43
3.75
 44
1.25
 45
0.0
 46
0.0
 47
0.0
 48
0.0
140
2.5
141
2.5
142
0.0
143
0.03937007874016
144
1.0
145
0.0
146
1.0
147
0.625
 71
     0
 72
     0
 73
     0
 74
     0
 75
     0
 76
     0
 77
     1
 78
     8
170
     0
171
     3
172
     1
173
     0
174
     0
175
     0
176
     0
177
     0
178
     0
  0
ENDTAB
  0
ENDSEC
  0
SECTION
  2
BLOCKS
  0
BLOCK
  8
0
  2
$MODEL_SPACE
 70
     0
 10
0.0
 20
0.0
 30
0.0
  3
$MODEL_SPACE
  1

  0
ENDBLK
  5
21
  8
0
  0
BLOCK
 67
     1
  8
0
  2
$PAPER_SPACE
 70
     0
 10
0.0
 20
0.0
 30
0.0
  3
$PAPER_SPACE
  1

  0
ENDBLK
  5
1D
 67
     1
  8
0
  0
BLOCK
  8
0
  2
*U0
 70
     1
 10
0.0
 20
0.0
 30
0.0
  3
*U0
  1

  0
TEXT
  5
77E
  8
SK6
 10
-50.0
 20
78.25
 30
0.0
 40
3.5
  1
BIG KAISER
 41
0.85
  0
TEXT
  5
781
  8
SK6
 10
-50.0
 20
73.0
 30
0.0
 40
3.5
  1
BCV50-SMC2.000-4
 41
0.85
  0
ENDBLK
  5
782
  8
0
  0
BLOCK
  8
0
  2
_FILLED
 70
     0
 10
0.0
 20
0.0
 30
0.0
  3
_FILLED
  1

  0
SOLID
  5
789
  8
0
  6
BYBLOCK
 62
     0
 10
0.0
 20
0.0
 30
0.0
 11
-1.0
 21
0.2142857143
 31
0.0
 12
-1.0
 22
-0.2142857143
 32
0.0
 13
-1.0
 23
-0.2142857143
 33
0.0
  0
ENDBLK
  5
78A
  8
0
  6
BYBLOCK
 62
     0
  0
BLOCK
  8
0
  2
*U2
 70
     1
 10
0.0
 20
0.0
 30
0.0
  3
*U2
  1

  0
TEXT
  5
790
  8
SK6
 10
-85.96178542556666
 20
-67.06748653279999
 30
0.0
 40
3.5
  1
BCV50
 41
0.85
  0
ENDBLK
  5
791
  8
0
  0
BLOCK
  8
0
  2
*D5
 70
     1
 10
0.0
 20
0.0
 30
0.0
  3
*D5
  1

  0
LINE
  5
808
  8
SK2
 62
     0
 10
0.0
 20
35.54999999999998
 30
0.0
 11
0.0
 21
72.48091717228411
 31
0.0
  0
LINE
  5
809
  8
SK2
 62
     0
 10
101.5999999999999
 20
61.52499999999986
 30
0.0
 11
101.5999999999999
 21
72.48091717228411
 31
0.0
  0
LINE
  5
80A
  8
SK2
 62
     0
 10
2.5
 20
71.23091717228411
 30
0.0
 11
99.09999999999991
 21
71.23091717228411
 31
0.0
  0
SOLID
  5
80B
  8
SK2
 62
     0
 10
2.5
 20
71.64758383895078
 30
0.0
 11
2.5
 21
70.81425050561744
 31
0.0
 12
0.0
 22
71.23091717228411
 32
0.0
 13
0.0
 23
71.23091717228411
 33
0.0
  0
SOLID
  5
80C
  8
SK2
 62
     0
 10
99.09999999999991
 20
70.81425050561744
 30
0.0
 11
99.09999999999991
 21
71.64758383895078
 31
0.0
 12
101.5999999999999
 22
71.23091717228411
 32
0.0
 13
101.5999999999999
 23
71.23091717228411
 33
0.0
  0
TEXT
  5
80D
  8
SK2
  6
CONTINUOUS
 62
     0
 10
46.84166666666662
 20
71.85591717228411
 30
0.0
 40
2.5
  1
101.6
  0
POINT
  5
80E
  8
DEFPOINTS
 62
     0
 10
0.0
 20
34.92499999999998
 30
0.0
  0
POINT
  5
80F
  8
DEFPOINTS
 62
     0
 10
101.5999999999999
 20
60.89999999999986
 30
0.0
  0
POINT
  5
810
  8
DEFPOINTS
 62
     0
 10
101.5999999999999
 20
71.23091717228411
 30
0.0
  0
ENDBLK
  5
812
  8
0
  0
BLOCK
  8
0
  2
*D6
 70
     1
 10
0.0
 20
0.0
 30
0.0
  3
*D6
  1

  0
LINE
  5
10F2
  8
SK2
 62
     0
 10
101.2249999999999
 20
61.89999999999986
 30
0.0
 11
182.0456954527427
 21
61.89999999999986
 31
0.0
  0
LINE
  5
10F3
  8
SK2
 62
     0
 10
101.2249999999999
 20
-61.90000000000009
 30
0.0
 11
182.0456954527427
 21
-61.9000000000001
 31
0.0
  0
LINE
  5
10F4
  8
SK2
 62
     0
 10
180.7956954527427
 20
59.39999999999986
 30
0.0
 11
180.7956954527427
 21
-59.4000000000001
 31
0.0
  0
SOLID
  5
10F5
  8
SK2
 62
     0
 10
181.2123621194093
 20
59.39999999999986
 30
0.0
 11
180.379028786076
 21
59.39999999999986
 31
0.0
 12
180.7956954527427
 22
61.89999999999986
 32
0.0
 13
180.7956954527427
 23
61.89999999999986
 33
0.0
  0
SOLID
  5
10F6
  8
SK2
 62
     0
 10
180.379028786076
 20
-59.4000000000001
 30
0.0
 11
181.2123621194093
 21
-59.4000000000001
 31
0.0
 12
180.7956954527427
 22
-61.9000000000001
 32
0.0
 13
180.7956954527427
 23
-61.9000000000001
 33
0.0
  0
TEXT
  5
10F7
  8
SK2
  6
CONTINUOUS
 62
     0
 10
180.1706954527427
 20
-4.583333333333456
 30
0.0
 40
2.5
  1
123.8
 50
90.0
  0
POINT
  5
10F8
  8
DEFPOINTS
 62
     0
 10
100.5999999999999
 20
61.89999999999986
 30
0.0
  0
POINT
  5
10F9
  8
DEFPOINTS
 62
     0
 10
100.5999999999999
 20
-61.90000000000009
 30
0.0
  0
POINT
  5
10FA
  8
DEFPOINTS
 62
     0
 10
180.7956954527427
 20
-61.9000000000001
 30
0.0
  0
ENDBLK
  5
10FC
  8
0
  0
BLOCK
  8
0
  2
*D7
 70
     1
 10
0.0
 20
0.0
 30
0.0
  3
*D7
  1

  0
LINE
  5
1101
  8
SK2
 62
     0
 10
123.8249999999998
 20
25.39999999999986
 30
0.0
 11
161.9742581438742
 21
25.39999999999986
 31
0.0
  0
LINE
  5
1102
  8
SK2
 62
     0
 10
123.8249999999998
 20
-25.40000000000009
 30
0.0
 11
161.9742581438742
 21
-25.40000000000009
 31
0.0
  0
LINE
  5
1103
  8
SK2
 62
     0
 10
160.7242581438742
 20
22.89999999999986
 30
0.0
 11
160.7242581438742
 21
-22.90000000000009
 31
0.0
  0
SOLID
  5
1104
  8
SK2
 62
     0
 10
161.1409248105409
 20
22.89999999999986
 30
0.0
 11
160.3075914772076
 21
22.89999999999986
 31
0.0
 12
160.7242581438742
 22
25.39999999999986
 32
0.0
 13
160.7242581438742
 23
25.39999999999986
 33
0.0
  0
SOLID
  5
1105
  8
SK2
 62
     0
 10
160.3075914772076
 20
-22.90000000000009
 30
0.0
 11
161.1409248105409
 21
-22.90000000000009
 31
0.0
 12
160.7242581438742
 22
-25.40000000000009
 32
0.0
 13
160.7242581438742
 23
-25.40000000000009
 33
0.0
  0
TEXT
  5
1106
  8
SK2
  6
CONTINUOUS
 62
     0
 10
160.0992581438742
 20
-3.541666666666771
 30
0.0
 40
2.5
  1
50.8
 50
90.0
  0
POINT
  5
1107
  8
DEFPOINTS
 62
     0
 10
123.1999999999998
 20
25.39999999999986
 30
0.0
  0
POINT
  5
1108
  8
DEFPOINTS
 62
     0
 10
123.1999999999998
 20
-25.40000000000009
 30
0.0
  0
POINT
  5
1109
  8
DEFPOINTS
 62
     0
 10
160.7242581438742
 20
-25.40000000000009
 30
0.0
  0
ENDBLK
  5
110B
  8
0
  0
ENDSEC
  0
SECTION
  2
ENTITIES
  0
LINE
  5
685
  8
SK1
 10
0.0
 20
34.92499999999998
 30
0.0
 11
-99.6319088344
 21
20.3952133832
 31
0.0
  0
LINE
  5
686
  8
SK1
 10
-99.6319088344
 20
-20.3952133832
 30
0.0
 11
0.0
 21
-34.92500000000001
 31
0.0
  0
ARC
  5
68D
  8
SK1
 10
-99.3
 20
18.1192879614
 30
0.0
 40
2.299999999999995
 50
98.29722000000018
 51
180.0
  0
ARC
  5
68E
  8
SK1
 10
-99.3
 20
-18.1192879614
 30
0.0
 40
2.299999999999995
 50
180.0
 51
261.7027799999998
  0
LINE
  5
6F6
  8
SK1
 10
-101.6
 20
0.0
 30
0.0
 11
-101.6
 21
-18.1192879614
 31
0.0
  0
LINE
  5
6F7
  8
SK1
 10
-101.6
 20
18.1192879614
 30
0.0
 11
-101.6
 21
0.0
 31
0.0
  0
LINE
  5
71A
  8
SK3
 10
-99.5215390309
 20
-13.10000000000002
 30
0.0
 11
-99.5215390309
 21
13.09999999999999
 31
0.0
  0
LINE
  5
71B
  8
SK3
 10
-95.25
 20
-13.10000000000002
 30
0.0
 11
-95.25
 21
13.09999999999999
 31
0.0
  0
LINE
  5
72A
  8
SK3
 10
-101.6
 20
-14.30000000000001
 30
0.0
 11
-99.5215390309
 21
-13.10000000000002
 31
0.0
  0
LINE
  5
72B
  8
SK3
 10
-99.5215390309
 20
13.09999999999999
 30
0.0
 11
-101.6
 21
14.3
 31
0.0
  0
LINE
  5
72C
  8
SK3
 10
-99.5215390309
 20
-13.10000000000002
 30
0.0
 11
-95.25
 21
-13.10000000000002
 31
0.0
  0
LINE
  5
72D
  8
SK3
 10
-95.25
 20
13.09999999999999
 30
0.0
 11
-99.5215390309
 21
13.09999999999999
 31
0.0
  0
LINE
  5
72E
  8
SK3
 10
-95.25
 20
-11.09980000000002
 30
0.0
 11
0.0
 21
-11.09980000000002
 31
0.0
  0
LINE
  5
72F
  8
SK3
 10
0.0
 20
11.09979999999999
 30
0.0
 11
-95.25
 21
11.09979999999999
 31
0.0
  0
LINE
  5
760
  8
SK3
 10
-57.1
 20
12.69999999999999
 30
0.0
 11
-95.25
 21
12.69999999999999
 31
0.0
  0
LINE
  5
761
  8
SK3
 10
-95.25
 20
-12.69999999999999
 30
0.0
 11
-57.1
 21
-12.69999999999999
 31
0.0
  0
LINE
  5
774
  8
SK3
 10
-57.1
 20
12.69999999999999
 30
0.0
 11
-57.1
 21
-12.69999999999999
 31
0.0
  0
LINE
  5
777
  8
SK4
 10
0.0
 20
0.0
 30
0.0
 11
-101.6
 21
0.0
 31
0.0
  0
LINE
  5
779
  8
4
 10
0.0
 20
0.0
 30
0.0
 11
101.5999999999999
 21
0.0
 31
0.0
  0
INSERT
  5
77B
  8
SK6
  2
*U0
 10
-44.10380399683656
 20
-23.39313954296377
 30
0.0
  0
INSERT
  5
78D
  8
SK6
  2
*U2
 10
17.55665382414153
 20
-2.560320993650734
 30
0.0
  0
LINE
  5
793
  8
0
 10
3.0
 20
3.0
 30
0.0
 11
-3.0
 21
-3.0
 31
0.0
  0
LINE
  5
794
  8
0
 10
-3.0
 20
3.0
 30
0.0
 11
3.0
 21
-3.0
 31
0.0
  0
CIRCLE
  5
795
  8
0
 10
0.0
 20
0.0
 30
0.0
 40
2.5
  0
LINE
  5
796
  8
0
 10
104.5999999999999
 20
-3.0
 30
0.0
 11
98.59999999999991
 21
3.0
 31
0.0
  0
CIRCLE
  5
797
  8
0
 10
101.5999999999999
 20
0.0
 30
0.0
 40
2.5
  0
LINE
  5
798
  8
0
 10
98.59999999999991
 20
-3.0
 30
0.0
 11
104.5999999999999
 21
3.0
 31
0.0
  0
LINE
  5
799
  8
NOCUT
 10
0.7999999999999972
 20
34.62500000000001
 30
0.0
 11
0.2999999999999972
 21
34.62500000000001
 31
0.0
  0
LINE
  5
79C
  8
NOCUT
 10
0.2999999999999972
 20
34.62500000000001
 30
0.0
 11
0.0
 21
34.92499999999999
 31
0.0
  0
LINE
  5
79D
  8
NOCUT
 10
71.09999999999991
 20
34.92499999999995
 30
0.0
 11
20.05
 21
34.92499999999999
 31
0.0
  0
ARC
  5
79E
  8
NOCUT
 10
0.7999999999999972
 20
35.62500000000001
 30
0.0
 40
1.0
 50
270.0
 51
314.4270040008
  0
ARC
  5
79F
  8
NOCUT
 10
20.05
 20
35.92499999999999
 30
0.0
 40
1.0
 50
180.0
 51
270.0
  0
LINE
  5
7A0
  8
NOCUT
 10
12.55499999999999
 20
45.64499999999999
 30
0.0
 11
9.704999999999998
 21
45.64499999999999
 31
0.0
  0
ARC
  5
7A1
  8
NOCUT
 10
12.55499999999999
 20
46.14499999999999
 30
0.0
 40
0.5
 50
270.0
 51
0.0
  0
ARC
  5
7A2
  8
NOCUT
 10
9.704999999999998
 20
46.14499999999999
 30
0.0
 40
0.5
 50
180.0
 51
270.0
  0
ARC
  5
7A3
  8
NOCUT
 10
2.299999999999997
 20
48.4125
 30
0.0
 40
0.7999999999999972
 50
90.0
 51
180.0
  0
ARC
  5
7A4
  8
NOCUT
 10
18.24999999999999
 20
48.4125
 30
0.0
 40
0.799999999999983
 50
0.0
 51
90.0
  0
LINE
  5
7A5
  8
NOCUT
 10
9.204999999999998
 20
46.43919780459999
 30
0.0
 11
7.603833230999996
 21
49.21250000000001
 31
0.0
  0
LINE
  5
7A6
  8
NOCUT
 10
14.65616676910001
 20
49.21250000000001
 30
0.0
 11
13.05499999999999
 21
46.43919780459999
 31
0.0
  0
LINE
  5
7A7
  8
NOCUT
 10
18.24999999999999
 20
49.21250000000001
 30
0.0
 11
14.65616676910001
 21
49.21250000000001
 31
0.0
  0
LINE
  5
7A8
  8
NOCUT
 10
7.603833230999996
 20
49.21250000000001
 30
0.0
 11
2.299999999999997
 21
49.21250000000001
 31
0.0
  0
LINE
  5
7AC
  8
NOCUT
 10
1.5
 20
48.4125
 30
0.0
 11
1.499999999999929
 21
34.91085715714565
 31
0.0
  0
LINE
  5
7AD
  8
NOCUT
 10
19.04999999999997
 20
48.4125
 30
0.0
 11
19.05
 21
35.92499999999999
 31
0.0
  0
LINE
  5
7AE
  8
NOCUT
 10
9.204999999999998
 20
46.43919780459999
 30
0.0
 11
9.204999999999998
 21
46.14499999999999
 31
0.0
  0
LINE
  5
7AF
  8
NOCUT
 10
13.05499999999999
 20
46.43919780459999
 30
0.0
 11
13.05499999999999
 21
46.14499999999999
 31
0.0
  0
DIMENSION
  5
804
  8
SK2
  2
*D5
 10
101.5999999999999
 20
71.23091717228411
 30
0.0
 11
50.79999999999995
 21
73.10591717228411
 31
0.0
 70
    32
  3
ISO-25
 13
0.0
 23
34.92499999999998
 33
0.0
 14
101.5999999999999
 24
60.89999999999986
 34
0.0
1001
ACAD
1000
DSTYLE
1002
{
1070
   287
1070
     5
1070
   271
1070
     3
1070
   272
1070
     3
1070
   279
1070
     2
1002
}
  0
LINE
  5
8BF
  8
NOCUT
 10
0.0
 20
34.92499999999999
 30
0.0
 11
0.0
 21
0.0
 31
0.0
  0
LINE
  5
8C0
  8
NOCUT
 10
0.0
 20
0.0
 30
0.0
 11
101.5999999999999
 21
0.0
 31
0.0
  0
INSERT
  5
A17
  8
SK6
  2
_FILLED
 10
-20.78186483605847
 20
-31.89428358495073
 30
0.0
 41
3.5
 42
3.5
 43
3.5
 50
52.86965044919886
  0
POLYLINE
  5
A18
  8
SK6
 66
     1
 10
0.0
 20
0.0
 30
0.0
  0
VERTEX
  5
110D
  8
SK6
 10
-22.89457117648658
 20
-34.68470862768434
 30
0.0
  0
VERTEX
  5
110E
  8
SK6
 10
-48.02596493475846
 20
-67.87780752645074
 30
0.0
  0
VERTEX
  5
110F
  8
SK6
 10
-49.90096493475846
 20
-66.12780752645074
 30
0.0
  0
VERTEX
  5
1110
  8
SK6
 10
-53.40096493475846
 20
-66.12780752645074
 30
0.0
  0
SEQEND
  5
1631
  8
SK6
  0
ARC
  5
AC7
  8
1
 10
20.04999999999998
 20
35.92499999999998
 30
0.0
 40
1.0
 50
180.0
 51
270.0
  0
ARC
  5
AC9
  8
1
 10
20.04999999999998
 20
-35.92500000000001
 30
0.0
 40
1.0
 50
90.0
 51
180.0
  0
ARC
  5
ACA
  8
1
 10
1.299999999999983
 20
35.125
 30
0.0
 40
0.5
 50
270.0
 51
293.5781784781994
  0
ARC
  5
ACB
  8
1
 10
1.299999999999983
 20
-35.125
 30
0.0
 40
0.500000000000009
 50
66.42182152180017
 51
90.0
  0
LINE
  5
ACC
  8
1
 10
71.09999999999991
 20
34.92499999999995
 30
0.0
 11
20.04999999999998
 21
34.92499999999998
 31
0.0
  0
LINE
  5
ACE
  8
1
 10
20.04999999999998
 20
-34.92500000000001
 30
0.0
 11
71.09999999999991
 21
-34.92499999999973
 31
0.0
  0
LINE
  5
ACF
  8
1
 10
0.0
 20
-34.92500000000001
 30
0.0
 11
0.2999999999999829
 21
-34.625
 31
0.0
  0
LINE
  5
AD0
  8
1
 10
0.2999999999999829
 20
34.625
 30
0.0
 11
0.0
 21
34.92499999999998
 31
0.0
  0
LINE
  5
AD5
  8
1
 10
1.299999999999983
 20
34.625
 30
0.0
 11
0.2999999999999829
 21
34.625
 31
0.0
  0
LINE
  5
AD6
  8
1
 10
0.2999999999999829
 20
-34.625
 30
0.0
 11
1.299999999999983
 21
-34.625
 31
0.0
  0
LINE
  5
ADB
  8
1
 10
14.65616694409999
 20
-47.282880439
 30
0.0
 11
14.68806954659999
 21
-47.29184187660002
 31
0.0
  0
LINE
  5
ADC
  8
1
 10
14.6561667691
 20
47.30816788690001
 30
0.0
 11
14.6561667691
 21
-47.2826327523
 31
0.0
  0
LINE
  5
ADD
  8
1
 10
14.7615962207
 20
47.3314147463
 30
0.0
 11
14.6561668942
 21
47.30816788690001
 31
0.0
  0
LINE
  5
ADE
  8
1
 10
18.25
 20
47.3314147463
 30
0.0
 11
14.7615962207
 21
47.3314147463
 31
0.0
  0
LINE
  5
ADF
  8
1
 10
14.68806954659999
 20
-47.29184187660002
 30
0.0
 11
18.25
 21
-47.29184187660002
 31
0.0
  0
LINE
  5
AE0
  8
1
 10
7.498403779400007
 20
47.3314147463
 30
0.0
 11
4.006414746699988
 21
47.3314147463
 31
0.0
  0
LINE
  5
AE1
  8
1
 10
7.603833105900009
 20
47.30816788690001
 30
0.0
 11
7.498403779400007
 21
47.3314147463
 31
0.0
  0
LINE
  5
AE2
  8
1
 10
7.603833230899994
 20
47.30844201400001
 30
0.0
 11
7.603833230899994
 21
-47.28288044160001
 31
0.0
  0
LINE
  5
AE3
  8
1
 10
7.571930453299984
 20
-47.29184187660002
 30
0.0
 11
7.603833055899997
 21
-47.282880439
 31
0.0
  0
LINE
  5
AE4
  8
1
 10
4.040356993800003
 20
-47.29184187660002
 30
0.0
 11
7.571930453299984
 21
-47.29184187660002
 31
0.0
  0
LINE
  5
AE5
  8
1
 10
2.300001405499984
 20
-46.74795901499999
 30
0.0
 11
4.040356993800003
 21
-47.29184189310001
 31
0.0
  0
LINE
  5
AE6
  8
1
 10
4.006414746699988
 20
47.33141476029999
 30
0.0
 11
2.299999765199999
 21
46.80267569
 31
0.0
  0
ARC
  5
AE7
  8
1
 10
2.557435939599998
 20
-45.59355264690001
 30
0.0
 40
1.184053137363273
 50
207.7147598986998
 51
257.3157095984005
  0
LINE
  5
AE8
  8
1
 10
1.50922466130001
 20
-46.14422037630001
 30
0.0
 11
1.5
 21
-46.01377680920001
 31
0.0
  0
LINE
  5
AE9
  8
1
 10
1.5
 20
-46.01377680920001
 30
0.0
 11
1.5
 21
46.01377680919998
 31
0.0
  0
ARC
  5
AEA
  8
1
 10
2.572884962100005
 20
45.72649004249999
 30
0.0
 40
1.111555736593689
 50
104.3436511600003
 51
164.8417645594994
  0
LINE
  5
AEB
  8
1
 10
9.204999995999998
 20
44.41431970880001
 30
0.0
 11
7.60383322749999
 21
47.3081678945
 31
0.0
  0
LINE
  5
AEC
  8
1
 10
9.204999999999984
 20
44.4143196734
 30
0.0
 11
9.204999999999984
 21
-44.387299867
 31
0.0
  0
LINE
  5
AED
  8
1
 10
7.603833226399985
 20
-47.28288044990001
 30
0.0
 11
9.2049999921
 21
-44.38762367050001
 31
0.0
  0
LINE
  5
AEE
  8
1
 10
14.65616677259999
 20
47.3081678945
 30
0.0
 11
13.05500000399999
 21
44.41431970880001
 31
0.0
  0
LINE
  5
AEF
  8
1
 10
13.05500000800001
 20
-44.38762367050001
 30
0.0
 11
14.65616677360001
 21
-47.28288044990001
 31
0.0
  0
LINE
  5
AF0
  8
1
 10
13.05500000000001
 20
44.41459195280001
 30
0.0
 11
13.05500000000001
 21
-44.38762365650001
 31
0.0
  0
ARC
  5
AF1
  8
1
 10
17.92302328310001
 20
46.41895288640001
 30
0.0
 40
1.127359624435328
 50
1.493363825500091
 51
43.53750291790048
  0
LINE
  5
AF2
  8
1
 10
19.04999999999998
 20
46.44833319130001
 30
0.0
 11
19.04999999999998
 21
-46.44833319130001
 31
0.0
  0
ARC
  5
AF3
  8
1
 10
17.91824827779999
 20
-46.4157978575
 30
0.0
 40
1.1322192847622
 50
319.2464850235001
 51
358.3533278529993
  0
ARC
  5
AF4
  8
1
 10
18.2616113983
 20
-46.25791326929999
 30
0.0
 40
1.033993805426882
 50
269.3565743835002
 51
299.8289453780985
  0
ARC
  5
AF5
  8
1
 10
18.2610591033
 20
46.41902767409999
 30
0.0
 40
0.9124540938653742
 50
58.31881226410037
 51
90.69445187719943
  0
ARC
  5
AF6
  8
1
 10
12.5158206966
 20
-44.1073442162
 30
0.0
 40
0.5397579791454132
 50
357.3466499737992
 51
85.83742202690154
  0
ARC
  5
AF7
  8
1
 10
12.54139279200001
 20
44.09944295630001
 30
0.0
 40
0.4858431210597904
 50
271.6049163143007
 51
333.441972537701
  0
POLYLINE
  5
AF8
  8
1
 66
     1
 10
0.0
 20
0.0
 30
0.0
  0
VERTEX
  5
1111
  8
1
 10
13.05500000000001
 20
44.14662312639999
 30
0.0
  0
VERTEX
  5
1112
  8
1
 10
13.03542892280001
 20
44.01594229719998
 30
0.0
  0
VERTEX
  5
1113
  8
1
 10
12.97787844319998
 20
43.88571451269999
 30
0.0
  0
SEQEND
  5
1630
  8
1
  0
ARC
  5
AF9
  8
1
 10
9.744214343399989
 20
-44.10737531749999
 30
0.0
 40
0.5397915428070933
 50
94.16604783349855
 51
182.6498801657025
  0
POLYLINE
  5
AFA
  8
1
 66
     1
 10
0.0
 20
0.0
 30
0.0
  0
VERTEX
  5
1114
  8
1
 10
9.280099379399985
 20
43.88913247470001
 30
0.0
  0
VERTEX
  5
1115
  8
1
 10
9.224055884099982
 20
44.0177026321
 30
0.0
  0
VERTEX
  5
1116
  8
1
 10
9.204999999999984
 20
44.14662312639999
 30
0.0
  0
SEQEND
  5
162F
  8
1
  0
ARC
  5
AFB
  8
1
 10
9.721350266000002
 20
44.10422581969999
 30
0.0
 40
0.4907078648052702
 50
206.0244317763009
 51
268.0905652222996
  0
LINE
  5
AFC
  8
1
 10
12.55500000000001
 20
43.613790424
 30
0.0
 11
9.704999999999984
 21
43.613790424
 31
0.0
  0
LINE
  5
AFD
  8
1
 10
9.704999999999984
 20
-43.5690100651
 30
0.0
 11
12.55500000000001
 21
-43.5690100651
 31
0.0
  0
LINE
  5
B00
  8
1
 10
0.2999999999999829
 20
34.625
 30
0.0
 11
0.2999999999999829
 21
-34.625
 31
0.0
  0
LINE
  5
B01
  8
1
 10
0.0
 20
34.92499999999998
 30
0.0
 11
0.0
 21
-34.92500000000001
 31
0.0
  0
LINE
  5
B04
  8
1
 10
14.68806954670001
 20
-47.29184187660002
 30
0.0
 11
14.65616694420001
 21
-47.282880439
 31
0.0
  0
LINE
  5
B1A
  8
3
 10
1.500000000000004
 20
37.72
 30
0.0
 11
19.04999999999998
 21
37.72
 31
0.0
  0
LINE
  5
B3B
  8
3
 10
1.5
 20
-35.30000000000001
 30
0.0
 11
19.26937525020018
 21
-35.30000000000001
 31
0.0
  0
LINE
  5
B42
  8
3
 10
26.97499999999999
 20
28.32499999999999
 30
0.0
 11
33.32499999999999
 21
28.32499999999999
 31
0.0
  0
LINE
  5
B43
  8
3
 10
20.625
 20
28.32499999999999
 30
0.0
 11
26.97499999999999
 21
28.32499999999999
 31
0.0
  0
LINE
  5
B44
  8
3
 10
11.375
 20
37.31999999999999
 30
0.0
 11
16.125
 21
37.31999999999999
 31
0.0
  0
LINE
  5
B45
  8
3
 10
6.625
 20
37.31999999999999
 30
0.0
 11
11.375
 21
37.31999999999999
 31
0.0
  0
LINE
  5
B55
  8
3
 10
20.625
 20
28.32499999999999
 30
0.0
 11
26.97499999999999
 21
24.50953506919998
 31
0.0
  0
LINE
  5
B56
  8
3
 10
26.97499999999999
 20
24.50953506919998
 30
0.0
 11
33.32499999999999
 21
28.32499999999999
 31
0.0
  0
LINE
  5
B57
  8
3
 10
20.625
 20
34.92499999999998
 30
0.0
 11
20.625
 21
28.32499999999999
 31
0.0
  0
LINE
  5
B58
  8
3
 10
33.32499999999999
 20
28.32499999999999
 30
0.0
 11
33.32499999999999
 21
34.92499999999998
 31
0.0
  0
LINE
  5
B59
  8
3
 10
6.625
 20
37.72
 30
0.0
 11
6.625
 21
37.31999999999999
 31
0.0
  0
LINE
  5
B5A
  8
3
 10
16.125
 20
37.31999999999999
 30
0.0
 11
16.125
 21
37.72
 31
0.0
  0
LINE
  5
B5B
  8
1
 10
20.04999999999998
 20
-34.92500000000001
 30
0.0
 11
20.04999999999998
 21
34.92499999999998
 31
0.0
  0
LINE
  5
B5C
  8
1
 10
1.299999999999983
 20
-34.625
 30
0.0
 11
1.299999999999983
 21
34.625
 31
0.0
  0
LINE
  5
B5F
  8
1
 10
12.55500000000001
 20
-43.00413183130001
 30
0.0
 11
12.55500000000001
 21
42.79577481850001
 31
0.0
  0
LINE
  5
B60
  8
1
 10
9.704999999999984
 20
-43.00421493109999
 30
0.0
 11
9.704999999999984
 21
42.7957705776
 31
0.0
  0
LINE
  5
B62
  8
1
 10
18.25
 20
47.3314147463
 30
0.0
 11
18.25
 21
-47.29184187660002
 31
0.0
  0
LINE
  5
B64
  8
1
 10
2.299999999999983
 20
-46.74795854910002
 30
0.0
 11
2.299999999999983
 21
46.80267576719999
 31
0.0
  0
ARC
  5
D5D
  8
1
 10
100.5999999999999
 20
-60.90000000000009
 30
0.0
 40
1.000000000000227
 50
270.0
 51
0.0
  0
ARC
  5
D5F
  8
1
 10
100.5999999999999
 20
60.89999999999986
 30
0.0
 40
1.0
 50
0.0
 51
90.0
  0
LINE
  5
D60
  8
1
 10
74.09999999999991
 20
-61.90000000000009
 30
0.0
 11
100.5999999999999
 21
-61.90000000000009
 31
0.0
  0
LINE
  5
D61
  8
1
 10
100.5999999999999
 20
61.89999999999986
 30
0.0
 11
74.09999999999991
 21
61.89999999999986
 31
0.0
  0
ARC
  5
D62
  8
1
 10
74.09999999999991
 20
60.89999999999986
 30
0.0
 40
1.000000000000227
 50
90.0
 51
180.0
  0
ARC
  5
D63
  8
1
 10
74.09999999999991
 20
-60.90000000000009
 30
0.0
 40
1.000000000000227
 50
180.0
 51
270.0
  0
ARC
  5
D64
  8
1
 10
71.09999999999991
 20
36.92499999999995
 30
0.0
 40
2.0
 50
270.0
 51
0.0
  0
ARC
  5
D65
  8
1
 10
71.09999999999991
 20
-36.92499999999995
 30
0.0
 40
2.000000000000227
 50
0.0
 51
90.0
  0
LINE
  5
D87
  8
1
 10
101.6285749996998
 20
50.80380999999988
 30
0.0
 11
101.5999999999999
 21
50.80380999999988
 31
0.0
  0
LINE
  5
D8B
  8
1
 10
101.5999999999999
 20
0.0
 30
0.0
 11
101.5999999999999
 21
60.89999999999986
 31
0.0
  0
LINE
  5
D8C
  8
1
 10
101.5999999999999
 20
-60.90000000000009
 30
0.0
 11
101.5999999999999
 21
0.0
 31
0.0
  0
LINE
  5
D8D
  8
1
 10
73.09999999999991
 20
-60.90000000000009
 30
0.0
 11
73.09999999999991
 21
60.89999999999986
 31
0.0
  0
CIRCLE
  5
DAD
  8
1
 10
63.5
 20
0.0
 30
0.0
 40
2.624999999999545
  0
LINE
  5
DBF
  8
1
 10
62.25
 20
-0.7216878363999513
 30
0.0
 11
63.5
 21
-1.443375672899947
 31
0.0
  0
LINE
  5
DC0
  8
1
 10
64.75
 20
-0.7216878363999513
 30
0.0
 11
63.5
 21
-1.443375672899947
 31
0.0
  0
LINE
  5
DC1
  8
1
 10
64.75
 20
0.7216878364999957
 30
0.0
 11
64.75
 21
-0.7216878363999513
 31
0.0
  0
LINE
  5
DC2
  8
1
 10
64.75
 20
0.7216878364999957
 30
0.0
 11
63.5
 21
1.443375672999991
 31
0.0
  0
LINE
  5
DC3
  8
1
 10
62.25
 20
0.7216878364999957
 30
0.0
 11
63.5
 21
1.443375672999991
 31
0.0
  0
LINE
  5
DC4
  8
1
 10
62.25
 20
0.7216878364999957
 30
0.0
 11
62.25
 21
-0.7216878363999513
 31
0.0
  0
CIRCLE
  5
DC5
  8
1
 10
63.5
 20
0.0
 30
0.0
 40
2.055000000000064
  0
CIRCLE
  5
DC6
  8
1
 10
63.5
 20
0.0
 30
0.0
 40
2.25610312684239
  0
CIRCLE
  5
DC7
  8
1
 10
63.5
 20
0.0
 30
0.0
 40
2.5
  0
POLYLINE
  5
DCB
  8
3
 66
     1
 10
0.0
 20
0.0
 30
0.0
  0
VERTEX
  5
1117
  8
3
 10
63.5
 20
31.47288378410008
 30
0.0
  0
VERTEX
  5
1118
  8
3
 10
64.36749848169984
 20
31.40849580269992
 30
0.0
  0
VERTEX
  5
1119
  8
3
 10
65.13717542389986
 20
31.21964005929999
 30
0.0
  0
VERTEX
  5
111A
  8
3
 10
65.72381580739989
 20
30.91917383810005
 30
0.0
  0
VERTEX
  5
111B
  8
3
 10
66.0603077589999
 20
30.53136779529996
 30
0.0
  0
VERTEX
  5
111C
  8
3
 10
66.10775711429983
 20
30.09462878880004
 30
0.0
  0
VERTEX
  5
111D
  8
3
 10
65.86242987979995
 20
29.65751872390001
 30
0.0
  0
VERTEX
  5
111E
  8
3
 10
65.3518724710998
 20
29.27277948679989
 30
0.0
  0
VERTEX
  5
111F
  8
3
 10
64.6808547608
 20
29.01123225169999
 30
0.0
  0
SEQEND
  5
162E
  8
3
  0
POLYLINE
  5
DCC
  8
3
 66
     1
 10
0.0
 20
0.0
 30
0.0
  0
VERTEX
  5
1120
  8
3
 10
62.40372032300002
 20
29.00395118789993
 30
0.0
  0
VERTEX
  5
1121
  8
3
 10
62.09416224989991
 20
29.07654230930007
 30
0.0
  0
VERTEX
  5
1122
  8
3
 10
61.44040920199996
 20
29.39933670229993
 30
0.0
  0
VERTEX
  5
1123
  8
3
 10
61.01757432989984
 20
29.81023794480006
 30
0.0
  0
VERTEX
  5
1124
  8
3
 10
60.87505241529993
 20
30.25422805449989
 30
0.0
  0
VERTEX
  5
1125
  8
3
 10
61.02781611189994
 20
30.6775637799999
 30
0.0
  0
VERTEX
  5
1126
  8
3
 10
61.45775834929987
 20
31.03679846289992
 30
0.0
  0
VERTEX
  5
1127
  8
3
 10
62.11839258449982
 20
31.30010379660007
 30
0.0
  0
VERTEX
  5
1128
  8
3
 10
62.93590866379986
 20
31.44617701619995
 30
0.0
  0
VERTEX
  5
1129
  8
3
 10
63.5
 20
31.47288378410008
 30
0.0
  0
SEQEND
  5
162D
  8
3
  0
POLYLINE
  5
DCD
  8
3
 66
     1
 10
0.0
 20
0.0
 30
0.0
  0
VERTEX
  5
112A
  8
3
 10
63.5
 20
-28.84788378400003
 30
0.0
  0
VERTEX
  5
112B
  8
3
 10
64.36749848169984
 20
-28.93098265749995
 30
0.0
  0
VERTEX
  5
112C
  8
3
 10
65.13717542389986
 20
-29.16774297810002
 30
0.0
  0
VERTEX
  5
112D
  8
3
 10
65.72381580739989
 20
-29.52444509919997
 30
0.0
  0
VERTEX
  5
112E
  8
3
 10
66.0603077589999
 20
-29.95218804809997
 30
0.0
  0
VERTEX
  5
112F
  8
3
 10
66.10775711429983
 20
-30.39500827000006
 30
0.0
  0
VERTEX
  5
1130
  8
3
 10
65.86242987979995
 20
-30.80187446529999
 30
0.0
  0
VERTEX
  5
1131
  8
3
 10
65.3518724710998
 20
-31.13320775750003
 30
0.0
  0
VERTEX
  5
1132
  8
3
 10
64.6314689164999
 20
-31.36061173550002
 30
0.0
  0
VERTEX
  5
1133
  8
3
 10
63.78300586009982
 20
-31.46622946289995
 30
0.0
  0
VERTEX
  5
1134
  8
3
 10
62.90456459779989
 20
-31.44307976840014
 30
0.0
  0
VERTEX
  5
1135
  8
3
 10
62.09416224989991
 20
-31.2933520035001
 30
0.0
  0
VERTEX
  5
1136
  8
3
 10
61.44040920199996
 20
-31.02682272200013
 30
0.0
  0
VERTEX
  5
1137
  8
3
 10
61.01757432989984
 20
-30.66357714590004
 30
0.0
  0
VERTEX
  5
1138
  8
3
 10
60.87505241529993
 20
-30.23763957630013
 30
0.0
  0
VERTEX
  5
1139
  8
3
 10
61.02781611189994
 20
-29.79499263640014
 30
0.0
  0
VERTEX
  5
113A
  8
3
 10
61.45775834929987
 20
-29.38759440030003
 30
0.0
  0
VERTEX
  5
113B
  8
3
 10
62.11839258449982
 20
-29.06811232040013
 30
0.0
  0
VERTEX
  5
113C
  8
3
 10
62.93590866379986
 20
-28.88250270670005
 30
0.0
  0
VERTEX
  5
113D
  8
3
 10
63.5
 20
-28.84788378400003
 30
0.0
  0
SEQEND
  5
162C
  8
3
  0
CIRCLE
  5
DCE
  8
3
 10
63.5
 20
0.0
 30
0.0
 40
2.100000000000136
  0
LINE
  5
DCF
  8
3
 10
63.19999999999982
 20
-2.078460968999934
 30
0.0
 11
63.19999999999982
 21
-2.5
 31
0.0
  0
LINE
  5
DD0
  8
3
 10
63.19999999999982
 20
2.5
 30
0.0
 11
63.19999999999982
 21
2.078460969099979
 31
0.0
  0
LINE
  5
DDF
  8
3
 10
55.19999999999982
 20
11.90499993899994
 30
0.0
 11
55.19999999999982
 21
-11.90499993899994
 31
0.0
  0
POLYLINE
  5
DE0
  8
3
 66
     1
 10
0.0
 20
0.0
 30
0.0
  0
VERTEX
  5
113E
  8
3
 10
63.5
 20
11.19836280699997
 30
0.0
  0
VERTEX
  5
113F
  8
3
 10
63.8444793967999
 20
11.18852353619991
 30
0.0
  0
VERTEX
  5
1140
  8
3
 10
64.18895879349998
 20
11.15777139869988
 30
0.0
  0
VERTEX
  5
1141
  8
3
 10
64.5043883425999
 20
11.10768907300007
 30
0.0
  0
VERTEX
  5
1142
  8
3
 10
64.80015076509994
 20
11.03519643389996
 30
0.0
  0
VERTEX
  5
1143
  8
3
 10
65.05443365789984
 20
10.94325728259992
 30
0.0
  0
VERTEX
  5
1144
  8
3
 10
65.2715366637999
 20
10.827514028
 30
0.0
  0
VERTEX
  5
1145
  8
3
 10
65.43434075229993
 20
10.69445107470005
 30
0.0
  0
VERTEX
  5
1146
  8
3
 10
65.54580188759996
 20
10.5388662972
 30
0.0
  0
VERTEX
  5
1147
  8
3
 10
65.5959591433998
 20
10.37452185799998
 30
0.0
  0
VERTEX
  5
1148
  8
3
 10
65.58763512379983
 20
10.19437321689998
 30
0.0
  0
VERTEX
  5
1149
  8
3
 10
65.52256609439996
 20
10.01591420630007
 30
0.0
  0
VERTEX
  5
114A
  8
3
 10
65.39929058929988
 20
9.832828709400019
 30
0.0
  0
VERTEX
  5
114B
  8
3
 10
65.2271426507998
 20
9.660717558600027
 30
0.0
  0
VERTEX
  5
114C
  8
3
 10
65.00186021959985
 20
9.497474726799965
 30
0.0
  0
VERTEX
  5
114D
  8
3
 10
64.73806523329995
 20
9.356730761800009
 30
0.0
  0
VERTEX
  5
114E
  8
3
 10
64.43078539189992
 20
9.239098333499896
 30
0.0
  0
VERTEX
  5
114F
  8
3
 10
64.10524018449996
 20
9.156444093699974
 30
0.0
  0
VERTEX
  5
1150
  8
3
 10
63.75207802999989
 20
9.108302704599964
 30
0.0
  0
VERTEX
  5
1151
  8
3
 10
63.40637590450001
 20
9.09973072899993
 30
0.0
  0
VERTEX
  5
1152
  8
3
 10
63.05330673009985
 20
9.129762401400058
 30
0.0
  0
VERTEX
  5
1153
  8
3
 10
62.72503040099991
 20
9.19464396440003
 30
0.0
  0
VERTEX
  5
1154
  8
3
 10
62.40945887189991
 20
9.294895835500029
 30
0.0
  0
VERTEX
  5
1155
  8
3
 10
62.12958685609988
 20
9.421915846099864
 30
0.0
  0
VERTEX
  5
1156
  8
3
 10
61.88071353319992
 20
9.576231457499944
 30
0.0
  0
VERTEX
  5
1157
  8
3
 10
61.68115110979988
 20
9.745048938500076
 30
0.0
  0
VERTEX
  5
1158
  8
3
 10
61.52839384209983
 20
9.929486590199986
 30
0.0
  0
VERTEX
  5
1159
  8
3
 10
61.43587863189987
 20
10.11133340380002
 30
0.0
  0
VERTEX
  5
115A
  8
3
 10
61.40019488619987
 20
10.29569803000004
 30
0.0
  0
VERTEX
  5
115B
  8
3
 10
61.42379892359986
 20
10.46404690819986
 30
0.0
  0
VERTEX
  5
115C
  8
3
 10
61.50639624909991
 20
10.62415725160008
 30
0.0
  0
VERTEX
  5
115D
  8
3
 10
61.64073906679982
 20
10.76345233860002
 30
0.0
  0
VERTEX
  5
115E
  8
3
 10
61.83052741069991
 20
10.88779303349997
 30
0.0
  0
VERTEX
  5
115F
  8
3
 10
62.06341203449983
 20
10.99020689679992
 30
0.0
  0
VERTEX
  5
1160
  8
3
 10
62.34395907279986
 20
11.07420662849995
 30
0.0
  0
VERTEX
  5
1161
  8
3
 10
62.65146444009997
 20
11.13540076060008
 30
0.0
  0
VERTEX
  5
1162
  8
3
 10
62.9931056132998
 20
11.17680548769999
 30
0.0
  0
VERTEX
  5
1163
  8
3
 10
63.2426526116999
 20
11.19289566969996
 30
0.0
  0
VERTEX
  5
1164
  8
3
 10
63.5
 20
11.19836280699997
 30
0.0
  0
SEQEND
  5
162B
  8
3
  0
POLYLINE
  5
DE1
  8
3
 66
     1
 10
0.0
 20
0.0
 30
0.0
  0
VERTEX
  5
1165
  8
3
 10
63.5
 20
-9.098362806900013
 30
0.0
  0
VERTEX
  5
1166
  8
3
 10
63.8444793967999
 20
-9.11697002599999
 30
0.0
  0
VERTEX
  5
1167
  8
3
 10
64.18895879349998
 20
-9.174003322199951
 30
0.0
  0
VERTEX
  5
1168
  8
3
 10
64.5043883425999
 20
-9.263453714499974
 30
0.0
  0
VERTEX
  5
1169
  8
3
 10
64.80015076509994
 20
-9.386073033899947
 30
0.0
  0
VERTEX
  5
116A
  8
3
 10
65.05443365789984
 20
-9.531260114199995
 30
0.0
  0
VERTEX
  5
116B
  8
3
 10
65.2715366637999
 20
-9.69983594940004
 30
0.0
  0
VERTEX
  5
116C
  8
3
 10
65.43434075229993
 20
-9.876939084500009
 30
0.0
  0
VERTEX
  5
116D
  8
3
 10
65.54580188759996
 20
-10.06484663840001
 30
0.0
  0
VERTEX
  5
116E
  8
3
 10
65.5959591433998
 20
-10.24430945790004
 30
0.0
  0
VERTEX
  5
116F
  8
3
 10
65.58763512379983
 20
-10.42192450779999
 30
0.0
  0
VERTEX
  5
1170
  8
3
 10
65.52256609439996
 20
-10.58091543959995
 30
0.0
  0
VERTEX
  5
1171
  8
3
 10
65.39929058929988
 20
-10.72876132810006
 30
0.0
  0
VERTEX
  5
1172
  8
3
 10
65.2271426507998
 20
-10.8552795132
 30
0.0
  0
VERTEX
  5
1173
  8
3
 10
65.00186021959985
 20
-10.96526758699997
 30
0.0
  0
VERTEX
  5
1174
  8
3
 10
64.73806523329995
 20
-11.05296025029998
 30
0.0
  0
VERTEX
  5
1175
  8
3
 10
64.43078539189992
 20
-11.12155379210003
 30
0.0
  0
VERTEX
  5
1176
  8
3
 10
64.10524018449996
 20
-11.16733551760012
 30
0.0
  0
VERTEX
  5
1177
  8
3
 10
63.75207802999989
 20
-11.19311844380013
 30
0.0
  0
VERTEX
  5
1178
  8
3
 10
63.40637590450001
 20
-11.19764267389996
 30
0.0
  0
VERTEX
  5
1179
  8
3
 10
63.05330673009985
 20
-11.18170419450007
 30
0.0
  0
VERTEX
  5
117A
  8
3
 10
62.72503040099991
 20
-11.14641806000009
 30
0.0
  0
VERTEX
  5
117B
  8
3
 10
62.40945887189991
 20
-11.08953230220004
 30
0.0
  0
VERTEX
  5
117C
  8
3
 10
62.12958685609988
 20
-11.01313167519993
 30
0.0
  0
VERTEX
  5
117D
  8
3
 10
61.88071353319992
 20
-10.91335947610014
 30
0.0
  0
VERTEX
  5
117E
  8
3
 10
61.68115110979988
 20
-10.79471017640003
 30
0.0
  0
VERTEX
  5
117F
  8
3
 10
61.52839384209983
 20
-10.65251436130006
 30
0.0
  0
VERTEX
  5
1180
  8
3
 10
61.43587863189987
 20
-10.49786021730006
 30
0.0
  0
VERTEX
  5
1181
  8
3
 10
61.40019488619987
 20
-10.32430718799992
 30
0.0
  0
VERTEX
  5
1182
  8
3
 10
61.42379892359986
 20
-10.14878655479993
 30
0.0
  0
VERTEX
  5
1183
  8
3
 10
61.50639624909991
 20
-9.964199613099936
 30
0.0
  0
VERTEX
  5
1184
  8
3
 10
61.64073906679982
 20
-9.787158949100103
 30
0.0
  0
VERTEX
  5
1185
  8
3
 10
61.83052741069991
 20
-9.613877308800056
 30
0.0
  0
VERTEX
  5
1186
  8
3
 10
62.06341203449983
 20
-9.458470947799924
 30
0.0
  0
VERTEX
  5
1187
  8
3
 10
62.34395907279986
 20
-9.321046802700039
 30
0.0
  0
VERTEX
  5
1188
  8
3
 10
62.65146444009997
 20
-9.214466767999966
 30
0.0
  0
VERTEX
  5
1189
  8
3
 10
62.9931056132998
 20
-9.138900170700026
 30
0.0
  0
VERTEX
  5
118A
  8
3
 10
63.2426526116999
 20
-9.108723814400037
 30
0.0
  0
VERTEX
  5
118B
  8
3
 10
63.5
 20
-9.098362806900013
 30
0.0
  0
SEQEND
  5
162A
  8
3
  0
LINE
  5
DE2
  8
3
 10
54.56398907139987
 20
-10.84650000000011
 30
0.0
 11
54.56398907139987
 21
10.84649999999988
 31
0.0
  0
LINE
  5
DE3
  8
3
 10
83.59999999999991
 20
-31.75275000000011
 30
0.0
 11
83.59999999999991
 21
-50.79725000000008
 31
0.0
  0
LINE
  5
DE4
  8
3
 10
83.59999999999991
 20
50.79725000000008
 30
0.0
 11
83.59999999999991
 21
31.75274999999988
 31
0.0
  0
POLYLINE
  5
DE9
  8
3
 66
     1
 10
0.0
 20
0.0
 30
0.0
  0
VERTEX
  5
118C
  8
3
 10
63.5
 20
29.97524848640001
 30
0.0
  0
VERTEX
  5
118D
  8
3
 10
64.30363520799983
 20
29.89532199559994
 30
0.0
  0
VERTEX
  5
118E
  8
3
 10
64.98492424049982
 20
29.66771060669998
 30
0.0
  0
VERTEX
  5
118F
  8
3
 10
65.44014701829997
 20
29.32706609039997
 30
0.0
  0
VERTEX
  5
1190
  8
3
 10
65.59999999999991
 20
28.92524848640005
 30
0.0
  0
VERTEX
  5
1191
  8
3
 10
65.44014701829997
 20
28.52343088249995
 30
0.0
  0
VERTEX
  5
1192
  8
3
 10
64.98492424049982
 20
28.18278636619993
 30
0.0
  0
VERTEX
  5
1193
  8
3
 10
64.30363520799983
 20
27.95517497729998
 30
0.0
  0
VERTEX
  5
1194
  8
3
 10
63.5
 20
27.87524848639987
 30
0.0
  0
VERTEX
  5
1195
  8
3
 10
62.69636479199994
 20
27.95517497729998
 30
0.0
  0
VERTEX
  5
1196
  8
3
 10
62.01507575949995
 20
28.18278636619993
 30
0.0
  0
VERTEX
  5
1197
  8
3
 10
61.55985298169981
 20
28.52343088249995
 30
0.0
  0
VERTEX
  5
1198
  8
3
 10
61.39999999999986
 20
28.92524848640005
 30
0.0
  0
VERTEX
  5
1199
  8
3
 10
61.55985298169981
 20
29.32706609039997
 30
0.0
  0
VERTEX
  5
119A
  8
3
 10
62.01507575949995
 20
29.66771060669998
 30
0.0
  0
VERTEX
  5
119B
  8
3
 10
62.69636479199994
 20
29.89532199559994
 30
0.0
  0
VERTEX
  5
119C
  8
3
 10
63.5
 20
29.97524848640001
 30
0.0
  0
SEQEND
  5
1629
  8
3
  0
POLYLINE
  5
DEA
  8
3
 66
     1
 10
0.0
 20
0.0
 30
0.0
  0
VERTEX
  5
119D
  8
3
 10
63.19999999999982
 20
13.34610584209986
 30
0.0
  0
VERTEX
  5
119E
  8
3
 10
63.42705844229999
 20
13.36265965519988
 30
0.0
  0
VERTEX
  5
119F
  8
3
 10
63.66623448759992
 20
13.35822972200003
 30
0.0
  0
VERTEX
  5
11A0
  8
3
 10
63.88985734849985
 20
13.33442033620008
 30
0.0
  0
VERTEX
  5
11A1
  8
3
 10
64.10792598889998
 20
13.2961014908999
 30
0.0
  0
VERTEX
  5
11A2
  8
3
 10
64.41790536299982
 20
13.22565349989986
 30
0.0
  0
VERTEX
  5
11A3
  8
3
 10
64.70378984419995
 20
13.15748010139987
 30
0.0
  0
VERTEX
  5
11A4
  8
3
 10
64.96872089570002
 20
13.1065492107
 30
0.0
  0
VERTEX
  5
11A5
  8
3
 10
65.20264802249994
 20
13.08857175069988
 30
0.0
  0
VERTEX
  5
11A6
  8
3
 10
65.36114365819981
 20
13.10764223830006
 30
0.0
  0
VERTEX
  5
11A7
  8
3
 10
65.48702136139991
 20
13.16514539869991
 30
0.0
  0
VERTEX
  5
11A8
  8
3
 10
65.56728427309986
 20
13.26251965639995
 30
0.0
  0
VERTEX
  5
11A9
  8
3
 10
65.5997643103999
 20
13.4078343438
 30
0.0
  0
VERTEX
  5
11AA
  8
3
 10
65.58537641849989
 20
13.55771930729998
 30
0.0
  0
VERTEX
  5
11AB
  8
3
 10
65.53273922879998
 20
13.73570224579998
 30
0.0
  0
VERTEX
  5
11AC
  8
3
 10
65.45025611679989
 20
13.92051392019994
 30
0.0
  0
VERTEX
  5
11AD
  8
3
 10
65.33716256179991
 20
14.11937158170008
 30
0.0
  0
VERTEX
  5
11AE
  8
3
 10
65.13966636789996
 20
14.40155904540006
 30
0.0
  0
VERTEX
  5
11AF
  8
3
 10
64.89547223679983
 20
14.68771966479994
 30
0.0
  0
VERTEX
  5
11B0
  8
3
 10
64.61731593819991
 20
14.95556411849998
 30
0.0
  0
VERTEX
  5
11B1
  8
3
 10
64.29683007109998
 20
15.19750754729989
 30
0.0
  0
VERTEX
  5
11B2
  8
3
 10
64.0863516382999
 20
15.31690973490004
 30
0.0
  0
VERTEX
  5
11B3
  8
3
 10
63.85712368279997
 20
15.40839827979994
 30
0.0
  0
VERTEX
  5
11B4
  8
3
 10
63.66305831770001
 20
15.45209621399999
 30
0.0
  0
VERTEX
  5
11B5
  8
3
 10
63.4588783186
 20
15.46298225099986
 30
0.0
  0
VERTEX
  5
11B6
  8
3
 10
63.19999999999982
 20
15.42456681120007
 30
0.0
  0
SEQEND
  5
1628
  8
3
  0
ARC
  5
DEB
  8
3
 10
65.70823421629984
 20
16.62768775270001
 30
0.0
 40
2.781858889949102
 50
154.3744331115974
 51
205.6255668885
  0
POLYLINE
  5
DEC
  8
3
 66
     1
 10
0.0
 20
0.0
 30
0.0
  0
VERTEX
  5
11B7
  8
3
 10
63.19999999999982
 20
17.8308086943
 30
0.0
  0
VERTEX
  5
11B8
  8
3
 10
63.42705844229999
 20
17.81425488119999
 30
0.0
  0
VERTEX
  5
11B9
  8
3
 10
63.66623448759992
 20
17.81868481430001
 30
0.0
  0
VERTEX
  5
11BA
  8
3
 10
63.88985734849985
 20
17.84249420009996
 30
0.0
  0
VERTEX
  5
11BB
  8
3
 10
64.10792598889998
 20
17.88081304539992
 30
0.0
  0
VERTEX
  5
11BC
  8
3
 10
64.41790536299982
 20
17.9512610365
 30
0.0
  0
VERTEX
  5
11BD
  8
3
 10
64.70378984419995
 20
18.01943443489995
 30
0.0
  0
VERTEX
  5
11BE
  8
3
 10
64.96872089570002
 20
18.07036532560005
 30
0.0
  0
VERTEX
  5
11BF
  8
3
 10
65.20264802249994
 20
18.08834278569998
 30
0.0
  0
VERTEX
  5
11C0
  8
3
 10
65.36114365819981
 20
18.06927229810003
 30
0.0
  0
VERTEX
  5
11C1
  8
3
 10
65.48702136139991
 20
18.01176913759991
 30
0.0
  0
VERTEX
  5
11C2
  8
3
 10
65.56728427309986
 20
17.91439487989987
 30
0.0
  0
VERTEX
  5
11C3
  8
3
 10
65.5997643103999
 20
17.76908019259986
 30
0.0
  0
VERTEX
  5
11C4
  8
3
 10
65.58537641849989
 20
17.61919522909989
 30
0.0
  0
VERTEX
  5
11C5
  8
3
 10
65.53273922879998
 20
17.44121229050006
 30
0.0
  0
VERTEX
  5
11C6
  8
3
 10
65.45025611679989
 20
17.25640061609988
 30
0.0
  0
VERTEX
  5
11C7
  8
3
 10
65.33716256179991
 20
17.05754295459997
 30
0.0
  0
VERTEX
  5
11C8
  8
3
 10
65.13966636789996
 20
16.77535549089998
 30
0.0
  0
VERTEX
  5
11C9
  8
3
 10
64.89547223679983
 20
16.48919487149988
 30
0.0
  0
VERTEX
  5
11CA
  8
3
 10
64.61731593819991
 20
16.22135041789988
 30
0.0
  0
VERTEX
  5
11CB
  8
3
 10
64.29683007109998
 20
15.97940698899993
 30
0.0
  0
VERTEX
  5
11CC
  8
3
 10
64.0863516382999
 20
15.86000480140001
 30
0.0
  0
VERTEX
  5
11CD
  8
3
 10
63.85712368279997
 20
15.76851625659992
 30
0.0
  0
VERTEX
  5
11CE
  8
3
 10
63.66305831770001
 20
15.72481832239987
 30
0.0
  0
VERTEX
  5
11CF
  8
3
 10
63.4588783186
 20
15.71393228529996
 30
0.0
  0
VERTEX
  5
11D0
  8
3
 10
63.19999999999982
 20
15.75234772520002
 30
0.0
  0
SEQEND
  5
1627
  8
3
  0
ARC
  5
DED
  8
3
 10
65.70823421629984
 20
14.54922678360003
 30
0.0
 40
2.781858889948897
 50
154.3744331115021
 51
205.6255668884979
  0
POLYLINE
  5
DEE
  8
3
 66
     1
 10
0.0
 20
0.0
 30
0.0
  0
VERTEX
  5
11D1
  8
3
 10
63.5
 20
-27.8752484864001
 30
0.0
  0
VERTEX
  5
11D2
  8
3
 10
64.30363520799983
 20
-27.95517497719993
 30
0.0
  0
VERTEX
  5
11D3
  8
3
 10
64.98492424049982
 20
-28.18278636610012
 30
0.0
  0
VERTEX
  5
11D4
  8
3
 10
65.44014701829997
 20
-28.52343088240013
 30
0.0
  0
VERTEX
  5
11D5
  8
3
 10
65.59999999999991
 20
-28.92524848640005
 30
0.0
  0
VERTEX
  5
11D6
  8
3
 10
65.44014701829997
 20
-29.32706609029992
 30
0.0
  0
VERTEX
  5
11D7
  8
3
 10
64.98492424049982
 20
-29.66771060659994
 30
0.0
  0
VERTEX
  5
11D8
  8
3
 10
64.30363520799983
 20
-29.89532199550013
 30
0.0
  0
VERTEX
  5
11D9
  8
3
 10
63.5
 20
-29.97524848640001
 30
0.0
  0
VERTEX
  5
11DA
  8
3
 10
62.69636479199994
 20
-29.89532199550013
 30
0.0
  0
VERTEX
  5
11DB
  8
3
 10
62.01507575949995
 20
-29.66771060659994
 30
0.0
  0
VERTEX
  5
11DC
  8
3
 10
61.55985298169981
 20
-29.32706609029992
 30
0.0
  0
VERTEX
  5
11DD
  8
3
 10
61.39999999999986
 20
-28.92524848640005
 30
0.0
  0
VERTEX
  5
11DE
  8
3
 10
61.55985298169981
 20
-28.52343088240013
 30
0.0
  0
VERTEX
  5
11DF
  8
3
 10
62.01507575949995
 20
-28.18278636610012
 30
0.0
  0
VERTEX
  5
11E0
  8
3
 10
62.69636479199994
 20
-27.95517497719993
 30
0.0
  0
VERTEX
  5
11E1
  8
3
 10
63.5
 20
-27.8752484864001
 30
0.0
  0
SEQEND
  5
1626
  8
3
  0
POLYLINE
  5
DEF
  8
3
 66
     1
 10
0.0
 20
0.0
 30
0.0
  0
VERTEX
  5
11E2
  8
3
 10
63.19999999999982
 20
-15.75234772509998
 30
0.0
  0
VERTEX
  5
11E3
  8
3
 10
63.42705844229999
 20
-15.71552204220006
 30
0.0
  0
VERTEX
  5
11E4
  8
3
 10
63.66623448759992
 20
-15.72527465489998
 30
0.0
  0
VERTEX
  5
11E5
  8
3
 10
63.88985734849985
 20
-15.77899928900001
 30
0.0
  0
VERTEX
  5
11E6
  8
3
 10
64.10792598889998
 20
-15.87073195440007
 30
0.0
  0
VERTEX
  5
11E7
  8
3
 10
64.41790536299982
 20
-16.06249166330008
 30
0.0
  0
VERTEX
  5
11E8
  8
3
 10
64.70378984419995
 20
-16.29871074669995
 30
0.0
  0
VERTEX
  5
11E9
  8
3
 10
64.96872089570002
 20
-16.56941265130013
 30
0.0
  0
VERTEX
  5
11EA
  8
3
 10
65.20264802249994
 20
-16.85911957090002
 30
0.0
  0
VERTEX
  5
11EB
  8
3
 10
65.36114365819981
 20
-17.09657281540012
 30
0.0
  0
VERTEX
  5
11EC
  8
3
 10
65.48702136139991
 20
-17.33225010959995
 30
0.0
  0
VERTEX
  5
11ED
  8
3
 10
65.56728427309986
 20
-17.54515818849995
 30
0.0
  0
VERTEX
  5
11EE
  8
3
 10
65.5997643103999
 20
-17.73761845810009
 30
0.0
  0
VERTEX
  5
11EF
  8
3
 10
65.58537641849989
 20
-17.86659206240006
 30
0.0
  0
VERTEX
  5
11F0
  8
3
 10
65.53273922879998
 20
-17.96844205790012
 30
0.0
  0
VERTEX
  5
11F1
  8
3
 10
65.45025611679989
 20
-18.03518240769995
 30
0.0
  0
VERTEX
  5
11F2
  8
3
 10
65.33716256179991
 20
-18.07481072730002
 30
0.0
  0
VERTEX
  5
11F3
  8
3
 10
65.13966636789996
 20
-18.08741273119995
 30
0.0
  0
VERTEX
  5
11F4
  8
3
 10
64.89547223679983
 20
-18.05848045290008
 30
0.0
  0
VERTEX
  5
11F5
  8
3
 10
64.61731593819991
 20
-17.99944071200002
 30
0.0
  0
VERTEX
  5
11F6
  8
3
 10
64.29683007109998
 20
-17.92235882509999
 30
0.0
  0
VERTEX
  5
11F7
  8
3
 10
64.0863516382999
 20
-17.87648484240003
 30
0.0
  0
VERTEX
  5
11F8
  8
3
 10
63.85712368279997
 20
-17.83792744690004
 30
0.0
  0
VERTEX
  5
11F9
  8
3
 10
63.66305831770001
 20
-17.81847827199999
 30
0.0
  0
VERTEX
  5
11FA
  8
3
 10
63.4588783186
 20
-17.81352962930009
 30
0.0
  0
VERTEX
  5
11FB
  8
3
 10
63.19999999999982
 20
-17.83080869419996
 30
0.0
  0
SEQEND
  5
1625
  8
3
  0
ARC
  5
DF0
  8
3
 10
65.66249026799983
 20
-16.62768775259997
 30
0.0
 40
2.740685739043568
 50
153.9608383779994
 51
206.0391616220006
  0
POLYLINE
  5
DF1
  8
3
 66
     1
 10
0.0
 20
0.0
 30
0.0
  0
VERTEX
  5
11FC
  8
3
 10
63.19999999999982
 20
-15.42456681110002
 30
0.0
  0
VERTEX
  5
11FD
  8
3
 10
63.42705844229999
 20
-15.46139249399994
 30
0.0
  0
VERTEX
  5
11FE
  8
3
 10
63.66623448759992
 20
-15.45163988130003
 30
0.0
  0
VERTEX
  5
11FF
  8
3
 10
63.88985734849985
 20
-15.39791524719999
 30
0.0
  0
VERTEX
  5
1200
  8
3
 10
64.10792598889998
 20
-15.30618258179993
 30
0.0
  0
VERTEX
  5
1201
  8
3
 10
64.41790536299982
 20
-15.11442287280011
 30
0.0
  0
VERTEX
  5
1202
  8
3
 10
64.70378984419995
 20
-14.87820378950005
 30
0.0
  0
VERTEX
  5
1203
  8
3
 10
64.96872089570002
 20
-14.6075018849001
 30
0.0
  0
VERTEX
  5
1204
  8
3
 10
65.20264802249994
 20
-14.31779496529998
 30
0.0
  0
VERTEX
  5
1205
  8
3
 10
65.36114365819981
 20
-14.08034172080011
 30
0.0
  0
VERTEX
  5
1206
  8
3
 10
65.48702136139991
 20
-13.84466442660005
 30
0.0
  0
VERTEX
  5
1207
  8
3
 10
65.56728427309986
 20
-13.6317563476
 30
0.0
  0
VERTEX
  5
1208
  8
3
 10
65.5997643103999
 20
-13.4392960780001
 30
0.0
  0
VERTEX
  5
1209
  8
3
 10
65.58537641849989
 20
-13.31032247379994
 30
0.0
  0
VERTEX
  5
120A
  8
3
 10
65.53273922879998
 20
-13.20847247830011
 30
0.0
  0
VERTEX
  5
120B
  8
3
 10
65.45025611679989
 20
-13.14173212840001
 30
0.0
  0
VERTEX
  5
120C
  8
3
 10
65.33716256179991
 20
-13.10210380879994
 30
0.0
  0
VERTEX
  5
120D
  8
3
 10
65.13966636789996
 20
-13.08950180490001
 30
0.0
  0
VERTEX
  5
120E
  8
3
 10
64.89547223679983
 20
-13.1184340832001
 30
0.0
  0
VERTEX
  5
120F
  8
3
 10
64.61731593819991
 20
-13.17747382419998
 30
0.0
  0
VERTEX
  5
1210
  8
3
 10
64.29683007109998
 20
-13.25455571099997
 30
0.0
  0
VERTEX
  5
1211
  8
3
 10
64.0863516382999
 20
-13.30042969369993
 30
0.0
  0
VERTEX
  5
1212
  8
3
 10
63.85712368279997
 20
-13.33898708919992
 30
0.0
  0
VERTEX
  5
1213
  8
3
 10
63.66305831770001
 20
-13.35843626420001
 30
0.0
  0
VERTEX
  5
1214
  8
3
 10
63.4588783186
 20
-13.36338490680009
 30
0.0
  0
VERTEX
  5
1215
  8
3
 10
63.19999999999982
 20
-13.34610584200004
 30
0.0
  0
SEQEND
  5
1624
  8
3
  0
ARC
  5
DF2
  8
3
 10
65.66249026809987
 20
-14.54922678349999
 30
0.0
 40
2.74068573904602
 50
153.960838378001
 51
206.0391616219989
  0
LINE
  5
DF3
  8
3
 10
63.19999999999982
 20
-15.42456681110002
 30
0.0
 11
63.19999999999982
 21
-17.83080869419996
 31
0.0
  0
LINE
  5
DF4
  8
3
 10
63.19999999999982
 20
-15.42456681110002
 30
0.0
 11
63.19999999999982
 21
-13.34610584200004
 31
0.0
  0
LINE
  5
DF5
  8
3
 10
63.19999999999982
 20
17.8308086943
 30
0.0
 11
63.19999999999982
 21
15.42456681120007
 31
0.0
  0
LINE
  5
DF6
  8
3
 10
63.19999999999982
 20
13.34610584209986
 30
0.0
 11
63.19999999999982
 21
15.42456681120007
 31
0.0
  0
POLYLINE
  5
DF7
  8
3
 66
     1
 10
0.0
 20
0.0
 30
0.0
  0
VERTEX
  5
1216
  8
3
 10
63.5
 20
-28.06741182330006
 30
0.0
  0
VERTEX
  5
1217
  8
3
 10
64.39780287619988
 20
-28.14656525860005
 30
0.0
  0
VERTEX
  5
1218
  8
3
 10
65.18731747539982
 20
-28.37447849170007
 30
0.0
  0
VERTEX
  5
1219
  8
3
 10
65.77331668490001
 20
-28.72366182330006
 30
0.0
  0
VERTEX
  5
121A
  8
3
 10
66.08512035169997
 20
-29.15199859020004
 30
0.0
  0
VERTEX
  5
121B
  8
3
 10
66.08512035169997
 20
-29.60782505650013
 30
0.0
  0
VERTEX
  5
121C
  8
3
 10
65.77331668490001
 20
-30.03616182330006
 30
0.0
  0
VERTEX
  5
121D
  8
3
 10
65.18731747539982
 20
-30.38534515490005
 30
0.0
  0
VERTEX
  5
121E
  8
3
 10
64.39780287619988
 20
-30.61325838810012
 30
0.0
  0
VERTEX
  5
121F
  8
3
 10
63.5
 20
-30.69241182330006
 30
0.0
  0
VERTEX
  5
1220
  8
3
 10
62.6021971237999
 20
-30.61325838810012
 30
0.0
  0
VERTEX
  5
1221
  8
3
 10
61.81268252459995
 20
-30.38534515490005
 30
0.0
  0
VERTEX
  5
1222
  8
3
 10
61.22668331509999
 20
-30.03616182330006
 30
0.0
  0
VERTEX
  5
1223
  8
3
 10
60.91487964839985
 20
-29.60782505650013
 30
0.0
  0
VERTEX
  5
1224
  8
3
 10
60.91487964839985
 20
-29.15199859020004
 30
0.0
  0
VERTEX
  5
1225
  8
3
 10
61.22668331509999
 20
-28.72366182330006
 30
0.0
  0
VERTEX
  5
1226
  8
3
 10
61.81268252459995
 20
-28.37447849170007
 30
0.0
  0
VERTEX
  5
1227
  8
3
 10
62.6021971237999
 20
-28.14656525860005
 30
0.0
  0
VERTEX
  5
1228
  8
3
 10
63.5
 20
-28.06741182330006
 30
0.0
  0
SEQEND
  5
1623
  8
3
  0
POLYLINE
  5
DF8
  8
3
 66
     1
 10
0.0
 20
0.0
 30
0.0
  0
VERTEX
  5
1229
  8
3
 10
63.5
 20
30.69241182339988
 30
0.0
  0
VERTEX
  5
122A
  8
3
 10
64.39780287619988
 20
30.61325838819994
 30
0.0
  0
VERTEX
  5
122B
  8
3
 10
65.18731747539982
 20
30.38534515499987
 30
0.0
  0
VERTEX
  5
122C
  8
3
 10
65.77331668490001
 20
30.03616182339988
 30
0.0
  0
VERTEX
  5
122D
  8
3
 10
66.08512035169997
 20
29.60782505659995
 30
0.0
  0
VERTEX
  5
122E
  8
3
 10
66.08512035169997
 20
29.15199859020004
 30
0.0
  0
VERTEX
  5
122F
  8
3
 10
65.77331668490001
 20
28.72366182339988
 30
0.0
  0
VERTEX
  5
1230
  8
3
 10
65.18731747539982
 20
28.37447849179989
 30
0.0
  0
VERTEX
  5
1231
  8
3
 10
64.39780287619988
 20
28.14656525860005
 30
0.0
  0
VERTEX
  5
1232
  8
3
 10
63.5
 20
28.06741182339988
 30
0.0
  0
VERTEX
  5
1233
  8
3
 10
62.6021971237999
 20
28.14656525860005
 30
0.0
  0
VERTEX
  5
1234
  8
3
 10
61.81268252459995
 20
28.37447849179989
 30
0.0
  0
VERTEX
  5
1235
  8
3
 10
61.22668331509999
 20
28.72366182339988
 30
0.0
  0
VERTEX
  5
1236
  8
3
 10
60.91487964839985
 20
29.15199859020004
 30
0.0
  0
VERTEX
  5
1237
  8
3
 10
60.91487964839985
 20
29.60782505659995
 30
0.0
  0
VERTEX
  5
1238
  8
3
 10
61.22668331509999
 20
30.03616182339988
 30
0.0
  0
VERTEX
  5
1239
  8
3
 10
61.81268252459995
 20
30.38534515499987
 30
0.0
  0
VERTEX
  5
123A
  8
3
 10
62.6021971237999
 20
30.61325838819994
 30
0.0
  0
VERTEX
  5
123B
  8
3
 10
63.5
 20
30.69241182339988
 30
0.0
  0
SEQEND
  5
1622
  8
3
  0
LINE
  5
DF9
  8
3
 10
96.51873
 20
12.70000000000005
 30
0.0
 11
96.51873
 21
-12.70000000000005
 31
0.0
  0
LINE
  5
DFA
  8
3
 10
95.25
 20
11.43127000000004
 30
0.0
 11
95.25
 21
-11.43127000000004
 31
0.0
  0
LINE
  5
E03
  8
3
 10
88.42296030499983
 20
50.80380999999988
 30
0.0
 11
88.42296030499983
 21
31.74619000000007
 31
0.0
  0
LINE
  5
E04
  8
3
 10
87.2848395105998
 20
50.79380999999989
 30
0.0
 11
87.2848395105998
 21
31.75619000000006
 31
0.0
  0
LINE
  5
E05
  8
3
 10
86.3599999999999
 20
50.54600000000005
 30
0.0
 11
86.3599999999999
 21
32.00399999999991
 31
0.0
  0
LINE
  5
E06
  8
3
 10
88.42296030499983
 20
-31.74619000000007
 30
0.0
 11
88.42296030499983
 21
-50.80381000000011
 31
0.0
  0
LINE
  5
E07
  8
3
 10
86.3599999999999
 20
-32.00400000000013
 30
0.0
 11
86.3599999999999
 21
-50.54600000000005
 31
0.0
  0
LINE
  5
E08
  8
3
 10
87.2848395105998
 20
-31.75619000000006
 30
0.0
 11
87.2848395105998
 21
-50.79381000000012
 31
0.0
  0
CIRCLE
  5
E09
  8
3
 10
63.5
 20
0.0
 30
0.0
 40
2.316732743452349
  0
CIRCLE
  5
E0A
  8
3
 10
63.5
 20
0.0
 30
0.0
 40
1.75
  0
POLYLINE
  5
E0B
  8
3
 66
     1
 10
0.0
 20
0.0
 30
0.0
  0
VERTEX
  5
123C
  8
3
 10
63.5
 20
-25.92478480440013
 30
0.0
  0
VERTEX
  5
123D
  8
3
 10
62.83030399339987
 20
-25.85817939539993
 30
0.0
  0
VERTEX
  5
123E
  8
3
 10
62.26256313289991
 20
-25.66850323800008
 30
0.0
  0
VERTEX
  5
123F
  8
3
 10
61.8832108181
 20
-25.38463280769997
 30
0.0
  0
VERTEX
  5
1240
  8
3
 10
61.75
 20
-25.04978480440013
 30
0.0
  0
VERTEX
  5
1241
  8
3
 10
61.8832108181
 20
-24.71493680110007
 30
0.0
  0
VERTEX
  5
1242
  8
3
 10
62.26256313289991
 20
-24.4310663709
 30
0.0
  0
VERTEX
  5
1243
  8
3
 10
62.83030399339987
 20
-24.24139021349993
 30
0.0
  0
VERTEX
  5
1244
  8
3
 10
63.5
 20
-24.17478480440013
 30
0.0
  0
VERTEX
  5
1245
  8
3
 10
64.1696960065999
 20
-24.24139021349993
 30
0.0
  0
VERTEX
  5
1246
  8
3
 10
64.73743686709986
 20
-24.4310663709
 30
0.0
  0
VERTEX
  5
1247
  8
3
 10
65.1167891819
 20
-24.71493680110007
 30
0.0
  0
VERTEX
  5
1248
  8
3
 10
65.25
 20
-25.04978480440013
 30
0.0
  0
VERTEX
  5
1249
  8
3
 10
65.1167891819
 20
-25.38463280769997
 30
0.0
  0
VERTEX
  5
124A
  8
3
 10
64.73743686709986
 20
-25.66850323800008
 30
0.0
  0
VERTEX
  5
124B
  8
3
 10
64.1696960065999
 20
-25.85817939539993
 30
0.0
  0
VERTEX
  5
124C
  8
3
 10
63.5
 20
-25.92478480440013
 30
0.0
  0
SEQEND
  5
1621
  8
3
  0
POLYLINE
  5
E0C
  8
3
 66
     1
 10
0.0
 20
0.0
 30
0.0
  0
VERTEX
  5
124D
  8
3
 10
61.1832672564999
 20
-25.54058975740008
 30
0.0
  0
VERTEX
  5
124E
  8
3
 10
61.33971105379987
 20
-25.12213955919992
 30
0.0
  0
VERTEX
  5
124F
  8
3
 10
61.78791384379997
 20
-24.76020337900013
 30
0.0
  0
VERTEX
  5
1250
  8
3
 10
62.46734335609995
 20
-24.50366270350014
 30
0.0
  0
VERTEX
  5
1251
  8
3
 10
63.28623887039998
 20
-24.38716477239996
 30
0.0
  0
VERTEX
  5
1252
  8
3
 10
64.13400400979981
 20
-24.42644327690005
 30
0.0
  0
VERTEX
  5
1253
  8
3
 10
64.89614339439981
 20
-24.61619343730013
 30
0.0
  0
VERTEX
  5
1254
  8
3
 10
65.46972587739992
 20
-24.93078844289994
 30
0.0
  0
VERTEX
  5
1255
  8
3
 10
65.77728596599991
 20
-25.32774049509999
 30
0.0
  0
VERTEX
  5
1256
  8
3
 10
65.77728596599991
 20
-25.75343901969995
 30
0.0
  0
VERTEX
  5
1257
  8
3
 10
65.46972587739992
 20
-26.1503910719
 30
0.0
  0
VERTEX
  5
1258
  8
3
 10
64.89614339439981
 20
-26.46498607750004
 30
0.0
  0
VERTEX
  5
1259
  8
3
 10
64.13400400979981
 20
-26.65473623790012
 30
0.0
  0
VERTEX
  5
125A
  8
3
 10
63.28623887039998
 20
-26.69401474239999
 30
0.0
  0
VERTEX
  5
125B
  8
3
 10
62.46734335609995
 20
-26.57751681130003
 30
0.0
  0
VERTEX
  5
125C
  8
3
 10
61.78791384379997
 20
-26.32097613580004
 30
0.0
  0
VERTEX
  5
125D
  8
3
 10
61.33971105379987
 20
-25.95903995560002
 30
0.0
  0
VERTEX
  5
125E
  8
3
 10
61.1832672564999
 20
-25.54058975740008
 30
0.0
  0
SEQEND
  5
1620
  8
3
  0
POLYLINE
  5
E0D
  8
3
 66
     1
 10
0.0
 20
0.0
 30
0.0
  0
VERTEX
  5
125F
  8
3
 10
65.55499999999984
 20
-25.69930384290001
 30
0.0
  0
VERTEX
  5
1260
  8
3
 10
65.39857243929987
 20
-26.09251106970009
 30
0.0
  0
VERTEX
  5
1261
  8
3
 10
64.95310443529979
 20
-26.42585606059993
 30
0.0
  0
VERTEX
  5
1262
  8
3
 10
64.2864144534999
 20
-26.64859006260008
 30
0.0
  0
VERTEX
  5
1263
  8
3
 10
63.5
 20
-26.72680384289993
 30
0.0
  0
VERTEX
  5
1264
  8
3
 10
62.71358554649987
 20
-26.64859006260008
 30
0.0
  0
VERTEX
  5
1265
  8
3
 10
62.04689556459994
 20
-26.42585606059993
 30
0.0
  0
VERTEX
  5
1266
  8
3
 10
61.6014275606999
 20
-26.09251106970009
 30
0.0
  0
VERTEX
  5
1267
  8
3
 10
61.44499999999994
 20
-25.69930384290001
 30
0.0
  0
VERTEX
  5
1268
  8
3
 10
61.6014275606999
 20
-25.30609661609992
 30
0.0
  0
VERTEX
  5
1269
  8
3
 10
62.04689556459994
 20
-24.97275162520009
 30
0.0
  0
VERTEX
  5
126A
  8
3
 10
62.71358554649987
 20
-24.75001762319994
 30
0.0
  0
VERTEX
  5
126B
  8
3
 10
63.5
 20
-24.67180384290009
 30
0.0
  0
VERTEX
  5
126C
  8
3
 10
64.2864144534999
 20
-24.75001762319994
 30
0.0
  0
VERTEX
  5
126D
  8
3
 10
64.95310443529979
 20
-24.97275162520009
 30
0.0
  0
VERTEX
  5
126E
  8
3
 10
65.39857243929987
 20
-25.30609661609992
 30
0.0
  0
VERTEX
  5
126F
  8
3
 10
65.55499999999984
 20
-25.69930384290001
 30
0.0
  0
SEQEND
  5
161F
  8
3
  0
POLYLINE
  5
E0E
  8
3
 66
     1
 10
0.0
 20
0.0
 30
0.0
  0
VERTEX
  5
1270
  8
3
 10
66.0
 20
-25.96915073750006
 30
0.0
  0
VERTEX
  5
1271
  8
3
 10
65.84923155199999
 20
-26.39667591670013
 30
0.0
  0
VERTEX
  5
1272
  8
3
 10
65.41511110779993
 20
-26.77263524959994
 30
0.0
  0
VERTEX
  5
1273
  8
3
 10
64.75
 20
-27.05168249229996
 30
0.0
  0
VERTEX
  5
1274
  8
3
 10
63.93412044419983
 20
-27.20016042880002
 30
0.0
  0
VERTEX
  5
1275
  8
3
 10
63.06587955579994
 20
-27.20016042880002
 30
0.0
  0
VERTEX
  5
1276
  8
3
 10
62.25
 20
-27.05168249229996
 30
0.0
  0
VERTEX
  5
1277
  8
3
 10
61.58488889219984
 20
-26.77263524959994
 30
0.0
  0
VERTEX
  5
1278
  8
3
 10
61.15076844800001
 20
-26.39667591670013
 30
0.0
  0
VERTEX
  5
1279
  8
3
 10
61.0
 20
-25.96915073750006
 30
0.0
  0
VERTEX
  5
127A
  8
3
 10
61.15076844800001
 20
-25.54162555840003
 30
0.0
  0
VERTEX
  5
127B
  8
3
 10
61.58488889219984
 20
-25.16566622539995
 30
0.0
  0
VERTEX
  5
127C
  8
3
 10
62.25
 20
-24.88661898279997
 30
0.0
  0
VERTEX
  5
127D
  8
3
 10
63.06587955579994
 20
-24.73814104630014
 30
0.0
  0
VERTEX
  5
127E
  8
3
 10
63.93412044419983
 20
-24.73814104630014
 30
0.0
  0
VERTEX
  5
127F
  8
3
 10
64.75
 20
-24.88661898279997
 30
0.0
  0
VERTEX
  5
1280
  8
3
 10
65.41511110779993
 20
-25.16566622539995
 30
0.0
  0
VERTEX
  5
1281
  8
3
 10
65.84923155199999
 20
-25.54162555840003
 30
0.0
  0
VERTEX
  5
1282
  8
3
 10
66.0
 20
-25.96915073750006
 30
0.0
  0
SEQEND
  5
161E
  8
3
  0
POLYLINE
  5
E0F
  8
3
 66
     1
 10
0.0
 20
0.0
 30
0.0
  0
VERTEX
  5
1283
  8
3
 10
66.0
 20
-26.04719028890008
 30
0.0
  0
VERTEX
  5
1284
  8
3
 10
65.84923155189995
 20
-26.47471546800011
 30
0.0
  0
VERTEX
  5
1285
  8
3
 10
65.41511110779993
 20
-26.85067480099997
 30
0.0
  0
VERTEX
  5
1286
  8
3
 10
64.75
 20
-27.12972204359994
 30
0.0
  0
VERTEX
  5
1287
  8
3
 10
63.93412044419983
 20
-27.2781999801
 30
0.0
  0
VERTEX
  5
1288
  8
3
 10
63.06587955579994
 20
-27.2781999801
 30
0.0
  0
VERTEX
  5
1289
  8
3
 10
62.25
 20
-27.12972204359994
 30
0.0
  0
VERTEX
  5
128A
  8
3
 10
61.58488889219984
 20
-26.85067480099997
 30
0.0
  0
VERTEX
  5
128B
  8
3
 10
61.15076844800001
 20
-26.47471546800011
 30
0.0
  0
VERTEX
  5
128C
  8
3
 10
61.0
 20
-26.04719028890008
 30
0.0
  0
VERTEX
  5
128D
  8
3
 10
61.15076844800001
 20
-25.61966510970001
 30
0.0
  0
VERTEX
  5
128E
  8
3
 10
61.58488889219984
 20
-25.24370577679997
 30
0.0
  0
VERTEX
  5
128F
  8
3
 10
62.25
 20
-24.96465853409995
 30
0.0
  0
VERTEX
  5
1290
  8
3
 10
63.06587955579994
 20
-24.81618059760012
 30
0.0
  0
VERTEX
  5
1291
  8
3
 10
63.93412044419983
 20
-24.81618059760012
 30
0.0
  0
VERTEX
  5
1292
  8
3
 10
64.75
 20
-24.96465853409995
 30
0.0
  0
VERTEX
  5
1293
  8
3
 10
65.41511110779993
 20
-25.24370577679997
 30
0.0
  0
VERTEX
  5
1294
  8
3
 10
65.84923155189995
 20
-25.61966510970001
 30
0.0
  0
VERTEX
  5
1295
  8
3
 10
66.0
 20
-26.04719028890008
 30
0.0
  0
SEQEND
  5
161D
  8
3
  0
POLYLINE
  5
E10
  8
3
 66
     1
 10
0.0
 20
0.0
 30
0.0
  0
VERTEX
  5
1296
  8
3
 10
65.55499999999984
 20
-26.31703718350013
 30
0.0
  0
VERTEX
  5
1297
  8
3
 10
65.39857243929987
 20
-26.71024441029999
 30
0.0
  0
VERTEX
  5
1298
  8
3
 10
64.95310443529979
 20
-27.04358940120005
 30
0.0
  0
VERTEX
  5
1299
  8
3
 10
64.2864144534999
 20
-27.26632340319998
 30
0.0
  0
VERTEX
  5
129A
  8
3
 10
63.5
 20
-27.34453718350005
 30
0.0
  0
VERTEX
  5
129B
  8
3
 10
62.71358554649987
 20
-27.26632340319998
 30
0.0
  0
VERTEX
  5
129C
  8
3
 10
62.04689556459994
 20
-27.04358940120005
 30
0.0
  0
VERTEX
  5
129D
  8
3
 10
61.6014275606999
 20
-26.71024441029999
 30
0.0
  0
VERTEX
  5
129E
  8
3
 10
61.44499999999994
 20
-26.31703718350013
 30
0.0
  0
VERTEX
  5
129F
  8
3
 10
61.6014275606999
 20
-25.92382995670005
 30
0.0
  0
VERTEX
  5
12A0
  8
3
 10
62.04689556459994
 20
-25.59048496579999
 30
0.0
  0
VERTEX
  5
12A1
  8
3
 10
62.71358554649987
 20
-25.36775096380006
 30
0.0
  0
VERTEX
  5
12A2
  8
3
 10
63.5
 20
-25.28953718349999
 30
0.0
  0
VERTEX
  5
12A3
  8
3
 10
64.2864144534999
 20
-25.36775096380006
 30
0.0
  0
VERTEX
  5
12A4
  8
3
 10
64.95310443529979
 20
-25.59048496579999
 30
0.0
  0
VERTEX
  5
12A5
  8
3
 10
65.39857243929987
 20
-25.92382995670005
 30
0.0
  0
VERTEX
  5
12A6
  8
3
 10
65.55499999999984
 20
-26.31703718350013
 30
0.0
  0
SEQEND
  5
161C
  8
3
  0
POLYLINE
  5
E11
  8
3
 66
     1
 10
0.0
 20
0.0
 30
0.0
  0
VERTEX
  5
12A7
  8
3
 10
66.0
 20
-26.58688407809996
 30
0.0
  0
VERTEX
  5
12A8
  8
3
 10
65.84923155189995
 20
-27.01440925730003
 30
0.0
  0
VERTEX
  5
12A9
  8
3
 10
65.41511110779993
 20
-27.39036859020007
 30
0.0
  0
VERTEX
  5
12AA
  8
3
 10
64.75
 20
-27.66941583290009
 30
0.0
  0
VERTEX
  5
12AB
  8
3
 10
63.93412044410002
 20
-27.81789376940014
 30
0.0
  0
VERTEX
  5
12AC
  8
3
 10
63.06587955579994
 20
-27.81789376940014
 30
0.0
  0
VERTEX
  5
12AD
  8
3
 10
62.25
 20
-27.66941583290009
 30
0.0
  0
VERTEX
  5
12AE
  8
3
 10
61.58488889219984
 20
-27.39036859020007
 30
0.0
  0
VERTEX
  5
12AF
  8
3
 10
61.15076844800001
 20
-27.01440925730003
 30
0.0
  0
VERTEX
  5
12B0
  8
3
 10
61.0
 20
-26.58688407809996
 30
0.0
  0
VERTEX
  5
12B1
  8
3
 10
61.15076844800001
 20
-26.15935889899993
 30
0.0
  0
VERTEX
  5
12B2
  8
3
 10
61.58488889219984
 20
-25.78339956600007
 30
0.0
  0
VERTEX
  5
12B3
  8
3
 10
62.25
 20
-25.5043523234001
 30
0.0
  0
VERTEX
  5
12B4
  8
3
 10
63.06587955579994
 20
-25.35587438690004
 30
0.0
  0
VERTEX
  5
12B5
  8
3
 10
63.93412044410002
 20
-25.35587438690004
 30
0.0
  0
VERTEX
  5
12B6
  8
3
 10
64.75
 20
-25.5043523234001
 30
0.0
  0
VERTEX
  5
12B7
  8
3
 10
65.41511110779993
 20
-25.78339956600007
 30
0.0
  0
VERTEX
  5
12B8
  8
3
 10
65.84923155189995
 20
-26.15935889899993
 30
0.0
  0
VERTEX
  5
12B9
  8
3
 10
66.0
 20
-26.58688407809996
 30
0.0
  0
SEQEND
  5
161B
  8
3
  0
POLYLINE
  5
E12
  8
3
 66
     1
 10
0.0
 20
0.0
 30
0.0
  0
VERTEX
  5
12BA
  8
3
 10
66.0
 20
-26.66492362949998
 30
0.0
  0
VERTEX
  5
12BB
  8
3
 10
65.84923155189995
 20
-27.09244880860001
 30
0.0
  0
VERTEX
  5
12BC
  8
3
 10
65.41511110779993
 20
-27.46840814160009
 30
0.0
  0
VERTEX
  5
12BD
  8
3
 10
64.75
 20
-27.74745538420007
 30
0.0
  0
VERTEX
  5
12BE
  8
3
 10
63.93412044410002
 20
-27.89593332070012
 30
0.0
  0
VERTEX
  5
12BF
  8
3
 10
63.06587955579994
 20
-27.89593332070012
 30
0.0
  0
VERTEX
  5
12C0
  8
3
 10
62.25
 20
-27.74745538420007
 30
0.0
  0
VERTEX
  5
12C1
  8
3
 10
61.58488889219984
 20
-27.46840814160009
 30
0.0
  0
VERTEX
  5
12C2
  8
3
 10
61.15076844800001
 20
-27.09244880860001
 30
0.0
  0
VERTEX
  5
12C3
  8
3
 10
61.0
 20
-26.66492362949998
 30
0.0
  0
VERTEX
  5
12C4
  8
3
 10
61.15076844800001
 20
-26.23739845030013
 30
0.0
  0
VERTEX
  5
12C5
  8
3
 10
61.58488889219984
 20
-25.8614391174001
 30
0.0
  0
VERTEX
  5
12C6
  8
3
 10
62.25
 20
-25.58239187470008
 30
0.0
  0
VERTEX
  5
12C7
  8
3
 10
63.06587955579994
 20
-25.43391393820002
 30
0.0
  0
VERTEX
  5
12C8
  8
3
 10
63.93412044410002
 20
-25.43391393820002
 30
0.0
  0
VERTEX
  5
12C9
  8
3
 10
64.75
 20
-25.58239187470008
 30
0.0
  0
VERTEX
  5
12CA
  8
3
 10
65.41511110779993
 20
-25.8614391174001
 30
0.0
  0
VERTEX
  5
12CB
  8
3
 10
65.84923155189995
 20
-26.23739845030013
 30
0.0
  0
VERTEX
  5
12CC
  8
3
 10
66.0
 20
-26.66492362949998
 30
0.0
  0
SEQEND
  5
161A
  8
3
  0
POLYLINE
  5
E13
  8
3
 66
     1
 10
0.0
 20
0.0
 30
0.0
  0
VERTEX
  5
12CD
  8
3
 10
65.55499999999984
 20
-26.93477052410003
 30
0.0
  0
VERTEX
  5
12CE
  8
3
 10
65.39857243929987
 20
-27.32797775090012
 30
0.0
  0
VERTEX
  5
12CF
  8
3
 10
64.95310443529979
 20
-27.66132274179995
 30
0.0
  0
VERTEX
  5
12D0
  8
3
 10
64.2864144534999
 20
-27.8840567438001
 30
0.0
  0
VERTEX
  5
12D1
  8
3
 10
63.5
 20
-27.96227052409995
 30
0.0
  0
VERTEX
  5
12D2
  8
3
 10
62.71358554649987
 20
-27.8840567438001
 30
0.0
  0
VERTEX
  5
12D3
  8
3
 10
62.04689556459994
 20
-27.66132274179995
 30
0.0
  0
VERTEX
  5
12D4
  8
3
 10
61.6014275606999
 20
-27.32797775090012
 30
0.0
  0
VERTEX
  5
12D5
  8
3
 10
61.44499999999994
 20
-26.93477052410003
 30
0.0
  0
VERTEX
  5
12D6
  8
3
 10
61.6014275606999
 20
-26.54156329729994
 30
0.0
  0
VERTEX
  5
12D7
  8
3
 10
62.04689556459994
 20
-26.20821830640011
 30
0.0
  0
VERTEX
  5
12D8
  8
3
 10
62.71358554649987
 20
-25.98548430439996
 30
0.0
  0
VERTEX
  5
12D9
  8
3
 10
63.5
 20
-25.90727052410011
 30
0.0
  0
VERTEX
  5
12DA
  8
3
 10
64.2864144534999
 20
-25.98548430439996
 30
0.0
  0
VERTEX
  5
12DB
  8
3
 10
64.95310443529979
 20
-26.20821830640011
 30
0.0
  0
VERTEX
  5
12DC
  8
3
 10
65.39857243929987
 20
-26.54156329729994
 30
0.0
  0
VERTEX
  5
12DD
  8
3
 10
65.55499999999984
 20
-26.93477052410003
 30
0.0
  0
SEQEND
  5
1619
  8
3
  0
POLYLINE
  5
E14
  8
3
 66
     1
 10
0.0
 20
0.0
 30
0.0
  0
VERTEX
  5
12DE
  8
3
 10
66.0
 20
-27.20461741870008
 30
0.0
  0
VERTEX
  5
12DF
  8
3
 10
65.84923155189995
 20
-27.63214259789993
 30
0.0
  0
VERTEX
  5
12E0
  8
3
 10
65.41511110779993
 20
-28.00810193079997
 30
0.0
  0
VERTEX
  5
12E1
  8
3
 10
64.75
 20
-28.28714917349998
 30
0.0
  0
VERTEX
  5
12E2
  8
3
 10
63.93412044410002
 20
-28.43562711000004
 30
0.0
  0
VERTEX
  5
12E3
  8
3
 10
63.06587955579994
 20
-28.43562711000004
 30
0.0
  0
VERTEX
  5
12E4
  8
3
 10
62.25
 20
-28.28714917349998
 30
0.0
  0
VERTEX
  5
12E5
  8
3
 10
61.58488889219984
 20
-28.00810193079997
 30
0.0
  0
VERTEX
  5
12E6
  8
3
 10
61.15076844800001
 20
-27.63214259789993
 30
0.0
  0
VERTEX
  5
12E7
  8
3
 10
61.0
 20
-27.20461741870008
 30
0.0
  0
VERTEX
  5
12E8
  8
3
 10
61.15076844800001
 20
-26.77709223960005
 30
0.0
  0
VERTEX
  5
12E9
  8
3
 10
61.58488889219984
 20
-26.40113290659997
 30
0.0
  0
VERTEX
  5
12EA
  8
3
 10
62.25
 20
-26.122085664
 30
0.0
  0
VERTEX
  5
12EB
  8
3
 10
63.06587955579994
 20
-25.97360772749994
 30
0.0
  0
VERTEX
  5
12EC
  8
3
 10
63.93412044410002
 20
-25.97360772749994
 30
0.0
  0
VERTEX
  5
12ED
  8
3
 10
64.75
 20
-26.122085664
 30
0.0
  0
VERTEX
  5
12EE
  8
3
 10
65.41511110779993
 20
-26.40113290659997
 30
0.0
  0
VERTEX
  5
12EF
  8
3
 10
65.84923155189995
 20
-26.77709223960005
 30
0.0
  0
VERTEX
  5
12F0
  8
3
 10
66.0
 20
-27.20461741870008
 30
0.0
  0
SEQEND
  5
1618
  8
3
  0
POLYLINE
  5
E15
  8
3
 66
     1
 10
0.0
 20
0.0
 30
0.0
  0
VERTEX
  5
12F1
  8
3
 10
66.0
 20
-27.28265697010011
 30
0.0
  0
VERTEX
  5
12F2
  8
3
 10
65.84923155199999
 20
-27.71018214920014
 30
0.0
  0
VERTEX
  5
12F3
  8
3
 10
65.41511110779993
 20
-28.08614148219999
 30
0.0
  0
VERTEX
  5
12F4
  8
3
 10
64.75
 20
-28.36518872479996
 30
0.0
  0
VERTEX
  5
12F5
  8
3
 10
63.93412044419983
 20
-28.51366666140007
 30
0.0
  0
VERTEX
  5
12F6
  8
3
 10
63.06587955579994
 20
-28.51366666140007
 30
0.0
  0
VERTEX
  5
12F7
  8
3
 10
62.25
 20
-28.36518872479996
 30
0.0
  0
VERTEX
  5
12F8
  8
3
 10
61.58488889219984
 20
-28.08614148219999
 30
0.0
  0
VERTEX
  5
12F9
  8
3
 10
61.15076844800001
 20
-27.71018214920014
 30
0.0
  0
VERTEX
  5
12FA
  8
3
 10
61.0
 20
-27.28265697010011
 30
0.0
  0
VERTEX
  5
12FB
  8
3
 10
61.15076844800001
 20
-26.85513179090003
 30
0.0
  0
VERTEX
  5
12FC
  8
3
 10
61.58488889219984
 20
-26.47917245799999
 30
0.0
  0
VERTEX
  5
12FD
  8
3
 10
62.25
 20
-26.20012521540002
 30
0.0
  0
VERTEX
  5
12FE
  8
3
 10
63.06587955579994
 20
-26.05164727879992
 30
0.0
  0
VERTEX
  5
12FF
  8
3
 10
63.93412044419983
 20
-26.05164727879992
 30
0.0
  0
VERTEX
  5
1300
  8
3
 10
64.75
 20
-26.20012521540002
 30
0.0
  0
VERTEX
  5
1301
  8
3
 10
65.41511110779993
 20
-26.47917245799999
 30
0.0
  0
VERTEX
  5
1302
  8
3
 10
65.84923155199999
 20
-26.85513179090003
 30
0.0
  0
VERTEX
  5
1303
  8
3
 10
66.0
 20
-27.28265697010011
 30
0.0
  0
SEQEND
  5
1617
  8
3
  0
POLYLINE
  5
E16
  8
3
 66
     1
 10
0.0
 20
0.0
 30
0.0
  0
VERTEX
  5
1304
  8
3
 10
65.55499999999984
 20
-27.55250386469993
 30
0.0
  0
VERTEX
  5
1305
  8
3
 10
65.39857243929987
 20
-27.94571109150002
 30
0.0
  0
VERTEX
  5
1306
  8
3
 10
64.95310443529979
 20
-28.27905608240007
 30
0.0
  0
VERTEX
  5
1307
  8
3
 10
64.2864144534999
 20
-28.5017900844
 30
0.0
  0
VERTEX
  5
1308
  8
3
 10
63.5
 20
-28.58000386470007
 30
0.0
  0
VERTEX
  5
1309
  8
3
 10
62.71358554649987
 20
-28.5017900844
 30
0.0
  0
VERTEX
  5
130A
  8
3
 10
62.04689556469998
 20
-28.27905608240007
 30
0.0
  0
VERTEX
  5
130B
  8
3
 10
61.6014275606999
 20
-27.94571109150002
 30
0.0
  0
VERTEX
  5
130C
  8
3
 10
61.44499999999994
 20
-27.55250386469993
 30
0.0
  0
VERTEX
  5
130D
  8
3
 10
61.6014275606999
 20
-27.15929663800011
 30
0.0
  0
VERTEX
  5
130E
  8
3
 10
62.04689556469998
 20
-26.82595164700001
 30
0.0
  0
VERTEX
  5
130F
  8
3
 10
62.71358554649987
 20
-26.60321764510013
 30
0.0
  0
VERTEX
  5
1310
  8
3
 10
63.5
 20
-26.52500386470001
 30
0.0
  0
VERTEX
  5
1311
  8
3
 10
64.2864144534999
 20
-26.60321764510013
 30
0.0
  0
VERTEX
  5
1312
  8
3
 10
64.95310443529979
 20
-26.82595164700001
 30
0.0
  0
VERTEX
  5
1313
  8
3
 10
65.39857243929987
 20
-27.15929663800011
 30
0.0
  0
VERTEX
  5
1314
  8
3
 10
65.55499999999984
 20
-27.55250386469993
 30
0.0
  0
SEQEND
  5
1616
  8
3
  0
POLYLINE
  5
E17
  8
3
 66
     1
 10
0.0
 20
0.0
 30
0.0
  0
VERTEX
  5
1315
  8
3
 10
66.0
 20
-27.82235075929998
 30
0.0
  0
VERTEX
  5
1316
  8
3
 10
65.84923155199999
 20
-28.24987593850005
 30
0.0
  0
VERTEX
  5
1317
  8
3
 10
65.41511110779993
 20
-28.62583527140009
 30
0.0
  0
VERTEX
  5
1318
  8
3
 10
64.75
 20
-28.90488251410011
 30
0.0
  0
VERTEX
  5
1319
  8
3
 10
63.93412044419983
 20
-29.05336045059994
 30
0.0
  0
VERTEX
  5
131A
  8
3
 10
63.06587955579994
 20
-29.05336045059994
 30
0.0
  0
VERTEX
  5
131B
  8
3
 10
62.25
 20
-28.90488251410011
 30
0.0
  0
VERTEX
  5
131C
  8
3
 10
61.58488889219984
 20
-28.62583527140009
 30
0.0
  0
VERTEX
  5
131D
  8
3
 10
61.15076844800001
 20
-28.24987593850005
 30
0.0
  0
VERTEX
  5
131E
  8
3
 10
61.0
 20
-27.82235075929998
 30
0.0
  0
VERTEX
  5
131F
  8
3
 10
61.15076844800001
 20
-27.39482558019995
 30
0.0
  0
VERTEX
  5
1320
  8
3
 10
61.58488889219984
 20
-27.01886624720009
 30
0.0
  0
VERTEX
  5
1321
  8
3
 10
62.25
 20
-26.73981900460012
 30
0.0
  0
VERTEX
  5
1322
  8
3
 10
63.06587955579994
 20
-26.59134106810006
 30
0.0
  0
VERTEX
  5
1323
  8
3
 10
63.93412044419983
 20
-26.59134106810006
 30
0.0
  0
VERTEX
  5
1324
  8
3
 10
64.75
 20
-26.73981900460012
 30
0.0
  0
VERTEX
  5
1325
  8
3
 10
65.41511110779993
 20
-27.01886624720009
 30
0.0
  0
VERTEX
  5
1326
  8
3
 10
65.84923155199999
 20
-27.39482558019995
 30
0.0
  0
VERTEX
  5
1327
  8
3
 10
66.0
 20
-27.82235075929998
 30
0.0
  0
SEQEND
  5
1615
  8
3
  0
POLYLINE
  5
E18
  8
3
 66
     1
 10
0.0
 20
0.0
 30
0.0
  0
VERTEX
  5
1328
  8
3
 10
66.0
 20
-27.9003903107
 30
0.0
  0
VERTEX
  5
1329
  8
3
 10
65.84923155199999
 20
-28.32791548980003
 30
0.0
  0
VERTEX
  5
132A
  8
3
 10
65.41511110779993
 20
-28.70387482280012
 30
0.0
  0
VERTEX
  5
132B
  8
3
 10
64.75
 20
-28.98292206540009
 30
0.0
  0
VERTEX
  5
132C
  8
3
 10
63.93412044419983
 20
-29.13140000199996
 30
0.0
  0
VERTEX
  5
132D
  8
3
 10
63.06587955579994
 20
-29.13140000199996
 30
0.0
  0
VERTEX
  5
132E
  8
3
 10
62.25
 20
-28.98292206540009
 30
0.0
  0
VERTEX
  5
132F
  8
3
 10
61.58488889219984
 20
-28.70387482280012
 30
0.0
  0
VERTEX
  5
1330
  8
3
 10
61.15076844800001
 20
-28.32791548980003
 30
0.0
  0
VERTEX
  5
1331
  8
3
 10
61.0
 20
-27.9003903107
 30
0.0
  0
VERTEX
  5
1332
  8
3
 10
61.15076844800001
 20
-27.47286513149993
 30
0.0
  0
VERTEX
  5
1333
  8
3
 10
61.58488889219984
 20
-27.09690579860012
 30
0.0
  0
VERTEX
  5
1334
  8
3
 10
62.25
 20
-26.81785855599992
 30
0.0
  0
VERTEX
  5
1335
  8
3
 10
63.06587955579994
 20
-26.66938061940004
 30
0.0
  0
VERTEX
  5
1336
  8
3
 10
63.93412044419983
 20
-26.66938061940004
 30
0.0
  0
VERTEX
  5
1337
  8
3
 10
64.75
 20
-26.81785855599992
 30
0.0
  0
VERTEX
  5
1338
  8
3
 10
65.41511110779993
 20
-27.09690579860012
 30
0.0
  0
VERTEX
  5
1339
  8
3
 10
65.84923155199999
 20
-27.47286513149993
 30
0.0
  0
VERTEX
  5
133A
  8
3
 10
66.0
 20
-27.9003903107
 30
0.0
  0
SEQEND
  5
1614
  8
3
  0
POLYLINE
  5
E19
  8
3
 66
     1
 10
0.0
 20
0.0
 30
0.0
  0
VERTEX
  5
133B
  8
3
 10
65.55499999999984
 20
-28.17023720530005
 30
0.0
  0
VERTEX
  5
133C
  8
3
 10
65.39857243929987
 20
-28.56344443210014
 30
0.0
  0
VERTEX
  5
133D
  8
3
 10
64.95310443529979
 20
-28.89678942299997
 30
0.0
  0
VERTEX
  5
133E
  8
3
 10
64.2864144534999
 20
-29.11952342500012
 30
0.0
  0
VERTEX
  5
133F
  8
3
 10
63.5
 20
-29.19773720529997
 30
0.0
  0
VERTEX
  5
1340
  8
3
 10
62.71358554649987
 20
-29.11952342500012
 30
0.0
  0
VERTEX
  5
1341
  8
3
 10
62.04689556469998
 20
-28.89678942299997
 30
0.0
  0
VERTEX
  5
1342
  8
3
 10
61.6014275606999
 20
-28.56344443210014
 30
0.0
  0
VERTEX
  5
1343
  8
3
 10
61.44499999999994
 20
-28.17023720530005
 30
0.0
  0
VERTEX
  5
1344
  8
3
 10
61.6014275606999
 20
-27.77702997860001
 30
0.0
  0
VERTEX
  5
1345
  8
3
 10
62.04689556469998
 20
-27.44368498760014
 30
0.0
  0
VERTEX
  5
1346
  8
3
 10
62.71358554649987
 20
-27.22095098570003
 30
0.0
  0
VERTEX
  5
1347
  8
3
 10
63.5
 20
-27.14273720530014
 30
0.0
  0
VERTEX
  5
1348
  8
3
 10
64.2864144534999
 20
-27.22095098570003
 30
0.0
  0
VERTEX
  5
1349
  8
3
 10
64.95310443529979
 20
-27.44368498760014
 30
0.0
  0
VERTEX
  5
134A
  8
3
 10
65.39857243929987
 20
-27.77702997860001
 30
0.0
  0
VERTEX
  5
134B
  8
3
 10
65.55499999999984
 20
-28.17023720530005
 30
0.0
  0
SEQEND
  5
1613
  8
3
  0
POLYLINE
  5
E1A
  8
3
 66
     1
 10
0.0
 20
0.0
 30
0.0
  0
VERTEX
  5
134C
  8
3
 10
66.0
 20
-28.4400840999001
 30
0.0
  0
VERTEX
  5
134D
  8
3
 10
65.84923155199999
 20
-28.86760927909995
 30
0.0
  0
VERTEX
  5
134E
  8
3
 10
65.41511110779993
 20
-29.24356861199999
 30
0.0
  0
VERTEX
  5
134F
  8
3
 10
64.75
 20
-29.52261585470001
 30
0.0
  0
VERTEX
  5
1350
  8
3
 10
63.93412044419983
 20
-29.67109379120006
 30
0.0
  0
VERTEX
  5
1351
  8
3
 10
63.06587955579994
 20
-29.67109379120006
 30
0.0
  0
VERTEX
  5
1352
  8
3
 10
62.25
 20
-29.52261585470001
 30
0.0
  0
VERTEX
  5
1353
  8
3
 10
61.58488889219984
 20
-29.24356861199999
 30
0.0
  0
VERTEX
  5
1354
  8
3
 10
61.15076844800001
 20
-28.86760927909995
 30
0.0
  0
VERTEX
  5
1355
  8
3
 10
61.0
 20
-28.4400840999001
 30
0.0
  0
VERTEX
  5
1356
  8
3
 10
61.15076844800001
 20
-28.01255892080007
 30
0.0
  0
VERTEX
  5
1357
  8
3
 10
61.58488889219984
 20
-27.63659958779999
 30
0.0
  0
VERTEX
  5
1358
  8
3
 10
62.25
 20
-27.35755234520002
 30
0.0
  0
VERTEX
  5
1359
  8
3
 10
63.06587955579994
 20
-27.20907440869996
 30
0.0
  0
VERTEX
  5
135A
  8
3
 10
63.93412044419983
 20
-27.20907440869996
 30
0.0
  0
VERTEX
  5
135B
  8
3
 10
64.75
 20
-27.35755234520002
 30
0.0
  0
VERTEX
  5
135C
  8
3
 10
65.41511110779993
 20
-27.63659958779999
 30
0.0
  0
VERTEX
  5
135D
  8
3
 10
65.84923155199999
 20
-28.01255892080007
 30
0.0
  0
VERTEX
  5
135E
  8
3
 10
66.0
 20
-28.4400840999001
 30
0.0
  0
SEQEND
  5
1612
  8
3
  0
POLYLINE
  5
E1B
  8
3
 66
     1
 10
0.0
 20
0.0
 30
0.0
  0
VERTEX
  5
135F
  8
3
 10
66.0
 20
-28.51812365130013
 30
0.0
  0
VERTEX
  5
1360
  8
3
 10
65.84923155199999
 20
-28.94564883049998
 30
0.0
  0
VERTEX
  5
1361
  8
3
 10
65.41511110779993
 20
-29.32160816340001
 30
0.0
  0
VERTEX
  5
1362
  8
3
 10
64.75
 20
-29.60065540599999
 30
0.0
  0
VERTEX
  5
1363
  8
3
 10
63.93412044419983
 20
-29.74913334260009
 30
0.0
  0
VERTEX
  5
1364
  8
3
 10
63.06587955579994
 20
-29.74913334260009
 30
0.0
  0
VERTEX
  5
1365
  8
3
 10
62.25
 20
-29.60065540599999
 30
0.0
  0
VERTEX
  5
1366
  8
3
 10
61.58488889219984
 20
-29.32160816340001
 30
0.0
  0
VERTEX
  5
1367
  8
3
 10
61.15076844800001
 20
-28.94564883049998
 30
0.0
  0
VERTEX
  5
1368
  8
3
 10
61.0
 20
-28.51812365130013
 30
0.0
  0
VERTEX
  5
1369
  8
3
 10
61.15076844800001
 20
-28.09059847210006
 30
0.0
  0
VERTEX
  5
136A
  8
3
 10
61.58488889219984
 20
-27.71463913920002
 30
0.0
  0
VERTEX
  5
136B
  8
3
 10
62.25
 20
-27.43559189660004
 30
0.0
  0
VERTEX
  5
136C
  8
3
 10
63.06587955579994
 20
-27.28711395999994
 30
0.0
  0
VERTEX
  5
136D
  8
3
 10
63.93412044419983
 20
-27.28711395999994
 30
0.0
  0
VERTEX
  5
136E
  8
3
 10
64.75
 20
-27.43559189660004
 30
0.0
  0
VERTEX
  5
136F
  8
3
 10
65.41511110779993
 20
-27.71463913920002
 30
0.0
  0
VERTEX
  5
1370
  8
3
 10
65.84923155199999
 20
-28.09059847210006
 30
0.0
  0
VERTEX
  5
1371
  8
3
 10
66.0
 20
-28.51812365130013
 30
0.0
  0
SEQEND
  5
1611
  8
3
  0
POLYLINE
  5
E1C
  8
3
 66
     1
 10
0.0
 20
0.0
 30
0.0
  0
VERTEX
  5
1372
  8
3
 10
65.55499999999984
 20
-28.78797054589995
 30
0.0
  0
VERTEX
  5
1373
  8
3
 10
65.39857243929987
 20
-29.18117777270004
 30
0.0
  0
VERTEX
  5
1374
  8
3
 10
64.95310443529979
 20
-29.5145227636001
 30
0.0
  0
VERTEX
  5
1375
  8
3
 10
64.2864144534999
 20
-29.73725676560002
 30
0.0
  0
VERTEX
  5
1376
  8
3
 10
63.5
 20
-29.8154705459001
 30
0.0
  0
VERTEX
  5
1377
  8
3
 10
62.71358554649987
 20
-29.73725676560002
 30
0.0
  0
VERTEX
  5
1378
  8
3
 10
62.04689556469998
 20
-29.5145227636001
 30
0.0
  0
VERTEX
  5
1379
  8
3
 10
61.6014275606999
 20
-29.18117777270004
 30
0.0
  0
VERTEX
  5
137A
  8
3
 10
61.44499999999994
 20
-28.78797054589995
 30
0.0
  0
VERTEX
  5
137B
  8
3
 10
61.6014275606999
 20
-28.39476331920014
 30
0.0
  0
VERTEX
  5
137C
  8
3
 10
62.04689556469998
 20
-28.06141832820003
 30
0.0
  0
VERTEX
  5
137D
  8
3
 10
62.71358554649987
 20
-27.83868432629993
 30
0.0
  0
VERTEX
  5
137E
  8
3
 10
63.5
 20
-27.76047054590003
 30
0.0
  0
VERTEX
  5
137F
  8
3
 10
64.2864144534999
 20
-27.83868432629993
 30
0.0
  0
VERTEX
  5
1380
  8
3
 10
64.95310443529979
 20
-28.06141832820003
 30
0.0
  0
VERTEX
  5
1381
  8
3
 10
65.39857243929987
 20
-28.39476331920014
 30
0.0
  0
VERTEX
  5
1382
  8
3
 10
65.55499999999984
 20
-28.78797054589995
 30
0.0
  0
SEQEND
  5
1610
  8
3
  0
POLYLINE
  5
E1D
  8
3
 66
     1
 10
0.0
 20
0.0
 30
0.0
  0
VERTEX
  5
1383
  8
3
 10
66.0
 20
-29.0578174405
 30
0.0
  0
VERTEX
  5
1384
  8
3
 10
65.84923155199999
 20
-29.48534261970008
 30
0.0
  0
VERTEX
  5
1385
  8
3
 10
65.41511110779993
 20
-29.86130195269993
 30
0.0
  0
VERTEX
  5
1386
  8
3
 10
64.75
 20
-30.14034919530013
 30
0.0
  0
VERTEX
  5
1387
  8
3
 10
63.93412044419983
 20
-30.28882713179996
 30
0.0
  0
VERTEX
  5
1388
  8
3
 10
63.06587955579994
 20
-30.28882713179996
 30
0.0
  0
VERTEX
  5
1389
  8
3
 10
62.25
 20
-30.14034919530013
 30
0.0
  0
VERTEX
  5
138A
  8
3
 10
61.58488889219984
 20
-29.86130195269993
 30
0.0
  0
VERTEX
  5
138B
  8
3
 10
61.15076844800001
 20
-29.48534261970008
 30
0.0
  0
VERTEX
  5
138C
  8
3
 10
61.0
 20
-29.0578174405
 30
0.0
  0
VERTEX
  5
138D
  8
3
 10
61.15076844800001
 20
-28.63029226139997
 30
0.0
  0
VERTEX
  5
138E
  8
3
 10
61.58488889219984
 20
-28.25433292840012
 30
0.0
  0
VERTEX
  5
138F
  8
3
 10
62.25
 20
-27.97528568579992
 30
0.0
  0
VERTEX
  5
1390
  8
3
 10
63.06587955579994
 20
-27.82680774930009
 30
0.0
  0
VERTEX
  5
1391
  8
3
 10
63.93412044419983
 20
-27.82680774930009
 30
0.0
  0
VERTEX
  5
1392
  8
3
 10
64.75
 20
-27.97528568579992
 30
0.0
  0
VERTEX
  5
1393
  8
3
 10
65.41511110779993
 20
-28.25433292840012
 30
0.0
  0
VERTEX
  5
1394
  8
3
 10
65.84923155199999
 20
-28.63029226139997
 30
0.0
  0
VERTEX
  5
1395
  8
3
 10
66.0
 20
-29.0578174405
 30
0.0
  0
SEQEND
  5
160F
  8
3
  0
POLYLINE
  5
E1E
  8
3
 66
     1
 10
0.0
 20
0.0
 30
0.0
  0
VERTEX
  5
1396
  8
3
 10
66.0
 20
-29.13585699190003
 30
0.0
  0
VERTEX
  5
1397
  8
3
 10
65.84923155199999
 20
-29.5633821711001
 30
0.0
  0
VERTEX
  5
1398
  8
3
 10
65.41511110779993
 20
-29.93934150400014
 30
0.0
  0
VERTEX
  5
1399
  8
3
 10
64.75
 20
-30.21838874660011
 30
0.0
  0
VERTEX
  5
139A
  8
3
 10
63.93412044419983
 20
-30.36686668319999
 30
0.0
  0
VERTEX
  5
139B
  8
3
 10
63.06587955579994
 20
-30.36686668319999
 30
0.0
  0
VERTEX
  5
139C
  8
3
 10
62.25
 20
-30.21838874660011
 30
0.0
  0
VERTEX
  5
139D
  8
3
 10
61.58488889219984
 20
-29.93934150400014
 30
0.0
  0
VERTEX
  5
139E
  8
3
 10
61.15076844800001
 20
-29.5633821711001
 30
0.0
  0
VERTEX
  5
139F
  8
3
 10
61.0
 20
-29.13585699190003
 30
0.0
  0
VERTEX
  5
13A0
  8
3
 10
61.15076844800001
 20
-28.70833181269995
 30
0.0
  0
VERTEX
  5
13A1
  8
3
 10
61.58488889219984
 20
-28.33237247980014
 30
0.0
  0
VERTEX
  5
13A2
  8
3
 10
62.25
 20
-28.05332523719994
 30
0.0
  0
VERTEX
  5
13A3
  8
3
 10
63.06587955579994
 20
-27.90484730060007
 30
0.0
  0
VERTEX
  5
13A4
  8
3
 10
63.93412044419983
 20
-27.90484730060007
 30
0.0
  0
VERTEX
  5
13A5
  8
3
 10
64.75
 20
-28.05332523719994
 30
0.0
  0
VERTEX
  5
13A6
  8
3
 10
65.41511110779993
 20
-28.33237247980014
 30
0.0
  0
VERTEX
  5
13A7
  8
3
 10
65.84923155199999
 20
-28.70833181269995
 30
0.0
  0
VERTEX
  5
13A8
  8
3
 10
66.0
 20
-29.13585699190003
 30
0.0
  0
SEQEND
  5
160E
  8
3
  0
POLYLINE
  5
E1F
  8
3
 66
     1
 10
0.0
 20
0.0
 30
0.0
  0
VERTEX
  5
13A9
  8
3
 10
65.55499999999984
 20
-29.40570388650008
 30
0.0
  0
VERTEX
  5
13AA
  8
3
 10
65.39857243929987
 20
-29.79891111329994
 30
0.0
  0
VERTEX
  5
13AB
  8
3
 10
64.95310443529979
 20
-30.1322561042
 30
0.0
  0
VERTEX
  5
13AC
  8
3
 10
64.2864144534999
 20
-30.35499010619992
 30
0.0
  0
VERTEX
  5
13AD
  8
3
 10
63.5
 20
-30.4332038865
 30
0.0
  0
VERTEX
  5
13AE
  8
3
 10
62.71358554649987
 20
-30.35499010619992
 30
0.0
  0
VERTEX
  5
13AF
  8
3
 10
62.04689556469998
 20
-30.1322561042
 30
0.0
  0
VERTEX
  5
13B0
  8
3
 10
61.6014275606999
 20
-29.79891111329994
 30
0.0
  0
VERTEX
  5
13B1
  8
3
 10
61.44499999999994
 20
-29.40570388650008
 30
0.0
  0
VERTEX
  5
13B2
  8
3
 10
61.6014275606999
 20
-29.01249665980004
 30
0.0
  0
VERTEX
  5
13B3
  8
3
 10
62.04689556469998
 20
-28.67915166889998
 30
0.0
  0
VERTEX
  5
13B4
  8
3
 10
62.71358554649987
 20
-28.45641766690005
 30
0.0
  0
VERTEX
  5
13B5
  8
3
 10
63.5
 20
-28.37820388649993
 30
0.0
  0
VERTEX
  5
13B6
  8
3
 10
64.2864144534999
 20
-28.45641766690005
 30
0.0
  0
VERTEX
  5
13B7
  8
3
 10
64.95310443529979
 20
-28.67915166889998
 30
0.0
  0
VERTEX
  5
13B8
  8
3
 10
65.39857243929987
 20
-29.01249665980004
 30
0.0
  0
VERTEX
  5
13B9
  8
3
 10
65.55499999999984
 20
-29.40570388650008
 30
0.0
  0
SEQEND
  5
160D
  8
3
  0
POLYLINE
  5
E20
  8
3
 66
     1
 10
0.0
 20
0.0
 30
0.0
  0
VERTEX
  5
13BA
  8
3
 10
66.0
 20
-29.67555078110013
 30
0.0
  0
VERTEX
  5
13BB
  8
3
 10
65.84923155199999
 20
-30.10307596029998
 30
0.0
  0
VERTEX
  5
13BC
  8
3
 10
65.41511110779993
 20
-30.47903529330006
 30
0.0
  0
VERTEX
  5
13BD
  8
3
 10
64.75
 20
-30.75808253590003
 30
0.0
  0
VERTEX
  5
13BE
  8
3
 10
63.93412044419983
 20
-30.90656047240009
 30
0.0
  0
VERTEX
  5
13BF
  8
3
 10
63.06587955579994
 20
-30.90656047240009
 30
0.0
  0
VERTEX
  5
13C0
  8
3
 10
62.25
 20
-30.75808253590003
 30
0.0
  0
VERTEX
  5
13C1
  8
3
 10
61.58488889219984
 20
-30.47903529330006
 30
0.0
  0
VERTEX
  5
13C2
  8
3
 10
61.15076844800001
 20
-30.10307596029998
 30
0.0
  0
VERTEX
  5
13C3
  8
3
 10
61.0
 20
-29.67555078110013
 30
0.0
  0
VERTEX
  5
13C4
  8
3
 10
61.15076844800001
 20
-29.2480256020001
 30
0.0
  0
VERTEX
  5
13C5
  8
3
 10
61.58488889219984
 20
-28.87206626900002
 30
0.0
  0
VERTEX
  5
13C6
  8
3
 10
62.25
 20
-28.59301902640004
 30
0.0
  0
VERTEX
  5
13C7
  8
3
 10
63.06587955579994
 20
-28.44454108989999
 30
0.0
  0
VERTEX
  5
13C8
  8
3
 10
63.93412044419983
 20
-28.44454108989999
 30
0.0
  0
VERTEX
  5
13C9
  8
3
 10
64.75
 20
-28.59301902640004
 30
0.0
  0
VERTEX
  5
13CA
  8
3
 10
65.41511110779993
 20
-28.87206626900002
 30
0.0
  0
VERTEX
  5
13CB
  8
3
 10
65.84923155199999
 20
-29.2480256020001
 30
0.0
  0
VERTEX
  5
13CC
  8
3
 10
66.0
 20
-29.67555078110013
 30
0.0
  0
SEQEND
  5
160C
  8
3
  0
LINE
  5
E21
  8
3
 10
62.25
 20
-28.2685125552
 30
0.0
 11
63.5
 21
-28.62935647340009
 31
0.0
  0
LINE
  5
E22
  8
3
 10
64.75
 20
-28.2685125552
 30
0.0
 11
63.5
 21
-28.62935647340009
 31
0.0
  0
LINE
  5
E23
  8
3
 10
63.5
 20
-28.62935647340009
 30
0.0
 11
63.5
 21
-30.96762506360005
 31
0.0
  0
POLYLINE
  5
E24
  8
3
 66
     1
 10
0.0
 20
0.0
 30
0.0
  0
VERTEX
  5
13CD
  8
3
 10
66.0
 20
-29.75359033249993
 30
0.0
  0
VERTEX
  5
13CE
  8
3
 10
65.84923155199999
 20
-30.1811155117
 30
0.0
  0
VERTEX
  5
13CF
  8
3
 10
65.41511110779993
 20
-30.55707484460004
 30
0.0
  0
VERTEX
  5
13D0
  8
3
 10
64.75
 20
-30.83612208720001
 30
0.0
  0
VERTEX
  5
13D1
  8
3
 10
63.93412044419983
 20
-30.98460002380011
 30
0.0
  0
VERTEX
  5
13D2
  8
3
 10
63.06587955579994
 20
-30.98460002380011
 30
0.0
  0
VERTEX
  5
13D3
  8
3
 10
62.25
 20
-30.83612208720001
 30
0.0
  0
VERTEX
  5
13D4
  8
3
 10
61.58488889219984
 20
-30.55707484460004
 30
0.0
  0
VERTEX
  5
13D5
  8
3
 10
61.15076844800001
 20
-30.1811155117
 30
0.0
  0
VERTEX
  5
13D6
  8
3
 10
61.0
 20
-29.75359033249993
 30
0.0
  0
VERTEX
  5
13D7
  8
3
 10
61.15076844800001
 20
-29.32606515330008
 30
0.0
  0
VERTEX
  5
13D8
  8
3
 10
61.58488889219984
 20
-28.95010582040004
 30
0.0
  0
VERTEX
  5
13D9
  8
3
 10
62.25
 20
-28.67105857780007
 30
0.0
  0
VERTEX
  5
13DA
  8
3
 10
63.06587955579994
 20
-28.52258064119997
 30
0.0
  0
VERTEX
  5
13DB
  8
3
 10
63.93412044419983
 20
-28.52258064119997
 30
0.0
  0
VERTEX
  5
13DC
  8
3
 10
64.75
 20
-28.67105857780007
 30
0.0
  0
VERTEX
  5
13DD
  8
3
 10
65.41511110779993
 20
-28.95010582040004
 30
0.0
  0
VERTEX
  5
13DE
  8
3
 10
65.84923155199999
 20
-29.32606515330008
 30
0.0
  0
VERTEX
  5
13DF
  8
3
 10
66.0
 20
-29.75359033249993
 30
0.0
  0
SEQEND
  5
160B
  8
3
  0
POLYLINE
  5
E25
  8
3
 66
     1
 10
0.0
 20
0.0
 30
0.0
  0
VERTEX
  5
13E0
  8
3
 10
65.55499999999984
 20
-30.02343722709998
 30
0.0
  0
VERTEX
  5
13E1
  8
3
 10
65.39857243929987
 20
-30.41664445390006
 30
0.0
  0
VERTEX
  5
13E2
  8
3
 10
64.95310443529979
 20
-30.74998944480012
 30
0.0
  0
VERTEX
  5
13E3
  8
3
 10
64.2864144534999
 20
-30.97272344680005
 30
0.0
  0
VERTEX
  5
13E4
  8
3
 10
63.5
 20
-31.05093722710012
 30
0.0
  0
VERTEX
  5
13E5
  8
3
 10
62.71358554649987
 20
-30.97272344680005
 30
0.0
  0
VERTEX
  5
13E6
  8
3
 10
62.04689556469998
 20
-30.74998944480012
 30
0.0
  0
VERTEX
  5
13E7
  8
3
 10
61.6014275606999
 20
-30.41664445390006
 30
0.0
  0
VERTEX
  5
13E8
  8
3
 10
61.44499999999994
 20
-30.02343722709998
 30
0.0
  0
VERTEX
  5
13E9
  8
3
 10
61.6014275606999
 20
-29.63023000039993
 30
0.0
  0
VERTEX
  5
13EA
  8
3
 10
62.04689556469998
 20
-29.2968850095001
 30
0.0
  0
VERTEX
  5
13EB
  8
3
 10
62.71358554649987
 20
-29.07415100749995
 30
0.0
  0
VERTEX
  5
13EC
  8
3
 10
63.5
 20
-28.99593722710006
 30
0.0
  0
VERTEX
  5
13ED
  8
3
 10
64.2864144534999
 20
-29.07415100749995
 30
0.0
  0
VERTEX
  5
13EE
  8
3
 10
64.95310443529979
 20
-29.2968850095001
 30
0.0
  0
VERTEX
  5
13EF
  8
3
 10
65.39857243929987
 20
-29.63023000039993
 30
0.0
  0
VERTEX
  5
13F0
  8
3
 10
65.55499999999984
 20
-30.02343722709998
 30
0.0
  0
SEQEND
  5
160A
  8
3
  0
POLYLINE
  5
E26
  8
3
 66
     1
 10
0.0
 20
0.0
 30
0.0
  0
VERTEX
  5
13F1
  8
3
 10
65.75610312679987
 20
-30.14538566369993
 30
0.0
  0
VERTEX
  5
13F2
  8
3
 10
65.6037535124999
 20
-29.73788643739999
 30
0.0
  0
VERTEX
  5
13F3
  8
3
 10
65.1672803289
 20
-29.38542223960008
 30
0.0
  0
VERTEX
  5
13F4
  8
3
 10
64.50563169819998
 20
-29.13559531340002
 30
0.0
  0
VERTEX
  5
13F5
  8
3
 10
63.70816693429992
 20
-29.0221461694
 30
0.0
  0
VERTEX
  5
13F6
  8
3
 10
62.88258807239981
 20
-29.06039674320004
 30
0.0
  0
VERTEX
  5
13F7
  8
3
 10
62.14039411249996
 20
-29.24518108279995
 30
0.0
  0
VERTEX
  5
13F8
  8
3
 10
61.58182246159981
 20
-29.55154303929999
 30
0.0
  0
VERTEX
  5
13F9
  8
3
 10
61.28231131619987
 20
-29.9381067329
 30
0.0
  0
VERTEX
  5
13FA
  8
3
 10
61.28231131619987
 20
-30.35266459460013
 30
0.0
  0
VERTEX
  5
13FB
  8
3
 10
61.58182246159981
 20
-30.73922828810009
 30
0.0
  0
VERTEX
  5
13FC
  8
3
 10
62.14039411249996
 20
-31.04559024460013
 30
0.0
  0
VERTEX
  5
13FD
  8
3
 10
62.88258807239981
 20
-31.23037458420004
 30
0.0
  0
VERTEX
  5
13FE
  8
3
 10
63.70816693429992
 20
-31.26862515800008
 30
0.0
  0
VERTEX
  5
13FF
  8
3
 10
64.50563169819998
 20
-31.15517601400006
 30
0.0
  0
VERTEX
  5
1400
  8
3
 10
65.1672803289
 20
-30.9053490878
 30
0.0
  0
VERTEX
  5
1401
  8
3
 10
65.6037535124999
 20
-30.55288489000009
 30
0.0
  0
VERTEX
  5
1402
  8
3
 10
65.75610312679987
 20
-30.14538566369993
 30
0.0
  0
SEQEND
  5
1609
  8
3
  0
LINE
  5
E27
  8
3
 10
62.25
 20
-28.2685125552
 30
0.0
 11
62.25
 21
-27.54682471870001
 31
0.0
  0
LINE
  5
E28
  8
3
 10
62.25
 20
-28.2685125552
 30
0.0
 11
62.25
 21
-30.60678114539996
 31
0.0
  0
LINE
  5
E29
  8
3
 10
64.75
 20
-28.2685125552
 30
0.0
 11
64.75
 21
-30.60678114539996
 31
0.0
  0
LINE
  5
E2A
  8
3
 10
64.75
 20
-28.2685125552
 30
0.0
 11
64.75
 21
-27.54682471870001
 31
0.0
  0
POLYLINE
  5
E2B
  8
3
 66
     1
 10
0.0
 20
0.0
 30
0.0
  0
VERTEX
  5
1403
  8
3
 10
63.5
 20
-31.27343722709998
 30
0.0
  0
VERTEX
  5
1404
  8
3
 10
62.71358554649987
 20
-31.19522344680013
 30
0.0
  0
VERTEX
  5
1405
  8
3
 10
62.04689556469998
 20
-30.97248944479998
 30
0.0
  0
VERTEX
  5
1406
  8
3
 10
61.6014275606999
 20
-30.63914445389992
 30
0.0
  0
VERTEX
  5
1407
  8
3
 10
61.44499999999994
 20
-30.24593722710006
 30
0.0
  0
VERTEX
  5
1408
  8
3
 10
61.6014275606999
 20
-29.85273000040002
 30
0.0
  0
VERTEX
  5
1409
  8
3
 10
62.04689556469998
 20
-29.51938500949996
 30
0.0
  0
VERTEX
  5
140A
  8
3
 10
62.71358554649987
 20
-29.29665100750003
 30
0.0
  0
VERTEX
  5
140B
  8
3
 10
63.5
 20
-29.21843722710014
 30
0.0
  0
VERTEX
  5
140C
  8
3
 10
64.2864144534999
 20
-29.29665100750003
 30
0.0
  0
VERTEX
  5
140D
  8
3
 10
64.95310443529979
 20
-29.51938500949996
 30
0.0
  0
VERTEX
  5
140E
  8
3
 10
65.39857243929987
 20
-29.85273000040002
 30
0.0
  0
VERTEX
  5
140F
  8
3
 10
65.55499999999984
 20
-30.24593722710006
 30
0.0
  0
VERTEX
  5
1410
  8
3
 10
65.39857243929987
 20
-30.63914445389992
 30
0.0
  0
VERTEX
  5
1411
  8
3
 10
64.95310443529979
 20
-30.97248944479998
 30
0.0
  0
VERTEX
  5
1412
  8
3
 10
64.2864144534999
 20
-31.19522344680013
 30
0.0
  0
VERTEX
  5
1413
  8
3
 10
63.5
 20
-31.27343722709998
 30
0.0
  0
SEQEND
  5
1608
  8
3
  0
LINE
  5
E2C
  8
3
 10
64.75
 20
-30.60678114539996
 30
0.0
 11
63.5
 21
-30.96762506360005
 31
0.0
  0
LINE
  5
E2D
  8
3
 10
62.25
 20
-30.60678114539996
 30
0.0
 11
63.5
 21
-30.96762506360005
 31
0.0
  0
LINE
  5
E2E
  8
3
 10
63.5
 20
-27.1859808004001
 30
0.0
 11
63.5
 21
-28.62935647340009
 31
0.0
  0
LINE
  5
E2F
  8
3
 10
62.25
 20
-29.88509330889997
 30
0.0
 11
63.5
 21
-29.52424939060006
 31
0.0
  0
LINE
  5
E30
  8
3
 10
62.25
 20
-27.54682471870001
 30
0.0
 11
63.5
 21
-27.1859808004001
 31
0.0
  0
LINE
  5
E31
  8
3
 10
64.75
 20
-29.88509330889997
 30
0.0
 11
63.5
 21
-29.52424939060006
 31
0.0
  0
LINE
  5
E32
  8
3
 10
64.75
 20
-27.54682471870001
 30
0.0
 11
63.5
 21
-27.1859808004001
 31
0.0
  0
POLYLINE
  5
E33
  8
3
 66
     1
 10
0.0
 20
0.0
 30
0.0
  0
VERTEX
  5
1414
  8
3
 10
63.5
 20
25.92478480449995
 30
0.0
  0
VERTEX
  5
1415
  8
3
 10
64.16969600669995
 20
25.85817939549997
 30
0.0
  0
VERTEX
  5
1416
  8
3
 10
64.73743686709986
 20
25.66850323799986
 30
0.0
  0
VERTEX
  5
1417
  8
3
 10
65.1167891819
 20
25.38463280780002
 30
0.0
  0
VERTEX
  5
1418
  8
3
 10
65.25
 20
25.04978480449995
 30
0.0
  0
VERTEX
  5
1419
  8
3
 10
65.1167891819
 20
24.71493680119988
 30
0.0
  0
VERTEX
  5
141A
  8
3
 10
64.73743686709986
 20
24.43106637100004
 30
0.0
  0
VERTEX
  5
141B
  8
3
 10
64.16969600669995
 20
24.24139021359997
 30
0.0
  0
VERTEX
  5
141C
  8
3
 10
63.5
 20
24.17478480449995
 30
0.0
  0
VERTEX
  5
141D
  8
3
 10
62.83030399339987
 20
24.24139021359997
 30
0.0
  0
VERTEX
  5
141E
  8
3
 10
62.26256313289991
 20
24.43106637100004
 30
0.0
  0
VERTEX
  5
141F
  8
3
 10
61.8832108181
 20
24.71493680119988
 30
0.0
  0
VERTEX
  5
1420
  8
3
 10
61.75
 20
25.04978480449995
 30
0.0
  0
VERTEX
  5
1421
  8
3
 10
61.8832108181
 20
25.38463280780002
 30
0.0
  0
VERTEX
  5
1422
  8
3
 10
62.26256313289991
 20
25.66850323799986
 30
0.0
  0
VERTEX
  5
1423
  8
3
 10
62.83030399339987
 20
25.85817939549997
 30
0.0
  0
VERTEX
  5
1424
  8
3
 10
63.5
 20
25.92478480449995
 30
0.0
  0
SEQEND
  5
1607
  8
3
  0
POLYLINE
  5
E34
  8
3
 66
     1
 10
0.0
 20
0.0
 30
0.0
  0
VERTEX
  5
1425
  8
3
 10
65.81673274349987
 20
25.5405897574999
 30
0.0
  0
VERTEX
  5
1426
  8
3
 10
65.6602889461999
 20
25.12213955929997
 30
0.0
  0
VERTEX
  5
1427
  8
3
 10
65.21208615629985
 20
24.76020337909995
 30
0.0
  0
VERTEX
  5
1428
  8
3
 10
64.53265664389983
 20
24.50366270359996
 30
0.0
  0
VERTEX
  5
1429
  8
3
 10
63.71376112960002
 20
24.3871647725
 30
0.0
  0
VERTEX
  5
142A
  8
3
 10
62.86599599030001
 20
24.42644327699986
 30
0.0
  0
VERTEX
  5
142B
  8
3
 10
62.10385660559996
 20
24.61619343739994
 30
0.0
  0
VERTEX
  5
142C
  8
3
 10
61.53027412259985
 20
24.93078844299998
 30
0.0
  0
VERTEX
  5
142D
  8
3
 10
61.22271403409991
 20
25.32774049520003
 30
0.0
  0
VERTEX
  5
142E
  8
3
 10
61.22271403409991
 20
25.7534390198
 30
0.0
  0
VERTEX
  5
142F
  8
3
 10
61.53027412259985
 20
26.15039107200005
 30
0.0
  0
VERTEX
  5
1430
  8
3
 10
62.10385660559996
 20
26.46498607759986
 30
0.0
  0
VERTEX
  5
1431
  8
3
 10
62.86599599030001
 20
26.65473623799994
 30
0.0
  0
VERTEX
  5
1432
  8
3
 10
63.71376112960002
 20
26.69401474250003
 30
0.0
  0
VERTEX
  5
1433
  8
3
 10
64.53265664389983
 20
26.57751681140007
 30
0.0
  0
VERTEX
  5
1434
  8
3
 10
65.21208615629985
 20
26.32097613590008
 30
0.0
  0
VERTEX
  5
1435
  8
3
 10
65.6602889461999
 20
25.95903995570006
 30
0.0
  0
VERTEX
  5
1436
  8
3
 10
65.81673274349987
 20
25.5405897574999
 30
0.0
  0
SEQEND
  5
1606
  8
3
  0
POLYLINE
  5
E35
  8
3
 66
     1
 10
0.0
 20
0.0
 30
0.0
  0
VERTEX
  5
1437
  8
3
 10
61.44499999999994
 20
25.69930384300005
 30
0.0
  0
VERTEX
  5
1438
  8
3
 10
61.6014275606999
 20
26.09251106969987
 30
0.0
  0
VERTEX
  5
1439
  8
3
 10
62.04689556469998
 20
26.42585606069997
 30
0.0
  0
VERTEX
  5
143A
  8
3
 10
62.71358554649987
 20
26.64859006260008
 30
0.0
  0
VERTEX
  5
143B
  8
3
 10
63.5
 20
26.72680384299997
 30
0.0
  0
VERTEX
  5
143C
  8
3
 10
64.2864144534999
 20
26.64859006260008
 30
0.0
  0
VERTEX
  5
143D
  8
3
 10
64.95310443539984
 20
26.42585606069997
 30
0.0
  0
VERTEX
  5
143E
  8
3
 10
65.39857243929987
 20
26.09251106969987
 30
0.0
  0
VERTEX
  5
143F
  8
3
 10
65.55499999999984
 20
25.69930384300005
 30
0.0
  0
VERTEX
  5
1440
  8
3
 10
65.39857243929987
 20
25.30609661619997
 30
0.0
  0
VERTEX
  5
1441
  8
3
 10
64.95310443539984
 20
24.97275162529991
 30
0.0
  0
VERTEX
  5
1442
  8
3
 10
64.2864144534999
 20
24.75001762329998
 30
0.0
  0
VERTEX
  5
1443
  8
3
 10
63.5
 20
24.67180384299991
 30
0.0
  0
VERTEX
  5
1444
  8
3
 10
62.71358554649987
 20
24.75001762329998
 30
0.0
  0
VERTEX
  5
1445
  8
3
 10
62.04689556469998
 20
24.97275162529991
 30
0.0
  0
VERTEX
  5
1446
  8
3
 10
61.6014275606999
 20
25.30609661619997
 30
0.0
  0
VERTEX
  5
1447
  8
3
 10
61.44499999999994
 20
25.69930384300005
 30
0.0
  0
SEQEND
  5
1605
  8
3
  0
POLYLINE
  5
E36
  8
3
 66
     1
 10
0.0
 20
0.0
 30
0.0
  0
VERTEX
  5
1448
  8
3
 10
61.0
 20
25.96915073759988
 30
0.0
  0
VERTEX
  5
1449
  8
3
 10
61.15076844809983
 20
26.39667591679995
 30
0.0
  0
VERTEX
  5
144A
  8
3
 10
61.58488889219984
 20
26.77263524969999
 30
0.0
  0
VERTEX
  5
144B
  8
3
 10
62.25
 20
27.05168249229996
 30
0.0
  0
VERTEX
  5
144C
  8
3
 10
63.06587955589998
 20
27.20016042890006
 30
0.0
  0
VERTEX
  5
144D
  8
3
 10
63.93412044419983
 20
27.20016042890006
 30
0.0
  0
VERTEX
  5
144E
  8
3
 10
64.75
 20
27.05168249229996
 30
0.0
  0
VERTEX
  5
144F
  8
3
 10
65.41511110779993
 20
26.77263524969999
 30
0.0
  0
VERTEX
  5
1450
  8
3
 10
65.84923155199999
 20
26.39667591679995
 30
0.0
  0
VERTEX
  5
1451
  8
3
 10
66.0
 20
25.96915073759988
 30
0.0
  0
VERTEX
  5
1452
  8
3
 10
65.84923155199999
 20
25.54162555840003
 30
0.0
  0
VERTEX
  5
1453
  8
3
 10
65.41511110779993
 20
25.16566622549999
 30
0.0
  0
VERTEX
  5
1454
  8
3
 10
64.75
 20
24.88661898290002
 30
0.0
  0
VERTEX
  5
1455
  8
3
 10
63.93412044419983
 20
24.73814104629992
 30
0.0
  0
VERTEX
  5
1456
  8
3
 10
63.06587955589998
 20
24.73814104629992
 30
0.0
  0
VERTEX
  5
1457
  8
3
 10
62.25
 20
24.88661898290002
 30
0.0
  0
VERTEX
  5
1458
  8
3
 10
61.58488889219984
 20
25.16566622549999
 30
0.0
  0
VERTEX
  5
1459
  8
3
 10
61.15076844809983
 20
25.54162555840003
 30
0.0
  0
VERTEX
  5
145A
  8
3
 10
61.0
 20
25.96915073759988
 30
0.0
  0
SEQEND
  5
1604
  8
3
  0
POLYLINE
  5
E37
  8
3
 66
     1
 10
0.0
 20
0.0
 30
0.0
  0
VERTEX
  5
145B
  8
3
 10
61.0
 20
26.0471902889999
 30
0.0
  0
VERTEX
  5
145C
  8
3
 10
61.15076844809983
 20
26.47471546809993
 30
0.0
  0
VERTEX
  5
145D
  8
3
 10
61.58488889219984
 20
26.85067480110001
 30
0.0
  0
VERTEX
  5
145E
  8
3
 10
62.25
 20
27.12972204369999
 30
0.0
  0
VERTEX
  5
145F
  8
3
 10
63.06587955589998
 20
27.27819998020004
 30
0.0
  0
VERTEX
  5
1460
  8
3
 10
63.93412044419983
 20
27.27819998020004
 30
0.0
  0
VERTEX
  5
1461
  8
3
 10
64.75
 20
27.12972204369999
 30
0.0
  0
VERTEX
  5
1462
  8
3
 10
65.41511110779993
 20
26.85067480110001
 30
0.0
  0
VERTEX
  5
1463
  8
3
 10
65.84923155199999
 20
26.47471546809993
 30
0.0
  0
VERTEX
  5
1464
  8
3
 10
66.0
 20
26.0471902889999
 30
0.0
  0
VERTEX
  5
1465
  8
3
 10
65.84923155199999
 20
25.61966510980005
 30
0.0
  0
VERTEX
  5
1466
  8
3
 10
65.41511110779993
 20
25.24370577690001
 30
0.0
  0
VERTEX
  5
1467
  8
3
 10
64.75
 20
24.9646585342
 30
0.0
  0
VERTEX
  5
1468
  8
3
 10
63.93412044419983
 20
24.81618059769994
 30
0.0
  0
VERTEX
  5
1469
  8
3
 10
63.06587955589998
 20
24.81618059769994
 30
0.0
  0
VERTEX
  5
146A
  8
3
 10
62.25
 20
24.9646585342
 30
0.0
  0
VERTEX
  5
146B
  8
3
 10
61.58488889219984
 20
25.24370577690001
 30
0.0
  0
VERTEX
  5
146C
  8
3
 10
61.15076844809983
 20
25.61966510980005
 30
0.0
  0
VERTEX
  5
146D
  8
3
 10
61.0
 20
26.0471902889999
 30
0.0
  0
SEQEND
  5
1603
  8
3
  0
POLYLINE
  5
E38
  8
3
 66
     1
 10
0.0
 20
0.0
 30
0.0
  0
VERTEX
  5
146E
  8
3
 10
61.44499999999994
 20
26.31703718359995
 30
0.0
  0
VERTEX
  5
146F
  8
3
 10
61.6014275606999
 20
26.71024441029999
 30
0.0
  0
VERTEX
  5
1470
  8
3
 10
62.04689556469998
 20
27.04358940129987
 30
0.0
  0
VERTEX
  5
1471
  8
3
 10
62.71358554649987
 20
27.26632340319998
 30
0.0
  0
VERTEX
  5
1472
  8
3
 10
63.5
 20
27.34453718359987
 30
0.0
  0
VERTEX
  5
1473
  8
3
 10
64.28641445359995
 20
27.26632340319998
 30
0.0
  0
VERTEX
  5
1474
  8
3
 10
64.95310443539984
 20
27.04358940129987
 30
0.0
  0
VERTEX
  5
1475
  8
3
 10
65.39857243939991
 20
26.71024441029999
 30
0.0
  0
VERTEX
  5
1476
  8
3
 10
65.55499999999984
 20
26.31703718359995
 30
0.0
  0
VERTEX
  5
1477
  8
3
 10
65.39857243939991
 20
25.92382995679986
 30
0.0
  0
VERTEX
  5
1478
  8
3
 10
64.95310443539984
 20
25.59048496590003
 30
0.0
  0
VERTEX
  5
1479
  8
3
 10
64.28641445359995
 20
25.36775096389988
 30
0.0
  0
VERTEX
  5
147A
  8
3
 10
63.5
 20
25.28953718360003
 30
0.0
  0
VERTEX
  5
147B
  8
3
 10
62.71358554649987
 20
25.36775096389988
 30
0.0
  0
VERTEX
  5
147C
  8
3
 10
62.04689556469998
 20
25.59048496590003
 30
0.0
  0
VERTEX
  5
147D
  8
3
 10
61.6014275606999
 20
25.92382995679986
 30
0.0
  0
VERTEX
  5
147E
  8
3
 10
61.44499999999994
 20
26.31703718359995
 30
0.0
  0
SEQEND
  5
1602
  8
3
  0
POLYLINE
  5
E39
  8
3
 66
     1
 10
0.0
 20
0.0
 30
0.0
  0
VERTEX
  5
147F
  8
3
 10
61.0
 20
26.5868840782
 30
0.0
  0
VERTEX
  5
1480
  8
3
 10
61.15076844809983
 20
27.01440925740008
 30
0.0
  0
VERTEX
  5
1481
  8
3
 10
61.58488889219984
 20
27.39036859029989
 30
0.0
  0
VERTEX
  5
1482
  8
3
 10
62.25
 20
27.66941583289986
 30
0.0
  0
VERTEX
  5
1483
  8
3
 10
63.06587955589998
 20
27.81789376949996
 30
0.0
  0
VERTEX
  5
1484
  8
3
 10
63.93412044419983
 20
27.81789376949996
 30
0.0
  0
VERTEX
  5
1485
  8
3
 10
64.75
 20
27.66941583289986
 30
0.0
  0
VERTEX
  5
1486
  8
3
 10
65.41511110779993
 20
27.39036859029989
 30
0.0
  0
VERTEX
  5
1487
  8
3
 10
65.84923155199999
 20
27.01440925740008
 30
0.0
  0
VERTEX
  5
1488
  8
3
 10
66.0
 20
26.5868840782
 30
0.0
  0
VERTEX
  5
1489
  8
3
 10
65.84923155199999
 20
26.15935889909997
 30
0.0
  0
VERTEX
  5
148A
  8
3
 10
65.41511110779993
 20
25.78339956609989
 30
0.0
  0
VERTEX
  5
148B
  8
3
 10
64.75
 20
25.50435232349992
 30
0.0
  0
VERTEX
  5
148C
  8
3
 10
63.93412044419983
 20
25.35587438690004
 30
0.0
  0
VERTEX
  5
148D
  8
3
 10
63.06587955589998
 20
25.35587438690004
 30
0.0
  0
VERTEX
  5
148E
  8
3
 10
62.25
 20
25.50435232349992
 30
0.0
  0
VERTEX
  5
148F
  8
3
 10
61.58488889219984
 20
25.78339956609989
 30
0.0
  0
VERTEX
  5
1490
  8
3
 10
61.15076844809983
 20
26.15935889909997
 30
0.0
  0
VERTEX
  5
1491
  8
3
 10
61.0
 20
26.5868840782
 30
0.0
  0
SEQEND
  5
1601
  8
3
  0
POLYLINE
  5
E3A
  8
3
 66
     1
 10
0.0
 20
0.0
 30
0.0
  0
VERTEX
  5
1492
  8
3
 10
61.0
 20
26.66492362960003
 30
0.0
  0
VERTEX
  5
1493
  8
3
 10
61.15076844809983
 20
27.09244880870006
 30
0.0
  0
VERTEX
  5
1494
  8
3
 10
61.58488889219984
 20
27.46840814169991
 30
0.0
  0
VERTEX
  5
1495
  8
3
 10
62.25
 20
27.74745538429988
 30
0.0
  0
VERTEX
  5
1496
  8
3
 10
63.06587955589998
 20
27.89593332079994
 30
0.0
  0
VERTEX
  5
1497
  8
3
 10
63.93412044419983
 20
27.89593332079994
 30
0.0
  0
VERTEX
  5
1498
  8
3
 10
64.75
 20
27.74745538429988
 30
0.0
  0
VERTEX
  5
1499
  8
3
 10
65.41511110779993
 20
27.46840814169991
 30
0.0
  0
VERTEX
  5
149A
  8
3
 10
65.84923155199999
 20
27.09244880870006
 30
0.0
  0
VERTEX
  5
149B
  8
3
 10
66.0
 20
26.66492362960003
 30
0.0
  0
VERTEX
  5
149C
  8
3
 10
65.84923155199999
 20
26.23739845039995
 30
0.0
  0
VERTEX
  5
149D
  8
3
 10
65.41511110779993
 20
25.86143911749991
 30
0.0
  0
VERTEX
  5
149E
  8
3
 10
64.75
 20
25.5823918747999
 30
0.0
  0
VERTEX
  5
149F
  8
3
 10
63.93412044419983
 20
25.43391393830007
 30
0.0
  0
VERTEX
  5
14A0
  8
3
 10
63.06587955589998
 20
25.43391393830007
 30
0.0
  0
VERTEX
  5
14A1
  8
3
 10
62.25
 20
25.5823918747999
 30
0.0
  0
VERTEX
  5
14A2
  8
3
 10
61.58488889219984
 20
25.86143911749991
 30
0.0
  0
VERTEX
  5
14A3
  8
3
 10
61.15076844809983
 20
26.23739845039995
 30
0.0
  0
VERTEX
  5
14A4
  8
3
 10
61.0
 20
26.66492362960003
 30
0.0
  0
SEQEND
  5
1600
  8
3
  0
POLYLINE
  5
E3B
  8
3
 66
     1
 10
0.0
 20
0.0
 30
0.0
  0
VERTEX
  5
14A5
  8
3
 10
61.44499999999994
 20
26.93477052420008
 30
0.0
  0
VERTEX
  5
14A6
  8
3
 10
61.6014275606999
 20
27.32797775089989
 30
0.0
  0
VERTEX
  5
14A7
  8
3
 10
62.04689556469998
 20
27.66132274189999
 30
0.0
  0
VERTEX
  5
14A8
  8
3
 10
62.71358554649987
 20
27.88405674379987
 30
0.0
  0
VERTEX
  5
14A9
  8
3
 10
63.5
 20
27.96227052419999
 30
0.0
  0
VERTEX
  5
14AA
  8
3
 10
64.2864144534999
 20
27.88405674379987
 30
0.0
  0
VERTEX
  5
14AB
  8
3
 10
64.95310443539984
 20
27.66132274189999
 30
0.0
  0
VERTEX
  5
14AC
  8
3
 10
65.39857243929987
 20
27.32797775089989
 30
0.0
  0
VERTEX
  5
14AD
  8
3
 10
65.55499999999984
 20
26.93477052420008
 30
0.0
  0
VERTEX
  5
14AE
  8
3
 10
65.39857243929987
 20
26.54156329739999
 30
0.0
  0
VERTEX
  5
14AF
  8
3
 10
64.95310443539984
 20
26.20821830649993
 30
0.0
  0
VERTEX
  5
14B0
  8
3
 10
64.2864144534999
 20
25.98548430450001
 30
0.0
  0
VERTEX
  5
14B1
  8
3
 10
63.5
 20
25.90727052419993
 30
0.0
  0
VERTEX
  5
14B2
  8
3
 10
62.71358554649987
 20
25.98548430450001
 30
0.0
  0
VERTEX
  5
14B3
  8
3
 10
62.04689556469998
 20
26.20821830649993
 30
0.0
  0
VERTEX
  5
14B4
  8
3
 10
61.6014275606999
 20
26.54156329739999
 30
0.0
  0
VERTEX
  5
14B5
  8
3
 10
61.44499999999994
 20
26.93477052420008
 30
0.0
  0
SEQEND
  5
15FF
  8
3
  0
POLYLINE
  5
E3C
  8
3
 66
     1
 10
0.0
 20
0.0
 30
0.0
  0
VERTEX
  5
14B6
  8
3
 10
61.0
 20
27.2046174187999
 30
0.0
  0
VERTEX
  5
14B7
  8
3
 10
61.15076844809983
 20
27.63214259799997
 30
0.0
  0
VERTEX
  5
14B8
  8
3
 10
61.58488889219984
 20
28.00810193090001
 30
0.0
  0
VERTEX
  5
14B9
  8
3
 10
62.25
 20
28.28714917349998
 30
0.0
  0
VERTEX
  5
14BA
  8
3
 10
63.06587955589998
 20
28.43562711009986
 30
0.0
  0
VERTEX
  5
14BB
  8
3
 10
63.93412044419983
 20
28.43562711009986
 30
0.0
  0
VERTEX
  5
14BC
  8
3
 10
64.75
 20
28.28714917349998
 30
0.0
  0
VERTEX
  5
14BD
  8
3
 10
65.41511110779993
 20
28.00810193090001
 30
0.0
  0
VERTEX
  5
14BE
  8
3
 10
65.84923155199999
 20
27.63214259799997
 30
0.0
  0
VERTEX
  5
14BF
  8
3
 10
66.0
 20
27.2046174187999
 30
0.0
  0
VERTEX
  5
14C0
  8
3
 10
65.84923155199999
 20
26.77709223969987
 30
0.0
  0
VERTEX
  5
14C1
  8
3
 10
65.41511110779993
 20
26.40113290670001
 30
0.0
  0
VERTEX
  5
14C2
  8
3
 10
64.75
 20
26.12208566410004
 30
0.0
  0
VERTEX
  5
14C3
  8
3
 10
63.93412044419983
 20
25.97360772759998
 30
0.0
  0
VERTEX
  5
14C4
  8
3
 10
63.06587955589998
 20
25.97360772759998
 30
0.0
  0
VERTEX
  5
14C5
  8
3
 10
62.25
 20
26.12208566410004
 30
0.0
  0
VERTEX
  5
14C6
  8
3
 10
61.58488889219984
 20
26.40113290670001
 30
0.0
  0
VERTEX
  5
14C7
  8
3
 10
61.15076844809983
 20
26.77709223969987
 30
0.0
  0
VERTEX
  5
14C8
  8
3
 10
61.0
 20
27.2046174187999
 30
0.0
  0
SEQEND
  5
15FE
  8
3
  0
POLYLINE
  5
E3D
  8
3
 66
     1
 10
0.0
 20
0.0
 30
0.0
  0
VERTEX
  5
14C9
  8
3
 10
61.0
 20
27.28265697019992
 30
0.0
  0
VERTEX
  5
14CA
  8
3
 10
61.15076844809983
 20
27.71018214929995
 30
0.0
  0
VERTEX
  5
14CB
  8
3
 10
61.58488889219984
 20
28.08614148230004
 30
0.0
  0
VERTEX
  5
14CC
  8
3
 10
62.25
 20
28.36518872490001
 30
0.0
  0
VERTEX
  5
14CD
  8
3
 10
63.06587955589998
 20
28.51366666140007
 30
0.0
  0
VERTEX
  5
14CE
  8
3
 10
63.93412044419983
 20
28.51366666140007
 30
0.0
  0
VERTEX
  5
14CF
  8
3
 10
64.75
 20
28.36518872490001
 30
0.0
  0
VERTEX
  5
14D0
  8
3
 10
65.41511110779993
 20
28.08614148230004
 30
0.0
  0
VERTEX
  5
14D1
  8
3
 10
65.84923155199999
 20
27.71018214929995
 30
0.0
  0
VERTEX
  5
14D2
  8
3
 10
66.0
 20
27.28265697019992
 30
0.0
  0
VERTEX
  5
14D3
  8
3
 10
65.84923155199999
 20
26.85513179100008
 30
0.0
  0
VERTEX
  5
14D4
  8
3
 10
65.41511110779993
 20
26.47917245810004
 30
0.0
  0
VERTEX
  5
14D5
  8
3
 10
64.75
 20
26.20012521540002
 30
0.0
  0
VERTEX
  5
14D6
  8
3
 10
63.93412044419983
 20
26.05164727889996
 30
0.0
  0
VERTEX
  5
14D7
  8
3
 10
63.06587955589998
 20
26.05164727889996
 30
0.0
  0
VERTEX
  5
14D8
  8
3
 10
62.25
 20
26.20012521540002
 30
0.0
  0
VERTEX
  5
14D9
  8
3
 10
61.58488889219984
 20
26.47917245810004
 30
0.0
  0
VERTEX
  5
14DA
  8
3
 10
61.15076844809983
 20
26.85513179100008
 30
0.0
  0
VERTEX
  5
14DB
  8
3
 10
61.0
 20
27.28265697019992
 30
0.0
  0
SEQEND
  5
15FD
  8
3
  0
POLYLINE
  5
E3E
  8
3
 66
     1
 10
0.0
 20
0.0
 30
0.0
  0
VERTEX
  5
14DC
  8
3
 10
61.44499999999994
 20
27.55250386479997
 30
0.0
  0
VERTEX
  5
14DD
  8
3
 10
61.6014275606999
 20
27.94571109160006
 30
0.0
  0
VERTEX
  5
14DE
  8
3
 10
62.04689556469998
 20
28.27905608249989
 30
0.0
  0
VERTEX
  5
14DF
  8
3
 10
62.71358554649987
 20
28.50179008450004
 30
0.0
  0
VERTEX
  5
14E0
  8
3
 10
63.5
 20
28.58000386479989
 30
0.0
  0
VERTEX
  5
14E1
  8
3
 10
64.2864144534999
 20
28.50179008450004
 30
0.0
  0
VERTEX
  5
14E2
  8
3
 10
64.95310443539984
 20
28.27905608249989
 30
0.0
  0
VERTEX
  5
14E3
  8
3
 10
65.39857243929987
 20
27.94571109160006
 30
0.0
  0
VERTEX
  5
14E4
  8
3
 10
65.55499999999984
 20
27.55250386479997
 30
0.0
  0
VERTEX
  5
14E5
  8
3
 10
65.39857243929987
 20
27.15929663799989
 30
0.0
  0
VERTEX
  5
14E6
  8
3
 10
64.95310443539984
 20
26.82595164710006
 30
0.0
  0
VERTEX
  5
14E7
  8
3
 10
64.2864144534999
 20
26.6032176450999
 30
0.0
  0
VERTEX
  5
14E8
  8
3
 10
63.5
 20
26.52500386480006
 30
0.0
  0
VERTEX
  5
14E9
  8
3
 10
62.71358554649987
 20
26.6032176450999
 30
0.0
  0
VERTEX
  5
14EA
  8
3
 10
62.04689556469998
 20
26.82595164710006
 30
0.0
  0
VERTEX
  5
14EB
  8
3
 10
61.6014275606999
 20
27.15929663799989
 30
0.0
  0
VERTEX
  5
14EC
  8
3
 10
61.44499999999994
 20
27.55250386479997
 30
0.0
  0
SEQEND
  5
15FC
  8
3
  0
POLYLINE
  5
E3F
  8
3
 66
     1
 10
0.0
 20
0.0
 30
0.0
  0
VERTEX
  5
14ED
  8
3
 10
61.0
 20
27.82235075940002
 30
0.0
  0
VERTEX
  5
14EE
  8
3
 10
61.15076844809983
 20
28.24987593859987
 30
0.0
  0
VERTEX
  5
14EF
  8
3
 10
61.58488889219984
 20
28.62583527149991
 30
0.0
  0
VERTEX
  5
14F0
  8
3
 10
62.25
 20
28.90488251419993
 30
0.0
  0
VERTEX
  5
14F1
  8
3
 10
63.06587955589998
 20
29.05336045069998
 30
0.0
  0
VERTEX
  5
14F2
  8
3
 10
63.93412044419983
 20
29.05336045069998
 30
0.0
  0
VERTEX
  5
14F3
  8
3
 10
64.75
 20
28.90488251419993
 30
0.0
  0
VERTEX
  5
14F4
  8
3
 10
65.41511110779993
 20
28.62583527149991
 30
0.0
  0
VERTEX
  5
14F5
  8
3
 10
65.84923155199999
 20
28.24987593859987
 30
0.0
  0
VERTEX
  5
14F6
  8
3
 10
66.0
 20
27.82235075940002
 30
0.0
  0
VERTEX
  5
14F7
  8
3
 10
65.84923155199999
 20
27.39482558029999
 30
0.0
  0
VERTEX
  5
14F8
  8
3
 10
65.41511110779993
 20
27.01886624729991
 30
0.0
  0
VERTEX
  5
14F9
  8
3
 10
64.75
 20
26.73981900469994
 30
0.0
  0
VERTEX
  5
14FA
  8
3
 10
63.93412044419983
 20
26.59134106819988
 30
0.0
  0
VERTEX
  5
14FB
  8
3
 10
63.06587955589998
 20
26.59134106819988
 30
0.0
  0
VERTEX
  5
14FC
  8
3
 10
62.25
 20
26.73981900469994
 30
0.0
  0
VERTEX
  5
14FD
  8
3
 10
61.58488889219984
 20
27.01886624729991
 30
0.0
  0
VERTEX
  5
14FE
  8
3
 10
61.15076844809983
 20
27.39482558029999
 30
0.0
  0
VERTEX
  5
14FF
  8
3
 10
61.0
 20
27.82235075940002
 30
0.0
  0
SEQEND
  5
15FB
  8
3
  0
POLYLINE
  5
E40
  8
3
 66
     1
 10
0.0
 20
0.0
 30
0.0
  0
VERTEX
  5
1500
  8
3
 10
61.0
 20
27.90039031080005
 30
0.0
  0
VERTEX
  5
1501
  8
3
 10
61.15076844809983
 20
28.32791548990008
 30
0.0
  0
VERTEX
  5
1502
  8
3
 10
61.58488889219984
 20
28.70387482289993
 30
0.0
  0
VERTEX
  5
1503
  8
3
 10
62.25
 20
28.98292206549991
 30
0.0
  0
VERTEX
  5
1504
  8
3
 10
63.06587955589998
 20
29.13140000199996
 30
0.0
  0
VERTEX
  5
1505
  8
3
 10
63.93412044419983
 20
29.13140000199996
 30
0.0
  0
VERTEX
  5
1506
  8
3
 10
64.75
 20
28.98292206549991
 30
0.0
  0
VERTEX
  5
1507
  8
3
 10
65.41511110779993
 20
28.70387482289993
 30
0.0
  0
VERTEX
  5
1508
  8
3
 10
65.84923155199999
 20
28.32791548990008
 30
0.0
  0
VERTEX
  5
1509
  8
3
 10
66.0
 20
27.90039031080005
 30
0.0
  0
VERTEX
  5
150A
  8
3
 10
65.84923155199999
 20
27.47286513159997
 30
0.0
  0
VERTEX
  5
150B
  8
3
 10
65.41511110779993
 20
27.09690579869994
 30
0.0
  0
VERTEX
  5
150C
  8
3
 10
64.75
 20
26.81785855599992
 30
0.0
  0
VERTEX
  5
150D
  8
3
 10
63.93412044419983
 20
26.66938061949986
 30
0.0
  0
VERTEX
  5
150E
  8
3
 10
63.06587955589998
 20
26.66938061949986
 30
0.0
  0
VERTEX
  5
150F
  8
3
 10
62.25
 20
26.81785855599992
 30
0.0
  0
VERTEX
  5
1510
  8
3
 10
61.58488889219984
 20
27.09690579869994
 30
0.0
  0
VERTEX
  5
1511
  8
3
 10
61.15076844809983
 20
27.47286513159997
 30
0.0
  0
VERTEX
  5
1512
  8
3
 10
61.0
 20
27.90039031080005
 30
0.0
  0
SEQEND
  5
15FA
  8
3
  0
POLYLINE
  5
E41
  8
3
 66
     1
 10
0.0
 20
0.0
 30
0.0
  0
VERTEX
  5
1513
  8
3
 10
61.44499999999994
 20
28.17023720539987
 30
0.0
  0
VERTEX
  5
1514
  8
3
 10
61.6014275606999
 20
28.56344443219996
 30
0.0
  0
VERTEX
  5
1515
  8
3
 10
62.04689556469998
 20
28.89678942310002
 30
0.0
  0
VERTEX
  5
1516
  8
3
 10
62.71358554649987
 20
29.11952342509994
 30
0.0
  0
VERTEX
  5
1517
  8
3
 10
63.5
 20
29.19773720540002
 30
0.0
  0
VERTEX
  5
1518
  8
3
 10
64.2864144534999
 20
29.11952342509994
 30
0.0
  0
VERTEX
  5
1519
  8
3
 10
64.95310443539984
 20
28.89678942310002
 30
0.0
  0
VERTEX
  5
151A
  8
3
 10
65.39857243929987
 20
28.56344443219996
 30
0.0
  0
VERTEX
  5
151B
  8
3
 10
65.55499999999984
 20
28.17023720539987
 30
0.0
  0
VERTEX
  5
151C
  8
3
 10
65.39857243929987
 20
27.77702997860001
 30
0.0
  0
VERTEX
  5
151D
  8
3
 10
64.95310443539984
 20
27.44368498769995
 30
0.0
  0
VERTEX
  5
151E
  8
3
 10
64.2864144534999
 20
27.22095098570003
 30
0.0
  0
VERTEX
  5
151F
  8
3
 10
63.5
 20
27.14273720539995
 30
0.0
  0
VERTEX
  5
1520
  8
3
 10
62.71358554649987
 20
27.22095098570003
 30
0.0
  0
VERTEX
  5
1521
  8
3
 10
62.04689556469998
 20
27.44368498769995
 30
0.0
  0
VERTEX
  5
1522
  8
3
 10
61.6014275606999
 20
27.77702997860001
 30
0.0
  0
VERTEX
  5
1523
  8
3
 10
61.44499999999994
 20
28.17023720539987
 30
0.0
  0
SEQEND
  5
15F9
  8
3
  0
POLYLINE
  5
E42
  8
3
 66
     1
 10
0.0
 20
0.0
 30
0.0
  0
VERTEX
  5
1524
  8
3
 10
61.0
 20
28.44008409999992
 30
0.0
  0
VERTEX
  5
1525
  8
3
 10
61.15076844809983
 20
28.8676092792
 30
0.0
  0
VERTEX
  5
1526
  8
3
 10
61.58488889219984
 20
29.24356861210003
 30
0.0
  0
VERTEX
  5
1527
  8
3
 10
62.25
 20
29.52261585480005
 30
0.0
  0
VERTEX
  5
1528
  8
3
 10
63.06587955589998
 20
29.67109379129988
 30
0.0
  0
VERTEX
  5
1529
  8
3
 10
63.93412044419983
 20
29.67109379129988
 30
0.0
  0
VERTEX
  5
152A
  8
3
 10
64.75
 20
29.52261585480005
 30
0.0
  0
VERTEX
  5
152B
  8
3
 10
65.41511110779993
 20
29.24356861210003
 30
0.0
  0
VERTEX
  5
152C
  8
3
 10
65.84923155199999
 20
28.8676092792
 30
0.0
  0
VERTEX
  5
152D
  8
3
 10
66.0
 20
28.44008409999992
 30
0.0
  0
VERTEX
  5
152E
  8
3
 10
65.84923155199999
 20
28.01255892089989
 30
0.0
  0
VERTEX
  5
152F
  8
3
 10
65.41511110779993
 20
27.63659958790004
 30
0.0
  0
VERTEX
  5
1530
  8
3
 10
64.75
 20
27.35755234530006
 30
0.0
  0
VERTEX
  5
1531
  8
3
 10
63.93412044419983
 20
27.20907440880001
 30
0.0
  0
VERTEX
  5
1532
  8
3
 10
63.06587955589998
 20
27.20907440880001
 30
0.0
  0
VERTEX
  5
1533
  8
3
 10
62.25
 20
27.35755234530006
 30
0.0
  0
VERTEX
  5
1534
  8
3
 10
61.58488889219984
 20
27.63659958790004
 30
0.0
  0
VERTEX
  5
1535
  8
3
 10
61.15076844809983
 20
28.01255892089989
 30
0.0
  0
VERTEX
  5
1536
  8
3
 10
61.0
 20
28.44008409999992
 30
0.0
  0
SEQEND
  5
15F8
  8
3
  0
POLYLINE
  5
E43
  8
3
 66
     1
 10
0.0
 20
0.0
 30
0.0
  0
VERTEX
  5
1537
  8
3
 10
61.0
 20
28.51812365139995
 30
0.0
  0
VERTEX
  5
1538
  8
3
 10
61.15076844809983
 20
28.94564883049998
 30
0.0
  0
VERTEX
  5
1539
  8
3
 10
61.58488889219984
 20
29.32160816350006
 30
0.0
  0
VERTEX
  5
153A
  8
3
 10
62.25
 20
29.60065540610003
 30
0.0
  0
VERTEX
  5
153B
  8
3
 10
63.06587955589998
 20
29.74913334259986
 30
0.0
  0
VERTEX
  5
153C
  8
3
 10
63.93412044419983
 20
29.74913334259986
 30
0.0
  0
VERTEX
  5
153D
  8
3
 10
64.75
 20
29.60065540610003
 30
0.0
  0
VERTEX
  5
153E
  8
3
 10
65.41511110779993
 20
29.32160816350006
 30
0.0
  0
VERTEX
  5
153F
  8
3
 10
65.84923155199999
 20
28.94564883049998
 30
0.0
  0
VERTEX
  5
1540
  8
3
 10
66.0
 20
28.51812365139995
 30
0.0
  0
VERTEX
  5
1541
  8
3
 10
65.84923155199999
 20
28.09059847219987
 30
0.0
  0
VERTEX
  5
1542
  8
3
 10
65.41511110779993
 20
27.71463913930006
 30
0.0
  0
VERTEX
  5
1543
  8
3
 10
64.75
 20
27.43559189660004
 30
0.0
  0
VERTEX
  5
1544
  8
3
 10
63.93412044419983
 20
27.28711396009999
 30
0.0
  0
VERTEX
  5
1545
  8
3
 10
63.06587955589998
 20
27.28711396009999
 30
0.0
  0
VERTEX
  5
1546
  8
3
 10
62.25
 20
27.43559189660004
 30
0.0
  0
VERTEX
  5
1547
  8
3
 10
61.58488889219984
 20
27.71463913930006
 30
0.0
  0
VERTEX
  5
1548
  8
3
 10
61.15076844809983
 20
28.09059847219987
 30
0.0
  0
VERTEX
  5
1549
  8
3
 10
61.0
 20
28.51812365139995
 30
0.0
  0
SEQEND
  5
15F7
  8
3
  0
POLYLINE
  5
E44
  8
3
 66
     1
 10
0.0
 20
0.0
 30
0.0
  0
VERTEX
  5
154A
  8
3
 10
61.44499999999994
 20
28.787970546
 30
0.0
  0
VERTEX
  5
154B
  8
3
 10
61.6014275606999
 20
29.18117777280008
 30
0.0
  0
VERTEX
  5
154C
  8
3
 10
62.04689556469998
 20
29.51452276369992
 30
0.0
  0
VERTEX
  5
154D
  8
3
 10
62.71358554649987
 20
29.73725676570007
 30
0.0
  0
VERTEX
  5
154E
  8
3
 10
63.5
 20
29.81547054599991
 30
0.0
  0
VERTEX
  5
154F
  8
3
 10
64.2864144534999
 20
29.73725676570007
 30
0.0
  0
VERTEX
  5
1550
  8
3
 10
64.95310443539984
 20
29.51452276369992
 30
0.0
  0
VERTEX
  5
1551
  8
3
 10
65.39857243929987
 20
29.18117777280008
 30
0.0
  0
VERTEX
  5
1552
  8
3
 10
65.55499999999984
 20
28.787970546
 30
0.0
  0
VERTEX
  5
1553
  8
3
 10
65.39857243929987
 20
28.39476331929995
 30
0.0
  0
VERTEX
  5
1554
  8
3
 10
64.95310443539984
 20
28.06141832830008
 30
0.0
  0
VERTEX
  5
1555
  8
3
 10
64.2864144534999
 20
27.83868432639997
 30
0.0
  0
VERTEX
  5
1556
  8
3
 10
63.5
 20
27.76047054600008
 30
0.0
  0
VERTEX
  5
1557
  8
3
 10
62.71358554649987
 20
27.83868432639997
 30
0.0
  0
VERTEX
  5
1558
  8
3
 10
62.04689556469998
 20
28.06141832830008
 30
0.0
  0
VERTEX
  5
1559
  8
3
 10
61.6014275606999
 20
28.39476331929995
 30
0.0
  0
VERTEX
  5
155A
  8
3
 10
61.44499999999994
 20
28.787970546
 30
0.0
  0
SEQEND
  5
15F6
  8
3
  0
POLYLINE
  5
E45
  8
3
 66
     1
 10
0.0
 20
0.0
 30
0.0
  0
VERTEX
  5
155B
  8
3
 10
61.0
 20
29.05781744060005
 30
0.0
  0
VERTEX
  5
155C
  8
3
 10
61.15076844800001
 20
29.48534261979989
 30
0.0
  0
VERTEX
  5
155D
  8
3
 10
61.58488889219984
 20
29.86130195269993
 30
0.0
  0
VERTEX
  5
155E
  8
3
 10
62.25
 20
30.14034919539995
 30
0.0
  0
VERTEX
  5
155F
  8
3
 10
63.06587955579994
 20
30.28882713190001
 30
0.0
  0
VERTEX
  5
1560
  8
3
 10
63.93412044419983
 20
30.28882713190001
 30
0.0
  0
VERTEX
  5
1561
  8
3
 10
64.75
 20
30.14034919539995
 30
0.0
  0
VERTEX
  5
1562
  8
3
 10
65.41511110779993
 20
29.86130195269993
 30
0.0
  0
VERTEX
  5
1563
  8
3
 10
65.84923155199999
 20
29.48534261979989
 30
0.0
  0
VERTEX
  5
1564
  8
3
 10
66.0
 20
29.05781744060005
 30
0.0
  0
VERTEX
  5
1565
  8
3
 10
65.84923155199999
 20
28.63029226150002
 30
0.0
  0
VERTEX
  5
1566
  8
3
 10
65.41511110779993
 20
28.25433292849993
 30
0.0
  0
VERTEX
  5
1567
  8
3
 10
64.75
 20
27.97528568589996
 30
0.0
  0
VERTEX
  5
1568
  8
3
 10
63.93412044419983
 20
27.8268077493999
 30
0.0
  0
VERTEX
  5
1569
  8
3
 10
63.06587955579994
 20
27.8268077493999
 30
0.0
  0
VERTEX
  5
156A
  8
3
 10
62.25
 20
27.97528568589996
 30
0.0
  0
VERTEX
  5
156B
  8
3
 10
61.58488889219984
 20
28.25433292849993
 30
0.0
  0
VERTEX
  5
156C
  8
3
 10
61.15076844800001
 20
28.63029226150002
 30
0.0
  0
VERTEX
  5
156D
  8
3
 10
61.0
 20
29.05781744060005
 30
0.0
  0
SEQEND
  5
15F5
  8
3
  0
POLYLINE
  5
E46
  8
3
 66
     1
 10
0.0
 20
0.0
 30
0.0
  0
VERTEX
  5
156E
  8
3
 10
61.0
 20
29.13585699200007
 30
0.0
  0
VERTEX
  5
156F
  8
3
 10
61.15076844800001
 20
29.56338217109987
 30
0.0
  0
VERTEX
  5
1570
  8
3
 10
61.58488889219984
 20
29.93934150409996
 30
0.0
  0
VERTEX
  5
1571
  8
3
 10
62.25
 20
30.21838874669993
 30
0.0
  0
VERTEX
  5
1572
  8
3
 10
63.06587955579994
 20
30.36686668330003
 30
0.0
  0
VERTEX
  5
1573
  8
3
 10
63.93412044419983
 20
30.36686668330003
 30
0.0
  0
VERTEX
  5
1574
  8
3
 10
64.75
 20
30.21838874669993
 30
0.0
  0
VERTEX
  5
1575
  8
3
 10
65.41511110779993
 20
29.93934150409996
 30
0.0
  0
VERTEX
  5
1576
  8
3
 10
65.84923155199999
 20
29.56338217109987
 30
0.0
  0
VERTEX
  5
1577
  8
3
 10
66.0
 20
29.13585699200007
 30
0.0
  0
VERTEX
  5
1578
  8
3
 10
65.84923155199999
 20
28.7083318128
 30
0.0
  0
VERTEX
  5
1579
  8
3
 10
65.41511110779993
 20
28.33237247989996
 30
0.0
  0
VERTEX
  5
157A
  8
3
 10
64.75
 20
28.05332523729999
 30
0.0
  0
VERTEX
  5
157B
  8
3
 10
63.93412044419983
 20
27.90484730069988
 30
0.0
  0
VERTEX
  5
157C
  8
3
 10
63.06587955579994
 20
27.90484730069988
 30
0.0
  0
VERTEX
  5
157D
  8
3
 10
62.25
 20
28.05332523729999
 30
0.0
  0
VERTEX
  5
157E
  8
3
 10
61.58488889219984
 20
28.33237247989996
 30
0.0
  0
VERTEX
  5
157F
  8
3
 10
61.15076844800001
 20
28.7083318128
 30
0.0
  0
VERTEX
  5
1580
  8
3
 10
61.0
 20
29.13585699200007
 30
0.0
  0
SEQEND
  5
15F4
  8
3
  0
POLYLINE
  5
E47
  8
3
 66
     1
 10
0.0
 20
0.0
 30
0.0
  0
VERTEX
  5
1581
  8
3
 10
61.44499999999994
 20
29.40570388659989
 30
0.0
  0
VERTEX
  5
1582
  8
3
 10
61.6014275606999
 20
29.79891111339998
 30
0.0
  0
VERTEX
  5
1583
  8
3
 10
62.04689556469998
 20
30.13225610430004
 30
0.0
  0
VERTEX
  5
1584
  8
3
 10
62.71358554649987
 20
30.35499010629997
 30
0.0
  0
VERTEX
  5
1585
  8
3
 10
63.5
 20
30.43320388660004
 30
0.0
  0
VERTEX
  5
1586
  8
3
 10
64.2864144534999
 20
30.35499010629997
 30
0.0
  0
VERTEX
  5
1587
  8
3
 10
64.95310443529979
 20
30.13225610430004
 30
0.0
  0
VERTEX
  5
1588
  8
3
 10
65.39857243929987
 20
29.79891111339998
 30
0.0
  0
VERTEX
  5
1589
  8
3
 10
65.55499999999984
 20
29.40570388659989
 30
0.0
  0
VERTEX
  5
158A
  8
3
 10
65.39857243929987
 20
29.01249665990008
 30
0.0
  0
VERTEX
  5
158B
  8
3
 10
64.95310443529979
 20
28.67915166889998
 30
0.0
  0
VERTEX
  5
158C
  8
3
 10
64.2864144534999
 20
28.45641766699987
 30
0.0
  0
VERTEX
  5
158D
  8
3
 10
63.5
 20
28.37820388659998
 30
0.0
  0
VERTEX
  5
158E
  8
3
 10
62.71358554649987
 20
28.45641766699987
 30
0.0
  0
VERTEX
  5
158F
  8
3
 10
62.04689556469998
 20
28.67915166889998
 30
0.0
  0
VERTEX
  5
1590
  8
3
 10
61.6014275606999
 20
29.01249665990008
 30
0.0
  0
VERTEX
  5
1591
  8
3
 10
61.44499999999994
 20
29.40570388659989
 30
0.0
  0
SEQEND
  5
15F3
  8
3
  0
POLYLINE
  5
E48
  8
3
 66
     1
 10
0.0
 20
0.0
 30
0.0
  0
VERTEX
  5
1592
  8
3
 10
61.0
 20
29.67555078119995
 30
0.0
  0
VERTEX
  5
1593
  8
3
 10
61.15076844800001
 20
30.10307596040002
 30
0.0
  0
VERTEX
  5
1594
  8
3
 10
61.58488889219984
 20
30.47903529330006
 30
0.0
  0
VERTEX
  5
1595
  8
3
 10
62.25
 20
30.75808253600007
 30
0.0
  0
VERTEX
  5
1596
  8
3
 10
63.06587955579994
 20
30.9065604724999
 30
0.0
  0
VERTEX
  5
1597
  8
3
 10
63.93412044419983
 20
30.9065604724999
 30
0.0
  0
VERTEX
  5
1598
  8
3
 10
64.75
 20
30.75808253600007
 30
0.0
  0
VERTEX
  5
1599
  8
3
 10
65.41511110779993
 20
30.47903529330006
 30
0.0
  0
VERTEX
  5
159A
  8
3
 10
65.84923155199999
 20
30.10307596040002
 30
0.0
  0
VERTEX
  5
159B
  8
3
 10
66.0
 20
29.67555078119995
 30
0.0
  0
VERTEX
  5
159C
  8
3
 10
65.84923155199999
 20
29.24802560209991
 30
0.0
  0
VERTEX
  5
159D
  8
3
 10
65.41511110779993
 20
28.87206626910006
 30
0.0
  0
VERTEX
  5
159E
  8
3
 10
64.75
 20
28.59301902649986
 30
0.0
  0
VERTEX
  5
159F
  8
3
 10
63.93412044419983
 20
28.44454109000003
 30
0.0
  0
VERTEX
  5
15A0
  8
3
 10
63.06587955579994
 20
28.44454109000003
 30
0.0
  0
VERTEX
  5
15A1
  8
3
 10
62.25
 20
28.59301902649986
 30
0.0
  0
VERTEX
  5
15A2
  8
3
 10
61.58488889219984
 20
28.87206626910006
 30
0.0
  0
VERTEX
  5
15A3
  8
3
 10
61.15076844800001
 20
29.24802560209991
 30
0.0
  0
VERTEX
  5
15A4
  8
3
 10
61.0
 20
29.67555078119995
 30
0.0
  0
SEQEND
  5
15F2
  8
3
  0
LINE
  5
E49
  8
3
 10
64.75
 20
28.2685125552
 30
0.0
 11
63.5
 21
28.62935647349991
 31
0.0
  0
LINE
  5
E4A
  8
3
 10
62.25
 20
28.2685125552
 30
0.0
 11
63.5
 21
28.62935647349991
 31
0.0
  0
LINE
  5
E4B
  8
3
 10
63.5
 20
28.62935647349991
 30
0.0
 11
63.5
 21
30.96762506369987
 31
0.0
  0
POLYLINE
  5
E4C
  8
3
 66
     1
 10
0.0
 20
0.0
 30
0.0
  0
VERTEX
  5
15A5
  8
3
 10
61.0
 20
29.75359033259997
 30
0.0
  0
VERTEX
  5
15A6
  8
3
 10
61.15076844800001
 20
30.1811155117
 30
0.0
  0
VERTEX
  5
15A7
  8
3
 10
61.58488889219984
 20
30.55707484470008
 30
0.0
  0
VERTEX
  5
15A8
  8
3
 10
62.25
 20
30.83612208730005
 30
0.0
  0
VERTEX
  5
15A9
  8
3
 10
63.06587955579994
 20
30.98460002389993
 30
0.0
  0
VERTEX
  5
15AA
  8
3
 10
63.93412044419983
 20
30.98460002389993
 30
0.0
  0
VERTEX
  5
15AB
  8
3
 10
64.75
 20
30.83612208730005
 30
0.0
  0
VERTEX
  5
15AC
  8
3
 10
65.41511110779993
 20
30.55707484470008
 30
0.0
  0
VERTEX
  5
15AD
  8
3
 10
65.84923155199999
 20
30.1811155117
 30
0.0
  0
VERTEX
  5
15AE
  8
3
 10
66.0
 20
29.75359033259997
 30
0.0
  0
VERTEX
  5
15AF
  8
3
 10
65.84923155199999
 20
29.3260651533999
 30
0.0
  0
VERTEX
  5
15B0
  8
3
 10
65.41511110779993
 20
28.95010582049986
 30
0.0
  0
VERTEX
  5
15B1
  8
3
 10
64.75
 20
28.67105857789988
 30
0.0
  0
VERTEX
  5
15B2
  8
3
 10
63.93412044419983
 20
28.52258064130001
 30
0.0
  0
VERTEX
  5
15B3
  8
3
 10
63.06587955579994
 20
28.52258064130001
 30
0.0
  0
VERTEX
  5
15B4
  8
3
 10
62.25
 20
28.67105857789988
 30
0.0
  0
VERTEX
  5
15B5
  8
3
 10
61.58488889219984
 20
28.95010582049986
 30
0.0
  0
VERTEX
  5
15B6
  8
3
 10
61.15076844800001
 20
29.3260651533999
 30
0.0
  0
VERTEX
  5
15B7
  8
3
 10
61.0
 20
29.75359033259997
 30
0.0
  0
SEQEND
  5
15F1
  8
3
  0
POLYLINE
  5
E4D
  8
3
 66
     1
 10
0.0
 20
0.0
 30
0.0
  0
VERTEX
  5
15B8
  8
3
 10
61.44499999999994
 20
30.02343722720002
 30
0.0
  0
VERTEX
  5
15B9
  8
3
 10
61.6014275606999
 20
30.41664445399988
 30
0.0
  0
VERTEX
  5
15BA
  8
3
 10
62.04689556469998
 20
30.74998944489994
 30
0.0
  0
VERTEX
  5
15BB
  8
3
 10
62.71358554649987
 20
30.97272344689986
 30
0.0
  0
VERTEX
  5
15BC
  8
3
 10
63.5
 20
31.05093722719994
 30
0.0
  0
VERTEX
  5
15BD
  8
3
 10
64.2864144534999
 20
30.97272344689986
 30
0.0
  0
VERTEX
  5
15BE
  8
3
 10
64.95310443529979
 20
30.74998944489994
 30
0.0
  0
VERTEX
  5
15BF
  8
3
 10
65.39857243929987
 20
30.41664445399988
 30
0.0
  0
VERTEX
  5
15C0
  8
3
 10
65.55499999999984
 20
30.02343722720002
 30
0.0
  0
VERTEX
  5
15C1
  8
3
 10
65.39857243929987
 20
29.63023000049998
 30
0.0
  0
VERTEX
  5
15C2
  8
3
 10
64.95310443529979
 20
29.29688500949987
 30
0.0
  0
VERTEX
  5
15C3
  8
3
 10
64.2864144534999
 20
29.07415100759999
 30
0.0
  0
VERTEX
  5
15C4
  8
3
 10
63.5
 20
28.99593722719987
 30
0.0
  0
VERTEX
  5
15C5
  8
3
 10
62.71358554649987
 20
29.07415100759999
 30
0.0
  0
VERTEX
  5
15C6
  8
3
 10
62.04689556469998
 20
29.29688500949987
 30
0.0
  0
VERTEX
  5
15C7
  8
3
 10
61.6014275606999
 20
29.63023000049998
 30
0.0
  0
VERTEX
  5
15C8
  8
3
 10
61.44499999999994
 20
30.02343722720002
 30
0.0
  0
SEQEND
  5
15F0
  8
3
  0
POLYLINE
  5
E4E
  8
3
 66
     1
 10
0.0
 20
0.0
 30
0.0
  0
VERTEX
  5
15C9
  8
3
 10
61.2438968731999
 20
30.14538566379997
 30
0.0
  0
VERTEX
  5
15CA
  8
3
 10
61.39624648759991
 20
29.73788643750004
 30
0.0
  0
VERTEX
  5
15CB
  8
3
 10
61.83271967109999
 20
29.38542223969989
 30
0.0
  0
VERTEX
  5
15CC
  8
3
 10
62.4943683017998
 20
29.13559531350006
 30
0.0
  0
VERTEX
  5
15CD
  8
3
 10
63.29183306569985
 20
29.02214616950005
 30
0.0
  0
VERTEX
  5
15CE
  8
3
 10
64.11741192759996
 20
29.06039674329986
 30
0.0
  0
VERTEX
  5
15CF
  8
3
 10
64.85960588749981
 20
29.24518108289999
 30
0.0
  0
VERTEX
  5
15D0
  8
3
 10
65.41817753839996
 20
29.55154303940003
 30
0.0
  0
VERTEX
  5
15D1
  8
3
 10
65.7176886837999
 20
29.9381067329
 30
0.0
  0
VERTEX
  5
15D2
  8
3
 10
65.7176886837999
 20
30.3526645945999
 30
0.0
  0
VERTEX
  5
15D3
  8
3
 10
65.41817753839996
 20
30.73922828819991
 30
0.0
  0
VERTEX
  5
15D4
  8
3
 10
64.85960588749981
 20
31.04559024469995
 30
0.0
  0
VERTEX
  5
15D5
  8
3
 10
64.11741192759996
 20
31.23037458430008
 30
0.0
  0
VERTEX
  5
15D6
  8
3
 10
63.29183306569985
 20
31.26862515809989
 30
0.0
  0
VERTEX
  5
15D7
  8
3
 10
62.4943683017998
 20
31.15517601409988
 30
0.0
  0
VERTEX
  5
15D8
  8
3
 10
61.83271967109999
 20
30.90534908790005
 30
0.0
  0
VERTEX
  5
15D9
  8
3
 10
61.39624648759991
 20
30.5528848900999
 30
0.0
  0
VERTEX
  5
15DA
  8
3
 10
61.2438968731999
 20
30.14538566379997
 30
0.0
  0
SEQEND
  5
15EF
  8
3
  0
LINE
  5
E4F
  8
3
 10
64.75
 20
28.2685125552
 30
0.0
 11
64.75
 21
27.54682471880005
 31
0.0
  0
LINE
  5
E50
  8
3
 10
64.75
 20
28.2685125552
 30
0.0
 11
64.75
 21
30.60678114550001
 31
0.0
  0
LINE
  5
E51
  8
3
 10
62.25
 20
28.2685125552
 30
0.0
 11
62.25
 21
30.60678114550001
 31
0.0
  0
LINE
  5
E52
  8
3
 10
62.25
 20
28.2685125552
 30
0.0
 11
62.25
 21
27.54682471880005
 31
0.0
  0
POLYLINE
  5
E53
  8
3
 66
     1
 10
0.0
 20
0.0
 30
0.0
  0
VERTEX
  5
15DB
  8
3
 10
63.5
 20
31.27343722720002
 30
0.0
  0
VERTEX
  5
15DC
  8
3
 10
64.2864144534999
 20
31.19522344689994
 30
0.0
  0
VERTEX
  5
15DD
  8
3
 10
64.95310443529979
 20
30.97248944490002
 30
0.0
  0
VERTEX
  5
15DE
  8
3
 10
65.39857243929987
 20
30.63914445399996
 30
0.0
  0
VERTEX
  5
15DF
  8
3
 10
65.55499999999984
 20
30.24593722719987
 30
0.0
  0
VERTEX
  5
15E0
  8
3
 10
65.39857243929987
 20
29.85273000050006
 30
0.0
  0
VERTEX
  5
15E1
  8
3
 10
64.95310443529979
 20
29.51938500949996
 30
0.0
  0
VERTEX
  5
15E2
  8
3
 10
64.2864144534999
 20
29.29665100760008
 30
0.0
  0
VERTEX
  5
15E3
  8
3
 10
63.5
 20
29.21843722719996
 30
0.0
  0
VERTEX
  5
15E4
  8
3
 10
62.71358554649987
 20
29.29665100760008
 30
0.0
  0
VERTEX
  5
15E5
  8
3
 10
62.04689556469998
 20
29.51938500949996
 30
0.0
  0
VERTEX
  5
15E6
  8
3
 10
61.6014275606999
 20
29.85273000050006
 30
0.0
  0
VERTEX
  5
15E7
  8
3
 10
61.44499999999994
 20
30.24593722719987
 30
0.0
  0
VERTEX
  5
15E8
  8
3
 10
61.6014275606999
 20
30.63914445399996
 30
0.0
  0
VERTEX
  5
15E9
  8
3
 10
62.04689556469998
 20
30.97248944490002
 30
0.0
  0
VERTEX
  5
15EA
  8
3
 10
62.71358554649987
 20
31.19522344689994
 30
0.0
  0
VERTEX
  5
15EB
  8
3
 10
63.5
 20
31.27343722720002
 30
0.0
  0
SEQEND
  5
15EE
  8
3
  0
LINE
  5
E54
  8
3
 10
62.25
 20
30.60678114550001
 30
0.0
 11
63.5
 21
30.96762506369987
 31
0.0
  0
LINE
  5
E55
  8
3
 10
64.75
 20
30.60678114550001
 30
0.0
 11
63.5
 21
30.96762506369987
 31
0.0
  0
LINE
  5
E56
  8
3
 10
63.5
 20
27.18598080049992
 30
0.0
 11
63.5
 21
28.62935647349991
 31
0.0
  0
LINE
  5
E57
  8
3
 10
64.75
 20
29.88509330900001
 30
0.0
 11
63.5
 21
29.52424939069988
 31
0.0
  0
LINE
  5
E58
  8
3
 10
64.75
 20
27.54682471880005
 30
0.0
 11
63.5
 21
27.18598080049992
 31
0.0
  0
LINE
  5
E59
  8
3
 10
62.25
 20
29.88509330900001
 30
0.0
 11
63.5
 21
29.52424939069988
 31
0.0
  0
LINE
  5
E5A
  8
3
 10
62.25
 20
27.54682471880005
 30
0.0
 11
63.5
 21
27.18598080049992
 31
0.0
  0
LINE
  5
E5B
  8
3
 10
101.5999999999999
 20
42.66726448429995
 30
0.0
 11
73.09999999999991
 21
42.66726448429995
 31
0.0
  0
LINE
  5
E5C
  8
3
 10
73.09999999999991
 20
29.17478448430006
 30
0.0
 11
101.5999999999999
 21
29.17478448430006
 31
0.0
  0
LINE
  5
E5D
  8
3
 10
101.5999999999999
 20
-29.17478448420002
 30
0.0
 11
73.09999999999991
 21
-29.17478448420002
 31
0.0
  0
LINE
  5
E5E
  8
3
 10
73.09999999999991
 20
-42.66726448420013
 30
0.0
 11
101.5999999999999
 21
-42.66726448420013
 31
0.0
  0
LINE
  5
E62
  8
3
 10
101.5999999999999
 20
26.39907116059999
 30
0.0
 11
101.4136296694999
 21
25.7035276181
 31
0.0
  0
LINE
  5
E63
  8
3
 10
101.4136296694999
 20
-25.70352761799995
 30
0.0
 11
101.5999999999999
 21
-26.39907116049994
 31
0.0
  0
ARC
  5
E64
  8
3
 10
101.8
 20
-25.60000000000014
 30
0.0
 40
0.4000000000004107
 50
166.8749999999853
 51
195.0000000000124
  0
ARC
  5
E65
  8
3
 10
101.8
 20
-25.60000000000014
 30
0.0
 40
0.4000000000001981
 50
120.0000000000006
 51
166.8750000000114
  0
ARC
  5
E66
  8
3
 10
101.8
 20
25.59999999999991
 30
0.0
 40
0.4000000000003519
 50
164.9999999999855
 51
180.0
  0
ARC
  5
E67
  8
3
 10
101.8
 20
25.59999999999991
 30
0.0
 40
0.4000000000003183
 50
180.0
 51
239.9999999999914
  0
LINE
  5
E68
  8
3
 10
101.3999999999999
 20
25.59999999999991
 30
0.0
 11
101.3999999999999
 21
-25.60000000000014
 31
0.0
  0
LINE
  5
E69
  8
3
 10
101.5999999999999
 20
2.5
 30
0.0
 11
63.19999999999982
 21
2.5
 31
0.0
  0
LINE
  5
E6A
  8
3
 10
63.19999999999982
 20
-2.5
 30
0.0
 11
101.5999999999999
 21
-2.5
 31
0.0
  0
LINE
  5
E6B
  8
3
 10
63.19999999999982
 20
2.5
 30
0.0
 11
62.92568881199986
 21
2.043469518099982
 31
0.0
  0
LINE
  5
E6C
  8
3
 10
62.92568881199986
 20
-2.043469517999938
 30
0.0
 11
63.19999999999982
 21
-2.5
 31
0.0
  0
LINE
  5
E79
  8
3
 10
101.5999999999999
 20
11.90499993899994
 30
0.0
 11
55.19999999999982
 21
11.90499993899994
 31
0.0
  0
LINE
  5
E7A
  8
3
 10
55.19999999999982
 20
-11.90499993899994
 30
0.0
 11
101.5999999999999
 21
-11.90499993899994
 31
0.0
  0
LINE
  5
E7B
  8
3
 10
55.19999999999982
 20
11.90499993899994
 30
0.0
 11
54.56398907139987
 21
10.84649999999988
 31
0.0
  0
LINE
  5
E7C
  8
3
 10
54.56398907139987
 20
-10.84650000000011
 30
0.0
 11
55.19999999999982
 21
-11.90499993899994
 31
0.0
  0
LINE
  5
E7F
  8
3
 10
83.59999999999991
 20
-31.75275000000011
 30
0.0
 11
77.87845497049989
 21
-41.27500000000009
 31
0.0
  0
LINE
  5
E80
  8
3
 10
77.87845497049989
 20
-41.27500000000009
 30
0.0
 11
83.59999999999991
 21
-50.79725000000008
 31
0.0
  0
LINE
  5
E81
  8
3
 10
83.59999999999991
 20
50.79725000000008
 30
0.0
 11
77.87845497049989
 21
41.27499999999986
 31
0.0
  0
LINE
  5
E82
  8
3
 10
77.87845497049989
 20
41.27499999999986
 30
0.0
 11
83.59999999999991
 21
31.75274999999988
 31
0.0
  0
LINE
  5
E83
  8
3
 10
101.5999999999999
 20
50.79725000000008
 30
0.0
 11
83.59999999999991
 21
50.79725000000008
 31
0.0
  0
LINE
  5
E84
  8
3
 10
83.59999999999991
 20
31.75274999999988
 30
0.0
 11
101.5999999999999
 21
31.75274999999988
 31
0.0
  0
LINE
  5
E85
  8
3
 10
101.5999999999999
 20
-31.75275000000011
 30
0.0
 11
83.59999999999991
 21
-31.75275000000011
 31
0.0
  0
LINE
  5
E86
  8
3
 10
83.59999999999991
 20
-50.79725000000008
 30
0.0
 11
101.5999999999999
 21
-50.79725000000008
 31
0.0
  0
LINE
  5
E8D
  8
3
 10
61.39999999999986
 20
28.92524848640005
 30
0.0
 11
61.39999999999986
 21
10.30970581020006
 31
0.0
  0
LINE
  5
E8E
  8
3
 10
65.59999999999991
 20
17.75217326820007
 30
0.0
 11
65.59999999999991
 21
28.92524848640005
 31
0.0
  0
LINE
  5
E8F
  8
3
 10
65.59999999999991
 20
10.30895517470003
 30
0.0
 11
65.59999999999991
 21
13.42474126809998
 31
0.0
  0
LINE
  5
E90
  8
3
 10
65.59999999999991
 20
-13.42474126799993
 30
0.0
 11
65.59999999999991
 21
-10.30895517459999
 31
0.0
  0
LINE
  5
E91
  8
3
 10
65.59999999999991
 20
-28.92524848640005
 30
0.0
 11
65.59999999999991
 21
-17.75217326810002
 31
0.0
  0
LINE
  5
E92
  8
3
 10
61.39999999999986
 20
-10.30970581010001
 30
0.0
 11
61.39999999999986
 21
-28.92524848640005
 31
0.0
  0
LINE
  5
E93
  8
3
 10
101.5999999999999
 20
-13.0884572681
 30
0.0
 11
65.18242302829981
 21
-13.0884572681
 31
0.0
  0
LINE
  5
E94
  8
3
 10
65.18242302829981
 20
-18.0884572681
 30
0.0
 11
101.5999999999999
 21
-18.0884572681
 31
0.0
  0
LINE
  5
E95
  8
3
 10
101.5999999999999
 20
18.08845726820005
 30
0.0
 11
65.18543959659996
 21
18.08845726820005
 31
0.0
  0
LINE
  5
E96
  8
3
 10
65.18543959659996
 20
13.08845726820005
 30
0.0
 11
101.5999999999999
 21
13.08845726820005
 31
0.0
  0
LINE
  5
E97
  8
3
 10
66.125
 20
-30.24378634680011
 30
0.0
 11
66.125
 21
-29.37991182330006
 31
0.0
  0
LINE
  5
E98
  8
3
 10
60.875
 20
-29.37991182330006
 30
0.0
 11
60.875
 21
-30.24576628110003
 31
0.0
  0
LINE
  5
E99
  8
3
 10
65.64330352489992
 20
-28.62213959500014
 30
0.0
 11
65.21464281999988
 21
-28.31903070370004
 31
0.0
  0
LINE
  5
E9A
  8
3
 10
61.78535718009994
 20
-28.31903070370004
 30
0.0
 11
61.35669647509985
 21
-28.62213959500014
 31
0.0
  0
LINE
  5
E9B
  8
3
 10
60.875
 20
30.24576628120008
 30
0.0
 11
60.875
 21
29.37991182339988
 31
0.0
  0
LINE
  5
E9C
  8
3
 10
66.125
 20
29.37991182339988
 30
0.0
 11
66.125
 21
30.24378634689992
 31
0.0
  0
LINE
  5
E9D
  8
3
 10
61.35669647509985
 20
28.62213959509995
 30
0.0
 11
61.78535718009994
 21
28.31903070380008
 31
0.0
  0
LINE
  5
E9E
  8
3
 10
65.21464281999988
 20
28.31903070380008
 30
0.0
 11
65.64330352489992
 21
28.62213959509995
 31
0.0
  0
LINE
  5
E9F
  8
3
 10
101.5999999999999
 20
12.70000000000005
 30
0.0
 11
96.51873
 21
12.70000000000005
 31
0.0
  0
LINE
  5
EA0
  8
3
 10
96.51873
 20
-12.70000000000005
 30
0.0
 11
101.5999999999999
 21
-12.70000000000005
 31
0.0
  0
LINE
  5
EA1
  8
3
 10
96.51873
 20
12.70000000000005
 30
0.0
 11
95.25
 21
11.43127000000004
 31
0.0
  0
LINE
  5
EA2
  8
3
 10
95.25
 20
-11.43127000000004
 30
0.0
 11
96.51873
 21
-12.70000000000005
 31
0.0
  0
LINE
  5
EA7
  8
3
 10
101.5999999999999
 20
50.80380999999988
 30
0.0
 11
88.42296030499983
 21
50.80380999999988
 31
0.0
  0
LINE
  5
EA8
  8
3
 10
88.42296030499983
 20
31.74619000000007
 30
0.0
 11
101.5999999999999
 21
31.74619000000007
 31
0.0
  0
ARC
  5
EA9
  8
3
 10
88.3599999999999
 20
50.99701000000005
 30
0.0
 40
0.2032000000001914
 50
270.0
 51
288.0498306933082
  0
ARC
  5
EAA
  8
3
 10
88.3599999999999
 20
31.55298999999991
 30
0.0
 40
0.2031999999999753
 50
71.95016930667195
 51
90.0
  0
LINE
  5
EAB
  8
3
 10
88.3599999999999
 20
50.79380999999989
 30
0.0
 11
87.2848395105998
 21
50.79380999999989
 31
0.0
  0
LINE
  5
EAC
  8
3
 10
87.2848395105998
 20
31.75619000000006
 30
0.0
 11
88.3599999999999
 21
31.75619000000006
 31
0.0
  0
LINE
  5
EAD
  8
3
 10
87.2848395105998
 20
50.79380999999989
 30
0.0
 11
86.3599999999999
 21
50.54600000000005
 31
0.0
  0
LINE
  5
EAE
  8
3
 10
86.3599999999999
 20
32.00399999999991
 30
0.0
 11
87.2848395105998
 21
31.75619000000006
 31
0.0
  0
LINE
  5
EAF
  8
3
 10
101.5999999999999
 20
-31.74619000000007
 30
0.0
 11
88.42296030499983
 21
-31.74619000000007
 31
0.0
  0
LINE
  5
EB0
  8
3
 10
88.42296030499983
 20
-50.80381000000011
 30
0.0
 11
101.5999999999999
 21
-50.80381000000011
 31
0.0
  0
ARC
  5
EB1
  8
3
 10
88.3599999999999
 20
-31.55299000000014
 30
0.0
 40
0.2032000000001517
 50
270.0
 51
288.0498306933107
  0
ARC
  5
EB2
  8
3
 10
88.3599999999999
 20
-50.99701000000005
 30
0.0
 40
0.2031999999999753
 50
71.95016930667195
 51
90.0
  0
LINE
  5
EB3
  8
3
 10
87.2848395105998
 20
-31.75619000000006
 30
0.0
 11
86.3599999999999
 21
-32.00400000000013
 31
0.0
  0
LINE
  5
EB4
  8
3
 10
86.3599999999999
 20
-50.54600000000005
 30
0.0
 11
87.2848395105998
 21
-50.79381000000012
 31
0.0
  0
LINE
  5
EB5
  8
3
 10
88.3599999999999
 20
-31.75619000000006
 30
0.0
 11
87.2848395105998
 21
-31.75619000000006
 31
0.0
  0
LINE
  5
EB6
  8
3
 10
87.2848395105998
 20
-50.79381000000012
 30
0.0
 11
88.3599999999999
 21
-50.79381000000012
 31
0.0
  0
LINE
  5
EB7
  8
3
 10
65.39160436389989
 20
-24.87180662090009
 30
0.0
 11
64.92886901659995
 21
-24.54460331890004
 31
0.0
  0
LINE
  5
EB8
  8
3
 10
62.07113098339983
 20
-24.54460331890004
 30
0.0
 11
61.60839563599984
 21
-24.87180662090009
 31
0.0
  0
LINE
  5
EB9
  8
3
 10
64.91450320399986
 20
-24.93847369240007
 30
0.0
 11
64.6627216336999
 21
-24.85208731180001
 31
0.0
  0
LINE
  5
EBA
  8
3
 10
62.33727836629987
 20
-24.85208731180001
 30
0.0
 11
62.08549679589987
 21
-24.93847369240007
 31
0.0
  0
LINE
  5
EBB
  8
3
 10
62.18918964459999
 20
-26.49571106079998
 30
0.0
 11
62.33727836629987
 21
-26.54652037400001
 31
0.0
  0
LINE
  5
EBC
  8
3
 10
64.6627216336999
 20
-26.54652037400001
 30
0.0
 11
64.81081035540001
 21
-26.49571106079998
 31
0.0
  0
LINE
  5
EBD
  8
3
 10
66.0
 20
-26.04719028890008
 30
0.0
 11
66.0
 21
-25.96915073750006
 31
0.0
  0
LINE
  5
EBE
  8
3
 10
61.0
 20
-25.96915073750006
 30
0.0
 11
61.0
 21
-26.04719028890008
 31
0.0
  0
LINE
  5
EBF
  8
3
 10
62.08549679589987
 20
-27.07786733400008
 30
0.0
 11
62.33727836629987
 21
-27.16425371460014
 31
0.0
  0
LINE
  5
EC0
  8
3
 10
64.6627216336999
 20
-27.16425371460014
 30
0.0
 11
64.91450320399986
 21
-27.07786733400008
 31
0.0
  0
LINE
  5
EC1
  8
3
 10
64.91450320399986
 20
-25.55620703299996
 30
0.0
 11
64.6627216336999
 21
-25.46982065240013
 31
0.0
  0
LINE
  5
EC2
  8
3
 10
62.33727836619983
 20
-25.46982065240013
 30
0.0
 11
62.08549679589987
 21
-25.55620703299996
 31
0.0
  0
LINE
  5
EC3
  8
3
 10
66.0
 20
-26.66492362949998
 30
0.0
 11
66.0
 21
-26.58688407809996
 31
0.0
  0
LINE
  5
EC4
  8
3
 10
61.0
 20
-26.58688407809996
 30
0.0
 11
61.0
 21
-26.66492362949998
 31
0.0
  0
LINE
  5
EC5
  8
3
 10
62.08549679589987
 20
-27.69560067459997
 30
0.0
 11
62.33727836629987
 21
-27.78198705520003
 31
0.0
  0
LINE
  5
EC6
  8
3
 10
64.6627216336999
 20
-27.78198705520003
 30
0.0
 11
64.91450320399986
 21
-27.69560067459997
 31
0.0
  0
LINE
  5
EC7
  8
3
 10
64.91450320399986
 20
-26.17394037360009
 30
0.0
 11
64.6627216336999
 21
-26.08755399300003
 31
0.0
  0
LINE
  5
EC8
  8
3
 10
62.33727836629987
 20
-26.08755399300003
 30
0.0
 11
62.08549679589987
 21
-26.17394037360009
 31
0.0
  0
LINE
  5
EC9
  8
3
 10
66.0
 20
-27.28265697010011
 30
0.0
 11
66.0
 21
-27.20461741870008
 31
0.0
  0
LINE
  5
ECA
  8
3
 10
61.0
 20
-27.20461741870008
 30
0.0
 11
61.0
 21
-27.28265697010011
 31
0.0
  0
LINE
  5
ECB
  8
3
 10
62.08549679589987
 20
-28.31333401530014
 30
0.0
 11
62.33727836629987
 21
-28.39972039579993
 31
0.0
  0
LINE
  5
ECC
  8
3
 10
64.6627216336999
 20
-28.39972039579993
 30
0.0
 11
64.91450320399986
 21
-28.31333401530014
 31
0.0
  0
LINE
  5
ECD
  8
3
 10
64.91450320399986
 20
-26.79167371419999
 30
0.0
 11
64.6627216336999
 21
-26.70528733359993
 31
0.0
  0
LINE
  5
ECE
  8
3
 10
62.33727836629987
 20
-26.70528733359993
 30
0.0
 11
62.08549679589987
 21
-26.79167371419999
 31
0.0
  0
LINE
  5
ECF
  8
3
 10
66.0
 20
-27.9003903107
 30
0.0
 11
66.0
 21
-27.82235075929998
 31
0.0
  0
LINE
  5
ED0
  8
3
 10
61.0
 20
-27.82235075929998
 30
0.0
 11
61.0
 21
-27.9003903107
 31
0.0
  0
LINE
  5
ED1
  8
3
 10
62.08549679599992
 20
-28.93106735590004
 30
0.0
 11
62.33727836629987
 21
-29.01745373640006
 31
0.0
  0
LINE
  5
ED2
  8
3
 10
64.6627216336999
 20
-29.01745373640006
 30
0.0
 11
64.91450320399986
 21
-28.93106735590004
 31
0.0
  0
LINE
  5
ED3
  8
3
 10
64.91450320399986
 20
-27.40940705480011
 30
0.0
 11
64.6627216336999
 21
-27.32302067420005
 31
0.0
  0
LINE
  5
ED4
  8
3
 10
62.33727836629987
 20
-27.32302067420005
 30
0.0
 11
62.08549679599992
 21
-27.40940705480011
 31
0.0
  0
LINE
  5
ED5
  8
3
 10
66.0
 20
-28.51812365130013
 30
0.0
 11
66.0
 21
-28.4400840999001
 31
0.0
  0
LINE
  5
ED6
  8
3
 10
61.0
 20
-28.4400840999001
 30
0.0
 11
61.0
 21
-28.51812365130013
 31
0.0
  0
LINE
  5
ED7
  8
3
 10
62.08549679599992
 20
-29.54880069649994
 30
0.0
 11
62.33727836629987
 21
-29.63518707699996
 31
0.0
  0
LINE
  5
ED8
  8
3
 10
64.6627216336999
 20
-29.63518707699996
 30
0.0
 11
64.91450320399986
 21
-29.54880069649994
 31
0.0
  0
LINE
  5
ED9
  8
3
 10
64.91450320399986
 20
-28.02714039540001
 30
0.0
 11
64.6627216336999
 21
-27.94075401479995
 31
0.0
  0
LINE
  5
EDA
  8
3
 10
62.33727836629987
 20
-27.94075401479995
 30
0.0
 11
62.08549679599992
 21
-28.02714039540001
 31
0.0
  0
LINE
  5
EDB
  8
3
 10
66.0
 20
-29.13585699190003
 30
0.0
 11
66.0
 21
-29.0578174405
 31
0.0
  0
LINE
  5
EDC
  8
3
 10
61.0
 20
-29.0578174405
 30
0.0
 11
61.0
 21
-29.13585699190003
 31
0.0
  0
LINE
  5
EDD
  8
3
 10
62.08549679599992
 20
-30.16653403710006
 30
0.0
 11
62.33727836629987
 21
-30.25292041770012
 31
0.0
  0
LINE
  5
EDE
  8
3
 10
64.6627216336999
 20
-30.25292041770012
 30
0.0
 11
64.91450320399986
 21
-30.16653403710006
 31
0.0
  0
LINE
  5
EDF
  8
3
 10
64.91450320399986
 20
-28.64487373600014
 30
0.0
 11
64.6627216336999
 21
-28.55848735540008
 31
0.0
  0
LINE
  5
EE0
  8
3
 10
62.33727836629987
 20
-28.55848735540008
 30
0.0
 11
62.08549679599992
 21
-28.64487373600014
 31
0.0
  0
LINE
  5
EE1
  8
3
 10
66.0
 20
-29.75359033249993
 30
0.0
 11
66.0
 21
-29.67555078110013
 31
0.0
  0
LINE
  5
EE2
  8
3
 10
61.0
 20
-29.67555078110013
 30
0.0
 11
61.0
 21
-29.75359033249993
 31
0.0
  0
LINE
  5
EE3
  8
3
 10
62.08549679599992
 20
-30.78426737769996
 30
0.0
 11
62.33727836629987
 21
-30.87065375830002
 31
0.0
  0
LINE
  5
EE4
  8
3
 10
64.6627216336999
 20
-30.87065375830002
 30
0.0
 11
64.91450320399986
 21
-30.78426737769996
 31
0.0
  0
LINE
  5
EE5
  8
3
 10
64.7765060406
 20
-29.21526018200007
 30
0.0
 11
64.6627216336999
 21
-29.17622069599997
 31
0.0
  0
LINE
  5
EE6
  8
3
 10
62.33727836629987
 20
-29.17622069599997
 30
0.0
 11
62.2234939594
 21
-29.21526018200007
 31
0.0
  0
LINE
  5
EE7
  8
3
 10
61.60839563609989
 20
24.87180662099991
 30
0.0
 11
62.07113098339983
 21
24.54460331899986
 31
0.0
  0
LINE
  5
EE8
  8
3
 10
64.92886901659995
 20
24.54460331899986
 30
0.0
 11
65.39160436399993
 21
24.87180662099991
 31
0.0
  0
LINE
  5
EE9
  8
3
 10
62.08549679599992
 20
24.93847369240007
 30
0.0
 11
62.33727836629987
 21
24.85208731190005
 31
0.0
  0
LINE
  5
EEA
  8
3
 10
64.6627216336999
 20
24.85208731190005
 30
0.0
 11
64.9145032040999
 21
24.93847369240007
 31
0.0
  0
LINE
  5
EEB
  8
3
 10
64.81081035540001
 20
26.49571106090002
 30
0.0
 11
64.6627216336999
 21
26.54652037410006
 31
0.0
  0
LINE
  5
EEC
  8
3
 10
62.33727836629987
 20
26.54652037410006
 30
0.0
 11
62.18918964459999
 21
26.49571106090002
 31
0.0
  0
LINE
  5
EED
  8
3
 10
61.0
 20
26.0471902889999
 30
0.0
 11
61.0
 21
25.96915073759988
 31
0.0
  0
LINE
  5
EEE
  8
3
 10
66.0
 20
25.96915073759988
 30
0.0
 11
66.0
 21
26.0471902889999
 31
0.0
  0
LINE
  5
EEF
  8
3
 10
64.9145032040999
 20
27.07786733409989
 30
0.0
 11
64.66272163379995
 21
27.16425371469995
 31
0.0
  0
LINE
  5
EF0
  8
3
 10
62.33727836629987
 20
27.16425371469995
 30
0.0
 11
62.08549679599992
 21
27.07786733409989
 31
0.0
  0
LINE
  5
EF1
  8
3
 10
62.08549679599992
 20
25.55620703299996
 30
0.0
 11
62.33727836629987
 21
25.46982065249995
 31
0.0
  0
LINE
  5
EF2
  8
3
 10
64.66272163379995
 20
25.46982065249995
 30
0.0
 11
64.9145032040999
 21
25.55620703299996
 31
0.0
  0
LINE
  5
EF3
  8
3
 10
61.0
 20
26.66492362960003
 30
0.0
 11
61.0
 21
26.5868840782
 31
0.0
  0
LINE
  5
EF4
  8
3
 10
66.0
 20
26.5868840782
 30
0.0
 11
66.0
 21
26.66492362960003
 31
0.0
  0
LINE
  5
EF5
  8
3
 10
64.9145032040999
 20
27.69560067470002
 30
0.0
 11
64.66272163379995
 21
27.78198705530008
 31
0.0
  0
LINE
  5
EF6
  8
3
 10
62.33727836629987
 20
27.78198705530008
 30
0.0
 11
62.08549679599992
 21
27.69560067470002
 31
0.0
  0
LINE
  5
EF7
  8
3
 10
62.08549679599992
 20
26.17394037359986
 30
0.0
 11
62.33727836629987
 21
26.08755399310007
 31
0.0
  0
LINE
  5
EF8
  8
3
 10
64.66272163379995
 20
26.08755399310007
 30
0.0
 11
64.9145032040999
 21
26.17394037359986
 31
0.0
  0
LINE
  5
EF9
  8
3
 10
61.0
 20
27.28265697019992
 30
0.0
 11
61.0
 21
27.2046174187999
 31
0.0
  0
LINE
  5
EFA
  8
3
 10
66.0
 20
27.2046174187999
 30
0.0
 11
66.0
 21
27.28265697019992
 31
0.0
  0
LINE
  5
EFB
  8
3
 10
64.9145032040999
 20
28.31333401529992
 30
0.0
 11
64.66272163379995
 21
28.39972039589998
 31
0.0
  0
LINE
  5
EFC
  8
3
 10
62.33727836629987
 20
28.39972039589998
 30
0.0
 11
62.08549679599992
 21
28.31333401529992
 31
0.0
  0
LINE
  5
EFD
  8
3
 10
62.08549679599992
 20
26.79167371430003
 30
0.0
 11
62.33727836629987
 21
26.70528733369997
 31
0.0
  0
LINE
  5
EFE
  8
3
 10
64.6627216336999
 20
26.70528733369997
 30
0.0
 11
64.9145032040999
 21
26.79167371430003
 31
0.0
  0
LINE
  5
EFF
  8
3
 10
61.0
 20
27.90039031080005
 30
0.0
 11
61.0
 21
27.82235075940002
 31
0.0
  0
LINE
  5
F00
  8
3
 10
66.0
 20
27.82235075940002
 30
0.0
 11
66.0
 21
27.90039031080005
 31
0.0
  0
LINE
  5
F01
  8
3
 10
64.9145032040999
 20
28.93106735590004
 30
0.0
 11
64.6627216336999
 21
29.01745373649987
 31
0.0
  0
LINE
  5
F02
  8
3
 10
62.33727836629987
 20
29.01745373649987
 30
0.0
 11
62.08549679599992
 21
28.93106735590004
 31
0.0
  0
LINE
  5
F03
  8
3
 10
62.08549679599992
 20
27.40940705489993
 30
0.0
 11
62.33727836629987
 21
27.32302067429987
 31
0.0
  0
LINE
  5
F04
  8
3
 10
64.6627216336999
 20
27.32302067429987
 30
0.0
 11
64.9145032040999
 21
27.40940705489993
 31
0.0
  0
LINE
  5
F05
  8
3
 10
61.0
 20
28.51812365139995
 30
0.0
 11
61.0
 21
28.44008409999992
 31
0.0
  0
LINE
  5
F06
  8
3
 10
66.0
 20
28.44008409999992
 30
0.0
 11
66.0
 21
28.51812365139995
 31
0.0
  0
LINE
  5
F07
  8
3
 10
64.9145032040999
 20
29.54880069649994
 30
0.0
 11
64.6627216336999
 21
29.6351870771
 31
0.0
  0
LINE
  5
F08
  8
3
 10
62.33727836629987
 20
29.6351870771
 30
0.0
 11
62.08549679599992
 21
29.54880069649994
 31
0.0
  0
LINE
  5
F09
  8
3
 10
62.08549679599992
 20
28.02714039550006
 30
0.0
 11
62.33727836629987
 21
27.94075401489999
 31
0.0
  0
LINE
  5
F0A
  8
3
 10
64.6627216336999
 20
27.94075401489999
 30
0.0
 11
64.9145032040999
 21
28.02714039550006
 31
0.0
  0
LINE
  5
F0B
  8
3
 10
61.0
 20
29.13585699200007
 30
0.0
 11
61.0
 21
29.05781744060005
 31
0.0
  0
LINE
  5
F0C
  8
3
 10
66.0
 20
29.05781744060005
 30
0.0
 11
66.0
 21
29.13585699200007
 31
0.0
  0
LINE
  5
F0D
  8
3
 10
64.9145032040999
 20
30.16653403719988
 30
0.0
 11
64.6627216336999
 21
30.2529204176999
 31
0.0
  0
LINE
  5
F0E
  8
3
 10
62.33727836629987
 20
30.2529204176999
 30
0.0
 11
62.08549679599992
 21
30.16653403719988
 31
0.0
  0
LINE
  5
F0F
  8
3
 10
62.08549679599992
 20
28.64487373609995
 30
0.0
 11
62.33727836629987
 21
28.55848735549989
 31
0.0
  0
LINE
  5
F10
  8
3
 10
64.6627216336999
 20
28.55848735549989
 30
0.0
 11
64.9145032040999
 21
28.64487373609995
 31
0.0
  0
LINE
  5
F11
  8
3
 10
61.0
 20
29.75359033259997
 30
0.0
 11
61.0
 21
29.67555078119995
 31
0.0
  0
LINE
  5
F12
  8
3
 10
66.0
 20
29.67555078119995
 30
0.0
 11
66.0
 21
29.75359033259997
 31
0.0
  0
LINE
  5
F13
  8
3
 10
64.9145032040999
 20
30.78426737780001
 30
0.0
 11
64.6627216336999
 21
30.87065375830002
 31
0.0
  0
LINE
  5
F14
  8
3
 10
62.33727836629987
 20
30.87065375830002
 30
0.0
 11
62.08549679599992
 21
30.78426737780001
 31
0.0
  0
LINE
  5
F15
  8
3
 10
62.2234939594
 20
29.21526018200007
 30
0.0
 11
62.33727836629987
 21
29.17622069610002
 31
0.0
  0
LINE
  5
F16
  8
3
 10
64.6627216336999
 20
29.17622069610002
 30
0.0
 11
64.7765060406
 21
29.21526018200007
 31
0.0
  0
ARC
  5
F2D
  8
SK1
 10
101.8
 20
-25.60000000000014
 30
0.0
 40
0.4000000000001322
 50
75.00000000001062
 51
119.9999999999956
  0
ARC
  5
F2E
  8
SK1
 10
101.8
 20
25.59999999999991
 30
0.0
 40
0.4000000000002086
 50
240.0000000000014
 51
284.9999999999873
  0
ARC
  5
F2F
  8
SK1
 10
123.1999999999998
 20
-23.40000000000009
 30
0.0
 40
2.0
 50
270.0
 51
0.0
  0
ARC
  5
F30
  8
SK1
 10
123.1999999999998
 20
23.39999999999986
 30
0.0
 40
2.0
 50
0.0
 51
90.0
  0
LINE
  5
F31
  8
SK1
 10
102.5990711605998
 20
-25.40000000000009
 30
0.0
 11
123.1999999999998
 21
-25.40000000000009
 31
0.0
  0
LINE
  5
F32
  8
SK1
 10
123.1999999999998
 20
25.39999999999986
 30
0.0
 11
102.5990711605998
 21
25.39999999999986
 31
0.0
  0
LINE
  5
F33
  8
SK1
 10
102.5990711605998
 20
25.39999999999986
 30
0.0
 11
101.903527618
 21
25.21362966950005
 31
0.0
  0
LINE
  5
F34
  8
SK1
 10
101.903527618
 20
-25.21362966940001
 30
0.0
 11
102.5990711605998
 21
-25.40000000000009
 31
0.0
  0
LINE
  5
F37
  8
SK1
 10
138.9379999999999
 20
31.75
 30
0.0
 11
127.7619999999999
 21
31.75
 31
0.0
  0
LINE
  5
F38
  8
SK1
 10
127.7619999999999
 20
-31.75
 30
0.0
 11
138.9379999999999
 21
-31.75
 31
0.0
  0
LINE
  5
F39
  8
SK1
 10
127.7619999999999
 20
31.75
 30
0.0
 11
127.0
 21
30.98800000000006
 31
0.0
  0
LINE
  5
F3A
  8
SK1
 10
127.0
 20
-30.98800000000006
 30
0.0
 11
127.7619999999999
 21
-31.75
 31
0.0
  0
LINE
  5
F3B
  8
SK1
 10
138.9379999999999
 20
-31.75
 30
0.0
 11
139.6999999999998
 21
-30.98800000000006
 31
0.0
  0
LINE
  5
F3C
  8
SK1
 10
139.6999999999998
 20
30.98800000000006
 30
0.0
 11
138.9379999999999
 21
31.75
 31
0.0
  0
ARC
  5
F3D
  8
SK1
 10
126.2125999999998
 20
13.48739999999998
 30
0.0
 40
0.7874000000001615
 50
270.0
 51
0.0
  0
ARC
  5
F3E
  8
SK1
 10
126.2125999999998
 20
-13.48739999999998
 30
0.0
 40
0.7874000000001615
 50
0.0
 51
90.0
  0
LINE
  5
F3F
  8
SK1
 10
126.2125999999998
 20
12.70000000000005
 30
0.0
 11
125.1999999999998
 21
12.70000000000005
 31
0.0
  0
LINE
  5
F40
  8
SK1
 10
125.1999999999998
 20
-12.70000000000005
 30
0.0
 11
126.2125999999998
 21
-12.70000000000005
 31
0.0
  0
LINE
  5
F41
  8
SK1
 10
101.6285749996998
 20
50.80380999999988
 30
0.0
 11
101.5999999999999
 21
50.80380999999988
 31
0.0
  0
LINE
  5
F42
  8
SK1
 10
101.5999999999999
 20
31.74619000000007
 30
0.0
 11
101.6285749996998
 21
31.74619000000007
 31
0.0
  0
LINE
  5
F43
  8
SK1
 10
101.6285749996998
 20
-31.74619000000007
 30
0.0
 11
101.5999999999999
 21
-31.74619000000007
 31
0.0
  0
LINE
  5
F44
  8
SK1
 10
101.5999999999999
 20
-50.80381000000011
 30
0.0
 11
101.6285749996998
 21
-50.80381000000011
 31
0.0
  0
LINE
  5
F6A
  8
SK1
 10
125.1999999999998
 20
0.0
 30
0.0
 11
125.1999999999998
 21
23.39999999999986
 31
0.0
  0
LINE
  5
F6B
  8
SK1
 10
125.1999999999998
 20
-23.40000000000009
 30
0.0
 11
125.1999999999998
 21
0.0
 31
0.0
  0
LINE
  5
F6C
  8
SK1
 10
102.5990711605998
 20
0.0
 30
0.0
 11
102.5990711605998
 21
25.39999999999986
 31
0.0
  0
LINE
  5
F6D
  8
SK1
 10
102.5990711605998
 20
-25.40000000000009
 30
0.0
 11
102.5990711605998
 21
0.0
 31
0.0
  0
LINE
  5
F6F
  8
SK1
 10
138.9379999999999
 20
31.75
 30
0.0
 11
138.9379999999999
 21
-31.75
 31
0.0
  0
LINE
  5
F70
  8
SK1
 10
127.7619999999999
 20
31.75
 30
0.0
 11
127.7619999999999
 21
-31.75
 31
0.0
  0
LINE
  5
F71
  8
SK1
 10
127.0
 20
30.98800000000006
 30
0.0
 11
127.0
 21
-30.98800000000006
 31
0.0
  0
LINE
  5
F72
  8
SK1
 10
139.6999999999998
 20
30.98800000000006
 30
0.0
 11
139.6999999999998
 21
-30.98800000000006
 31
0.0
  0
LINE
  5
F73
  8
SK1
 10
111.252
 20
50.79999999999995
 30
0.0
 11
101.5999999999999
 21
50.79999999999995
 31
0.0
  0
LINE
  5
F74
  8
SK1
 10
111.252
 20
50.79999999999995
 30
0.0
 11
111.252
 21
31.75
 31
0.0
  0
LINE
  5
F75
  8
SK1
 10
111.252
 20
31.75
 30
0.0
 11
101.5999999999999
 21
31.75
 31
0.0
  0
LINE
  5
F76
  8
SK1
 10
111.252
 20
-31.75
 30
0.0
 11
101.5999999999999
 21
-31.75
 31
0.0
  0
LINE
  5
F77
  8
SK1
 10
111.252
 20
-31.75
 30
0.0
 11
111.252
 21
-50.79999999999995
 31
0.0
  0
LINE
  5
F78
  8
SK1
 10
111.252
 20
-50.79999999999995
 30
0.0
 11
101.5999999999999
 21
-50.79999999999995
 31
0.0
  0
LINE
  5
F8C
  8
SK3
 10
124.3339744939999
 20
-13.25
 30
0.0
 11
124.3339744939999
 21
13.25
 31
0.0
  0
LINE
  5
F8D
  8
SK3
 10
122.1999999999998
 20
13.25
 30
0.0
 11
122.1999999999998
 21
-13.25
 31
0.0
  0
LINE
  5
F98
  8
SK3
 10
122.0043660521999
 20
11.90499993899994
 30
0.0
 11
122.0043660521999
 21
-11.90499993899994
 31
0.0
  0
LINE
  5
FB5
  8
SK3
 10
130.175
 20
0.0
 30
0.0
 11
139.6999999999998
 21
0.0
 31
0.0
  0
LINE
  5
FB6
  8
SK3
 10
130.175
 20
3.225799999999936
 30
0.0
 11
130.175
 21
0.0
 31
0.0
  0
LINE
  5
FB7
  8
SK3
 10
130.175
 20
0.0
 30
0.0
 11
130.175
 21
-3.225799999999936
 31
0.0
  0
LINE
  5
FB8
  8
SK3
 10
129.54
 20
6.451599999999871
 30
0.0
 11
129.54
 21
-6.451600000000099
 31
0.0
  0
LINE
  5
FB9
  8
SK3
 10
130.175
 20
-3.225799999999936
 30
0.0
 11
130.175
 21
-6.451600000000099
 31
0.0
  0
LINE
  5
FBA
  8
SK3
 10
130.175
 20
6.451599999999871
 30
0.0
 11
130.175
 21
3.225799999999936
 31
0.0
  0
LINE
  5
FBB
  8
SK3
 10
130.175
 20
6.451599999999871
 30
0.0
 11
139.6999999999998
 21
6.451599999999871
 31
0.0
  0
LINE
  5
FBC
  8
SK3
 10
130.175
 20
-6.451600000000099
 30
0.0
 11
139.6999999999998
 21
-6.451600000000099
 31
0.0
  0
LINE
  5
1023
  8
SK3
 10
125.1999999999998
 20
2.5
 30
0.0
 11
101.5999999999999
 21
2.5
 31
0.0
  0
LINE
  5
1024
  8
SK3
 10
101.5999999999999
 20
-2.5
 30
0.0
 11
125.1999999999998
 21
-2.5
 31
0.0
  0
LINE
  5
1029
  8
SK3
 10
125.1999999999998
 20
13.75000005900006
 30
0.0
 11
124.3339744939999
 21
13.25
 31
0.0
  0
LINE
  5
102A
  8
SK3
 10
124.3339744939999
 20
-13.25
 30
0.0
 11
125.1999999999998
 21
-13.75000005900006
 31
0.0
  0
LINE
  5
102B
  8
SK3
 10
124.3339744939999
 20
13.25
 30
0.0
 11
122.1999999999998
 21
13.25
 31
0.0
  0
LINE
  5
102C
  8
SK3
 10
122.1999999999998
 20
-13.25
 30
0.0
 11
124.3339744939999
 21
-13.25
 31
0.0
  0
LINE
  5
1031
  8
SK3
 10
122.1999999999998
 20
12.01794925149989
 30
0.0
 11
122.0043660521999
 21
11.90499993899994
 31
0.0
  0
LINE
  5
1032
  8
SK3
 10
122.0043660521999
 20
-11.90499993899994
 30
0.0
 11
122.1999999999998
 21
-12.01794925140007
 31
0.0
  0
LINE
  5
1033
  8
SK3
 10
122.0043660521999
 20
11.90499993899994
 30
0.0
 11
101.5999999999999
 21
11.90499993899994
 31
0.0
  0
LINE
  5
1034
  8
SK3
 10
101.5999999999999
 20
-11.90499993899994
 30
0.0
 11
122.0043660521999
 21
-11.90499993899994
 31
0.0
  0
LINE
  5
104D
  8
SK3
 10
125.1999999999998
 20
-13.0884572681
 30
0.0
 11
101.5999999999999
 21
-13.0884572681
 31
0.0
  0
LINE
  5
104E
  8
SK3
 10
101.5999999999999
 20
-18.0884572681
 30
0.0
 11
125.1999999999998
 21
-18.0884572681
 31
0.0
  0
LINE
  5
104F
  8
SK3
 10
125.1999999999998
 20
18.08845726820005
 30
0.0
 11
101.5999999999999
 21
18.08845726820005
 31
0.0
  0
LINE
  5
1050
  8
SK3
 10
101.5999999999999
 20
13.08845726820005
 30
0.0
 11
125.1999999999998
 21
13.08845726820005
 31
0.0
  0
LINE
  5
1059
  8
SK3
 10
125.1999999999998
 20
12.70000000000005
 30
0.0
 11
101.5999999999999
 21
12.70000000000005
 31
0.0
  0
LINE
  5
105A
  8
SK3
 10
101.5999999999999
 20
-12.70000000000005
 30
0.0
 11
125.1999999999998
 21
-12.70000000000005
 31
0.0
  0
LINE
  5
105D
  8
SK3
 10
129.54
 20
6.451599999999871
 30
0.0
 11
125.6634876302999
 21
0.0
 31
0.0
  0
LINE
  5
105E
  8
SK3
 10
125.6634876302999
 20
0.0
 30
0.0
 11
129.54
 21
-6.451600000000099
 31
0.0
  0
LINE
  5
105F
  8
SK3
 10
130.175
 20
6.451599999999871
 30
0.0
 11
129.54
 21
6.451599999999871
 31
0.0
  0
LINE
  5
1060
  8
SK3
 10
129.54
 20
-6.451600000000099
 30
0.0
 11
130.175
 21
-6.451600000000099
 31
0.0
  0
LINE
  5
10D6
  8
3
 10
54.56398907139987
 20
10.84649999999988
 30
0.0
 11
0.0
 21
10.84649999999988
 31
0.0
  0
LINE
  5
10D7
  8
3
 10
54.56398907139987
 20
-10.84650000000011
 30
0.0
 11
0.0
 21
-10.84650000000011
 31
0.0
  0
ARC
  5
10DA
  8
NOCUT
 10
74.09999999999991
 20
60.89999999999986
 30
0.0
 40
1.000000000000227
 50
90.0
 51
180.0
  0
LINE
  5
10DC
  8
NOCUT
 10
100.5999999999999
 20
61.89999999999986
 30
0.0
 11
74.09999999999991
 21
61.89999999999986
 31
0.0
  0
ARC
  5
10DD
  8
NOCUT
 10
100.5999999999999
 20
60.89999999999986
 30
0.0
 40
1.0
 50
0.0
 51
90.0
  0
LINE
  5
10DE
  8
NOCUT
 10
101.5999999999999
 20
0.0
 30
0.0
 11
101.5999999999999
 21
60.89999999999986
 31
0.0
  0
ARC
  5
10DF
  8
NOCUT
 10
71.09999999999992
 20
36.92499999999995
 30
0.0
 40
2.0
 50
270.0
 51
0.0
  0
LINE
  5
10E2
  8
NOCUT
 10
73.09999999999968
 20
60.89999999999986
 30
0.0
 11
73.09999999999992
 21
36.92499999999998
 31
0.0
  0
LINE
  5
10EC
  8
SK4
 10
101.5999999999999
 20
0.0
 30
0.0
 11
139.6999999999998
 21
0.0
 31
0.0
  0
DIMENSION
  5
10EE
  8
SK2
  2
*D6
 10
180.7956954527427
 20
-61.9000000000001
 30
0.0
 11
178.9206954527427
 21
-0.0000000000001208
 31
0.0
 70
    32
  3
ISO-25
 13
100.5999999999999
 23
61.89999999999986
 33
0.0
 14
100.5999999999999
 24
-61.90000000000009
 34
0.0
 50
90.0
1001
ACAD
1000
DSTYLE
1002
{
1070
   287
1070
     5
1070
   271
1070
     3
1070
   272
1070
     3
1070
   279
1070
     2
1002
}
  0
DIMENSION
  5
10FD
  8
SK2
  2
*D7
 10
160.7242581438742
 20
-25.40000000000009
 30
0.0
 11
158.8492581438742
 21
-0.0000000000001172
 31
0.0
 70
    32
  3
ISO-25
 13
123.1999999999998
 23
25.39999999999986
 33
0.0
 14
123.1999999999998
 24
-25.40000000000009
 34
0.0
 50
90.0
1001
ACAD
1000
DSTYLE
1002
{
1070
   287
1070
     5
1070
   271
1070
     3
1070
   272
1070
     3
1070
   279
1070
     2
1002
}
  0
ENDSEC
  0
EOF
