  0
SECTION
  2
HEADER
  9
$ACADVER
  1
AC1009
  9
$DWGCODEPAGE
  3
ansi_1251
  9
$INSBASE
 10
0.0
 20
0.0
 30
0.0
  9
$EXTMIN
 10
-68.25000000000001
 20
-30.5409271246
 30
0.0
  9
$EXTMAX
 10
88.90000000000003
 20
30.50275418977125
 30
0.0
  9
$LIMMIN
 10
0.0
 20
0.0
  9
$LIMMAX
 10
420.0
 20
297.0
  9
$ORTHOMODE
 70
     1
  9
$REGENMODE
 70
     1
  9
$FILLMODE
 70
     1
  9
$QTEXTMODE
 70
     0
  9
$MIRRTEXT
 70
     0
  9
$DRAGMODE
 70
     2
  9
$LTSCALE
 40
1.0
  9
$OSMODE
 70
   279
  9
$ATTMODE
 70
     1
  9
$TEXTSIZE
 40
2.5
  9
$TRACEWID
 40
1.0
  9
$TEXTSTYLE
  7
STANDARD
  9
$CLAYER
  8
SK2
  9
$CELTYPE
  6
BYLAYER
  9
$CECOLOR
 62
   256
  9
$DIMSCALE
 40
1.0
  9
$DIMASZ
 40
2.5
  9
$DIMEXO
 40
0.625
  9
$DIMDLI
 40
3.75
  9
$DIMRND
 40
0.0
  9
$DIMDLE
 40
0.0
  9
$DIMEXE
 40
1.25
  9
$DIMTP
 40
0.0
  9
$DIMTM
 40
0.0
  9
$DIMTXT
 40
2.5
  9
$DIMCEN
 40
2.5
  9
$DIMTSZ
 40
0.0
  9
$DIMTOL
 70
     0
  9
$DIMLIM
 70
     0
  9
$DIMTIH
 70
     0
  9
$DIMTOH
 70
     0
  9
$DIMSE1
 70
     0
  9
$DIMSE2
 70
     0
  9
$DIMTAD
 70
     1
  9
$DIMZIN
 70
     8
  9
$DIMBLK
  1

  9
$DIMASO
 70
     1
  9
$DIMSHO
 70
     1
  9
$DIMPOST
  1

  9
$DIMAPOST
  1

  9
$DIMALT
 70
     0
  9
$DIMALTD
 70
     3
  9
$DIMALTF
 40
0.03937007874016
  9
$DIMLFAC
 40
1.0
  9
$DIMTOFL
 70
     1
  9
$DIMTVP
 40
0.0
  9
$DIMTIX
 70
     0
  9
$DIMSOXD
 70
     0
  9
$DIMSAH
 70
     0
  9
$DIMBLK1
  1

  9
$DIMBLK2
  1

  9
$DIMSTYLE
  2
ISO-25
  9
$DIMCLRD
 70
     0
  9
$DIMCLRE
 70
     0
  9
$DIMCLRT
 70
     0
  9
$DIMTFAC
 40
1.0
  9
$DIMGAP
 40
0.625
  9
$LUNITS
 70
     2
  9
$LUPREC
 70
     3
  9
$SKETCHINC
 40
1.0
  9
$FILLETRAD
 40
10.0
  9
$AUNITS
 70
     0
  9
$AUPREC
 70
     0
  9
$MENU
  1
.
  9
$ELEVATION
 40
0.0
  9
$PELEVATION
 40
0.0
  9
$THICKNESS
 40
0.0
  9
$LIMCHECK
 70
     0
  9
$CHAMFERA
 40
10.0
  9
$CHAMFERB
 40
10.0
  9
$SKPOLY
 70
     0
  9
$TDCREATE
 40
2455022.429026158
  9
$TDUPDATE
 40
2458659.538982558
  9
$TDINDWG
 40
0.1506771181
  9
$TDUSRTIMER
 40
2458702.800062963
  9
$USRTIMER
 70
     1
  9
$ANGBASE
 50
0.0
  9
$ANGDIR
 70
     0
  9
$PDMODE
 70
     0
  9
$PDSIZE
 40
0.0
  9
$PLINEWID
 40
0.0
  9
$COORDS
 70
     1
  9
$SPLFRAME
 70
     0
  9
$SPLINETYPE
 70
     6
  9
$SPLINESEGS
 70
     8
  9
$ATTDIA
 70
     0
  9
$ATTREQ
 70
     1
  9
$HANDLING
 70
     1
  9
$HANDSEED
  5
2181
  9
$SURFTAB1
 70
     6
  9
$SURFTAB2
 70
     6
  9
$SURFTYPE
 70
     6
  9
$SURFU
 70
     6
  9
$SURFV
 70
     6
  9
$UCSNAME
  2

  9
$UCSORG
 10
0.0
 20
0.0
 30
0.0
  9
$UCSXDIR
 10
1.0
 20
0.0
 30
0.0
  9
$UCSYDIR
 10
0.0
 20
1.0
 30
0.0
  9
$PUCSNAME
  2

  9
$PUCSORG
 10
0.0
 20
0.0
 30
0.0
  9
$PUCSXDIR
 10
1.0
 20
0.0
 30
0.0
  9
$PUCSYDIR
 10
0.0
 20
1.0
 30
0.0
  9
$USERI1
 70
     0
  9
$USERI2
 70
     0
  9
$USERI3
 70
     0
  9
$USERI4
 70
     0
  9
$USERI5
 70
     0
  9
$USERR1
 40
0.0
  9
$USERR2
 40
0.0
  9
$USERR3
 40
0.0
  9
$USERR4
 40
0.0
  9
$USERR5
 40
0.0
  9
$WORLDVIEW
 70
     1
  9
$SHADEDGE
 70
     3
  9
$SHADEDIF
 70
    70
  9
$TILEMODE
 70
     1
  9
$MAXACTVP
 70
    64
  9
$PLIMCHECK
 70
     0
  9
$PEXTMIN
 10
1.000000000000000E+20
 20
1.000000000000000E+20
 30
1.000000000000000E+20
  9
$PEXTMAX
 10
-1.000000000000000E+20
 20
-1.000000000000000E+20
 30
-1.000000000000000E+20
  9
$PLIMMIN
 10
0.0
 20
0.0
  9
$PLIMMAX
 10
420.0
 20
297.0
  9
$UNITMODE
 70
     0
  9
$VISRETAIN
 70
     1
  9
$PLINEGEN
 70
     0
  9
$PSLTSCALE
 70
     1
  0
ENDSEC
  0
SECTION
  2
TABLES
  0
TABLE
  2
VPORT
 70
     1
  0
VPORT
  2
*ACTIVE
 70
     0
 10
0.0
 20
0.0
 11
1.0
 21
1.0
 12
17.99914534654427
 22
3.583616295269124
 13
0.0
 23
0.0
 14
10.0
 24
10.0
 15
10.0
 25
10.0
 16
0.0
 26
0.0
 36
1.0
 17
0.0
 27
0.0
 37
0.0
 40
183.0488693059281
 41
1.332880434782609
 42
50.0
 43
0.0
 44
0.0
 50
0.0
 51
0.0
 71
    16
 72
  1000
 73
     1
 74
     3
 75
     0
 76
     0
 77
     0
 78
     0
  0
ENDTAB
  0
TABLE
  2
LTYPE
 70
     6
  0
LTYPE
  2
CONTINUOUS
 70
     0
  3
Solid line
 72
    65
 73
     0
 40
0.0
  0
LTYPE
  2
CENTER
 70
     0
  3
 Center _____  _  _____  _  _____  _  _____  _ 
 72
    65
 73
     4
 40
50.8
 49
31.75
 49
-6.35
 49
6.35
 49
-6.35
  0
LTYPE
  2
DASHED
 70
     0
  3
Dashed __  __  __  __  __  __  __  __  __  __  
 72
    65
 73
     2
 40
19.05
 49
12.7
 49
-6.35
  0
LTYPE
  2
HIDDEN
 70
     0
  3
Hidden __ __ __ __ __ __ __ __ __ __ __ __ __ __
 72
    65
 73
     2
 40
1.905
 49
1.27
 49
-0.635
  0
LTYPE
  2
CENTERX2
 70
     0
  3
Center (2x) ________  __  ________  __  _____
 72
    65
 73
     4
 40
20.32
 49
12.7
 49
-2.54
 49
2.54
 49
-2.54
  0
LTYPE
  2
PHANTOM
 70
     0
  3
Phantom ______  __  __  ______  __  __  ______
 72
    65
 73
     6
 40
12.7
 49
6.35
 49
-1.27
 49
1.27
 49
-1.27
 49
1.27
 49
-1.27
  0
ENDTAB
  0
TABLE
  2
LAYER
 70
    26
  0
LAYER
  2
0
 70
     0
 62
     7
  6
CONTINUOUS
  0
LAYER
  2
1
 70
     0
 62
     4
  6
CONTINUOUS
  0
LAYER
  2
2
 70
     0
 62
     7
  6
CONTINUOUS
  0
LAYER
  2
3
 70
     0
 62
     1
  6
DASHED
  0
LAYER
  2
4
 70
     0
 62
     2
  6
CENTER
  0
LAYER
  2
6
 70
     0
 62
     5
  6
CONTINUOUS
  0
LAYER
  2
7
 70
     0
 62
     5
  6
CONTINUOUS
  0
LAYER
  2
11
 70
     0
 62
     4
  6
CONTINUOUS
  0
LAYER
  2
SK1
 70
     0
 62
     4
  6
CONTINUOUS
  0
LAYER
  2
SK2
 70
     0
 62
     7
  6
CONTINUOUS
  0
LAYER
  2
SK3
 70
     0
 62
     1
  6
DASHED
  0
LAYER
  2
SK4
 70
     0
 62
     2
  6
CENTER
  0
LAYER
  2
SK6
 70
     0
 62
     5
  6
CONTINUOUS
  0
LAYER
  2
SK7
 70
     0
 62
     5
  6
CONTINUOUS
  0
LAYER
  2
SK11
 70
     0
 62
     4
  6
CONTINUOUS
  0
LAYER
  2
CUT
 70
     0
 62
     1
  6
CONTINUOUS
  0
LAYER
  2
NOCUT
 70
     0
 62
    -7
  6
CONTINUOUS
  0
LAYER
  2
SKVIEW1
 70
     0
 62
     4
  6
CONTINUOUS
  0
LAYER
  2
SKVIEW2
 70
     0
 62
     7
  6
CONTINUOUS
  0
LAYER
  2
SKVIEW3
 70
     0
 62
     1
  6
DASHED
  0
LAYER
  2
SKVIEW4
 70
     0
 62
     2
  6
CENTER
  0
LAYER
  2
SKVIEW6
 70
     0
 62
     5
  6
CONTINUOUS
  0
LAYER
  2
SKVIEW7
 70
     0
 62
     5
  6
CONTINUOUS
  0
LAYER
  2
SKVIEW11
 70
     0
 62
     4
  6
CONTINUOUS
  0
LAYER
  2
INFTOTAL
 70
     0
 62
     9
  6
CONTINUOUS
  0
LAYER
  2
DEFPOINTS
 70
     0
 62
     7
  6
CONTINUOUS
  0
ENDTAB
  0
TABLE
  2
STYLE
 70
     1
  0
STYLE
  2
STANDARD
 70
     0
 40
0.0
 41
1.0
 50
0.0
 71
     0
 42
2.5
  3
txt
  4

  0
ENDTAB
  0
TABLE
  2
VIEW
 70
     0
  0
ENDTAB
  0
TABLE
  2
UCS
 70
     0
  0
ENDTAB
  0
TABLE
  2
APPID
 70
     2
  0
APPID
  2
ACAD
 70
     0
  0
APPID
  2
ACAECLAYERSTANDARD
 70
     0
  0
ENDTAB
  0
TABLE
  2
DIMSTYLE
 70
     1
  0
DIMSTYLE
  2
ISO-25
 70
     0
  3

  4

  5

  6

  7

 40
1.0
 41
2.5
 42
0.625
 43
3.75
 44
1.25
 45
0.0
 46
0.0
 47
0.0
 48
0.0
140
2.5
141
2.5
142
0.0
143
0.03937007874016
144
1.0
145
0.0
146
1.0
147
0.625
 71
     0
 72
     0
 73
     0
 74
     0
 75
     0
 76
     0
 77
     1
 78
     8
170
     0
171
     3
172
     1
173
     0
174
     0
175
     0
176
     0
177
     0
178
     0
  0
ENDTAB
  0
ENDSEC
  0
SECTION
  2
BLOCKS
  0
BLOCK
  8
0
  2
$MODEL_SPACE
 70
     0
 10
0.0
 20
0.0
 30
0.0
  3
$MODEL_SPACE
  1

  0
ENDBLK
  5
21
  8
0
  0
BLOCK
 67
     1
  8
0
  2
$PAPER_SPACE
 70
     0
 10
0.0
 20
0.0
 30
0.0
  3
$PAPER_SPACE
  1

  0
ENDBLK
  5
1D
 67
     1
  8
0
  0
BLOCK
  8
0
  2
*U0
 70
     1
 10
0.0
 20
0.0
 30
0.0
  3
*U0
  1

  0
TEXT
  5
77E
  8
SK6
 10
-50.0
 20
78.25
 30
0.0
 40
3.5
  1
BIG KAISER
 41
0.85
  0
TEXT
  5
781
  8
SK6
 10
-50.0
 20
73.0
 30
0.0
 40
3.5
  1
BCV50-SMC2.000-2.5
 41
0.85
  0
ENDBLK
  5
782
  8
0
  0
BLOCK
  8
0
  2
_FILLED
 70
     0
 10
0.0
 20
0.0
 30
0.0
  3
_FILLED
  1

  0
SOLID
  5
789
  8
0
  6
BYBLOCK
 62
     0
 10
0.0
 20
0.0
 30
0.0
 11
-1.0
 21
0.2142857143
 31
0.0
 12
-1.0
 22
-0.2142857143
 32
0.0
 13
-1.0
 23
-0.2142857143
 33
0.0
  0
ENDBLK
  5
78A
  8
0
  6
BYBLOCK
 62
     0
  0
BLOCK
  8
0
  2
*U2
 70
     1
 10
0.0
 20
0.0
 30
0.0
  3
*U2
  1

  0
TEXT
  5
790
  8
SK6
 10
-85.96178542556666
 20
-67.06748653279999
 30
0.0
 40
3.5
  1
BCV50
 41
0.85
  0
ENDBLK
  5
791
  8
0
  0
BLOCK
  8
0
  2
*D5
 70
     1
 10
0.0
 20
0.0
 30
0.0
  3
*D5
  1

  0
LINE
  5
808
  8
SK2
 62
     0
 10
0.0
 20
35.54999999999998
 30
0.0
 11
0.0
 21
74.92004011698899
 31
0.0
  0
LINE
  5
809
  8
SK2
 62
     0
 10
63.5
 20
61.52499999999986
 30
0.0
 11
63.5
 21
74.92004011698899
 31
0.0
  0
LINE
  5
80A
  8
SK2
 62
     0
 10
2.5
 20
73.67004011698899
 30
0.0
 11
61.0
 21
73.67004011698899
 31
0.0
  0
SOLID
  5
80B
  8
SK2
 62
     0
 10
2.5
 20
74.08670678365566
 30
0.0
 11
2.5
 21
73.25337345032231
 31
0.0
 12
0.0
 22
73.67004011698899
 32
0.0
 13
0.0
 23
73.67004011698899
 33
0.0
  0
SOLID
  5
80C
  8
SK2
 62
     0
 10
61.0
 20
73.25337345032231
 30
0.0
 11
61.0
 21
74.08670678365566
 31
0.0
 12
63.5
 22
73.67004011698899
 32
0.0
 13
63.5
 23
73.67004011698899
 33
0.0
  0
TEXT
  5
80D
  8
SK2
  6
CONTINUOUS
 62
     0
 10
28.0
 20
74.29504011698899
 30
0.0
 40
2.5
  1
63.5
  0
POINT
  5
80E
  8
DEFPOINTS
 62
     0
 10
0.0
 20
34.92499999999998
 30
0.0
  0
POINT
  5
80F
  8
DEFPOINTS
 62
     0
 10
63.5
 20
60.89999999999986
 30
0.0
  0
POINT
  5
810
  8
DEFPOINTS
 62
     0
 10
63.5
 20
73.67004011698899
 30
0.0
  0
ENDBLK
  5
812
  8
0
  0
BLOCK
  8
0
  2
*D6
 70
     1
 10
0.0
 20
0.0
 30
0.0
  3
*D6
  1

  0
LINE
  5
1C22
  8
SK2
 62
     0
 10
63.125
 20
61.89999999999986
 30
0.0
 11
137.5982906930885
 21
61.89999999999986
 31
0.0
  0
LINE
  5
1C23
  8
SK2
 62
     0
 10
63.125
 20
-61.90000000000009
 30
0.0
 11
137.5982906930885
 21
-61.9000000000001
 31
0.0
  0
LINE
  5
1C24
  8
SK2
 62
     0
 10
136.3482906930885
 20
59.39999999999986
 30
0.0
 11
136.3482906930885
 21
-59.4000000000001
 31
0.0
  0
SOLID
  5
1C25
  8
SK2
 62
     0
 10
136.7649573597552
 20
59.39999999999986
 30
0.0
 11
135.9316240264219
 21
59.39999999999986
 31
0.0
 12
136.3482906930885
 22
61.89999999999986
 32
0.0
 13
136.3482906930885
 23
61.89999999999986
 33
0.0
  0
SOLID
  5
1C26
  8
SK2
 62
     0
 10
135.9316240264219
 20
-59.4000000000001
 30
0.0
 11
136.7649573597552
 21
-59.4000000000001
 31
0.0
 12
136.3482906930885
 22
-61.9000000000001
 32
0.0
 13
136.3482906930885
 23
-61.9000000000001
 33
0.0
  0
TEXT
  5
1C27
  8
SK2
  6
CONTINUOUS
 62
     0
 10
135.7232906930885
 20
-4.583333333333456
 30
0.0
 40
2.5
  1
123.8
 50
90.0
  0
POINT
  5
1C28
  8
DEFPOINTS
 62
     0
 10
62.5
 20
61.89999999999986
 30
0.0
  0
POINT
  5
1C29
  8
DEFPOINTS
 62
     0
 10
62.5
 20
-61.90000000000009
 30
0.0
  0
POINT
  5
1C2A
  8
DEFPOINTS
 62
     0
 10
136.3482906930885
 20
-61.9000000000001
 30
0.0
  0
ENDBLK
  5
1C2C
  8
0
  0
BLOCK
  8
0
  2
*D7
 70
     1
 10
0.0
 20
0.0
 30
0.0
  3
*D7
  1

  0
LINE
  5
1C31
  8
SK2
 62
     0
 10
85.72499999999991
 20
25.39999999999986
 30
0.0
 11
118.5832448215289
 21
25.39999999999986
 31
0.0
  0
LINE
  5
1C32
  8
SK2
 62
     0
 10
85.72499999999991
 20
-25.40000000000009
 30
0.0
 11
118.5832448215289
 21
-25.40000000000009
 31
0.0
  0
LINE
  5
1C33
  8
SK2
 62
     0
 10
117.3332448215289
 20
22.89999999999986
 30
0.0
 11
117.3332448215289
 21
-22.90000000000009
 31
0.0
  0
SOLID
  5
1C34
  8
SK2
 62
     0
 10
117.7499114881956
 20
22.89999999999986
 30
0.0
 11
116.9165781548622
 21
22.89999999999986
 31
0.0
 12
117.3332448215289
 22
25.39999999999986
 32
0.0
 13
117.3332448215289
 23
25.39999999999986
 33
0.0
  0
SOLID
  5
1C35
  8
SK2
 62
     0
 10
116.9165781548622
 20
-22.90000000000009
 30
0.0
 11
117.7499114881956
 21
-22.90000000000009
 31
0.0
 12
117.3332448215289
 22
-25.40000000000009
 32
0.0
 13
117.3332448215289
 23
-25.40000000000009
 33
0.0
  0
TEXT
  5
1C36
  8
SK2
  6
CONTINUOUS
 62
     0
 10
116.7082448215289
 20
-3.541666666666785
 30
0.0
 40
2.5
  1
50.8
 50
90.0
  0
POINT
  5
1C37
  8
DEFPOINTS
 62
     0
 10
85.09999999999991
 20
25.39999999999986
 30
0.0
  0
POINT
  5
1C38
  8
DEFPOINTS
 62
     0
 10
85.09999999999991
 20
-25.40000000000009
 30
0.0
  0
POINT
  5
1C39
  8
DEFPOINTS
 62
     0
 10
117.3332448215289
 20
-25.40000000000009
 30
0.0
  0
ENDBLK
  5
1C3B
  8
0
  0
ENDSEC
  0
SECTION
  2
ENTITIES
  0
LINE
  5
685
  8
SK1
 10
0.0
 20
34.92499999999998
 30
0.0
 11
-99.6319088344
 21
20.3952133832
 31
0.0
  0
LINE
  5
686
  8
SK1
 10
-99.6319088344
 20
-20.3952133832
 30
0.0
 11
0.0
 21
-34.92500000000001
 31
0.0
  0
ARC
  5
68D
  8
SK1
 10
-99.3
 20
18.1192879614
 30
0.0
 40
2.299999999999995
 50
98.29722000000018
 51
180.0
  0
ARC
  5
68E
  8
SK1
 10
-99.3
 20
-18.1192879614
 30
0.0
 40
2.299999999999995
 50
180.0
 51
261.7027799999998
  0
LINE
  5
6F6
  8
SK1
 10
-101.6
 20
0.0
 30
0.0
 11
-101.6
 21
-18.1192879614
 31
0.0
  0
LINE
  5
6F7
  8
SK1
 10
-101.6
 20
18.1192879614
 30
0.0
 11
-101.6
 21
0.0
 31
0.0
  0
LINE
  5
71A
  8
SK3
 10
-99.5215390309
 20
-13.10000000000002
 30
0.0
 11
-99.5215390309
 21
13.09999999999999
 31
0.0
  0
LINE
  5
71B
  8
SK3
 10
-95.25
 20
-13.10000000000002
 30
0.0
 11
-95.25
 21
13.09999999999999
 31
0.0
  0
LINE
  5
72A
  8
SK3
 10
-101.6
 20
-14.30000000000001
 30
0.0
 11
-99.5215390309
 21
-13.10000000000002
 31
0.0
  0
LINE
  5
72B
  8
SK3
 10
-99.5215390309
 20
13.09999999999999
 30
0.0
 11
-101.6
 21
14.3
 31
0.0
  0
LINE
  5
72C
  8
SK3
 10
-99.5215390309
 20
-13.10000000000002
 30
0.0
 11
-95.25
 21
-13.10000000000002
 31
0.0
  0
LINE
  5
72D
  8
SK3
 10
-95.25
 20
13.09999999999999
 30
0.0
 11
-99.5215390309
 21
13.09999999999999
 31
0.0
  0
LINE
  5
72E
  8
SK3
 10
-95.25
 20
-11.09980000000002
 30
0.0
 11
0.0
 21
-11.09980000000002
 31
0.0
  0
LINE
  5
72F
  8
SK3
 10
0.0
 20
11.09979999999999
 30
0.0
 11
-95.25
 21
11.09979999999999
 31
0.0
  0
LINE
  5
760
  8
SK3
 10
-57.1
 20
12.69999999999999
 30
0.0
 11
-95.25
 21
12.69999999999999
 31
0.0
  0
LINE
  5
761
  8
SK3
 10
-95.25
 20
-12.69999999999999
 30
0.0
 11
-57.1
 21
-12.69999999999999
 31
0.0
  0
LINE
  5
774
  8
SK3
 10
-57.1
 20
12.69999999999999
 30
0.0
 11
-57.1
 21
-12.69999999999999
 31
0.0
  0
LINE
  5
777
  8
SK4
 10
0.0
 20
0.0
 30
0.0
 11
-101.6
 21
0.0
 31
0.0
  0
LINE
  5
779
  8
4
 10
0.0
 20
0.0
 30
0.0
 11
63.49999999999999
 21
0.0
 31
0.0
  0
INSERT
  5
77B
  8
SK6
  2
*U0
 10
-44.10380399683656
 20
-23.39313954296377
 30
0.0
  0
INSERT
  5
78D
  8
SK6
  2
*U2
 10
17.55665382414153
 20
-2.560320993650734
 30
0.0
  0
LINE
  5
793
  8
0
 10
3.0
 20
3.0
 30
0.0
 11
-3.0
 21
-3.0
 31
0.0
  0
LINE
  5
794
  8
0
 10
-3.0
 20
3.0
 30
0.0
 11
3.0
 21
-3.0
 31
0.0
  0
CIRCLE
  5
795
  8
0
 10
0.0
 20
0.0
 30
0.0
 40
2.5
  0
LINE
  5
796
  8
0
 10
66.5
 20
-3.0
 30
0.0
 11
60.5
 21
3.0
 31
0.0
  0
CIRCLE
  5
797
  8
0
 10
63.5
 20
0.0
 30
0.0
 40
2.5
  0
LINE
  5
798
  8
0
 10
60.5
 20
-3.0
 30
0.0
 11
66.5
 21
3.0
 31
0.0
  0
LINE
  5
799
  8
NOCUT
 10
0.7999999999999972
 20
34.62500000000001
 30
0.0
 11
0.2999999999999972
 21
34.62500000000001
 31
0.0
  0
LINE
  5
79C
  8
NOCUT
 10
0.2999999999999972
 20
34.62500000000001
 30
0.0
 11
0.0
 21
34.92499999999999
 31
0.0
  0
LINE
  5
79D
  8
NOCUT
 10
39.0
 20
34.92499999999985
 30
0.0
 11
20.05
 21
34.92499999999999
 31
0.0
  0
ARC
  5
79E
  8
NOCUT
 10
0.7999999999999972
 20
35.62500000000001
 30
0.0
 40
1.0
 50
270.0
 51
314.4270040008
  0
ARC
  5
79F
  8
NOCUT
 10
20.05
 20
35.92499999999999
 30
0.0
 40
1.0
 50
180.0
 51
270.0
  0
LINE
  5
7A0
  8
NOCUT
 10
12.55499999999999
 20
45.64499999999999
 30
0.0
 11
9.704999999999998
 21
45.64499999999999
 31
0.0
  0
ARC
  5
7A1
  8
NOCUT
 10
12.55499999999999
 20
46.14499999999999
 30
0.0
 40
0.5
 50
270.0
 51
0.0
  0
ARC
  5
7A2
  8
NOCUT
 10
9.704999999999998
 20
46.14499999999999
 30
0.0
 40
0.5
 50
180.0
 51
270.0
  0
ARC
  5
7A3
  8
NOCUT
 10
2.299999999999997
 20
48.4125
 30
0.0
 40
0.7999999999999972
 50
90.0
 51
180.0
  0
ARC
  5
7A4
  8
NOCUT
 10
18.24999999999999
 20
48.4125
 30
0.0
 40
0.799999999999983
 50
0.0
 51
90.0
  0
LINE
  5
7A5
  8
NOCUT
 10
9.204999999999998
 20
46.43919780459999
 30
0.0
 11
7.603833230999996
 21
49.21250000000001
 31
0.0
  0
LINE
  5
7A6
  8
NOCUT
 10
14.65616676910001
 20
49.21250000000001
 30
0.0
 11
13.05499999999999
 21
46.43919780459999
 31
0.0
  0
LINE
  5
7A7
  8
NOCUT
 10
18.24999999999999
 20
49.21250000000001
 30
0.0
 11
14.65616676910001
 21
49.21250000000001
 31
0.0
  0
LINE
  5
7A8
  8
NOCUT
 10
7.603833230999996
 20
49.21250000000001
 30
0.0
 11
2.299999999999997
 21
49.21250000000001
 31
0.0
  0
LINE
  5
7AC
  8
NOCUT
 10
1.5
 20
48.4125
 30
0.0
 11
1.499999999999929
 21
34.91085715714565
 31
0.0
  0
LINE
  5
7AD
  8
NOCUT
 10
19.04999999999997
 20
48.4125
 30
0.0
 11
19.05
 21
35.92499999999999
 31
0.0
  0
LINE
  5
7AE
  8
NOCUT
 10
9.204999999999998
 20
46.43919780459999
 30
0.0
 11
9.204999999999998
 21
46.14499999999999
 31
0.0
  0
LINE
  5
7AF
  8
NOCUT
 10
13.05499999999999
 20
46.43919780459999
 30
0.0
 11
13.05499999999999
 21
46.14499999999999
 31
0.0
  0
DIMENSION
  5
804
  8
SK2
  2
*D5
 10
63.5
 20
73.67004011698899
 30
0.0
 11
31.75
 21
75.54504011698899
 31
0.0
 70
    32
  3
ISO-25
 13
0.0
 23
34.92499999999998
 33
0.0
 14
63.5
 24
60.89999999999986
 34
0.0
1001
ACAD
1000
DSTYLE
1002
{
1070
   287
1070
     5
1070
   271
1070
     3
1070
   272
1070
     3
1070
   279
1070
     2
1002
}
  0
LINE
  5
8BF
  8
NOCUT
 10
0.0
 20
34.92499999999999
 30
0.0
 11
0.0
 21
0.0
 31
0.0
  0
LINE
  5
8C0
  8
NOCUT
 10
0.0
 20
0.0
 30
0.0
 11
63.49999999999999
 21
0.0
 31
0.0
  0
INSERT
  5
A17
  8
SK6
  2
_FILLED
 10
-20.78186483605847
 20
-31.89428358495073
 30
0.0
 41
3.5
 42
3.5
 43
3.5
 50
52.86965044919886
  0
POLYLINE
  5
A18
  8
SK6
 66
     1
 10
0.0
 20
0.0
 30
0.0
  0
VERTEX
  5
1C3C
  8
SK6
 10
-22.89457117648658
 20
-34.68470862768434
 30
0.0
  0
VERTEX
  5
1C3D
  8
SK6
 10
-48.02596493475846
 20
-67.87780752645074
 30
0.0
  0
VERTEX
  5
1C3E
  8
SK6
 10
-49.90096493475846
 20
-66.12780752645074
 30
0.0
  0
VERTEX
  5
1C3F
  8
SK6
 10
-53.40096493475846
 20
-66.12780752645074
 30
0.0
  0
SEQEND
  5
2180
  8
SK6
  0
ARC
  5
AC7
  8
1
 10
20.04999999999998
 20
35.92499999999998
 30
0.0
 40
1.0
 50
180.0
 51
270.0
  0
ARC
  5
AC9
  8
1
 10
20.04999999999998
 20
-35.92500000000001
 30
0.0
 40
1.0
 50
90.0
 51
180.0
  0
ARC
  5
ACA
  8
1
 10
1.299999999999983
 20
35.125
 30
0.0
 40
0.5
 50
270.0
 51
293.5781784781994
  0
ARC
  5
ACB
  8
1
 10
1.299999999999983
 20
-35.125
 30
0.0
 40
0.500000000000009
 50
66.42182152180017
 51
90.0
  0
LINE
  5
ACC
  8
1
 10
39.0
 20
34.92499999999985
 30
0.0
 11
20.04999999999998
 21
34.92499999999998
 31
0.0
  0
LINE
  5
ACE
  8
1
 10
20.04999999999998
 20
-34.92500000000001
 30
0.0
 11
39.0
 21
-34.92499999999985
 31
0.0
  0
LINE
  5
ACF
  8
1
 10
0.0
 20
-34.92500000000001
 30
0.0
 11
0.2999999999999829
 21
-34.625
 31
0.0
  0
LINE
  5
AD0
  8
1
 10
0.2999999999999829
 20
34.625
 30
0.0
 11
0.0
 21
34.92499999999998
 31
0.0
  0
LINE
  5
AD5
  8
1
 10
1.299999999999983
 20
34.625
 30
0.0
 11
0.2999999999999829
 21
34.625
 31
0.0
  0
LINE
  5
AD6
  8
1
 10
0.2999999999999829
 20
-34.625
 30
0.0
 11
1.299999999999983
 21
-34.625
 31
0.0
  0
LINE
  5
ADB
  8
1
 10
14.65616694409999
 20
-47.282880439
 30
0.0
 11
14.68806954659999
 21
-47.29184187660002
 31
0.0
  0
LINE
  5
ADC
  8
1
 10
14.6561667691
 20
47.30816788690001
 30
0.0
 11
14.6561667691
 21
-47.2826327523
 31
0.0
  0
LINE
  5
ADD
  8
1
 10
14.7615962207
 20
47.3314147463
 30
0.0
 11
14.6561668942
 21
47.30816788690001
 31
0.0
  0
LINE
  5
ADE
  8
1
 10
18.25
 20
47.3314147463
 30
0.0
 11
14.7615962207
 21
47.3314147463
 31
0.0
  0
LINE
  5
ADF
  8
1
 10
14.68806954659999
 20
-47.29184187660002
 30
0.0
 11
18.25
 21
-47.29184187660002
 31
0.0
  0
LINE
  5
AE0
  8
1
 10
7.498403779400007
 20
47.3314147463
 30
0.0
 11
4.006414746699988
 21
47.3314147463
 31
0.0
  0
LINE
  5
AE1
  8
1
 10
7.603833105900009
 20
47.30816788690001
 30
0.0
 11
7.498403779400007
 21
47.3314147463
 31
0.0
  0
LINE
  5
AE2
  8
1
 10
7.603833230899994
 20
47.30844201400001
 30
0.0
 11
7.603833230899994
 21
-47.28288044160001
 31
0.0
  0
LINE
  5
AE3
  8
1
 10
7.571930453299984
 20
-47.29184187660002
 30
0.0
 11
7.603833055899997
 21
-47.282880439
 31
0.0
  0
LINE
  5
AE4
  8
1
 10
4.040356993800003
 20
-47.29184187660002
 30
0.0
 11
7.571930453299984
 21
-47.29184187660002
 31
0.0
  0
LINE
  5
AE5
  8
1
 10
2.300001405499984
 20
-46.74795901499999
 30
0.0
 11
4.040356993800003
 21
-47.29184189310001
 31
0.0
  0
LINE
  5
AE6
  8
1
 10
4.006414746699988
 20
47.33141476029999
 30
0.0
 11
2.299999765199999
 21
46.80267569
 31
0.0
  0
ARC
  5
AE7
  8
1
 10
2.557435939599998
 20
-45.59355264690001
 30
0.0
 40
1.184053137363273
 50
207.7147598986998
 51
257.3157095984005
  0
LINE
  5
AE8
  8
1
 10
1.50922466130001
 20
-46.14422037630001
 30
0.0
 11
1.5
 21
-46.01377680920001
 31
0.0
  0
LINE
  5
AE9
  8
1
 10
1.5
 20
-46.01377680920001
 30
0.0
 11
1.5
 21
46.01377680919998
 31
0.0
  0
ARC
  5
AEA
  8
1
 10
2.572884962100005
 20
45.72649004249999
 30
0.0
 40
1.111555736593689
 50
104.3436511600003
 51
164.8417645594994
  0
LINE
  5
AEB
  8
1
 10
9.204999995999998
 20
44.41431970880001
 30
0.0
 11
7.60383322749999
 21
47.3081678945
 31
0.0
  0
LINE
  5
AEC
  8
1
 10
9.204999999999984
 20
44.4143196734
 30
0.0
 11
9.204999999999984
 21
-44.387299867
 31
0.0
  0
LINE
  5
AED
  8
1
 10
7.603833226399985
 20
-47.28288044990001
 30
0.0
 11
9.2049999921
 21
-44.38762367050001
 31
0.0
  0
LINE
  5
AEE
  8
1
 10
14.65616677259999
 20
47.3081678945
 30
0.0
 11
13.05500000399999
 21
44.41431970880001
 31
0.0
  0
LINE
  5
AEF
  8
1
 10
13.05500000800001
 20
-44.38762367050001
 30
0.0
 11
14.65616677360001
 21
-47.28288044990001
 31
0.0
  0
LINE
  5
AF0
  8
1
 10
13.05500000000001
 20
44.41459195280001
 30
0.0
 11
13.05500000000001
 21
-44.38762365650001
 31
0.0
  0
ARC
  5
AF1
  8
1
 10
17.92302328310001
 20
46.41895288640001
 30
0.0
 40
1.127359624435328
 50
1.493363825500091
 51
43.53750291790048
  0
LINE
  5
AF2
  8
1
 10
19.04999999999998
 20
46.44833319130001
 30
0.0
 11
19.04999999999998
 21
-46.44833319130001
 31
0.0
  0
ARC
  5
AF3
  8
1
 10
17.91824827779999
 20
-46.4157978575
 30
0.0
 40
1.1322192847622
 50
319.2464850235001
 51
358.3533278529993
  0
ARC
  5
AF4
  8
1
 10
18.2616113983
 20
-46.25791326929999
 30
0.0
 40
1.033993805426882
 50
269.3565743835002
 51
299.8289453780985
  0
ARC
  5
AF5
  8
1
 10
18.2610591033
 20
46.41902767409999
 30
0.0
 40
0.9124540938653742
 50
58.31881226410037
 51
90.69445187719943
  0
ARC
  5
AF6
  8
1
 10
12.5158206966
 20
-44.1073442162
 30
0.0
 40
0.5397579791454132
 50
357.3466499737992
 51
85.83742202690154
  0
ARC
  5
AF7
  8
1
 10
12.54139279200001
 20
44.09944295630001
 30
0.0
 40
0.4858431210597904
 50
271.6049163143007
 51
333.441972537701
  0
POLYLINE
  5
AF8
  8
1
 66
     1
 10
0.0
 20
0.0
 30
0.0
  0
VERTEX
  5
1C40
  8
1
 10
13.05500000000001
 20
44.14662312639999
 30
0.0
  0
VERTEX
  5
1C41
  8
1
 10
13.03542892280001
 20
44.01594229719998
 30
0.0
  0
VERTEX
  5
1C42
  8
1
 10
12.97787844319998
 20
43.88571451269999
 30
0.0
  0
SEQEND
  5
217F
  8
1
  0
ARC
  5
AF9
  8
1
 10
9.744214343399989
 20
-44.10737531749999
 30
0.0
 40
0.5397915428070933
 50
94.16604783349855
 51
182.6498801657025
  0
POLYLINE
  5
AFA
  8
1
 66
     1
 10
0.0
 20
0.0
 30
0.0
  0
VERTEX
  5
1C43
  8
1
 10
9.280099379399985
 20
43.88913247470001
 30
0.0
  0
VERTEX
  5
1C44
  8
1
 10
9.224055884099982
 20
44.0177026321
 30
0.0
  0
VERTEX
  5
1C45
  8
1
 10
9.204999999999984
 20
44.14662312639999
 30
0.0
  0
SEQEND
  5
217E
  8
1
  0
ARC
  5
AFB
  8
1
 10
9.721350266000002
 20
44.10422581969999
 30
0.0
 40
0.4907078648052702
 50
206.0244317763009
 51
268.0905652222996
  0
LINE
  5
AFC
  8
1
 10
12.55500000000001
 20
43.613790424
 30
0.0
 11
9.704999999999984
 21
43.613790424
 31
0.0
  0
LINE
  5
AFD
  8
1
 10
9.704999999999984
 20
-43.5690100651
 30
0.0
 11
12.55500000000001
 21
-43.5690100651
 31
0.0
  0
LINE
  5
B00
  8
1
 10
0.2999999999999829
 20
34.625
 30
0.0
 11
0.2999999999999829
 21
-34.625
 31
0.0
  0
LINE
  5
B01
  8
1
 10
0.0
 20
34.92499999999998
 30
0.0
 11
0.0
 21
-34.92500000000001
 31
0.0
  0
LINE
  5
B04
  8
1
 10
14.68806954670001
 20
-47.29184187660002
 30
0.0
 11
14.65616694420001
 21
-47.282880439
 31
0.0
  0
LINE
  5
B1A
  8
3
 10
1.500000000000004
 20
37.72
 30
0.0
 11
19.04999999999998
 21
37.72
 31
0.0
  0
LINE
  5
B3B
  8
3
 10
1.5
 20
-35.30000000000001
 30
0.0
 11
19.26937525020018
 21
-35.30000000000001
 31
0.0
  0
LINE
  5
B42
  8
3
 10
26.97499999999999
 20
28.32499999999999
 30
0.0
 11
33.32499999999999
 21
28.32499999999999
 31
0.0
  0
LINE
  5
B43
  8
3
 10
20.625
 20
28.32499999999999
 30
0.0
 11
26.97499999999999
 21
28.32499999999999
 31
0.0
  0
LINE
  5
B44
  8
3
 10
11.375
 20
37.31999999999999
 30
0.0
 11
16.125
 21
37.31999999999999
 31
0.0
  0
LINE
  5
B45
  8
3
 10
6.625
 20
37.31999999999999
 30
0.0
 11
11.375
 21
37.31999999999999
 31
0.0
  0
LINE
  5
B55
  8
3
 10
20.625
 20
28.32499999999999
 30
0.0
 11
26.97499999999999
 21
24.50953506919998
 31
0.0
  0
LINE
  5
B56
  8
3
 10
26.97499999999999
 20
24.50953506919998
 30
0.0
 11
33.32499999999999
 21
28.32499999999999
 31
0.0
  0
LINE
  5
B57
  8
3
 10
20.625
 20
34.92499999999998
 30
0.0
 11
20.625
 21
28.32499999999999
 31
0.0
  0
LINE
  5
B58
  8
3
 10
33.32499999999999
 20
28.32499999999999
 30
0.0
 11
33.32499999999999
 21
34.92499999999998
 31
0.0
  0
LINE
  5
B59
  8
3
 10
6.625
 20
37.72
 30
0.0
 11
6.625
 21
37.31999999999999
 31
0.0
  0
LINE
  5
B5A
  8
3
 10
16.125
 20
37.31999999999999
 30
0.0
 11
16.125
 21
37.72
 31
0.0
  0
LINE
  5
B5B
  8
1
 10
20.04999999999998
 20
-34.92500000000001
 30
0.0
 11
20.04999999999998
 21
34.92499999999998
 31
0.0
  0
LINE
  5
B5C
  8
1
 10
1.299999999999983
 20
-34.625
 30
0.0
 11
1.299999999999983
 21
34.625
 31
0.0
  0
LINE
  5
B5F
  8
1
 10
12.55500000000001
 20
-43.00413183130001
 30
0.0
 11
12.55500000000001
 21
42.79577481850001
 31
0.0
  0
LINE
  5
B60
  8
1
 10
9.704999999999984
 20
-43.00421493109999
 30
0.0
 11
9.704999999999984
 21
42.7957705776
 31
0.0
  0
LINE
  5
B62
  8
1
 10
18.25
 20
47.3314147463
 30
0.0
 11
18.25
 21
-47.29184187660002
 31
0.0
  0
LINE
  5
B64
  8
1
 10
2.299999999999983
 20
-46.74795854910002
 30
0.0
 11
2.299999999999983
 21
46.80267576719999
 31
0.0
  0
LINE
  5
D6C
  8
1
 10
43.0
 20
-61.90000000000009
 30
0.0
 11
62.5
 21
-61.90000000000009
 31
0.0
  0
LINE
  5
D6D
  8
1
 10
62.5
 20
61.89999999999986
 30
0.0
 11
43.0
 21
61.89999999999986
 31
0.0
  0
ARC
  5
D6E
  8
1
 10
43.0
 20
60.89999999999986
 30
0.0
 40
1.0
 50
90.0
 51
180.0
  0
ARC
  5
D6F
  8
1
 10
43.0
 20
-60.90000000000009
 30
0.0
 40
1.000000000000227
 50
180.0
 51
270.0
  0
ARC
  5
D70
  8
1
 10
62.5
 20
-60.90000000000009
 30
0.0
 40
1.000000000000227
 50
270.0
 51
0.0
  0
ARC
  5
D71
  8
1
 10
62.5
 20
60.89999999999986
 30
0.0
 40
1.0
 50
0.0
 51
90.0
  0
ARC
  5
D73
  8
1
 10
39.0
 20
-37.92499999999995
 30
0.0
 40
3.000000000000108
 50
4.961112227502178
 51
90.0
  0
LINE
  5
D95
  8
1
 10
42.0
 20
-60.90000000000009
 30
0.0
 11
42.0
 21
60.89999999999986
 31
0.0
  0
LINE
  5
D96
  8
1
 10
63.5
 20
0.0
 30
0.0
 11
63.5
 21
60.89999999999986
 31
0.0
  0
LINE
  5
D97
  8
1
 10
63.5
 20
-60.90000000000009
 30
0.0
 11
63.5
 21
0.0
 31
0.0
  0
CIRCLE
  5
DB9
  8
1
 10
33.5
 20
0.0
 30
0.0
 40
2.625000000000682
  0
LINE
  5
DBF
  8
1
 10
32.25
 20
-0.7216878364999957
 30
0.0
 11
33.5
 21
-1.443375672900174
 31
0.0
  0
LINE
  5
DC0
  8
1
 10
34.75
 20
-0.7216878364999957
 30
0.0
 11
33.5
 21
-1.443375672900174
 31
0.0
  0
LINE
  5
DC1
  8
1
 10
34.75
 20
0.7216878364999957
 30
0.0
 11
34.75
 21
-0.7216878364999957
 31
0.0
  0
LINE
  5
DC2
  8
1
 10
34.75
 20
0.7216878364999957
 30
0.0
 11
33.5
 21
1.443375672999991
 31
0.0
  0
LINE
  5
DC3
  8
1
 10
32.25
 20
0.7216878364999957
 30
0.0
 11
33.5
 21
1.443375672999991
 31
0.0
  0
LINE
  5
DC4
  8
1
 10
32.25
 20
0.7216878364999957
 30
0.0
 11
32.25
 21
-0.7216878364999957
 31
0.0
  0
CIRCLE
  5
DC5
  8
1
 10
33.5
 20
0.0
 30
0.0
 40
2.054999999999836
  0
CIRCLE
  5
DC6
  8
1
 10
33.5
 20
0.0
 30
0.0
 40
2.256103126842163
  0
LINE
  5
DC7
  8
3
 10
58.41872999999987
 20
12.70000000000005
 30
0.0
 11
58.41872999999987
 21
-12.70000000000005
 31
0.0
  0
LINE
  5
DCA
  8
3
 10
57.14999999999986
 20
11.43127000000004
 30
0.0
 11
57.14999999999986
 21
-11.43127000000004
 31
0.0
  0
LINE
  5
DD3
  8
3
 10
50.32296030499992
 20
50.80380999999988
 30
0.0
 11
50.32296030499992
 21
31.74618999999984
 31
0.0
  0
LINE
  5
DD4
  8
3
 10
48.25999999999999
 20
50.54599999999982
 30
0.0
 11
48.25999999999999
 21
32.00399999999991
 31
0.0
  0
LINE
  5
DD5
  8
3
 10
49.18483951059989
 20
50.79380999999989
 30
0.0
 11
49.18483951059989
 21
31.75618999999983
 31
0.0
  0
LINE
  5
DD6
  8
3
 10
50.32296030499992
 20
-31.74619000000007
 30
0.0
 11
50.32296030499992
 21
-50.80381000000011
 31
0.0
  0
LINE
  5
DD7
  8
3
 10
49.18483951059989
 20
-31.75619000000006
 30
0.0
 11
49.18483951059989
 21
-50.79381000000012
 31
0.0
  0
LINE
  5
DD8
  8
3
 10
48.25999999999999
 20
-32.00400000000013
 30
0.0
 11
48.25999999999999
 21
-50.54600000000005
 31
0.0
  0
POLYLINE
  5
DDA
  8
3
 66
     1
 10
0.0
 20
0.0
 30
0.0
  0
VERTEX
  5
1C46
  8
3
 10
33.5
 20
31.47288378409985
 30
0.0
  0
VERTEX
  5
1C47
  8
3
 10
34.36749848170007
 20
31.40849580269992
 30
0.0
  0
VERTEX
  5
1C48
  8
3
 10
35.13717542389986
 20
31.21964005929999
 30
0.0
  0
VERTEX
  5
1C49
  8
3
 10
35.72381580739989
 20
30.91917383809982
 30
0.0
  0
VERTEX
  5
1C4A
  8
3
 10
36.0603077589999
 20
30.53136779519991
 30
0.0
  0
VERTEX
  5
1C4B
  8
3
 10
36.10775711430006
 20
30.09462878880004
 30
0.0
  0
VERTEX
  5
1C4C
  8
3
 10
35.86242987979995
 20
29.65751872390001
 30
0.0
  0
VERTEX
  5
1C4D
  8
3
 10
35.35187247110002
 20
29.27277948669985
 30
0.0
  0
VERTEX
  5
1C4E
  8
3
 10
34.63146891659994
 20
28.9919827880999
 30
0.0
  0
VERTEX
  5
1C4F
  8
3
 10
34.02327705909988
 20
28.89488787649998
 30
0.0
  0
SEQEND
  5
217D
  8
3
  0
POLYLINE
  5
DDB
  8
3
 66
     1
 10
0.0
 20
0.0
 30
0.0
  0
VERTEX
  5
1C50
  8
3
 10
32.86246546820007
 20
28.89637581689999
 30
0.0
  0
VERTEX
  5
1C51
  8
3
 10
32.09416224999995
 20
29.07654230929984
 30
0.0
  0
VERTEX
  5
1C52
  8
3
 10
31.44040920199996
 20
29.39933670229993
 30
0.0
  0
VERTEX
  5
1C53
  8
3
 10
31.01757432990007
 20
29.81023794479984
 30
0.0
  0
VERTEX
  5
1C54
  8
3
 10
30.87505241529993
 20
30.25422805449989
 30
0.0
  0
VERTEX
  5
1C55
  8
3
 10
31.02781611189994
 20
30.67756377989986
 30
0.0
  0
VERTEX
  5
1C56
  8
3
 10
31.45775834929987
 20
31.03679846289992
 30
0.0
  0
VERTEX
  5
1C57
  8
3
 10
32.11839258450004
 20
31.30010379659984
 30
0.0
  0
VERTEX
  5
1C58
  8
3
 10
32.93590866379986
 20
31.44617701609991
 30
0.0
  0
VERTEX
  5
1C59
  8
3
 10
33.5
 20
31.47288378409985
 30
0.0
  0
SEQEND
  5
217C
  8
3
  0
POLYLINE
  5
DDC
  8
3
 66
     1
 10
0.0
 20
0.0
 30
0.0
  0
VERTEX
  5
1C5A
  8
3
 10
33.5
 20
-28.84788378400003
 30
0.0
  0
VERTEX
  5
1C5B
  8
3
 10
34.36749848170007
 20
-28.93098265750018
 30
0.0
  0
VERTEX
  5
1C5C
  8
3
 10
35.13717542389986
 20
-29.16774297810002
 30
0.0
  0
VERTEX
  5
1C5D
  8
3
 10
35.72381580739989
 20
-29.52444509919997
 30
0.0
  0
VERTEX
  5
1C5E
  8
3
 10
36.0603077589999
 20
-29.95218804820001
 30
0.0
  0
VERTEX
  5
1C5F
  8
3
 10
36.10775711430006
 20
-30.39500827000006
 30
0.0
  0
VERTEX
  5
1C60
  8
3
 10
35.86242987979995
 20
-30.80187446529999
 30
0.0
  0
VERTEX
  5
1C61
  8
3
 10
35.35187247110002
 20
-31.13320775750003
 30
0.0
  0
VERTEX
  5
1C62
  8
3
 10
34.63146891659994
 20
-31.36061173550002
 30
0.0
  0
VERTEX
  5
1C63
  8
3
 10
33.78300586010005
 20
-31.46622946290017
 30
0.0
  0
VERTEX
  5
1C64
  8
3
 10
32.90456459789993
 20
-31.44307976840014
 30
0.0
  0
VERTEX
  5
1C65
  8
3
 10
32.09416224999995
 20
-31.2933520035001
 30
0.0
  0
VERTEX
  5
1C66
  8
3
 10
31.44040920199996
 20
-31.02682272200013
 30
0.0
  0
VERTEX
  5
1C67
  8
3
 10
31.01757432990007
 20
-30.66357714590004
 30
0.0
  0
VERTEX
  5
1C68
  8
3
 10
30.87505241529993
 20
-30.23763957630013
 30
0.0
  0
VERTEX
  5
1C69
  8
3
 10
31.02781611189994
 20
-29.79499263640014
 30
0.0
  0
VERTEX
  5
1C6A
  8
3
 10
31.45775834929987
 20
-29.38759440030003
 30
0.0
  0
VERTEX
  5
1C6B
  8
3
 10
32.11839258450004
 20
-29.06811232040013
 30
0.0
  0
VERTEX
  5
1C6C
  8
3
 10
32.93590866379986
 20
-28.88250270670005
 30
0.0
  0
VERTEX
  5
1C6D
  8
3
 10
33.5
 20
-28.84788378400003
 30
0.0
  0
SEQEND
  5
217B
  8
3
  0
CIRCLE
  5
DDD
  8
3
 10
33.5
 20
0.0
 30
0.0
 40
2.099999999999909
  0
LINE
  5
DDE
  8
3
 10
32.09999999999991
 20
-1.565247584200051
 30
0.0
 11
32.09999999999991
 21
-2.5
 31
0.0
  0
LINE
  5
DDF
  8
3
 10
32.09999999999991
 20
1.565247584299868
 30
0.0
 11
32.4604185444
 21
1.789745501199832
 31
0.0
  0
POLYLINE
  5
DE0
  8
3
 66
     1
 10
0.0
 20
0.0
 30
0.0
  0
VERTEX
  5
1C6E
  8
3
 10
35.58149788929995
 20
0.0911170725999
 30
0.0
  0
VERTEX
  5
1C6F
  8
3
 10
35.57500725479986
 20
-0.3230246008999984
 30
0.0
  0
VERTEX
  5
1C70
  8
3
 10
35.5379603765
 20
-0.4514419467000153
 30
0.0
  0
SEQEND
  5
217A
  8
3
  0
LINE
  5
DE1
  8
3
 10
32.09999999999991
 20
2.5
 30
0.0
 11
32.09999999999991
 21
1.565247584299868
 31
0.0
  0
LINE
  5
DF0
  8
3
 10
27.09999999999991
 20
11.90625
 30
0.0
 11
27.09999999999991
 21
-11.90625
 31
0.0
  0
POLYLINE
  5
DF1
  8
3
 66
     1
 10
0.0
 20
0.0
 30
0.0
  0
VERTEX
  5
1C71
  8
3
 10
33.5
 20
11.19946263589986
 30
0.0
  0
VERTEX
  5
1C72
  8
3
 10
34.18896009139985
 20
11.15886917249986
 30
0.0
  0
VERTEX
  5
1C73
  8
3
 10
34.80015323739985
 20
11.03628881750001
 30
0.0
  0
VERTEX
  5
1C74
  8
3
 10
35.27153861459988
 20
10.82860022199998
 30
0.0
  0
VERTEX
  5
1C75
  8
3
 10
35.54580252479991
 20
10.53994846060004
 30
0.0
  0
VERTEX
  5
1C76
  8
3
 10
35.58763476960007
 20
10.19545432059999
 30
0.0
  0
VERTEX
  5
1C77
  8
3
 10
35.39928825109996
 20
9.833911569999827
 30
0.0
  0
VERTEX
  5
1C78
  8
3
 10
35.0018550719999
 20
9.498562433399911
 30
0.0
  0
VERTEX
  5
1C79
  8
3
 10
34.43077882869989
 20
9.240192636999836
 30
0.0
  0
VERTEX
  5
1C7A
  8
3
 10
33.75207148560003
 20
9.109401761599884
 30
0.0
  0
VERTEX
  5
1C7B
  8
3
 10
33.0532992295
 20
9.130862495999963
 30
0.0
  0
VERTEX
  5
1C7C
  8
3
 10
32.40945015989996
 20
9.295994279099887
 30
0.0
  0
VERTEX
  5
1C7D
  8
3
 10
31.88070616019991
 20
9.577326273399876
 30
0.0
  0
VERTEX
  5
1C7E
  8
3
 10
31.52839004649991
 20
9.930576897000037
 30
0.0
  0
VERTEX
  5
1C7F
  8
3
 10
31.40019474070004
 20
10.2967859808
 30
0.0
  0
VERTEX
  5
1C80
  8
3
 10
31.50640011979999
 20
10.62524678739987
 30
0.0
  0
VERTEX
  5
1C81
  8
3
 10
31.83053629649999
 20
10.88888660629982
 30
0.0
  0
VERTEX
  5
1C82
  8
3
 10
32.3439719685
 20
11.07530430019983
 30
0.0
  0
VERTEX
  5
1C83
  8
3
 10
32.99311983889993
 20
11.17790552609995
 30
0.0
  0
VERTEX
  5
1C84
  8
3
 10
33.5
 20
11.19946263589986
 30
0.0
  0
SEQEND
  5
2179
  8
3
  0
POLYLINE
  5
DF2
  8
3
 66
     1
 10
0.0
 20
0.0
 30
0.0
  0
VERTEX
  5
1C85
  8
3
 10
33.5
 20
-9.099462635800137
 30
0.0
  0
VERTEX
  5
1C86
  8
3
 10
34.18896009139985
 20
-9.175101546800079
 30
0.0
  0
VERTEX
  5
1C87
  8
3
 10
34.80015323739985
 20
-9.387167366700169
 30
0.0
  0
VERTEX
  5
1C88
  8
3
 10
35.27153861459988
 20
-9.700925207900127
 30
0.0
  0
VERTEX
  5
1C89
  8
3
 10
35.54580252479991
 20
-10.06593155209998
 30
0.0
  0
VERTEX
  5
1C8A
  8
3
 10
35.58763476960007
 20
-10.4230088613001
 30
0.0
  0
VERTEX
  5
1C8B
  8
3
 10
35.39928825109996
 20
-10.72984914560016
 30
0.0
  0
VERTEX
  5
1C8C
  8
3
 10
35.0018550719999
 20
-10.96636056080001
 30
0.0
  0
VERTEX
  5
1C8D
  8
3
 10
34.43077882869989
 20
-11.12265134090012
 30
0.0
  0
VERTEX
  5
1C8E
  8
3
 10
33.75207148560003
 20
-11.19421829220005
 30
0.0
  0
VERTEX
  5
1C8F
  8
3
 10
33.0532992295
 20
-11.18280265630005
 30
0.0
  0
VERTEX
  5
1C90
  8
3
 10
32.40945015989996
 20
-11.09062545180018
 30
0.0
  0
VERTEX
  5
1C91
  8
3
 10
31.88070616019991
 20
-10.9144453632
 30
0.0
  0
VERTEX
  5
1C92
  8
3
 10
31.52839004649991
 20
-10.65359431809998
 30
0.0
  0
VERTEX
  5
1C93
  8
3
 10
31.40019474070004
 20
-10.32538445709997
 30
0.0
  0
VERTEX
  5
1C94
  8
3
 10
31.50640011979999
 20
-9.965277456400145
 30
0.0
  0
VERTEX
  5
1C95
  8
3
 10
31.83053629649999
 20
-9.614959236900177
 30
0.0
  0
VERTEX
  5
1C96
  8
3
 10
32.3439719685
 20
-9.32213597100008
 30
0.0
  0
VERTEX
  5
1C97
  8
3
 10
32.99311983889993
 20
-9.139996670799974
 30
0.0
  0
VERTEX
  5
1C98
  8
3
 10
33.5
 20
-9.099462635800137
 30
0.0
  0
SEQEND
  5
2178
  8
3
  0
LINE
  5
DF3
  8
3
 10
26.46323795900003
 20
-10.84650000000011
 30
0.0
 11
26.46323795900003
 21
10.84649999999988
 31
0.0
  0
LINE
  5
DF4
  8
3
 10
45.5
 20
50.79724999999985
 30
0.0
 11
45.5
 21
31.75274999999988
 31
0.0
  0
LINE
  5
DF5
  8
3
 10
45.5
 20
-31.75275000000011
 30
0.0
 11
45.5
 21
-50.79725000000008
 31
0.0
  0
POLYLINE
  5
DFA
  8
3
 66
     1
 10
0.0
 20
0.0
 30
0.0
  0
VERTEX
  5
1C99
  8
3
 10
32.09999999999991
 20
14.68288675869985
 30
0.0
  0
VERTEX
  5
1C9A
  8
3
 10
31.80292384509994
 20
14.83967842940001
 30
0.0
  0
VERTEX
  5
1C9B
  8
3
 10
31.59381485619997
 20
14.81318746919987
 30
0.0
  0
VERTEX
  5
1C9C
  8
3
 10
31.45145988059994
 20
14.65604916699999
 30
0.0
  0
VERTEX
  5
1C9D
  8
3
 10
31.41203344439987
 20
14.31893722480004
 30
0.0
  0
VERTEX
  5
1C9E
  8
3
 10
31.54941060810006
 20
14.00487259829993
 30
0.0
  0
VERTEX
  5
1C9F
  8
3
 10
31.74077194799997
 20
13.70080559400003
 30
0.0
  0
VERTEX
  5
1CA0
  8
3
 10
31.96265949259987
 20
13.3452239630999
 30
0.0
  0
VERTEX
  5
1CA1
  8
3
 10
32.09999999999991
 20
13.11763917439998
 30
0.0
  0
SEQEND
  5
2177
  8
3
  0
POLYLINE
  5
DFB
  8
3
 66
     1
 10
0.0
 20
0.0
 30
0.0
  0
VERTEX
  5
1CA2
  8
3
 10
32.09999999999991
 20
13.11763917439998
 30
0.0
  0
VERTEX
  5
1CA3
  8
3
 10
32.71245335460003
 20
13.2567194618
 30
0.0
  0
VERTEX
  5
1CA4
  8
3
 10
33.15893749639986
 20
13.34109991249989
 30
0.0
  0
VERTEX
  5
1CA5
  8
3
 10
33.55593641499991
 20
13.36309742639992
 30
0.0
  0
VERTEX
  5
1CA6
  8
3
 10
33.94699089829987
 20
13.32564746469984
 30
0.0
  0
VERTEX
  5
1CA7
  8
3
 10
34.48297206970005
 20
13.20983794509993
 30
0.0
  0
VERTEX
  5
1CA8
  8
3
 10
35.10250693140006
 20
13.09161422959983
 30
0.0
  0
VERTEX
  5
1CA9
  8
3
 10
35.43933055420007
 20
13.13608184249983
 30
0.0
  0
VERTEX
  5
1CAA
  8
3
 10
35.58411086709998
 20
13.30601913069995
 30
0.0
  0
VERTEX
  5
1CAB
  8
3
 10
35.57500725479986
 20
13.60305519429994
 30
0.0
  0
VERTEX
  5
1CAC
  8
3
 10
35.42821502239985
 20
13.96269310079992
 30
0.0
  0
VERTEX
  5
1CAD
  8
3
 10
35.14749951780004
 20
14.39140239120002
 30
0.0
  0
VERTEX
  5
1CAE
  8
3
 10
34.56231323949987
 20
15.00209493149987
 30
0.0
  0
VERTEX
  5
1CAF
  8
3
 10
34.0240465334
 20
15.34588592589989
 30
0.0
  0
VERTEX
  5
1CB0
  8
3
 10
33.61336099849996
 20
15.45809720909983
 30
0.0
  0
VERTEX
  5
1CB1
  8
3
 10
33.18654786920001
 20
15.42100435539987
 30
0.0
  0
VERTEX
  5
1CB2
  8
3
 10
32.70179731329995
 20
15.1966233224
 30
0.0
  0
VERTEX
  5
1CB3
  8
3
 10
32.09999999999991
 20
14.68288675869985
 30
0.0
  0
SEQEND
  5
2176
  8
3
  0
POLYLINE
  5
DFC
  8
3
 66
     1
 10
0.0
 20
0.0
 30
0.0
  0
VERTEX
  5
1CB4
  8
3
 10
32.09999999999991
 20
-13.11763917439998
 30
0.0
  0
VERTEX
  5
1CB5
  8
3
 10
31.80292384509994
 20
-13.60277401740018
 30
0.0
  0
VERTEX
  5
1CB6
  8
3
 10
31.59381485619997
 20
-13.93201881470009
 30
0.0
  0
VERTEX
  5
1CB7
  8
3
 10
31.45145988059994
 20
-14.19400655080017
 30
0.0
  0
VERTEX
  5
1CB8
  8
3
 10
31.41203344439987
 20
-14.54342700740017
 30
0.0
  0
VERTEX
  5
1CB9
  8
3
 10
31.54941060810006
 20
-14.78281927000012
 30
0.0
  0
VERTEX
  5
1CBA
  8
3
 10
31.74077194799997
 20
-14.8475909535
 30
0.0
  0
VERTEX
  5
1CBB
  8
3
 10
31.96265949259987
 20
-14.77581271040003
 30
0.0
  0
VERTEX
  5
1CBC
  8
3
 10
32.09999999999991
 20
-14.68288675860003
 30
0.0
  0
SEQEND
  5
2175
  8
3
  0
POLYLINE
  5
DFD
  8
3
 66
     1
 10
0.0
 20
0.0
 30
0.0
  0
VERTEX
  5
1CBD
  8
3
 10
32.09999999999991
 20
-14.68288675860003
 30
0.0
  0
VERTEX
  5
1CBE
  8
3
 10
32.71245335460003
 20
-15.20345269500012
 30
0.0
  0
VERTEX
  5
1CBF
  8
3
 10
33.15893749639986
 20
-15.41321872390017
 30
0.0
  0
VERTEX
  5
1CC0
  8
3
 10
33.55593641499991
 20
-15.4623523222001
 30
0.0
  0
VERTEX
  5
1CC1
  8
3
 10
33.94699089829987
 20
-15.37752444360012
 30
0.0
  0
VERTEX
  5
1CC2
  8
3
 10
34.48297206970005
 20
-15.06557658780002
 30
0.0
  0
VERTEX
  5
1CC3
  8
3
 10
35.10250693140006
 20
-14.44880674900014
 30
0.0
  0
VERTEX
  5
1CC4
  8
3
 10
35.43933055420007
 20
-13.94168534400001
 30
0.0
  0
VERTEX
  5
1CC5
  8
3
 10
35.58411086709998
 20
-13.56385996120002
 30
0.0
  0
VERTEX
  5
1CC6
  8
3
 10
35.57500725479986
 20
-13.28003059340017
 30
0.0
  0
VERTEX
  5
1CC7
  8
3
 10
35.42821502239985
 20
-13.13083564450017
 30
0.0
  0
VERTEX
  5
1CC8
  8
3
 10
35.14749951780004
 20
-13.0891945203
 30
0.0
  0
VERTEX
  5
1CC9
  8
3
 10
34.56231323949987
 20
-13.19060643270018
 30
0.0
  0
VERTEX
  5
1CCA
  8
3
 10
34.0240465334
 20
-13.31232372349996
 30
0.0
  0
VERTEX
  5
1CCB
  8
3
 10
33.61336099849996
 20
-13.36115913560002
 30
0.0
  0
VERTEX
  5
1CCC
  8
3
 10
33.18654786920001
 20
-13.34452951520007
 30
0.0
  0
VERTEX
  5
1CCD
  8
3
 10
32.70179731329995
 20
-13.25423498050009
 30
0.0
  0
VERTEX
  5
1CCE
  8
3
 10
32.09999999999991
 20
-13.11763917439998
 30
0.0
  0
SEQEND
  5
2174
  8
3
  0
LINE
  5
DFE
  8
3
 10
32.09999999999991
 20
-14.68288675860003
 30
0.0
 11
32.09999999999991
 21
-18.05927536180002
 31
0.0
  0
POLYLINE
  5
DFF
  8
3
 66
     1
 10
0.0
 20
0.0
 30
0.0
  0
VERTEX
  5
1CCF
  8
3
 10
32.09999999999991
 20
-16.49402777759997
 30
0.0
  0
VERTEX
  5
1CD0
  8
3
 10
32.71245335460003
 20
-15.97346184120011
 30
0.0
  0
VERTEX
  5
1CD1
  8
3
 10
33.15893749639986
 20
-15.76369581230006
 30
0.0
  0
VERTEX
  5
1CD2
  8
3
 10
33.55593641499991
 20
-15.71456221400013
 30
0.0
  0
VERTEX
  5
1CD3
  8
3
 10
33.94699089829987
 20
-15.79939009260011
 30
0.0
  0
VERTEX
  5
1CD4
  8
3
 10
34.48297206970005
 20
-16.11133794839998
 30
0.0
  0
VERTEX
  5
1CD5
  8
3
 10
35.10250693140006
 20
-16.72810778720009
 30
0.0
  0
VERTEX
  5
1CD6
  8
3
 10
35.43933055420007
 20
-17.23522919219999
 30
0.0
  0
VERTEX
  5
1CD7
  8
3
 10
35.58411086709998
 20
-17.61305457499998
 30
0.0
  0
VERTEX
  5
1CD8
  8
3
 10
35.57500725479986
 20
-17.89688394280006
 30
0.0
  0
VERTEX
  5
1CD9
  8
3
 10
35.42821502239985
 20
-18.04607889170006
 30
0.0
  0
VERTEX
  5
1CDA
  8
3
 10
35.14749951780004
 20
-18.0877200159
 30
0.0
  0
VERTEX
  5
1CDB
  8
3
 10
34.56231323949987
 20
-17.98630810350005
 30
0.0
  0
VERTEX
  5
1CDC
  8
3
 10
34.0240465334
 20
-17.86459081270004
 30
0.0
  0
VERTEX
  5
1CDD
  8
3
 10
33.61336099849996
 20
-17.81575540059998
 30
0.0
  0
VERTEX
  5
1CDE
  8
3
 10
33.18654786920001
 20
-17.83238502100016
 30
0.0
  0
VERTEX
  5
1CDF
  8
3
 10
32.70179731329995
 20
-17.92267955570014
 30
0.0
  0
VERTEX
  5
1CE0
  8
3
 10
32.09999999999991
 20
-18.05927536180002
 30
0.0
  0
SEQEND
  5
2173
  8
3
  0
LINE
  5
E00
  8
3
 10
32.09999999999991
 20
-14.68288675860003
 30
0.0
 11
32.09999999999991
 21
-13.11763917439998
 31
0.0
  0
POLYLINE
  5
E01
  8
3
 66
     1
 10
0.0
 20
0.0
 30
0.0
  0
VERTEX
  5
1CE1
  8
3
 10
32.09999999999991
 20
-18.05927536180002
 30
0.0
  0
VERTEX
  5
1CE2
  8
3
 10
31.80292384509994
 20
-17.57414051880005
 30
0.0
  0
VERTEX
  5
1CE3
  8
3
 10
31.59381485619997
 20
-17.24489572150014
 30
0.0
  0
VERTEX
  5
1CE4
  8
3
 10
31.45145988059994
 20
-16.98290798530002
 30
0.0
  0
VERTEX
  5
1CE5
  8
3
 10
31.41203344439987
 20
-16.63348752870002
 30
0.0
  0
VERTEX
  5
1CE6
  8
3
 10
31.54941060810006
 20
-16.39409526620011
 30
0.0
  0
VERTEX
  5
1CE7
  8
3
 10
31.74077194799997
 20
-16.3293235827
 30
0.0
  0
VERTEX
  5
1CE8
  8
3
 10
31.96265949259987
 20
-16.40110182570015
 30
0.0
  0
VERTEX
  5
1CE9
  8
3
 10
32.09999999999991
 20
-16.49402777759997
 30
0.0
  0
SEQEND
  5
2172
  8
3
  0
POLYLINE
  5
E02
  8
3
 66
     1
 10
0.0
 20
0.0
 30
0.0
  0
VERTEX
  5
1CEA
  8
3
 10
32.09999999999991
 20
18.05927536189984
 30
0.0
  0
VERTEX
  5
1CEB
  8
3
 10
32.71245335460003
 20
17.92019507450004
 30
0.0
  0
VERTEX
  5
1CEC
  8
3
 10
33.15893749639986
 20
17.83581462379993
 30
0.0
  0
VERTEX
  5
1CED
  8
3
 10
33.55593641499991
 20
17.8138171098999
 30
0.0
  0
VERTEX
  5
1CEE
  8
3
 10
33.94699089829987
 20
17.85126707159998
 30
0.0
  0
VERTEX
  5
1CEF
  8
3
 10
34.48297206970005
 20
17.96707659119988
 30
0.0
  0
VERTEX
  5
1CF0
  8
3
 10
35.10250693140006
 20
18.08530030669999
 30
0.0
  0
VERTEX
  5
1CF1
  8
3
 10
35.43933055420007
 20
18.04083269379998
 30
0.0
  0
VERTEX
  5
1CF2
  8
3
 10
35.58411086709998
 20
17.87089540559987
 30
0.0
  0
VERTEX
  5
1CF3
  8
3
 10
35.57500725479986
 20
17.57385934199988
 30
0.0
  0
VERTEX
  5
1CF4
  8
3
 10
35.42821502239985
 20
17.21422143549989
 30
0.0
  0
VERTEX
  5
1CF5
  8
3
 10
35.14749951780004
 20
16.78551214510003
 30
0.0
  0
VERTEX
  5
1CF6
  8
3
 10
34.56231323949987
 20
16.17481960479995
 30
0.0
  0
VERTEX
  5
1CF7
  8
3
 10
34.0240465334
 20
15.83102861039993
 30
0.0
  0
VERTEX
  5
1CF8
  8
3
 10
33.61336099849996
 20
15.71881732709994
 30
0.0
  0
VERTEX
  5
1CF9
  8
3
 10
33.18654786920001
 20
15.75591018089995
 30
0.0
  0
VERTEX
  5
1CFA
  8
3
 10
32.70179731329995
 20
15.9802912138
 30
0.0
  0
VERTEX
  5
1CFB
  8
3
 10
32.09999999999991
 20
16.49402777759997
 30
0.0
  0
SEQEND
  5
2171
  8
3
  0
LINE
  5
E03
  8
3
 10
32.09999999999991
 20
18.05927536189984
 30
0.0
 11
32.09999999999991
 21
14.68288675869985
 31
0.0
  0
LINE
  5
E04
  8
3
 10
32.09999999999991
 20
13.11763917439998
 30
0.0
 11
32.09999999999991
 21
14.68288675869985
 31
0.0
  0
POLYLINE
  5
E05
  8
3
 66
     1
 10
0.0
 20
0.0
 30
0.0
  0
VERTEX
  5
1CFC
  8
3
 10
32.09999999999991
 20
16.49402777759997
 30
0.0
  0
VERTEX
  5
1CFD
  8
3
 10
31.80292384509994
 20
16.33723610690004
 30
0.0
  0
VERTEX
  5
1CFE
  8
3
 10
31.59381485619997
 20
16.36372706709994
 30
0.0
  0
VERTEX
  5
1CFF
  8
3
 10
31.45145988059994
 20
16.52086536929983
 30
0.0
  0
VERTEX
  5
1D00
  8
3
 10
31.41203344439987
 20
16.85797731150001
 30
0.0
  0
VERTEX
  5
1D01
  8
3
 10
31.54941060810006
 20
17.17204193799989
 30
0.0
  0
VERTEX
  5
1D02
  8
3
 10
31.74077194799997
 20
17.47610894230002
 30
0.0
  0
VERTEX
  5
1D03
  8
3
 10
31.96265949259987
 20
17.83169057319992
 30
0.0
  0
VERTEX
  5
1D04
  8
3
 10
32.09999999999991
 20
18.05927536189984
 30
0.0
  0
SEQEND
  5
2170
  8
3
  0
POLYLINE
  5
E06
  8
3
 66
     1
 10
0.0
 20
0.0
 30
0.0
  0
VERTEX
  5
1D05
  8
3
 10
33.5
 20
29.97524848640001
 30
0.0
  0
VERTEX
  5
1D06
  8
3
 10
34.25860749899994
 20
29.9043443272999
 30
0.0
  0
VERTEX
  5
1D07
  8
3
 10
34.91476085170007
 20
29.70120784949995
 30
0.0
  0
VERTEX
  5
1D08
  8
3
 10
35.37984291189991
 20
29.39327375999983
 30
0.0
  0
VERTEX
  5
1D09
  8
3
 10
35.59104177020004
 20
29.02213026389995
 30
0.0
  0
VERTEX
  5
1D0A
  8
3
 10
35.51983385070002
 20
28.63790234679982
 30
0.0
  0
VERTEX
  5
1D0B
  8
3
 10
35.17583617729997
 20
28.29248211820004
 30
0.0
  0
VERTEX
  5
1D0C
  8
3
 10
34.60550754209999
 20
28.03252049389994
 30
0.0
  0
VERTEX
  5
1D0D
  8
3
 10
33.88587398739992
 20
27.89312673179984
 30
0.0
  0
VERTEX
  5
1D0E
  8
3
 10
33.11412601259985
 20
27.89312673179984
 30
0.0
  0
VERTEX
  5
1D0F
  8
3
 10
32.39449245800006
 20
28.03252049389994
 30
0.0
  0
VERTEX
  5
1D10
  8
3
 10
31.82416382270003
 20
28.29248211820004
 30
0.0
  0
VERTEX
  5
1D11
  8
3
 10
31.48016614940002
 20
28.63790234679982
 30
0.0
  0
VERTEX
  5
1D12
  8
3
 10
31.40895822979996
 20
29.02213026389995
 30
0.0
  0
VERTEX
  5
1D13
  8
3
 10
31.6201570881999
 20
29.39327375999983
 30
0.0
  0
VERTEX
  5
1D14
  8
3
 10
32.08523914839998
 20
29.70120784949995
 30
0.0
  0
VERTEX
  5
1D15
  8
3
 10
32.74139250100006
 20
29.9043443272999
 30
0.0
  0
VERTEX
  5
1D16
  8
3
 10
33.5
 20
29.97524848640001
 30
0.0
  0
SEQEND
  5
216F
  8
3
  0
POLYLINE
  5
E07
  8
3
 66
     1
 10
0.0
 20
0.0
 30
0.0
  0
VERTEX
  5
1D17
  8
3
 10
33.5
 20
-27.8752484864001
 30
0.0
  0
VERTEX
  5
1D18
  8
3
 10
34.25860749899994
 20
-27.94615264549998
 30
0.0
  0
VERTEX
  5
1D19
  8
3
 10
34.91476085170007
 20
-28.14928912330015
 30
0.0
  0
VERTEX
  5
1D1A
  8
3
 10
35.37984291189991
 20
-28.45722321280005
 30
0.0
  0
VERTEX
  5
1D1B
  8
3
 10
35.59104177020004
 20
-28.82836670890015
 30
0.0
  0
VERTEX
  5
1D1C
  8
3
 10
35.51983385070002
 20
-29.21259462600005
 30
0.0
  0
VERTEX
  5
1D1D
  8
3
 10
35.17583617729997
 20
-29.55801485460006
 30
0.0
  0
VERTEX
  5
1D1E
  8
3
 10
34.60550754209999
 20
-29.81797647890016
 30
0.0
  0
VERTEX
  5
1D1F
  8
3
 10
33.88587398739992
 20
-29.95737024100004
 30
0.0
  0
VERTEX
  5
1D20
  8
3
 10
33.11412601259985
 20
-29.95737024100004
 30
0.0
  0
VERTEX
  5
1D21
  8
3
 10
32.39449245800006
 20
-29.81797647890016
 30
0.0
  0
VERTEX
  5
1D22
  8
3
 10
31.82416382270003
 20
-29.55801485460006
 30
0.0
  0
VERTEX
  5
1D23
  8
3
 10
31.48016614940002
 20
-29.21259462600005
 30
0.0
  0
VERTEX
  5
1D24
  8
3
 10
31.40895822979996
 20
-28.82836670890015
 30
0.0
  0
VERTEX
  5
1D25
  8
3
 10
31.6201570881999
 20
-28.45722321280005
 30
0.0
  0
VERTEX
  5
1D26
  8
3
 10
32.08523914839998
 20
-28.14928912330015
 30
0.0
  0
VERTEX
  5
1D27
  8
3
 10
32.74139250100006
 20
-27.94615264549998
 30
0.0
  0
VERTEX
  5
1D28
  8
3
 10
33.5
 20
-27.8752484864001
 30
0.0
  0
SEQEND
  5
216E
  8
3
  0
POLYLINE
  5
E08
  8
3
 66
     1
 10
0.0
 20
0.0
 30
0.0
  0
VERTEX
  5
1D29
  8
3
 10
33.5
 20
-28.06741182340011
 30
0.0
  0
VERTEX
  5
1D2A
  8
3
 10
34.35233610670002
 20
-28.13852669360017
 30
0.0
  0
VERTEX
  5
1D2B
  8
3
 10
35.11230837080006
 20
-28.34416490479998
 30
0.0
  0
VERTEX
  5
1D2C
  8
3
 10
35.6975620055
 20
-28.66204236580006
 30
0.0
  0
VERTEX
  5
1D2D
  8
3
 10
36.04467569810004
 20
-29.05771212150012
 30
0.0
  0
VERTEX
  5
1D2E
  8
3
 10
36.11603429420006
 20
-29.48829721430002
 30
0.0
  0
VERTEX
  5
1D2F
  8
3
 10
35.90390498249985
 20
-29.90713706819997
 30
0.0
  0
VERTEX
  5
1D30
  8
3
 10
35.43127526550006
 20
-30.26884388610006
 30
0.0
  0
VERTEX
  5
1D31
  8
3
 10
34.74936190669996
 20
-30.5342211218001
 30
0.0
  0
VERTEX
  5
1D32
  8
3
 10
33.93206079950005
 20
-30.67451103410008
 30
0.0
  0
VERTEX
  5
1D33
  8
3
 10
33.06793920049995
 20
-30.67451103410008
 30
0.0
  0
VERTEX
  5
1D34
  8
3
 10
32.25063809330004
 20
-30.5342211218001
 30
0.0
  0
VERTEX
  5
1D35
  8
3
 10
31.56872473449994
 20
-30.26884388610006
 30
0.0
  0
VERTEX
  5
1D36
  8
3
 10
31.09609501759996
 20
-29.90713706819997
 30
0.0
  0
VERTEX
  5
1D37
  8
3
 10
30.88396570589998
 20
-29.48829721430002
 30
0.0
  0
VERTEX
  5
1D38
  8
3
 10
30.95532430189996
 20
-29.05771212150012
 30
0.0
  0
VERTEX
  5
1D39
  8
3
 10
31.30243799460004
 20
-28.66204236580006
 30
0.0
  0
VERTEX
  5
1D3A
  8
3
 10
31.88769162919994
 20
-28.34416490479998
 30
0.0
  0
VERTEX
  5
1D3B
  8
3
 10
32.64766389340002
 20
-28.13852669360017
 30
0.0
  0
VERTEX
  5
1D3C
  8
3
 10
33.5
 20
-28.06741182340011
 30
0.0
  0
SEQEND
  5
216D
  8
3
  0
POLYLINE
  5
E09
  8
3
 66
     1
 10
0.0
 20
0.0
 30
0.0
  0
VERTEX
  5
1D3D
  8
3
 10
33.5
 20
30.69241182339988
 30
0.0
  0
VERTEX
  5
1D3E
  8
3
 10
34.35233610670002
 20
30.6212969531
 30
0.0
  0
VERTEX
  5
1D3F
  8
3
 10
35.11230837080006
 20
30.41565874200001
 30
0.0
  0
VERTEX
  5
1D40
  8
3
 10
35.6975620055
 20
30.09778128089988
 30
0.0
  0
VERTEX
  5
1D41
  8
3
 10
36.04467569810004
 20
29.70211152529987
 30
0.0
  0
VERTEX
  5
1D42
  8
3
 10
36.11603429420006
 20
29.27152643249997
 30
0.0
  0
VERTEX
  5
1D43
  8
3
 10
35.90390498249985
 20
28.85268657860001
 30
0.0
  0
VERTEX
  5
1D44
  8
3
 10
35.43127526550006
 20
28.49097976069993
 30
0.0
  0
VERTEX
  5
1D45
  8
3
 10
34.74936190669996
 20
28.22560252499989
 30
0.0
  0
VERTEX
  5
1D46
  8
3
 10
33.93206079950005
 20
28.08531261269991
 30
0.0
  0
VERTEX
  5
1D47
  8
3
 10
33.06793920049995
 20
28.08531261269991
 30
0.0
  0
VERTEX
  5
1D48
  8
3
 10
32.25063809330004
 20
28.22560252499989
 30
0.0
  0
VERTEX
  5
1D49
  8
3
 10
31.56872473449994
 20
28.49097976069993
 30
0.0
  0
VERTEX
  5
1D4A
  8
3
 10
31.09609501759996
 20
28.85268657860001
 30
0.0
  0
VERTEX
  5
1D4B
  8
3
 10
30.88396570589998
 20
29.27152643249997
 30
0.0
  0
VERTEX
  5
1D4C
  8
3
 10
30.95532430189996
 20
29.70211152529987
 30
0.0
  0
VERTEX
  5
1D4D
  8
3
 10
31.30243799460004
 20
30.09778128089988
 30
0.0
  0
VERTEX
  5
1D4E
  8
3
 10
31.88769162919994
 20
30.41565874200001
 30
0.0
  0
VERTEX
  5
1D4F
  8
3
 10
32.64766389340002
 20
30.6212969531
 30
0.0
  0
VERTEX
  5
1D50
  8
3
 10
33.5
 20
30.69241182339988
 30
0.0
  0
SEQEND
  5
216C
  8
3
  0
CIRCLE
  5
E0A
  8
3
 10
33.5
 20
0.0
 30
0.0
 40
2.500000000000227
  0
CIRCLE
  5
E0B
  8
3
 10
33.5
 20
0.0
 30
0.0
 40
2.316732743452349
  0
CIRCLE
  5
E0C
  8
3
 10
33.5
 20
0.0
 30
0.0
 40
1.750000000000227
  0
POLYLINE
  5
E0D
  8
3
 66
     1
 10
0.0
 20
0.0
 30
0.0
  0
VERTEX
  5
1D51
  8
3
 10
33.5
 20
23.30875940069996
 30
0.0
  0
VERTEX
  5
1D52
  8
3
 10
32.83030399339987
 20
23.37536480979998
 30
0.0
  0
VERTEX
  5
1D53
  8
3
 10
32.26256313289991
 20
23.56504096719982
 30
0.0
  0
VERTEX
  5
1D54
  8
3
 10
31.8832108181
 20
23.84891139739989
 30
0.0
  0
VERTEX
  5
1D55
  8
3
 10
31.75
 20
24.18375940069996
 30
0.0
  0
VERTEX
  5
1D56
  8
3
 10
31.8832108181
 20
24.51860740400002
 30
0.0
  0
VERTEX
  5
1D57
  8
3
 10
32.26256313289991
 20
24.80247783419986
 30
0.0
  0
VERTEX
  5
1D58
  8
3
 10
32.83030399339987
 20
24.99215399169998
 30
0.0
  0
VERTEX
  5
1D59
  8
3
 10
33.5
 20
25.05875940069996
 30
0.0
  0
VERTEX
  5
1D5A
  8
3
 10
34.16969600659991
 20
24.99215399169998
 30
0.0
  0
VERTEX
  5
1D5B
  8
3
 10
34.73743686709986
 20
24.80247783419986
 30
0.0
  0
VERTEX
  5
1D5C
  8
3
 10
35.1167891819
 20
24.51860740400002
 30
0.0
  0
VERTEX
  5
1D5D
  8
3
 10
35.25
 20
24.18375940069996
 30
0.0
  0
VERTEX
  5
1D5E
  8
3
 10
35.1167891819
 20
23.84891139739989
 30
0.0
  0
VERTEX
  5
1D5F
  8
3
 10
34.73743686709986
 20
23.56504096719982
 30
0.0
  0
VERTEX
  5
1D60
  8
3
 10
34.16969600659991
 20
23.37536480979998
 30
0.0
  0
VERTEX
  5
1D61
  8
3
 10
33.5
 20
23.30875940069996
 30
0.0
  0
SEQEND
  5
216B
  8
3
  0
POLYLINE
  5
E0E
  8
3
 66
     1
 10
0.0
 20
0.0
 30
0.0
  0
VERTEX
  5
1D62
  8
3
 10
31.18326725659995
 20
24.67456435369991
 30
0.0
  0
VERTEX
  5
1D63
  8
3
 10
31.32298333669996
 20
25.07074898619999
 30
0.0
  0
VERTEX
  5
1D64
  8
3
 10
31.72527975570006
 20
25.4191479049
 30
0.0
  0
VERTEX
  5
1D65
  8
3
 10
32.34163362829986
 20
25.67773905850004
 30
0.0
  0
VERTEX
  5
1D66
  8
3
 10
33.09770358099991
 20
25.81533253739985
 30
0.0
  0
VERTEX
  5
1D67
  8
3
 10
33.90229641899987
 20
25.81533253739985
 30
0.0
  0
VERTEX
  5
1D68
  8
3
 10
34.65836637169991
 20
25.67773905850004
 30
0.0
  0
VERTEX
  5
1D69
  8
3
 10
35.27472024429994
 20
25.4191479049
 30
0.0
  0
VERTEX
  5
1D6A
  8
3
 10
35.67701666339985
 20
25.07074898619999
 30
0.0
  0
VERTEX
  5
1D6B
  8
3
 10
35.81673274349987
 20
24.67456435369991
 30
0.0
  0
VERTEX
  5
1D6C
  8
3
 10
35.67701666339985
 20
24.27837972119983
 30
0.0
  0
VERTEX
  5
1D6D
  8
3
 10
35.27472024429994
 20
23.92998080250004
 30
0.0
  0
VERTEX
  5
1D6E
  8
3
 10
34.65836637169991
 20
23.6713896489
 30
0.0
  0
VERTEX
  5
1D6F
  8
3
 10
33.90229641899987
 20
23.53379616999996
 30
0.0
  0
VERTEX
  5
1D70
  8
3
 10
33.09770358099991
 20
23.53379616999996
 30
0.0
  0
VERTEX
  5
1D71
  8
3
 10
32.34163362829986
 20
23.6713896489
 30
0.0
  0
VERTEX
  5
1D72
  8
3
 10
31.72527975570006
 20
23.92998080250004
 30
0.0
  0
VERTEX
  5
1D73
  8
3
 10
31.32298333669996
 20
24.27837972119983
 30
0.0
  0
VERTEX
  5
1D74
  8
3
 10
31.18326725659995
 20
24.67456435369991
 30
0.0
  0
SEQEND
  5
216A
  8
3
  0
POLYLINE
  5
E0F
  8
3
 66
     1
 10
0.0
 20
0.0
 30
0.0
  0
VERTEX
  5
1D75
  8
3
 10
35.55500000000006
 20
24.83327843919983
 30
0.0
  0
VERTEX
  5
1D76
  8
3
 10
35.41623043139998
 20
24.46210262720001
 30
0.0
  0
VERTEX
  5
1D77
  8
3
 10
35.01866332489999
 20
24.14105616529991
 30
0.0
  0
VERTEX
  5
1D78
  8
3
 10
34.41599232110002
 20
23.91349815729995
 30
0.0
  0
VERTEX
  5
1D79
  8
3
 10
33.68961147870004
 20
23.81016157299996
 30
0.0
  0
VERTEX
  5
1D7A
  8
3
 10
32.93762255539991
 20
23.84500259079982
 30
0.0
  0
VERTEX
  5
1D7B
  8
3
 10
32.2615858222
 20
24.01331573809989
 30
0.0
  0
VERTEX
  5
1D7C
  8
3
 10
31.7528037861
 20
24.29236939179987
 30
0.0
  0
VERTEX
  5
1D7D
  8
3
 10
31.4799902801999
 20
24.64447580959995
 30
0.0
  0
VERTEX
  5
1D7E
  8
3
 10
31.4799902801999
 20
25.02208106869989
 30
0.0
  0
VERTEX
  5
1D7F
  8
3
 10
31.7528037861
 20
25.37418748649998
 30
0.0
  0
VERTEX
  5
1D80
  8
3
 10
32.2615858222
 20
25.65324114019995
 30
0.0
  0
VERTEX
  5
1D81
  8
3
 10
32.93762255539991
 20
25.82155428750002
 30
0.0
  0
VERTEX
  5
1D82
  8
3
 10
33.68961147870004
 20
25.85639530529988
 30
0.0
  0
VERTEX
  5
1D83
  8
3
 10
34.41599232110002
 20
25.75305872099989
 30
0.0
  0
VERTEX
  5
1D84
  8
3
 10
35.01866332489999
 20
25.52550071299993
 30
0.0
  0
VERTEX
  5
1D85
  8
3
 10
35.41623043139998
 20
25.20445425119988
 30
0.0
  0
VERTEX
  5
1D86
  8
3
 10
35.55500000000006
 20
24.83327843919983
 30
0.0
  0
SEQEND
  5
2169
  8
3
  0
POLYLINE
  5
E10
  8
3
 66
     1
 10
0.0
 20
0.0
 30
0.0
  0
VERTEX
  5
1D87
  8
3
 10
36.0
 20
25.10312533379988
 30
0.0
  0
VERTEX
  5
1D88
  8
3
 10
35.86454310429986
 20
24.69725099729999
 30
0.0
  0
VERTEX
  5
1D89
  8
3
 10
35.47285127350005
 20
24.33535944289997
 30
0.0
  0
VERTEX
  5
1D8A
  8
3
 10
34.86737039529999
 20
24.05666723599984
 30
0.0
  0
VERTEX
  5
1D8B
  8
3
 10
34.11371371790005
 20
23.89137500139987
 30
0.0
  0
VERTEX
  5
1D8C
  8
3
 10
33.29355163629998
 20
23.85739471750003
 30
0.0
  0
VERTEX
  5
1D8D
  8
3
 10
32.4957614384
 20
23.95840867549987
 30
0.0
  0
VERTEX
  5
1D8E
  8
3
 10
31.80679607089996
 20
24.18347044550001
 30
0.0
  0
VERTEX
  5
1D8F
  8
3
 10
31.30131562199995
 20
24.50819109249983
 30
0.0
  0
VERTEX
  5
1D90
  8
3
 10
31.03409674149998
 20
24.897382096
 30
0.0
  0
VERTEX
  5
1D91
  8
3
 10
31.03409674149998
 20
25.30886857170003
 30
0.0
  0
VERTEX
  5
1D92
  8
3
 10
31.30131562199995
 20
25.69805957509993
 30
0.0
  0
VERTEX
  5
1D93
  8
3
 10
31.80679607089996
 20
26.02278022209998
 30
0.0
  0
VERTEX
  5
1D94
  8
3
 10
32.4957614384
 20
26.24784199209989
 30
0.0
  0
VERTEX
  5
1D95
  8
3
 10
33.29355163629998
 20
26.34885595009996
 30
0.0
  0
VERTEX
  5
1D96
  8
3
 10
34.11371371790005
 20
26.3148756661999
 30
0.0
  0
VERTEX
  5
1D97
  8
3
 10
34.86737039529999
 20
26.14958343159992
 30
0.0
  0
VERTEX
  5
1D98
  8
3
 10
35.47285127350005
 20
25.87089122470002
 30
0.0
  0
VERTEX
  5
1D99
  8
3
 10
35.86454310429986
 20
25.5089996703
 30
0.0
  0
VERTEX
  5
1D9A
  8
3
 10
36.0
 20
25.10312533379988
 30
0.0
  0
SEQEND
  5
2168
  8
3
  0
POLYLINE
  5
E11
  8
3
 66
     1
 10
0.0
 20
0.0
 30
0.0
  0
VERTEX
  5
1D9B
  8
3
 10
36.0
 20
25.18116488519991
 30
0.0
  0
VERTEX
  5
1D9C
  8
3
 10
35.86454310429986
 20
24.77529054870001
 30
0.0
  0
VERTEX
  5
1D9D
  8
3
 10
35.47285127350005
 20
24.4133989943
 30
0.0
  0
VERTEX
  5
1D9E
  8
3
 10
34.86737039529999
 20
24.13470678729982
 30
0.0
  0
VERTEX
  5
1D9F
  8
3
 10
34.11371371790005
 20
23.96941455269985
 30
0.0
  0
VERTEX
  5
1DA0
  8
3
 10
33.29355163629998
 20
23.93543426889983
 30
0.0
  0
VERTEX
  5
1DA1
  8
3
 10
32.4957614384
 20
24.03644822679985
 30
0.0
  0
VERTEX
  5
1DA2
  8
3
 10
31.80679607089996
 20
24.26150999679999
 30
0.0
  0
VERTEX
  5
1DA3
  8
3
 10
31.30131562199995
 20
24.58623064389985
 30
0.0
  0
VERTEX
  5
1DA4
  8
3
 10
31.03409674149998
 20
24.97542164729998
 30
0.0
  0
VERTEX
  5
1DA5
  8
3
 10
31.03409674149998
 20
25.38690812300001
 30
0.0
  0
VERTEX
  5
1DA6
  8
3
 10
31.30131562199995
 20
25.77609912649996
 30
0.0
  0
VERTEX
  5
1DA7
  8
3
 10
31.80679607089996
 20
26.10081977350001
 30
0.0
  0
VERTEX
  5
1DA8
  8
3
 10
32.4957614384
 20
26.32588154349992
 30
0.0
  0
VERTEX
  5
1DA9
  8
3
 10
33.29355163629998
 20
26.42689550139994
 30
0.0
  0
VERTEX
  5
1DAA
  8
3
 10
34.11371371790005
 20
26.39291521759992
 30
0.0
  0
VERTEX
  5
1DAB
  8
3
 10
34.86737039529999
 20
26.22762298299995
 30
0.0
  0
VERTEX
  5
1DAC
  8
3
 10
35.47285127350005
 20
25.948930776
 30
0.0
  0
VERTEX
  5
1DAD
  8
3
 10
35.86454310429986
 20
25.58703922170002
 30
0.0
  0
VERTEX
  5
1DAE
  8
3
 10
36.0
 20
25.18116488519991
 30
0.0
  0
SEQEND
  5
2167
  8
3
  0
POLYLINE
  5
E12
  8
3
 66
     1
 10
0.0
 20
0.0
 30
0.0
  0
VERTEX
  5
1DAF
  8
3
 10
35.55500000000006
 20
25.45101177979996
 30
0.0
  0
VERTEX
  5
1DB0
  8
3
 10
35.41623043139998
 20
25.07983596779991
 30
0.0
  0
VERTEX
  5
1DB1
  8
3
 10
35.01866332489999
 20
24.75878950590004
 30
0.0
  0
VERTEX
  5
1DB2
  8
3
 10
34.41599232110002
 20
24.53123149789985
 30
0.0
  0
VERTEX
  5
1DB3
  8
3
 10
33.68961147870004
 20
24.42789491359986
 30
0.0
  0
VERTEX
  5
1DB4
  8
3
 10
32.93762255539991
 20
24.46273593139995
 30
0.0
  0
VERTEX
  5
1DB5
  8
3
 10
32.2615858222
 20
24.63104907879983
 30
0.0
  0
VERTEX
  5
1DB6
  8
3
 10
31.7528037861
 20
24.91010273239999
 30
0.0
  0
VERTEX
  5
1DB7
  8
3
 10
31.47999028009986
 20
25.26220915019985
 30
0.0
  0
VERTEX
  5
1DB8
  8
3
 10
31.47999028009986
 20
25.63981440930002
 30
0.0
  0
VERTEX
  5
1DB9
  8
3
 10
31.7528037861
 20
25.99192082709988
 30
0.0
  0
VERTEX
  5
1DBA
  8
3
 10
32.2615858222
 20
26.27097448079985
 30
0.0
  0
VERTEX
  5
1DBB
  8
3
 10
32.93762255539991
 20
26.43928762809992
 30
0.0
  0
VERTEX
  5
1DBC
  8
3
 10
33.68961147870004
 20
26.47412864590001
 30
0.0
  0
VERTEX
  5
1DBD
  8
3
 10
34.41599232110002
 20
26.37079206169983
 30
0.0
  0
VERTEX
  5
1DBE
  8
3
 10
35.01866332489999
 20
26.14323405359983
 30
0.0
  0
VERTEX
  5
1DBF
  8
3
 10
35.41623043139998
 20
25.8221875918
 30
0.0
  0
VERTEX
  5
1DC0
  8
3
 10
35.55500000000006
 20
25.45101177979996
 30
0.0
  0
SEQEND
  5
2166
  8
3
  0
POLYLINE
  5
E13
  8
3
 66
     1
 10
0.0
 20
0.0
 30
0.0
  0
VERTEX
  5
1DC1
  8
3
 10
36.0
 20
25.72085867440001
 30
0.0
  0
VERTEX
  5
1DC2
  8
3
 10
35.86454310420004
 20
25.31498433789989
 30
0.0
  0
VERTEX
  5
1DC3
  8
3
 10
35.47285127350005
 20
24.95309278349987
 30
0.0
  0
VERTEX
  5
1DC4
  8
3
 10
34.86737039529999
 20
24.67440057659996
 30
0.0
  0
VERTEX
  5
1DC5
  8
3
 10
34.11371371780001
 20
24.50910834199999
 30
0.0
  0
VERTEX
  5
1DC6
  8
3
 10
33.29355163629998
 20
24.47512805819997
 30
0.0
  0
VERTEX
  5
1DC7
  8
3
 10
32.4957614384
 20
24.57614201609999
 30
0.0
  0
VERTEX
  5
1DC8
  8
3
 10
31.80679607089996
 20
24.8012037860999
 30
0.0
  0
VERTEX
  5
1DC9
  8
3
 10
31.30131562199995
 20
25.12592443309995
 30
0.0
  0
VERTEX
  5
1DCA
  8
3
 10
31.03409674149998
 20
25.5151154365999
 30
0.0
  0
VERTEX
  5
1DCB
  8
3
 10
31.03409674149998
 20
25.92660191229993
 30
0.0
  0
VERTEX
  5
1DCC
  8
3
 10
31.30131562199995
 20
26.31579291569983
 30
0.0
  0
VERTEX
  5
1DCD
  8
3
 10
31.80679607089996
 20
26.64051356279992
 30
0.0
  0
VERTEX
  5
1DCE
  8
3
 10
32.4957614384
 20
26.86557533270002
 30
0.0
  0
VERTEX
  5
1DCF
  8
3
 10
33.29355163629998
 20
26.96658929069986
 30
0.0
  0
VERTEX
  5
1DD0
  8
3
 10
34.11371371780001
 20
26.93260900680002
 30
0.0
  0
VERTEX
  5
1DD1
  8
3
 10
34.86737039529999
 20
26.76731677219982
 30
0.0
  0
VERTEX
  5
1DD2
  8
3
 10
35.47285127350005
 20
26.48862456529992
 30
0.0
  0
VERTEX
  5
1DD3
  8
3
 10
35.86454310420004
 20
26.1267330108999
 30
0.0
  0
VERTEX
  5
1DD4
  8
3
 10
36.0
 20
25.72085867440001
 30
0.0
  0
SEQEND
  5
2165
  8
3
  0
POLYLINE
  5
E14
  8
3
 66
     1
 10
0.0
 20
0.0
 30
0.0
  0
VERTEX
  5
1DD5
  8
3
 10
36.0
 20
25.79889822580003
 30
0.0
  0
VERTEX
  5
1DD6
  8
3
 10
35.86454310420004
 20
25.39302388929991
 30
0.0
  0
VERTEX
  5
1DD7
  8
3
 10
35.47285127350005
 20
25.03113233489989
 30
0.0
  0
VERTEX
  5
1DD8
  8
3
 10
34.86737039529999
 20
24.75244012789994
 30
0.0
  0
VERTEX
  5
1DD9
  8
3
 10
34.11371371780001
 20
24.58714789329997
 30
0.0
  0
VERTEX
  5
1DDA
  8
3
 10
33.29355163629998
 20
24.55316760949995
 30
0.0
  0
VERTEX
  5
1DDB
  8
3
 10
32.4957614384
 20
24.65418156739997
 30
0.0
  0
VERTEX
  5
1DDC
  8
3
 10
31.80679607089996
 20
24.87924333739988
 30
0.0
  0
VERTEX
  5
1DDD
  8
3
 10
31.30131562199995
 20
25.20396398449998
 30
0.0
  0
VERTEX
  5
1DDE
  8
3
 10
31.03409674149998
 20
25.59315498789988
 30
0.0
  0
VERTEX
  5
1DDF
  8
3
 10
31.03409674149998
 20
26.00464146359991
 30
0.0
  0
VERTEX
  5
1DE0
  8
3
 10
31.30131562199995
 20
26.39383246709986
 30
0.0
  0
VERTEX
  5
1DE1
  8
3
 10
31.80679607089996
 20
26.7185531140999
 30
0.0
  0
VERTEX
  5
1DE2
  8
3
 10
32.4957614384
 20
26.94361488410004
 30
0.0
  0
VERTEX
  5
1DE3
  8
3
 10
33.29355163629998
 20
27.04462884199984
 30
0.0
  0
VERTEX
  5
1DE4
  8
3
 10
34.11371371780001
 20
27.01064855819982
 30
0.0
  0
VERTEX
  5
1DE5
  8
3
 10
34.86737039529999
 20
26.84535632359984
 30
0.0
  0
VERTEX
  5
1DE6
  8
3
 10
35.47285127350005
 20
26.5666641165999
 30
0.0
  0
VERTEX
  5
1DE7
  8
3
 10
35.86454310420004
 20
26.20477256229992
 30
0.0
  0
VERTEX
  5
1DE8
  8
3
 10
36.0
 20
25.79889822580003
 30
0.0
  0
SEQEND
  5
2164
  8
3
  0
POLYLINE
  5
E15
  8
3
 66
     1
 10
0.0
 20
0.0
 30
0.0
  0
VERTEX
  5
1DE9
  8
3
 10
35.55500000000006
 20
26.06874512039985
 30
0.0
  0
VERTEX
  5
1DEA
  8
3
 10
35.41623043139998
 20
25.69756930840003
 30
0.0
  0
VERTEX
  5
1DEB
  8
3
 10
35.01866332489999
 20
25.37652284649994
 30
0.0
  0
VERTEX
  5
1DEC
  8
3
 10
34.41599232110002
 20
25.14896483849998
 30
0.0
  0
VERTEX
  5
1DED
  8
3
 10
33.68961147870004
 20
25.04562825419998
 30
0.0
  0
VERTEX
  5
1DEE
  8
3
 10
32.93762255539991
 20
25.08046927199985
 30
0.0
  0
VERTEX
  5
1DEF
  8
3
 10
32.2615858222
 20
25.24878241939996
 30
0.0
  0
VERTEX
  5
1DF0
  8
3
 10
31.7528037861
 20
25.52783607299989
 30
0.0
  0
VERTEX
  5
1DF1
  8
3
 10
31.47999028009986
 20
25.87994249079998
 30
0.0
  0
VERTEX
  5
1DF2
  8
3
 10
31.47999028009986
 20
26.25754774989991
 30
0.0
  0
VERTEX
  5
1DF3
  8
3
 10
31.7528037861
 20
26.6096541677
 30
0.0
  0
VERTEX
  5
1DF4
  8
3
 10
32.2615858222
 20
26.88870782139998
 30
0.0
  0
VERTEX
  5
1DF5
  8
3
 10
32.93762255539991
 20
27.05702096870004
 30
0.0
  0
VERTEX
  5
1DF6
  8
3
 10
33.68961147870004
 20
27.09186198649991
 30
0.0
  0
VERTEX
  5
1DF7
  8
3
 10
34.41599232110002
 20
26.98852540229996
 30
0.0
  0
VERTEX
  5
1DF8
  8
3
 10
35.01866332489999
 20
26.76096739419995
 30
0.0
  0
VERTEX
  5
1DF9
  8
3
 10
35.41623043139998
 20
26.4399209323999
 30
0.0
  0
VERTEX
  5
1DFA
  8
3
 10
35.55500000000006
 20
26.06874512039985
 30
0.0
  0
SEQEND
  5
2163
  8
3
  0
POLYLINE
  5
E16
  8
3
 66
     1
 10
0.0
 20
0.0
 30
0.0
  0
VERTEX
  5
1DFB
  8
3
 10
36.0
 20
26.3385920149999
 30
0.0
  0
VERTEX
  5
1DFC
  8
3
 10
35.86454310429986
 20
25.93271767850001
 30
0.0
  0
VERTEX
  5
1DFD
  8
3
 10
35.47285127350005
 20
25.57082612420004
 30
0.0
  0
VERTEX
  5
1DFE
  8
3
 10
34.86737039529999
 20
25.29213391719986
 30
0.0
  0
VERTEX
  5
1DFF
  8
3
 10
34.11371371790005
 20
25.12684168259989
 30
0.0
  0
VERTEX
  5
1E00
  8
3
 10
33.29355163629998
 20
25.09286139879987
 30
0.0
  0
VERTEX
  5
1E01
  8
3
 10
32.4957614384
 20
25.19387535669989
 30
0.0
  0
VERTEX
  5
1E02
  8
3
 10
31.80679607089996
 20
25.41893712670003
 30
0.0
  0
VERTEX
  5
1E03
  8
3
 10
31.30131562199995
 20
25.74365777369985
 30
0.0
  0
VERTEX
  5
1E04
  8
3
 10
31.03409674149998
 20
26.13284877720002
 30
0.0
  0
VERTEX
  5
1E05
  8
3
 10
31.03409674149998
 20
26.54433525289983
 30
0.0
  0
VERTEX
  5
1E06
  8
3
 10
31.30131562199995
 20
26.93352625629996
 30
0.0
  0
VERTEX
  5
1E07
  8
3
 10
31.80679607089996
 20
27.25824690339982
 30
0.0
  0
VERTEX
  5
1E08
  8
3
 10
32.4957614384
 20
27.48330867329992
 30
0.0
  0
VERTEX
  5
1E09
  8
3
 10
33.29355163629998
 20
27.58432263129998
 30
0.0
  0
VERTEX
  5
1E0A
  8
3
 10
34.11371371790005
 20
27.55034234739992
 30
0.0
  0
VERTEX
  5
1E0B
  8
3
 10
34.86737039529999
 20
27.38505011279995
 30
0.0
  0
VERTEX
  5
1E0C
  8
3
 10
35.47285127350005
 20
27.10635790590004
 30
0.0
  0
VERTEX
  5
1E0D
  8
3
 10
35.86454310429986
 20
26.74446635150002
 30
0.0
  0
VERTEX
  5
1E0E
  8
3
 10
36.0
 20
26.3385920149999
 30
0.0
  0
SEQEND
  5
2162
  8
3
  0
POLYLINE
  5
E17
  8
3
 66
     1
 10
0.0
 20
0.0
 30
0.0
  0
VERTEX
  5
1E0F
  8
3
 10
36.0
 20
26.41663156639993
 30
0.0
  0
VERTEX
  5
1E10
  8
3
 10
35.86454310429986
 20
26.01075722990004
 30
0.0
  0
VERTEX
  5
1E11
  8
3
 10
35.47285127350005
 20
25.64886567550002
 30
0.0
  0
VERTEX
  5
1E12
  8
3
 10
34.86737039529999
 20
25.37017346849984
 30
0.0
  0
VERTEX
  5
1E13
  8
3
 10
34.11371371790005
 20
25.20488123389987
 30
0.0
  0
VERTEX
  5
1E14
  8
3
 10
33.29355163629998
 20
25.17090095009985
 30
0.0
  0
VERTEX
  5
1E15
  8
3
 10
32.4957614384
 20
25.27191490799987
 30
0.0
  0
VERTEX
  5
1E16
  8
3
 10
31.80679607089996
 20
25.49697667800001
 30
0.0
  0
VERTEX
  5
1E17
  8
3
 10
31.30131562199995
 20
25.82169732509988
 30
0.0
  0
VERTEX
  5
1E18
  8
3
 10
31.03409674149998
 20
26.2108883285
 30
0.0
  0
VERTEX
  5
1E19
  8
3
 10
31.03409674149998
 20
26.62237480420004
 30
0.0
  0
VERTEX
  5
1E1A
  8
3
 10
31.30131562199995
 20
27.01156580769998
 30
0.0
  0
VERTEX
  5
1E1B
  8
3
 10
31.80679607089996
 20
27.33628645470003
 30
0.0
  0
VERTEX
  5
1E1C
  8
3
 10
32.4957614384
 20
27.56134822469994
 30
0.0
  0
VERTEX
  5
1E1D
  8
3
 10
33.29355163629998
 20
27.66236218259996
 30
0.0
  0
VERTEX
  5
1E1E
  8
3
 10
34.11371371790005
 20
27.62838189879994
 30
0.0
  0
VERTEX
  5
1E1F
  8
3
 10
34.86737039529999
 20
27.46308966419997
 30
0.0
  0
VERTEX
  5
1E20
  8
3
 10
35.47285127350005
 20
27.18439745720002
 30
0.0
  0
VERTEX
  5
1E21
  8
3
 10
35.86454310429986
 20
26.82250590289982
 30
0.0
  0
VERTEX
  5
1E22
  8
3
 10
36.0
 20
26.41663156639993
 30
0.0
  0
SEQEND
  5
2161
  8
3
  0
POLYLINE
  5
E18
  8
3
 66
     1
 10
0.0
 20
0.0
 30
0.0
  0
VERTEX
  5
1E23
  8
3
 10
35.55500000000006
 20
26.68647846099998
 30
0.0
  0
VERTEX
  5
1E24
  8
3
 10
35.41623043139998
 20
26.31530264899993
 30
0.0
  0
VERTEX
  5
1E25
  8
3
 10
35.01866332489999
 20
25.99425618709984
 30
0.0
  0
VERTEX
  5
1E26
  8
3
 10
34.41599232110002
 20
25.76669817909988
 30
0.0
  0
VERTEX
  5
1E27
  8
3
 10
33.68961147870004
 20
25.66336159479988
 30
0.0
  0
VERTEX
  5
1E28
  8
3
 10
32.93762255539991
 20
25.69820261259997
 30
0.0
  0
VERTEX
  5
1E29
  8
3
 10
32.2615858222
 20
25.86651575999986
 30
0.0
  0
VERTEX
  5
1E2A
  8
3
 10
31.7528037861
 20
26.14556941360001
 30
0.0
  0
VERTEX
  5
1E2B
  8
3
 10
31.4799902801999
 20
26.49767583139987
 30
0.0
  0
VERTEX
  5
1E2C
  8
3
 10
31.4799902801999
 20
26.87528109050004
 30
0.0
  0
VERTEX
  5
1E2D
  8
3
 10
31.7528037861
 20
27.2273875082999
 30
0.0
  0
VERTEX
  5
1E2E
  8
3
 10
32.2615858222
 20
27.50644116199987
 30
0.0
  0
VERTEX
  5
1E2F
  8
3
 10
32.93762255539991
 20
27.67475430939999
 30
0.0
  0
VERTEX
  5
1E30
  8
3
 10
33.68961147870004
 20
27.70959532710003
 30
0.0
  0
VERTEX
  5
1E31
  8
3
 10
34.41599232110002
 20
27.60625874289985
 30
0.0
  0
VERTEX
  5
1E32
  8
3
 10
35.01866332489999
 20
27.37870073479985
 30
0.0
  0
VERTEX
  5
1E33
  8
3
 10
35.41623043139998
 20
27.05765427300003
 30
0.0
  0
VERTEX
  5
1E34
  8
3
 10
35.55500000000006
 20
26.68647846099998
 30
0.0
  0
SEQEND
  5
2160
  8
3
  0
POLYLINE
  5
E19
  8
3
 66
     1
 10
0.0
 20
0.0
 30
0.0
  0
VERTEX
  5
1E35
  8
3
 10
36.0
 20
26.95632535560003
 30
0.0
  0
VERTEX
  5
1E36
  8
3
 10
35.86454310429986
 20
26.55045101909991
 30
0.0
  0
VERTEX
  5
1E37
  8
3
 10
35.47285127350005
 20
26.18855946479994
 30
0.0
  0
VERTEX
  5
1E38
  8
3
 10
34.86737039529999
 20
25.90986725779999
 30
0.0
  0
VERTEX
  5
1E39
  8
3
 10
34.11371371790005
 20
25.74457502320001
 30
0.0
  0
VERTEX
  5
1E3A
  8
3
 10
33.29355163629998
 20
25.71059473939999
 30
0.0
  0
VERTEX
  5
1E3B
  8
3
 10
32.4957614384
 20
25.81160869730002
 30
0.0
  0
VERTEX
  5
1E3C
  8
3
 10
31.80679607089996
 20
26.03667046729993
 30
0.0
  0
VERTEX
  5
1E3D
  8
3
 10
31.30131562199995
 20
26.36139111429998
 30
0.0
  0
VERTEX
  5
1E3E
  8
3
 10
31.03409674149998
 20
26.75058211779992
 30
0.0
  0
VERTEX
  5
1E3F
  8
3
 10
31.03409674149998
 20
27.16206859349995
 30
0.0
  0
VERTEX
  5
1E40
  8
3
 10
31.30131562199995
 20
27.55125959689985
 30
0.0
  0
VERTEX
  5
1E41
  8
3
 10
31.80679607089996
 20
27.87598024399995
 30
0.0
  0
VERTEX
  5
1E42
  8
3
 10
32.4957614384
 20
28.10104201390004
 30
0.0
  0
VERTEX
  5
1E43
  8
3
 10
33.29355163629998
 20
28.20205597189988
 30
0.0
  0
VERTEX
  5
1E44
  8
3
 10
34.11371371790005
 20
28.16807568800004
 30
0.0
  0
VERTEX
  5
1E45
  8
3
 10
34.86737039529999
 20
28.00278345339984
 30
0.0
  0
VERTEX
  5
1E46
  8
3
 10
35.47285127350005
 20
27.72409124649994
 30
0.0
  0
VERTEX
  5
1E47
  8
3
 10
35.86454310429986
 20
27.36219969209992
 30
0.0
  0
VERTEX
  5
1E48
  8
3
 10
36.0
 20
26.95632535560003
 30
0.0
  0
SEQEND
  5
215F
  8
3
  0
POLYLINE
  5
E1A
  8
3
 66
     1
 10
0.0
 20
0.0
 30
0.0
  0
VERTEX
  5
1E49
  8
3
 10
36.0
 20
27.03436490699983
 30
0.0
  0
VERTEX
  5
1E4A
  8
3
 10
35.86454310429986
 20
26.62849057049993
 30
0.0
  0
VERTEX
  5
1E4B
  8
3
 10
35.47285127350005
 20
26.26659901609992
 30
0.0
  0
VERTEX
  5
1E4C
  8
3
 10
34.86737039529999
 20
25.98790680909997
 30
0.0
  0
VERTEX
  5
1E4D
  8
3
 10
34.11371371790005
 20
25.82261457449999
 30
0.0
  0
VERTEX
  5
1E4E
  8
3
 10
33.29355163629998
 20
25.78863429069997
 30
0.0
  0
VERTEX
  5
1E4F
  8
3
 10
32.4957614384
 20
25.88964824870004
 30
0.0
  0
VERTEX
  5
1E50
  8
3
 10
31.80679607089996
 20
26.11471001859991
 30
0.0
  0
VERTEX
  5
1E51
  8
3
 10
31.30131562199995
 20
26.4394306657
 30
0.0
  0
VERTEX
  5
1E52
  8
3
 10
31.03409674149998
 20
26.8286216690999
 30
0.0
  0
VERTEX
  5
1E53
  8
3
 10
31.03409674149998
 20
27.24010814479993
 30
0.0
  0
VERTEX
  5
1E54
  8
3
 10
31.30131562199995
 20
27.62929914829988
 30
0.0
  0
VERTEX
  5
1E55
  8
3
 10
31.80679607089996
 20
27.95401979529993
 30
0.0
  0
VERTEX
  5
1E56
  8
3
 10
32.4957614384
 20
28.17908156529984
 30
0.0
  0
VERTEX
  5
1E57
  8
3
 10
33.29355163629998
 20
28.28009552319986
 30
0.0
  0
VERTEX
  5
1E58
  8
3
 10
34.11371371790005
 20
28.24611523939984
 30
0.0
  0
VERTEX
  5
1E59
  8
3
 10
34.86737039529999
 20
28.08082300479987
 30
0.0
  0
VERTEX
  5
1E5A
  8
3
 10
35.47285127350005
 20
27.80213079779992
 30
0.0
  0
VERTEX
  5
1E5B
  8
3
 10
35.86454310429986
 20
27.44023924349995
 30
0.0
  0
VERTEX
  5
1E5C
  8
3
 10
36.0
 20
27.03436490699983
 30
0.0
  0
SEQEND
  5
215E
  8
3
  0
POLYLINE
  5
E1B
  8
3
 66
     1
 10
0.0
 20
0.0
 30
0.0
  0
VERTEX
  5
1E5D
  8
3
 10
35.55500000000006
 20
27.30421180159988
 30
0.0
  0
VERTEX
  5
1E5E
  8
3
 10
35.41623043139998
 20
26.93303598959983
 30
0.0
  0
VERTEX
  5
1E5F
  8
3
 10
35.01866332489999
 20
26.61198952780001
 30
0.0
  0
VERTEX
  5
1E60
  8
3
 10
34.41599232110002
 20
26.3844315197
 30
0.0
  0
VERTEX
  5
1E61
  8
3
 10
33.68961147870004
 20
26.28109493549982
 30
0.0
  0
VERTEX
  5
1E62
  8
3
 10
32.93762255539991
 20
26.31593595319987
 30
0.0
  0
VERTEX
  5
1E63
  8
3
 10
32.26158582230005
 20
26.48424910059998
 30
0.0
  0
VERTEX
  5
1E64
  8
3
 10
31.7528037861
 20
26.76330275419991
 30
0.0
  0
VERTEX
  5
1E65
  8
3
 10
31.4799902801999
 20
27.115409172
 30
0.0
  0
VERTEX
  5
1E66
  8
3
 10
31.4799902801999
 20
27.49301443119998
 30
0.0
  0
VERTEX
  5
1E67
  8
3
 10
31.7528037861
 20
27.84512084899984
 30
0.0
  0
VERTEX
  5
1E68
  8
3
 10
32.26158582230005
 20
28.1241745026
 30
0.0
  0
VERTEX
  5
1E69
  8
3
 10
32.93762255539991
 20
28.29248764999988
 30
0.0
  0
VERTEX
  5
1E6A
  8
3
 10
33.68961147870004
 20
28.32732866769993
 30
0.0
  0
VERTEX
  5
1E6B
  8
3
 10
34.41599232110002
 20
28.22399208349998
 30
0.0
  0
VERTEX
  5
1E6C
  8
3
 10
35.01866332489999
 20
27.99643407539997
 30
0.0
  0
VERTEX
  5
1E6D
  8
3
 10
35.41623043139998
 20
27.67538761359992
 30
0.0
  0
VERTEX
  5
1E6E
  8
3
 10
35.55500000000006
 20
27.30421180159988
 30
0.0
  0
SEQEND
  5
215D
  8
3
  0
POLYLINE
  5
E1C
  8
3
 66
     1
 10
0.0
 20
0.0
 30
0.0
  0
VERTEX
  5
1E6F
  8
3
 10
36.0
 20
27.57405869619993
 30
0.0
  0
VERTEX
  5
1E70
  8
3
 10
35.86454310429986
 20
27.16818435970004
 30
0.0
  0
VERTEX
  5
1E71
  8
3
 10
35.47285127350005
 20
26.80629280539983
 30
0.0
  0
VERTEX
  5
1E72
  8
3
 10
34.86737039529999
 20
26.52760059839989
 30
0.0
  0
VERTEX
  5
1E73
  8
3
 10
34.11371371790005
 20
26.36230836379991
 30
0.0
  0
VERTEX
  5
1E74
  8
3
 10
33.29355163629998
 20
26.32832807999989
 30
0.0
  0
VERTEX
  5
1E75
  8
3
 10
32.4957614384
 20
26.42934203789991
 30
0.0
  0
VERTEX
  5
1E76
  8
3
 10
31.80679607100001
 20
26.65440380789983
 30
0.0
  0
VERTEX
  5
1E77
  8
3
 10
31.30131562199995
 20
26.97912445489987
 30
0.0
  0
VERTEX
  5
1E78
  8
3
 10
31.03409674149998
 20
27.36831545839982
 30
0.0
  0
VERTEX
  5
1E79
  8
3
 10
31.03409674149998
 20
27.77980193409985
 30
0.0
  0
VERTEX
  5
1E7A
  8
3
 10
31.30131562199995
 20
28.16899293749998
 30
0.0
  0
VERTEX
  5
1E7B
  8
3
 10
31.80679607100001
 20
28.49371358459985
 30
0.0
  0
VERTEX
  5
1E7C
  8
3
 10
32.4957614384
 20
28.71877535449994
 30
0.0
  0
VERTEX
  5
1E7D
  8
3
 10
33.29355163629998
 20
28.81978931250001
 30
0.0
  0
VERTEX
  5
1E7E
  8
3
 10
34.11371371790005
 20
28.78580902859994
 30
0.0
  0
VERTEX
  5
1E7F
  8
3
 10
34.86737039529999
 20
28.62051679410001
 30
0.0
  0
VERTEX
  5
1E80
  8
3
 10
35.47285127350005
 20
28.34182458709984
 30
0.0
  0
VERTEX
  5
1E81
  8
3
 10
35.86454310429986
 20
27.97993303269982
 30
0.0
  0
VERTEX
  5
1E82
  8
3
 10
36.0
 20
27.57405869619993
 30
0.0
  0
SEQEND
  5
215C
  8
3
  0
POLYLINE
  5
E1D
  8
3
 66
     1
 10
0.0
 20
0.0
 30
0.0
  0
VERTEX
  5
1E83
  8
3
 10
36.0
 20
27.65209824759995
 30
0.0
  0
VERTEX
  5
1E84
  8
3
 10
35.86454310429986
 20
27.24622391109983
 30
0.0
  0
VERTEX
  5
1E85
  8
3
 10
35.47285127350005
 20
26.88433235670004
 30
0.0
  0
VERTEX
  5
1E86
  8
3
 10
34.86737039529999
 20
26.60564014969987
 30
0.0
  0
VERTEX
  5
1E87
  8
3
 10
34.11371371790005
 20
26.44034791519994
 30
0.0
  0
VERTEX
  5
1E88
  8
3
 10
33.29355163629998
 20
26.40636763129987
 30
0.0
  0
VERTEX
  5
1E89
  8
3
 10
32.4957614384
 20
26.50738158929994
 30
0.0
  0
VERTEX
  5
1E8A
  8
3
 10
31.80679607100001
 20
26.73244335920003
 30
0.0
  0
VERTEX
  5
1E8B
  8
3
 10
31.30131562199995
 20
27.0571640062999
 30
0.0
  0
VERTEX
  5
1E8C
  8
3
 10
31.03409674149998
 20
27.44635500970003
 30
0.0
  0
VERTEX
  5
1E8D
  8
3
 10
31.03409674149998
 20
27.85784148539983
 30
0.0
  0
VERTEX
  5
1E8E
  8
3
 10
31.30131562199995
 20
28.2470324889
 30
0.0
  0
VERTEX
  5
1E8F
  8
3
 10
31.80679607100001
 20
28.57175313589983
 30
0.0
  0
VERTEX
  5
1E90
  8
3
 10
32.4957614384
 20
28.79681490589996
 30
0.0
  0
VERTEX
  5
1E91
  8
3
 10
33.29355163629998
 20
28.89782886379999
 30
0.0
  0
VERTEX
  5
1E92
  8
3
 10
34.11371371790005
 20
28.86384857999997
 30
0.0
  0
VERTEX
  5
1E93
  8
3
 10
34.86737039529999
 20
28.69855634539999
 30
0.0
  0
VERTEX
  5
1E94
  8
3
 10
35.47285127350005
 20
28.41986413840004
 30
0.0
  0
VERTEX
  5
1E95
  8
3
 10
35.86454310429986
 20
28.05797258409984
 30
0.0
  0
VERTEX
  5
1E96
  8
3
 10
36.0
 20
27.65209824759995
 30
0.0
  0
SEQEND
  5
215B
  8
3
  0
POLYLINE
  5
E1E
  8
3
 66
     1
 10
0.0
 20
0.0
 30
0.0
  0
VERTEX
  5
1E97
  8
3
 10
35.55500000000006
 20
27.9219451422
 30
0.0
  0
VERTEX
  5
1E98
  8
3
 10
35.41623043139998
 20
27.55076933019996
 30
0.0
  0
VERTEX
  5
1E99
  8
3
 10
35.01866332489999
 20
27.2297228683999
 30
0.0
  0
VERTEX
  5
1E9A
  8
3
 10
34.41599232110002
 20
27.0021648602999
 30
0.0
  0
VERTEX
  5
1E9B
  8
3
 10
33.68961147870004
 20
26.89882827609995
 30
0.0
  0
VERTEX
  5
1E9C
  8
3
 10
32.93762255539991
 20
26.93366929379999
 30
0.0
  0
VERTEX
  5
1E9D
  8
3
 10
32.26158582230005
 20
27.10198244119988
 30
0.0
  0
VERTEX
  5
1E9E
  8
3
 10
31.7528037861
 20
27.38103609480004
 30
0.0
  0
VERTEX
  5
1E9F
  8
3
 10
31.4799902801999
 20
27.7331425125999
 30
0.0
  0
VERTEX
  5
1EA0
  8
3
 10
31.4799902801999
 20
28.11074777179988
 30
0.0
  0
VERTEX
  5
1EA1
  8
3
 10
31.7528037861
 20
28.46285418959997
 30
0.0
  0
VERTEX
  5
1EA2
  8
3
 10
32.26158582230005
 20
28.7419078431999
 30
0.0
  0
VERTEX
  5
1EA3
  8
3
 10
32.93762255539991
 20
28.91022099060001
 30
0.0
  0
VERTEX
  5
1EA4
  8
3
 10
33.68961147870004
 20
28.94506200829983
 30
0.0
  0
VERTEX
  5
1EA5
  8
3
 10
34.41599232110002
 20
28.84172542409988
 30
0.0
  0
VERTEX
  5
1EA6
  8
3
 10
35.01866332489999
 20
28.61416741599987
 30
0.0
  0
VERTEX
  5
1EA7
  8
3
 10
35.41623043139998
 20
28.29312095419982
 30
0.0
  0
VERTEX
  5
1EA8
  8
3
 10
35.55500000000006
 20
27.9219451422
 30
0.0
  0
SEQEND
  5
215A
  8
3
  0
POLYLINE
  5
E1F
  8
3
 66
     1
 10
0.0
 20
0.0
 30
0.0
  0
VERTEX
  5
1EA9
  8
3
 10
36.0
 20
28.19179203679982
 30
0.0
  0
VERTEX
  5
1EAA
  8
3
 10
35.86454310429986
 20
27.78591770029993
 30
0.0
  0
VERTEX
  5
1EAB
  8
3
 10
35.47285127350005
 20
27.42402614599996
 30
0.0
  0
VERTEX
  5
1EAC
  8
3
 10
34.86737039529999
 20
27.14533393900001
 30
0.0
  0
VERTEX
  5
1EAD
  8
3
 10
34.11371371790005
 20
26.98004170440004
 30
0.0
  0
VERTEX
  5
1EAE
  8
3
 10
33.29355163629998
 20
26.94606142060002
 30
0.0
  0
VERTEX
  5
1EAF
  8
3
 10
32.4957614384
 20
27.04707537850004
 30
0.0
  0
VERTEX
  5
1EB0
  8
3
 10
31.80679607100001
 20
27.27213714849995
 30
0.0
  0
VERTEX
  5
1EB1
  8
3
 10
31.30131562199995
 20
27.5968577955
 30
0.0
  0
VERTEX
  5
1EB2
  8
3
 10
31.03409674149998
 20
27.98604879899995
 30
0.0
  0
VERTEX
  5
1EB3
  8
3
 10
31.03409674149998
 20
28.39753527469998
 30
0.0
  0
VERTEX
  5
1EB4
  8
3
 10
31.30131562199995
 20
28.78672627809988
 30
0.0
  0
VERTEX
  5
1EB5
  8
3
 10
31.80679607100001
 20
29.11144692519997
 30
0.0
  0
VERTEX
  5
1EB6
  8
3
 10
32.4957614384
 20
29.33650869509984
 30
0.0
  0
VERTEX
  5
1EB7
  8
3
 10
33.29355163629998
 20
29.4375226530999
 30
0.0
  0
VERTEX
  5
1EB8
  8
3
 10
34.11371371790005
 20
29.40354236929988
 30
0.0
  0
VERTEX
  5
1EB9
  8
3
 10
34.86737039529999
 20
29.23825013469991
 30
0.0
  0
VERTEX
  5
1EBA
  8
3
 10
35.47285127350005
 20
28.95955792769996
 30
0.0
  0
VERTEX
  5
1EBB
  8
3
 10
35.86454310429986
 20
28.59766637329994
 30
0.0
  0
VERTEX
  5
1EBC
  8
3
 10
36.0
 20
28.19179203679982
 30
0.0
  0
SEQEND
  5
2159
  8
3
  0
POLYLINE
  5
E20
  8
3
 66
     1
 10
0.0
 20
0.0
 30
0.0
  0
VERTEX
  5
1EBD
  8
3
 10
36.0
 20
28.26983158819985
 30
0.0
  0
VERTEX
  5
1EBE
  8
3
 10
35.86454310429986
 20
27.86395725169996
 30
0.0
  0
VERTEX
  5
1EBF
  8
3
 10
35.47285127350005
 20
27.50206569729994
 30
0.0
  0
VERTEX
  5
1EC0
  8
3
 10
34.86737039529999
 20
27.22337349040004
 30
0.0
  0
VERTEX
  5
1EC1
  8
3
 10
34.11371371790005
 20
27.05808125579983
 30
0.0
  0
VERTEX
  5
1EC2
  8
3
 10
33.29355163629998
 20
27.0241009719
 30
0.0
  0
VERTEX
  5
1EC3
  8
3
 10
32.4957614384
 20
27.12511492989984
 30
0.0
  0
VERTEX
  5
1EC4
  8
3
 10
31.80679607100001
 20
27.35017669979993
 30
0.0
  0
VERTEX
  5
1EC5
  8
3
 10
31.30131562199995
 20
27.67489734690002
 30
0.0
  0
VERTEX
  5
1EC6
  8
3
 10
31.03409674149998
 20
28.06408835029993
 30
0.0
  0
VERTEX
  5
1EC7
  8
3
 10
31.03409674149998
 20
28.47557482599996
 30
0.0
  0
VERTEX
  5
1EC8
  8
3
 10
31.30131562199995
 20
28.8647658294999
 30
0.0
  0
VERTEX
  5
1EC9
  8
3
 10
31.80679607100001
 20
29.18948647649995
 30
0.0
  0
VERTEX
  5
1ECA
  8
3
 10
32.4957614384
 20
29.41454824649986
 30
0.0
  0
VERTEX
  5
1ECB
  8
3
 10
33.29355163629998
 20
29.51556220439988
 30
0.0
  0
VERTEX
  5
1ECC
  8
3
 10
34.11371371790005
 20
29.48158192059987
 30
0.0
  0
VERTEX
  5
1ECD
  8
3
 10
34.86737039529999
 20
29.31628968599989
 30
0.0
  0
VERTEX
  5
1ECE
  8
3
 10
35.47285127350005
 20
29.03759747899994
 30
0.0
  0
VERTEX
  5
1ECF
  8
3
 10
35.86454310429986
 20
28.67570592469997
 30
0.0
  0
VERTEX
  5
1ED0
  8
3
 10
36.0
 20
28.26983158819985
 30
0.0
  0
SEQEND
  5
2158
  8
3
  0
POLYLINE
  5
E21
  8
3
 66
     1
 10
0.0
 20
0.0
 30
0.0
  0
VERTEX
  5
1ED1
  8
3
 10
35.55500000000006
 20
28.5396784827999
 30
0.0
  0
VERTEX
  5
1ED2
  8
3
 10
35.41623043139998
 20
28.16850267079985
 30
0.0
  0
VERTEX
  5
1ED3
  8
3
 10
35.01866332489999
 20
27.84745620900003
 30
0.0
  0
VERTEX
  5
1ED4
  8
3
 10
34.41599232110002
 20
27.61989820090002
 30
0.0
  0
VERTEX
  5
1ED5
  8
3
 10
33.68961147870004
 20
27.51656161669985
 30
0.0
  0
VERTEX
  5
1ED6
  8
3
 10
32.93762255539991
 20
27.55140263439989
 30
0.0
  0
VERTEX
  5
1ED7
  8
3
 10
32.26158582230005
 20
27.71971578180001
 30
0.0
  0
VERTEX
  5
1ED8
  8
3
 10
31.7528037861
 20
27.99876943549998
 30
0.0
  0
VERTEX
  5
1ED9
  8
3
 10
31.4799902801999
 20
28.35087585329984
 30
0.0
  0
VERTEX
  5
1EDA
  8
3
 10
31.4799902801999
 20
28.7284811124
 30
0.0
  0
VERTEX
  5
1EDB
  8
3
 10
31.7528037861
 20
29.08058753019986
 30
0.0
  0
VERTEX
  5
1EDC
  8
3
 10
32.26158582230005
 20
29.35964118380002
 30
0.0
  0
VERTEX
  5
1EDD
  8
3
 10
32.93762255539991
 20
29.52795433119991
 30
0.0
  0
VERTEX
  5
1EDE
  8
3
 10
33.68961147870004
 20
29.562795349
 30
0.0
  0
VERTEX
  5
1EDF
  8
3
 10
34.41599232110002
 20
29.4594587647
 30
0.0
  0
VERTEX
  5
1EE0
  8
3
 10
35.01866332489999
 20
29.23190075670004
 30
0.0
  0
VERTEX
  5
1EE1
  8
3
 10
35.41623043139998
 20
28.91085429479995
 30
0.0
  0
VERTEX
  5
1EE2
  8
3
 10
35.55500000000006
 20
28.5396784827999
 30
0.0
  0
SEQEND
  5
2157
  8
3
  0
POLYLINE
  5
E22
  8
3
 66
     1
 10
0.0
 20
0.0
 30
0.0
  0
VERTEX
  5
1EE3
  8
3
 10
36.0
 20
28.80952537739995
 30
0.0
  0
VERTEX
  5
1EE4
  8
3
 10
35.86454310429986
 20
28.40365104089983
 30
0.0
  0
VERTEX
  5
1EE5
  8
3
 10
35.47285127350005
 20
28.04175948659986
 30
0.0
  0
VERTEX
  5
1EE6
  8
3
 10
34.86737039529999
 20
27.76306727959991
 30
0.0
  0
VERTEX
  5
1EE7
  8
3
 10
34.11371371790005
 20
27.59777504499993
 30
0.0
  0
VERTEX
  5
1EE8
  8
3
 10
33.29355163629998
 20
27.56379476119992
 30
0.0
  0
VERTEX
  5
1EE9
  8
3
 10
32.4957614384
 20
27.66480871909994
 30
0.0
  0
VERTEX
  5
1EEA
  8
3
 10
31.80679607100001
 20
27.88987048909985
 30
0.0
  0
VERTEX
  5
1EEB
  8
3
 10
31.30131562199995
 20
28.2145911360999
 30
0.0
  0
VERTEX
  5
1EEC
  8
3
 10
31.03409674149998
 20
28.60378213959984
 30
0.0
  0
VERTEX
  5
1EED
  8
3
 10
31.03409674149998
 20
29.01526861529987
 30
0.0
  0
VERTEX
  5
1EEE
  8
3
 10
31.30131562199995
 20
29.4044596187
 30
0.0
  0
VERTEX
  5
1EEF
  8
3
 10
31.80679607100001
 20
29.72918026579987
 30
0.0
  0
VERTEX
  5
1EF0
  8
3
 10
32.4957614384
 20
29.95424203580001
 30
0.0
  0
VERTEX
  5
1EF1
  8
3
 10
33.29355163629998
 20
30.05525599370003
 30
0.0
  0
VERTEX
  5
1EF2
  8
3
 10
34.11371371790005
 20
30.02127570990001
 30
0.0
  0
VERTEX
  5
1EF3
  8
3
 10
34.86737039529999
 20
29.85598347530004
 30
0.0
  0
VERTEX
  5
1EF4
  8
3
 10
35.47285127350005
 20
29.57729126829986
 30
0.0
  0
VERTEX
  5
1EF5
  8
3
 10
35.86454310429986
 20
29.21539971389984
 30
0.0
  0
VERTEX
  5
1EF6
  8
3
 10
36.0
 20
28.80952537739995
 30
0.0
  0
SEQEND
  5
2156
  8
3
  0
LINE
  5
E23
  8
3
 10
33.5
 20
27.76333106969992
 30
0.0
 11
33.5
 21
30.10159965989988
 31
0.0
  0
LINE
  5
E24
  8
3
 10
34.75
 20
27.40248715140001
 30
0.0
 11
33.5
 21
27.76333106969992
 31
0.0
  0
LINE
  5
E25
  8
3
 10
32.25
 20
27.40248715140001
 30
0.0
 11
33.5
 21
27.76333106969992
 31
0.0
  0
POLYLINE
  5
E26
  8
3
 66
     1
 10
0.0
 20
0.0
 30
0.0
  0
VERTEX
  5
1EF7
  8
3
 10
36.0
 20
28.88756492879997
 30
0.0
  0
VERTEX
  5
1EF8
  8
3
 10
35.86454310429986
 20
28.48169059229986
 30
0.0
  0
VERTEX
  5
1EF9
  8
3
 10
35.47285127350005
 20
28.11979903789984
 30
0.0
  0
VERTEX
  5
1EFA
  8
3
 10
34.86737039529999
 20
27.84110683099993
 30
0.0
  0
VERTEX
  5
1EFB
  8
3
 10
34.11371371790005
 20
27.67581459639996
 30
0.0
  0
VERTEX
  5
1EFC
  8
3
 10
33.29355163629998
 20
27.6418343124999
 30
0.0
  0
VERTEX
  5
1EFD
  8
3
 10
32.4957614384
 20
27.74284827049996
 30
0.0
  0
VERTEX
  5
1EFE
  8
3
 10
31.80679607100001
 20
27.96791004039983
 30
0.0
  0
VERTEX
  5
1EFF
  8
3
 10
31.30131562199995
 20
28.29263068749992
 30
0.0
  0
VERTEX
  5
1F00
  8
3
 10
31.03409674149998
 20
28.68182169089982
 30
0.0
  0
VERTEX
  5
1F01
  8
3
 10
31.03409674149998
 20
29.09330816659985
 30
0.0
  0
VERTEX
  5
1F02
  8
3
 10
31.30131562199995
 20
29.48249917010003
 30
0.0
  0
VERTEX
  5
1F03
  8
3
 10
31.80679607100001
 20
29.80721981709985
 30
0.0
  0
VERTEX
  5
1F04
  8
3
 10
32.4957614384
 20
30.03228158709999
 30
0.0
  0
VERTEX
  5
1F05
  8
3
 10
33.29355163629998
 20
30.13329554500001
 30
0.0
  0
VERTEX
  5
1F06
  8
3
 10
34.11371371790005
 20
30.09931526119999
 30
0.0
  0
VERTEX
  5
1F07
  8
3
 10
34.86737039529999
 20
29.93402302660002
 30
0.0
  0
VERTEX
  5
1F08
  8
3
 10
35.47285127350005
 20
29.65533081959984
 30
0.0
  0
VERTEX
  5
1F09
  8
3
 10
35.86454310429986
 20
29.29343926529987
 30
0.0
  0
VERTEX
  5
1F0A
  8
3
 10
36.0
 20
28.88756492879997
 30
0.0
  0
SEQEND
  5
2155
  8
3
  0
POLYLINE
  5
E27
  8
3
 66
     1
 10
0.0
 20
0.0
 30
0.0
  0
VERTEX
  5
1F0B
  8
3
 10
35.55500000000006
 20
29.15741182340003
 30
0.0
  0
VERTEX
  5
1F0C
  8
3
 10
35.41623043150003
 20
28.78623601139998
 30
0.0
  0
VERTEX
  5
1F0D
  8
3
 10
35.01866332489999
 20
28.46518954959993
 30
0.0
  0
VERTEX
  5
1F0E
  8
3
 10
34.41599232110002
 20
28.23763154149992
 30
0.0
  0
VERTEX
  5
1F0F
  8
3
 10
33.68961147870004
 20
28.13429495729997
 30
0.0
  0
VERTEX
  5
1F10
  8
3
 10
32.93762255539991
 20
28.16913597509983
 30
0.0
  0
VERTEX
  5
1F11
  8
3
 10
32.26158582230005
 20
28.3374491223999
 30
0.0
  0
VERTEX
  5
1F12
  8
3
 10
31.7528037861
 20
28.61650277609988
 30
0.0
  0
VERTEX
  5
1F13
  8
3
 10
31.4799902801999
 20
28.96860919389997
 30
0.0
  0
VERTEX
  5
1F14
  8
3
 10
31.4799902801999
 20
29.3462144529999
 30
0.0
  0
VERTEX
  5
1F15
  8
3
 10
31.7528037861
 20
29.69832087079999
 30
0.0
  0
VERTEX
  5
1F16
  8
3
 10
32.26158582230005
 20
29.97737452439992
 30
0.0
  0
VERTEX
  5
1F17
  8
3
 10
32.93762255539991
 20
30.14568767180003
 30
0.0
  0
VERTEX
  5
1F18
  8
3
 10
33.68961147870004
 20
30.1805286895999
 30
0.0
  0
VERTEX
  5
1F19
  8
3
 10
34.41599232110002
 20
30.0771921052999
 30
0.0
  0
VERTEX
  5
1F1A
  8
3
 10
35.01866332489999
 20
29.84963409729994
 30
0.0
  0
VERTEX
  5
1F1B
  8
3
 10
35.41623043150003
 20
29.52858763539984
 30
0.0
  0
VERTEX
  5
1F1C
  8
3
 10
35.55500000000006
 20
29.15741182340003
 30
0.0
  0
SEQEND
  5
2154
  8
3
  0
POLYLINE
  5
E28
  8
3
 66
     1
 10
0.0
 20
0.0
 30
0.0
  0
VERTEX
  5
1F1D
  8
3
 10
35.75610312689992
 20
29.27936025999998
 30
0.0
  0
VERTEX
  5
1F1E
  8
3
 10
35.62004346009985
 20
29.66517661739999
 30
0.0
  0
VERTEX
  5
1F1F
  8
3
 10
35.22827526340006
 20
30.00445782799989
 30
0.0
  0
VERTEX
  5
1F20
  8
3
 10
34.62805156340005
 20
30.25628157069991
 30
0.0
  0
VERTEX
  5
1F21
  8
3
 10
33.89176819659997
 20
30.3902741853999
 30
0.0
  0
VERTEX
  5
1F22
  8
3
 10
33.10823180340003
 20
30.3902741853999
 30
0.0
  0
VERTEX
  5
1F23
  8
3
 10
32.37194843659995
 20
30.25628157069991
 30
0.0
  0
VERTEX
  5
1F24
  8
3
 10
31.77172473659994
 20
30.00445782799989
 30
0.0
  0
VERTEX
  5
1F25
  8
3
 10
31.37995653999997
 20
29.66517661739999
 30
0.0
  0
VERTEX
  5
1F26
  8
3
 10
31.2438968731999
 20
29.27936025999998
 30
0.0
  0
VERTEX
  5
1F27
  8
3
 10
31.37995653999997
 20
28.89354390259996
 30
0.0
  0
VERTEX
  5
1F28
  8
3
 10
31.77172473659994
 20
28.55426269190002
 30
0.0
  0
VERTEX
  5
1F29
  8
3
 10
32.37194843659995
 20
28.30243894930004
 30
0.0
  0
VERTEX
  5
1F2A
  8
3
 10
33.10823180340003
 20
28.1684463345
 30
0.0
  0
VERTEX
  5
1F2B
  8
3
 10
33.89176819659997
 20
28.1684463345
 30
0.0
  0
VERTEX
  5
1F2C
  8
3
 10
34.62805156340005
 20
28.30243894930004
 30
0.0
  0
VERTEX
  5
1F2D
  8
3
 10
35.22827526340006
 20
28.55426269190002
 30
0.0
  0
VERTEX
  5
1F2E
  8
3
 10
35.62004346009985
 20
28.89354390259996
 30
0.0
  0
VERTEX
  5
1F2F
  8
3
 10
35.75610312689992
 20
29.27936025999998
 30
0.0
  0
SEQEND
  5
2153
  8
3
  0
LINE
  5
E29
  8
3
 10
32.25
 20
26.68079931490001
 30
0.0
 11
32.25
 21
27.40248715140001
 31
0.0
  0
LINE
  5
E2A
  8
3
 10
32.25
 20
27.40248715140001
 30
0.0
 11
32.25
 21
29.74075574170001
 31
0.0
  0
LINE
  5
E2B
  8
3
 10
34.75
 20
26.68079931499983
 30
0.0
 11
34.75
 21
27.40248715140001
 31
0.0
  0
LINE
  5
E2C
  8
3
 10
34.75
 20
27.40248715140001
 30
0.0
 11
34.75
 21
29.74075574170001
 31
0.0
  0
POLYLINE
  5
E2D
  8
3
 66
     1
 10
0.0
 20
0.0
 30
0.0
  0
VERTEX
  5
1F30
  8
3
 10
33.5
 20
28.35241182339996
 30
0.0
  0
VERTEX
  5
1F31
  8
3
 10
32.75764837599991
 20
28.42179660769989
 30
0.0
  0
VERTEX
  5
1F32
  8
3
 10
32.11555545229999
 20
28.62058016099991
 30
0.0
  0
VERTEX
  5
1F33
  8
3
 10
31.66043943630007
 20
28.92191566289989
 30
0.0
  0
VERTEX
  5
1F34
  8
3
 10
31.45376626769985
 20
29.28510608409988
 30
0.0
  0
VERTEX
  5
1F35
  8
3
 10
31.52344830330003
 20
29.66110054570004
 30
0.0
  0
VERTEX
  5
1F36
  8
3
 10
31.86007459799998
 20
29.99911891229999
 30
0.0
  0
VERTEX
  5
1F37
  8
3
 10
32.41818190529989
 20
30.25350993040001
 30
0.0
  0
VERTEX
  5
1F38
  8
3
 10
33.12239474090006
 20
30.38991668330004
 30
0.0
  0
VERTEX
  5
1F39
  8
3
 10
33.87760525909994
 20
30.38991668330004
 30
0.0
  0
VERTEX
  5
1F3A
  8
3
 10
34.58181809469988
 20
30.25350993040001
 30
0.0
  0
VERTEX
  5
1F3B
  8
3
 10
35.13992540210006
 20
29.99911891229999
 30
0.0
  0
VERTEX
  5
1F3C
  8
3
 10
35.47655169669997
 20
29.66110054570004
 30
0.0
  0
VERTEX
  5
1F3D
  8
3
 10
35.54623373229992
 20
29.28510608409988
 30
0.0
  0
VERTEX
  5
1F3E
  8
3
 10
35.33956056379998
 20
28.92191566289989
 30
0.0
  0
VERTEX
  5
1F3F
  8
3
 10
34.88444454770001
 20
28.62058016099991
 30
0.0
  0
VERTEX
  5
1F40
  8
3
 10
34.24235162399987
 20
28.42179660769989
 30
0.0
  0
VERTEX
  5
1F41
  8
3
 10
33.5
 20
28.35241182339996
 30
0.0
  0
SEQEND
  5
2152
  8
3
  0
LINE
  5
E2E
  8
3
 10
34.75
 20
29.74075574170001
 30
0.0
 11
33.5
 21
30.10159965989988
 31
0.0
  0
LINE
  5
E2F
  8
3
 10
32.25
 20
29.74075574170001
 30
0.0
 11
33.5
 21
30.10159965989988
 31
0.0
  0
LINE
  5
E30
  8
3
 10
33.5
 20
26.31995539669992
 30
0.0
 11
33.5
 21
27.76333106969992
 31
0.0
  0
LINE
  5
E31
  8
3
 10
32.25
 20
29.01906790520002
 30
0.0
 11
33.5
 21
28.65822398689988
 31
0.0
  0
LINE
  5
E32
  8
3
 10
32.25
 20
26.68079931490001
 30
0.0
 11
33.5
 21
26.31995539669992
 31
0.0
  0
LINE
  5
E33
  8
3
 10
34.75
 20
29.01906790520002
 30
0.0
 11
33.5
 21
28.65822398689988
 31
0.0
  0
LINE
  5
E34
  8
3
 10
34.75
 20
26.68079931499983
 30
0.0
 11
33.5
 21
26.31995539669992
 31
0.0
  0
POLYLINE
  5
E35
  8
3
 66
     1
 10
0.0
 20
0.0
 30
0.0
  0
VERTEX
  5
1F42
  8
3
 10
33.5
 20
-25.05875940069996
 30
0.0
  0
VERTEX
  5
1F43
  8
3
 10
32.83030399339987
 20
-24.99215399160016
 30
0.0
  0
VERTEX
  5
1F44
  8
3
 10
32.26256313289991
 20
-24.80247783420009
 30
0.0
  0
VERTEX
  5
1F45
  8
3
 10
31.8832108181
 20
-24.51860740400002
 30
0.0
  0
VERTEX
  5
1F46
  8
3
 10
31.75
 20
-24.18375940069996
 30
0.0
  0
VERTEX
  5
1F47
  8
3
 10
31.8832108181
 20
-23.84891139730007
 30
0.0
  0
VERTEX
  5
1F48
  8
3
 10
32.26256313289991
 20
-23.5650409671
 30
0.0
  0
VERTEX
  5
1F49
  8
3
 10
32.83030399339987
 20
-23.37536480970016
 30
0.0
  0
VERTEX
  5
1F4A
  8
3
 10
33.5
 20
-23.30875940069996
 30
0.0
  0
VERTEX
  5
1F4B
  8
3
 10
34.16969600659991
 20
-23.37536480970016
 30
0.0
  0
VERTEX
  5
1F4C
  8
3
 10
34.73743686709986
 20
-23.5650409671
 30
0.0
  0
VERTEX
  5
1F4D
  8
3
 10
35.1167891819
 20
-23.84891139730007
 30
0.0
  0
VERTEX
  5
1F4E
  8
3
 10
35.25
 20
-24.18375940069996
 30
0.0
  0
VERTEX
  5
1F4F
  8
3
 10
35.1167891819
 20
-24.51860740400002
 30
0.0
  0
VERTEX
  5
1F50
  8
3
 10
34.73743686709986
 20
-24.80247783420009
 30
0.0
  0
VERTEX
  5
1F51
  8
3
 10
34.16969600659991
 20
-24.99215399160016
 30
0.0
  0
VERTEX
  5
1F52
  8
3
 10
33.5
 20
-25.05875940069996
 30
0.0
  0
SEQEND
  5
2151
  8
3
  0
POLYLINE
  5
E36
  8
3
 66
     1
 10
0.0
 20
0.0
 30
0.0
  0
VERTEX
  5
1F53
  8
3
 10
31.18326725659995
 20
-24.67456435360009
 30
0.0
  0
VERTEX
  5
1F54
  8
3
 10
31.32298333669996
 20
-24.27837972120005
 30
0.0
  0
VERTEX
  5
1F55
  8
3
 10
31.72527975570006
 20
-23.9299808024
 30
0.0
  0
VERTEX
  5
1F56
  8
3
 10
32.34163362829986
 20
-23.67138964879996
 30
0.0
  0
VERTEX
  5
1F57
  8
3
 10
33.09770358099991
 20
-23.53379616990014
 30
0.0
  0
VERTEX
  5
1F58
  8
3
 10
33.90229641899987
 20
-23.53379616990014
 30
0.0
  0
VERTEX
  5
1F59
  8
3
 10
34.65836637169991
 20
-23.67138964879996
 30
0.0
  0
VERTEX
  5
1F5A
  8
3
 10
35.27472024429994
 20
-23.9299808024
 30
0.0
  0
VERTEX
  5
1F5B
  8
3
 10
35.67701666339985
 20
-24.27837972120005
 30
0.0
  0
VERTEX
  5
1F5C
  8
3
 10
35.81673274349987
 20
-24.67456435360009
 30
0.0
  0
VERTEX
  5
1F5D
  8
3
 10
35.67701666339985
 20
-25.07074898610017
 30
0.0
  0
VERTEX
  5
1F5E
  8
3
 10
35.27472024429994
 20
-25.4191479049
 30
0.0
  0
VERTEX
  5
1F5F
  8
3
 10
34.65836637169991
 20
-25.67773905839999
 30
0.0
  0
VERTEX
  5
1F60
  8
3
 10
33.90229641899987
 20
-25.81533253730004
 30
0.0
  0
VERTEX
  5
1F61
  8
3
 10
33.09770358099991
 20
-25.81533253730004
 30
0.0
  0
VERTEX
  5
1F62
  8
3
 10
32.34163362829986
 20
-25.67773905839999
 30
0.0
  0
VERTEX
  5
1F63
  8
3
 10
31.72527975570006
 20
-25.4191479049
 30
0.0
  0
VERTEX
  5
1F64
  8
3
 10
31.32298333669996
 20
-25.07074898610017
 30
0.0
  0
VERTEX
  5
1F65
  8
3
 10
31.18326725659995
 20
-24.67456435360009
 30
0.0
  0
SEQEND
  5
2150
  8
3
  0
POLYLINE
  5
E37
  8
3
 66
     1
 10
0.0
 20
0.0
 30
0.0
  0
VERTEX
  5
1F66
  8
3
 10
35.55500000000006
 20
-24.83327843910001
 30
0.0
  0
VERTEX
  5
1F67
  8
3
 10
35.41623043139998
 20
-25.20445425110006
 30
0.0
  0
VERTEX
  5
1F68
  8
3
 10
35.01866332489999
 20
-25.52550071300016
 30
0.0
  0
VERTEX
  5
1F69
  8
3
 10
34.41599232110002
 20
-25.75305872100012
 30
0.0
  0
VERTEX
  5
1F6A
  8
3
 10
33.68961147870004
 20
-25.85639530530011
 30
0.0
  0
VERTEX
  5
1F6B
  8
3
 10
32.93762255539991
 20
-25.82155428750002
 30
0.0
  0
VERTEX
  5
1F6C
  8
3
 10
32.2615858222
 20
-25.65324114020018
 30
0.0
  0
VERTEX
  5
1F6D
  8
3
 10
31.7528037861
 20
-25.37418748649998
 30
0.0
  0
VERTEX
  5
1F6E
  8
3
 10
31.4799902801999
 20
-25.02208106870012
 30
0.0
  0
VERTEX
  5
1F6F
  8
3
 10
31.4799902801999
 20
-24.64447580960018
 30
0.0
  0
VERTEX
  5
1F70
  8
3
 10
31.7528037861
 20
-24.29236939180009
 30
0.0
  0
VERTEX
  5
1F71
  8
3
 10
32.2615858222
 20
-24.01331573810012
 30
0.0
  0
VERTEX
  5
1F72
  8
3
 10
32.93762255539991
 20
-23.84500259080005
 30
0.0
  0
VERTEX
  5
1F73
  8
3
 10
33.68961147870004
 20
-23.81016157299996
 30
0.0
  0
VERTEX
  5
1F74
  8
3
 10
34.41599232110002
 20
-23.91349815729995
 30
0.0
  0
VERTEX
  5
1F75
  8
3
 10
35.01866332489999
 20
-24.14105616530014
 30
0.0
  0
VERTEX
  5
1F76
  8
3
 10
35.41623043139998
 20
-24.46210262709997
 30
0.0
  0
VERTEX
  5
1F77
  8
3
 10
35.55500000000006
 20
-24.83327843910001
 30
0.0
  0
SEQEND
  5
214F
  8
3
  0
POLYLINE
  5
E38
  8
3
 66
     1
 10
0.0
 20
0.0
 30
0.0
  0
VERTEX
  5
1F78
  8
3
 10
36.0
 20
-25.10312533380011
 30
0.0
  0
VERTEX
  5
1F79
  8
3
 10
35.86454310429986
 20
-25.5089996703
 30
0.0
  0
VERTEX
  5
1F7A
  8
3
 10
35.47285127350005
 20
-25.87089122459997
 30
0.0
  0
VERTEX
  5
1F7B
  8
3
 10
34.86737039529999
 20
-26.14958343160015
 30
0.0
  0
VERTEX
  5
1F7C
  8
3
 10
34.11371371790005
 20
-26.31487566620012
 30
0.0
  0
VERTEX
  5
1F7D
  8
3
 10
33.29355163629998
 20
-26.34885595000014
 30
0.0
  0
VERTEX
  5
1F7E
  8
3
 10
32.4957614384
 20
-26.24784199210012
 30
0.0
  0
VERTEX
  5
1F7F
  8
3
 10
31.80679607089996
 20
-26.02278022209998
 30
0.0
  0
VERTEX
  5
1F80
  8
3
 10
31.30131562199995
 20
-25.69805957510016
 30
0.0
  0
VERTEX
  5
1F81
  8
3
 10
31.03409674149998
 20
-25.30886857159999
 30
0.0
  0
VERTEX
  5
1F82
  8
3
 10
31.03409674149998
 20
-24.89738209589996
 30
0.0
  0
VERTEX
  5
1F83
  8
3
 10
31.30131562199995
 20
-24.50819109250006
 30
0.0
  0
VERTEX
  5
1F84
  8
3
 10
31.80679607089996
 20
-24.18347044539996
 30
0.0
  0
VERTEX
  5
1F85
  8
3
 10
32.4957614384
 20
-23.95840867540005
 30
0.0
  0
VERTEX
  5
1F86
  8
3
 10
33.29355163629998
 20
-23.85739471750003
 30
0.0
  0
VERTEX
  5
1F87
  8
3
 10
34.11371371790005
 20
-23.89137500130005
 30
0.0
  0
VERTEX
  5
1F88
  8
3
 10
34.86737039529999
 20
-24.05666723590002
 30
0.0
  0
VERTEX
  5
1F89
  8
3
 10
35.47285127350005
 20
-24.33535944289997
 30
0.0
  0
VERTEX
  5
1F8A
  8
3
 10
35.86454310429986
 20
-24.69725099720017
 30
0.0
  0
VERTEX
  5
1F8B
  8
3
 10
36.0
 20
-25.10312533380011
 30
0.0
  0
SEQEND
  5
214E
  8
3
  0
POLYLINE
  5
E39
  8
3
 66
     1
 10
0.0
 20
0.0
 30
0.0
  0
VERTEX
  5
1F8C
  8
3
 10
36.0
 20
-25.18116488510009
 30
0.0
  0
VERTEX
  5
1F8D
  8
3
 10
35.86454310429986
 20
-25.58703922159998
 30
0.0
  0
VERTEX
  5
1F8E
  8
3
 10
35.47285127350005
 20
-25.948930776
 30
0.0
  0
VERTEX
  5
1F8F
  8
3
 10
34.86737039529999
 20
-26.22762298290013
 30
0.0
  0
VERTEX
  5
1F90
  8
3
 10
34.11371371790005
 20
-26.3929152175001
 30
0.0
  0
VERTEX
  5
1F91
  8
3
 10
33.29355163629998
 20
-26.42689550140017
 30
0.0
  0
VERTEX
  5
1F92
  8
3
 10
32.4957614384
 20
-26.3258815434001
 30
0.0
  0
VERTEX
  5
1F93
  8
3
 10
31.80679607089996
 20
-26.10081977339996
 30
0.0
  0
VERTEX
  5
1F94
  8
3
 10
31.30131562199995
 20
-25.77609912640014
 30
0.0
  0
VERTEX
  5
1F95
  8
3
 10
31.03409674149998
 20
-25.38690812300001
 30
0.0
  0
VERTEX
  5
1F96
  8
3
 10
31.03409674149998
 20
-24.97542164729998
 30
0.0
  0
VERTEX
  5
1F97
  8
3
 10
31.30131562199995
 20
-24.58623064380004
 30
0.0
  0
VERTEX
  5
1F98
  8
3
 10
31.80679607089996
 20
-24.26150999679999
 30
0.0
  0
VERTEX
  5
1F99
  8
3
 10
32.4957614384
 20
-24.03644822680008
 30
0.0
  0
VERTEX
  5
1F9A
  8
3
 10
33.29355163629998
 20
-23.93543426890005
 30
0.0
  0
VERTEX
  5
1F9B
  8
3
 10
34.11371371790005
 20
-23.96941455270007
 30
0.0
  0
VERTEX
  5
1F9C
  8
3
 10
34.86737039529999
 20
-24.13470678730005
 30
0.0
  0
VERTEX
  5
1F9D
  8
3
 10
35.47285127350005
 20
-24.41339899420018
 30
0.0
  0
VERTEX
  5
1F9E
  8
3
 10
35.86454310429986
 20
-24.77529054859997
 30
0.0
  0
VERTEX
  5
1F9F
  8
3
 10
36.0
 20
-25.18116488510009
 30
0.0
  0
SEQEND
  5
214D
  8
3
  0
POLYLINE
  5
E3A
  8
3
 66
     1
 10
0.0
 20
0.0
 30
0.0
  0
VERTEX
  5
1FA0
  8
3
 10
35.55500000000006
 20
-25.45101177970014
 30
0.0
  0
VERTEX
  5
1FA1
  8
3
 10
35.41623043139998
 20
-25.82218759169996
 30
0.0
  0
VERTEX
  5
1FA2
  8
3
 10
35.01866332489999
 20
-26.14323405360005
 30
0.0
  0
VERTEX
  5
1FA3
  8
3
 10
34.41599232110002
 20
-26.37079206160001
 30
0.0
  0
VERTEX
  5
1FA4
  8
3
 10
33.68961147870004
 20
-26.47412864590001
 30
0.0
  0
VERTEX
  5
1FA5
  8
3
 10
32.93762255539991
 20
-26.43928762810015
 30
0.0
  0
VERTEX
  5
1FA6
  8
3
 10
32.2615858222
 20
-26.27097448080008
 30
0.0
  0
VERTEX
  5
1FA7
  8
3
 10
31.7528037861
 20
-25.9919208271001
 30
0.0
  0
VERTEX
  5
1FA8
  8
3
 10
31.47999028009986
 20
-25.63981440930002
 30
0.0
  0
VERTEX
  5
1FA9
  8
3
 10
31.47999028009986
 20
-25.26220915020008
 30
0.0
  0
VERTEX
  5
1FAA
  8
3
 10
31.7528037861
 20
-24.91010273239999
 30
0.0
  0
VERTEX
  5
1FAB
  8
3
 10
32.2615858222
 20
-24.63104907870002
 30
0.0
  0
VERTEX
  5
1FAC
  8
3
 10
32.93762255539991
 20
-24.46273593140018
 30
0.0
  0
VERTEX
  5
1FAD
  8
3
 10
33.68961147870004
 20
-24.42789491360008
 30
0.0
  0
VERTEX
  5
1FAE
  8
3
 10
34.41599232110002
 20
-24.53123149790008
 30
0.0
  0
VERTEX
  5
1FAF
  8
3
 10
35.01866332489999
 20
-24.75878950590004
 30
0.0
  0
VERTEX
  5
1FB0
  8
3
 10
35.41623043139998
 20
-25.07983596770009
 30
0.0
  0
VERTEX
  5
1FB1
  8
3
 10
35.55500000000006
 20
-25.45101177970014
 30
0.0
  0
SEQEND
  5
214C
  8
3
  0
POLYLINE
  5
E3B
  8
3
 66
     1
 10
0.0
 20
0.0
 30
0.0
  0
VERTEX
  5
1FB2
  8
3
 10
36.0
 20
-25.72085867440001
 30
0.0
  0
VERTEX
  5
1FB3
  8
3
 10
35.86454310420004
 20
-26.12673301090013
 30
0.0
  0
VERTEX
  5
1FB4
  8
3
 10
35.47285127350005
 20
-26.4886245652001
 30
0.0
  0
VERTEX
  5
1FB5
  8
3
 10
34.86737039529999
 20
-26.76731677220005
 30
0.0
  0
VERTEX
  5
1FB6
  8
3
 10
34.11371371780001
 20
-26.93260900680002
 30
0.0
  0
VERTEX
  5
1FB7
  8
3
 10
33.29355163629998
 20
-26.96658929060004
 30
0.0
  0
VERTEX
  5
1FB8
  8
3
 10
32.4957614384
 20
-26.86557533270002
 30
0.0
  0
VERTEX
  5
1FB9
  8
3
 10
31.80679607089996
 20
-26.64051356270011
 30
0.0
  0
VERTEX
  5
1FBA
  8
3
 10
31.30131562199995
 20
-26.31579291570006
 30
0.0
  0
VERTEX
  5
1FBB
  8
3
 10
31.03409674149998
 20
-25.92660191220011
 30
0.0
  0
VERTEX
  5
1FBC
  8
3
 10
31.03409674149998
 20
-25.51511543650008
 30
0.0
  0
VERTEX
  5
1FBD
  8
3
 10
31.30131562199995
 20
-25.12592443310018
 30
0.0
  0
VERTEX
  5
1FBE
  8
3
 10
31.80679607089996
 20
-24.80120378600009
 30
0.0
  0
VERTEX
  5
1FBF
  8
3
 10
32.4957614384
 20
-24.57614201600018
 30
0.0
  0
VERTEX
  5
1FC0
  8
3
 10
33.29355163629998
 20
-24.47512805810015
 30
0.0
  0
VERTEX
  5
1FC1
  8
3
 10
34.11371371780001
 20
-24.50910834190017
 30
0.0
  0
VERTEX
  5
1FC2
  8
3
 10
34.86737039529999
 20
-24.67440057650015
 30
0.0
  0
VERTEX
  5
1FC3
  8
3
 10
35.47285127350005
 20
-24.9530927835001
 30
0.0
  0
VERTEX
  5
1FC4
  8
3
 10
35.86454310420004
 20
-25.31498433790011
 30
0.0
  0
VERTEX
  5
1FC5
  8
3
 10
36.0
 20
-25.72085867440001
 30
0.0
  0
SEQEND
  5
214B
  8
3
  0
POLYLINE
  5
E3C
  8
3
 66
     1
 10
0.0
 20
0.0
 30
0.0
  0
VERTEX
  5
1FC6
  8
3
 10
36.0
 20
-25.79889822569999
 30
0.0
  0
VERTEX
  5
1FC7
  8
3
 10
35.86454310420004
 20
-26.20477256220011
 30
0.0
  0
VERTEX
  5
1FC8
  8
3
 10
35.47285127350005
 20
-26.56666411660012
 30
0.0
  0
VERTEX
  5
1FC9
  8
3
 10
34.86737039529999
 20
-26.84535632350003
 30
0.0
  0
VERTEX
  5
1FCA
  8
3
 10
34.11371371780001
 20
-27.0106485581
 30
0.0
  0
VERTEX
  5
1FCB
  8
3
 10
33.29355163629998
 20
-27.04462884200007
 30
0.0
  0
VERTEX
  5
1FCC
  8
3
 10
32.4957614384
 20
-26.943614884
 30
0.0
  0
VERTEX
  5
1FCD
  8
3
 10
31.80679607089996
 20
-26.71855311410013
 30
0.0
  0
VERTEX
  5
1FCE
  8
3
 10
31.30131562199995
 20
-26.39383246700004
 30
0.0
  0
VERTEX
  5
1FCF
  8
3
 10
31.03409674149998
 20
-26.00464146360014
 30
0.0
  0
VERTEX
  5
1FD0
  8
3
 10
31.03409674149998
 20
-25.59315498790011
 30
0.0
  0
VERTEX
  5
1FD1
  8
3
 10
31.30131562199995
 20
-25.20396398440016
 30
0.0
  0
VERTEX
  5
1FD2
  8
3
 10
31.80679607089996
 20
-24.87924333740011
 30
0.0
  0
VERTEX
  5
1FD3
  8
3
 10
32.4957614384
 20
-24.65418156739997
 30
0.0
  0
VERTEX
  5
1FD4
  8
3
 10
33.29355163629998
 20
-24.55316760950018
 30
0.0
  0
VERTEX
  5
1FD5
  8
3
 10
34.11371371780001
 20
-24.58714789329997
 30
0.0
  0
VERTEX
  5
1FD6
  8
3
 10
34.86737039529999
 20
-24.75244012790017
 30
0.0
  0
VERTEX
  5
1FD7
  8
3
 10
35.47285127350005
 20
-25.03113233490012
 30
0.0
  0
VERTEX
  5
1FD8
  8
3
 10
35.86454310420004
 20
-25.39302388920009
 30
0.0
  0
VERTEX
  5
1FD9
  8
3
 10
36.0
 20
-25.79889822569999
 30
0.0
  0
SEQEND
  5
214A
  8
3
  0
POLYLINE
  5
E3D
  8
3
 66
     1
 10
0.0
 20
0.0
 30
0.0
  0
VERTEX
  5
1FDA
  8
3
 10
35.55500000000006
 20
-26.06874512030004
 30
0.0
  0
VERTEX
  5
1FDB
  8
3
 10
35.41623043139998
 20
-26.43992093230008
 30
0.0
  0
VERTEX
  5
1FDC
  8
3
 10
35.01866332489999
 20
-26.76096739420018
 30
0.0
  0
VERTEX
  5
1FDD
  8
3
 10
34.41599232110002
 20
-26.98852540220014
 30
0.0
  0
VERTEX
  5
1FDE
  8
3
 10
33.68961147870004
 20
-27.09186198650013
 30
0.0
  0
VERTEX
  5
1FDF
  8
3
 10
32.93762255539991
 20
-27.05702096870004
 30
0.0
  0
VERTEX
  5
1FE0
  8
3
 10
32.2615858222
 20
-26.88870782139998
 30
0.0
  0
VERTEX
  5
1FE1
  8
3
 10
31.7528037861
 20
-26.6096541677
 30
0.0
  0
VERTEX
  5
1FE2
  8
3
 10
31.47999028009986
 20
-26.25754774990014
 30
0.0
  0
VERTEX
  5
1FE3
  8
3
 10
31.47999028009986
 20
-25.87994249079998
 30
0.0
  0
VERTEX
  5
1FE4
  8
3
 10
31.7528037861
 20
-25.52783607300012
 30
0.0
  0
VERTEX
  5
1FE5
  8
3
 10
32.2615858222
 20
-25.24878241930014
 30
0.0
  0
VERTEX
  5
1FE6
  8
3
 10
32.93762255539991
 20
-25.08046927200007
 30
0.0
  0
VERTEX
  5
1FE7
  8
3
 10
33.68961147870004
 20
-25.04562825419998
 30
0.0
  0
VERTEX
  5
1FE8
  8
3
 10
34.41599232110002
 20
-25.14896483849998
 30
0.0
  0
VERTEX
  5
1FE9
  8
3
 10
35.01866332489999
 20
-25.37652284650017
 30
0.0
  0
VERTEX
  5
1FEA
  8
3
 10
35.41623043139998
 20
-25.69756930829999
 30
0.0
  0
VERTEX
  5
1FEB
  8
3
 10
35.55500000000006
 20
-26.06874512030004
 30
0.0
  0
SEQEND
  5
2149
  8
3
  0
POLYLINE
  5
E3E
  8
3
 66
     1
 10
0.0
 20
0.0
 30
0.0
  0
VERTEX
  5
1FEC
  8
3
 10
36.0
 20
-26.33859201500013
 30
0.0
  0
VERTEX
  5
1FED
  8
3
 10
35.86454310429986
 20
-26.74446635150002
 30
0.0
  0
VERTEX
  5
1FEE
  8
3
 10
35.47285127350005
 20
-27.1063579058
 30
0.0
  0
VERTEX
  5
1FEF
  8
3
 10
34.86737039529999
 20
-27.38505011280017
 30
0.0
  0
VERTEX
  5
1FF0
  8
3
 10
34.11371371790005
 20
-27.55034234740015
 30
0.0
  0
VERTEX
  5
1FF1
  8
3
 10
33.29355163629998
 20
-27.58432263120017
 30
0.0
  0
VERTEX
  5
1FF2
  8
3
 10
32.4957614384
 20
-27.48330867330014
 30
0.0
  0
VERTEX
  5
1FF3
  8
3
 10
31.80679607089996
 20
-27.25824690330001
 30
0.0
  0
VERTEX
  5
1FF4
  8
3
 10
31.30131562199995
 20
-26.93352625629996
 30
0.0
  0
VERTEX
  5
1FF5
  8
3
 10
31.03409674149998
 20
-26.54433525280001
 30
0.0
  0
VERTEX
  5
1FF6
  8
3
 10
31.03409674149998
 20
-26.13284877709998
 30
0.0
  0
VERTEX
  5
1FF7
  8
3
 10
31.30131562199995
 20
-25.74365777370008
 30
0.0
  0
VERTEX
  5
1FF8
  8
3
 10
31.80679607089996
 20
-25.41893712659999
 30
0.0
  0
VERTEX
  5
1FF9
  8
3
 10
32.4957614384
 20
-25.19387535660007
 30
0.0
  0
VERTEX
  5
1FFA
  8
3
 10
33.29355163629998
 20
-25.09286139870005
 30
0.0
  0
VERTEX
  5
1FFB
  8
3
 10
34.11371371790005
 20
-25.12684168250007
 30
0.0
  0
VERTEX
  5
1FFC
  8
3
 10
34.86737039529999
 20
-25.29213391710005
 30
0.0
  0
VERTEX
  5
1FFD
  8
3
 10
35.47285127350005
 20
-25.57082612409999
 30
0.0
  0
VERTEX
  5
1FFE
  8
3
 10
35.86454310429986
 20
-25.93271767850001
 30
0.0
  0
VERTEX
  5
1FFF
  8
3
 10
36.0
 20
-26.33859201500013
 30
0.0
  0
SEQEND
  5
2148
  8
3
  0
POLYLINE
  5
E3F
  8
3
 66
     1
 10
0.0
 20
0.0
 30
0.0
  0
VERTEX
  5
2000
  8
3
 10
36.0
 20
-26.41663156630011
 30
0.0
  0
VERTEX
  5
2001
  8
3
 10
35.86454310429986
 20
-26.8225059028
 30
0.0
  0
VERTEX
  5
2002
  8
3
 10
35.47285127350005
 20
-27.18439745720002
 30
0.0
  0
VERTEX
  5
2003
  8
3
 10
34.86737039529999
 20
-27.46308966410015
 30
0.0
  0
VERTEX
  5
2004
  8
3
 10
34.11371371790005
 20
-27.62838189870013
 30
0.0
  0
VERTEX
  5
2005
  8
3
 10
33.29355163629998
 20
-27.66236218259996
 30
0.0
  0
VERTEX
  5
2006
  8
3
 10
32.4957614384
 20
-27.56134822460012
 30
0.0
  0
VERTEX
  5
2007
  8
3
 10
31.80679607089996
 20
-27.33628645470003
 30
0.0
  0
VERTEX
  5
2008
  8
3
 10
31.30131562199995
 20
-27.01156580760016
 30
0.0
  0
VERTEX
  5
2009
  8
3
 10
31.03409674149998
 20
-26.62237480420004
 30
0.0
  0
VERTEX
  5
200A
  8
3
 10
31.03409674149998
 20
-26.2108883285
 30
0.0
  0
VERTEX
  5
200B
  8
3
 10
31.30131562199995
 20
-25.82169732500006
 30
0.0
  0
VERTEX
  5
200C
  8
3
 10
31.80679607089996
 20
-25.49697667800001
 30
0.0
  0
VERTEX
  5
200D
  8
3
 10
32.4957614384
 20
-25.2719149080001
 30
0.0
  0
VERTEX
  5
200E
  8
3
 10
33.29355163629998
 20
-25.17090095010008
 30
0.0
  0
VERTEX
  5
200F
  8
3
 10
34.11371371790005
 20
-25.2048812339001
 30
0.0
  0
VERTEX
  5
2010
  8
3
 10
34.86737039529999
 20
-25.37017346850007
 30
0.0
  0
VERTEX
  5
2011
  8
3
 10
35.47285127350005
 20
-25.64886567550002
 30
0.0
  0
VERTEX
  5
2012
  8
3
 10
35.86454310429986
 20
-26.01075722979999
 30
0.0
  0
VERTEX
  5
2013
  8
3
 10
36.0
 20
-26.41663156630011
 30
0.0
  0
SEQEND
  5
2147
  8
3
  0
POLYLINE
  5
E40
  8
3
 66
     1
 10
0.0
 20
0.0
 30
0.0
  0
VERTEX
  5
2014
  8
3
 10
35.55500000000006
 20
-26.68647846090016
 30
0.0
  0
VERTEX
  5
2015
  8
3
 10
35.41623043139998
 20
-27.05765427289998
 30
0.0
  0
VERTEX
  5
2016
  8
3
 10
35.01866332489999
 20
-27.37870073480008
 30
0.0
  0
VERTEX
  5
2017
  8
3
 10
34.41599232110002
 20
-27.60625874280004
 30
0.0
  0
VERTEX
  5
2018
  8
3
 10
33.68961147870004
 20
-27.70959532710003
 30
0.0
  0
VERTEX
  5
2019
  8
3
 10
32.93762255539991
 20
-27.67475430930017
 30
0.0
  0
VERTEX
  5
201A
  8
3
 10
32.2615858222
 20
-27.5064411620001
 30
0.0
  0
VERTEX
  5
201B
  8
3
 10
31.7528037861
 20
-27.22738750830013
 30
0.0
  0
VERTEX
  5
201C
  8
3
 10
31.4799902801999
 20
-26.87528109050004
 30
0.0
  0
VERTEX
  5
201D
  8
3
 10
31.4799902801999
 20
-26.4976758314001
 30
0.0
  0
VERTEX
  5
201E
  8
3
 10
31.7528037861
 20
-26.14556941360001
 30
0.0
  0
VERTEX
  5
201F
  8
3
 10
32.2615858222
 20
-25.86651575990004
 30
0.0
  0
VERTEX
  5
2020
  8
3
 10
32.93762255539991
 20
-25.69820261259997
 30
0.0
  0
VERTEX
  5
2021
  8
3
 10
33.68961147870004
 20
-25.66336159480011
 30
0.0
  0
VERTEX
  5
2022
  8
3
 10
34.41599232110002
 20
-25.7666981791001
 30
0.0
  0
VERTEX
  5
2023
  8
3
 10
35.01866332489999
 20
-25.99425618710006
 30
0.0
  0
VERTEX
  5
2024
  8
3
 10
35.41623043139998
 20
-26.31530264890011
 30
0.0
  0
VERTEX
  5
2025
  8
3
 10
35.55500000000006
 20
-26.68647846090016
 30
0.0
  0
SEQEND
  5
2146
  8
3
  0
POLYLINE
  5
E41
  8
3
 66
     1
 10
0.0
 20
0.0
 30
0.0
  0
VERTEX
  5
2026
  8
3
 10
36.0
 20
-26.95632535560003
 30
0.0
  0
VERTEX
  5
2027
  8
3
 10
35.86454310429986
 20
-27.36219969210015
 30
0.0
  0
VERTEX
  5
2028
  8
3
 10
35.47285127350005
 20
-27.72409124640012
 30
0.0
  0
VERTEX
  5
2029
  8
3
 10
34.86737039529999
 20
-28.00278345340007
 30
0.0
  0
VERTEX
  5
202A
  8
3
 10
34.11371371790005
 20
-28.16807568800004
 30
0.0
  0
VERTEX
  5
202B
  8
3
 10
33.29355163629998
 20
-28.20205597180006
 30
0.0
  0
VERTEX
  5
202C
  8
3
 10
32.4957614384
 20
-28.10104201390004
 30
0.0
  0
VERTEX
  5
202D
  8
3
 10
31.80679607089996
 20
-27.87598024390013
 30
0.0
  0
VERTEX
  5
202E
  8
3
 10
31.30131562199995
 20
-27.55125959690008
 30
0.0
  0
VERTEX
  5
202F
  8
3
 10
31.03409674149998
 20
-27.16206859340014
 30
0.0
  0
VERTEX
  5
2030
  8
3
 10
31.03409674149998
 20
-26.75058211770011
 30
0.0
  0
VERTEX
  5
2031
  8
3
 10
31.30131562199995
 20
-26.36139111429998
 30
0.0
  0
VERTEX
  5
2032
  8
3
 10
31.80679607089996
 20
-26.03667046720011
 30
0.0
  0
VERTEX
  5
2033
  8
3
 10
32.4957614384
 20
-25.81160869719997
 30
0.0
  0
VERTEX
  5
2034
  8
3
 10
33.29355163629998
 20
-25.71059473930018
 30
0.0
  0
VERTEX
  5
2035
  8
3
 10
34.11371371790005
 20
-25.74457502309997
 30
0.0
  0
VERTEX
  5
2036
  8
3
 10
34.86737039529999
 20
-25.90986725770017
 30
0.0
  0
VERTEX
  5
2037
  8
3
 10
35.47285127350005
 20
-26.18855946470012
 30
0.0
  0
VERTEX
  5
2038
  8
3
 10
35.86454310429986
 20
-26.55045101910014
 30
0.0
  0
VERTEX
  5
2039
  8
3
 10
36.0
 20
-26.95632535560003
 30
0.0
  0
SEQEND
  5
2145
  8
3
  0
POLYLINE
  5
E42
  8
3
 66
     1
 10
0.0
 20
0.0
 30
0.0
  0
VERTEX
  5
203A
  8
3
 10
36.0
 20
-27.03436490690001
 30
0.0
  0
VERTEX
  5
203B
  8
3
 10
35.86454310429986
 20
-27.44023924340013
 30
0.0
  0
VERTEX
  5
203C
  8
3
 10
35.47285127350005
 20
-27.80213079780015
 30
0.0
  0
VERTEX
  5
203D
  8
3
 10
34.86737039529999
 20
-28.0808230048001
 30
0.0
  0
VERTEX
  5
203E
  8
3
 10
34.11371371790005
 20
-28.24611523930002
 30
0.0
  0
VERTEX
  5
203F
  8
3
 10
33.29355163629998
 20
-28.28009552320009
 30
0.0
  0
VERTEX
  5
2040
  8
3
 10
32.4957614384
 20
-28.17908156520002
 30
0.0
  0
VERTEX
  5
2041
  8
3
 10
31.80679607089996
 20
-27.95401979530016
 30
0.0
  0
VERTEX
  5
2042
  8
3
 10
31.30131562199995
 20
-27.62929914820006
 30
0.0
  0
VERTEX
  5
2043
  8
3
 10
31.03409674149998
 20
-27.24010814480016
 30
0.0
  0
VERTEX
  5
2044
  8
3
 10
31.03409674149998
 20
-26.82862166910013
 30
0.0
  0
VERTEX
  5
2045
  8
3
 10
31.30131562199995
 20
-26.43943066559996
 30
0.0
  0
VERTEX
  5
2046
  8
3
 10
31.80679607089996
 20
-26.11471001860014
 30
0.0
  0
VERTEX
  5
2047
  8
3
 10
32.4957614384
 20
-25.8896482486
 30
0.0
  0
VERTEX
  5
2048
  8
3
 10
33.29355163629998
 20
-25.78863429069997
 30
0.0
  0
VERTEX
  5
2049
  8
3
 10
34.11371371790005
 20
-25.82261457449999
 30
0.0
  0
VERTEX
  5
204A
  8
3
 10
34.86737039529999
 20
-25.98790680909997
 30
0.0
  0
VERTEX
  5
204B
  8
3
 10
35.47285127350005
 20
-26.26659901610014
 30
0.0
  0
VERTEX
  5
204C
  8
3
 10
35.86454310429986
 20
-26.62849057040012
 30
0.0
  0
VERTEX
  5
204D
  8
3
 10
36.0
 20
-27.03436490690001
 30
0.0
  0
SEQEND
  5
2144
  8
3
  0
POLYLINE
  5
E43
  8
3
 66
     1
 10
0.0
 20
0.0
 30
0.0
  0
VERTEX
  5
204E
  8
3
 10
35.55500000000006
 20
-27.30421180150006
 30
0.0
  0
VERTEX
  5
204F
  8
3
 10
35.41623043139998
 20
-27.67538761360015
 30
0.0
  0
VERTEX
  5
2050
  8
3
 10
35.01866332489999
 20
-27.99643407539997
 30
0.0
  0
VERTEX
  5
2051
  8
3
 10
34.41599232110002
 20
-28.22399208340016
 30
0.0
  0
VERTEX
  5
2052
  8
3
 10
33.68961147870004
 20
-28.32732866770016
 30
0.0
  0
VERTEX
  5
2053
  8
3
 10
32.93762255539991
 20
-28.29248764990007
 30
0.0
  0
VERTEX
  5
2054
  8
3
 10
32.26158582230005
 20
-28.1241745026
 30
0.0
  0
VERTEX
  5
2055
  8
3
 10
31.7528037861
 20
-27.84512084890002
 30
0.0
  0
VERTEX
  5
2056
  8
3
 10
31.4799902801999
 20
-27.49301443110016
 30
0.0
  0
VERTEX
  5
2057
  8
3
 10
31.4799902801999
 20
-27.115409172
 30
0.0
  0
VERTEX
  5
2058
  8
3
 10
31.7528037861
 20
-26.76330275420014
 30
0.0
  0
VERTEX
  5
2059
  8
3
 10
32.26158582230005
 20
-26.48424910050016
 30
0.0
  0
VERTEX
  5
205A
  8
3
 10
32.93762255539991
 20
-26.3159359532001
 30
0.0
  0
VERTEX
  5
205B
  8
3
 10
33.68961147870004
 20
-26.28109493540001
 30
0.0
  0
VERTEX
  5
205C
  8
3
 10
34.41599232110002
 20
-26.3844315197
 30
0.0
  0
VERTEX
  5
205D
  8
3
 10
35.01866332489999
 20
-26.61198952769996
 30
0.0
  0
VERTEX
  5
205E
  8
3
 10
35.41623043139998
 20
-26.93303598950001
 30
0.0
  0
VERTEX
  5
205F
  8
3
 10
35.55500000000006
 20
-27.30421180150006
 30
0.0
  0
SEQEND
  5
2143
  8
3
  0
POLYLINE
  5
E44
  8
3
 66
     1
 10
0.0
 20
0.0
 30
0.0
  0
VERTEX
  5
2060
  8
3
 10
36.0
 20
-27.57405869620015
 30
0.0
  0
VERTEX
  5
2061
  8
3
 10
35.86454310429986
 20
-27.97993303270005
 30
0.0
  0
VERTEX
  5
2062
  8
3
 10
35.47285127350005
 20
-28.34182458700002
 30
0.0
  0
VERTEX
  5
2063
  8
3
 10
34.86737039529999
 20
-28.62051679399997
 30
0.0
  0
VERTEX
  5
2064
  8
3
 10
34.11371371790005
 20
-28.78580902860017
 30
0.0
  0
VERTEX
  5
2065
  8
3
 10
33.29355163629998
 20
-28.81978931239996
 30
0.0
  0
VERTEX
  5
2066
  8
3
 10
32.4957614384
 20
-28.71877535450017
 30
0.0
  0
VERTEX
  5
2067
  8
3
 10
31.80679607100001
 20
-28.49371358450003
 30
0.0
  0
VERTEX
  5
2068
  8
3
 10
31.30131562199995
 20
-28.16899293749998
 30
0.0
  0
VERTEX
  5
2069
  8
3
 10
31.03409674149998
 20
-27.77980193400003
 30
0.0
  0
VERTEX
  5
206A
  8
3
 10
31.03409674149998
 20
-27.3683154583
 30
0.0
  0
VERTEX
  5
206B
  8
3
 10
31.30131562199995
 20
-26.9791244549001
 30
0.0
  0
VERTEX
  5
206C
  8
3
 10
31.80679607100001
 20
-26.65440380780001
 30
0.0
  0
VERTEX
  5
206D
  8
3
 10
32.4957614384
 20
-26.42934203790014
 30
0.0
  0
VERTEX
  5
206E
  8
3
 10
33.29355163629998
 20
-26.32832807990007
 30
0.0
  0
VERTEX
  5
206F
  8
3
 10
34.11371371790005
 20
-26.36230836370009
 30
0.0
  0
VERTEX
  5
2070
  8
3
 10
34.86737039529999
 20
-26.52760059830007
 30
0.0
  0
VERTEX
  5
2071
  8
3
 10
35.47285127350005
 20
-26.80629280530002
 30
0.0
  0
VERTEX
  5
2072
  8
3
 10
35.86454310429986
 20
-27.16818435970004
 30
0.0
  0
VERTEX
  5
2073
  8
3
 10
36.0
 20
-27.57405869620015
 30
0.0
  0
SEQEND
  5
2142
  8
3
  0
POLYLINE
  5
E45
  8
3
 66
     1
 10
0.0
 20
0.0
 30
0.0
  0
VERTEX
  5
2074
  8
3
 10
36.0
 20
-27.65209824750013
 30
0.0
  0
VERTEX
  5
2075
  8
3
 10
35.86454310429986
 20
-28.05797258400003
 30
0.0
  0
VERTEX
  5
2076
  8
3
 10
35.47285127350005
 20
-28.41986413840004
 30
0.0
  0
VERTEX
  5
2077
  8
3
 10
34.86737039529999
 20
-28.69855634539999
 30
0.0
  0
VERTEX
  5
2078
  8
3
 10
34.11371371790005
 20
-28.86384857999997
 30
0.0
  0
VERTEX
  5
2079
  8
3
 10
33.29355163629998
 20
-28.89782886379999
 30
0.0
  0
VERTEX
  5
207A
  8
3
 10
32.4957614384
 20
-28.79681490580015
 30
0.0
  0
VERTEX
  5
207B
  8
3
 10
31.80679607100001
 20
-28.57175313590005
 30
0.0
  0
VERTEX
  5
207C
  8
3
 10
31.30131562199995
 20
-28.24703248879996
 30
0.0
  0
VERTEX
  5
207D
  8
3
 10
31.03409674149998
 20
-27.85784148540006
 30
0.0
  0
VERTEX
  5
207E
  8
3
 10
31.03409674149998
 20
-27.44635500970003
 30
0.0
  0
VERTEX
  5
207F
  8
3
 10
31.30131562199995
 20
-27.05716400620008
 30
0.0
  0
VERTEX
  5
2080
  8
3
 10
31.80679607100001
 20
-26.73244335920003
 30
0.0
  0
VERTEX
  5
2081
  8
3
 10
32.4957614384
 20
-26.50738158920012
 30
0.0
  0
VERTEX
  5
2082
  8
3
 10
33.29355163629998
 20
-26.4063676313001
 30
0.0
  0
VERTEX
  5
2083
  8
3
 10
34.11371371790005
 20
-26.44034791510012
 30
0.0
  0
VERTEX
  5
2084
  8
3
 10
34.86737039529999
 20
-26.60564014970009
 30
0.0
  0
VERTEX
  5
2085
  8
3
 10
35.47285127350005
 20
-26.88433235670004
 30
0.0
  0
VERTEX
  5
2086
  8
3
 10
35.86454310429986
 20
-27.24622391100002
 30
0.0
  0
VERTEX
  5
2087
  8
3
 10
36.0
 20
-27.65209824750013
 30
0.0
  0
SEQEND
  5
2141
  8
3
  0
POLYLINE
  5
E46
  8
3
 66
     1
 10
0.0
 20
0.0
 30
0.0
  0
VERTEX
  5
2088
  8
3
 10
35.55500000000006
 20
-27.9219451422
 30
0.0
  0
VERTEX
  5
2089
  8
3
 10
35.41623043139998
 20
-28.29312095420005
 30
0.0
  0
VERTEX
  5
208A
  8
3
 10
35.01866332489999
 20
-28.6141674160001
 30
0.0
  0
VERTEX
  5
208B
  8
3
 10
34.41599232110002
 20
-28.84172542400006
 30
0.0
  0
VERTEX
  5
208C
  8
3
 10
33.68961147870004
 20
-28.94506200830006
 30
0.0
  0
VERTEX
  5
208D
  8
3
 10
32.93762255539991
 20
-28.91022099049997
 30
0.0
  0
VERTEX
  5
208E
  8
3
 10
32.26158582230005
 20
-28.74190784320012
 30
0.0
  0
VERTEX
  5
208F
  8
3
 10
31.7528037861
 20
-28.46285418950015
 30
0.0
  0
VERTEX
  5
2090
  8
3
 10
31.4799902801999
 20
-28.11074777170006
 30
0.0
  0
VERTEX
  5
2091
  8
3
 10
31.4799902801999
 20
-27.73314251260012
 30
0.0
  0
VERTEX
  5
2092
  8
3
 10
31.7528037861
 20
-27.38103609480004
 30
0.0
  0
VERTEX
  5
2093
  8
3
 10
32.26158582230005
 20
-27.10198244110006
 30
0.0
  0
VERTEX
  5
2094
  8
3
 10
32.93762255539991
 20
-26.93366929379999
 30
0.0
  0
VERTEX
  5
2095
  8
3
 10
33.68961147870004
 20
-26.89882827600013
 30
0.0
  0
VERTEX
  5
2096
  8
3
 10
34.41599232110002
 20
-27.00216486030013
 30
0.0
  0
VERTEX
  5
2097
  8
3
 10
35.01866332489999
 20
-27.22972286830009
 30
0.0
  0
VERTEX
  5
2098
  8
3
 10
35.41623043139998
 20
-27.55076933010014
 30
0.0
  0
VERTEX
  5
2099
  8
3
 10
35.55500000000006
 20
-27.9219451422
 30
0.0
  0
SEQEND
  5
2140
  8
3
  0
POLYLINE
  5
E47
  8
3
 66
     1
 10
0.0
 20
0.0
 30
0.0
  0
VERTEX
  5
209A
  8
3
 10
36.0
 20
-28.19179203680005
 30
0.0
  0
VERTEX
  5
209B
  8
3
 10
35.86454310429986
 20
-28.59766637330017
 30
0.0
  0
VERTEX
  5
209C
  8
3
 10
35.47285127350005
 20
-28.95955792760014
 30
0.0
  0
VERTEX
  5
209D
  8
3
 10
34.86737039529999
 20
-29.23825013460009
 30
0.0
  0
VERTEX
  5
209E
  8
3
 10
34.11371371790005
 20
-29.40354236920007
 30
0.0
  0
VERTEX
  5
209F
  8
3
 10
33.29355163629998
 20
-29.43752265300009
 30
0.0
  0
VERTEX
  5
20A0
  8
3
 10
32.4957614384
 20
-29.33650869510006
 30
0.0
  0
VERTEX
  5
20A1
  8
3
 10
31.80679607100001
 20
-29.11144692510015
 30
0.0
  0
VERTEX
  5
20A2
  8
3
 10
31.30131562199995
 20
-28.7867262781001
 30
0.0
  0
VERTEX
  5
20A3
  8
3
 10
31.03409674149998
 20
-28.39753527460016
 30
0.0
  0
VERTEX
  5
20A4
  8
3
 10
31.03409674149998
 20
-27.98604879890013
 30
0.0
  0
VERTEX
  5
20A5
  8
3
 10
31.30131562199995
 20
-27.5968577955
 30
0.0
  0
VERTEX
  5
20A6
  8
3
 10
31.80679607100001
 20
-27.27213714840013
 30
0.0
  0
VERTEX
  5
20A7
  8
3
 10
32.4957614384
 20
-27.04707537850004
 30
0.0
  0
VERTEX
  5
20A8
  8
3
 10
33.29355163629998
 20
-26.94606142049997
 30
0.0
  0
VERTEX
  5
20A9
  8
3
 10
34.11371371790005
 20
-26.98004170440004
 30
0.0
  0
VERTEX
  5
20AA
  8
3
 10
34.86737039529999
 20
-27.14533393889997
 30
0.0
  0
VERTEX
  5
20AB
  8
3
 10
35.47285127350005
 20
-27.42402614590014
 30
0.0
  0
VERTEX
  5
20AC
  8
3
 10
35.86454310429986
 20
-27.78591770030016
 30
0.0
  0
VERTEX
  5
20AD
  8
3
 10
36.0
 20
-28.19179203680005
 30
0.0
  0
SEQEND
  5
213F
  8
3
  0
POLYLINE
  5
E48
  8
3
 66
     1
 10
0.0
 20
0.0
 30
0.0
  0
VERTEX
  5
20AE
  8
3
 10
36.0
 20
-28.26983158810003
 30
0.0
  0
VERTEX
  5
20AF
  8
3
 10
35.86454310429986
 20
-28.67570592460015
 30
0.0
  0
VERTEX
  5
20B0
  8
3
 10
35.47285127350005
 20
-29.03759747900017
 30
0.0
  0
VERTEX
  5
20B1
  8
3
 10
34.86737039529999
 20
-29.31628968600012
 30
0.0
  0
VERTEX
  5
20B2
  8
3
 10
34.11371371790005
 20
-29.48158192060009
 30
0.0
  0
VERTEX
  5
20B3
  8
3
 10
33.29355163629998
 20
-29.51556220440011
 30
0.0
  0
VERTEX
  5
20B4
  8
3
 10
32.4957614384
 20
-29.41454824650009
 30
0.0
  0
VERTEX
  5
20B5
  8
3
 10
31.80679607100001
 20
-29.18948647650018
 30
0.0
  0
VERTEX
  5
20B6
  8
3
 10
31.30131562199995
 20
-28.86476582940008
 30
0.0
  0
VERTEX
  5
20B7
  8
3
 10
31.03409674149998
 20
-28.47557482599996
 30
0.0
  0
VERTEX
  5
20B8
  8
3
 10
31.03409674149998
 20
-28.06408835030015
 30
0.0
  0
VERTEX
  5
20B9
  8
3
 10
31.30131562199995
 20
-27.67489734679998
 30
0.0
  0
VERTEX
  5
20BA
  8
3
 10
31.80679607100001
 20
-27.35017669980016
 30
0.0
  0
VERTEX
  5
20BB
  8
3
 10
32.4957614384
 20
-27.12511492980002
 30
0.0
  0
VERTEX
  5
20BC
  8
3
 10
33.29355163629998
 20
-27.0241009719
 30
0.0
  0
VERTEX
  5
20BD
  8
3
 10
34.11371371790005
 20
-27.05808125570002
 30
0.0
  0
VERTEX
  5
20BE
  8
3
 10
34.86737039529999
 20
-27.22337349029999
 30
0.0
  0
VERTEX
  5
20BF
  8
3
 10
35.47285127350005
 20
-27.50206569730017
 30
0.0
  0
VERTEX
  5
20C0
  8
3
 10
35.86454310429986
 20
-27.86395725160014
 30
0.0
  0
VERTEX
  5
20C1
  8
3
 10
36.0
 20
-28.26983158810003
 30
0.0
  0
SEQEND
  5
213E
  8
3
  0
POLYLINE
  5
E49
  8
3
 66
     1
 10
0.0
 20
0.0
 30
0.0
  0
VERTEX
  5
20C2
  8
3
 10
35.55500000000006
 20
-28.53967848280013
 30
0.0
  0
VERTEX
  5
20C3
  8
3
 10
35.41623043139998
 20
-28.91085429480017
 30
0.0
  0
VERTEX
  5
20C4
  8
3
 10
35.01866332489999
 20
-29.2319007566
 30
0.0
  0
VERTEX
  5
20C5
  8
3
 10
34.41599232110002
 20
-29.45945876459996
 30
0.0
  0
VERTEX
  5
20C6
  8
3
 10
33.68961147870004
 20
-29.56279534890018
 30
0.0
  0
VERTEX
  5
20C7
  8
3
 10
32.93762255539991
 20
-29.52795433110009
 30
0.0
  0
VERTEX
  5
20C8
  8
3
 10
32.26158582230005
 20
-29.35964118380002
 30
0.0
  0
VERTEX
  5
20C9
  8
3
 10
31.7528037861
 20
-29.08058753010005
 30
0.0
  0
VERTEX
  5
20CA
  8
3
 10
31.4799902801999
 20
-28.72848111229996
 30
0.0
  0
VERTEX
  5
20CB
  8
3
 10
31.4799902801999
 20
-28.35087585320002
 30
0.0
  0
VERTEX
  5
20CC
  8
3
 10
31.7528037861
 20
-27.99876943540016
 30
0.0
  0
VERTEX
  5
20CD
  8
3
 10
32.26158582230005
 20
-27.71971578169996
 30
0.0
  0
VERTEX
  5
20CE
  8
3
 10
32.93762255539991
 20
-27.55140263440012
 30
0.0
  0
VERTEX
  5
20CF
  8
3
 10
33.68961147870004
 20
-27.51656161660003
 30
0.0
  0
VERTEX
  5
20D0
  8
3
 10
34.41599232110002
 20
-27.61989820090002
 30
0.0
  0
VERTEX
  5
20D1
  8
3
 10
35.01866332489999
 20
-27.84745620889998
 30
0.0
  0
VERTEX
  5
20D2
  8
3
 10
35.41623043139998
 20
-28.16850267070004
 30
0.0
  0
VERTEX
  5
20D3
  8
3
 10
35.55500000000006
 20
-28.53967848280013
 30
0.0
  0
SEQEND
  5
213D
  8
3
  0
POLYLINE
  5
E4A
  8
3
 66
     1
 10
0.0
 20
0.0
 30
0.0
  0
VERTEX
  5
20D4
  8
3
 10
36.0
 20
-28.80952537740018
 30
0.0
  0
VERTEX
  5
20D5
  8
3
 10
35.86454310429986
 20
-29.21539971390007
 30
0.0
  0
VERTEX
  5
20D6
  8
3
 10
35.47285127350005
 20
-29.57729126820004
 30
0.0
  0
VERTEX
  5
20D7
  8
3
 10
34.86737039529999
 20
-29.85598347519999
 30
0.0
  0
VERTEX
  5
20D8
  8
3
 10
34.11371371790005
 20
-30.02127570979997
 30
0.0
  0
VERTEX
  5
20D9
  8
3
 10
33.29355163629998
 20
-30.05525599359999
 30
0.0
  0
VERTEX
  5
20DA
  8
3
 10
32.4957614384
 20
-29.95424203569996
 30
0.0
  0
VERTEX
  5
20DB
  8
3
 10
31.80679607100001
 20
-29.72918026570005
 30
0.0
  0
VERTEX
  5
20DC
  8
3
 10
31.30131562199995
 20
-29.4044596187
 30
0.0
  0
VERTEX
  5
20DD
  8
3
 10
31.03409674149998
 20
-29.01526861520006
 30
0.0
  0
VERTEX
  5
20DE
  8
3
 10
31.03409674149998
 20
-28.60378213950003
 30
0.0
  0
VERTEX
  5
20DF
  8
3
 10
31.30131562199995
 20
-28.21459113610013
 30
0.0
  0
VERTEX
  5
20E0
  8
3
 10
31.80679607100001
 20
-27.88987048900003
 30
0.0
  0
VERTEX
  5
20E1
  8
3
 10
32.4957614384
 20
-27.66480871910017
 30
0.0
  0
VERTEX
  5
20E2
  8
3
 10
33.29355163629998
 20
-27.5637947611001
 30
0.0
  0
VERTEX
  5
20E3
  8
3
 10
34.11371371790005
 20
-27.59777504500016
 30
0.0
  0
VERTEX
  5
20E4
  8
3
 10
34.86737039529999
 20
-27.76306727960014
 30
0.0
  0
VERTEX
  5
20E5
  8
3
 10
35.47285127350005
 20
-28.04175948650004
 30
0.0
  0
VERTEX
  5
20E6
  8
3
 10
35.86454310429986
 20
-28.40365104090006
 30
0.0
  0
VERTEX
  5
20E7
  8
3
 10
36.0
 20
-28.80952537740018
 30
0.0
  0
SEQEND
  5
213C
  8
3
  0
LINE
  5
E4B
  8
3
 10
32.25
 20
-27.40248715140001
 30
0.0
 11
33.5
 21
-27.7633310696001
 31
0.0
  0
LINE
  5
E4C
  8
3
 10
34.75
 20
-27.40248715140001
 30
0.0
 11
33.5
 21
-27.7633310696001
 31
0.0
  0
LINE
  5
E4D
  8
3
 10
33.5
 20
-27.7633310696001
 30
0.0
 11
33.5
 21
-30.10159965980006
 31
0.0
  0
POLYLINE
  5
E4E
  8
3
 66
     1
 10
0.0
 20
0.0
 30
0.0
  0
VERTEX
  5
20E8
  8
3
 10
36.0
 20
-28.88756492870016
 30
0.0
  0
VERTEX
  5
20E9
  8
3
 10
35.86454310429986
 20
-29.29343926520005
 30
0.0
  0
VERTEX
  5
20EA
  8
3
 10
35.47285127350005
 20
-29.65533081960007
 30
0.0
  0
VERTEX
  5
20EB
  8
3
 10
34.86737039529999
 20
-29.93402302660002
 30
0.0
  0
VERTEX
  5
20EC
  8
3
 10
34.11371371790005
 20
-30.09931526119999
 30
0.0
  0
VERTEX
  5
20ED
  8
3
 10
33.29355163629998
 20
-30.13329554500001
 30
0.0
  0
VERTEX
  5
20EE
  8
3
 10
32.4957614384
 20
-30.03228158709999
 30
0.0
  0
VERTEX
  5
20EF
  8
3
 10
31.80679607100001
 20
-29.80721981710008
 30
0.0
  0
VERTEX
  5
20F0
  8
3
 10
31.30131562199995
 20
-29.48249916999998
 30
0.0
  0
VERTEX
  5
20F1
  8
3
 10
31.03409674149998
 20
-29.09330816660008
 30
0.0
  0
VERTEX
  5
20F2
  8
3
 10
31.03409674149998
 20
-28.68182169090005
 30
0.0
  0
VERTEX
  5
20F3
  8
3
 10
31.30131562199995
 20
-28.29263068740011
 30
0.0
  0
VERTEX
  5
20F4
  8
3
 10
31.80679607100001
 20
-27.96791004040006
 30
0.0
  0
VERTEX
  5
20F5
  8
3
 10
32.4957614384
 20
-27.74284827040015
 30
0.0
  0
VERTEX
  5
20F6
  8
3
 10
33.29355163629998
 20
-27.64183431250012
 30
0.0
  0
VERTEX
  5
20F7
  8
3
 10
34.11371371790005
 20
-27.67581459630014
 30
0.0
  0
VERTEX
  5
20F8
  8
3
 10
34.86737039529999
 20
-27.84110683090012
 30
0.0
  0
VERTEX
  5
20F9
  8
3
 10
35.47285127350005
 20
-28.11979903790007
 30
0.0
  0
VERTEX
  5
20FA
  8
3
 10
35.86454310429986
 20
-28.48169059220004
 30
0.0
  0
VERTEX
  5
20FB
  8
3
 10
36.0
 20
-28.88756492870016
 30
0.0
  0
SEQEND
  5
213B
  8
3
  0
POLYLINE
  5
E4F
  8
3
 66
     1
 10
0.0
 20
0.0
 30
0.0
  0
VERTEX
  5
20FC
  8
3
 10
35.55500000000006
 20
-29.15741182340003
 30
0.0
  0
VERTEX
  5
20FD
  8
3
 10
35.41623043150003
 20
-29.52858763540007
 30
0.0
  0
VERTEX
  5
20FE
  8
3
 10
35.01866332489999
 20
-29.84963409720012
 30
0.0
  0
VERTEX
  5
20FF
  8
3
 10
34.41599232110002
 20
-30.07719210520008
 30
0.0
  0
VERTEX
  5
2100
  8
3
 10
33.68961147870004
 20
-30.18052868950008
 30
0.0
  0
VERTEX
  5
2101
  8
3
 10
32.93762255539991
 20
-30.14568767169999
 30
0.0
  0
VERTEX
  5
2102
  8
3
 10
32.26158582230005
 20
-29.97737452440015
 30
0.0
  0
VERTEX
  5
2103
  8
3
 10
31.7528037861
 20
-29.69832087070017
 30
0.0
  0
VERTEX
  5
2104
  8
3
 10
31.4799902801999
 20
-29.34621445290009
 30
0.0
  0
VERTEX
  5
2105
  8
3
 10
31.4799902801999
 20
-28.96860919380015
 30
0.0
  0
VERTEX
  5
2106
  8
3
 10
31.7528037861
 20
-28.61650277600006
 30
0.0
  0
VERTEX
  5
2107
  8
3
 10
32.26158582230005
 20
-28.33744912230009
 30
0.0
  0
VERTEX
  5
2108
  8
3
 10
32.93762255539991
 20
-28.16913597500002
 30
0.0
  0
VERTEX
  5
2109
  8
3
 10
33.68961147870004
 20
-28.13429495720015
 30
0.0
  0
VERTEX
  5
210A
  8
3
 10
34.41599232110002
 20
-28.23763154150015
 30
0.0
  0
VERTEX
  5
210B
  8
3
 10
35.01866332489999
 20
-28.46518954950011
 30
0.0
  0
VERTEX
  5
210C
  8
3
 10
35.41623043150003
 20
-28.78623601139998
 30
0.0
  0
VERTEX
  5
210D
  8
3
 10
35.55500000000006
 20
-29.15741182340003
 30
0.0
  0
SEQEND
  5
213A
  8
3
  0
POLYLINE
  5
E50
  8
3
 66
     1
 10
0.0
 20
0.0
 30
0.0
  0
VERTEX
  5
210E
  8
3
 10
35.75610312689992
 20
-29.27936025990016
 30
0.0
  0
VERTEX
  5
210F
  8
3
 10
35.62004346009985
 20
-28.89354390250014
 30
0.0
  0
VERTEX
  5
2110
  8
3
 10
35.22827526340006
 20
-28.55426269190002
 30
0.0
  0
VERTEX
  5
2111
  8
3
 10
34.62805156340005
 20
-28.3024389492
 30
0.0
  0
VERTEX
  5
2112
  8
3
 10
33.89176819659997
 20
-28.1684463345
 30
0.0
  0
VERTEX
  5
2113
  8
3
 10
33.10823180340003
 20
-28.1684463345
 30
0.0
  0
VERTEX
  5
2114
  8
3
 10
32.37194843659995
 20
-28.3024389492
 30
0.0
  0
VERTEX
  5
2115
  8
3
 10
31.77172473659994
 20
-28.55426269190002
 30
0.0
  0
VERTEX
  5
2116
  8
3
 10
31.37995653999997
 20
-28.89354390250014
 30
0.0
  0
VERTEX
  5
2117
  8
3
 10
31.2438968731999
 20
-29.27936025990016
 30
0.0
  0
VERTEX
  5
2118
  8
3
 10
31.37995653999997
 20
-29.66517661730018
 30
0.0
  0
VERTEX
  5
2119
  8
3
 10
31.77172473659994
 20
-30.00445782800011
 30
0.0
  0
VERTEX
  5
211A
  8
3
 10
32.37194843659995
 20
-30.25628157060009
 30
0.0
  0
VERTEX
  5
211B
  8
3
 10
33.10823180340003
 20
-30.39027418540013
 30
0.0
  0
VERTEX
  5
211C
  8
3
 10
33.89176819659997
 20
-30.39027418540013
 30
0.0
  0
VERTEX
  5
211D
  8
3
 10
34.62805156340005
 20
-30.25628157060009
 30
0.0
  0
VERTEX
  5
211E
  8
3
 10
35.22827526340006
 20
-30.00445782800011
 30
0.0
  0
VERTEX
  5
211F
  8
3
 10
35.62004346009985
 20
-29.66517661730018
 30
0.0
  0
VERTEX
  5
2120
  8
3
 10
35.75610312689992
 20
-29.27936025990016
 30
0.0
  0
SEQEND
  5
2139
  8
3
  0
LINE
  5
E51
  8
3
 10
32.25
 20
-27.40248715140001
 30
0.0
 11
32.25
 21
-26.68079931490001
 31
0.0
  0
LINE
  5
E52
  8
3
 10
32.25
 20
-27.40248715140001
 30
0.0
 11
32.25
 21
-29.74075574159997
 31
0.0
  0
LINE
  5
E53
  8
3
 10
34.75
 20
-27.40248715140001
 30
0.0
 11
34.75
 21
-29.74075574159997
 31
0.0
  0
LINE
  5
E54
  8
3
 10
34.75
 20
-27.40248715140001
 30
0.0
 11
34.75
 21
-26.68079931490001
 31
0.0
  0
POLYLINE
  5
E55
  8
3
 66
     1
 10
0.0
 20
0.0
 30
0.0
  0
VERTEX
  5
2121
  8
3
 10
33.5
 20
-30.40741182340003
 30
0.0
  0
VERTEX
  5
2122
  8
3
 10
32.75764837599991
 20
-30.3380270391001
 30
0.0
  0
VERTEX
  5
2123
  8
3
 10
32.11555545229999
 20
-30.13924348580008
 30
0.0
  0
VERTEX
  5
2124
  8
3
 10
31.66043943630007
 20
-29.8379079839001
 30
0.0
  0
VERTEX
  5
2125
  8
3
 10
31.45376626769985
 20
-29.47471756270011
 30
0.0
  0
VERTEX
  5
2126
  8
3
 10
31.52344830330003
 20
-29.09872310110018
 30
0.0
  0
VERTEX
  5
2127
  8
3
 10
31.86007459799998
 20
-28.7607047345
 30
0.0
  0
VERTEX
  5
2128
  8
3
 10
32.41818190529989
 20
-28.50631371639997
 30
0.0
  0
VERTEX
  5
2129
  8
3
 10
33.12239474090006
 20
-28.36990696340013
 30
0.0
  0
VERTEX
  5
212A
  8
3
 10
33.87760525909994
 20
-28.36990696340013
 30
0.0
  0
VERTEX
  5
212B
  8
3
 10
34.58181809469988
 20
-28.50631371639997
 30
0.0
  0
VERTEX
  5
212C
  8
3
 10
35.13992540210006
 20
-28.7607047345
 30
0.0
  0
VERTEX
  5
212D
  8
3
 10
35.47655169669997
 20
-29.09872310110018
 30
0.0
  0
VERTEX
  5
212E
  8
3
 10
35.54623373229992
 20
-29.47471756270011
 30
0.0
  0
VERTEX
  5
212F
  8
3
 10
35.33956056379998
 20
-29.8379079839001
 30
0.0
  0
VERTEX
  5
2130
  8
3
 10
34.88444454770001
 20
-30.13924348580008
 30
0.0
  0
VERTEX
  5
2131
  8
3
 10
34.24235162399987
 20
-30.3380270391001
 30
0.0
  0
VERTEX
  5
2132
  8
3
 10
33.5
 20
-30.40741182340003
 30
0.0
  0
SEQEND
  5
2138
  8
3
  0
LINE
  5
E56
  8
3
 10
34.75
 20
-29.74075574159997
 30
0.0
 11
33.5
 21
-30.10159965980006
 31
0.0
  0
LINE
  5
E57
  8
3
 10
32.25
 20
-29.74075574159997
 30
0.0
 11
33.5
 21
-30.10159965980006
 31
0.0
  0
LINE
  5
E58
  8
3
 10
33.5
 20
-26.31995539670015
 30
0.0
 11
33.5
 21
-27.7633310696001
 31
0.0
  0
LINE
  5
E59
  8
3
 10
32.25
 20
-29.01906790509997
 30
0.0
 11
33.5
 21
-28.65822398690011
 31
0.0
  0
LINE
  5
E5A
  8
3
 10
32.25
 20
-26.68079931490001
 30
0.0
 11
33.5
 21
-26.31995539670015
 31
0.0
  0
LINE
  5
E5B
  8
3
 10
34.75
 20
-29.01906790509997
 30
0.0
 11
33.5
 21
-28.65822398690011
 31
0.0
  0
LINE
  5
E5C
  8
3
 10
34.75
 20
-26.68079931490001
 30
0.0
 11
33.5
 21
-26.31995539670015
 31
0.0
  0
LINE
  5
E5D
  8
3
 10
63.5
 20
12.70000000000005
 30
0.0
 11
58.41872999999987
 21
12.70000000000005
 31
0.0
  0
LINE
  5
E5E
  8
3
 10
58.41872999999987
 20
-12.70000000000005
 30
0.0
 11
63.5
 21
-12.70000000000005
 31
0.0
  0
LINE
  5
E5F
  8
3
 10
58.41872999999987
 20
12.70000000000005
 30
0.0
 11
57.14999999999986
 21
11.43127000000004
 31
0.0
  0
LINE
  5
E60
  8
3
 10
57.14999999999986
 20
-11.43127000000004
 30
0.0
 11
58.41872999999987
 21
-12.70000000000005
 31
0.0
  0
LINE
  5
E65
  8
3
 10
63.5
 20
50.80380999999988
 30
0.0
 11
50.32296030499992
 21
50.80380999999988
 31
0.0
  0
LINE
  5
E66
  8
3
 10
50.32296030499992
 20
31.74618999999984
 30
0.0
 11
63.5
 21
31.74618999999984
 31
0.0
  0
ARC
  5
E67
  8
3
 10
50.25999999999999
 20
50.99700999999982
 30
0.0
 40
0.2031999999999753
 50
270.0
 51
288.049830693328
  0
ARC
  5
E68
  8
3
 10
50.25999999999999
 20
31.55298999999991
 30
0.0
 40
0.2031999999999753
 50
71.95016930667195
 51
90.0
  0
LINE
  5
E69
  8
3
 10
49.18483951059989
 20
50.79380999999989
 30
0.0
 11
48.25999999999999
 21
50.54599999999982
 31
0.0
  0
LINE
  5
E6A
  8
3
 10
48.25999999999999
 20
32.00399999999991
 30
0.0
 11
49.18483951059989
 21
31.75618999999983
 31
0.0
  0
LINE
  5
E6B
  8
3
 10
50.25999999999999
 20
50.79380999999989
 30
0.0
 11
49.18483951059989
 21
50.79380999999989
 31
0.0
  0
LINE
  5
E6C
  8
3
 10
49.18483951059989
 20
31.75618999999983
 30
0.0
 11
50.25999999999999
 21
31.75618999999983
 31
0.0
  0
LINE
  5
E6D
  8
3
 10
63.5
 20
-31.74619000000007
 30
0.0
 11
50.32296030499992
 21
-31.74619000000007
 31
0.0
  0
LINE
  5
E6E
  8
3
 10
50.32296030499992
 20
-50.80381000000011
 30
0.0
 11
63.5
 21
-50.80381000000011
 31
0.0
  0
ARC
  5
E6F
  8
3
 10
50.25999999999999
 20
-31.55299000000014
 30
0.0
 40
0.2032000000001914
 50
270.0
 51
288.0498306933082
  0
ARC
  5
E70
  8
3
 10
50.25999999999999
 20
-50.99701000000005
 30
0.0
 40
0.2031999999999753
 50
71.95016930667195
 51
90.0
  0
LINE
  5
E71
  8
3
 10
50.25999999999999
 20
-31.75619000000006
 30
0.0
 11
49.18483951059989
 21
-31.75619000000006
 31
0.0
  0
LINE
  5
E72
  8
3
 10
49.18483951059989
 20
-50.79381000000012
 30
0.0
 11
50.25999999999999
 21
-50.79381000000012
 31
0.0
  0
LINE
  5
E73
  8
3
 10
49.18483951059989
 20
-31.75619000000006
 30
0.0
 11
48.25999999999999
 21
-32.00400000000013
 31
0.0
  0
LINE
  5
E74
  8
3
 10
48.25999999999999
 20
-50.54600000000005
 30
0.0
 11
49.18483951059989
 21
-50.79381000000012
 31
0.0
  0
LINE
  5
E75
  8
3
 10
63.5
 20
42.66726448429995
 30
0.0
 11
42.0
 21
42.66726448429995
 31
0.0
  0
LINE
  5
E76
  8
3
 10
42.0
 20
29.17478448429983
 30
0.0
 11
63.5
 21
29.17478448429983
 31
0.0
  0
LINE
  5
E77
  8
3
 10
63.5
 20
-29.17478448430006
 30
0.0
 11
42.0
 21
-29.17478448430006
 31
0.0
  0
LINE
  5
E78
  8
3
 10
42.0
 20
-42.66726448430018
 30
0.0
 11
63.5
 21
-42.66726448430018
 31
0.0
  0
LINE
  5
E7C
  8
3
 10
63.5
 20
26.39907116059999
 30
0.0
 11
63.31362966949996
 21
25.7035276181
 31
0.0
  0
LINE
  5
E7D
  8
3
 10
63.31362966949996
 20
-25.70352761800018
 30
0.0
 11
63.5
 21
-26.39907116050017
 31
0.0
  0
ARC
  5
E7E
  8
3
 10
63.70000000000005
 20
-25.60000000000014
 30
0.0
 40
0.4000000000003519
 50
166.8750000000209
 51
195.0000000000106
  0
ARC
  5
E7F
  8
3
 10
63.70000000000005
 20
-25.60000000000014
 30
0.0
 40
0.4000000000002497
 50
119.9999999999854
 51
166.8750000000133
  0
ARC
  5
E80
  8
3
 10
63.70000000000005
 20
25.59999999999991
 30
0.0
 40
0.4000000000003519
 50
164.9999999999894
 51
180.0
  0
ARC
  5
E81
  8
3
 10
63.70000000000005
 20
25.59999999999991
 30
0.0
 40
0.4000000000003183
 50
180.0
 51
239.9999999999893
  0
LINE
  5
E82
  8
3
 10
63.29999999999995
 20
25.59999999999991
 30
0.0
 11
63.29999999999995
 21
-25.60000000000014
 31
0.0
  0
LINE
  5
E83
  8
3
 10
63.5
 20
2.5
 30
0.0
 11
34.22534493119997
 21
2.5
 31
0.0
  0
LINE
  5
E84
  8
3
 10
32.82890980039997
 20
2.5
 30
0.0
 11
32.09999999999991
 21
2.5
 31
0.0
  0
LINE
  5
E85
  8
3
 10
32.09999999999991
 20
-2.5
 30
0.0
 11
32.75392913909991
 21
-2.5
 31
0.0
  0
LINE
  5
E86
  8
3
 10
34.2248900052
 20
-2.5
 30
0.0
 11
63.5
 21
-2.5
 31
0.0
  0
LINE
  5
E87
  8
3
 10
32.09999999999991
 20
2.5
 30
0.0
 11
31.76377804879985
 21
1.940432705099965
 31
0.0
  0
POLYLINE
  5
E88
  8
3
 66
     1
 10
0.0
 20
0.0
 30
0.0
  0
VERTEX
  5
2133
  8
3
 10
31.00010256129985
 20
0.6694632599999295
 30
0.0
  0
VERTEX
  5
2134
  8
3
 10
30.59784845249987
 20
0.0
 30
0.0
  0
VERTEX
  5
2135
  8
3
 10
30.94205783119992
 20
-0.5728606067000328
 30
0.0
  0
SEQEND
  5
2137
  8
3
  0
LINE
  5
E89
  8
3
 10
31.76113513659993
 20
-1.936034160400141
 30
0.0
 11
32.09999999999991
 21
-2.5
 31
0.0
  0
LINE
  5
E96
  8
3
 10
63.5
 20
11.90625
 30
0.0
 11
27.09999999999991
 21
11.90625
 31
0.0
  0
LINE
  5
E97
  8
3
 10
27.09999999999991
 20
-11.90625
 30
0.0
 11
63.5
 21
-11.90625
 31
0.0
  0
LINE
  5
E98
  8
3
 10
27.09999999999991
 20
11.90625
 30
0.0
 11
26.46323795900003
 21
10.84649999999988
 31
0.0
  0
LINE
  5
E99
  8
3
 10
26.46323795900003
 20
-10.84650000000011
 30
0.0
 11
27.09999999999991
 21
-11.90625
 31
0.0
  0
LINE
  5
E9C
  8
3
 10
63.5
 20
50.79724999999985
 30
0.0
 11
45.5
 21
50.79724999999985
 31
0.0
  0
LINE
  5
E9D
  8
3
 10
45.5
 20
31.75274999999988
 30
0.0
 11
63.5
 21
31.75274999999988
 31
0.0
  0
LINE
  5
E9E
  8
3
 10
45.5
 20
50.79724999999985
 30
0.0
 11
42.0
 21
44.97227181179983
 31
0.0
  0
LINE
  5
E9F
  8
3
 10
41.95878249439988
 20
37.64632563709984
 30
0.0
 11
45.5
 21
31.75274999999988
 31
0.0
  0
LINE
  5
EA0
  8
3
 10
45.5
 20
-31.75275000000011
 30
0.0
 11
41.95878249439988
 21
-37.64632563710006
 31
0.0
  0
LINE
  5
EA1
  8
3
 10
42.0
 20
-44.97227181170001
 30
0.0
 11
45.5
 21
-50.79725000000008
 31
0.0
  0
LINE
  5
EA2
  8
3
 10
63.5
 20
-31.75275000000011
 30
0.0
 11
45.5
 21
-31.75275000000011
 31
0.0
  0
LINE
  5
EA3
  8
3
 10
45.5
 20
-50.79725000000008
 30
0.0
 11
63.5
 21
-50.79725000000008
 31
0.0
  0
LINE
  5
EAA
  8
3
 10
31.39999999999986
 20
14.4291825201999
 30
0.0
 11
31.39999999999986
 21
10.31044397939991
 31
0.0
  0
LINE
  5
EAB
  8
3
 10
35.59999999999991
 20
10.30720473499991
 30
0.0
 11
35.59999999999991
 21
13.43786716149998
 31
0.0
  0
LINE
  5
EAC
  8
3
 10
35.59999999999991
 20
-13.43786716140016
 30
0.0
 11
35.59999999999991
 21
-10.3072047349001
 31
0.0
  0
LINE
  5
EAD
  8
3
 10
31.39999999999986
 20
-10.31044397940013
 30
0.0
 11
31.39999999999986
 21
-14.42918252010008
 31
0.0
  0
LINE
  5
EAE
  8
3
 10
63.5
 20
-13.0884572681
 30
0.0
 11
35.18008995759988
 21
-13.0884572681
 31
0.0
  0
LINE
  5
EAF
  8
3
 10
35.18008995759988
 20
-18.0884572681
 30
0.0
 11
63.5
 21
-18.0884572681
 31
0.0
  0
LINE
  5
EB0
  8
3
 10
31.5651755499
 20
-13.97855462720008
 30
0.0
 11
30.59784845249987
 21
-15.5884572681
 31
0.0
  0
LINE
  5
EB1
  8
3
 10
30.59784845249987
 20
-15.5884572681
 30
0.0
 11
31.5651755499
 21
-17.19835990900015
 31
0.0
  0
LINE
  5
EB2
  8
3
 10
63.5
 20
18.0884572681
 30
0.0
 11
35.1712266216
 21
18.0884572681
 31
0.0
  0
LINE
  5
EB3
  8
3
 10
35.1712266216
 20
13.0884572681
 30
0.0
 11
63.5
 21
13.0884572681
 31
0.0
  0
LINE
  5
EB4
  8
3
 10
31.56117813829997
 20
17.19170709909986
 30
0.0
 11
30.59784845249987
 21
15.5884572681
 31
0.0
  0
LINE
  5
EB5
  8
3
 10
30.59784845249987
 20
15.5884572681
 30
0.0
 11
31.56117813829997
 21
13.98520743719996
 31
0.0
  0
LINE
  5
EB6
  8
3
 10
31.39999999999986
 20
28.92524848639982
 30
0.0
 11
31.39999999999986
 21
16.74773201609992
 31
0.0
  0
LINE
  5
EB7
  8
3
 10
35.59999999999991
 20
17.73904737479984
 30
0.0
 11
35.59999999999991
 21
28.92524848639982
 31
0.0
  0
LINE
  5
EB8
  8
3
 10
35.59999999999991
 20
-28.92524848640005
 30
0.0
 11
35.59999999999991
 21
-17.73904737480007
 31
0.0
  0
LINE
  5
EB9
  8
3
 10
31.39999999999986
 20
-16.74773201610014
 30
0.0
 11
31.39999999999986
 21
-28.92524848640005
 31
0.0
  0
LINE
  5
EBA
  8
3
 10
36.125
 20
-30.24378634680011
 30
0.0
 11
36.125
 21
-29.37991182340011
 31
0.0
  0
LINE
  5
EBB
  8
3
 10
30.875
 20
-29.37991182340011
 30
0.0
 11
30.875
 21
-30.24576628110003
 31
0.0
  0
LINE
  5
EBC
  8
3
 10
35.64330352499996
 20
-28.62213959510018
 30
0.0
 11
35.21464281999988
 21
-28.31903070370004
 31
0.0
  0
LINE
  5
EBD
  8
3
 10
31.78535718009994
 20
-28.31903070370004
 30
0.0
 11
31.35669647509985
 21
-28.62213959510018
 31
0.0
  0
LINE
  5
EBE
  8
3
 10
30.875
 20
30.24576628119985
 30
0.0
 11
30.875
 21
29.37991182339988
 31
0.0
  0
LINE
  5
EBF
  8
3
 10
36.125
 20
29.37991182339988
 30
0.0
 11
36.125
 21
30.24378634689992
 31
0.0
  0
LINE
  5
EC0
  8
3
 10
31.35669647509985
 20
28.62213959509995
 30
0.0
 11
31.78535718009994
 21
28.31903070379985
 31
0.0
  0
LINE
  5
EC1
  8
3
 10
35.21464281999988
 20
28.31903070379985
 30
0.0
 11
35.64330352499996
 21
28.62213959509995
 31
0.0
  0
LINE
  5
EC2
  8
3
 10
31.60839563609989
 20
24.00578121719991
 30
0.0
 11
32.07113098340005
 21
23.67857791519987
 31
0.0
  0
LINE
  5
EC3
  8
3
 10
34.92886901659995
 20
23.67857791519987
 30
0.0
 11
35.39160436399993
 21
24.00578121719991
 31
0.0
  0
LINE
  5
EC4
  8
3
 10
32.08549679599992
 20
24.07244828859984
 30
0.0
 11
32.33727836629987
 21
23.98606190809983
 31
0.0
  0
LINE
  5
EC5
  8
3
 10
34.6627216336999
 20
23.98606190809983
 30
0.0
 11
34.91450320399986
 21
24.07244828859984
 31
0.0
  0
LINE
  5
EC6
  8
3
 10
34.81081035540001
 20
25.62968565710003
 30
0.0
 11
34.6627216336999
 21
25.68049497029983
 31
0.0
  0
LINE
  5
EC7
  8
3
 10
32.33727836629987
 20
25.68049497029983
 30
0.0
 11
32.18918964459999
 21
25.62968565710003
 31
0.0
  0
LINE
  5
EC8
  8
3
 10
31.0
 20
25.18116488519991
 30
0.0
 11
31.0
 21
25.10312533379988
 31
0.0
  0
LINE
  5
EC9
  8
3
 10
36.0
 20
25.10312533379988
 30
0.0
 11
36.0
 21
25.18116488519991
 31
0.0
  0
LINE
  5
ECA
  8
3
 10
34.91450320399986
 20
26.2118419302999
 30
0.0
 11
34.6627216336999
 21
26.29822831089996
 31
0.0
  0
LINE
  5
ECB
  8
3
 10
32.33727836629987
 20
26.29822831089996
 30
0.0
 11
32.08549679599992
 21
26.2118419302999
 31
0.0
  0
LINE
  5
ECC
  8
3
 10
32.08549679589987
 20
24.69018162919997
 30
0.0
 11
32.33727836629987
 21
24.60379524869995
 31
0.0
  0
LINE
  5
ECD
  8
3
 10
34.6627216336999
 20
24.60379524869995
 30
0.0
 11
34.91450320399986
 21
24.69018162919997
 31
0.0
  0
LINE
  5
ECE
  8
3
 10
31.0
 20
25.79889822580003
 30
0.0
 11
31.0
 21
25.72085867440001
 31
0.0
  0
LINE
  5
ECF
  8
3
 10
36.0
 20
25.72085867440001
 30
0.0
 11
36.0
 21
25.79889822580003
 31
0.0
  0
LINE
  5
ED0
  8
3
 10
34.91450320399986
 20
26.82957527090002
 30
0.0
 11
34.6627216336999
 21
26.91596165149986
 31
0.0
  0
LINE
  5
ED1
  8
3
 10
32.33727836629987
 20
26.91596165149986
 30
0.0
 11
32.08549679599992
 21
26.82957527090002
 31
0.0
  0
LINE
  5
ED2
  8
3
 10
32.08549679599992
 20
25.30791496979987
 30
0.0
 11
32.33727836629987
 21
25.22152858929985
 31
0.0
  0
LINE
  5
ED3
  8
3
 10
34.6627216336999
 20
25.22152858929985
 30
0.0
 11
34.91450320399986
 21
25.30791496979987
 31
0.0
  0
LINE
  5
ED4
  8
3
 10
31.0
 20
26.41663156639993
 30
0.0
 11
31.0
 21
26.3385920149999
 31
0.0
  0
LINE
  5
ED5
  8
3
 10
36.0
 20
26.3385920149999
 30
0.0
 11
36.0
 21
26.41663156639993
 31
0.0
  0
LINE
  5
ED6
  8
3
 10
34.91450320399986
 20
27.44730861149992
 30
0.0
 11
34.6627216336999
 21
27.53369499209998
 31
0.0
  0
LINE
  5
ED7
  8
3
 10
32.33727836629987
 20
27.53369499209998
 30
0.0
 11
32.08549679599992
 21
27.44730861149992
 31
0.0
  0
LINE
  5
ED8
  8
3
 10
32.08549679599992
 20
25.92564831039999
 30
0.0
 11
32.33727836629987
 21
25.83926192989998
 31
0.0
  0
LINE
  5
ED9
  8
3
 10
34.6627216336999
 20
25.83926192989998
 30
0.0
 11
34.9145032040999
 21
25.92564831039999
 31
0.0
  0
LINE
  5
EDA
  8
3
 10
31.0
 20
27.03436490699983
 30
0.0
 11
31.0
 21
26.95632535560003
 31
0.0
  0
LINE
  5
EDB
  8
3
 10
36.0
 20
26.95632535560003
 30
0.0
 11
36.0
 21
27.03436490699983
 31
0.0
  0
LINE
  5
EDC
  8
3
 10
34.9145032040999
 20
28.06504195209982
 30
0.0
 11
34.6627216336999
 21
28.15142833269988
 31
0.0
  0
LINE
  5
EDD
  8
3
 10
32.33727836629987
 20
28.15142833269988
 30
0.0
 11
32.08549679599992
 21
28.06504195209982
 31
0.0
  0
LINE
  5
EDE
  8
3
 10
32.08549679599992
 20
26.54338165109993
 30
0.0
 11
32.33727836629987
 21
26.45699527049987
 31
0.0
  0
LINE
  5
EDF
  8
3
 10
34.6627216336999
 20
26.45699527049987
 30
0.0
 11
34.9145032040999
 21
26.54338165109993
 31
0.0
  0
LINE
  5
EE0
  8
3
 10
31.0
 20
27.65209824759995
 30
0.0
 11
31.0
 21
27.57405869619993
 31
0.0
  0
LINE
  5
EE1
  8
3
 10
36.0
 20
27.57405869619993
 30
0.0
 11
36.0
 21
27.65209824759995
 31
0.0
  0
LINE
  5
EE2
  8
3
 10
34.9145032040999
 20
28.68277529269994
 30
0.0
 11
34.6627216336999
 21
28.7691616733
 31
0.0
  0
LINE
  5
EE3
  8
3
 10
32.33727836629987
 20
28.7691616733
 30
0.0
 11
32.08549679599992
 21
28.68277529269994
 31
0.0
  0
LINE
  5
EE4
  8
3
 10
32.08549679599992
 20
27.16111499169983
 30
0.0
 11
32.33727836629987
 21
27.0747286111
 31
0.0
  0
LINE
  5
EE5
  8
3
 10
34.6627216336999
 20
27.0747286111
 30
0.0
 11
34.9145032040999
 21
27.16111499169983
 31
0.0
  0
LINE
  5
EE6
  8
3
 10
31.0
 20
28.26983158819985
 30
0.0
 11
31.0
 21
28.19179203679982
 31
0.0
  0
LINE
  5
EE7
  8
3
 10
36.0
 20
28.19179203679982
 30
0.0
 11
36.0
 21
28.26983158819985
 31
0.0
  0
LINE
  5
EE8
  8
3
 10
34.9145032040999
 20
29.30050863339989
 30
0.0
 11
34.6627216336999
 21
29.3868950138999
 31
0.0
  0
LINE
  5
EE9
  8
3
 10
32.33727836629987
 20
29.3868950138999
 30
0.0
 11
32.08549679599992
 21
29.30050863339989
 31
0.0
  0
LINE
  5
EEA
  8
3
 10
32.08549679599992
 20
27.77884833229996
 30
0.0
 11
32.33727836629987
 21
27.6924619516999
 31
0.0
  0
LINE
  5
EEB
  8
3
 10
34.6627216336999
 20
27.6924619516999
 30
0.0
 11
34.9145032040999
 21
27.77884833229996
 31
0.0
  0
LINE
  5
EEC
  8
3
 10
31.0
 20
28.88756492879997
 30
0.0
 11
31.0
 21
28.80952537739995
 31
0.0
  0
LINE
  5
EED
  8
3
 10
36.0
 20
28.80952537739995
 30
0.0
 11
36.0
 21
28.88756492879997
 31
0.0
  0
LINE
  5
EEE
  8
3
 10
34.9145032040999
 20
29.91824197400001
 30
0.0
 11
34.6627216336999
 21
30.00462835450003
 31
0.0
  0
LINE
  5
EEF
  8
3
 10
32.33727836629987
 20
30.00462835450003
 30
0.0
 11
32.08549679599992
 21
29.91824197400001
 31
0.0
  0
LINE
  5
EF0
  8
3
 10
32.2234939594
 20
28.34923477819984
 30
0.0
 11
32.33727836629987
 21
28.31019529230002
 31
0.0
  0
LINE
  5
EF1
  8
3
 10
34.6627216336999
 20
28.31019529230002
 30
0.0
 11
34.77650604070004
 21
28.34923477819984
 31
0.0
  0
LINE
  5
EF2
  8
3
 10
35.39160436399993
 20
-24.00578121710009
 30
0.0
 11
34.92886901659995
 21
-23.67857791510005
 31
0.0
  0
LINE
  5
EF3
  8
3
 10
32.07113098340005
 20
-23.67857791510005
 30
0.0
 11
31.60839563609989
 21
-24.00578121710009
 31
0.0
  0
LINE
  5
EF4
  8
3
 10
34.91450320399986
 20
-24.07244828860007
 30
0.0
 11
34.6627216336999
 21
-23.98606190800001
 31
0.0
  0
LINE
  5
EF5
  8
3
 10
32.33727836629987
 20
-23.98606190800001
 30
0.0
 11
32.08549679599992
 21
-24.07244828860007
 31
0.0
  0
LINE
  5
EF6
  8
3
 10
32.18918964459999
 20
-25.62968565699998
 30
0.0
 11
32.33727836629987
 21
-25.68049497030006
 31
0.0
  0
LINE
  5
EF7
  8
3
 10
34.6627216336999
 20
-25.68049497030006
 30
0.0
 11
34.81081035540001
 21
-25.62968565699998
 31
0.0
  0
LINE
  5
EF8
  8
3
 10
36.0
 20
-25.18116488510009
 30
0.0
 11
36.0
 21
-25.10312533380011
 31
0.0
  0
LINE
  5
EF9
  8
3
 10
31.0
 20
-25.10312533380011
 30
0.0
 11
31.0
 21
-25.18116488510009
 31
0.0
  0
LINE
  5
EFA
  8
3
 10
32.08549679599992
 20
-26.21184193030012
 30
0.0
 11
32.33727836629987
 21
-26.29822831089996
 31
0.0
  0
LINE
  5
EFB
  8
3
 10
34.6627216336999
 20
-26.29822831089996
 30
0.0
 11
34.91450320399986
 21
-26.21184193030012
 31
0.0
  0
LINE
  5
EFC
  8
3
 10
34.91450320399986
 20
-24.69018162919997
 30
0.0
 11
34.6627216336999
 21
-24.60379524860014
 31
0.0
  0
LINE
  5
EFD
  8
3
 10
32.33727836629987
 20
-24.60379524860014
 30
0.0
 11
32.08549679589987
 21
-24.69018162919997
 31
0.0
  0
LINE
  5
EFE
  8
3
 10
36.0
 20
-25.79889822569999
 30
0.0
 11
36.0
 21
-25.72085867440001
 31
0.0
  0
LINE
  5
EFF
  8
3
 10
31.0
 20
-25.72085867440001
 30
0.0
 11
31.0
 21
-25.79889822569999
 31
0.0
  0
LINE
  5
F00
  8
3
 10
32.08549679589987
 20
-26.82957527090002
 30
0.0
 11
32.33727836629987
 21
-26.91596165150008
 31
0.0
  0
LINE
  5
F01
  8
3
 10
34.6627216336999
 20
-26.91596165150008
 30
0.0
 11
34.91450320399986
 21
-26.82957527090002
 31
0.0
  0
LINE
  5
F02
  8
3
 10
34.91450320399986
 20
-25.30791496980009
 30
0.0
 11
34.6627216336999
 21
-25.22152858920003
 31
0.0
  0
LINE
  5
F03
  8
3
 10
32.33727836629987
 20
-25.22152858920003
 30
0.0
 11
32.08549679599992
 21
-25.30791496980009
 31
0.0
  0
LINE
  5
F04
  8
3
 10
36.0
 20
-26.41663156630011
 30
0.0
 11
36.0
 21
-26.33859201500013
 31
0.0
  0
LINE
  5
F05
  8
3
 10
31.0
 20
-26.33859201500013
 30
0.0
 11
31.0
 21
-26.41663156630011
 31
0.0
  0
LINE
  5
F06
  8
3
 10
32.08549679599992
 20
-27.44730861150015
 30
0.0
 11
32.33727836629987
 21
-27.53369499209998
 31
0.0
  0
LINE
  5
F07
  8
3
 10
34.6627216336999
 20
-27.53369499209998
 30
0.0
 11
34.91450320399986
 21
-27.44730861150015
 31
0.0
  0
LINE
  5
F08
  8
3
 10
34.9145032040999
 20
-25.92564831039999
 30
0.0
 11
34.6627216336999
 21
-25.83926192980016
 31
0.0
  0
LINE
  5
F09
  8
3
 10
32.33727836629987
 20
-25.83926192980016
 30
0.0
 11
32.08549679599992
 21
-25.92564831039999
 31
0.0
  0
LINE
  5
F0A
  8
3
 10
36.0
 20
-27.03436490690001
 30
0.0
 11
36.0
 21
-26.95632535560003
 31
0.0
  0
LINE
  5
F0B
  8
3
 10
31.0
 20
-26.95632535560003
 30
0.0
 11
31.0
 21
-27.03436490690001
 31
0.0
  0
LINE
  5
F0C
  8
3
 10
32.08549679599992
 20
-28.06504195210005
 30
0.0
 11
32.33727836629987
 21
-28.15142833270011
 31
0.0
  0
LINE
  5
F0D
  8
3
 10
34.6627216336999
 20
-28.15142833270011
 30
0.0
 11
34.9145032040999
 21
-28.06504195210005
 31
0.0
  0
LINE
  5
F0E
  8
3
 10
34.9145032040999
 20
-26.54338165100012
 30
0.0
 11
34.6627216336999
 21
-26.45699527040006
 31
0.0
  0
LINE
  5
F0F
  8
3
 10
32.33727836629987
 20
-26.45699527040006
 30
0.0
 11
32.08549679599992
 21
-26.54338165100012
 31
0.0
  0
LINE
  5
F10
  8
3
 10
36.0
 20
-27.65209824750013
 30
0.0
 11
36.0
 21
-27.57405869620015
 31
0.0
  0
LINE
  5
F11
  8
3
 10
31.0
 20
-27.57405869620015
 30
0.0
 11
31.0
 21
-27.65209824750013
 31
0.0
  0
LINE
  5
F12
  8
3
 10
32.08549679599992
 20
-28.68277529270017
 30
0.0
 11
32.33727836629987
 21
-28.7691616733
 31
0.0
  0
LINE
  5
F13
  8
3
 10
34.6627216336999
 20
-28.7691616733
 30
0.0
 11
34.9145032040999
 21
-28.68277529270017
 31
0.0
  0
LINE
  5
F14
  8
3
 10
34.9145032040999
 20
-27.16111499160002
 30
0.0
 11
34.6627216336999
 21
-27.07472861099995
 31
0.0
  0
LINE
  5
F15
  8
3
 10
32.33727836629987
 20
-27.07472861099995
 30
0.0
 11
32.08549679599992
 21
-27.16111499160002
 31
0.0
  0
LINE
  5
F16
  8
3
 10
36.0
 20
-28.26983158810003
 30
0.0
 11
36.0
 21
-28.19179203680005
 31
0.0
  0
LINE
  5
F17
  8
3
 10
31.0
 20
-28.19179203680005
 30
0.0
 11
31.0
 21
-28.26983158810003
 31
0.0
  0
LINE
  5
F18
  8
3
 10
32.08549679599992
 20
-29.30050863330007
 30
0.0
 11
32.33727836629987
 21
-29.38689501390013
 31
0.0
  0
LINE
  5
F19
  8
3
 10
34.6627216336999
 20
-29.38689501390013
 30
0.0
 11
34.9145032040999
 21
-29.30050863330007
 31
0.0
  0
LINE
  5
F1A
  8
3
 10
34.9145032040999
 20
-27.77884833220014
 30
0.0
 11
34.6627216336999
 21
-27.69246195160008
 31
0.0
  0
LINE
  5
F1B
  8
3
 10
32.33727836629987
 20
-27.69246195160008
 30
0.0
 11
32.08549679599992
 21
-27.77884833220014
 31
0.0
  0
LINE
  5
F1C
  8
3
 10
36.0
 20
-28.88756492870016
 30
0.0
 11
36.0
 21
-28.80952537740018
 31
0.0
  0
LINE
  5
F1D
  8
3
 10
31.0
 20
-28.80952537740018
 30
0.0
 11
31.0
 21
-28.88756492870016
 31
0.0
  0
LINE
  5
F1E
  8
3
 10
32.08549679599992
 20
-29.91824197389997
 30
0.0
 11
32.33727836629987
 21
-30.00462835450003
 31
0.0
  0
LINE
  5
F1F
  8
3
 10
34.6627216336999
 20
-30.00462835450003
 30
0.0
 11
34.9145032040999
 21
-29.91824197389997
 31
0.0
  0
LINE
  5
F20
  8
3
 10
34.77650604070004
 20
-28.34923477820007
 30
0.0
 11
34.6627216336999
 21
-28.31019529219998
 31
0.0
  0
LINE
  5
F21
  8
3
 10
32.33727836629987
 20
-28.31019529219998
 30
0.0
 11
32.2234939594
 21
-28.34923477820007
 31
0.0
  0
LINE
  5
F22
  8
SK1
 10
100.838
 20
-31.75
 30
0.0
 11
101.5999999999999
 21
-30.98800000000006
 31
0.0
  0
LINE
  5
F24
  8
SK1
 10
101.5999999999999
 20
30.98799999999983
 30
0.0
 11
100.838
 21
31.75
 31
0.0
  0
LINE
  5
F25
  8
SK1
 10
100.838
 20
31.75
 30
0.0
 11
89.66200000000003
 21
31.75
 31
0.0
  0
LINE
  5
F26
  8
SK1
 10
89.66200000000003
 20
-31.75
 30
0.0
 11
100.838
 21
-31.75
 31
0.0
  0
LINE
  5
F27
  8
SK1
 10
89.66200000000003
 20
31.75
 30
0.0
 11
88.89999999999986
 21
30.98799999999983
 31
0.0
  0
LINE
  5
F28
  8
SK1
 10
88.89999999999986
 20
-30.98800000000006
 30
0.0
 11
89.66200000000003
 21
-31.75
 31
0.0
  0
ARC
  5
F29
  8
SK1
 10
88.11259999999993
 20
13.48739999999998
 30
0.0
 40
0.7873999999999342
 50
270.0
 51
0.0
  0
ARC
  5
F2A
  8
SK1
 10
88.11259999999993
 20
-13.48739999999998
 30
0.0
 40
0.7874000000001615
 50
0.0
 51
90.0
  0
LINE
  5
F2B
  8
SK1
 10
88.11259999999993
 20
12.70000000000005
 30
0.0
 11
87.09999999999991
 21
12.70000000000005
 31
0.0
  0
LINE
  5
F2C
  8
SK1
 10
87.09999999999991
 20
-12.70000000000005
 30
0.0
 11
88.11259999999993
 21
-12.70000000000005
 31
0.0
  0
LINE
  5
F2D
  8
SK1
 10
63.52857499969991
 20
50.80380999999988
 30
0.0
 11
63.5
 21
50.80380999999988
 31
0.0
  0
LINE
  5
F2E
  8
SK1
 10
63.5
 20
31.74618999999984
 30
0.0
 11
63.52857499969991
 21
31.74618999999984
 31
0.0
  0
LINE
  5
F2F
  8
SK1
 10
63.52857499969991
 20
-31.74619000000007
 30
0.0
 11
63.5
 21
-31.74619000000007
 31
0.0
  0
LINE
  5
F30
  8
SK1
 10
63.5
 20
-50.80381000000011
 30
0.0
 11
63.52857499969991
 21
-50.80381000000011
 31
0.0
  0
ARC
  5
F46
  8
SK1
 10
63.70000000000005
 20
-25.60000000000014
 30
0.0
 40
0.4000000000003519
 50
74.99999999998548
 51
120.0000000000157
  0
ARC
  5
F47
  8
SK1
 10
63.70000000000005
 20
25.59999999999991
 30
0.0
 40
0.4000000000002086
 50
240.0000000000014
 51
284.9999999999873
  0
LINE
  5
F48
  8
SK1
 10
64.4990711605999
 20
25.39999999999986
 30
0.0
 11
63.80352761809991
 21
25.21362966949982
 31
0.0
  0
LINE
  5
F49
  8
SK1
 10
63.80352761809991
 20
-25.21362966950005
 30
0.0
 11
64.4990711605999
 21
-25.40000000000009
 31
0.0
  0
LINE
  5
F4A
  8
SK1
 10
64.4990711605999
 20
-25.40000000000009
 30
0.0
 11
85.09999999999991
 21
-25.40000000000009
 31
0.0
  0
LINE
  5
F4B
  8
SK1
 10
85.09999999999991
 20
25.39999999999986
 30
0.0
 11
64.4990711605999
 21
25.39999999999986
 31
0.0
  0
ARC
  5
F4C
  8
SK1
 10
85.09999999999991
 20
-23.40000000000009
 30
0.0
 40
2.0
 50
270.0
 51
0.0
  0
ARC
  5
F4D
  8
SK1
 10
85.09999999999991
 20
23.39999999999986
 30
0.0
 40
2.0
 50
0.0
 51
90.0
  0
LINE
  5
F50
  8
SK1
 10
101.5999999999999
 20
30.98799999999983
 30
0.0
 11
101.5999999999999
 21
-30.98800000000006
 31
0.0
  0
LINE
  5
F51
  8
SK1
 10
100.838
 20
31.75
 30
0.0
 11
100.838
 21
-31.75
 31
0.0
  0
LINE
  5
F52
  8
SK1
 10
89.66200000000003
 20
31.75
 30
0.0
 11
89.66200000000003
 21
-31.75
 31
0.0
  0
LINE
  5
F53
  8
SK1
 10
88.89999999999986
 20
30.98799999999983
 30
0.0
 11
88.89999999999986
 21
-30.98800000000006
 31
0.0
  0
LINE
  5
F54
  8
SK1
 10
73.15200000000004
 20
50.79999999999995
 30
0.0
 11
63.5
 21
50.79999999999995
 31
0.0
  0
LINE
  5
F55
  8
SK1
 10
73.15200000000004
 20
50.79999999999995
 30
0.0
 11
73.15200000000004
 21
31.75
 31
0.0
  0
LINE
  5
F56
  8
SK1
 10
73.15200000000004
 20
31.75
 30
0.0
 11
63.5
 21
31.75
 31
0.0
  0
LINE
  5
F57
  8
SK1
 10
73.15200000000004
 20
-31.75
 30
0.0
 11
63.5
 21
-31.75
 31
0.0
  0
LINE
  5
F58
  8
SK1
 10
73.15200000000004
 20
-31.75
 30
0.0
 11
73.15200000000004
 21
-50.79999999999995
 31
0.0
  0
LINE
  5
F59
  8
SK1
 10
73.15200000000004
 20
-50.79999999999995
 30
0.0
 11
63.5
 21
-50.79999999999995
 31
0.0
  0
LINE
  5
F7F
  8
SK1
 10
64.4990711605999
 20
0.0
 30
0.0
 11
64.4990711605999
 21
25.39999999999986
 31
0.0
  0
LINE
  5
F80
  8
SK1
 10
64.4990711605999
 20
-25.40000000000009
 30
0.0
 11
64.4990711605999
 21
0.0
 31
0.0
  0
LINE
  5
F81
  8
SK1
 10
87.09999999999991
 20
0.0
 30
0.0
 11
87.09999999999991
 21
23.39999999999986
 31
0.0
  0
LINE
  5
F82
  8
SK1
 10
87.09999999999991
 20
-23.40000000000009
 30
0.0
 11
87.09999999999991
 21
0.0
 31
0.0
  0
LINE
  5
F90
  8
SK3
 10
92.07500000000005
 20
0.0
 30
0.0
 11
101.5999999999999
 21
0.0
 31
0.0
  0
LINE
  5
F91
  8
SK3
 10
92.07500000000005
 20
3.225799999999936
 30
0.0
 11
92.07500000000005
 21
0.0
 31
0.0
  0
LINE
  5
F92
  8
SK3
 10
92.07500000000005
 20
0.0
 30
0.0
 11
92.07500000000005
 21
-3.225800000000163
 31
0.0
  0
LINE
  5
F93
  8
SK3
 10
91.44000000000005
 20
6.451599999999871
 30
0.0
 11
91.44000000000005
 21
-6.451600000000099
 31
0.0
  0
LINE
  5
F94
  8
SK3
 10
92.07500000000005
 20
-3.225800000000163
 30
0.0
 11
92.07500000000005
 21
-6.451600000000099
 31
0.0
  0
LINE
  5
F95
  8
SK3
 10
92.07500000000005
 20
6.451599999999871
 30
0.0
 11
92.07500000000005
 21
3.225799999999936
 31
0.0
  0
LINE
  5
F96
  8
SK3
 10
92.07500000000005
 20
6.451599999999871
 30
0.0
 11
101.5999999999999
 21
6.451599999999871
 31
0.0
  0
LINE
  5
F97
  8
SK3
 10
92.07500000000005
 20
-6.451600000000099
 30
0.0
 11
101.5999999999999
 21
-6.451600000000099
 31
0.0
  0
LINE
  5
FA8
  8
SK3
 10
86.23397449410004
 20
-13.25
 30
0.0
 11
86.23397449410004
 21
13.25
 31
0.0
  0
LINE
  5
FA9
  8
SK3
 10
84.09999999999991
 20
13.25
 30
0.0
 11
84.09999999999991
 21
-13.25
 31
0.0
  0
LINE
  5
FB4
  8
SK3
 10
83.90653122139997
 20
11.90625
 30
0.0
 11
83.90653122139997
 21
-11.90625
 31
0.0
  0
LINE
  5
1022
  8
SK3
 10
87.09999999999991
 20
12.70000000000005
 30
0.0
 11
63.5
 21
12.70000000000005
 31
0.0
  0
LINE
  5
1023
  8
SK3
 10
63.5
 20
-12.70000000000005
 30
0.0
 11
87.09999999999991
 21
-12.70000000000005
 31
0.0
  0
LINE
  5
1026
  8
SK3
 10
92.07500000000005
 20
6.451599999999871
 30
0.0
 11
91.44000000000005
 21
6.451599999999871
 31
0.0
  0
LINE
  5
1027
  8
SK3
 10
91.44000000000005
 20
-6.451600000000099
 30
0.0
 11
92.07500000000005
 21
-6.451600000000099
 31
0.0
  0
LINE
  5
1028
  8
SK3
 10
91.44000000000005
 20
6.451599999999871
 30
0.0
 11
87.56348763029996
 21
0.0
 31
0.0
  0
LINE
  5
1029
  8
SK3
 10
87.56348763029996
 20
0.0
 30
0.0
 11
91.44000000000005
 21
-6.451600000000099
 31
0.0
  0
LINE
  5
1048
  8
SK3
 10
87.09999999999991
 20
2.5
 30
0.0
 11
63.5
 21
2.5
 31
0.0
  0
LINE
  5
104B
  8
SK3
 10
63.5
 20
-2.5
 30
0.0
 11
87.09999999999991
 21
-2.5
 31
0.0
  0
LINE
  5
1051
  8
SK3
 10
87.09999999999991
 20
13.75000005899983
 30
0.0
 11
86.23397449410004
 21
13.25
 31
0.0
  0
LINE
  5
1052
  8
SK3
 10
86.23397449410004
 20
-13.25
 30
0.0
 11
87.09999999999991
 21
-13.75000005900006
 31
0.0
  0
LINE
  5
1053
  8
SK3
 10
86.23397449410004
 20
13.25
 30
0.0
 11
84.09999999999991
 21
13.25
 31
0.0
  0
LINE
  5
1054
  8
SK3
 10
84.09999999999991
 20
-13.25
 30
0.0
 11
86.23397449410004
 21
-13.25
 31
0.0
  0
LINE
  5
1059
  8
SK3
 10
84.09999999999991
 20
12.01794925149989
 30
0.0
 11
83.90653122139997
 21
11.90625
 31
0.0
  0
LINE
  5
105A
  8
SK3
 10
83.90653122139997
 20
-11.90625
 30
0.0
 11
84.09999999999991
 21
-12.01794925140007
 31
0.0
  0
LINE
  5
105B
  8
SK3
 10
83.90653122139997
 20
11.90625
 30
0.0
 11
63.5
 21
11.90625
 31
0.0
  0
LINE
  5
105C
  8
SK3
 10
63.5
 20
-11.90625
 30
0.0
 11
83.90653122139997
 21
-11.90625
 31
0.0
  0
LINE
  5
1073
  8
SK3
 10
87.09999999999991
 20
-13.0884572681
 30
0.0
 11
63.5
 21
-13.0884572681
 31
0.0
  0
LINE
  5
1074
  8
SK3
 10
63.5
 20
-18.0884572681
 30
0.0
 11
87.09999999999991
 21
-18.0884572681
 31
0.0
  0
LINE
  5
1077
  8
SK3
 10
87.09999999999991
 20
18.0884572681
 30
0.0
 11
63.5
 21
18.0884572681
 31
0.0
  0
LINE
  5
1078
  8
SK3
 10
63.5
 20
13.0884572681
 30
0.0
 11
87.09999999999991
 21
13.0884572681
 31
0.0
  0
ARC
  5
10EC
  8
1
 10
39.0
 20
37.92499999999995
 30
0.0
 40
3.000000000000108
 50
270.0
 51
355.0388877724978
  0
LINE
  5
10ED
  8
3
 10
26.46323795900003
 20
10.84649999999988
 30
0.0
 11
0.0
 21
10.84649999999988
 31
0.0
  0
LINE
  5
10EE
  8
3
 10
26.46323795900003
 20
-10.84650000000011
 30
0.0
 11
0.0
 21
-10.84650000000011
 31
0.0
  0
ARC
  5
1C07
  8
NOCUT
 10
62.5
 20
60.89999999999986
 30
0.0
 40
1.0
 50
0.0
 51
90.0
  0
ARC
  5
1C09
  8
NOCUT
 10
43.0
 20
60.89999999999986
 30
0.0
 40
1.0
 50
90.0
 51
180.0
  0
LINE
  5
1C0A
  8
NOCUT
 10
62.5
 20
61.89999999999986
 30
0.0
 11
43.0
 21
61.89999999999986
 31
0.0
  0
LINE
  5
1C0B
  8
NOCUT
 10
63.5
 20
0.0
 30
0.0
 11
63.5
 21
60.89999999999986
 31
0.0
  0
ARC
  5
1C0C
  8
NOCUT
 10
39.0
 20
37.92499999999995
 30
0.0
 40
3.000000000000108
 50
270.0
 51
355.0388877724978
  0
LINE
  5
1C0F
  8
NOCUT
 10
42.0
 20
60.89999999999986
 30
0.0
 11
41.95878249439988
 21
37.64632563709984
 31
0.0
  0
LINE
  5
1C1C
  8
SK4
 10
63.5
 20
0.0
 30
0.0
 11
101.5999999999999
 21
-0.0000000000001137
 31
0.0
  0
DIMENSION
  5
1C1E
  8
SK2
  2
*D6
 10
136.3482906930885
 20
-61.9000000000001
 30
0.0
 11
134.4732906930885
 21
-0.0000000000001208
 31
0.0
 70
    32
  3
ISO-25
 13
62.5
 23
61.89999999999986
 33
0.0
 14
62.5
 24
-61.90000000000009
 34
0.0
 50
90.0
1001
ACAD
1000
DSTYLE
1002
{
1070
   287
1070
     5
1070
   271
1070
     3
1070
   272
1070
     3
1070
   279
1070
     2
1002
}
  0
DIMENSION
  5
1C2D
  8
SK2
  2
*D7
 10
117.3332448215289
 20
-25.40000000000009
 30
0.0
 11
115.4582448215289
 21
-0.0000000000001172
 31
0.0
 70
    32
  3
ISO-25
 13
85.09999999999991
 23
25.39999999999986
 33
0.0
 14
85.09999999999991
 24
-25.40000000000009
 34
0.0
 50
90.0
1001
ACAD
1000
DSTYLE
1002
{
1070
   287
1070
     5
1070
   271
1070
     3
1070
   272
1070
     3
1070
   279
1070
     2
1002
}
  0
ENDSEC
  0
EOF
