  0
SECTION
  2
HEADER
  9
$ACADVER
  1
AC1009
  9
$DWGCODEPAGE
  3
ansi_1251
  9
$INSBASE
 10
0.0
 20
0.0
 30
0.0
  9
$EXTMIN
 10
-68.25000000000001
 20
-30.5409271246
 30
0.0
  9
$EXTMAX
 10
88.90000000000003
 20
30.50275418977125
 30
0.0
  9
$LIMMIN
 10
0.0
 20
0.0
  9
$LIMMAX
 10
420.0
 20
297.0
  9
$ORTHOMODE
 70
     1
  9
$REGENMODE
 70
     1
  9
$FILLMODE
 70
     1
  9
$QTEXTMODE
 70
     0
  9
$MIRRTEXT
 70
     0
  9
$DRAGMODE
 70
     2
  9
$LTSCALE
 40
1.0
  9
$OSMODE
 70
   279
  9
$ATTMODE
 70
     1
  9
$TEXTSIZE
 40
2.5
  9
$TRACEWID
 40
1.0
  9
$TEXTSTYLE
  7
STANDARD
  9
$CLAYER
  8
0
  9
$CELTYPE
  6
BYLAYER
  9
$CECOLOR
 62
   256
  9
$DIMSCALE
 40
1.0
  9
$DIMASZ
 40
2.5
  9
$DIMEXO
 40
0.625
  9
$DIMDLI
 40
3.75
  9
$DIMRND
 40
0.0
  9
$DIMDLE
 40
0.0
  9
$DIMEXE
 40
1.25
  9
$DIMTP
 40
0.0
  9
$DIMTM
 40
0.0
  9
$DIMTXT
 40
2.5
  9
$DIMCEN
 40
2.5
  9
$DIMTSZ
 40
0.0
  9
$DIMTOL
 70
     0
  9
$DIMLIM
 70
     0
  9
$DIMTIH
 70
     0
  9
$DIMTOH
 70
     0
  9
$DIMSE1
 70
     0
  9
$DIMSE2
 70
     0
  9
$DIMTAD
 70
     1
  9
$DIMZIN
 70
     8
  9
$DIMBLK
  1

  9
$DIMASO
 70
     1
  9
$DIMSHO
 70
     1
  9
$DIMPOST
  1

  9
$DIMAPOST
  1

  9
$DIMALT
 70
     0
  9
$DIMALTD
 70
     3
  9
$DIMALTF
 40
0.03937007874016
  9
$DIMLFAC
 40
1.0
  9
$DIMTOFL
 70
     1
  9
$DIMTVP
 40
0.0
  9
$DIMTIX
 70
     0
  9
$DIMSOXD
 70
     0
  9
$DIMSAH
 70
     0
  9
$DIMBLK1
  1

  9
$DIMBLK2
  1

  9
$DIMSTYLE
  2
ISO-25
  9
$DIMCLRD
 70
     0
  9
$DIMCLRE
 70
     0
  9
$DIMCLRT
 70
     0
  9
$DIMTFAC
 40
1.0
  9
$DIMGAP
 40
0.625
  9
$LUNITS
 70
     2
  9
$LUPREC
 70
     3
  9
$SKETCHINC
 40
1.0
  9
$FILLETRAD
 40
10.0
  9
$AUNITS
 70
     0
  9
$AUPREC
 70
     0
  9
$MENU
  1
.
  9
$ELEVATION
 40
0.0
  9
$PELEVATION
 40
0.0
  9
$THICKNESS
 40
0.0
  9
$LIMCHECK
 70
     0
  9
$CHAMFERA
 40
10.0
  9
$CHAMFERB
 40
10.0
  9
$SKPOLY
 70
     0
  9
$TDCREATE
 40
2455022.429026158
  9
$TDUPDATE
 40
2458659.538982558
  9
$TDINDWG
 40
0.1506771181
  9
$TDUSRTIMER
 40
2458702.699084028
  9
$USRTIMER
 70
     1
  9
$ANGBASE
 50
0.0
  9
$ANGDIR
 70
     0
  9
$PDMODE
 70
     0
  9
$PDSIZE
 40
0.0
  9
$PLINEWID
 40
0.0
  9
$COORDS
 70
     1
  9
$SPLFRAME
 70
     0
  9
$SPLINETYPE
 70
     6
  9
$SPLINESEGS
 70
     8
  9
$ATTDIA
 70
     0
  9
$ATTREQ
 70
     1
  9
$HANDLING
 70
     1
  9
$HANDSEED
  5
1ED2
  9
$SURFTAB1
 70
     6
  9
$SURFTAB2
 70
     6
  9
$SURFTYPE
 70
     6
  9
$SURFU
 70
     6
  9
$SURFV
 70
     6
  9
$UCSNAME
  2

  9
$UCSORG
 10
0.0
 20
0.0
 30
0.0
  9
$UCSXDIR
 10
1.0
 20
0.0
 30
0.0
  9
$UCSYDIR
 10
0.0
 20
1.0
 30
0.0
  9
$PUCSNAME
  2

  9
$PUCSORG
 10
0.0
 20
0.0
 30
0.0
  9
$PUCSXDIR
 10
1.0
 20
0.0
 30
0.0
  9
$PUCSYDIR
 10
0.0
 20
1.0
 30
0.0
  9
$USERI1
 70
     0
  9
$USERI2
 70
     0
  9
$USERI3
 70
     0
  9
$USERI4
 70
     0
  9
$USERI5
 70
     0
  9
$USERR1
 40
0.0
  9
$USERR2
 40
0.0
  9
$USERR3
 40
0.0
  9
$USERR4
 40
0.0
  9
$USERR5
 40
0.0
  9
$WORLDVIEW
 70
     1
  9
$SHADEDGE
 70
     3
  9
$SHADEDIF
 70
    70
  9
$TILEMODE
 70
     1
  9
$MAXACTVP
 70
    64
  9
$PLIMCHECK
 70
     0
  9
$PEXTMIN
 10
1.000000000000000E+20
 20
1.000000000000000E+20
 30
1.000000000000000E+20
  9
$PEXTMAX
 10
-1.000000000000000E+20
 20
-1.000000000000000E+20
 30
-1.000000000000000E+20
  9
$PLIMMIN
 10
0.0
 20
0.0
  9
$PLIMMAX
 10
420.0
 20
297.0
  9
$UNITMODE
 70
     0
  9
$VISRETAIN
 70
     1
  9
$PLINEGEN
 70
     0
  9
$PSLTSCALE
 70
     1
  0
ENDSEC
  0
SECTION
  2
TABLES
  0
TABLE
  2
VPORT
 70
     1
  0
VPORT
  2
*ACTIVE
 70
     0
 10
0.0
 20
0.0
 11
1.0
 21
1.0
 12
91.23601577247703
 22
-2.020325411445
 13
0.0
 23
0.0
 14
10.0
 24
10.0
 15
10.0
 25
10.0
 16
0.0
 26
0.0
 36
1.0
 17
0.0
 27
0.0
 37
0.0
 40
295.1393552715881
 41
1.332880434782609
 42
50.0
 43
0.0
 44
0.0
 50
0.0
 51
0.0
 71
    16
 72
  1000
 73
     1
 74
     3
 75
     0
 76
     0
 77
     0
 78
     0
  0
ENDTAB
  0
TABLE
  2
LTYPE
 70
     6
  0
LTYPE
  2
CONTINUOUS
 70
     0
  3
Solid line
 72
    65
 73
     0
 40
0.0
  0
LTYPE
  2
CENTER
 70
     0
  3
 Center _____  _  _____  _  _____  _  _____  _ 
 72
    65
 73
     4
 40
50.8
 49
31.75
 49
-6.35
 49
6.35
 49
-6.35
  0
LTYPE
  2
DASHED
 70
     0
  3
Dashed __  __  __  __  __  __  __  __  __  __  
 72
    65
 73
     2
 40
19.05
 49
12.7
 49
-6.35
  0
LTYPE
  2
HIDDEN
 70
     0
  3
Hidden __ __ __ __ __ __ __ __ __ __ __ __ __ __
 72
    65
 73
     2
 40
1.905
 49
1.27
 49
-0.635
  0
LTYPE
  2
CENTERX2
 70
     0
  3
Center (2x) ________  __  ________  __  _____
 72
    65
 73
     4
 40
20.32
 49
12.7
 49
-2.54
 49
2.54
 49
-2.54
  0
LTYPE
  2
PHANTOM
 70
     0
  3
Phantom ______  __  __  ______  __  __  ______
 72
    65
 73
     6
 40
12.7
 49
6.35
 49
-1.27
 49
1.27
 49
-1.27
 49
1.27
 49
-1.27
  0
ENDTAB
  0
TABLE
  2
LAYER
 70
    26
  0
LAYER
  2
0
 70
     0
 62
     7
  6
CONTINUOUS
  0
LAYER
  2
1
 70
     0
 62
     4
  6
CONTINUOUS
  0
LAYER
  2
2
 70
     0
 62
     7
  6
CONTINUOUS
  0
LAYER
  2
3
 70
     0
 62
     1
  6
DASHED
  0
LAYER
  2
4
 70
     0
 62
     2
  6
CENTER
  0
LAYER
  2
6
 70
     0
 62
     5
  6
CONTINUOUS
  0
LAYER
  2
7
 70
     0
 62
     5
  6
CONTINUOUS
  0
LAYER
  2
11
 70
     0
 62
     4
  6
CONTINUOUS
  0
LAYER
  2
SK1
 70
     0
 62
     4
  6
CONTINUOUS
  0
LAYER
  2
SK2
 70
     0
 62
     7
  6
CONTINUOUS
  0
LAYER
  2
SK3
 70
     0
 62
     1
  6
DASHED
  0
LAYER
  2
SK4
 70
     0
 62
     2
  6
CENTER
  0
LAYER
  2
SK6
 70
     0
 62
     5
  6
CONTINUOUS
  0
LAYER
  2
SK7
 70
     0
 62
     5
  6
CONTINUOUS
  0
LAYER
  2
SK11
 70
     0
 62
     4
  6
CONTINUOUS
  0
LAYER
  2
CUT
 70
     0
 62
     1
  6
CONTINUOUS
  0
LAYER
  2
NOCUT
 70
     0
 62
    -7
  6
CONTINUOUS
  0
LAYER
  2
SKVIEW1
 70
     0
 62
     4
  6
CONTINUOUS
  0
LAYER
  2
SKVIEW2
 70
     0
 62
     7
  6
CONTINUOUS
  0
LAYER
  2
SKVIEW3
 70
     0
 62
     1
  6
DASHED
  0
LAYER
  2
SKVIEW4
 70
     0
 62
     2
  6
CENTER
  0
LAYER
  2
SKVIEW6
 70
     0
 62
     5
  6
CONTINUOUS
  0
LAYER
  2
SKVIEW7
 70
     0
 62
     5
  6
CONTINUOUS
  0
LAYER
  2
SKVIEW11
 70
     0
 62
     4
  6
CONTINUOUS
  0
LAYER
  2
INFTOTAL
 70
     0
 62
     9
  6
CONTINUOUS
  0
LAYER
  2
DEFPOINTS
 70
     0
 62
     7
  6
CONTINUOUS
  0
ENDTAB
  0
TABLE
  2
STYLE
 70
     1
  0
STYLE
  2
STANDARD
 70
     0
 40
0.0
 41
1.0
 50
0.0
 71
     0
 42
2.5
  3
txt
  4

  0
ENDTAB
  0
TABLE
  2
VIEW
 70
     0
  0
ENDTAB
  0
TABLE
  2
UCS
 70
     0
  0
ENDTAB
  0
TABLE
  2
APPID
 70
     2
  0
APPID
  2
ACAD
 70
     0
  0
APPID
  2
ACAECLAYERSTANDARD
 70
     0
  0
ENDTAB
  0
TABLE
  2
DIMSTYLE
 70
     1
  0
DIMSTYLE
  2
ISO-25
 70
     0
  3

  4

  5

  6

  7

 40
1.0
 41
2.5
 42
0.625
 43
3.75
 44
1.25
 45
0.0
 46
0.0
 47
0.0
 48
0.0
140
2.5
141
2.5
142
0.0
143
0.03937007874016
144
1.0
145
0.0
146
1.0
147
0.625
 71
     0
 72
     0
 73
     0
 74
     0
 75
     0
 76
     0
 77
     1
 78
     8
170
     0
171
     3
172
     1
173
     0
174
     0
175
     0
176
     0
177
     0
178
     0
  0
ENDTAB
  0
ENDSEC
  0
SECTION
  2
BLOCKS
  0
BLOCK
  8
0
  2
$MODEL_SPACE
 70
     0
 10
0.0
 20
0.0
 30
0.0
  3
$MODEL_SPACE
  1

  0
ENDBLK
  5
21
  8
0
  0
BLOCK
 67
     1
  8
0
  2
$PAPER_SPACE
 70
     0
 10
0.0
 20
0.0
 30
0.0
  3
$PAPER_SPACE
  1

  0
ENDBLK
  5
1D
 67
     1
  8
0
  0
BLOCK
  8
0
  2
*U2
 70
     1
 10
0.0
 20
0.0
 30
0.0
  3
*U2
  1

  0
TEXT
  5
77E
  8
SK6
 10
-50.0
 20
78.25
 30
0.0
 40
3.5
  1
BIG KAISER
 41
0.85
  0
TEXT
  5
781
  8
SK6
 10
-50.0
 20
73.0
 30
0.0
 40
3.5
  1
BCV50-SMC1.500-8
 41
0.85
  0
ENDBLK
  5
782
  8
0
  0
BLOCK
  8
0
  2
_FILLED
 70
     0
 10
0.0
 20
0.0
 30
0.0
  3
_FILLED
  1

  0
SOLID
  5
789
  8
0
  6
BYBLOCK
 62
     0
 10
0.0
 20
0.0
 30
0.0
 11
-1.0
 21
0.2142857143
 31
0.0
 12
-1.0
 22
-0.2142857143
 32
0.0
 13
-1.0
 23
-0.2142857143
 33
0.0
  0
ENDBLK
  5
78A
  8
0
  6
BYBLOCK
 62
     0
  0
BLOCK
  8
0
  2
*U5
 70
     1
 10
0.0
 20
0.0
 30
0.0
  3
*U5
  1

  0
TEXT
  5
790
  8
SK6
 10
-85.96178542556666
 20
-67.06748653279999
 30
0.0
 40
3.5
  1
BCV50
 41
0.85
  0
ENDBLK
  5
791
  8
0
  0
BLOCK
  8
0
  2
*D8
 70
     1
 10
0.0
 20
0.0
 30
0.0
  3
*D8
  1

  0
LINE
  5
808
  8
SK2
 62
     0
 10
0.0
 20
35.54999999999998
 30
0.0
 11
0.0
 21
63.71215670356074
 31
0.0
  0
LINE
  5
809
  8
SK2
 62
     0
 10
203.2
 20
45.67500000000001
 30
0.0
 11
203.2
 21
63.71215670356074
 31
0.0
  0
LINE
  5
80A
  8
SK2
 62
     0
 10
2.5
 20
62.46215670356074
 30
0.0
 11
200.7
 21
62.46215670356074
 31
0.0
  0
SOLID
  5
80B
  8
SK2
 62
     0
 10
2.5
 20
62.8788233702274
 30
0.0
 11
2.5
 21
62.04549003689407
 31
0.0
 12
0.0
 22
62.46215670356074
 32
0.0
 13
0.0
 23
62.46215670356074
 33
0.0
  0
SOLID
  5
80C
  8
SK2
 62
     0
 10
200.7
 20
62.04549003689407
 30
0.0
 11
200.7
 21
62.8788233702274
 31
0.0
 12
203.2
 22
62.46215670356074
 32
0.0
 13
203.2
 23
62.46215670356074
 33
0.0
  0
TEXT
  5
80D
  8
SK2
  6
CONTINUOUS
 62
     0
 10
96.80833333333335
 20
63.08715670356074
 30
0.0
 40
2.5
  1
203.2
  0
POINT
  5
80E
  8
DEFPOINTS
 62
     0
 10
0.0
 20
34.92499999999998
 30
0.0
  0
POINT
  5
80F
  8
DEFPOINTS
 62
     0
 10
203.2
 20
45.05000000000001
 30
0.0
  0
POINT
  5
810
  8
DEFPOINTS
 62
     0
 10
203.2
 20
62.46215670356074
 30
0.0
  0
ENDBLK
  5
812
  8
0
  0
BLOCK
  8
0
  2
*D10
 70
     1
 10
0.0
 20
0.0
 30
0.0
  3
*D10
  1

  0
LINE
  5
1A1D
  8
SK2
 62
     0
 10
202.825
 20
46.05000000000001
 30
0.0
 11
284.072031544954
 21
46.05
 31
0.0
  0
LINE
  5
1A1E
  8
SK2
 62
     0
 10
202.825
 20
-46.05000000000001
 30
0.0
 11
284.072031544954
 21
-46.05000000000002
 31
0.0
  0
LINE
  5
1A1F
  8
SK2
 62
     0
 10
282.822031544954
 20
43.55
 30
0.0
 11
282.822031544954
 21
-43.55000000000002
 31
0.0
  0
SOLID
  5
1A20
  8
SK2
 62
     0
 10
283.2386982116207
 20
43.55
 30
0.0
 11
282.4053648782873
 21
43.55
 31
0.0
 12
282.822031544954
 22
46.05
 32
0.0
 13
282.822031544954
 23
46.05
 33
0.0
  0
SOLID
  5
1A21
  8
SK2
 62
     0
 10
282.4053648782873
 20
-43.55000000000002
 30
0.0
 11
283.2386982116207
 21
-43.55000000000002
 31
0.0
 12
282.822031544954
 22
-46.05000000000002
 32
0.0
 13
282.822031544954
 23
-46.05000000000002
 33
0.0
  0
TEXT
  5
1A22
  8
SK2
  6
CONTINUOUS
 62
     0
 10
282.197031544954
 20
-3.333333333333314
 30
0.0
 40
2.5
  1
92.1
 50
90.0
  0
POINT
  5
1A23
  8
DEFPOINTS
 62
     0
 10
202.2
 20
46.05000000000001
 30
0.0
  0
POINT
  5
1A24
  8
DEFPOINTS
 62
     0
 10
202.2
 20
-46.05000000000001
 30
0.0
  0
POINT
  5
1A25
  8
DEFPOINTS
 62
     0
 10
282.822031544954
 20
-46.05000000000002
 30
0.0
  0
ENDBLK
  5
1A27
  8
0
  0
BLOCK
  8
0
  2
*D11
 70
     1
 10
0.0
 20
0.0
 30
0.0
  3
*D11
  1

  0
LINE
  5
1A2C
  8
SK2
 62
     0
 10
225.425
 20
19.05000000000001
 30
0.0
 11
261.9385181504587
 21
19.05000000000001
 31
0.0
  0
LINE
  5
1A2D
  8
SK2
 62
     0
 10
225.425
 20
-19.05000000000001
 30
0.0
 11
261.9385181504587
 21
-19.05000000000001
 31
0.0
  0
LINE
  5
1A2E
  8
SK2
 62
     0
 10
260.6885181504587
 20
16.55000000000001
 30
0.0
 11
260.6885181504587
 21
-16.55000000000001
 31
0.0
  0
SOLID
  5
1A2F
  8
SK2
 62
     0
 10
261.1051848171253
 20
16.55000000000001
 30
0.0
 11
260.271851483792
 21
16.55000000000001
 31
0.0
 12
260.6885181504587
 22
19.05000000000001
 32
0.0
 13
260.6885181504587
 23
19.05000000000001
 33
0.0
  0
SOLID
  5
1A30
  8
SK2
 62
     0
 10
260.271851483792
 20
-16.55000000000001
 30
0.0
 11
261.1051848171253
 21
-16.55000000000001
 31
0.0
 12
260.6885181504587
 22
-19.05000000000001
 32
0.0
 13
260.6885181504587
 23
-19.05000000000001
 33
0.0
  0
TEXT
  5
1A31
  8
SK2
  6
CONTINUOUS
 62
     0
 10
260.0635181504587
 20
-3.333333333333343
 30
0.0
 40
2.5
  1
38.1
 50
90.0
  0
POINT
  5
1A32
  8
DEFPOINTS
 62
     0
 10
224.8
 20
19.05000000000001
 30
0.0
  0
POINT
  5
1A33
  8
DEFPOINTS
 62
     0
 10
224.8
 20
-19.05000000000001
 30
0.0
  0
POINT
  5
1A34
  8
DEFPOINTS
 62
     0
 10
260.6885181504587
 20
-19.05000000000001
 30
0.0
  0
ENDBLK
  5
1A36
  8
0
  0
ENDSEC
  0
SECTION
  2
ENTITIES
  0
LINE
  5
685
  8
SK1
 10
0.0
 20
34.92499999999998
 30
0.0
 11
-99.6319088344
 21
20.3952133832
 31
0.0
  0
LINE
  5
686
  8
SK1
 10
-99.6319088344
 20
-20.3952133832
 30
0.0
 11
0.0
 21
-34.92500000000001
 31
0.0
  0
ARC
  5
68D
  8
SK1
 10
-99.3
 20
18.1192879614
 30
0.0
 40
2.299999999999995
 50
98.29722000000018
 51
180.0
  0
ARC
  5
68E
  8
SK1
 10
-99.3
 20
-18.1192879614
 30
0.0
 40
2.299999999999995
 50
180.0
 51
261.7027799999998
  0
LINE
  5
6F6
  8
SK1
 10
-101.6
 20
0.0
 30
0.0
 11
-101.6
 21
-18.1192879614
 31
0.0
  0
LINE
  5
6F7
  8
SK1
 10
-101.6
 20
18.1192879614
 30
0.0
 11
-101.6
 21
0.0
 31
0.0
  0
LINE
  5
71A
  8
SK3
 10
-99.5215390309
 20
-13.10000000000002
 30
0.0
 11
-99.5215390309
 21
13.09999999999999
 31
0.0
  0
LINE
  5
71B
  8
SK3
 10
-95.25
 20
-13.10000000000002
 30
0.0
 11
-95.25
 21
13.09999999999999
 31
0.0
  0
LINE
  5
72A
  8
SK3
 10
-101.6
 20
-14.30000000000001
 30
0.0
 11
-99.5215390309
 21
-13.10000000000002
 31
0.0
  0
LINE
  5
72B
  8
SK3
 10
-99.5215390309
 20
13.09999999999999
 30
0.0
 11
-101.6
 21
14.3
 31
0.0
  0
LINE
  5
72C
  8
SK3
 10
-99.5215390309
 20
-13.10000000000002
 30
0.0
 11
-95.25
 21
-13.10000000000002
 31
0.0
  0
LINE
  5
72D
  8
SK3
 10
-95.25
 20
13.09999999999999
 30
0.0
 11
-99.5215390309
 21
13.09999999999999
 31
0.0
  0
LINE
  5
72E
  8
SK3
 10
-95.25
 20
-11.09980000000002
 30
0.0
 11
-5.249999999999986
 21
-11.09980000000002
 31
0.0
  0
LINE
  5
72F
  8
SK3
 10
-5.250000000000001
 20
11.09979999999999
 30
0.0
 11
-95.25
 21
11.09979999999999
 31
0.0
  0
LINE
  5
760
  8
SK3
 10
-57.1
 20
12.69999999999999
 30
0.0
 11
-95.25
 21
12.69999999999999
 31
0.0
  0
LINE
  5
761
  8
SK3
 10
-95.25
 20
-12.69999999999999
 30
0.0
 11
-57.1
 21
-12.69999999999999
 31
0.0
  0
LINE
  5
774
  8
SK3
 10
-57.1
 20
12.69999999999999
 30
0.0
 11
-57.1
 21
-12.69999999999999
 31
0.0
  0
LINE
  5
777
  8
SK4
 10
0.0
 20
0.0
 30
0.0
 11
-101.6
 21
0.0
 31
0.0
  0
LINE
  5
779
  8
4
 10
0.0
 20
0.0
 30
0.0
 11
203.2
 21
0.0
 31
0.0
  0
INSERT
  5
77B
  8
SK6
  2
*U2
 10
-44.10380399683656
 20
-23.39313954296377
 30
0.0
  0
INSERT
  5
78D
  8
SK6
  2
*U5
 10
17.55665382414153
 20
-2.560320993650734
 30
0.0
  0
LINE
  5
793
  8
0
 10
3.0
 20
3.0
 30
0.0
 11
-3.0
 21
-3.0
 31
0.0
  0
LINE
  5
794
  8
0
 10
-3.0
 20
3.0
 30
0.0
 11
3.0
 21
-3.0
 31
0.0
  0
CIRCLE
  5
795
  8
0
 10
0.0
 20
0.0
 30
0.0
 40
2.5
  0
LINE
  5
796
  8
0
 10
206.2
 20
-3.0
 30
0.0
 11
200.2
 21
3.0
 31
0.0
  0
CIRCLE
  5
797
  8
0
 10
203.2
 20
0.0
 30
0.0
 40
2.5
  0
LINE
  5
798
  8
0
 10
200.2
 20
-3.0
 30
0.0
 11
206.2
 21
3.0
 31
0.0
  0
LINE
  5
799
  8
NOCUT
 10
0.7999999999999972
 20
34.62500000000001
 30
0.0
 11
0.2999999999999972
 21
34.62500000000001
 31
0.0
  0
LINE
  5
79C
  8
NOCUT
 10
0.2999999999999972
 20
34.62500000000001
 30
0.0
 11
0.0
 21
34.92499999999999
 31
0.0
  0
LINE
  5
79D
  8
NOCUT
 10
39.17157287529994
 20
34.92499999999999
 30
0.0
 11
20.05
 21
34.92499999999999
 31
0.0
  0
ARC
  5
79E
  8
NOCUT
 10
0.7999999999999972
 20
35.62500000000001
 30
0.0
 40
1.0
 50
270.0
 51
314.4270040008
  0
ARC
  5
79F
  8
NOCUT
 10
20.05
 20
35.92499999999999
 30
0.0
 40
1.0
 50
180.0
 51
270.0
  0
LINE
  5
7A0
  8
NOCUT
 10
12.55499999999999
 20
45.64499999999999
 30
0.0
 11
9.704999999999998
 21
45.64499999999999
 31
0.0
  0
ARC
  5
7A1
  8
NOCUT
 10
12.55499999999999
 20
46.14499999999999
 30
0.0
 40
0.5
 50
270.0
 51
0.0
  0
ARC
  5
7A2
  8
NOCUT
 10
9.704999999999998
 20
46.14499999999999
 30
0.0
 40
0.5
 50
180.0
 51
270.0
  0
ARC
  5
7A3
  8
NOCUT
 10
2.299999999999997
 20
48.4125
 30
0.0
 40
0.7999999999999972
 50
90.0
 51
180.0
  0
ARC
  5
7A4
  8
NOCUT
 10
18.24999999999999
 20
48.4125
 30
0.0
 40
0.799999999999983
 50
0.0
 51
90.0
  0
LINE
  5
7A5
  8
NOCUT
 10
9.204999999999998
 20
46.43919780459999
 30
0.0
 11
7.603833230999996
 21
49.21250000000001
 31
0.0
  0
LINE
  5
7A6
  8
NOCUT
 10
14.65616676910001
 20
49.21250000000001
 30
0.0
 11
13.05499999999999
 21
46.43919780459999
 31
0.0
  0
LINE
  5
7A7
  8
NOCUT
 10
18.24999999999999
 20
49.21250000000001
 30
0.0
 11
14.65616676910001
 21
49.21250000000001
 31
0.0
  0
LINE
  5
7A8
  8
NOCUT
 10
7.603833230999996
 20
49.21250000000001
 30
0.0
 11
2.299999999999997
 21
49.21250000000001
 31
0.0
  0
LINE
  5
7AC
  8
NOCUT
 10
1.5
 20
48.4125
 30
0.0
 11
1.499999999999929
 21
34.91085715714565
 31
0.0
  0
LINE
  5
7AD
  8
NOCUT
 10
19.04999999999997
 20
48.4125
 30
0.0
 11
19.05
 21
35.92499999999999
 31
0.0
  0
LINE
  5
7AE
  8
NOCUT
 10
9.204999999999998
 20
46.43919780459999
 30
0.0
 11
9.204999999999998
 21
46.14499999999999
 31
0.0
  0
LINE
  5
7AF
  8
NOCUT
 10
13.05499999999999
 20
46.43919780459999
 30
0.0
 11
13.05499999999999
 21
46.14499999999999
 31
0.0
  0
DIMENSION
  5
804
  8
SK2
  2
*D8
 10
203.2
 20
62.46215670356074
 30
0.0
 11
101.6
 21
64.33715670356074
 31
0.0
 70
    32
  3
ISO-25
 13
0.0
 23
34.92499999999998
 33
0.0
 14
203.2
 24
45.05000000000001
 34
0.0
1001
ACAD
1000
DSTYLE
1002
{
1070
   287
1070
     5
1070
   271
1070
     3
1070
   272
1070
     3
1070
   279
1070
     2
1002
}
  0
LINE
  5
8BF
  8
NOCUT
 10
0.0
 20
34.92499999999999
 30
0.0
 11
0.0
 21
0.0
 31
0.0
  0
LINE
  5
8C0
  8
NOCUT
 10
0.0
 20
0.0
 30
0.0
 11
203.2
 21
0.0
 31
0.0
  0
INSERT
  5
A17
  8
SK6
  2
_FILLED
 10
-20.78186483605847
 20
-31.89428358495073
 30
0.0
 41
3.5
 42
3.5
 43
3.5
 50
52.86965044919886
  0
POLYLINE
  5
A18
  8
SK6
 66
     1
 10
0.0
 20
0.0
 30
0.0
  0
VERTEX
  5
1A3D
  8
SK6
 10
-22.89457117648658
 20
-34.68470862768434
 30
0.0
  0
VERTEX
  5
1A3E
  8
SK6
 10
-48.02596493475846
 20
-67.87780752645074
 30
0.0
  0
VERTEX
  5
1A3F
  8
SK6
 10
-49.90096493475846
 20
-66.12780752645074
 30
0.0
  0
VERTEX
  5
1A40
  8
SK6
 10
-53.40096493475846
 20
-66.12780752645074
 30
0.0
  0
SEQEND
  5
1ED1
  8
SK6
  0
ARC
  5
AC7
  8
1
 10
20.04999999999998
 20
35.92499999999998
 30
0.0
 40
1.0
 50
180.0
 51
270.0
  0
ARC
  5
AC9
  8
1
 10
20.04999999999998
 20
-35.92500000000001
 30
0.0
 40
1.0
 50
90.0
 51
180.0
  0
ARC
  5
ACA
  8
1
 10
1.299999999999983
 20
35.125
 30
0.0
 40
0.5
 50
270.0
 51
293.5781784781994
  0
ARC
  5
ACB
  8
1
 10
1.299999999999983
 20
-35.125
 30
0.0
 40
0.500000000000009
 50
66.42182152180017
 51
90.0
  0
LINE
  5
ACC
  8
1
 10
39.17157287529994
 20
34.92499999999998
 30
0.0
 11
20.04999999999998
 21
34.92499999999998
 31
0.0
  0
LINE
  5
ACE
  8
1
 10
20.04999999999998
 20
-34.92500000000001
 30
0.0
 11
39.17157287529994
 21
-34.92499999999983
 31
0.0
  0
LINE
  5
ACF
  8
1
 10
0.0
 20
-34.92500000000001
 30
0.0
 11
0.2999999999999829
 21
-34.625
 31
0.0
  0
LINE
  5
AD0
  8
1
 10
0.2999999999999829
 20
34.625
 30
0.0
 11
0.0
 21
34.92499999999998
 31
0.0
  0
LINE
  5
AD5
  8
1
 10
1.299999999999983
 20
34.625
 30
0.0
 11
0.2999999999999829
 21
34.625
 31
0.0
  0
LINE
  5
AD6
  8
1
 10
0.2999999999999829
 20
-34.625
 30
0.0
 11
1.299999999999983
 21
-34.625
 31
0.0
  0
LINE
  5
ADB
  8
1
 10
14.65616694409999
 20
-47.282880439
 30
0.0
 11
14.68806954659999
 21
-47.29184187660002
 31
0.0
  0
LINE
  5
ADC
  8
1
 10
14.6561667691
 20
47.30816788690001
 30
0.0
 11
14.6561667691
 21
-47.2826327523
 31
0.0
  0
LINE
  5
ADD
  8
1
 10
14.7615962207
 20
47.3314147463
 30
0.0
 11
14.6561668942
 21
47.30816788690001
 31
0.0
  0
LINE
  5
ADE
  8
1
 10
18.25
 20
47.3314147463
 30
0.0
 11
14.7615962207
 21
47.3314147463
 31
0.0
  0
LINE
  5
ADF
  8
1
 10
14.68806954659999
 20
-47.29184187660002
 30
0.0
 11
18.25
 21
-47.29184187660002
 31
0.0
  0
LINE
  5
AE0
  8
1
 10
7.498403779400007
 20
47.3314147463
 30
0.0
 11
4.006414746699988
 21
47.3314147463
 31
0.0
  0
LINE
  5
AE1
  8
1
 10
7.603833105900009
 20
47.30816788690001
 30
0.0
 11
7.498403779400007
 21
47.3314147463
 31
0.0
  0
LINE
  5
AE2
  8
1
 10
7.603833230899994
 20
47.30844201400001
 30
0.0
 11
7.603833230899994
 21
-47.28288044160001
 31
0.0
  0
LINE
  5
AE3
  8
1
 10
7.571930453299984
 20
-47.29184187660002
 30
0.0
 11
7.603833055899997
 21
-47.282880439
 31
0.0
  0
LINE
  5
AE4
  8
1
 10
4.040356993800003
 20
-47.29184187660002
 30
0.0
 11
7.571930453299984
 21
-47.29184187660002
 31
0.0
  0
LINE
  5
AE5
  8
1
 10
2.300001405499984
 20
-46.74795901499999
 30
0.0
 11
4.040356993800003
 21
-47.29184189310001
 31
0.0
  0
LINE
  5
AE6
  8
1
 10
4.006414746699988
 20
47.33141476029999
 30
0.0
 11
2.299999765199999
 21
46.80267569
 31
0.0
  0
ARC
  5
AE7
  8
1
 10
2.557435939599998
 20
-45.59355264690001
 30
0.0
 40
1.184053137363273
 50
207.7147598986998
 51
257.3157095984005
  0
LINE
  5
AE8
  8
1
 10
1.50922466130001
 20
-46.14422037630001
 30
0.0
 11
1.5
 21
-46.01377680920001
 31
0.0
  0
LINE
  5
AE9
  8
1
 10
1.5
 20
-46.01377680920001
 30
0.0
 11
1.5
 21
46.01377680919998
 31
0.0
  0
ARC
  5
AEA
  8
1
 10
2.572884962100005
 20
45.72649004249999
 30
0.0
 40
1.111555736593689
 50
104.3436511600003
 51
164.8417645594994
  0
LINE
  5
AEB
  8
1
 10
9.204999995999998
 20
44.41431970880001
 30
0.0
 11
7.60383322749999
 21
47.3081678945
 31
0.0
  0
LINE
  5
AEC
  8
1
 10
9.204999999999984
 20
44.4143196734
 30
0.0
 11
9.204999999999984
 21
-44.387299867
 31
0.0
  0
LINE
  5
AED
  8
1
 10
7.603833226399985
 20
-47.28288044990001
 30
0.0
 11
9.2049999921
 21
-44.38762367050001
 31
0.0
  0
LINE
  5
AEE
  8
1
 10
14.65616677259999
 20
47.3081678945
 30
0.0
 11
13.05500000399999
 21
44.41431970880001
 31
0.0
  0
LINE
  5
AEF
  8
1
 10
13.05500000800001
 20
-44.38762367050001
 30
0.0
 11
14.65616677360001
 21
-47.28288044990001
 31
0.0
  0
LINE
  5
AF0
  8
1
 10
13.05500000000001
 20
44.41459195280001
 30
0.0
 11
13.05500000000001
 21
-44.38762365650001
 31
0.0
  0
ARC
  5
AF1
  8
1
 10
17.92302328310001
 20
46.41895288640001
 30
0.0
 40
1.127359624435328
 50
1.493363825500091
 51
43.53750291790048
  0
LINE
  5
AF2
  8
1
 10
19.04999999999998
 20
46.44833319130001
 30
0.0
 11
19.04999999999998
 21
-46.44833319130001
 31
0.0
  0
ARC
  5
AF3
  8
1
 10
17.91824827779999
 20
-46.4157978575
 30
0.0
 40
1.1322192847622
 50
319.2464850235001
 51
358.3533278529993
  0
ARC
  5
AF4
  8
1
 10
18.2616113983
 20
-46.25791326929999
 30
0.0
 40
1.033993805426882
 50
269.3565743835002
 51
299.8289453780985
  0
ARC
  5
AF5
  8
1
 10
18.2610591033
 20
46.41902767409999
 30
0.0
 40
0.9124540938653742
 50
58.31881226410037
 51
90.69445187719943
  0
ARC
  5
AF6
  8
1
 10
12.5158206966
 20
-44.1073442162
 30
0.0
 40
0.5397579791454132
 50
357.3466499737992
 51
85.83742202690154
  0
ARC
  5
AF7
  8
1
 10
12.54139279200001
 20
44.09944295630001
 30
0.0
 40
0.4858431210597904
 50
271.6049163143007
 51
333.441972537701
  0
POLYLINE
  5
AF8
  8
1
 66
     1
 10
0.0
 20
0.0
 30
0.0
  0
VERTEX
  5
1A41
  8
1
 10
13.05500000000001
 20
44.14662312639999
 30
0.0
  0
VERTEX
  5
1A42
  8
1
 10
13.03542892280001
 20
44.01594229719998
 30
0.0
  0
VERTEX
  5
1A43
  8
1
 10
12.97787844319998
 20
43.88571451269999
 30
0.0
  0
SEQEND
  5
1ED0
  8
1
  0
ARC
  5
AF9
  8
1
 10
9.744214343399989
 20
-44.10737531749999
 30
0.0
 40
0.5397915428070933
 50
94.16604783349855
 51
182.6498801657025
  0
POLYLINE
  5
AFA
  8
1
 66
     1
 10
0.0
 20
0.0
 30
0.0
  0
VERTEX
  5
1A44
  8
1
 10
9.280099379399985
 20
43.88913247470001
 30
0.0
  0
VERTEX
  5
1A45
  8
1
 10
9.224055884099982
 20
44.0177026321
 30
0.0
  0
VERTEX
  5
1A46
  8
1
 10
9.204999999999984
 20
44.14662312639999
 30
0.0
  0
SEQEND
  5
1ECF
  8
1
  0
ARC
  5
AFB
  8
1
 10
9.721350266000002
 20
44.10422581969999
 30
0.0
 40
0.4907078648052702
 50
206.0244317763009
 51
268.0905652222996
  0
LINE
  5
AFC
  8
1
 10
12.55500000000001
 20
43.613790424
 30
0.0
 11
9.704999999999984
 21
43.613790424
 31
0.0
  0
LINE
  5
AFD
  8
1
 10
9.704999999999984
 20
-43.5690100651
 30
0.0
 11
12.55500000000001
 21
-43.5690100651
 31
0.0
  0
LINE
  5
B00
  8
1
 10
0.2999999999999829
 20
34.625
 30
0.0
 11
0.2999999999999829
 21
-34.625
 31
0.0
  0
LINE
  5
B01
  8
1
 10
0.0
 20
34.92499999999998
 30
0.0
 11
0.0
 21
-34.92500000000001
 31
0.0
  0
LINE
  5
B04
  8
1
 10
14.68806954670001
 20
-47.29184187660002
 30
0.0
 11
14.65616694420001
 21
-47.282880439
 31
0.0
  0
LINE
  5
B1A
  8
3
 10
1.500000000000004
 20
37.72
 30
0.0
 11
19.04999999999998
 21
37.72
 31
0.0
  0
LINE
  5
B3B
  8
3
 10
1.5
 20
-35.30000000000001
 30
0.0
 11
19.26937525020018
 21
-35.30000000000001
 31
0.0
  0
LINE
  5
B42
  8
3
 10
26.97499999999999
 20
28.32499999999999
 30
0.0
 11
33.32499999999999
 21
28.32499999999999
 31
0.0
  0
LINE
  5
B43
  8
3
 10
20.625
 20
28.32499999999999
 30
0.0
 11
26.97499999999999
 21
28.32499999999999
 31
0.0
  0
LINE
  5
B44
  8
3
 10
11.375
 20
37.31999999999999
 30
0.0
 11
16.125
 21
37.31999999999999
 31
0.0
  0
LINE
  5
B45
  8
3
 10
6.625
 20
37.31999999999999
 30
0.0
 11
11.375
 21
37.31999999999999
 31
0.0
  0
LINE
  5
B55
  8
3
 10
20.625
 20
28.32499999999999
 30
0.0
 11
26.97499999999999
 21
24.50953506919998
 31
0.0
  0
LINE
  5
B56
  8
3
 10
26.97499999999999
 20
24.50953506919998
 30
0.0
 11
33.32499999999999
 21
28.32499999999999
 31
0.0
  0
LINE
  5
B57
  8
3
 10
20.625
 20
34.92499999999998
 30
0.0
 11
20.625
 21
28.32499999999999
 31
0.0
  0
LINE
  5
B58
  8
3
 10
33.32499999999999
 20
28.32499999999999
 30
0.0
 11
33.32499999999999
 21
34.92499999999998
 31
0.0
  0
LINE
  5
B59
  8
3
 10
6.625
 20
37.72
 30
0.0
 11
6.625
 21
37.31999999999999
 31
0.0
  0
LINE
  5
B5A
  8
3
 10
16.125
 20
37.31999999999999
 30
0.0
 11
16.125
 21
37.72
 31
0.0
  0
LINE
  5
B5B
  8
1
 10
20.04999999999998
 20
-34.92500000000001
 30
0.0
 11
20.04999999999998
 21
34.92499999999998
 31
0.0
  0
LINE
  5
B5C
  8
1
 10
1.299999999999983
 20
-34.625
 30
0.0
 11
1.299999999999983
 21
34.625
 31
0.0
  0
LINE
  5
B5F
  8
1
 10
12.55500000000001
 20
-43.00413183130001
 30
0.0
 11
12.55500000000001
 21
42.79577481850001
 31
0.0
  0
LINE
  5
B60
  8
1
 10
9.704999999999984
 20
-43.00421493109999
 30
0.0
 11
9.704999999999984
 21
42.7957705776
 31
0.0
  0
LINE
  5
B62
  8
1
 10
18.25
 20
47.3314147463
 30
0.0
 11
18.25
 21
-47.29184187660002
 31
0.0
  0
LINE
  5
B64
  8
1
 10
2.299999999999983
 20
-46.74795854910002
 30
0.0
 11
2.299999999999983
 21
46.80267576719999
 31
0.0
  0
LINE
  5
CD6
  8
1
 10
51.125
 20
-46.05000000000001
 30
0.0
 11
202.2
 21
-46.05000000000001
 31
0.0
  0
LINE
  5
CD8
  8
1
 10
202.2
 20
46.05000000000001
 30
0.0
 11
51.125
 21
46.05000000000001
 31
0.0
  0
ARC
  5
CD9
  8
1
 10
202.2
 20
-45.05000000000001
 30
0.0
 40
1.000000000000227
 50
270.0
 51
0.0
  0
ARC
  5
CDA
  8
1
 10
202.2
 20
45.05000000000001
 30
0.0
 40
1.000000000000227
 50
0.0
 51
90.0
  0
LINE
  5
CDB
  8
1
 10
51.125
 20
46.05000000000001
 30
0.0
 11
40.58578643769988
 21
35.51078643760002
 31
0.0
  0
LINE
  5
CDC
  8
1
 10
40.58578643769988
 20
-35.51078643760002
 30
0.0
 11
51.125
 21
-46.05000000000001
 31
0.0
  0
ARC
  5
CE1
  8
1
 10
39.17157287529994
 20
-36.92500000000001
 30
0.0
 40
2.000000000000177
 50
44.9999999999977
 51
90.0
  0
LINE
  5
D01
  8
1
 10
203.2
 20
-41.28131000000002
 30
0.0
 11
203.2285674555001
 21
-41.28131000000002
 31
0.0
  0
LINE
  5
D02
  8
1
 10
203.2285674555001
 20
41.28131000000002
 30
0.0
 11
203.2
 21
41.28131000000002
 31
0.0
  0
LINE
  5
D20
  8
1
 10
51.125
 20
0.0
 30
0.0
 11
51.125
 21
46.05000000000001
 31
0.0
  0
LINE
  5
D21
  8
1
 10
51.125
 20
-46.05000000000001
 30
0.0
 11
51.125
 21
0.0
 31
0.0
  0
CIRCLE
  5
D22
  8
1
 10
185.2
 20
0.0
 30
0.0
 40
2.624999999999545
  0
LINE
  5
D23
  8
1
 10
203.2
 20
0.0
 30
0.0
 11
203.2
 21
45.05000000000001
 31
0.0
  0
LINE
  5
D24
  8
1
 10
203.2
 20
-45.05000000000001
 30
0.0
 11
203.2
 21
0.0
 31
0.0
  0
LINE
  5
D3D
  8
1
 10
183.95
 20
-0.7216878364999957
 30
0.0
 11
185.2
 21
-1.443375672999991
 31
0.0
  0
LINE
  5
D3E
  8
1
 10
186.45
 20
-0.7216878364999957
 30
0.0
 11
185.2
 21
-1.443375672999991
 31
0.0
  0
LINE
  5
D3F
  8
1
 10
186.45
 20
0.7216878364999957
 30
0.0
 11
186.45
 21
-0.7216878364999957
 31
0.0
  0
LINE
  5
D40
  8
1
 10
186.45
 20
0.7216878364999957
 30
0.0
 11
185.2
 21
1.443375672999991
 31
0.0
  0
LINE
  5
D41
  8
1
 10
183.95
 20
0.7216878364999957
 30
0.0
 11
185.2
 21
1.443375672999991
 31
0.0
  0
LINE
  5
D42
  8
1
 10
183.95
 20
0.7216878364999957
 30
0.0
 11
183.95
 21
-0.7216878364999957
 31
0.0
  0
CIRCLE
  5
D43
  8
1
 10
185.2
 20
0.0
 30
0.0
 40
2.055000000000007
  0
CIRCLE
  5
D44
  8
1
 10
185.2
 20
0.0
 30
0.0
 40
2.256103126842163
  0
CIRCLE
  5
D45
  8
1
 10
185.2
 20
0.0
 30
0.0
 40
2.5
  0
POLYLINE
  5
D46
  8
3
 66
     1
 10
0.0
 20
0.0
 30
0.0
  0
VERTEX
  5
1A47
  8
3
 10
185.2
 20
-38.5031238963
 30
0.0
  0
VERTEX
  5
1A48
  8
3
 10
184.3319102512
 20
-38.5840677727
 30
0.0
  0
VERTEX
  5
1A49
  8
3
 10
183.5617010266001
 20
-38.81539506140001
 30
0.0
  0
VERTEX
  5
1A4A
  8
3
 10
182.9753100630001
 20
-39.16554367060002
 30
0.0
  0
VERTEX
  5
1A4B
  8
3
 10
182.6394093546
 20
-39.5883651785
 30
0.0
  0
VERTEX
  5
1A4C
  8
3
 10
182.5924176450999
 20
-40.0305592432
 30
0.0
  0
VERTEX
  5
1A4D
  8
3
 10
182.8387017675
 20
-40.44144833199999
 30
0.0
  0
VERTEX
  5
1A4E
  8
3
 10
183.3505642488999
 20
-40.77925103960001
 30
0.0
  0
VERTEX
  5
1A4F
  8
3
 10
184.0715514444
 20
-41.01265015069998
 30
0.0
  0
VERTEX
  5
1A50
  8
3
 10
184.9200409179
 20
-41.12137624499996
 30
0.0
  0
VERTEX
  5
1A51
  8
3
 10
185.7989828906
 20
-41.09687656900002
 30
0.0
  0
VERTEX
  5
1A52
  8
3
 10
186.6098787038
 20
-40.94146195569999
 30
0.0
  0
VERTEX
  5
1A53
  8
3
 10
187.2628879322999
 20
-40.66733624879998
 30
0.0
  0
VERTEX
  5
1A54
  8
3
 10
187.684055382
 20
-40.29798987699996
 30
0.0
  0
VERTEX
  5
1A55
  8
3
 10
187.8249114968
 20
-39.86968778609997
 30
0.0
  0
VERTEX
  5
1A56
  8
3
 10
187.6702138546
 20
-39.42901817379999
 30
0.0
  0
VERTEX
  5
1A57
  8
3
 10
187.2379038745
 20
-39.02743925839997
 30
0.0
  0
VERTEX
  5
1A58
  8
3
 10
186.5755690118001
 20
-38.7155823471
 30
0.0
  0
VERTEX
  5
1A59
  8
3
 10
185.7575140158999
 20
-38.53599489160001
 30
0.0
  0
VERTEX
  5
1A5A
  8
3
 10
185.2
 20
-38.5031238963
 30
0.0
  0
SEQEND
  5
1ECE
  8
3
  0
POLYLINE
  5
D49
  8
3
 66
     1
 10
0.0
 20
0.0
 30
0.0
  0
VERTEX
  5
1A5B
  8
3
 10
185.2
 20
41.1281238963
 30
0.0
  0
VERTEX
  5
1A5C
  8
3
 10
184.3319102512
 20
41.06137380709998
 30
0.0
  0
VERTEX
  5
1A5D
  8
3
 10
183.5617010266001
 20
40.86639517690003
 30
0.0
  0
VERTEX
  5
1A5E
  8
3
 10
182.9753100630001
 20
40.55887768790001
 30
0.0
  0
VERTEX
  5
1A5F
  8
3
 10
182.6394093546
 20
40.16629298240002
 30
0.0
  0
VERTEX
  5
1A60
  8
3
 10
182.5924176450999
 20
39.72866644390001
 30
0.0
  0
VERTEX
  5
1A61
  8
3
 10
182.8387017675
 20
39.29475933449999
 30
0.0
  0
VERTEX
  5
1A62
  8
3
 10
183.3505642488999
 20
38.91640042770001
 30
0.0
  0
VERTEX
  5
1A63
  8
3
 10
184.0715514444
 20
38.64258077250003
 30
0.0
  0
VERTEX
  5
1A64
  8
3
 10
184.1175370205999
 20
38.6354683463
 30
0.0
  0
SEQEND
  5
1ECD
  8
3
  0
POLYLINE
  5
D4A
  8
3
 66
     1
 10
0.0
 20
0.0
 30
0.0
  0
VERTEX
  5
1A65
  8
3
 10
186.4116937104
 20
38.68173901
 30
0.0
  0
VERTEX
  5
1A66
  8
3
 10
186.6098787038
 20
38.72722008980003
 30
0.0
  0
VERTEX
  5
1A67
  8
3
 10
187.2628879322999
 20
39.04403147800002
 30
0.0
  0
VERTEX
  5
1A68
  8
3
 10
187.684055382
 20
39.44940643429999
 30
0.0
  0
VERTEX
  5
1A69
  8
3
 10
187.8249114968
 20
39.89124316440001
 30
0.0
  0
VERTEX
  5
1A6A
  8
3
 10
187.6702138546
 20
40.31708827950001
 30
0.0
  0
VERTEX
  5
1A6B
  8
3
 10
187.2379038745
 20
40.68200046869998
 30
0.0
  0
VERTEX
  5
1A6C
  8
3
 10
186.5755690118001
 20
40.9513003289
 30
0.0
  0
VERTEX
  5
1A6D
  8
3
 10
185.7575140158999
 20
41.10110758349998
 30
0.0
  0
VERTEX
  5
1A6E
  8
3
 10
185.2
 20
41.1281238963
 30
0.0
  0
SEQEND
  5
1ECC
  8
3
  0
CIRCLE
  5
D4B
  8
3
 10
185.2
 20
0.0
 30
0.0
 40
2.100000000000136
  0
LINE
  5
D4D
  8
3
 10
184.8
 20
-2.061552812800016
 30
0.0
 11
184.8
 21
-2.5
 31
0.0
  0
LINE
  5
D4E
  8
3
 10
184.8
 20
2.5
 30
0.0
 11
184.8
 21
2.061552812800016
 31
0.0
  0
POLYLINE
  5
D62
  8
3
 66
     1
 10
0.0
 20
0.0
 30
0.0
  0
VERTEX
  5
1A6F
  8
3
 10
185.2
 20
-6.289519393099965
 30
0.0
  0
VERTEX
  5
1A70
  8
3
 10
185.8836275223
 20
-6.370553140799984
 30
0.0
  0
VERTEX
  5
1A71
  8
3
 10
186.4899821285999
 20
-6.595509683199964
 30
0.0
  0
VERTEX
  5
1A72
  8
3
 10
186.9634566776999
 20
-6.926588517200003
 30
0.0
  0
VERTEX
  5
1A73
  8
3
 10
187.2431502273
 20
-7.307133325099983
 30
0.0
  0
VERTEX
  5
1A74
  8
3
 10
187.2890324257
 20
-7.666377669399992
 30
0.0
  0
VERTEX
  5
1A75
  8
3
 10
187.1086125756001
 20
-7.961289317299986
 30
0.0
  0
VERTEX
  5
1A76
  8
3
 10
186.7225929486999
 20
-8.1801650699
 30
0.0
  0
VERTEX
  5
1A77
  8
3
 10
186.1576078879
 20
-8.320700715499981
 30
0.0
  0
VERTEX
  5
1A78
  8
3
 10
185.4786985691001
 20
-8.384199031200012
 30
0.0
  0
VERTEX
  5
1A79
  8
3
 10
184.783540312
 20
-8.377521035499967
 30
0.0
  0
VERTEX
  5
1A7A
  8
3
 10
184.1448975405999
 20
-8.304028753900013
 30
0.0
  0
VERTEX
  5
1A7B
  8
3
 10
183.6112524979999
 20
-8.154008264799984
 30
0.0
  0
VERTEX
  5
1A7C
  8
3
 10
183.2444397401
 20
-7.915059897800006
 30
0.0
  0
VERTEX
  5
1A7D
  8
3
 10
183.1012374040999
 20
-7.597266773199976
 30
0.0
  0
VERTEX
  5
1A7E
  8
3
 10
183.1913604378001
 20
-7.236509536899973
 30
0.0
  0
VERTEX
  5
1A7F
  8
3
 10
183.4953095010001
 20
-6.873328137899989
 30
0.0
  0
VERTEX
  5
1A80
  8
3
 10
183.9917888718001
 20
-6.554917776100012
 30
0.0
  0
VERTEX
  5
1A81
  8
3
 10
184.6350433762
 20
-6.344519781200006
 30
0.0
  0
VERTEX
  5
1A82
  8
3
 10
185.2
 20
-6.289519393099965
 30
0.0
  0
SEQEND
  5
1ECB
  8
3
  0
POLYLINE
  5
D63
  8
3
 66
     1
 10
0.0
 20
0.0
 30
0.0
  0
VERTEX
  5
1A83
  8
3
 10
185.2
 20
8.389519393099988
 30
0.0
  0
VERTEX
  5
1A84
  8
3
 10
185.8836275223
 20
8.356164737000029
 30
0.0
  0
VERTEX
  5
1A85
  8
3
 10
186.4899821285999
 20
8.25259933320001
 30
0.0
  0
VERTEX
  5
1A86
  8
3
 10
186.9634566776999
 20
8.066860653999981
 30
0.0
  0
VERTEX
  5
1A87
  8
3
 10
187.2431502273
 20
7.792455021600006
 30
0.0
  0
VERTEX
  5
1A88
  8
3
 10
187.2890324257
 20
7.452033262700013
 30
0.0
  0
VERTEX
  5
1A89
  8
3
 10
187.1086125756001
 20
7.085390900600032
 30
0.0
  0
VERTEX
  5
1A8A
  8
3
 10
186.7225929486999
 20
6.733890299099983
 30
0.0
  0
VERTEX
  5
1A8B
  8
3
 10
186.1576078879
 20
6.451747229500029
 30
0.0
  0
VERTEX
  5
1A8C
  8
3
 10
185.4786985691001
 20
6.302774733399986
 30
0.0
  0
VERTEX
  5
1A8D
  8
3
 10
184.783540312
 20
6.319230160000018
 30
0.0
  0
VERTEX
  5
1A8E
  8
3
 10
184.1448975405999
 20
6.488330871500011
 30
0.0
  0
VERTEX
  5
1A8F
  8
3
 10
183.6112524979999
 20
6.780734302899987
 30
0.0
  0
VERTEX
  5
1A90
  8
3
 10
183.2444397401
 20
7.149694580100004
 30
0.0
  0
VERTEX
  5
1A91
  8
3
 10
183.1012374040999
 20
7.525186499699998
 30
0.0
  0
VERTEX
  5
1A92
  8
3
 10
183.1913604378001
 20
7.849181642500014
 30
0.0
  0
VERTEX
  5
1A93
  8
3
 10
183.4953095010001
 20
8.09971726980001
 30
0.0
  0
VERTEX
  5
1A94
  8
3
 10
183.9917888718001
 20
8.272539931799997
 30
0.0
  0
VERTEX
  5
1A95
  8
3
 10
184.6350433762
 20
8.367098336699996
 30
0.0
  0
VERTEX
  5
1A96
  8
3
 10
185.2
 20
8.389519393099988
 30
0.0
  0
SEQEND
  5
1ECA
  8
3
  0
LINE
  5
D64
  8
3
 10
185.2
 20
41.27474999999998
 30
0.0
 11
185.2
 21
25.40525000000002
 31
0.0
  0
LINE
  5
D65
  8
3
 10
185.2
 20
-25.40524999999997
 30
0.0
 11
185.2
 21
-41.27474999999998
 31
0.0
  0
POLYLINE
  5
D6A
  8
3
 66
     1
 10
0.0
 20
0.0
 30
0.0
  0
VERTEX
  5
1A97
  8
3
 10
185.2
 20
39.60978110349998
 30
0.0
  0
VERTEX
  5
1A98
  8
3
 10
186.0036352079999
 20
39.52985461270003
 30
0.0
  0
VERTEX
  5
1A99
  8
3
 10
186.6849242405001
 20
39.30224322380002
 30
0.0
  0
VERTEX
  5
1A9A
  8
3
 10
187.1401470183
 20
38.9615987075
 30
0.0
  0
VERTEX
  5
1A9B
  8
3
 10
187.3
 20
38.55978110350003
 30
0.0
  0
VERTEX
  5
1A9C
  8
3
 10
187.1401470183
 20
38.1579634995
 30
0.0
  0
VERTEX
  5
1A9D
  8
3
 10
186.6849242405001
 20
37.81731898330003
 30
0.0
  0
VERTEX
  5
1A9E
  8
3
 10
186.0036352079999
 20
37.58970759440001
 30
0.0
  0
VERTEX
  5
1A9F
  8
3
 10
185.2
 20
37.50978110350002
 30
0.0
  0
VERTEX
  5
1AA0
  8
3
 10
184.3963647921
 20
37.58970759440001
 30
0.0
  0
VERTEX
  5
1AA1
  8
3
 10
183.7150757596
 20
37.81731898330003
 30
0.0
  0
VERTEX
  5
1AA2
  8
3
 10
183.2598529817999
 20
38.1579634995
 30
0.0
  0
VERTEX
  5
1AA3
  8
3
 10
183.0999999999999
 20
38.55978110350003
 30
0.0
  0
VERTEX
  5
1AA4
  8
3
 10
183.2598529817999
 20
38.9615987075
 30
0.0
  0
VERTEX
  5
1AA5
  8
3
 10
183.7150757596
 20
39.30224322380002
 30
0.0
  0
VERTEX
  5
1AA6
  8
3
 10
184.3963647921
 20
39.52985461270003
 30
0.0
  0
VERTEX
  5
1AA7
  8
3
 10
185.2
 20
39.60978110349998
 30
0.0
  0
SEQEND
  5
1EC9
  8
3
  0
POLYLINE
  5
D6B
  8
3
 66
     1
 10
0.0
 20
0.0
 30
0.0
  0
VERTEX
  5
1AA8
  8
3
 10
184.8
 20
9.868834375199981
 30
0.0
  0
VERTEX
  5
1AA9
  8
3
 10
185.2473563579999
 20
9.899172978299987
 30
0.0
  0
VERTEX
  5
1AAA
  8
3
 10
185.6888445098
 20
9.854510541699995
 30
0.0
  0
VERTEX
  5
1AAB
  8
3
 10
186.2401532598001
 20
9.731853179200016
 30
0.0
  0
VERTEX
  5
1AAC
  8
3
 10
186.8437874582
 20
9.625232230800009
 30
0.0
  0
VERTEX
  5
1AAD
  8
3
 10
187.1590104003001
 20
9.682547507700008
 30
0.0
  0
VERTEX
  5
1AAE
  8
3
 10
187.2895538257999
 20
9.862285545299983
 30
0.0
  0
VERTEX
  5
1AAF
  8
3
 10
187.2680938015001
 20
10.16478781640001
 30
0.0
  0
VERTEX
  5
1AB0
  8
3
 10
187.1116638322001
 20
10.52897887749998
 30
0.0
  0
VERTEX
  5
1AB1
  8
3
 10
186.7396379611
 20
11.06137566440003
 30
0.0
  0
VERTEX
  5
1AB2
  8
3
 10
186.2236633758
 20
11.56945416669998
 30
0.0
  0
VERTEX
  5
1AB3
  8
3
 10
185.7074827834999
 20
11.88898069679999
 30
0.0
  0
VERTEX
  5
1AB4
  8
3
 10
185.2971279719
 20
11.99549033030002
 30
0.0
  0
VERTEX
  5
1AB5
  8
3
 10
184.8728359679001
 20
11.9531156548
 30
0.0
  0
VERTEX
  5
1AB6
  8
3
 10
184.8
 20
11.930387188
 30
0.0
  0
SEQEND
  5
1EC8
  8
3
  0
ARC
  5
D6C
  8
3
 10
187.1494669217
 20
13.15513205939999
 30
0.0
 40
2.649527281631026
 50
152.4675869478009
 51
207.5324130521991
  0
POLYLINE
  5
D6D
  8
3
 66
     1
 10
0.0
 20
0.0
 30
0.0
  0
VERTEX
  5
1AB7
  8
3
 10
184.8
 20
14.37987693079998
 30
0.0
  0
VERTEX
  5
1AB8
  8
3
 10
185.2473563579999
 20
14.34953832770003
 30
0.0
  0
VERTEX
  5
1AB9
  8
3
 10
185.6888445098
 20
14.39420076430002
 30
0.0
  0
VERTEX
  5
1ABA
  8
3
 10
186.2401532598001
 20
14.5168581268
 30
0.0
  0
VERTEX
  5
1ABB
  8
3
 10
186.8437874582
 20
14.62347907520001
 30
0.0
  0
VERTEX
  5
1ABC
  8
3
 10
187.1590104003001
 20
14.56616379830001
 30
0.0
  0
VERTEX
  5
1ABD
  8
3
 10
187.2895538257999
 20
14.38642576080002
 30
0.0
  0
VERTEX
  5
1ABE
  8
3
 10
187.2680938015001
 20
14.08392348960001
 30
0.0
  0
VERTEX
  5
1ABF
  8
3
 10
187.1116638322001
 20
13.71973242849998
 30
0.0
  0
VERTEX
  5
1AC0
  8
3
 10
186.7396379611
 20
13.18733564159999
 30
0.0
  0
VERTEX
  5
1AC1
  8
3
 10
186.2236633758
 20
12.67925713930003
 30
0.0
  0
VERTEX
  5
1AC2
  8
3
 10
185.7074827834999
 20
12.35973060920003
 30
0.0
  0
VERTEX
  5
1AC3
  8
3
 10
185.2971279719
 20
12.2532209757
 30
0.0
  0
VERTEX
  5
1AC4
  8
3
 10
184.8728359679001
 20
12.29559565120002
 30
0.0
  0
VERTEX
  5
1AC5
  8
3
 10
184.8
 20
12.31832411800002
 30
0.0
  0
SEQEND
  5
1EC7
  8
3
  0
ARC
  5
D6E
  8
3
 10
187.1494669217
 20
11.09357924660003
 30
0.0
 40
2.649527281631026
 50
152.4675869478009
 51
207.5324130521991
  0
POLYLINE
  5
D6F
  8
3
 66
     1
 10
0.0
 20
0.0
 30
0.0
  0
VERTEX
  5
1AC6
  8
3
 10
185.2
 20
-37.50978110350002
 30
0.0
  0
VERTEX
  5
1AC7
  8
3
 10
186.0036352079999
 20
-37.58970759429997
 30
0.0
  0
VERTEX
  5
1AC8
  8
3
 10
186.6849242405001
 20
-37.81731898319998
 30
0.0
  0
VERTEX
  5
1AC9
  8
3
 10
187.1401470183
 20
-38.1579634995
 30
0.0
  0
VERTEX
  5
1ACA
  8
3
 10
187.3
 20
-38.55978110349997
 30
0.0
  0
VERTEX
  5
1ACB
  8
3
 10
187.1401470183
 20
-38.9615987075
 30
0.0
  0
VERTEX
  5
1ACC
  8
3
 10
186.6849242405001
 20
-39.30224322369997
 30
0.0
  0
VERTEX
  5
1ACD
  8
3
 10
186.0036352079999
 20
-39.52985461259999
 30
0.0
  0
VERTEX
  5
1ACE
  8
3
 10
185.2
 20
-39.60978110349998
 30
0.0
  0
VERTEX
  5
1ACF
  8
3
 10
184.3963647921
 20
-39.52985461259999
 30
0.0
  0
VERTEX
  5
1AD0
  8
3
 10
183.7150757596
 20
-39.30224322369997
 30
0.0
  0
VERTEX
  5
1AD1
  8
3
 10
183.2598529817999
 20
-38.9615987075
 30
0.0
  0
VERTEX
  5
1AD2
  8
3
 10
183.0999999999999
 20
-38.55978110349997
 30
0.0
  0
VERTEX
  5
1AD3
  8
3
 10
183.2598529817999
 20
-38.1579634995
 30
0.0
  0
VERTEX
  5
1AD4
  8
3
 10
183.7150757596
 20
-37.81731898319998
 30
0.0
  0
VERTEX
  5
1AD5
  8
3
 10
184.3963647921
 20
-37.58970759429997
 30
0.0
  0
VERTEX
  5
1AD6
  8
3
 10
185.2
 20
-37.50978110350002
 30
0.0
  0
SEQEND
  5
1EC6
  8
3
  0
POLYLINE
  5
D70
  8
3
 66
     1
 10
0.0
 20
0.0
 30
0.0
  0
VERTEX
  5
1AD7
  8
3
 10
184.8
 20
-12.31832411789998
 30
0.0
  0
VERTEX
  5
1AD8
  8
3
 10
185.2473563579999
 20
-12.25007235379996
 30
0.0
  0
VERTEX
  5
1AD9
  8
3
 10
185.6888445098
 20
-12.35189054159997
 30
0.0
  0
VERTEX
  5
1ADA
  8
3
 10
186.2401532598001
 20
-12.69255519239999
 30
0.0
  0
VERTEX
  5
1ADB
  8
3
 10
186.8437874582
 20
-13.31658856999996
 30
0.0
  0
VERTEX
  5
1ADC
  8
3
 10
187.1590104003001
 20
-13.80967305029998
 30
0.0
  0
VERTEX
  5
1ADD
  8
3
 10
187.2895538257999
 20
-14.17722535619998
 30
0.0
  0
VERTEX
  5
1ADE
  8
3
 10
187.2680938015001
 20
-14.44859872659998
 30
0.0
  0
VERTEX
  5
1ADF
  8
3
 10
187.1116638322001
 20
-14.58895126909999
 30
0.0
  0
VERTEX
  5
1AE0
  8
3
 10
186.7396379611
 20
-14.61545151529998
 30
0.0
  0
VERTEX
  5
1AE1
  8
3
 10
186.2236633758
 20
-14.51286377459996
 30
0.0
  0
VERTEX
  5
1AE2
  8
3
 10
185.7074827834999
 20
-14.3974894822
 30
0.0
  0
VERTEX
  5
1AE3
  8
3
 10
185.2971279719
 20
-14.35097362009998
 30
0.0
  0
VERTEX
  5
1AE4
  8
3
 10
184.8728359679001
 20
-14.36995427400001
 30
0.0
  0
VERTEX
  5
1AE5
  8
3
 10
184.8
 20
-14.37987693079998
 30
0.0
  0
SEQEND
  5
1EC5
  8
3
  0
ARC
  5
D71
  8
3
 10
187.1119647216001
 20
-13.15513205939999
 30
0.0
 40
2.616329656942201
 50
152.0879510020001
 51
207.9120489979999
  0
POLYLINE
  5
D72
  8
3
 66
     1
 10
0.0
 20
0.0
 30
0.0
  0
VERTEX
  5
1AE6
  8
3
 10
184.8
 20
-11.930387188
 30
0.0
  0
VERTEX
  5
1AE7
  8
3
 10
185.2473563579999
 20
-11.99863895210001
 30
0.0
  0
VERTEX
  5
1AE8
  8
3
 10
185.6888445098
 20
-11.8968207643
 30
0.0
  0
VERTEX
  5
1AE9
  8
3
 10
186.2401532598001
 20
-11.55615611349998
 30
0.0
  0
VERTEX
  5
1AEA
  8
3
 10
186.8437874582
 20
-10.93212273590001
 30
0.0
  0
VERTEX
  5
1AEB
  8
3
 10
187.1590104003001
 20
-10.43903825569998
 30
0.0
  0
VERTEX
  5
1AEC
  8
3
 10
187.2895538257999
 20
-10.07148594979998
 30
0.0
  0
VERTEX
  5
1AED
  8
3
 10
187.2680938015001
 20
-9.800112579399979
 30
0.0
  0
VERTEX
  5
1AEE
  8
3
 10
187.1116638322001
 20
-9.65976003679998
 30
0.0
  0
VERTEX
  5
1AEF
  8
3
 10
186.7396379611
 20
-9.63325979069998
 30
0.0
  0
VERTEX
  5
1AF0
  8
3
 10
186.2236633758
 20
-9.73584753130001
 30
0.0
  0
VERTEX
  5
1AF1
  8
3
 10
185.7074827834999
 20
-9.851221823699973
 30
0.0
  0
VERTEX
  5
1AF2
  8
3
 10
185.2971279719
 20
-9.897737685799996
 30
0.0
  0
VERTEX
  5
1AF3
  8
3
 10
184.8728359679001
 20
-9.878757031899966
 30
0.0
  0
VERTEX
  5
1AF4
  8
3
 10
184.8
 20
-9.868834375199981
 30
0.0
  0
SEQEND
  5
1EC4
  8
3
  0
ARC
  5
D73
  8
3
 10
187.1119647216001
 20
-11.09357924659997
 30
0.0
 40
2.616329656942201
 50
152.0879510020001
 51
207.9120489979999
  0
LINE
  5
D74
  8
3
 10
184.8
 20
9.868834375199981
 30
0.0
 11
184.8
 21
11.930387188
 31
0.0
  0
LINE
  5
D75
  8
3
 10
184.8
 20
14.37987693079998
 30
0.0
 11
184.8
 21
11.930387188
 31
0.0
  0
LINE
  5
D76
  8
3
 10
184.8
 20
-11.930387188
 30
0.0
 11
184.8
 21
-9.868834375199981
 31
0.0
  0
LINE
  5
D77
  8
3
 10
184.8
 20
-11.930387188
 30
0.0
 11
184.8
 21
-14.37987693079998
 31
0.0
  0
POLYLINE
  5
D78
  8
3
 66
     1
 10
0.0
 20
0.0
 30
0.0
  0
VERTEX
  5
1AF5
  8
3
 10
185.2
 20
40.32694444050003
 30
0.0
  0
VERTEX
  5
1AF6
  8
3
 10
186.1482593737999
 20
40.23831424159999
 30
0.0
  0
VERTEX
  5
1AF7
  8
3
 10
186.9684510646
 20
39.98439364440003
 30
0.0
  0
VERTEX
  5
1AF8
  8
3
 10
187.5498036398001
 20
39.59947603250004
 30
0.0
  0
VERTEX
  5
1AF9
  8
3
 10
187.8138022128001
 20
39.13554666229999
 30
0.0
  0
VERTEX
  5
1AFA
  8
3
 10
187.7247923134
 20
38.65526176600002
 30
0.0
  0
VERTEX
  5
1AFB
  8
3
 10
187.2947952217
 20
38.22348648029998
 30
0.0
  0
VERTEX
  5
1AFC
  8
3
 10
186.5818844276
 20
37.89853444990001
 30
0.0
  0
VERTEX
  5
1AFD
  8
3
 10
185.6823424843001
 20
37.72429224720003
 30
0.0
  0
VERTEX
  5
1AFE
  8
3
 10
184.7176575158001
 20
37.72429224720003
 30
0.0
  0
VERTEX
  5
1AFF
  8
3
 10
183.8181155724999
 20
37.89853444990001
 30
0.0
  0
VERTEX
  5
1B00
  8
3
 10
183.1052047784001
 20
38.22348648029998
 30
0.0
  0
VERTEX
  5
1B01
  8
3
 10
182.6752076866999
 20
38.65526176600002
 30
0.0
  0
VERTEX
  5
1B02
  8
3
 10
182.5861977873001
 20
39.13554666229999
 30
0.0
  0
VERTEX
  5
1B03
  8
3
 10
182.8501963602
 20
39.59947603250004
 30
0.0
  0
VERTEX
  5
1B04
  8
3
 10
183.4315489354999
 20
39.98439364440003
 30
0.0
  0
VERTEX
  5
1B05
  8
3
 10
184.2517406263
 20
40.23831424159999
 30
0.0
  0
VERTEX
  5
1B06
  8
3
 10
185.2
 20
40.32694444050003
 30
0.0
  0
SEQEND
  5
1EC3
  8
3
  0
POLYLINE
  5
D79
  8
3
 66
     1
 10
0.0
 20
0.0
 30
0.0
  0
VERTEX
  5
1B07
  8
3
 10
185.2
 20
-37.70194444049997
 30
0.0
  0
VERTEX
  5
1B08
  8
3
 10
186.1482593737999
 20
-37.79057463940001
 30
0.0
  0
VERTEX
  5
1B09
  8
3
 10
186.9684510646
 20
-38.04449523659997
 30
0.0
  0
VERTEX
  5
1B0A
  8
3
 10
187.5498036398001
 20
-38.42941284849996
 30
0.0
  0
VERTEX
  5
1B0B
  8
3
 10
187.8138022128001
 20
-38.89334221870001
 30
0.0
  0
VERTEX
  5
1B0C
  8
3
 10
187.7247923134
 20
-39.37362711489999
 30
0.0
  0
VERTEX
  5
1B0D
  8
3
 10
187.2947952217
 20
-39.80540240070002
 30
0.0
  0
VERTEX
  5
1B0E
  8
3
 10
186.5818844276
 20
-40.13035443109999
 30
0.0
  0
VERTEX
  5
1B0F
  8
3
 10
185.6823424843001
 20
-40.30459663379997
 30
0.0
  0
VERTEX
  5
1B10
  8
3
 10
184.7176575158001
 20
-40.30459663379997
 30
0.0
  0
VERTEX
  5
1B11
  8
3
 10
183.8181155724999
 20
-40.13035443109999
 30
0.0
  0
VERTEX
  5
1B12
  8
3
 10
183.1052047784001
 20
-39.80540240070002
 30
0.0
  0
VERTEX
  5
1B13
  8
3
 10
182.6752076866999
 20
-39.37362711489999
 30
0.0
  0
VERTEX
  5
1B14
  8
3
 10
182.5861977873001
 20
-38.89334221870001
 30
0.0
  0
VERTEX
  5
1B15
  8
3
 10
182.8501963602
 20
-38.42941284849996
 30
0.0
  0
VERTEX
  5
1B16
  8
3
 10
183.4315489354999
 20
-38.04449523659997
 30
0.0
  0
VERTEX
  5
1B17
  8
3
 10
184.2517406263
 20
-37.79057463940001
 30
0.0
  0
VERTEX
  5
1B18
  8
3
 10
185.2
 20
-37.70194444049997
 30
0.0
  0
SEQEND
  5
1EC2
  8
3
  0
LINE
  5
D7A
  8
3
 10
197.7859900000001
 20
0.0
 30
0.0
 11
197.7859900000001
 21
-9.524999999999977
 31
0.0
  0
LINE
  5
D7B
  8
3
 10
197.7859900000001
 20
9.525000000000034
 30
0.0
 11
197.7859900000001
 21
0.0
 31
0.0
  0
LINE
  5
D7C
  8
3
 10
196.8499999999999
 20
0.0
 30
0.0
 11
196.8499999999999
 21
-8.589009999999973
 31
0.0
  0
LINE
  5
D7D
  8
3
 10
196.8499999999999
 20
8.58901000000003
 30
0.0
 11
196.8499999999999
 21
0.0
 31
0.0
  0
LINE
  5
D87
  8
3
 10
188.710160305
 20
-25.39868999999999
 30
0.0
 11
188.710160305
 21
-41.28131000000002
 31
0.0
  0
LINE
  5
D88
  8
3
 10
188.0720395107001
 20
-25.40868999999998
 30
0.0
 11
188.0720395107001
 21
-41.27130999999997
 31
0.0
  0
LINE
  5
D89
  8
3
 10
187.1471999999999
 20
-25.65649999999999
 30
0.0
 11
187.1471999999999
 21
-41.02350000000001
 31
0.0
  0
LINE
  5
D8A
  8
3
 10
188.710160305
 20
41.28131000000002
 30
0.0
 11
188.710160305
 21
25.39868999999999
 31
0.0
  0
LINE
  5
D8B
  8
3
 10
188.0720395107001
 20
41.27131000000003
 30
0.0
 11
188.0720395107001
 21
25.40869000000004
 31
0.0
  0
LINE
  5
D8C
  8
3
 10
187.1471999999999
 20
41.02350000000001
 30
0.0
 11
187.1471999999999
 21
25.65649999999999
 31
0.0
  0
CIRCLE
  5
D8D
  8
3
 10
185.2
 20
0.0
 30
0.0
 40
2.316732743452121
  0
CIRCLE
  5
D8E
  8
3
 10
185.2
 20
0.0
 30
0.0
 40
1.749999999999943
  0
POLYLINE
  5
D8F
  8
3
 66
     1
 10
0.0
 20
0.0
 30
0.0
  0
VERTEX
  5
1B19
  8
3
 10
185.2
 20
-35.5593174215
 30
0.0
  0
VERTEX
  5
1B1A
  8
3
 10
184.5303039933999
 20
-35.49271201249996
 30
0.0
  0
VERTEX
  5
1B1B
  8
3
 10
183.962563133
 20
-35.30303585510001
 30
0.0
  0
VERTEX
  5
1B1C
  8
3
 10
183.5832108181
 20
-35.0191654249
 30
0.0
  0
VERTEX
  5
1B1D
  8
3
 10
183.45
 20
-34.6843174215
 30
0.0
  0
VERTEX
  5
1B1E
  8
3
 10
183.5832108181
 20
-34.34946941819999
 30
0.0
  0
VERTEX
  5
1B1F
  8
3
 10
183.962563133
 20
-34.06559898799998
 30
0.0
  0
VERTEX
  5
1B20
  8
3
 10
184.5303039933999
 20
-33.87592283060002
 30
0.0
  0
VERTEX
  5
1B21
  8
3
 10
185.2
 20
-33.8093174215
 30
0.0
  0
VERTEX
  5
1B22
  8
3
 10
185.8696960067
 20
-33.87592283060002
 30
0.0
  0
VERTEX
  5
1B23
  8
3
 10
186.4374368670999
 20
-34.06559898799998
 30
0.0
  0
VERTEX
  5
1B24
  8
3
 10
186.8167891819
 20
-34.34946941819999
 30
0.0
  0
VERTEX
  5
1B25
  8
3
 10
186.95
 20
-34.6843174215
 30
0.0
  0
VERTEX
  5
1B26
  8
3
 10
186.8167891819
 20
-35.0191654249
 30
0.0
  0
VERTEX
  5
1B27
  8
3
 10
186.4374368670999
 20
-35.30303585510001
 30
0.0
  0
VERTEX
  5
1B28
  8
3
 10
185.8696960067
 20
-35.49271201249996
 30
0.0
  0
VERTEX
  5
1B29
  8
3
 10
185.2
 20
-35.5593174215
 30
0.0
  0
SEQEND
  5
1EC1
  8
3
  0
POLYLINE
  5
D90
  8
3
 66
     1
 10
0.0
 20
0.0
 30
0.0
  0
VERTEX
  5
1B2A
  8
3
 10
182.8832672566
 20
-35.17512237450001
 30
0.0
  0
VERTEX
  5
1B2B
  8
3
 10
183.0596180360999
 20
-34.73183475550002
 30
0.0
  0
VERTEX
  5
1B2C
  8
3
 10
183.5618225669
 20
-34.356033658
 30
0.0
  0
VERTEX
  5
1B2D
  8
3
 10
184.3134247619
 20
-34.10493139249996
 30
0.0
  0
VERTEX
  5
1B2E
  8
3
 10
185.2
 20
-34.01675600279998
 30
0.0
  0
VERTEX
  5
1B2F
  8
3
 10
186.0865752381999
 20
-34.10493139249996
 30
0.0
  0
VERTEX
  5
1B30
  8
3
 10
186.8381774330999
 20
-34.356033658
 30
0.0
  0
VERTEX
  5
1B31
  8
3
 10
187.340381964
 20
-34.73183475550002
 30
0.0
  0
VERTEX
  5
1B32
  8
3
 10
187.5167327434999
 20
-35.17512237450001
 30
0.0
  0
VERTEX
  5
1B33
  8
3
 10
187.340381964
 20
-35.61840999359998
 30
0.0
  0
VERTEX
  5
1B34
  8
3
 10
186.8381774330999
 20
-35.9942110911
 30
0.0
  0
VERTEX
  5
1B35
  8
3
 10
186.0865752381999
 20
-36.24531335649999
 30
0.0
  0
VERTEX
  5
1B36
  8
3
 10
185.2
 20
-36.33348874629996
 30
0.0
  0
VERTEX
  5
1B37
  8
3
 10
184.3134247619
 20
-36.24531335649999
 30
0.0
  0
VERTEX
  5
1B38
  8
3
 10
183.5618225669
 20
-35.9942110911
 30
0.0
  0
VERTEX
  5
1B39
  8
3
 10
183.0596180360999
 20
-35.61840999359998
 30
0.0
  0
VERTEX
  5
1B3A
  8
3
 10
182.8832672566
 20
-35.17512237450001
 30
0.0
  0
SEQEND
  5
1EC0
  8
3
  0
POLYLINE
  5
D91
  8
3
 66
     1
 10
0.0
 20
0.0
 30
0.0
  0
VERTEX
  5
1B3B
  8
3
 10
187.2549999999999
 20
-35.33383645999999
 30
0.0
  0
VERTEX
  5
1B3C
  8
3
 10
187.0985724392999
 20
-35.72704368680002
 30
0.0
  0
VERTEX
  5
1B3D
  8
3
 10
186.6531044353999
 20
-36.06038867770002
 30
0.0
  0
VERTEX
  5
1B3E
  8
3
 10
185.9864144534999
 20
-36.2831226797
 30
0.0
  0
VERTEX
  5
1B3F
  8
3
 10
185.2
 20
-36.36133646000002
 30
0.0
  0
VERTEX
  5
1B40
  8
3
 10
184.4135855464999
 20
-36.2831226797
 30
0.0
  0
VERTEX
  5
1B41
  8
3
 10
183.7468955647
 20
-36.06038867770002
 30
0.0
  0
VERTEX
  5
1B42
  8
3
 10
183.3014275606999
 20
-35.72704368680002
 30
0.0
  0
VERTEX
  5
1B43
  8
3
 10
183.145
 20
-35.33383645999999
 30
0.0
  0
VERTEX
  5
1B44
  8
3
 10
183.3014275606999
 20
-34.9406292333
 30
0.0
  0
VERTEX
  5
1B45
  8
3
 10
183.7468955647
 20
-34.6072842424
 30
0.0
  0
VERTEX
  5
1B46
  8
3
 10
184.4135855464999
 20
-34.38455024040002
 30
0.0
  0
VERTEX
  5
1B47
  8
3
 10
185.2
 20
-34.30633646000001
 30
0.0
  0
VERTEX
  5
1B48
  8
3
 10
185.9864144534999
 20
-34.38455024040002
 30
0.0
  0
VERTEX
  5
1B49
  8
3
 10
186.6531044353999
 20
-34.6072842424
 30
0.0
  0
VERTEX
  5
1B4A
  8
3
 10
187.0985724392999
 20
-34.9406292333
 30
0.0
  0
VERTEX
  5
1B4B
  8
3
 10
187.2549999999999
 20
-35.33383645999999
 30
0.0
  0
SEQEND
  5
1EBF
  8
3
  0
POLYLINE
  5
D92
  8
3
 66
     1
 10
0.0
 20
0.0
 30
0.0
  0
VERTEX
  5
1B4C
  8
3
 10
187.7
 20
-35.60368335459998
 30
0.0
  0
VERTEX
  5
1B4D
  8
3
 10
187.5096988313001
 20
-36.0820376451
 30
0.0
  0
VERTEX
  5
1B4E
  8
3
 10
186.9677669529999
 20
-36.48756683109997
 30
0.0
  0
VERTEX
  5
1B4F
  8
3
 10
186.1567085808999
 20
-36.75853277030001
 30
0.0
  0
VERTEX
  5
1B50
  8
3
 10
185.2
 20
-36.85368335459998
 30
0.0
  0
VERTEX
  5
1B51
  8
3
 10
184.2432914190999
 20
-36.75853277030001
 30
0.0
  0
VERTEX
  5
1B52
  8
3
 10
183.4322330471
 20
-36.48756683109997
 30
0.0
  0
VERTEX
  5
1B53
  8
3
 10
182.8903011688001
 20
-36.0820376451
 30
0.0
  0
VERTEX
  5
1B54
  8
3
 10
182.7
 20
-35.60368335459998
 30
0.0
  0
VERTEX
  5
1B55
  8
3
 10
182.8903011688001
 20
-35.1253290642
 30
0.0
  0
VERTEX
  5
1B56
  8
3
 10
183.4322330471
 20
-34.71979987819998
 30
0.0
  0
VERTEX
  5
1B57
  8
3
 10
184.2432914190999
 20
-34.448833939
 30
0.0
  0
VERTEX
  5
1B58
  8
3
 10
185.2
 20
-34.35368335459998
 30
0.0
  0
VERTEX
  5
1B59
  8
3
 10
186.1567085808999
 20
-34.448833939
 30
0.0
  0
VERTEX
  5
1B5A
  8
3
 10
186.9677669529999
 20
-34.71979987819998
 30
0.0
  0
VERTEX
  5
1B5B
  8
3
 10
187.5096988313001
 20
-35.1253290642
 30
0.0
  0
VERTEX
  5
1B5C
  8
3
 10
187.7
 20
-35.60368335459998
 30
0.0
  0
SEQEND
  5
1EBE
  8
3
  0
POLYLINE
  5
D93
  8
3
 66
     1
 10
0.0
 20
0.0
 30
0.0
  0
VERTEX
  5
1B5D
  8
3
 10
187.7
 20
-35.681722906
 30
0.0
  0
VERTEX
  5
1B5E
  8
3
 10
187.5096988313001
 20
-36.16007719649997
 30
0.0
  0
VERTEX
  5
1B5F
  8
3
 10
186.9677669529999
 20
-36.56560638249999
 30
0.0
  0
VERTEX
  5
1B60
  8
3
 10
186.1567085808999
 20
-36.83657232159999
 30
0.0
  0
VERTEX
  5
1B61
  8
3
 10
185.2
 20
-36.931722906
 30
0.0
  0
VERTEX
  5
1B62
  8
3
 10
184.2432914190999
 20
-36.83657232159999
 30
0.0
  0
VERTEX
  5
1B63
  8
3
 10
183.4322330471
 20
-36.56560638249999
 30
0.0
  0
VERTEX
  5
1B64
  8
3
 10
182.8903011688001
 20
-36.16007719649997
 30
0.0
  0
VERTEX
  5
1B65
  8
3
 10
182.7
 20
-35.681722906
 30
0.0
  0
VERTEX
  5
1B66
  8
3
 10
182.8903011688001
 20
-35.20336861549998
 30
0.0
  0
VERTEX
  5
1B67
  8
3
 10
183.4322330471
 20
-34.79783942950002
 30
0.0
  0
VERTEX
  5
1B68
  8
3
 10
184.2432914190999
 20
-34.52687349039996
 30
0.0
  0
VERTEX
  5
1B69
  8
3
 10
185.2
 20
-34.431722906
 30
0.0
  0
VERTEX
  5
1B6A
  8
3
 10
186.1567085808999
 20
-34.52687349039996
 30
0.0
  0
VERTEX
  5
1B6B
  8
3
 10
186.9677669529999
 20
-34.79783942950002
 30
0.0
  0
VERTEX
  5
1B6C
  8
3
 10
187.5096988313001
 20
-35.20336861549998
 30
0.0
  0
VERTEX
  5
1B6D
  8
3
 10
187.7
 20
-35.681722906
 30
0.0
  0
SEQEND
  5
1EBD
  8
3
  0
POLYLINE
  5
D94
  8
3
 66
     1
 10
0.0
 20
0.0
 30
0.0
  0
VERTEX
  5
1B6E
  8
3
 10
187.2549999999999
 20
-35.9515698006
 30
0.0
  0
VERTEX
  5
1B6F
  8
3
 10
187.0985724392999
 20
-36.34477702739997
 30
0.0
  0
VERTEX
  5
1B70
  8
3
 10
186.6531044353999
 20
-36.67812201829997
 30
0.0
  0
VERTEX
  5
1B71
  8
3
 10
185.9864144534999
 20
-36.90085602030001
 30
0.0
  0
VERTEX
  5
1B72
  8
3
 10
185.2
 20
-36.97906980059997
 30
0.0
  0
VERTEX
  5
1B73
  8
3
 10
184.4135855464999
 20
-36.90085602030001
 30
0.0
  0
VERTEX
  5
1B74
  8
3
 10
183.7468955647
 20
-36.67812201829997
 30
0.0
  0
VERTEX
  5
1B75
  8
3
 10
183.3014275606999
 20
-36.34477702739997
 30
0.0
  0
VERTEX
  5
1B76
  8
3
 10
183.145
 20
-35.9515698006
 30
0.0
  0
VERTEX
  5
1B77
  8
3
 10
183.3014275606999
 20
-35.55836257390001
 30
0.0
  0
VERTEX
  5
1B78
  8
3
 10
183.7468955647
 20
-35.22501758300001
 30
0.0
  0
VERTEX
  5
1B79
  8
3
 10
184.4135855464999
 20
-35.00228358099997
 30
0.0
  0
VERTEX
  5
1B7A
  8
3
 10
185.2
 20
-34.92406980059997
 30
0.0
  0
VERTEX
  5
1B7B
  8
3
 10
185.9864144534999
 20
-35.00228358099997
 30
0.0
  0
VERTEX
  5
1B7C
  8
3
 10
186.6531044353999
 20
-35.22501758300001
 30
0.0
  0
VERTEX
  5
1B7D
  8
3
 10
187.0985724392999
 20
-35.55836257390001
 30
0.0
  0
VERTEX
  5
1B7E
  8
3
 10
187.2549999999999
 20
-35.9515698006
 30
0.0
  0
SEQEND
  5
1EBC
  8
3
  0
POLYLINE
  5
D95
  8
3
 66
     1
 10
0.0
 20
0.0
 30
0.0
  0
VERTEX
  5
1B7F
  8
3
 10
187.7
 20
-36.22141669519999
 30
0.0
  0
VERTEX
  5
1B80
  8
3
 10
187.5096988313001
 20
-36.69977098570001
 30
0.0
  0
VERTEX
  5
1B81
  8
3
 10
186.9677669529999
 20
-37.10530017169998
 30
0.0
  0
VERTEX
  5
1B82
  8
3
 10
186.1567085808999
 20
-37.37626611090002
 30
0.0
  0
VERTEX
  5
1B83
  8
3
 10
185.2
 20
-37.47141669519999
 30
0.0
  0
VERTEX
  5
1B84
  8
3
 10
184.2432914190999
 20
-37.37626611090002
 30
0.0
  0
VERTEX
  5
1B85
  8
3
 10
183.4322330471
 20
-37.10530017169998
 30
0.0
  0
VERTEX
  5
1B86
  8
3
 10
182.8903011687
 20
-36.69977098570001
 30
0.0
  0
VERTEX
  5
1B87
  8
3
 10
182.7
 20
-36.22141669519999
 30
0.0
  0
VERTEX
  5
1B88
  8
3
 10
182.8903011687
 20
-35.74306240480001
 30
0.0
  0
VERTEX
  5
1B89
  8
3
 10
183.4322330471
 20
-35.33753321879999
 30
0.0
  0
VERTEX
  5
1B8A
  8
3
 10
184.2432914190999
 20
-35.06656727960001
 30
0.0
  0
VERTEX
  5
1B8B
  8
3
 10
185.2
 20
-34.97141669519999
 30
0.0
  0
VERTEX
  5
1B8C
  8
3
 10
186.1567085808999
 20
-35.06656727960001
 30
0.0
  0
VERTEX
  5
1B8D
  8
3
 10
186.9677669529999
 20
-35.33753321879999
 30
0.0
  0
VERTEX
  5
1B8E
  8
3
 10
187.5096988313001
 20
-35.74306240480001
 30
0.0
  0
VERTEX
  5
1B8F
  8
3
 10
187.7
 20
-36.22141669519999
 30
0.0
  0
SEQEND
  5
1EBB
  8
3
  0
POLYLINE
  5
D96
  8
3
 66
     1
 10
0.0
 20
0.0
 30
0.0
  0
VERTEX
  5
1B90
  8
3
 10
187.7
 20
-36.29945624660002
 30
0.0
  0
VERTEX
  5
1B91
  8
3
 10
187.5096988313001
 20
-36.77781053709998
 30
0.0
  0
VERTEX
  5
1B92
  8
3
 10
186.9677669529999
 20
-37.1833397231
 30
0.0
  0
VERTEX
  5
1B93
  8
3
 10
186.1567085808999
 20
-37.4543056622
 30
0.0
  0
VERTEX
  5
1B94
  8
3
 10
185.2
 20
-37.54945624660002
 30
0.0
  0
VERTEX
  5
1B95
  8
3
 10
184.2432914190999
 20
-37.4543056622
 30
0.0
  0
VERTEX
  5
1B96
  8
3
 10
183.4322330471
 20
-37.1833397231
 30
0.0
  0
VERTEX
  5
1B97
  8
3
 10
182.8903011687
 20
-36.77781053709998
 30
0.0
  0
VERTEX
  5
1B98
  8
3
 10
182.7
 20
-36.29945624660002
 30
0.0
  0
VERTEX
  5
1B99
  8
3
 10
182.8903011687
 20
-35.82110195609999
 30
0.0
  0
VERTEX
  5
1B9A
  8
3
 10
183.4322330471
 20
-35.41557277009997
 30
0.0
  0
VERTEX
  5
1B9B
  8
3
 10
184.2432914190999
 20
-35.14460683099998
 30
0.0
  0
VERTEX
  5
1B9C
  8
3
 10
185.2
 20
-35.04945624660002
 30
0.0
  0
VERTEX
  5
1B9D
  8
3
 10
186.1567085808999
 20
-35.14460683099998
 30
0.0
  0
VERTEX
  5
1B9E
  8
3
 10
186.9677669529999
 20
-35.41557277009997
 30
0.0
  0
VERTEX
  5
1B9F
  8
3
 10
187.5096988313001
 20
-35.82110195609999
 30
0.0
  0
VERTEX
  5
1BA0
  8
3
 10
187.7
 20
-36.29945624660002
 30
0.0
  0
SEQEND
  5
1EBA
  8
3
  0
POLYLINE
  5
D97
  8
3
 66
     1
 10
0.0
 20
0.0
 30
0.0
  0
VERTEX
  5
1BA1
  8
3
 10
187.2549999999999
 20
-36.56930314120001
 30
0.0
  0
VERTEX
  5
1BA2
  8
3
 10
187.0985724392999
 20
-36.96251036799998
 30
0.0
  0
VERTEX
  5
1BA3
  8
3
 10
186.6531044353999
 20
-37.29585535889998
 30
0.0
  0
VERTEX
  5
1BA4
  8
3
 10
185.9864144534999
 20
-37.51858936089997
 30
0.0
  0
VERTEX
  5
1BA5
  8
3
 10
185.2
 20
-37.59680314119998
 30
0.0
  0
VERTEX
  5
1BA6
  8
3
 10
184.4135855464999
 20
-37.51858936089997
 30
0.0
  0
VERTEX
  5
1BA7
  8
3
 10
183.7468955647
 20
-37.29585535889998
 30
0.0
  0
VERTEX
  5
1BA8
  8
3
 10
183.3014275606999
 20
-36.96251036799998
 30
0.0
  0
VERTEX
  5
1BA9
  8
3
 10
183.145
 20
-36.56930314120001
 30
0.0
  0
VERTEX
  5
1BAA
  8
3
 10
183.3014275606999
 20
-36.17609591449997
 30
0.0
  0
VERTEX
  5
1BAB
  8
3
 10
183.7468955647
 20
-35.84275092359997
 30
0.0
  0
VERTEX
  5
1BAC
  8
3
 10
184.4135855464999
 20
-35.62001692159998
 30
0.0
  0
VERTEX
  5
1BAD
  8
3
 10
185.2
 20
-35.54180314119998
 30
0.0
  0
VERTEX
  5
1BAE
  8
3
 10
185.9864144534999
 20
-35.62001692159998
 30
0.0
  0
VERTEX
  5
1BAF
  8
3
 10
186.6531044353999
 20
-35.84275092359997
 30
0.0
  0
VERTEX
  5
1BB0
  8
3
 10
187.0985724392999
 20
-36.17609591449997
 30
0.0
  0
VERTEX
  5
1BB1
  8
3
 10
187.2549999999999
 20
-36.56930314120001
 30
0.0
  0
SEQEND
  5
1EB9
  8
3
  0
POLYLINE
  5
D98
  8
3
 66
     1
 10
0.0
 20
0.0
 30
0.0
  0
VERTEX
  5
1BB2
  8
3
 10
187.7
 20
-36.83915003589999
 30
0.0
  0
VERTEX
  5
1BB3
  8
3
 10
187.5096988313001
 20
-37.31750432629997
 30
0.0
  0
VERTEX
  5
1BB4
  8
3
 10
186.9677669529999
 20
-37.72303351229999
 30
0.0
  0
VERTEX
  5
1BB5
  8
3
 10
186.1567085808999
 20
-37.99399945149997
 30
0.0
  0
VERTEX
  5
1BB6
  8
3
 10
185.2
 20
-38.08915003589999
 30
0.0
  0
VERTEX
  5
1BB7
  8
3
 10
184.2432914190999
 20
-37.99399945149997
 30
0.0
  0
VERTEX
  5
1BB8
  8
3
 10
183.4322330471
 20
-37.72303351229999
 30
0.0
  0
VERTEX
  5
1BB9
  8
3
 10
182.8903011688001
 20
-37.31750432629997
 30
0.0
  0
VERTEX
  5
1BBA
  8
3
 10
182.7
 20
-36.83915003589999
 30
0.0
  0
VERTEX
  5
1BBB
  8
3
 10
182.8903011688001
 20
-36.36079574539997
 30
0.0
  0
VERTEX
  5
1BBC
  8
3
 10
183.4322330471
 20
-35.9552665594
 30
0.0
  0
VERTEX
  5
1BBD
  8
3
 10
184.2432914190999
 20
-35.68430062019996
 30
0.0
  0
VERTEX
  5
1BBE
  8
3
 10
185.2
 20
-35.58915003589999
 30
0.0
  0
VERTEX
  5
1BBF
  8
3
 10
186.1567085808999
 20
-35.68430062019996
 30
0.0
  0
VERTEX
  5
1BC0
  8
3
 10
186.9677669529999
 20
-35.9552665594
 30
0.0
  0
VERTEX
  5
1BC1
  8
3
 10
187.5096988313001
 20
-36.36079574539997
 30
0.0
  0
VERTEX
  5
1BC2
  8
3
 10
187.7
 20
-36.83915003589999
 30
0.0
  0
SEQEND
  5
1EB8
  8
3
  0
POLYLINE
  5
D99
  8
3
 66
     1
 10
0.0
 20
0.0
 30
0.0
  0
VERTEX
  5
1BC3
  8
3
 10
187.7
 20
-36.91718958719997
 30
0.0
  0
VERTEX
  5
1BC4
  8
3
 10
187.5096988313001
 20
-37.39554387769999
 30
0.0
  0
VERTEX
  5
1BC5
  8
3
 10
186.9677669529999
 20
-37.80107306370002
 30
0.0
  0
VERTEX
  5
1BC6
  8
3
 10
186.1567085808999
 20
-38.07203900280001
 30
0.0
  0
VERTEX
  5
1BC7
  8
3
 10
185.2
 20
-38.16718958719997
 30
0.0
  0
VERTEX
  5
1BC8
  8
3
 10
184.2432914190999
 20
-38.07203900280001
 30
0.0
  0
VERTEX
  5
1BC9
  8
3
 10
183.4322330471
 20
-37.80107306370002
 30
0.0
  0
VERTEX
  5
1BCA
  8
3
 10
182.8903011688001
 20
-37.39554387769999
 30
0.0
  0
VERTEX
  5
1BCB
  8
3
 10
182.7
 20
-36.91718958719997
 30
0.0
  0
VERTEX
  5
1BCC
  8
3
 10
182.8903011688001
 20
-36.43883529679999
 30
0.0
  0
VERTEX
  5
1BCD
  8
3
 10
183.4322330471
 20
-36.03330611069998
 30
0.0
  0
VERTEX
  5
1BCE
  8
3
 10
184.2432914190999
 20
-35.76234017159999
 30
0.0
  0
VERTEX
  5
1BCF
  8
3
 10
185.2
 20
-35.66718958719997
 30
0.0
  0
VERTEX
  5
1BD0
  8
3
 10
186.1567085808999
 20
-35.76234017159999
 30
0.0
  0
VERTEX
  5
1BD1
  8
3
 10
186.9677669529999
 20
-36.03330611069998
 30
0.0
  0
VERTEX
  5
1BD2
  8
3
 10
187.5096988313001
 20
-36.43883529679999
 30
0.0
  0
VERTEX
  5
1BD3
  8
3
 10
187.7
 20
-36.91718958719997
 30
0.0
  0
SEQEND
  5
1EB7
  8
3
  0
POLYLINE
  5
D9A
  8
3
 66
     1
 10
0.0
 20
0.0
 30
0.0
  0
VERTEX
  5
1BD4
  8
3
 10
187.2549999999999
 20
-37.18703648179996
 30
0.0
  0
VERTEX
  5
1BD5
  8
3
 10
187.0985724392999
 20
-37.58024370859999
 30
0.0
  0
VERTEX
  5
1BD6
  8
3
 10
186.6531044353999
 20
-37.9135886995
 30
0.0
  0
VERTEX
  5
1BD7
  8
3
 10
185.9864144534999
 20
-38.13632270149998
 30
0.0
  0
VERTEX
  5
1BD8
  8
3
 10
185.2
 20
-38.2145364818
 30
0.0
  0
VERTEX
  5
1BD9
  8
3
 10
184.4135855464999
 20
-38.13632270149998
 30
0.0
  0
VERTEX
  5
1BDA
  8
3
 10
183.7468955647
 20
-37.9135886995
 30
0.0
  0
VERTEX
  5
1BDB
  8
3
 10
183.3014275606999
 20
-37.58024370859999
 30
0.0
  0
VERTEX
  5
1BDC
  8
3
 10
183.145
 20
-37.18703648179996
 30
0.0
  0
VERTEX
  5
1BDD
  8
3
 10
183.3014275606999
 20
-36.79382925509998
 30
0.0
  0
VERTEX
  5
1BDE
  8
3
 10
183.7468955647
 20
-36.46048426419998
 30
0.0
  0
VERTEX
  5
1BDF
  8
3
 10
184.4135855464999
 20
-36.2377502622
 30
0.0
  0
VERTEX
  5
1BE0
  8
3
 10
185.2
 20
-36.15953648179999
 30
0.0
  0
VERTEX
  5
1BE1
  8
3
 10
185.9864144534999
 20
-36.2377502622
 30
0.0
  0
VERTEX
  5
1BE2
  8
3
 10
186.6531044353999
 20
-36.46048426419998
 30
0.0
  0
VERTEX
  5
1BE3
  8
3
 10
187.0985724392999
 20
-36.79382925509998
 30
0.0
  0
VERTEX
  5
1BE4
  8
3
 10
187.2549999999999
 20
-37.18703648179996
 30
0.0
  0
SEQEND
  5
1EB6
  8
3
  0
POLYLINE
  5
D9B
  8
3
 66
     1
 10
0.0
 20
0.0
 30
0.0
  0
VERTEX
  5
1BE5
  8
3
 10
187.7
 20
-37.4568833765
 30
0.0
  0
VERTEX
  5
1BE6
  8
3
 10
187.5096988313001
 20
-37.93523766689998
 30
0.0
  0
VERTEX
  5
1BE7
  8
3
 10
186.9677669529999
 20
-38.3407668529
 30
0.0
  0
VERTEX
  5
1BE8
  8
3
 10
186.1567085808999
 20
-38.61173279209999
 30
0.0
  0
VERTEX
  5
1BE9
  8
3
 10
185.2
 20
-38.7068833765
 30
0.0
  0
VERTEX
  5
1BEA
  8
3
 10
184.2432914190999
 20
-38.61173279209999
 30
0.0
  0
VERTEX
  5
1BEB
  8
3
 10
183.4322330471
 20
-38.3407668529
 30
0.0
  0
VERTEX
  5
1BEC
  8
3
 10
182.8903011688001
 20
-37.93523766689998
 30
0.0
  0
VERTEX
  5
1BED
  8
3
 10
182.7
 20
-37.4568833765
 30
0.0
  0
VERTEX
  5
1BEE
  8
3
 10
182.8903011688001
 20
-36.97852908599998
 30
0.0
  0
VERTEX
  5
1BEF
  8
3
 10
183.4322330471
 20
-36.57299990000001
 30
0.0
  0
VERTEX
  5
1BF0
  8
3
 10
184.2432914190999
 20
-36.30203396079997
 30
0.0
  0
VERTEX
  5
1BF1
  8
3
 10
185.2
 20
-36.2068833765
 30
0.0
  0
VERTEX
  5
1BF2
  8
3
 10
186.1567085808999
 20
-36.30203396079997
 30
0.0
  0
VERTEX
  5
1BF3
  8
3
 10
186.9677669529999
 20
-36.57299990000001
 30
0.0
  0
VERTEX
  5
1BF4
  8
3
 10
187.5096988313001
 20
-36.97852908599998
 30
0.0
  0
VERTEX
  5
1BF5
  8
3
 10
187.7
 20
-37.4568833765
 30
0.0
  0
SEQEND
  5
1EB5
  8
3
  0
POLYLINE
  5
D9C
  8
3
 66
     1
 10
0.0
 20
0.0
 30
0.0
  0
VERTEX
  5
1BF6
  8
3
 10
187.7
 20
-37.53492292779998
 30
0.0
  0
VERTEX
  5
1BF7
  8
3
 10
187.5096988313001
 20
-38.0132772183
 30
0.0
  0
VERTEX
  5
1BF8
  8
3
 10
186.9677669529999
 20
-38.41880640429997
 30
0.0
  0
VERTEX
  5
1BF9
  8
3
 10
186.1567085808999
 20
-38.68977234350001
 30
0.0
  0
VERTEX
  5
1BFA
  8
3
 10
185.2
 20
-38.78492292779998
 30
0.0
  0
VERTEX
  5
1BFB
  8
3
 10
184.2432914190999
 20
-38.68977234350001
 30
0.0
  0
VERTEX
  5
1BFC
  8
3
 10
183.4322330471
 20
-38.41880640429997
 30
0.0
  0
VERTEX
  5
1BFD
  8
3
 10
182.8903011688001
 20
-38.0132772183
 30
0.0
  0
VERTEX
  5
1BFE
  8
3
 10
182.7
 20
-37.53492292779998
 30
0.0
  0
VERTEX
  5
1BFF
  8
3
 10
182.8903011688001
 20
-37.05656863740001
 30
0.0
  0
VERTEX
  5
1C00
  8
3
 10
183.4322330471
 20
-36.65103945129999
 30
0.0
  0
VERTEX
  5
1C01
  8
3
 10
184.2432914190999
 20
-36.3800735122
 30
0.0
  0
VERTEX
  5
1C02
  8
3
 10
185.2
 20
-36.28492292779998
 30
0.0
  0
VERTEX
  5
1C03
  8
3
 10
186.1567085808999
 20
-36.3800735122
 30
0.0
  0
VERTEX
  5
1C04
  8
3
 10
186.9677669529999
 20
-36.65103945129999
 30
0.0
  0
VERTEX
  5
1C05
  8
3
 10
187.5096988313001
 20
-37.05656863740001
 30
0.0
  0
VERTEX
  5
1C06
  8
3
 10
187.7
 20
-37.53492292779998
 30
0.0
  0
SEQEND
  5
1EB4
  8
3
  0
POLYLINE
  5
D9D
  8
3
 66
     1
 10
0.0
 20
0.0
 30
0.0
  0
VERTEX
  5
1C07
  8
3
 10
187.2549999999999
 20
-37.80476982239998
 30
0.0
  0
VERTEX
  5
1C08
  8
3
 10
187.0985724392999
 20
-38.19797704920001
 30
0.0
  0
VERTEX
  5
1C09
  8
3
 10
186.6531044353999
 20
-38.53132204010001
 30
0.0
  0
VERTEX
  5
1C0A
  8
3
 10
185.9864144534999
 20
-38.75405604209999
 30
0.0
  0
VERTEX
  5
1C0B
  8
3
 10
185.2
 20
-38.83226982240001
 30
0.0
  0
VERTEX
  5
1C0C
  8
3
 10
184.4135855464999
 20
-38.75405604209999
 30
0.0
  0
VERTEX
  5
1C0D
  8
3
 10
183.7468955647
 20
-38.53132204010001
 30
0.0
  0
VERTEX
  5
1C0E
  8
3
 10
183.3014275606999
 20
-38.19797704920001
 30
0.0
  0
VERTEX
  5
1C0F
  8
3
 10
183.145
 20
-37.80476982239998
 30
0.0
  0
VERTEX
  5
1C10
  8
3
 10
183.3014275606999
 20
-37.41156259569999
 30
0.0
  0
VERTEX
  5
1C11
  8
3
 10
183.7468955647
 20
-37.07821760479999
 30
0.0
  0
VERTEX
  5
1C12
  8
3
 10
184.4135855464999
 20
-36.85548360280001
 30
0.0
  0
VERTEX
  5
1C13
  8
3
 10
185.2
 20
-36.7772698224
 30
0.0
  0
VERTEX
  5
1C14
  8
3
 10
185.9864144534999
 20
-36.85548360280001
 30
0.0
  0
VERTEX
  5
1C15
  8
3
 10
186.6531044353999
 20
-37.07821760479999
 30
0.0
  0
VERTEX
  5
1C16
  8
3
 10
187.0985724392999
 20
-37.41156259569999
 30
0.0
  0
VERTEX
  5
1C17
  8
3
 10
187.2549999999999
 20
-37.80476982239998
 30
0.0
  0
SEQEND
  5
1EB3
  8
3
  0
POLYLINE
  5
D9E
  8
3
 66
     1
 10
0.0
 20
0.0
 30
0.0
  0
VERTEX
  5
1C18
  8
3
 10
187.7
 20
-38.07461671710001
 30
0.0
  0
VERTEX
  5
1C19
  8
3
 10
187.5096988313001
 20
-38.55297100749999
 30
0.0
  0
VERTEX
  5
1C1A
  8
3
 10
186.9677669529999
 20
-38.95850019350002
 30
0.0
  0
VERTEX
  5
1C1B
  8
3
 10
186.1567085808999
 20
-39.2294661327
 30
0.0
  0
VERTEX
  5
1C1C
  8
3
 10
185.2
 20
-39.32461671710001
 30
0.0
  0
VERTEX
  5
1C1D
  8
3
 10
184.2432914190999
 20
-39.2294661327
 30
0.0
  0
VERTEX
  5
1C1E
  8
3
 10
183.4322330471
 20
-38.95850019350002
 30
0.0
  0
VERTEX
  5
1C1F
  8
3
 10
182.8903011688001
 20
-38.55297100749999
 30
0.0
  0
VERTEX
  5
1C20
  8
3
 10
182.7
 20
-38.07461671710001
 30
0.0
  0
VERTEX
  5
1C21
  8
3
 10
182.8903011688001
 20
-37.59626242659999
 30
0.0
  0
VERTEX
  5
1C22
  8
3
 10
183.4322330471
 20
-37.19073324059997
 30
0.0
  0
VERTEX
  5
1C23
  8
3
 10
184.2432914190999
 20
-36.91976730139999
 30
0.0
  0
VERTEX
  5
1C24
  8
3
 10
185.2
 20
-36.82461671710001
 30
0.0
  0
VERTEX
  5
1C25
  8
3
 10
186.1567085808999
 20
-36.91976730139999
 30
0.0
  0
VERTEX
  5
1C26
  8
3
 10
186.9677669529999
 20
-37.19073324059997
 30
0.0
  0
VERTEX
  5
1C27
  8
3
 10
187.5096988313001
 20
-37.59626242659999
 30
0.0
  0
VERTEX
  5
1C28
  8
3
 10
187.7
 20
-38.07461671710001
 30
0.0
  0
SEQEND
  5
1EB2
  8
3
  0
POLYLINE
  5
D9F
  8
3
 66
     1
 10
0.0
 20
0.0
 30
0.0
  0
VERTEX
  5
1C29
  8
3
 10
187.7
 20
-38.15265626839999
 30
0.0
  0
VERTEX
  5
1C2A
  8
3
 10
187.5096988313001
 20
-38.63101055890002
 30
0.0
  0
VERTEX
  5
1C2B
  8
3
 10
186.9677669529999
 20
-39.03653974489998
 30
0.0
  0
VERTEX
  5
1C2C
  8
3
 10
186.1567085808999
 20
-39.30750568409997
 30
0.0
  0
VERTEX
  5
1C2D
  8
3
 10
185.2
 20
-39.40265626839999
 30
0.0
  0
VERTEX
  5
1C2E
  8
3
 10
184.2432914190999
 20
-39.30750568409997
 30
0.0
  0
VERTEX
  5
1C2F
  8
3
 10
183.4322330471
 20
-39.03653974489998
 30
0.0
  0
VERTEX
  5
1C30
  8
3
 10
182.8903011688001
 20
-38.63101055890002
 30
0.0
  0
VERTEX
  5
1C31
  8
3
 10
182.7
 20
-38.15265626839999
 30
0.0
  0
VERTEX
  5
1C32
  8
3
 10
182.8903011688001
 20
-37.67430197800002
 30
0.0
  0
VERTEX
  5
1C33
  8
3
 10
183.4322330471
 20
-37.26877279190001
 30
0.0
  0
VERTEX
  5
1C34
  8
3
 10
184.2432914190999
 20
-36.99780685280001
 30
0.0
  0
VERTEX
  5
1C35
  8
3
 10
185.2
 20
-36.90265626839999
 30
0.0
  0
VERTEX
  5
1C36
  8
3
 10
186.1567085808999
 20
-36.99780685280001
 30
0.0
  0
VERTEX
  5
1C37
  8
3
 10
186.9677669529999
 20
-37.26877279190001
 30
0.0
  0
VERTEX
  5
1C38
  8
3
 10
187.5096988313001
 20
-37.67430197800002
 30
0.0
  0
VERTEX
  5
1C39
  8
3
 10
187.7
 20
-38.15265626839999
 30
0.0
  0
SEQEND
  5
1EB1
  8
3
  0
POLYLINE
  5
DA0
  8
3
 66
     1
 10
0.0
 20
0.0
 30
0.0
  0
VERTEX
  5
1C3A
  8
3
 10
187.2549999999999
 20
-38.42250316299999
 30
0.0
  0
VERTEX
  5
1C3B
  8
3
 10
187.0985724392999
 20
-38.81571038980002
 30
0.0
  0
VERTEX
  5
1C3C
  8
3
 10
186.6531044353999
 20
-39.14905538069996
 30
0.0
  0
VERTEX
  5
1C3D
  8
3
 10
185.9864144534999
 20
-39.3717893827
 30
0.0
  0
VERTEX
  5
1C3E
  8
3
 10
185.2
 20
-39.45000316300002
 30
0.0
  0
VERTEX
  5
1C3F
  8
3
 10
184.4135855464999
 20
-39.3717893827
 30
0.0
  0
VERTEX
  5
1C40
  8
3
 10
183.7468955647
 20
-39.14905538069996
 30
0.0
  0
VERTEX
  5
1C41
  8
3
 10
183.3014275606999
 20
-38.81571038980002
 30
0.0
  0
VERTEX
  5
1C42
  8
3
 10
183.145
 20
-38.42250316299999
 30
0.0
  0
VERTEX
  5
1C43
  8
3
 10
183.3014275606999
 20
-38.0292959363
 30
0.0
  0
VERTEX
  5
1C44
  8
3
 10
183.7468955647
 20
-37.6959509454
 30
0.0
  0
VERTEX
  5
1C45
  8
3
 10
184.4135855464999
 20
-37.47321694340002
 30
0.0
  0
VERTEX
  5
1C46
  8
3
 10
185.2
 20
-37.39500316300001
 30
0.0
  0
VERTEX
  5
1C47
  8
3
 10
185.9864144534999
 20
-37.47321694340002
 30
0.0
  0
VERTEX
  5
1C48
  8
3
 10
186.6531044353999
 20
-37.6959509454
 30
0.0
  0
VERTEX
  5
1C49
  8
3
 10
187.0985724392999
 20
-38.0292959363
 30
0.0
  0
VERTEX
  5
1C4A
  8
3
 10
187.2549999999999
 20
-38.42250316299999
 30
0.0
  0
SEQEND
  5
1EB0
  8
3
  0
POLYLINE
  5
DA1
  8
3
 66
     1
 10
0.0
 20
0.0
 30
0.0
  0
VERTEX
  5
1C4B
  8
3
 10
187.7
 20
-38.69235005769997
 30
0.0
  0
VERTEX
  5
1C4C
  8
3
 10
187.5096988313001
 20
-39.1707043481
 30
0.0
  0
VERTEX
  5
1C4D
  8
3
 10
186.9677669529999
 20
-39.57623353420001
 30
0.0
  0
VERTEX
  5
1C4E
  8
3
 10
186.156708581
 20
-39.84719947330001
 30
0.0
  0
VERTEX
  5
1C4F
  8
3
 10
185.2
 20
-39.94235005769997
 30
0.0
  0
VERTEX
  5
1C50
  8
3
 10
184.2432914190999
 20
-39.84719947330001
 30
0.0
  0
VERTEX
  5
1C51
  8
3
 10
183.4322330471
 20
-39.57623353420001
 30
0.0
  0
VERTEX
  5
1C52
  8
3
 10
182.8903011688001
 20
-39.1707043481
 30
0.0
  0
VERTEX
  5
1C53
  8
3
 10
182.7
 20
-38.69235005769997
 30
0.0
  0
VERTEX
  5
1C54
  8
3
 10
182.8903011688001
 20
-38.2139957672
 30
0.0
  0
VERTEX
  5
1C55
  8
3
 10
183.4322330471
 20
-37.80846658119998
 30
0.0
  0
VERTEX
  5
1C56
  8
3
 10
184.2432914190999
 20
-37.537500642
 30
0.0
  0
VERTEX
  5
1C57
  8
3
 10
185.2
 20
-37.44235005769997
 30
0.0
  0
VERTEX
  5
1C58
  8
3
 10
186.156708581
 20
-37.537500642
 30
0.0
  0
VERTEX
  5
1C59
  8
3
 10
186.9677669529999
 20
-37.80846658119998
 30
0.0
  0
VERTEX
  5
1C5A
  8
3
 10
187.5096988313001
 20
-38.2139957672
 30
0.0
  0
VERTEX
  5
1C5B
  8
3
 10
187.7
 20
-38.69235005769997
 30
0.0
  0
SEQEND
  5
1EAF
  8
3
  0
POLYLINE
  5
DA2
  8
3
 66
     1
 10
0.0
 20
0.0
 30
0.0
  0
VERTEX
  5
1C5C
  8
3
 10
187.7
 20
-38.77038960900001
 30
0.0
  0
VERTEX
  5
1C5D
  8
3
 10
187.5096988313001
 20
-39.24874389949997
 30
0.0
  0
VERTEX
  5
1C5E
  8
3
 10
186.9677669529999
 20
-39.65427308549999
 30
0.0
  0
VERTEX
  5
1C5F
  8
3
 10
186.156708581
 20
-39.92523902469998
 30
0.0
  0
VERTEX
  5
1C60
  8
3
 10
185.2
 20
-40.02038960900001
 30
0.0
  0
VERTEX
  5
1C61
  8
3
 10
184.2432914190999
 20
-39.92523902469998
 30
0.0
  0
VERTEX
  5
1C62
  8
3
 10
183.4322330471
 20
-39.65427308549999
 30
0.0
  0
VERTEX
  5
1C63
  8
3
 10
182.8903011688001
 20
-39.24874389949997
 30
0.0
  0
VERTEX
  5
1C64
  8
3
 10
182.7
 20
-38.77038960900001
 30
0.0
  0
VERTEX
  5
1C65
  8
3
 10
182.8903011688001
 20
-38.29203531859997
 30
0.0
  0
VERTEX
  5
1C66
  8
3
 10
183.4322330471
 20
-37.88650613250002
 30
0.0
  0
VERTEX
  5
1C67
  8
3
 10
184.2432914190999
 20
-37.61554019339997
 30
0.0
  0
VERTEX
  5
1C68
  8
3
 10
185.2
 20
-37.52038960900001
 30
0.0
  0
VERTEX
  5
1C69
  8
3
 10
186.156708581
 20
-37.61554019339997
 30
0.0
  0
VERTEX
  5
1C6A
  8
3
 10
186.9677669529999
 20
-37.88650613250002
 30
0.0
  0
VERTEX
  5
1C6B
  8
3
 10
187.5096988313001
 20
-38.29203531859997
 30
0.0
  0
VERTEX
  5
1C6C
  8
3
 10
187.7
 20
-38.77038960900001
 30
0.0
  0
SEQEND
  5
1EAE
  8
3
  0
POLYLINE
  5
DA3
  8
3
 66
     1
 10
0.0
 20
0.0
 30
0.0
  0
VERTEX
  5
1C6D
  8
3
 10
187.2549999999999
 20
-39.0402365036
 30
0.0
  0
VERTEX
  5
1C6E
  8
3
 10
187.0985724394
 20
-39.43344373039997
 30
0.0
  0
VERTEX
  5
1C6F
  8
3
 10
186.6531044353999
 20
-39.76678872129997
 30
0.0
  0
VERTEX
  5
1C70
  8
3
 10
185.9864144536
 20
-39.98952272330001
 30
0.0
  0
VERTEX
  5
1C71
  8
3
 10
185.2
 20
-40.06773650359997
 30
0.0
  0
VERTEX
  5
1C72
  8
3
 10
184.4135855464999
 20
-39.98952272330001
 30
0.0
  0
VERTEX
  5
1C73
  8
3
 10
183.7468955647
 20
-39.76678872129997
 30
0.0
  0
VERTEX
  5
1C74
  8
3
 10
183.3014275606999
 20
-39.43344373039997
 30
0.0
  0
VERTEX
  5
1C75
  8
3
 10
183.145
 20
-39.0402365036
 30
0.0
  0
VERTEX
  5
1C76
  8
3
 10
183.3014275606999
 20
-38.64702927690001
 30
0.0
  0
VERTEX
  5
1C77
  8
3
 10
183.7468955647
 20
-38.31368428600001
 30
0.0
  0
VERTEX
  5
1C78
  8
3
 10
184.4135855464999
 20
-38.09095028399997
 30
0.0
  0
VERTEX
  5
1C79
  8
3
 10
185.2
 20
-38.01273650359997
 30
0.0
  0
VERTEX
  5
1C7A
  8
3
 10
185.9864144536
 20
-38.09095028399997
 30
0.0
  0
VERTEX
  5
1C7B
  8
3
 10
186.6531044353999
 20
-38.31368428600001
 30
0.0
  0
VERTEX
  5
1C7C
  8
3
 10
187.0985724394
 20
-38.64702927690001
 30
0.0
  0
VERTEX
  5
1C7D
  8
3
 10
187.2549999999999
 20
-39.0402365036
 30
0.0
  0
SEQEND
  5
1EAD
  8
3
  0
POLYLINE
  5
DA4
  8
3
 66
     1
 10
0.0
 20
0.0
 30
0.0
  0
VERTEX
  5
1C7E
  8
3
 10
187.7
 20
-39.31008339829998
 30
0.0
  0
VERTEX
  5
1C7F
  8
3
 10
187.5096988313001
 20
-39.78843768870001
 30
0.0
  0
VERTEX
  5
1C80
  8
3
 10
186.9677669529999
 20
-40.19396687479997
 30
0.0
  0
VERTEX
  5
1C81
  8
3
 10
186.156708581
 20
-40.46493281389996
 30
0.0
  0
VERTEX
  5
1C82
  8
3
 10
185.2
 20
-40.56008339829998
 30
0.0
  0
VERTEX
  5
1C83
  8
3
 10
184.2432914190999
 20
-40.46493281389996
 30
0.0
  0
VERTEX
  5
1C84
  8
3
 10
183.4322330471
 20
-40.19396687479997
 30
0.0
  0
VERTEX
  5
1C85
  8
3
 10
182.8903011688001
 20
-39.78843768870001
 30
0.0
  0
VERTEX
  5
1C86
  8
3
 10
182.7
 20
-39.31008339829998
 30
0.0
  0
VERTEX
  5
1C87
  8
3
 10
182.8903011688001
 20
-38.83172910780002
 30
0.0
  0
VERTEX
  5
1C88
  8
3
 10
183.4322330471
 20
-38.42619992179999
 30
0.0
  0
VERTEX
  5
1C89
  8
3
 10
184.2432914190999
 20
-38.15523398260001
 30
0.0
  0
VERTEX
  5
1C8A
  8
3
 10
185.2
 20
-38.06008339829998
 30
0.0
  0
VERTEX
  5
1C8B
  8
3
 10
186.156708581
 20
-38.15523398260001
 30
0.0
  0
VERTEX
  5
1C8C
  8
3
 10
186.9677669529999
 20
-38.42619992179999
 30
0.0
  0
VERTEX
  5
1C8D
  8
3
 10
187.5096988313001
 20
-38.83172910780002
 30
0.0
  0
VERTEX
  5
1C8E
  8
3
 10
187.7
 20
-39.31008339829998
 30
0.0
  0
SEQEND
  5
1EAC
  8
3
  0
LINE
  5
DA5
  8
3
 10
186.45
 20
-37.90304517229998
 30
0.0
 11
185.2
 21
-38.26388909050002
 31
0.0
  0
LINE
  5
DA6
  8
3
 10
183.95
 20
-37.90304517229998
 30
0.0
 11
185.2
 21
-38.26388909050002
 31
0.0
  0
POLYLINE
  5
DA7
  8
3
 66
     1
 10
0.0
 20
0.0
 30
0.0
  0
VERTEX
  5
1C8F
  8
3
 10
187.7
 20
-39.38812294960002
 30
0.0
  0
VERTEX
  5
1C90
  8
3
 10
187.5096988313001
 20
-39.86647724009998
 30
0.0
  0
VERTEX
  5
1C91
  8
3
 10
186.9677669529999
 20
-40.27200642610001
 30
0.0
  0
VERTEX
  5
1C92
  8
3
 10
186.156708581
 20
-40.54297236529999
 30
0.0
  0
VERTEX
  5
1C93
  8
3
 10
185.2
 20
-40.63812294960002
 30
0.0
  0
VERTEX
  5
1C94
  8
3
 10
184.2432914190999
 20
-40.54297236529999
 30
0.0
  0
VERTEX
  5
1C95
  8
3
 10
183.4322330471
 20
-40.27200642610001
 30
0.0
  0
VERTEX
  5
1C96
  8
3
 10
182.8903011688001
 20
-39.86647724009998
 30
0.0
  0
VERTEX
  5
1C97
  8
3
 10
182.7
 20
-39.38812294960002
 30
0.0
  0
VERTEX
  5
1C98
  8
3
 10
182.8903011688001
 20
-38.90976865919998
 30
0.0
  0
VERTEX
  5
1C99
  8
3
 10
183.4322330471
 20
-38.50423947309997
 30
0.0
  0
VERTEX
  5
1C9A
  8
3
 10
184.2432914190999
 20
-38.23327353399998
 30
0.0
  0
VERTEX
  5
1C9B
  8
3
 10
185.2
 20
-38.13812294960002
 30
0.0
  0
VERTEX
  5
1C9C
  8
3
 10
186.156708581
 20
-38.23327353399998
 30
0.0
  0
VERTEX
  5
1C9D
  8
3
 10
186.9677669529999
 20
-38.50423947309997
 30
0.0
  0
VERTEX
  5
1C9E
  8
3
 10
187.5096988313001
 20
-38.90976865919998
 30
0.0
  0
VERTEX
  5
1C9F
  8
3
 10
187.7
 20
-39.38812294960002
 30
0.0
  0
SEQEND
  5
1EAB
  8
3
  0
POLYLINE
  5
DA8
  8
3
 66
     1
 10
0.0
 20
0.0
 30
0.0
  0
VERTEX
  5
1CA0
  8
3
 10
187.2549999999999
 20
-39.6579698443
 30
0.0
  0
VERTEX
  5
1CA1
  8
3
 10
187.0985724394
 20
-40.05117707099998
 30
0.0
  0
VERTEX
  5
1CA2
  8
3
 10
186.6531044353999
 20
-40.38452206189999
 30
0.0
  0
VERTEX
  5
1CA3
  8
3
 10
185.9864144536
 20
-40.60725606389997
 30
0.0
  0
VERTEX
  5
1CA4
  8
3
 10
185.2
 20
-40.68546984429997
 30
0.0
  0
VERTEX
  5
1CA5
  8
3
 10
184.4135855464999
 20
-40.60725606389997
 30
0.0
  0
VERTEX
  5
1CA6
  8
3
 10
183.7468955647
 20
-40.38452206189999
 30
0.0
  0
VERTEX
  5
1CA7
  8
3
 10
183.3014275606999
 20
-40.05117707099998
 30
0.0
  0
VERTEX
  5
1CA8
  8
3
 10
183.145
 20
-39.6579698443
 30
0.0
  0
VERTEX
  5
1CA9
  8
3
 10
183.3014275606999
 20
-39.26476261749997
 30
0.0
  0
VERTEX
  5
1CAA
  8
3
 10
183.7468955647
 20
-38.93141762659997
 30
0.0
  0
VERTEX
  5
1CAB
  8
3
 10
184.4135855464999
 20
-38.70868362459998
 30
0.0
  0
VERTEX
  5
1CAC
  8
3
 10
185.2
 20
-38.63046984429997
 30
0.0
  0
VERTEX
  5
1CAD
  8
3
 10
185.9864144536
 20
-38.70868362459998
 30
0.0
  0
VERTEX
  5
1CAE
  8
3
 10
186.6531044353999
 20
-38.93141762659997
 30
0.0
  0
VERTEX
  5
1CAF
  8
3
 10
187.0985724394
 20
-39.26476261749997
 30
0.0
  0
VERTEX
  5
1CB0
  8
3
 10
187.2549999999999
 20
-39.6579698443
 30
0.0
  0
SEQEND
  5
1EAA
  8
3
  0
POLYLINE
  5
DA9
  8
3
 66
     1
 10
0.0
 20
0.0
 30
0.0
  0
VERTEX
  5
1CB1
  8
3
 10
187.4561031269
 20
-39.77991828080002
 30
0.0
  0
VERTEX
  5
1CB2
  8
3
 10
187.2843675022
 20
-39.34823163670001
 30
0.0
  0
VERTEX
  5
1CB3
  8
3
 10
186.7953058200999
 20
-38.98226537080001
 30
0.0
  0
VERTEX
  5
1CB4
  8
3
 10
186.0633732884
 20
-38.73773452979998
 30
0.0
  0
VERTEX
  5
1CB5
  8
3
 10
185.2
 20
-38.65186671739997
 30
0.0
  0
VERTEX
  5
1CB6
  8
3
 10
184.3366267117001
 20
-38.73773452979998
 30
0.0
  0
VERTEX
  5
1CB7
  8
3
 10
183.60469418
 20
-38.98226537080001
 30
0.0
  0
VERTEX
  5
1CB8
  8
3
 10
183.1156324978999
 20
-39.34823163670001
 30
0.0
  0
VERTEX
  5
1CB9
  8
3
 10
182.9438968731999
 20
-39.77991828080002
 30
0.0
  0
VERTEX
  5
1CBA
  8
3
 10
183.1156324978999
 20
-40.21160492500002
 30
0.0
  0
VERTEX
  5
1CBB
  8
3
 10
183.60469418
 20
-40.57757119090002
 30
0.0
  0
VERTEX
  5
1CBC
  8
3
 10
184.3366267117001
 20
-40.82210203189999
 30
0.0
  0
VERTEX
  5
1CBD
  8
3
 10
185.2
 20
-40.9079698443
 30
0.0
  0
VERTEX
  5
1CBE
  8
3
 10
186.0633732884
 20
-40.82210203189999
 30
0.0
  0
VERTEX
  5
1CBF
  8
3
 10
186.7953058200999
 20
-40.57757119090002
 30
0.0
  0
VERTEX
  5
1CC0
  8
3
 10
187.2843675022
 20
-40.21160492500002
 30
0.0
  0
VERTEX
  5
1CC1
  8
3
 10
187.4561031269
 20
-39.77991828080002
 30
0.0
  0
SEQEND
  5
1EA9
  8
3
  0
LINE
  5
DAA
  8
3
 10
186.45
 20
-37.90304517229998
 30
0.0
 11
186.45
 21
-37.18135733579999
 31
0.0
  0
LINE
  5
DAB
  8
3
 10
186.45
 20
-37.90304517229998
 30
0.0
 11
186.45
 21
-40.2413137625
 31
0.0
  0
LINE
  5
DAC
  8
3
 10
183.95
 20
-37.90304517229998
 30
0.0
 11
183.95
 21
-37.18135733579999
 31
0.0
  0
LINE
  5
DAD
  8
3
 10
183.95
 20
-37.90304517229998
 30
0.0
 11
183.95
 21
-40.2413137625
 31
0.0
  0
POLYLINE
  5
DAE
  8
3
 66
     1
 10
0.0
 20
0.0
 30
0.0
  0
VERTEX
  5
1CC2
  8
3
 10
185.2
 20
-40.9079698443
 30
0.0
  0
VERTEX
  5
1CC3
  8
3
 10
184.4135855464999
 20
-40.82975606389999
 30
0.0
  0
VERTEX
  5
1CC4
  8
3
 10
183.7468955647
 20
-40.60702206190001
 30
0.0
  0
VERTEX
  5
1CC5
  8
3
 10
183.3014275606999
 20
-40.27367707100001
 30
0.0
  0
VERTEX
  5
1CC6
  8
3
 10
183.145
 20
-39.88046984429997
 30
0.0
  0
VERTEX
  5
1CC7
  8
3
 10
183.3014275606999
 20
-39.48726261749999
 30
0.0
  0
VERTEX
  5
1CC8
  8
3
 10
183.7468955647
 20
-39.15391762659999
 30
0.0
  0
VERTEX
  5
1CC9
  8
3
 10
184.4135855464999
 20
-38.93118362460001
 30
0.0
  0
VERTEX
  5
1CCA
  8
3
 10
185.2
 20
-38.85296984429999
 30
0.0
  0
VERTEX
  5
1CCB
  8
3
 10
185.9864144536
 20
-38.93118362460001
 30
0.0
  0
VERTEX
  5
1CCC
  8
3
 10
186.6531044353999
 20
-39.15391762659999
 30
0.0
  0
VERTEX
  5
1CCD
  8
3
 10
187.0985724394
 20
-39.48726261749999
 30
0.0
  0
VERTEX
  5
1CCE
  8
3
 10
187.2549999999999
 20
-39.88046984429997
 30
0.0
  0
VERTEX
  5
1CCF
  8
3
 10
187.0985724394
 20
-40.27367707100001
 30
0.0
  0
VERTEX
  5
1CD0
  8
3
 10
186.6531044353999
 20
-40.60702206190001
 30
0.0
  0
VERTEX
  5
1CD1
  8
3
 10
185.9864144536
 20
-40.82975606389999
 30
0.0
  0
VERTEX
  5
1CD2
  8
3
 10
185.2
 20
-40.9079698443
 30
0.0
  0
SEQEND
  5
1EA8
  8
3
  0
LINE
  5
DAF
  8
3
 10
186.45
 20
-40.2413137625
 30
0.0
 11
185.2
 21
-40.60215768069997
 31
0.0
  0
LINE
  5
DB0
  8
3
 10
183.95
 20
-40.2413137625
 30
0.0
 11
185.2
 21
-40.60215768069997
 31
0.0
  0
LINE
  5
DB1
  8
3
 10
183.95
 20
-39.519625926
 30
0.0
 11
185.2
 21
-39.15878200779997
 31
0.0
  0
LINE
  5
DB2
  8
3
 10
183.95
 20
-37.18135733579999
 30
0.0
 11
185.2
 21
-36.82051341749997
 31
0.0
  0
LINE
  5
DB3
  8
3
 10
186.45
 20
-39.519625926
 30
0.0
 11
185.2
 21
-39.15878200779997
 31
0.0
  0
LINE
  5
DB4
  8
3
 10
186.45
 20
-37.18135733579999
 30
0.0
 11
185.2
 21
-36.82051341749997
 31
0.0
  0
POLYLINE
  5
DB5
  8
3
 66
     1
 10
0.0
 20
0.0
 30
0.0
  0
VERTEX
  5
1CD3
  8
3
 10
185.2
 20
33.80931742159999
 30
0.0
  0
VERTEX
  5
1CD4
  8
3
 10
184.5303039933999
 20
33.87592283060002
 30
0.0
  0
VERTEX
  5
1CD5
  8
3
 10
183.962563133
 20
34.06559898800003
 30
0.0
  0
VERTEX
  5
1CD6
  8
3
 10
183.5832108181
 20
34.34946941830003
 30
0.0
  0
VERTEX
  5
1CD7
  8
3
 10
183.45
 20
34.68431742159999
 30
0.0
  0
VERTEX
  5
1CD8
  8
3
 10
183.5832108181
 20
35.0191654249
 30
0.0
  0
VERTEX
  5
1CD9
  8
3
 10
183.962563133
 20
35.30303585510001
 30
0.0
  0
VERTEX
  5
1CDA
  8
3
 10
184.5303039933999
 20
35.49271201250002
 30
0.0
  0
VERTEX
  5
1CDB
  8
3
 10
185.2
 20
35.55931742159999
 30
0.0
  0
VERTEX
  5
1CDC
  8
3
 10
185.8696960067
 20
35.49271201250002
 30
0.0
  0
VERTEX
  5
1CDD
  8
3
 10
186.4374368670999
 20
35.30303585510001
 30
0.0
  0
VERTEX
  5
1CDE
  8
3
 10
186.8167891819
 20
35.0191654249
 30
0.0
  0
VERTEX
  5
1CDF
  8
3
 10
186.95
 20
34.68431742159999
 30
0.0
  0
VERTEX
  5
1CE0
  8
3
 10
186.8167891819
 20
34.34946941830003
 30
0.0
  0
VERTEX
  5
1CE1
  8
3
 10
186.4374368670999
 20
34.06559898800003
 30
0.0
  0
VERTEX
  5
1CE2
  8
3
 10
185.8696960067
 20
33.87592283060002
 30
0.0
  0
VERTEX
  5
1CE3
  8
3
 10
185.2
 20
33.80931742159999
 30
0.0
  0
SEQEND
  5
1EA7
  8
3
  0
POLYLINE
  5
DB6
  8
3
 66
     1
 10
0.0
 20
0.0
 30
0.0
  0
VERTEX
  5
1CE4
  8
3
 10
182.8832672566
 20
35.17512237459999
 30
0.0
  0
VERTEX
  5
1CE5
  8
3
 10
183.0596180360999
 20
35.61840999359998
 30
0.0
  0
VERTEX
  5
1CE6
  8
3
 10
183.5618225669
 20
35.9942110911
 30
0.0
  0
VERTEX
  5
1CE7
  8
3
 10
184.3134247619
 20
36.24531335660004
 30
0.0
  0
VERTEX
  5
1CE8
  8
3
 10
185.2
 20
36.33348874630002
 30
0.0
  0
VERTEX
  5
1CE9
  8
3
 10
186.0865752381999
 20
36.24531335660004
 30
0.0
  0
VERTEX
  5
1CEA
  8
3
 10
186.8381774330999
 20
35.9942110911
 30
0.0
  0
VERTEX
  5
1CEB
  8
3
 10
187.340381964
 20
35.61840999359998
 30
0.0
  0
VERTEX
  5
1CEC
  8
3
 10
187.5167327434999
 20
35.17512237459999
 30
0.0
  0
VERTEX
  5
1CED
  8
3
 10
187.340381964
 20
34.73183475550002
 30
0.0
  0
VERTEX
  5
1CEE
  8
3
 10
186.8381774330999
 20
34.356033658
 30
0.0
  0
VERTEX
  5
1CEF
  8
3
 10
186.0865752381999
 20
34.10493139260001
 30
0.0
  0
VERTEX
  5
1CF0
  8
3
 10
185.2
 20
34.01675600280004
 30
0.0
  0
VERTEX
  5
1CF1
  8
3
 10
184.3134247619
 20
34.10493139260001
 30
0.0
  0
VERTEX
  5
1CF2
  8
3
 10
183.5618225669
 20
34.356033658
 30
0.0
  0
VERTEX
  5
1CF3
  8
3
 10
183.0596180360999
 20
34.73183475550002
 30
0.0
  0
VERTEX
  5
1CF4
  8
3
 10
182.8832672566
 20
35.17512237459999
 30
0.0
  0
SEQEND
  5
1EA6
  8
3
  0
POLYLINE
  5
DB7
  8
3
 66
     1
 10
0.0
 20
0.0
 30
0.0
  0
VERTEX
  5
1CF5
  8
3
 10
187.2549999999999
 20
35.33383646010003
 30
0.0
  0
VERTEX
  5
1CF6
  8
3
 10
187.0985724392999
 20
34.9406292333
 30
0.0
  0
VERTEX
  5
1CF7
  8
3
 10
186.6531044353999
 20
34.6072842424
 30
0.0
  0
VERTEX
  5
1CF8
  8
3
 10
185.9864144534999
 20
34.38455024040002
 30
0.0
  0
VERTEX
  5
1CF9
  8
3
 10
185.2
 20
34.3063364601
 30
0.0
  0
VERTEX
  5
1CFA
  8
3
 10
184.4135855464999
 20
34.38455024040002
 30
0.0
  0
VERTEX
  5
1CFB
  8
3
 10
183.7468955647
 20
34.6072842424
 30
0.0
  0
VERTEX
  5
1CFC
  8
3
 10
183.3014275606999
 20
34.9406292333
 30
0.0
  0
VERTEX
  5
1CFD
  8
3
 10
183.145
 20
35.33383646010003
 30
0.0
  0
VERTEX
  5
1CFE
  8
3
 10
183.3014275606999
 20
35.72704368680002
 30
0.0
  0
VERTEX
  5
1CFF
  8
3
 10
183.7468955647
 20
36.06038867770002
 30
0.0
  0
VERTEX
  5
1D00
  8
3
 10
184.4135855464999
 20
36.2831226797
 30
0.0
  0
VERTEX
  5
1D01
  8
3
 10
185.2
 20
36.36133646010001
 30
0.0
  0
VERTEX
  5
1D02
  8
3
 10
185.9864144534999
 20
36.2831226797
 30
0.0
  0
VERTEX
  5
1D03
  8
3
 10
186.6531044353999
 20
36.06038867770002
 30
0.0
  0
VERTEX
  5
1D04
  8
3
 10
187.0985724392999
 20
35.72704368680002
 30
0.0
  0
VERTEX
  5
1D05
  8
3
 10
187.2549999999999
 20
35.33383646010003
 30
0.0
  0
SEQEND
  5
1EA5
  8
3
  0
POLYLINE
  5
DB8
  8
3
 66
     1
 10
0.0
 20
0.0
 30
0.0
  0
VERTEX
  5
1D06
  8
3
 10
187.7
 20
35.60368335470002
 30
0.0
  0
VERTEX
  5
1D07
  8
3
 10
187.5096988313001
 20
35.1253290642
 30
0.0
  0
VERTEX
  5
1D08
  8
3
 10
186.9677669529999
 20
34.71979987820004
 30
0.0
  0
VERTEX
  5
1D09
  8
3
 10
186.1567085808999
 20
34.448833939
 30
0.0
  0
VERTEX
  5
1D0A
  8
3
 10
185.2
 20
34.35368335470002
 30
0.0
  0
VERTEX
  5
1D0B
  8
3
 10
184.2432914190999
 20
34.448833939
 30
0.0
  0
VERTEX
  5
1D0C
  8
3
 10
183.4322330471
 20
34.71979987820004
 30
0.0
  0
VERTEX
  5
1D0D
  8
3
 10
182.8903011688001
 20
35.1253290642
 30
0.0
  0
VERTEX
  5
1D0E
  8
3
 10
182.7
 20
35.60368335470002
 30
0.0
  0
VERTEX
  5
1D0F
  8
3
 10
182.8903011688001
 20
36.0820376451
 30
0.0
  0
VERTEX
  5
1D10
  8
3
 10
183.4322330471
 20
36.48756683120001
 30
0.0
  0
VERTEX
  5
1D11
  8
3
 10
184.2432914190999
 20
36.75853277030001
 30
0.0
  0
VERTEX
  5
1D12
  8
3
 10
185.2
 20
36.85368335470002
 30
0.0
  0
VERTEX
  5
1D13
  8
3
 10
186.1567085808999
 20
36.75853277030001
 30
0.0
  0
VERTEX
  5
1D14
  8
3
 10
186.9677669529999
 20
36.48756683120001
 30
0.0
  0
VERTEX
  5
1D15
  8
3
 10
187.5096988313001
 20
36.0820376451
 30
0.0
  0
VERTEX
  5
1D16
  8
3
 10
187.7
 20
35.60368335470002
 30
0.0
  0
SEQEND
  5
1EA4
  8
3
  0
POLYLINE
  5
DB9
  8
3
 66
     1
 10
0.0
 20
0.0
 30
0.0
  0
VERTEX
  5
1D17
  8
3
 10
187.7
 20
35.681722906
 30
0.0
  0
VERTEX
  5
1D18
  8
3
 10
187.5096988313001
 20
35.20336861560003
 30
0.0
  0
VERTEX
  5
1D19
  8
3
 10
186.9677669529999
 20
34.7978394296
 30
0.0
  0
VERTEX
  5
1D1A
  8
3
 10
186.1567085808999
 20
34.52687349040002
 30
0.0
  0
VERTEX
  5
1D1B
  8
3
 10
185.2
 20
34.431722906
 30
0.0
  0
VERTEX
  5
1D1C
  8
3
 10
184.2432914190999
 20
34.52687349040002
 30
0.0
  0
VERTEX
  5
1D1D
  8
3
 10
183.4322330471
 20
34.7978394296
 30
0.0
  0
VERTEX
  5
1D1E
  8
3
 10
182.8903011688001
 20
35.20336861560003
 30
0.0
  0
VERTEX
  5
1D1F
  8
3
 10
182.7
 20
35.681722906
 30
0.0
  0
VERTEX
  5
1D20
  8
3
 10
182.8903011688001
 20
36.16007719650003
 30
0.0
  0
VERTEX
  5
1D21
  8
3
 10
183.4322330471
 20
36.56560638249999
 30
0.0
  0
VERTEX
  5
1D22
  8
3
 10
184.2432914190999
 20
36.83657232170003
 30
0.0
  0
VERTEX
  5
1D23
  8
3
 10
185.2
 20
36.931722906
 30
0.0
  0
VERTEX
  5
1D24
  8
3
 10
186.1567085808999
 20
36.83657232170003
 30
0.0
  0
VERTEX
  5
1D25
  8
3
 10
186.9677669529999
 20
36.56560638249999
 30
0.0
  0
VERTEX
  5
1D26
  8
3
 10
187.5096988313001
 20
36.16007719650003
 30
0.0
  0
VERTEX
  5
1D27
  8
3
 10
187.7
 20
35.681722906
 30
0.0
  0
SEQEND
  5
1EA3
  8
3
  0
POLYLINE
  5
DBA
  8
3
 66
     1
 10
0.0
 20
0.0
 30
0.0
  0
VERTEX
  5
1D28
  8
3
 10
187.2549999999999
 20
35.95156980069999
 30
0.0
  0
VERTEX
  5
1D29
  8
3
 10
187.0985724392999
 20
35.55836257390001
 30
0.0
  0
VERTEX
  5
1D2A
  8
3
 10
186.6531044353999
 20
35.22501758300001
 30
0.0
  0
VERTEX
  5
1D2B
  8
3
 10
185.9864144534999
 20
35.00228358100003
 30
0.0
  0
VERTEX
  5
1D2C
  8
3
 10
185.2
 20
34.92406980070001
 30
0.0
  0
VERTEX
  5
1D2D
  8
3
 10
184.4135855464999
 20
35.00228358100003
 30
0.0
  0
VERTEX
  5
1D2E
  8
3
 10
183.7468955647
 20
35.22501758300001
 30
0.0
  0
VERTEX
  5
1D2F
  8
3
 10
183.3014275606999
 20
35.55836257390001
 30
0.0
  0
VERTEX
  5
1D30
  8
3
 10
183.145
 20
35.95156980069999
 30
0.0
  0
VERTEX
  5
1D31
  8
3
 10
183.3014275606999
 20
36.34477702740003
 30
0.0
  0
VERTEX
  5
1D32
  8
3
 10
183.7468955647
 20
36.67812201830003
 30
0.0
  0
VERTEX
  5
1D33
  8
3
 10
184.4135855464999
 20
36.90085602030001
 30
0.0
  0
VERTEX
  5
1D34
  8
3
 10
185.2
 20
36.97906980070002
 30
0.0
  0
VERTEX
  5
1D35
  8
3
 10
185.9864144534999
 20
36.90085602030001
 30
0.0
  0
VERTEX
  5
1D36
  8
3
 10
186.6531044353999
 20
36.67812201830003
 30
0.0
  0
VERTEX
  5
1D37
  8
3
 10
187.0985724392999
 20
36.34477702740003
 30
0.0
  0
VERTEX
  5
1D38
  8
3
 10
187.2549999999999
 20
35.95156980069999
 30
0.0
  0
SEQEND
  5
1EA2
  8
3
  0
POLYLINE
  5
DBB
  8
3
 66
     1
 10
0.0
 20
0.0
 30
0.0
  0
VERTEX
  5
1D39
  8
3
 10
187.7
 20
36.22141669530004
 30
0.0
  0
VERTEX
  5
1D3A
  8
3
 10
187.5096988313001
 20
35.74306240480001
 30
0.0
  0
VERTEX
  5
1D3B
  8
3
 10
186.9677669529999
 20
35.33753321879999
 30
0.0
  0
VERTEX
  5
1D3C
  8
3
 10
186.1567085808999
 20
35.0665672797
 30
0.0
  0
VERTEX
  5
1D3D
  8
3
 10
185.2
 20
34.97141669530004
 30
0.0
  0
VERTEX
  5
1D3E
  8
3
 10
184.2432914190999
 20
35.0665672797
 30
0.0
  0
VERTEX
  5
1D3F
  8
3
 10
183.4322330471
 20
35.33753321879999
 30
0.0
  0
VERTEX
  5
1D40
  8
3
 10
182.8903011687
 20
35.74306240480001
 30
0.0
  0
VERTEX
  5
1D41
  8
3
 10
182.7
 20
36.22141669530004
 30
0.0
  0
VERTEX
  5
1D42
  8
3
 10
182.8903011687
 20
36.69977098570001
 30
0.0
  0
VERTEX
  5
1D43
  8
3
 10
183.4322330471
 20
37.10530017180002
 30
0.0
  0
VERTEX
  5
1D44
  8
3
 10
184.2432914190999
 20
37.37626611090002
 30
0.0
  0
VERTEX
  5
1D45
  8
3
 10
185.2
 20
37.47141669530004
 30
0.0
  0
VERTEX
  5
1D46
  8
3
 10
186.1567085808999
 20
37.37626611090002
 30
0.0
  0
VERTEX
  5
1D47
  8
3
 10
186.9677669529999
 20
37.10530017180002
 30
0.0
  0
VERTEX
  5
1D48
  8
3
 10
187.5096988313001
 20
36.69977098570001
 30
0.0
  0
VERTEX
  5
1D49
  8
3
 10
187.7
 20
36.22141669530004
 30
0.0
  0
SEQEND
  5
1EA1
  8
3
  0
POLYLINE
  5
DBC
  8
3
 66
     1
 10
0.0
 20
0.0
 30
0.0
  0
VERTEX
  5
1D4A
  8
3
 10
187.7
 20
36.29945624660002
 30
0.0
  0
VERTEX
  5
1D4B
  8
3
 10
187.5096988313001
 20
35.82110195619998
 30
0.0
  0
VERTEX
  5
1D4C
  8
3
 10
186.9677669529999
 20
35.41557277020001
 30
0.0
  0
VERTEX
  5
1D4D
  8
3
 10
186.1567085808999
 20
35.14460683100003
 30
0.0
  0
VERTEX
  5
1D4E
  8
3
 10
185.2
 20
35.04945624660002
 30
0.0
  0
VERTEX
  5
1D4F
  8
3
 10
184.2432914190999
 20
35.14460683100003
 30
0.0
  0
VERTEX
  5
1D50
  8
3
 10
183.4322330471
 20
35.41557277020001
 30
0.0
  0
VERTEX
  5
1D51
  8
3
 10
182.8903011687
 20
35.82110195619998
 30
0.0
  0
VERTEX
  5
1D52
  8
3
 10
182.7
 20
36.29945624660002
 30
0.0
  0
VERTEX
  5
1D53
  8
3
 10
182.8903011687
 20
36.77781053709998
 30
0.0
  0
VERTEX
  5
1D54
  8
3
 10
183.4322330471
 20
37.1833397231
 30
0.0
  0
VERTEX
  5
1D55
  8
3
 10
184.2432914190999
 20
37.45430566229999
 30
0.0
  0
VERTEX
  5
1D56
  8
3
 10
185.2
 20
37.54945624660002
 30
0.0
  0
VERTEX
  5
1D57
  8
3
 10
186.1567085808999
 20
37.45430566229999
 30
0.0
  0
VERTEX
  5
1D58
  8
3
 10
186.9677669529999
 20
37.1833397231
 30
0.0
  0
VERTEX
  5
1D59
  8
3
 10
187.5096988313001
 20
36.77781053709998
 30
0.0
  0
VERTEX
  5
1D5A
  8
3
 10
187.7
 20
36.29945624660002
 30
0.0
  0
SEQEND
  5
1EA0
  8
3
  0
POLYLINE
  5
DBD
  8
3
 66
     1
 10
0.0
 20
0.0
 30
0.0
  0
VERTEX
  5
1D5B
  8
3
 10
187.2549999999999
 20
36.5693031413
 30
0.0
  0
VERTEX
  5
1D5C
  8
3
 10
187.0985724392999
 20
36.17609591450002
 30
0.0
  0
VERTEX
  5
1D5D
  8
3
 10
186.6531044353999
 20
35.84275092360002
 30
0.0
  0
VERTEX
  5
1D5E
  8
3
 10
185.9864144534999
 20
35.62001692159998
 30
0.0
  0
VERTEX
  5
1D5F
  8
3
 10
185.2
 20
35.54180314130002
 30
0.0
  0
VERTEX
  5
1D60
  8
3
 10
184.4135855464999
 20
35.62001692159998
 30
0.0
  0
VERTEX
  5
1D61
  8
3
 10
183.7468955647
 20
35.84275092360002
 30
0.0
  0
VERTEX
  5
1D62
  8
3
 10
183.3014275606999
 20
36.17609591450002
 30
0.0
  0
VERTEX
  5
1D63
  8
3
 10
183.145
 20
36.5693031413
 30
0.0
  0
VERTEX
  5
1D64
  8
3
 10
183.3014275606999
 20
36.96251036799998
 30
0.0
  0
VERTEX
  5
1D65
  8
3
 10
183.7468955647
 20
37.29585535889998
 30
0.0
  0
VERTEX
  5
1D66
  8
3
 10
184.4135855464999
 20
37.51858936090002
 30
0.0
  0
VERTEX
  5
1D67
  8
3
 10
185.2
 20
37.59680314130003
 30
0.0
  0
VERTEX
  5
1D68
  8
3
 10
185.9864144534999
 20
37.51858936090002
 30
0.0
  0
VERTEX
  5
1D69
  8
3
 10
186.6531044353999
 20
37.29585535889998
 30
0.0
  0
VERTEX
  5
1D6A
  8
3
 10
187.0985724392999
 20
36.96251036799998
 30
0.0
  0
VERTEX
  5
1D6B
  8
3
 10
187.2549999999999
 20
36.5693031413
 30
0.0
  0
SEQEND
  5
1E9F
  8
3
  0
POLYLINE
  5
DBE
  8
3
 66
     1
 10
0.0
 20
0.0
 30
0.0
  0
VERTEX
  5
1D6C
  8
3
 10
187.7
 20
36.83915003589999
 30
0.0
  0
VERTEX
  5
1D6D
  8
3
 10
187.5096988313001
 20
36.36079574540003
 30
0.0
  0
VERTEX
  5
1D6E
  8
3
 10
186.9677669529999
 20
35.9552665594
 30
0.0
  0
VERTEX
  5
1D6F
  8
3
 10
186.1567085808999
 20
35.68430062030001
 30
0.0
  0
VERTEX
  5
1D70
  8
3
 10
185.2
 20
35.58915003589999
 30
0.0
  0
VERTEX
  5
1D71
  8
3
 10
184.2432914190999
 20
35.68430062030001
 30
0.0
  0
VERTEX
  5
1D72
  8
3
 10
183.4322330471
 20
35.9552665594
 30
0.0
  0
VERTEX
  5
1D73
  8
3
 10
182.8903011688001
 20
36.36079574540003
 30
0.0
  0
VERTEX
  5
1D74
  8
3
 10
182.7
 20
36.83915003589999
 30
0.0
  0
VERTEX
  5
1D75
  8
3
 10
182.8903011688001
 20
37.31750432640001
 30
0.0
  0
VERTEX
  5
1D76
  8
3
 10
183.4322330471
 20
37.72303351240004
 30
0.0
  0
VERTEX
  5
1D77
  8
3
 10
184.2432914190999
 20
37.99399945150003
 30
0.0
  0
VERTEX
  5
1D78
  8
3
 10
185.2
 20
38.08915003589999
 30
0.0
  0
VERTEX
  5
1D79
  8
3
 10
186.1567085808999
 20
37.99399945150003
 30
0.0
  0
VERTEX
  5
1D7A
  8
3
 10
186.9677669529999
 20
37.72303351240004
 30
0.0
  0
VERTEX
  5
1D7B
  8
3
 10
187.5096988313001
 20
37.31750432640001
 30
0.0
  0
VERTEX
  5
1D7C
  8
3
 10
187.7
 20
36.83915003589999
 30
0.0
  0
SEQEND
  5
1E9E
  8
3
  0
POLYLINE
  5
DBF
  8
3
 66
     1
 10
0.0
 20
0.0
 30
0.0
  0
VERTEX
  5
1D7D
  8
3
 10
187.7
 20
36.91718958730002
 30
0.0
  0
VERTEX
  5
1D7E
  8
3
 10
187.5096988313001
 20
36.43883529679999
 30
0.0
  0
VERTEX
  5
1D7F
  8
3
 10
186.9677669529999
 20
36.03330611080003
 30
0.0
  0
VERTEX
  5
1D80
  8
3
 10
186.1567085808999
 20
35.76234017159999
 30
0.0
  0
VERTEX
  5
1D81
  8
3
 10
185.2
 20
35.66718958730002
 30
0.0
  0
VERTEX
  5
1D82
  8
3
 10
184.2432914190999
 20
35.76234017159999
 30
0.0
  0
VERTEX
  5
1D83
  8
3
 10
183.4322330471
 20
36.03330611080003
 30
0.0
  0
VERTEX
  5
1D84
  8
3
 10
182.8903011688001
 20
36.43883529679999
 30
0.0
  0
VERTEX
  5
1D85
  8
3
 10
182.7
 20
36.91718958730002
 30
0.0
  0
VERTEX
  5
1D86
  8
3
 10
182.8903011688001
 20
37.39554387769999
 30
0.0
  0
VERTEX
  5
1D87
  8
3
 10
183.4322330471
 20
37.80107306370002
 30
0.0
  0
VERTEX
  5
1D88
  8
3
 10
184.2432914190999
 20
38.0720390029
 30
0.0
  0
VERTEX
  5
1D89
  8
3
 10
185.2
 20
38.16718958730002
 30
0.0
  0
VERTEX
  5
1D8A
  8
3
 10
186.1567085808999
 20
38.0720390029
 30
0.0
  0
VERTEX
  5
1D8B
  8
3
 10
186.9677669529999
 20
37.80107306370002
 30
0.0
  0
VERTEX
  5
1D8C
  8
3
 10
187.5096988313001
 20
37.39554387769999
 30
0.0
  0
VERTEX
  5
1D8D
  8
3
 10
187.7
 20
36.91718958730002
 30
0.0
  0
SEQEND
  5
1E9D
  8
3
  0
POLYLINE
  5
DC0
  8
3
 66
     1
 10
0.0
 20
0.0
 30
0.0
  0
VERTEX
  5
1D8E
  8
3
 10
187.2549999999999
 20
37.18703648190001
 30
0.0
  0
VERTEX
  5
1D8F
  8
3
 10
187.0985724392999
 20
36.79382925510004
 30
0.0
  0
VERTEX
  5
1D90
  8
3
 10
186.6531044353999
 20
36.46048426420003
 30
0.0
  0
VERTEX
  5
1D91
  8
3
 10
185.9864144534999
 20
36.2377502622
 30
0.0
  0
VERTEX
  5
1D92
  8
3
 10
185.2
 20
36.15953648190003
 30
0.0
  0
VERTEX
  5
1D93
  8
3
 10
184.4135855464999
 20
36.2377502622
 30
0.0
  0
VERTEX
  5
1D94
  8
3
 10
183.7468955647
 20
36.46048426420003
 30
0.0
  0
VERTEX
  5
1D95
  8
3
 10
183.3014275606999
 20
36.79382925510004
 30
0.0
  0
VERTEX
  5
1D96
  8
3
 10
183.145
 20
37.18703648190001
 30
0.0
  0
VERTEX
  5
1D97
  8
3
 10
183.3014275606999
 20
37.58024370859999
 30
0.0
  0
VERTEX
  5
1D98
  8
3
 10
183.7468955647
 20
37.9135886995
 30
0.0
  0
VERTEX
  5
1D99
  8
3
 10
184.4135855464999
 20
38.13632270150003
 30
0.0
  0
VERTEX
  5
1D9A
  8
3
 10
185.2
 20
38.21453648189998
 30
0.0
  0
VERTEX
  5
1D9B
  8
3
 10
185.9864144534999
 20
38.13632270150003
 30
0.0
  0
VERTEX
  5
1D9C
  8
3
 10
186.6531044353999
 20
37.9135886995
 30
0.0
  0
VERTEX
  5
1D9D
  8
3
 10
187.0985724392999
 20
37.58024370859999
 30
0.0
  0
VERTEX
  5
1D9E
  8
3
 10
187.2549999999999
 20
37.18703648190001
 30
0.0
  0
SEQEND
  5
1E9C
  8
3
  0
POLYLINE
  5
DC1
  8
3
 66
     1
 10
0.0
 20
0.0
 30
0.0
  0
VERTEX
  5
1D9F
  8
3
 10
187.7
 20
37.4568833765
 30
0.0
  0
VERTEX
  5
1DA0
  8
3
 10
187.5096988313001
 20
36.97852908600004
 30
0.0
  0
VERTEX
  5
1DA1
  8
3
 10
186.9677669529999
 20
36.57299990000001
 30
0.0
  0
VERTEX
  5
1DA2
  8
3
 10
186.1567085808999
 20
36.30203396090002
 30
0.0
  0
VERTEX
  5
1DA3
  8
3
 10
185.2
 20
36.2068833765
 30
0.0
  0
VERTEX
  5
1DA4
  8
3
 10
184.2432914190999
 20
36.30203396090002
 30
0.0
  0
VERTEX
  5
1DA5
  8
3
 10
183.4322330471
 20
36.57299990000001
 30
0.0
  0
VERTEX
  5
1DA6
  8
3
 10
182.8903011688001
 20
36.97852908600004
 30
0.0
  0
VERTEX
  5
1DA7
  8
3
 10
182.7
 20
37.4568833765
 30
0.0
  0
VERTEX
  5
1DA8
  8
3
 10
182.8903011688001
 20
37.93523766700002
 30
0.0
  0
VERTEX
  5
1DA9
  8
3
 10
183.4322330471
 20
38.34076685299999
 30
0.0
  0
VERTEX
  5
1DAA
  8
3
 10
184.2432914190999
 20
38.61173279209999
 30
0.0
  0
VERTEX
  5
1DAB
  8
3
 10
185.2
 20
38.7068833765
 30
0.0
  0
VERTEX
  5
1DAC
  8
3
 10
186.1567085808999
 20
38.61173279209999
 30
0.0
  0
VERTEX
  5
1DAD
  8
3
 10
186.9677669529999
 20
38.34076685299999
 30
0.0
  0
VERTEX
  5
1DAE
  8
3
 10
187.5096988313001
 20
37.93523766700002
 30
0.0
  0
VERTEX
  5
1DAF
  8
3
 10
187.7
 20
37.4568833765
 30
0.0
  0
SEQEND
  5
1E9B
  8
3
  0
POLYLINE
  5
DC2
  8
3
 66
     1
 10
0.0
 20
0.0
 30
0.0
  0
VERTEX
  5
1DB0
  8
3
 10
187.7
 20
37.53492292790003
 30
0.0
  0
VERTEX
  5
1DB1
  8
3
 10
187.5096988313001
 20
37.05656863740001
 30
0.0
  0
VERTEX
  5
1DB2
  8
3
 10
186.9677669529999
 20
36.65103945139998
 30
0.0
  0
VERTEX
  5
1DB3
  8
3
 10
186.1567085808999
 20
36.3800735122
 30
0.0
  0
VERTEX
  5
1DB4
  8
3
 10
185.2
 20
36.28492292790003
 30
0.0
  0
VERTEX
  5
1DB5
  8
3
 10
184.2432914190999
 20
36.3800735122
 30
0.0
  0
VERTEX
  5
1DB6
  8
3
 10
183.4322330471
 20
36.65103945139998
 30
0.0
  0
VERTEX
  5
1DB7
  8
3
 10
182.8903011688001
 20
37.05656863740001
 30
0.0
  0
VERTEX
  5
1DB8
  8
3
 10
182.7
 20
37.53492292790003
 30
0.0
  0
VERTEX
  5
1DB9
  8
3
 10
182.8903011688001
 20
38.0132772183
 30
0.0
  0
VERTEX
  5
1DBA
  8
3
 10
183.4322330471
 20
38.41880640430003
 30
0.0
  0
VERTEX
  5
1DBB
  8
3
 10
184.2432914190999
 20
38.68977234350001
 30
0.0
  0
VERTEX
  5
1DBC
  8
3
 10
185.2
 20
38.78492292790003
 30
0.0
  0
VERTEX
  5
1DBD
  8
3
 10
186.1567085808999
 20
38.68977234350001
 30
0.0
  0
VERTEX
  5
1DBE
  8
3
 10
186.9677669529999
 20
38.41880640430003
 30
0.0
  0
VERTEX
  5
1DBF
  8
3
 10
187.5096988313001
 20
38.0132772183
 30
0.0
  0
VERTEX
  5
1DC0
  8
3
 10
187.7
 20
37.53492292790003
 30
0.0
  0
SEQEND
  5
1E9A
  8
3
  0
POLYLINE
  5
DC3
  8
3
 66
     1
 10
0.0
 20
0.0
 30
0.0
  0
VERTEX
  5
1DC1
  8
3
 10
187.2549999999999
 20
37.80476982250002
 30
0.0
  0
VERTEX
  5
1DC2
  8
3
 10
187.0985724392999
 20
37.41156259569999
 30
0.0
  0
VERTEX
  5
1DC3
  8
3
 10
186.6531044353999
 20
37.07821760479999
 30
0.0
  0
VERTEX
  5
1DC4
  8
3
 10
185.9864144534999
 20
36.85548360280001
 30
0.0
  0
VERTEX
  5
1DC5
  8
3
 10
185.2
 20
36.77726982249999
 30
0.0
  0
VERTEX
  5
1DC6
  8
3
 10
184.4135855464999
 20
36.85548360280001
 30
0.0
  0
VERTEX
  5
1DC7
  8
3
 10
183.7468955647
 20
37.07821760479999
 30
0.0
  0
VERTEX
  5
1DC8
  8
3
 10
183.3014275606999
 20
37.41156259569999
 30
0.0
  0
VERTEX
  5
1DC9
  8
3
 10
183.145
 20
37.80476982250002
 30
0.0
  0
VERTEX
  5
1DCA
  8
3
 10
183.3014275606999
 20
38.19797704920001
 30
0.0
  0
VERTEX
  5
1DCB
  8
3
 10
183.7468955647
 20
38.53132204010001
 30
0.0
  0
VERTEX
  5
1DCC
  8
3
 10
184.4135855464999
 20
38.75405604209999
 30
0.0
  0
VERTEX
  5
1DCD
  8
3
 10
185.2
 20
38.8322698225
 30
0.0
  0
VERTEX
  5
1DCE
  8
3
 10
185.9864144534999
 20
38.75405604209999
 30
0.0
  0
VERTEX
  5
1DCF
  8
3
 10
186.6531044353999
 20
38.53132204010001
 30
0.0
  0
VERTEX
  5
1DD0
  8
3
 10
187.0985724392999
 20
38.19797704920001
 30
0.0
  0
VERTEX
  5
1DD1
  8
3
 10
187.2549999999999
 20
37.80476982250002
 30
0.0
  0
SEQEND
  5
1E99
  8
3
  0
POLYLINE
  5
DC4
  8
3
 66
     1
 10
0.0
 20
0.0
 30
0.0
  0
VERTEX
  5
1DD2
  8
3
 10
187.7
 20
38.07461671710001
 30
0.0
  0
VERTEX
  5
1DD3
  8
3
 10
187.5096988313001
 20
37.59626242659999
 30
0.0
  0
VERTEX
  5
1DD4
  8
3
 10
186.9677669529999
 20
37.19073324060003
 30
0.0
  0
VERTEX
  5
1DD5
  8
3
 10
186.1567085808999
 20
36.91976730150003
 30
0.0
  0
VERTEX
  5
1DD6
  8
3
 10
185.2
 20
36.82461671710001
 30
0.0
  0
VERTEX
  5
1DD7
  8
3
 10
184.2432914190999
 20
36.91976730150003
 30
0.0
  0
VERTEX
  5
1DD8
  8
3
 10
183.4322330471
 20
37.19073324060003
 30
0.0
  0
VERTEX
  5
1DD9
  8
3
 10
182.8903011688001
 20
37.59626242659999
 30
0.0
  0
VERTEX
  5
1DDA
  8
3
 10
182.7
 20
38.07461671710001
 30
0.0
  0
VERTEX
  5
1DDB
  8
3
 10
182.8903011688001
 20
38.55297100760004
 30
0.0
  0
VERTEX
  5
1DDC
  8
3
 10
183.4322330471
 20
38.9585001936
 30
0.0
  0
VERTEX
  5
1DDD
  8
3
 10
184.2432914190999
 20
39.2294661327
 30
0.0
  0
VERTEX
  5
1DDE
  8
3
 10
185.2
 20
39.32461671710001
 30
0.0
  0
VERTEX
  5
1DDF
  8
3
 10
186.1567085808999
 20
39.2294661327
 30
0.0
  0
VERTEX
  5
1DE0
  8
3
 10
186.9677669529999
 20
38.9585001936
 30
0.0
  0
VERTEX
  5
1DE1
  8
3
 10
187.5096988313001
 20
38.55297100760004
 30
0.0
  0
VERTEX
  5
1DE2
  8
3
 10
187.7
 20
38.07461671710001
 30
0.0
  0
SEQEND
  5
1E98
  8
3
  0
POLYLINE
  5
DC5
  8
3
 66
     1
 10
0.0
 20
0.0
 30
0.0
  0
VERTEX
  5
1DE3
  8
3
 10
187.7
 20
38.15265626849998
 30
0.0
  0
VERTEX
  5
1DE4
  8
3
 10
187.5096988313001
 20
37.67430197800002
 30
0.0
  0
VERTEX
  5
1DE5
  8
3
 10
186.9677669529999
 20
37.26877279199999
 30
0.0
  0
VERTEX
  5
1DE6
  8
3
 10
186.1567085808999
 20
36.99780685280001
 30
0.0
  0
VERTEX
  5
1DE7
  8
3
 10
185.2
 20
36.90265626849998
 30
0.0
  0
VERTEX
  5
1DE8
  8
3
 10
184.2432914190999
 20
36.99780685280001
 30
0.0
  0
VERTEX
  5
1DE9
  8
3
 10
183.4322330471
 20
37.26877279199999
 30
0.0
  0
VERTEX
  5
1DEA
  8
3
 10
182.8903011688001
 20
37.67430197800002
 30
0.0
  0
VERTEX
  5
1DEB
  8
3
 10
182.7
 20
38.15265626849998
 30
0.0
  0
VERTEX
  5
1DEC
  8
3
 10
182.8903011688001
 20
38.63101055890002
 30
0.0
  0
VERTEX
  5
1DED
  8
3
 10
183.4322330471
 20
39.03653974489998
 30
0.0
  0
VERTEX
  5
1DEE
  8
3
 10
184.2432914190999
 20
39.30750568410002
 30
0.0
  0
VERTEX
  5
1DEF
  8
3
 10
185.2
 20
39.40265626849998
 30
0.0
  0
VERTEX
  5
1DF0
  8
3
 10
186.1567085808999
 20
39.30750568410002
 30
0.0
  0
VERTEX
  5
1DF1
  8
3
 10
186.9677669529999
 20
39.03653974489998
 30
0.0
  0
VERTEX
  5
1DF2
  8
3
 10
187.5096988313001
 20
38.63101055890002
 30
0.0
  0
VERTEX
  5
1DF3
  8
3
 10
187.7
 20
38.15265626849998
 30
0.0
  0
SEQEND
  5
1E97
  8
3
  0
POLYLINE
  5
DC6
  8
3
 66
     1
 10
0.0
 20
0.0
 30
0.0
  0
VERTEX
  5
1DF4
  8
3
 10
187.2549999999999
 20
38.42250316310003
 30
0.0
  0
VERTEX
  5
1DF5
  8
3
 10
187.0985724392999
 20
38.0292959363
 30
0.0
  0
VERTEX
  5
1DF6
  8
3
 10
186.6531044353999
 20
37.6959509454
 30
0.0
  0
VERTEX
  5
1DF7
  8
3
 10
185.9864144534999
 20
37.47321694340002
 30
0.0
  0
VERTEX
  5
1DF8
  8
3
 10
185.2
 20
37.3950031631
 30
0.0
  0
VERTEX
  5
1DF9
  8
3
 10
184.4135855464999
 20
37.47321694340002
 30
0.0
  0
VERTEX
  5
1DFA
  8
3
 10
183.7468955647
 20
37.6959509454
 30
0.0
  0
VERTEX
  5
1DFB
  8
3
 10
183.3014275606999
 20
38.0292959363
 30
0.0
  0
VERTEX
  5
1DFC
  8
3
 10
183.145
 20
38.42250316310003
 30
0.0
  0
VERTEX
  5
1DFD
  8
3
 10
183.3014275606999
 20
38.81571038980002
 30
0.0
  0
VERTEX
  5
1DFE
  8
3
 10
183.7468955647
 20
39.14905538080001
 30
0.0
  0
VERTEX
  5
1DFF
  8
3
 10
184.4135855464999
 20
39.3717893827
 30
0.0
  0
VERTEX
  5
1E00
  8
3
 10
185.2
 20
39.45000316310001
 30
0.0
  0
VERTEX
  5
1E01
  8
3
 10
185.9864144534999
 20
39.3717893827
 30
0.0
  0
VERTEX
  5
1E02
  8
3
 10
186.6531044353999
 20
39.14905538080001
 30
0.0
  0
VERTEX
  5
1E03
  8
3
 10
187.0985724392999
 20
38.81571038980002
 30
0.0
  0
VERTEX
  5
1E04
  8
3
 10
187.2549999999999
 20
38.42250316310003
 30
0.0
  0
SEQEND
  5
1E96
  8
3
  0
POLYLINE
  5
DC7
  8
3
 66
     1
 10
0.0
 20
0.0
 30
0.0
  0
VERTEX
  5
1E05
  8
3
 10
187.7
 20
38.69235005770003
 30
0.0
  0
VERTEX
  5
1E06
  8
3
 10
187.5096988313001
 20
38.21399576729999
 30
0.0
  0
VERTEX
  5
1E07
  8
3
 10
186.9677669529999
 20
37.80846658120004
 30
0.0
  0
VERTEX
  5
1E08
  8
3
 10
186.156708581
 20
37.53750064209999
 30
0.0
  0
VERTEX
  5
1E09
  8
3
 10
185.2
 20
37.44235005770003
 30
0.0
  0
VERTEX
  5
1E0A
  8
3
 10
184.2432914190999
 20
37.53750064209999
 30
0.0
  0
VERTEX
  5
1E0B
  8
3
 10
183.4322330471
 20
37.80846658120004
 30
0.0
  0
VERTEX
  5
1E0C
  8
3
 10
182.8903011688001
 20
38.21399576729999
 30
0.0
  0
VERTEX
  5
1E0D
  8
3
 10
182.7
 20
38.69235005770003
 30
0.0
  0
VERTEX
  5
1E0E
  8
3
 10
182.8903011688001
 20
39.17070434819999
 30
0.0
  0
VERTEX
  5
1E0F
  8
3
 10
183.4322330471
 20
39.57623353420001
 30
0.0
  0
VERTEX
  5
1E10
  8
3
 10
184.2432914190999
 20
39.84719947330001
 30
0.0
  0
VERTEX
  5
1E11
  8
3
 10
185.2
 20
39.94235005770003
 30
0.0
  0
VERTEX
  5
1E12
  8
3
 10
186.156708581
 20
39.84719947330001
 30
0.0
  0
VERTEX
  5
1E13
  8
3
 10
186.9677669529999
 20
39.57623353420001
 30
0.0
  0
VERTEX
  5
1E14
  8
3
 10
187.5096988313001
 20
39.17070434819999
 30
0.0
  0
VERTEX
  5
1E15
  8
3
 10
187.7
 20
38.69235005770003
 30
0.0
  0
SEQEND
  5
1E95
  8
3
  0
POLYLINE
  5
DC8
  8
3
 66
     1
 10
0.0
 20
0.0
 30
0.0
  0
VERTEX
  5
1E16
  8
3
 10
187.7
 20
38.77038960909999
 30
0.0
  0
VERTEX
  5
1E17
  8
3
 10
187.5096988313001
 20
38.29203531860003
 30
0.0
  0
VERTEX
  5
1E18
  8
3
 10
186.9677669529999
 20
37.8865061326
 30
0.0
  0
VERTEX
  5
1E19
  8
3
 10
186.156708581
 20
37.61554019340002
 30
0.0
  0
VERTEX
  5
1E1A
  8
3
 10
185.2
 20
37.52038960909999
 30
0.0
  0
VERTEX
  5
1E1B
  8
3
 10
184.2432914190999
 20
37.61554019340002
 30
0.0
  0
VERTEX
  5
1E1C
  8
3
 10
183.4322330471
 20
37.8865061326
 30
0.0
  0
VERTEX
  5
1E1D
  8
3
 10
182.8903011688001
 20
38.29203531860003
 30
0.0
  0
VERTEX
  5
1E1E
  8
3
 10
182.7
 20
38.77038960909999
 30
0.0
  0
VERTEX
  5
1E1F
  8
3
 10
182.8903011688001
 20
39.24874389950003
 30
0.0
  0
VERTEX
  5
1E20
  8
3
 10
183.4322330471
 20
39.65427308549999
 30
0.0
  0
VERTEX
  5
1E21
  8
3
 10
184.2432914190999
 20
39.92523902470003
 30
0.0
  0
VERTEX
  5
1E22
  8
3
 10
185.2
 20
40.02038960909999
 30
0.0
  0
VERTEX
  5
1E23
  8
3
 10
186.156708581
 20
39.92523902470003
 30
0.0
  0
VERTEX
  5
1E24
  8
3
 10
186.9677669529999
 20
39.65427308549999
 30
0.0
  0
VERTEX
  5
1E25
  8
3
 10
187.5096988313001
 20
39.24874389950003
 30
0.0
  0
VERTEX
  5
1E26
  8
3
 10
187.7
 20
38.77038960909999
 30
0.0
  0
SEQEND
  5
1E94
  8
3
  0
POLYLINE
  5
DC9
  8
3
 66
     1
 10
0.0
 20
0.0
 30
0.0
  0
VERTEX
  5
1E27
  8
3
 10
187.2549999999999
 20
39.04023650369999
 30
0.0
  0
VERTEX
  5
1E28
  8
3
 10
187.0985724394
 20
38.64702927690001
 30
0.0
  0
VERTEX
  5
1E29
  8
3
 10
186.6531044353999
 20
38.31368428600001
 30
0.0
  0
VERTEX
  5
1E2A
  8
3
 10
185.9864144536
 20
38.09095028400003
 30
0.0
  0
VERTEX
  5
1E2B
  8
3
 10
185.2
 20
38.01273650370001
 30
0.0
  0
VERTEX
  5
1E2C
  8
3
 10
184.4135855464999
 20
38.09095028400003
 30
0.0
  0
VERTEX
  5
1E2D
  8
3
 10
183.7468955647
 20
38.31368428600001
 30
0.0
  0
VERTEX
  5
1E2E
  8
3
 10
183.3014275606999
 20
38.64702927690001
 30
0.0
  0
VERTEX
  5
1E2F
  8
3
 10
183.145
 20
39.04023650369999
 30
0.0
  0
VERTEX
  5
1E30
  8
3
 10
183.3014275606999
 20
39.43344373040003
 30
0.0
  0
VERTEX
  5
1E31
  8
3
 10
183.7468955647
 20
39.76678872140002
 30
0.0
  0
VERTEX
  5
1E32
  8
3
 10
184.4135855464999
 20
39.98952272330001
 30
0.0
  0
VERTEX
  5
1E33
  8
3
 10
185.2
 20
40.06773650370002
 30
0.0
  0
VERTEX
  5
1E34
  8
3
 10
185.9864144536
 20
39.98952272330001
 30
0.0
  0
VERTEX
  5
1E35
  8
3
 10
186.6531044353999
 20
39.76678872140002
 30
0.0
  0
VERTEX
  5
1E36
  8
3
 10
187.0985724394
 20
39.43344373040003
 30
0.0
  0
VERTEX
  5
1E37
  8
3
 10
187.2549999999999
 20
39.04023650369999
 30
0.0
  0
SEQEND
  5
1E93
  8
3
  0
POLYLINE
  5
DCA
  8
3
 66
     1
 10
0.0
 20
0.0
 30
0.0
  0
VERTEX
  5
1E38
  8
3
 10
187.7
 20
39.31008339830004
 30
0.0
  0
VERTEX
  5
1E39
  8
3
 10
187.5096988313001
 20
38.8317291079
 30
0.0
  0
VERTEX
  5
1E3A
  8
3
 10
186.9677669529999
 20
38.42619992179999
 30
0.0
  0
VERTEX
  5
1E3B
  8
3
 10
186.156708581
 20
38.1552339827
 30
0.0
  0
VERTEX
  5
1E3C
  8
3
 10
185.2
 20
38.06008339830004
 30
0.0
  0
VERTEX
  5
1E3D
  8
3
 10
184.2432914190999
 20
38.1552339827
 30
0.0
  0
VERTEX
  5
1E3E
  8
3
 10
183.4322330471
 20
38.42619992179999
 30
0.0
  0
VERTEX
  5
1E3F
  8
3
 10
182.8903011688001
 20
38.8317291079
 30
0.0
  0
VERTEX
  5
1E40
  8
3
 10
182.7
 20
39.31008339830004
 30
0.0
  0
VERTEX
  5
1E41
  8
3
 10
182.8903011688001
 20
39.7884376888
 30
0.0
  0
VERTEX
  5
1E42
  8
3
 10
183.4322330471
 20
40.19396687480003
 30
0.0
  0
VERTEX
  5
1E43
  8
3
 10
184.2432914190999
 20
40.46493281400001
 30
0.0
  0
VERTEX
  5
1E44
  8
3
 10
185.2
 20
40.56008339830004
 30
0.0
  0
VERTEX
  5
1E45
  8
3
 10
186.156708581
 20
40.46493281400001
 30
0.0
  0
VERTEX
  5
1E46
  8
3
 10
186.9677669529999
 20
40.19396687480003
 30
0.0
  0
VERTEX
  5
1E47
  8
3
 10
187.5096988313001
 20
39.7884376888
 30
0.0
  0
VERTEX
  5
1E48
  8
3
 10
187.7
 20
39.31008339830004
 30
0.0
  0
SEQEND
  5
1E92
  8
3
  0
LINE
  5
DCB
  8
3
 10
186.45
 20
37.90304517229998
 30
0.0
 11
185.2
 21
38.2638890906
 31
0.0
  0
LINE
  5
DCC
  8
3
 10
183.95
 20
37.90304517229998
 30
0.0
 11
185.2
 21
38.2638890906
 31
0.0
  0
POLYLINE
  5
DCD
  8
3
 66
     1
 10
0.0
 20
0.0
 30
0.0
  0
VERTEX
  5
1E49
  8
3
 10
187.7
 20
39.3881229497
 30
0.0
  0
VERTEX
  5
1E4A
  8
3
 10
187.5096988313001
 20
38.90976865919998
 30
0.0
  0
VERTEX
  5
1E4B
  8
3
 10
186.9677669529999
 20
38.50423947320002
 30
0.0
  0
VERTEX
  5
1E4C
  8
3
 10
186.156708581
 20
38.23327353400003
 30
0.0
  0
VERTEX
  5
1E4D
  8
3
 10
185.2
 20
38.1381229497
 30
0.0
  0
VERTEX
  5
1E4E
  8
3
 10
184.2432914190999
 20
38.23327353400003
 30
0.0
  0
VERTEX
  5
1E4F
  8
3
 10
183.4322330471
 20
38.50423947320002
 30
0.0
  0
VERTEX
  5
1E50
  8
3
 10
182.8903011688001
 20
38.90976865919998
 30
0.0
  0
VERTEX
  5
1E51
  8
3
 10
182.7
 20
39.3881229497
 30
0.0
  0
VERTEX
  5
1E52
  8
3
 10
182.8903011688001
 20
39.86647724009998
 30
0.0
  0
VERTEX
  5
1E53
  8
3
 10
183.4322330471
 20
40.27200642619999
 30
0.0
  0
VERTEX
  5
1E54
  8
3
 10
184.2432914190999
 20
40.54297236529999
 30
0.0
  0
VERTEX
  5
1E55
  8
3
 10
185.2
 20
40.6381229497
 30
0.0
  0
VERTEX
  5
1E56
  8
3
 10
186.156708581
 20
40.54297236529999
 30
0.0
  0
VERTEX
  5
1E57
  8
3
 10
186.9677669529999
 20
40.27200642619999
 30
0.0
  0
VERTEX
  5
1E58
  8
3
 10
187.5096988313001
 20
39.86647724009998
 30
0.0
  0
VERTEX
  5
1E59
  8
3
 10
187.7
 20
39.3881229497
 30
0.0
  0
SEQEND
  5
1E91
  8
3
  0
POLYLINE
  5
DCE
  8
3
 66
     1
 10
0.0
 20
0.0
 30
0.0
  0
VERTEX
  5
1E5A
  8
3
 10
187.2549999999999
 20
39.6579698443
 30
0.0
  0
VERTEX
  5
1E5B
  8
3
 10
187.0985724394
 20
39.26476261750003
 30
0.0
  0
VERTEX
  5
1E5C
  8
3
 10
186.6531044353999
 20
38.93141762660002
 30
0.0
  0
VERTEX
  5
1E5D
  8
3
 10
185.9864144536
 20
38.70868362459998
 30
0.0
  0
VERTEX
  5
1E5E
  8
3
 10
185.2
 20
38.63046984430002
 30
0.0
  0
VERTEX
  5
1E5F
  8
3
 10
184.4135855464999
 20
38.70868362459998
 30
0.0
  0
VERTEX
  5
1E60
  8
3
 10
183.7468955647
 20
38.93141762660002
 30
0.0
  0
VERTEX
  5
1E61
  8
3
 10
183.3014275606999
 20
39.26476261750003
 30
0.0
  0
VERTEX
  5
1E62
  8
3
 10
183.145
 20
39.6579698443
 30
0.0
  0
VERTEX
  5
1E63
  8
3
 10
183.3014275606999
 20
40.05117707099998
 30
0.0
  0
VERTEX
  5
1E64
  8
3
 10
183.7468955647
 20
40.38452206200003
 30
0.0
  0
VERTEX
  5
1E65
  8
3
 10
184.4135855464999
 20
40.60725606390002
 30
0.0
  0
VERTEX
  5
1E66
  8
3
 10
185.2
 20
40.68546984430003
 30
0.0
  0
VERTEX
  5
1E67
  8
3
 10
185.9864144536
 20
40.60725606390002
 30
0.0
  0
VERTEX
  5
1E68
  8
3
 10
186.6531044353999
 20
40.38452206200003
 30
0.0
  0
VERTEX
  5
1E69
  8
3
 10
187.0985724394
 20
40.05117707099998
 30
0.0
  0
VERTEX
  5
1E6A
  8
3
 10
187.2549999999999
 20
39.6579698443
 30
0.0
  0
SEQEND
  5
1E90
  8
3
  0
POLYLINE
  5
DCF
  8
3
 66
     1
 10
0.0
 20
0.0
 30
0.0
  0
VERTEX
  5
1E6B
  8
3
 10
187.4561031269
 20
39.77991828090001
 30
0.0
  0
VERTEX
  5
1E6C
  8
3
 10
187.2843675022
 20
40.21160492500002
 30
0.0
  0
VERTEX
  5
1E6D
  8
3
 10
186.7953058200999
 20
40.57757119090002
 30
0.0
  0
VERTEX
  5
1E6E
  8
3
 10
186.0633732884
 20
40.82210203189999
 30
0.0
  0
VERTEX
  5
1E6F
  8
3
 10
185.2
 20
40.9079698443
 30
0.0
  0
VERTEX
  5
1E70
  8
3
 10
184.3366267117001
 20
40.82210203189999
 30
0.0
  0
VERTEX
  5
1E71
  8
3
 10
183.60469418
 20
40.57757119090002
 30
0.0
  0
VERTEX
  5
1E72
  8
3
 10
183.1156324978999
 20
40.21160492500002
 30
0.0
  0
VERTEX
  5
1E73
  8
3
 10
182.9438968731999
 20
39.77991828090001
 30
0.0
  0
VERTEX
  5
1E74
  8
3
 10
183.1156324978999
 20
39.34823163670001
 30
0.0
  0
VERTEX
  5
1E75
  8
3
 10
183.60469418
 20
38.9822653709
 30
0.0
  0
VERTEX
  5
1E76
  8
3
 10
184.3366267117001
 20
38.73773452980004
 30
0.0
  0
VERTEX
  5
1E77
  8
3
 10
185.2
 20
38.65186671750001
 30
0.0
  0
VERTEX
  5
1E78
  8
3
 10
186.0633732884
 20
38.73773452980004
 30
0.0
  0
VERTEX
  5
1E79
  8
3
 10
186.7953058200999
 20
38.9822653709
 30
0.0
  0
VERTEX
  5
1E7A
  8
3
 10
187.2843675022
 20
39.34823163670001
 30
0.0
  0
VERTEX
  5
1E7B
  8
3
 10
187.4561031269
 20
39.77991828090001
 30
0.0
  0
SEQEND
  5
1E8F
  8
3
  0
LINE
  5
DD0
  8
3
 10
186.45
 20
37.18135733579999
 30
0.0
 11
186.45
 21
37.90304517229998
 31
0.0
  0
LINE
  5
DD1
  8
3
 10
186.45
 20
37.90304517229998
 30
0.0
 11
186.45
 21
40.2413137625
 31
0.0
  0
LINE
  5
DD2
  8
3
 10
183.95
 20
37.18135733579999
 30
0.0
 11
183.95
 21
37.90304517229998
 31
0.0
  0
LINE
  5
DD3
  8
3
 10
183.95
 20
37.90304517229998
 30
0.0
 11
183.95
 21
40.2413137625
 31
0.0
  0
POLYLINE
  5
DD4
  8
3
 66
     1
 10
0.0
 20
0.0
 30
0.0
  0
VERTEX
  5
1E7C
  8
3
 10
185.2
 20
38.85296984429999
 30
0.0
  0
VERTEX
  5
1E7D
  8
3
 10
184.4135855464999
 20
38.93118362460001
 30
0.0
  0
VERTEX
  5
1E7E
  8
3
 10
183.7468955647
 20
39.15391762659999
 30
0.0
  0
VERTEX
  5
1E7F
  8
3
 10
183.3014275606999
 20
39.48726261749999
 30
0.0
  0
VERTEX
  5
1E80
  8
3
 10
183.145
 20
39.88046984430002
 30
0.0
  0
VERTEX
  5
1E81
  8
3
 10
183.3014275606999
 20
40.27367707100001
 30
0.0
  0
VERTEX
  5
1E82
  8
3
 10
183.7468955647
 20
40.607022062
 30
0.0
  0
VERTEX
  5
1E83
  8
3
 10
184.4135855464999
 20
40.82975606389999
 30
0.0
  0
VERTEX
  5
1E84
  8
3
 10
185.2
 20
40.9079698443
 30
0.0
  0
VERTEX
  5
1E85
  8
3
 10
185.9864144536
 20
40.82975606389999
 30
0.0
  0
VERTEX
  5
1E86
  8
3
 10
186.6531044353999
 20
40.607022062
 30
0.0
  0
VERTEX
  5
1E87
  8
3
 10
187.0985724394
 20
40.27367707100001
 30
0.0
  0
VERTEX
  5
1E88
  8
3
 10
187.2549999999999
 20
39.88046984430002
 30
0.0
  0
VERTEX
  5
1E89
  8
3
 10
187.0985724394
 20
39.48726261749999
 30
0.0
  0
VERTEX
  5
1E8A
  8
3
 10
186.6531044353999
 20
39.15391762659999
 30
0.0
  0
VERTEX
  5
1E8B
  8
3
 10
185.9864144536
 20
38.93118362460001
 30
0.0
  0
VERTEX
  5
1E8C
  8
3
 10
185.2
 20
38.85296984429999
 30
0.0
  0
SEQEND
  5
1E8E
  8
3
  0
LINE
  5
DD5
  8
3
 10
186.45
 20
40.2413137625
 30
0.0
 11
185.2
 21
40.60215768080002
 31
0.0
  0
LINE
  5
DD6
  8
3
 10
183.95
 20
40.2413137625
 30
0.0
 11
185.2
 21
40.60215768080002
 31
0.0
  0
LINE
  5
DD7
  8
3
 10
183.95
 20
39.51962592609999
 30
0.0
 11
185.2
 21
39.15878200780003
 31
0.0
  0
LINE
  5
DD8
  8
3
 10
183.95
 20
37.18135733579999
 30
0.0
 11
185.2
 21
36.82051341760001
 31
0.0
  0
LINE
  5
DD9
  8
3
 10
186.45
 20
39.51962592609999
 30
0.0
 11
185.2
 21
39.15878200780003
 31
0.0
  0
LINE
  5
DDA
  8
3
 10
186.45
 20
37.18135733579999
 30
0.0
 11
185.2
 21
36.82051341760001
 31
0.0
  0
LINE
  5
DDD
  8
3
 10
203.2
 20
20.04907116060002
 30
0.0
 11
203.0136296695
 21
19.35352761810003
 31
0.0
  0
LINE
  5
DDE
  8
3
 10
203.0136296695
 20
-19.35352761799999
 30
0.0
 11
203.2
 21
-20.04907116049998
 31
0.0
  0
ARC
  5
DDF
  8
3
 10
203.4000000000001
 20
-19.25
 30
0.0
 40
0.3999999999999767
 50
166.875000000004
 51
195.0000000000036
  0
ARC
  5
DE0
  8
3
 10
203.4000000000001
 20
-19.25
 30
0.0
 40
0.3999999999999767
 50
120.0000000000099
 51
166.875000000004
  0
ARC
  5
DE1
  8
3
 10
203.4000000000001
 20
19.25
 30
0.0
 40
0.3999999999999273
 50
165.0000000000022
 51
180.0
  0
ARC
  5
DE2
  8
3
 10
203.4000000000001
 20
19.25
 30
0.0
 40
0.3999999999998828
 50
180.0
 51
239.9999999999911
  0
LINE
  5
DE3
  8
3
 10
203.0
 20
19.25
 30
0.0
 11
203.0
 21
-19.25
 31
0.0
  0
LINE
  5
DE4
  8
3
 10
203.2
 20
2.5
 30
0.0
 11
184.8
 21
2.5
 31
0.0
  0
LINE
  5
DE5
  8
3
 10
184.8
 20
-2.5
 30
0.0
 11
203.2
 21
-2.5
 31
0.0
  0
LINE
  5
DE6
  8
3
 10
184.5042683222
 20
-2.007819836199985
 30
0.0
 11
184.8
 21
-2.5
 31
0.0
  0
LINE
  5
DE7
  8
3
 10
184.8
 20
2.5
 30
0.0
 11
184.5042683222
 21
2.007819836199985
 31
0.0
  0
LINE
  5
DF8
  8
3
 10
203.2
 20
8.731249999999989
 30
0.0
 11
0.0000000000000284
 21
8.731249999999989
 31
0.0
  0
LINE
  5
DF9
  8
3
 10
0.0
 20
-8.731249999999989
 30
0.0
 11
203.2
 21
-8.731249999999989
 31
0.0
  0
LINE
  5
DFA
  8
3
 10
185.2
 20
41.27474999999998
 30
0.0
 11
180.4323212032
 21
33.34000000000003
 31
0.0
  0
LINE
  5
DFB
  8
3
 10
180.4323212032
 20
33.34000000000003
 30
0.0
 11
185.2
 21
25.40525000000002
 31
0.0
  0
LINE
  5
DFC
  8
3
 10
185.2
 20
-25.40524999999997
 30
0.0
 11
180.4323212032
 21
-33.33999999999997
 31
0.0
  0
LINE
  5
DFD
  8
3
 10
180.4323212032
 20
-33.33999999999997
 30
0.0
 11
185.2
 21
-41.27474999999998
 31
0.0
  0
LINE
  5
DFE
  8
3
 10
203.2
 20
-25.40524999999997
 30
0.0
 11
185.2
 21
-25.40524999999997
 31
0.0
  0
LINE
  5
DFF
  8
3
 10
185.2
 20
-41.27474999999998
 30
0.0
 11
203.2
 21
-41.27474999999998
 31
0.0
  0
LINE
  5
E00
  8
3
 10
203.2
 20
41.27474999999998
 30
0.0
 11
185.2
 21
41.27474999999998
 31
0.0
  0
LINE
  5
E01
  8
3
 10
185.2
 20
25.40525000000002
 30
0.0
 11
203.2
 21
25.40525000000002
 31
0.0
  0
LINE
  5
E08
  8
3
 10
183.0999999999999
 20
38.55978110350003
 30
0.0
 11
183.0999999999999
 21
7.559329003500011
 31
0.0
  0
LINE
  5
E09
  8
3
 10
187.3
 20
14.27617020270003
 30
0.0
 11
187.3
 21
38.55978110350003
 31
0.0
  0
LINE
  5
E0A
  8
3
 10
187.3
 20
7.556344272300009
 30
0.0
 11
187.3
 21
9.972541103299989
 31
0.0
  0
LINE
  5
E0B
  8
3
 10
187.3
 20
-9.972541103200001
 30
0.0
 11
187.3
 21
-7.556344272300009
 31
0.0
  0
LINE
  5
E0C
  8
3
 10
187.3
 20
-38.55978110349997
 30
0.0
 11
187.3
 21
-14.27617020269997
 31
0.0
  0
LINE
  5
E0D
  8
3
 10
183.0999999999999
 20
-7.559329003500011
 30
0.0
 11
183.0999999999999
 21
-38.55978110349997
 31
0.0
  0
LINE
  5
E0E
  8
3
 10
203.2
 20
14.62435565300001
 30
0.0
 11
186.8780700942
 21
14.62435565300001
 31
0.0
  0
LINE
  5
E0F
  8
3
 10
186.8780700942
 20
9.62435565300001
 30
0.0
 11
203.2
 21
9.62435565300001
 31
0.0
  0
LINE
  5
E10
  8
3
 10
203.2
 20
-9.62435565300001
 30
0.0
 11
186.863673502
 21
-9.62435565300001
 31
0.0
  0
LINE
  5
E11
  8
3
 10
186.863673502
 20
-14.62435565300001
 30
0.0
 11
203.2
 21
-14.62435565300001
 31
0.0
  0
LINE
  5
E12
  8
3
 10
183.0566964750999
 20
38.25667221219999
 30
0.0
 11
183.4853571801
 21
37.9535633209
 31
0.0
  0
LINE
  5
E13
  8
3
 10
186.9146428199999
 20
37.9535633209
 30
0.0
 11
187.343303525
 21
38.25667221219999
 31
0.0
  0
LINE
  5
E14
  8
3
 10
182.575
 20
39.878833853
 30
0.0
 11
182.575
 21
39.01444444050003
 31
0.0
  0
LINE
  5
E15
  8
3
 10
187.825
 20
39.01444444050003
 30
0.0
 11
187.825
 21
39.88030222230003
 31
0.0
  0
LINE
  5
E16
  8
3
 10
187.343303525
 20
-38.25667221219999
 30
0.0
 11
186.9146428199999
 21
-37.95356332080001
 31
0.0
  0
LINE
  5
E17
  8
3
 10
183.4853571801
 20
-37.95356332080001
 30
0.0
 11
183.0566964750999
 21
-38.25667221219999
 31
0.0
  0
LINE
  5
E18
  8
3
 10
187.825
 20
-39.88030222229997
 30
0.0
 11
187.825
 21
-39.01444444049997
 31
0.0
  0
LINE
  5
E19
  8
3
 10
182.575
 20
-39.01444444049997
 30
0.0
 11
182.575
 21
-39.878833853
 31
0.0
  0
LINE
  5
E1A
  8
3
 10
203.2
 20
9.525000000000034
 30
0.0
 11
197.7859900000001
 21
9.525000000000034
 31
0.0
  0
LINE
  5
E1B
  8
3
 10
197.7859900000001
 20
-9.524999999999977
 30
0.0
 11
203.2
 21
-9.524999999999977
 31
0.0
  0
LINE
  5
E1C
  8
3
 10
197.7859900000001
 20
9.525000000000034
 30
0.0
 11
196.8499999999999
 21
8.58901000000003
 31
0.0
  0
LINE
  5
E1D
  8
3
 10
196.8499999999999
 20
-8.589009999999973
 30
0.0
 11
197.7859900000001
 21
-9.524999999999977
 31
0.0
  0
LINE
  5
E22
  8
3
 10
203.2
 20
-25.39868999999999
 30
0.0
 11
188.710160305
 21
-25.39868999999999
 31
0.0
  0
LINE
  5
E23
  8
3
 10
188.710160305
 20
-41.28131000000002
 30
0.0
 11
203.2
 21
-41.28131000000002
 31
0.0
  0
ARC
  5
E24
  8
3
 10
188.6471999999999
 20
-25.20549
 30
0.0
 40
0.2032000000000833
 50
270.0
 51
288.0498306933181
  0
ARC
  5
E25
  8
3
 10
188.6471999999999
 20
-41.47451000000001
 30
0.0
 40
0.2032000000000833
 50
71.95016930668189
 51
90.0
  0
LINE
  5
E26
  8
3
 10
188.6471999999999
 20
-25.40868999999998
 30
0.0
 11
188.0720395107001
 21
-25.40868999999998
 31
0.0
  0
LINE
  5
E27
  8
3
 10
188.0720395107001
 20
-41.27130999999997
 30
0.0
 11
188.6471999999999
 21
-41.27130999999997
 31
0.0
  0
LINE
  5
E28
  8
3
 10
188.0720395107001
 20
-25.40868999999998
 30
0.0
 11
187.1471999999999
 21
-25.65649999999999
 31
0.0
  0
LINE
  5
E29
  8
3
 10
187.1471999999999
 20
-41.02350000000001
 30
0.0
 11
188.0720395107001
 21
-41.27130999999997
 31
0.0
  0
LINE
  5
E2A
  8
3
 10
203.2
 20
41.28131000000002
 30
0.0
 11
188.710160305
 21
41.28131000000002
 31
0.0
  0
LINE
  5
E2B
  8
3
 10
188.710160305
 20
25.39868999999999
 30
0.0
 11
203.2
 21
25.39868999999999
 31
0.0
  0
ARC
  5
E2C
  8
3
 10
188.6471999999999
 20
41.47451000000001
 30
0.0
 40
0.2032000000000833
 50
270.0
 51
288.0498306933181
  0
ARC
  5
E2D
  8
3
 10
188.6471999999999
 20
25.20549
 30
0.0
 40
0.2032000000000293
 50
71.95016930667691
 51
90.0
  0
LINE
  5
E2E
  8
3
 10
188.6471999999999
 20
41.27131000000003
 30
0.0
 11
188.0720395107001
 21
41.27131000000003
 31
0.0
  0
LINE
  5
E2F
  8
3
 10
188.0720395107001
 20
25.40869000000004
 30
0.0
 11
188.6471999999999
 21
25.40869000000004
 31
0.0
  0
LINE
  5
E30
  8
3
 10
188.0720395107001
 20
41.27131000000003
 30
0.0
 11
187.1471999999999
 21
41.02350000000001
 31
0.0
  0
LINE
  5
E31
  8
3
 10
187.1471999999999
 20
25.65649999999999
 30
0.0
 11
188.0720395107001
 21
25.40869000000004
 31
0.0
  0
LINE
  5
E32
  8
3
 10
187.091604364
 20
-34.50633923800001
 30
0.0
 11
186.6288690167
 21
-34.17913593599997
 31
0.0
  0
LINE
  5
E33
  8
3
 10
183.7711309834001
 20
-34.17913593599997
 30
0.0
 11
183.3083956360999
 21
-34.50633923800001
 31
0.0
  0
LINE
  5
E34
  8
3
 10
186.6145032040999
 20
-34.57300630949999
 30
0.0
 11
186.3627216338
 21
-34.48661992889998
 31
0.0
  0
LINE
  5
E35
  8
3
 10
184.0372783662999
 20
-34.48661992889998
 30
0.0
 11
183.785496796
 21
-34.57300630949999
 31
0.0
  0
LINE
  5
E36
  8
3
 10
183.8891896446
 20
-36.13024367790001
 30
0.0
 11
184.0372783662999
 21
-36.18105299109999
 31
0.0
  0
LINE
  5
E37
  8
3
 10
186.3627216338
 20
-36.18105299109999
 30
0.0
 11
186.5108103554001
 21
-36.13024367790001
 31
0.0
  0
LINE
  5
E38
  8
3
 10
187.7
 20
-35.681722906
 30
0.0
 11
187.7
 21
-35.60368335459998
 31
0.0
  0
LINE
  5
E39
  8
3
 10
182.7
 20
-35.60368335459998
 30
0.0
 11
182.7
 21
-35.681722906
 31
0.0
  0
LINE
  5
E3A
  8
3
 10
183.785496796
 20
-36.71239995119998
 30
0.0
 11
184.0372783662999
 21
-36.79878633179999
 31
0.0
  0
LINE
  5
E3B
  8
3
 10
186.3627216338
 20
-36.79878633179999
 30
0.0
 11
186.6145032040999
 21
-36.71239995119998
 31
0.0
  0
LINE
  5
E3C
  8
3
 10
186.6145032040999
 20
-35.1907396501
 30
0.0
 11
186.3627216336999
 21
-35.1043532695
 31
0.0
  0
LINE
  5
E3D
  8
3
 10
184.0372783662999
 20
-35.1043532695
 30
0.0
 11
183.785496796
 21
-35.1907396501
 31
0.0
  0
LINE
  5
E3E
  8
3
 10
187.7
 20
-36.29945624660002
 30
0.0
 11
187.7
 21
-36.22141669519999
 31
0.0
  0
LINE
  5
E3F
  8
3
 10
182.7
 20
-36.22141669519999
 30
0.0
 11
182.7
 21
-36.29945624660002
 31
0.0
  0
LINE
  5
E40
  8
3
 10
183.785496796
 20
-37.3301332918
 30
0.0
 11
184.0372783662999
 21
-37.4165196724
 31
0.0
  0
LINE
  5
E41
  8
3
 10
186.3627216336999
 20
-37.4165196724
 30
0.0
 11
186.6145032040999
 21
-37.3301332918
 31
0.0
  0
LINE
  5
E42
  8
3
 10
186.6145032040999
 20
-35.80847299070001
 30
0.0
 11
186.3627216338
 21
-35.72208661010001
 31
0.0
  0
LINE
  5
E43
  8
3
 10
184.0372783662999
 20
-35.72208661010001
 30
0.0
 11
183.785496796
 21
-35.80847299070001
 31
0.0
  0
LINE
  5
E44
  8
3
 10
187.7
 20
-36.91718958719997
 30
0.0
 11
187.7
 21
-36.83915003589999
 31
0.0
  0
LINE
  5
E45
  8
3
 10
182.7
 20
-36.83915003589999
 30
0.0
 11
182.7
 21
-36.91718958719997
 31
0.0
  0
LINE
  5
E46
  8
3
 10
183.785496796
 20
-37.94786663240001
 30
0.0
 11
184.0372783662999
 21
-38.03425301300001
 31
0.0
  0
LINE
  5
E47
  8
3
 10
186.3627216338
 20
-38.03425301300001
 30
0.0
 11
186.6145032040999
 21
-37.94786663240001
 31
0.0
  0
LINE
  5
E48
  8
3
 10
186.6145032040999
 20
-36.42620633129997
 30
0.0
 11
186.3627216338
 21
-36.33981995070002
 31
0.0
  0
LINE
  5
E49
  8
3
 10
184.0372783662999
 20
-36.33981995070002
 30
0.0
 11
183.785496796
 21
-36.42620633129997
 31
0.0
  0
LINE
  5
E4A
  8
3
 10
187.7
 20
-37.53492292779998
 30
0.0
 11
187.7
 21
-37.4568833765
 31
0.0
  0
LINE
  5
E4B
  8
3
 10
182.7
 20
-37.4568833765
 30
0.0
 11
182.7
 21
-37.53492292779998
 31
0.0
  0
LINE
  5
E4C
  8
3
 10
183.785496796
 20
-38.56559997300002
 30
0.0
 11
184.0372783662999
 21
-38.65198635359997
 31
0.0
  0
LINE
  5
E4D
  8
3
 10
186.3627216338
 20
-38.65198635359997
 30
0.0
 11
186.6145032040999
 21
-38.56559997300002
 31
0.0
  0
LINE
  5
E4E
  8
3
 10
186.6145032040999
 20
-37.04393967189998
 30
0.0
 11
186.3627216338
 21
-36.95755329129997
 31
0.0
  0
LINE
  5
E4F
  8
3
 10
184.0372783662999
 20
-36.95755329129997
 30
0.0
 11
183.785496796
 21
-37.04393967189998
 31
0.0
  0
LINE
  5
E50
  8
3
 10
187.7
 20
-38.15265626839999
 30
0.0
 11
187.7
 21
-38.07461671710001
 31
0.0
  0
LINE
  5
E51
  8
3
 10
182.7
 20
-38.07461671710001
 30
0.0
 11
182.7
 21
-38.15265626839999
 31
0.0
  0
LINE
  5
E52
  8
3
 10
183.785496796
 20
-39.18333331359997
 30
0.0
 11
184.0372783662999
 21
-39.26971969419998
 31
0.0
  0
LINE
  5
E53
  8
3
 10
186.3627216338
 20
-39.26971969419998
 30
0.0
 11
186.6145032040999
 21
-39.18333331359997
 31
0.0
  0
LINE
  5
E54
  8
3
 10
186.6145032040999
 20
-37.66167301249999
 30
0.0
 11
186.3627216338
 21
-37.57528663189998
 31
0.0
  0
LINE
  5
E55
  8
3
 10
184.0372783662999
 20
-37.57528663189998
 30
0.0
 11
183.785496796
 21
-37.66167301249999
 31
0.0
  0
LINE
  5
E56
  8
3
 10
187.7
 20
-38.77038960900001
 30
0.0
 11
187.7
 21
-38.69235005769997
 31
0.0
  0
LINE
  5
E57
  8
3
 10
182.7
 20
-38.69235005769997
 30
0.0
 11
182.7
 21
-38.77038960900001
 31
0.0
  0
LINE
  5
E58
  8
3
 10
183.785496796
 20
-39.80106665419999
 30
0.0
 11
184.0372783662999
 21
-39.88745303479999
 31
0.0
  0
LINE
  5
E59
  8
3
 10
186.3627216338
 20
-39.88745303479999
 30
0.0
 11
186.6145032040999
 21
-39.80106665419999
 31
0.0
  0
LINE
  5
E5A
  8
3
 10
186.6145032040999
 20
-38.2794063531
 30
0.0
 11
186.3627216338
 21
-38.1930199725
 31
0.0
  0
LINE
  5
E5B
  8
3
 10
184.0372783662999
 20
-38.1930199725
 30
0.0
 11
183.785496796
 21
-38.2794063531
 31
0.0
  0
LINE
  5
E5C
  8
3
 10
187.7
 20
-39.38812294960002
 30
0.0
 11
187.7
 21
-39.31008339829998
 31
0.0
  0
LINE
  5
E5D
  8
3
 10
182.7
 20
-39.31008339829998
 30
0.0
 11
182.7
 21
-39.38812294960002
 31
0.0
  0
LINE
  5
E5E
  8
3
 10
183.785496796
 20
-40.4187999948
 30
0.0
 11
184.0372783662999
 21
-40.5051863754
 31
0.0
  0
LINE
  5
E5F
  8
3
 10
186.3627216338
 20
-40.5051863754
 30
0.0
 11
186.6145032040999
 21
-40.4187999948
 31
0.0
  0
LINE
  5
E60
  8
3
 10
186.4765060407001
 20
-38.84979279909999
 30
0.0
 11
186.3627216338
 21
-38.81075331310001
 31
0.0
  0
LINE
  5
E61
  8
3
 10
184.0372783662999
 20
-38.81075331310001
 30
0.0
 11
183.9234939594
 21
-38.84979279909999
 31
0.0
  0
LINE
  5
E62
  8
3
 10
183.3083956360999
 20
34.50633923800001
 30
0.0
 11
183.7711309834001
 21
34.17913593600002
 31
0.0
  0
LINE
  5
E63
  8
3
 10
186.6288690167
 20
34.17913593600002
 30
0.0
 11
187.091604364
 21
34.50633923800001
 31
0.0
  0
LINE
  5
E64
  8
3
 10
183.785496796
 20
34.57300630949999
 30
0.0
 11
184.0372783662999
 21
34.48661992889998
 31
0.0
  0
LINE
  5
E65
  8
3
 10
186.3627216338
 20
34.48661992889998
 30
0.0
 11
186.6145032040999
 21
34.57300630949999
 31
0.0
  0
LINE
  5
E66
  8
3
 10
186.5108103554001
 20
36.130243678
 30
0.0
 11
186.3627216338
 21
36.18105299120003
 31
0.0
  0
LINE
  5
E67
  8
3
 10
184.0372783662999
 20
36.18105299120003
 30
0.0
 11
183.8891896446
 21
36.130243678
 31
0.0
  0
LINE
  5
E68
  8
3
 10
182.7
 20
35.681722906
 30
0.0
 11
182.7
 21
35.60368335470002
 31
0.0
  0
LINE
  5
E69
  8
3
 10
187.7
 20
35.60368335470002
 30
0.0
 11
187.7
 21
35.681722906
 31
0.0
  0
LINE
  5
E6A
  8
3
 10
186.6145032040999
 20
36.71239995119998
 30
0.0
 11
186.3627216338
 21
36.79878633179999
 31
0.0
  0
LINE
  5
E6B
  8
3
 10
184.0372783662999
 20
36.79878633179999
 30
0.0
 11
183.785496796
 21
36.71239995119998
 31
0.0
  0
LINE
  5
E6C
  8
3
 10
183.785496796
 20
35.1907396501
 30
0.0
 11
184.0372783662999
 21
35.1043532695
 31
0.0
  0
LINE
  5
E6D
  8
3
 10
186.3627216336999
 20
35.1043532695
 30
0.0
 11
186.6145032040999
 21
35.1907396501
 31
0.0
  0
LINE
  5
E6E
  8
3
 10
182.7
 20
36.29945624660002
 30
0.0
 11
182.7
 21
36.22141669530004
 31
0.0
  0
LINE
  5
E6F
  8
3
 10
187.7
 20
36.22141669530004
 30
0.0
 11
187.7
 21
36.29945624660002
 31
0.0
  0
LINE
  5
E70
  8
3
 10
186.6145032040999
 20
37.3301332918
 30
0.0
 11
186.3627216336999
 21
37.4165196724
 31
0.0
  0
LINE
  5
E71
  8
3
 10
184.0372783662999
 20
37.4165196724
 30
0.0
 11
183.785496796
 21
37.3301332918
 31
0.0
  0
LINE
  5
E72
  8
3
 10
183.785496796
 20
35.80847299070001
 30
0.0
 11
184.0372783662999
 21
35.72208661010001
 31
0.0
  0
LINE
  5
E73
  8
3
 10
186.3627216338
 20
35.72208661010001
 30
0.0
 11
186.6145032040999
 21
35.80847299070001
 31
0.0
  0
LINE
  5
E74
  8
3
 10
182.7
 20
36.91718958730002
 30
0.0
 11
182.7
 21
36.83915003589999
 31
0.0
  0
LINE
  5
E75
  8
3
 10
187.7
 20
36.83915003589999
 30
0.0
 11
187.7
 21
36.91718958730002
 31
0.0
  0
LINE
  5
E76
  8
3
 10
186.6145032040999
 20
37.94786663240001
 30
0.0
 11
186.3627216338
 21
38.03425301300001
 31
0.0
  0
LINE
  5
E77
  8
3
 10
184.0372783662999
 20
38.03425301300001
 30
0.0
 11
183.785496796
 21
37.94786663240001
 31
0.0
  0
LINE
  5
E78
  8
3
 10
183.785496796
 20
36.42620633130002
 30
0.0
 11
184.0372783662999
 21
36.33981995070002
 31
0.0
  0
LINE
  5
E79
  8
3
 10
186.3627216338
 20
36.33981995070002
 30
0.0
 11
186.6145032040999
 21
36.42620633130002
 31
0.0
  0
LINE
  5
E7A
  8
3
 10
182.7
 20
37.53492292790003
 30
0.0
 11
182.7
 21
37.4568833765
 31
0.0
  0
LINE
  5
E7B
  8
3
 10
187.7
 20
37.4568833765
 30
0.0
 11
187.7
 21
37.53492292790003
 31
0.0
  0
LINE
  5
E7C
  8
3
 10
186.6145032040999
 20
38.56559997300002
 30
0.0
 11
186.3627216338
 21
38.65198635360002
 31
0.0
  0
LINE
  5
E7D
  8
3
 10
184.0372783662999
 20
38.65198635360002
 30
0.0
 11
183.785496796
 21
38.56559997300002
 31
0.0
  0
LINE
  5
E7E
  8
3
 10
183.785496796
 20
37.04393967190003
 30
0.0
 11
184.0372783662999
 21
36.95755329140002
 31
0.0
  0
LINE
  5
E7F
  8
3
 10
186.3627216338
 20
36.95755329140002
 30
0.0
 11
186.6145032040999
 21
37.04393967190003
 31
0.0
  0
LINE
  5
E80
  8
3
 10
182.7
 20
38.15265626849998
 30
0.0
 11
182.7
 21
38.07461671710001
 31
0.0
  0
LINE
  5
E81
  8
3
 10
187.7
 20
38.07461671710001
 30
0.0
 11
187.7
 21
38.15265626849998
 31
0.0
  0
LINE
  5
E82
  8
3
 10
186.6145032040999
 20
39.18333331360003
 30
0.0
 11
186.3627216338
 21
39.26971969420003
 31
0.0
  0
LINE
  5
E83
  8
3
 10
184.0372783662999
 20
39.26971969420003
 30
0.0
 11
183.785496796
 21
39.18333331360003
 31
0.0
  0
LINE
  5
E84
  8
3
 10
183.785496796
 20
37.66167301249999
 30
0.0
 11
184.0372783662999
 21
37.57528663200003
 31
0.0
  0
LINE
  5
E85
  8
3
 10
186.3627216338
 20
37.57528663200003
 30
0.0
 11
186.6145032040999
 21
37.66167301249999
 31
0.0
  0
LINE
  5
E86
  8
3
 10
182.7
 20
38.77038960909999
 30
0.0
 11
182.7
 21
38.69235005770003
 31
0.0
  0
LINE
  5
E87
  8
3
 10
187.7
 20
38.69235005770003
 30
0.0
 11
187.7
 21
38.77038960909999
 31
0.0
  0
LINE
  5
E88
  8
3
 10
186.6145032040999
 20
39.80106665419999
 30
0.0
 11
186.3627216338
 21
39.88745303479999
 31
0.0
  0
LINE
  5
E89
  8
3
 10
184.0372783662999
 20
39.88745303479999
 30
0.0
 11
183.785496796
 21
39.80106665419999
 31
0.0
  0
LINE
  5
E8A
  8
3
 10
183.785496796
 20
38.2794063531
 30
0.0
 11
184.0372783662999
 21
38.19301997259998
 31
0.0
  0
LINE
  5
E8B
  8
3
 10
186.3627216338
 20
38.19301997259998
 30
0.0
 11
186.6145032040999
 21
38.2794063531
 31
0.0
  0
LINE
  5
E8C
  8
3
 10
182.7
 20
39.3881229497
 30
0.0
 11
182.7
 21
39.31008339830004
 31
0.0
  0
LINE
  5
E8D
  8
3
 10
187.7
 20
39.31008339830004
 30
0.0
 11
187.7
 21
39.3881229497
 31
0.0
  0
LINE
  5
E8E
  8
3
 10
186.6145032040999
 20
40.4187999948
 30
0.0
 11
186.3627216338
 21
40.5051863754
 31
0.0
  0
LINE
  5
E8F
  8
3
 10
184.0372783662999
 20
40.5051863754
 30
0.0
 11
183.785496796
 21
40.4187999948
 31
0.0
  0
LINE
  5
E90
  8
3
 10
183.9234939594
 20
38.84979279909999
 30
0.0
 11
184.0372783662999
 21
38.8107533132
 31
0.0
  0
LINE
  5
E91
  8
3
 10
186.3627216338
 20
38.8107533132
 30
0.0
 11
186.4765060407001
 21
38.84979279909999
 31
0.0
  0
ARC
  5
EAA
  8
SK1
 10
203.4000000000001
 20
-19.25
 30
0.0
 40
0.3999999999999675
 50
75.00000000000429
 51
120.0000000000078
  0
ARC
  5
EAB
  8
SK1
 10
203.4000000000001
 20
19.25
 30
0.0
 40
0.3999999999999675
 50
239.9999999999922
 51
284.9999999999957
  0
LINE
  5
EAC
  8
SK1
 10
204.1990711605999
 20
19.05000000000001
 30
0.0
 11
203.5035276181
 21
18.86362966950003
 31
0.0
  0
LINE
  5
EAD
  8
SK1
 10
203.5035276181
 20
-18.86362966949997
 30
0.0
 11
204.1990711605999
 21
-19.05000000000001
 31
0.0
  0
LINE
  5
EAE
  8
SK1
 10
204.1990711605999
 20
-19.05000000000001
 30
0.0
 11
224.8
 21
-19.05000000000001
 31
0.0
  0
LINE
  5
EAF
  8
SK1
 10
224.8
 20
19.05000000000001
 30
0.0
 11
204.1990711605999
 21
19.05000000000001
 31
0.0
  0
ARC
  5
EB0
  8
SK1
 10
224.8
 20
-17.05000000000001
 30
0.0
 40
2.0
 50
270.0
 51
0.0
  0
ARC
  5
EB1
  8
SK1
 10
224.8
 20
17.05000000000001
 30
0.0
 40
2.0
 50
0.0
 51
90.0
  0
LINE
  5
EB2
  8
SK1
 10
240.538
 20
23.8125
 30
0.0
 11
229.3620000000001
 21
23.8125
 31
0.0
  0
LINE
  5
EB3
  8
SK1
 10
229.3620000000001
 20
-23.8125
 30
0.0
 11
240.538
 21
-23.8125
 31
0.0
  0
LINE
  5
EB4
  8
SK1
 10
229.3620000000001
 20
23.8125
 30
0.0
 11
228.5999999999999
 21
23.0505
 31
0.0
  0
LINE
  5
EB5
  8
SK1
 10
228.5999999999999
 20
-23.0505
 30
0.0
 11
229.3620000000001
 21
-23.8125
 31
0.0
  0
LINE
  5
EB6
  8
SK1
 10
240.538
 20
-23.8125
 30
0.0
 11
241.3
 21
-23.0505
 31
0.0
  0
LINE
  5
EB7
  8
SK1
 10
241.3
 20
23.0505
 30
0.0
 11
240.538
 21
23.8125
 31
0.0
  0
ARC
  5
EB8
  8
SK1
 10
227.8126
 20
10.31240000000003
 30
0.0
 40
0.787399999999991
 50
270.0
 51
0.0
  0
ARC
  5
EB9
  8
SK1
 10
227.8126
 20
-10.31239999999997
 30
0.0
 40
0.787399999999991
 50
0.0
 51
90.0
  0
LINE
  5
EBA
  8
SK1
 10
227.8126
 20
9.525000000000034
 30
0.0
 11
226.8
 21
9.525000000000034
 31
0.0
  0
LINE
  5
EBB
  8
SK1
 10
226.8
 20
-9.524999999999977
 30
0.0
 11
227.8126
 21
-9.524999999999977
 31
0.0
  0
LINE
  5
EBC
  8
SK1
 10
203.2285674555001
 20
-25.39868999999999
 30
0.0
 11
203.2
 21
-25.39868999999999
 31
0.0
  0
LINE
  5
EBF
  8
SK1
 10
203.2
 20
25.39868999999999
 30
0.0
 11
203.2285674555001
 21
25.39868999999999
 31
0.0
  0
LINE
  5
EE7
  8
SK1
 10
204.1990711605999
 20
0.0
 30
0.0
 11
204.1990711605999
 21
19.05000000000001
 31
0.0
  0
LINE
  5
EE8
  8
SK1
 10
204.1990711605999
 20
-19.05000000000001
 30
0.0
 11
204.1990711605999
 21
0.0
 31
0.0
  0
LINE
  5
EE9
  8
SK1
 10
226.8
 20
0.0
 30
0.0
 11
226.8
 21
17.05000000000001
 31
0.0
  0
LINE
  5
EEA
  8
SK1
 10
226.8
 20
-17.05000000000001
 30
0.0
 11
226.8
 21
0.0
 31
0.0
  0
LINE
  5
EEB
  8
SK1
 10
240.538
 20
0.0
 30
0.0
 11
240.538
 21
-23.8125
 31
0.0
  0
LINE
  5
EEC
  8
SK1
 10
240.538
 20
23.8125
 30
0.0
 11
240.538
 21
0.0
 31
0.0
  0
LINE
  5
EED
  8
SK1
 10
229.3620000000001
 20
0.0
 30
0.0
 11
229.3620000000001
 21
-23.8125
 31
0.0
  0
LINE
  5
EEE
  8
SK1
 10
229.3620000000001
 20
23.8125
 30
0.0
 11
229.3620000000001
 21
0.0
 31
0.0
  0
LINE
  5
EEF
  8
SK1
 10
228.5999999999999
 20
0.0
 30
0.0
 11
228.5999999999999
 21
-23.0505
 31
0.0
  0
LINE
  5
EF0
  8
SK1
 10
228.5999999999999
 20
23.0505
 30
0.0
 11
228.5999999999999
 21
0.0
 31
0.0
  0
LINE
  5
EF1
  8
SK1
 10
241.3
 20
0.0
 30
0.0
 11
241.3
 21
-23.0505
 31
0.0
  0
LINE
  5
EF2
  8
SK1
 10
241.3
 20
23.0505
 30
0.0
 11
241.3
 21
0.0
 31
0.0
  0
LINE
  5
EF3
  8
SK1
 10
211.2772
 20
-25.40249999999997
 30
0.0
 11
203.2
 21
-25.40249999999997
 31
0.0
  0
LINE
  5
EF4
  8
SK1
 10
211.2772
 20
-25.40249999999997
 30
0.0
 11
211.2772
 21
-41.27749999999997
 31
0.0
  0
LINE
  5
EF5
  8
SK1
 10
211.2772
 20
-41.27749999999997
 30
0.0
 11
203.2
 21
-41.27749999999997
 31
0.0
  0
LINE
  5
EF6
  8
SK1
 10
211.2772
 20
41.27750000000003
 30
0.0
 11
203.2
 21
41.27750000000003
 31
0.0
  0
LINE
  5
EF7
  8
SK1
 10
211.2772
 20
41.27750000000003
 30
0.0
 11
211.2772
 21
25.40250000000003
 31
0.0
  0
LINE
  5
EF8
  8
SK1
 10
211.2772
 20
25.40250000000003
 30
0.0
 11
203.2
 21
25.40250000000003
 31
0.0
  0
LINE
  5
F17
  8
SK3
 10
-5.25
 20
0.0
 30
0.0
 11
-5.25
 21
11.09979999999999
 31
0.0
  0
LINE
  5
F18
  8
SK3
 10
-5.25
 20
-11.09980000000002
 30
0.0
 11
-5.25
 21
0.0
 31
0.0
  0
LINE
  5
F19
  8
SK3
 10
-4.761656058700055
 20
0.0
 30
0.0
 11
-4.761656058700055
 21
-8.731249999999989
 31
0.0
  0
LINE
  5
F1A
  8
SK3
 10
-4.761656058700055
 20
8.731249999999989
 30
0.0
 11
-4.761656058700055
 21
0.0
 31
0.0
  0
LINE
  5
F1B
  8
SK3
 10
225.9339746742
 20
-10.0
 30
0.0
 11
225.9339746742
 21
10.0
 31
0.0
  0
LINE
  5
F1C
  8
SK3
 10
223.8
 20
10.0
 30
0.0
 11
223.8
 21
-10.0
 31
0.0
  0
LINE
  5
F1D
  8
SK3
 10
223.7364352120999
 20
8.731249999999989
 30
0.0
 11
223.7364352120999
 21
-8.731249999999989
 31
0.0
  0
LINE
  5
F3A
  8
SK3
 10
231.7750000000001
 20
0.0
 30
0.0
 11
241.3
 21
0.0
 31
0.0
  0
LINE
  5
F3B
  8
SK3
 10
231.7750000000001
 20
2.400300000000016
 30
0.0
 11
231.7750000000001
 21
0.0
 31
0.0
  0
LINE
  5
F3C
  8
SK3
 10
231.7750000000001
 20
0.0
 30
0.0
 11
231.7750000000001
 21
-2.400300000000016
 31
0.0
  0
LINE
  5
F3D
  8
SK3
 10
231.1399999999999
 20
0.0
 30
0.0
 11
231.1399999999999
 21
-4.800599999999974
 31
0.0
  0
LINE
  5
F3E
  8
SK3
 10
231.1399999999999
 20
4.800600000000031
 30
0.0
 11
231.1399999999999
 21
0.0
 31
0.0
  0
LINE
  5
F3F
  8
SK3
 10
231.7750000000001
 20
4.800600000000031
 30
0.0
 11
231.7750000000001
 21
2.400300000000016
 31
0.0
  0
LINE
  5
F40
  8
SK3
 10
231.7750000000001
 20
-2.400300000000016
 30
0.0
 11
231.7750000000001
 21
-4.800599999999974
 31
0.0
  0
LINE
  5
F41
  8
SK3
 10
231.7750000000001
 20
4.800600000000031
 30
0.0
 11
241.3
 21
4.800600000000031
 31
0.0
  0
LINE
  5
F42
  8
SK3
 10
231.7750000000001
 20
-4.800599999999974
 30
0.0
 11
241.3
 21
-4.800599999999974
 31
0.0
  0
LINE
  5
FA0
  8
SK3
 10
226.8
 20
2.5
 30
0.0
 11
203.2
 21
2.5
 31
0.0
  0
LINE
  5
FA1
  8
SK3
 10
203.2
 20
-2.5
 30
0.0
 11
226.8
 21
-2.5
 31
0.0
  0
LINE
  5
FAC
  8
SK3
 10
-5.25
 20
-10.84649999999999
 30
0.0
 11
-4.761656058700055
 21
-8.731249999999989
 31
0.0
  0
LINE
  5
FAD
  8
SK3
 10
-4.761656058700055
 20
8.731249999999989
 30
0.0
 11
-5.25
 21
10.84649999999999
 31
0.0
  0
LINE
  5
FAE
  8
SK3
 10
226.8
 20
10.49999995500002
 30
0.0
 11
225.9339746742
 21
10.0
 31
0.0
  0
LINE
  5
FAF
  8
SK3
 10
225.9339746742
 20
-10.0
 30
0.0
 11
226.8
 21
-10.49999995499996
 31
0.0
  0
LINE
  5
FB0
  8
SK3
 10
225.9339746742
 20
10.0
 30
0.0
 11
223.8
 21
10.0
 31
0.0
  0
LINE
  5
FB1
  8
SK3
 10
223.8
 20
-10.0
 30
0.0
 11
225.9339746742
 21
-10.0
 31
0.0
  0
LINE
  5
FB2
  8
SK3
 10
223.8
 20
8.767949147500019
 30
0.0
 11
223.7364352120999
 21
8.731249999999989
 31
0.0
  0
LINE
  5
FB3
  8
SK3
 10
223.7364352120999
 20
-8.731249999999989
 30
0.0
 11
223.8
 21
-8.767949147399975
 31
0.0
  0
LINE
  5
FB4
  8
SK3
 10
223.7364352120999
 20
8.731249999999989
 30
0.0
 11
203.2
 21
8.731249999999989
 31
0.0
  0
LINE
  5
FB5
  8
SK3
 10
203.2
 20
-8.731249999999989
 30
0.0
 11
223.7364352120999
 21
-8.731249999999989
 31
0.0
  0
LINE
  5
FCA
  8
SK3
 10
226.8
 20
14.62435565300001
 30
0.0
 11
203.2
 21
14.62435565300001
 31
0.0
  0
LINE
  5
FCB
  8
SK3
 10
203.2
 20
9.62435565300001
 30
0.0
 11
226.8
 21
9.62435565300001
 31
0.0
  0
LINE
  5
FCC
  8
SK3
 10
226.8
 20
-9.62435565300001
 30
0.0
 11
203.2
 21
-9.62435565300001
 31
0.0
  0
LINE
  5
FCD
  8
SK3
 10
203.2
 20
-14.62435565300001
 30
0.0
 11
226.8
 21
-14.62435565300001
 31
0.0
  0
LINE
  5
FD6
  8
SK3
 10
226.8
 20
9.525000000000034
 30
0.0
 11
203.2
 21
9.525000000000034
 31
0.0
  0
LINE
  5
FD7
  8
SK3
 10
203.2
 20
-9.524999999999977
 30
0.0
 11
226.8
 21
-9.524999999999977
 31
0.0
  0
LINE
  5
FDA
  8
SK3
 10
231.7750000000001
 20
4.800600000000031
 30
0.0
 11
231.1399999999999
 21
4.800600000000031
 31
0.0
  0
LINE
  5
FDB
  8
SK3
 10
231.1399999999999
 20
-4.800599999999974
 30
0.0
 11
231.7750000000001
 21
-4.800599999999974
 31
0.0
  0
LINE
  5
FDC
  8
SK3
 10
231.1399999999999
 20
4.800600000000031
 30
0.0
 11
228.2555085122999
 21
0.0
 31
0.0
  0
LINE
  5
FDD
  8
SK3
 10
228.2555085122999
 20
0.0
 30
0.0
 11
231.1399999999999
 21
-4.800599999999974
 31
0.0
  0
LINE
  5
1053
  8
SK3
 10
-4.761656058700055
 20
8.731249999999989
 30
0.0
 11
0.0000000000000284
 21
8.731249999999989
 31
0.0
  0
LINE
  5
1054
  8
SK3
 10
-4.761656058700055
 20
-8.731249999999989
 30
0.0
 11
0.0
 21
-8.731249999999989
 31
0.0
  0
ARC
  5
1055
  8
1
 10
39.17157287529994
 20
36.92500000000001
 30
0.0
 40
2.000000000000177
 50
270.0
 51
315.0000000000023
  0
LINE
  5
1058
  8
NOCUT
 10
51.125
 20
46.05000000000001
 30
0.0
 11
40.58578643769988
 21
35.51078643760002
 31
0.0
  0
LINE
  5
1059
  8
NOCUT
 10
202.2
 20
46.05000000000001
 30
0.0
 11
51.125
 21
46.05000000000001
 31
0.0
  0
ARC
  5
105A
  8
NOCUT
 10
39.17157287529994
 20
36.92500000000001
 30
0.0
 40
2.000000000000177
 50
270.0
 51
315.0000000000023
  0
ARC
  5
105B
  8
NOCUT
 10
202.2
 20
45.05000000000001
 30
0.0
 40
1.000000000000227
 50
0.0
 51
90.0
  0
LINE
  5
105C
  8
NOCUT
 10
203.2
 20
0.0
 30
0.0
 11
203.2
 21
45.05000000000001
 31
0.0
  0
LINE
  5
1A17
  8
SK4
 10
203.2
 20
0.0
 30
0.0
 11
241.3
 21
0.0
 31
0.0
  0
DIMENSION
  5
1A19
  8
SK2
  2
*D10
 10
282.822031544954
 20
-46.05000000000002
 30
0.0
 11
280.947031544954
 21
-0.0000000000000071
 31
0.0
 70
    32
  3
ISO-25
 13
202.2
 23
46.05000000000001
 33
0.0
 14
202.2
 24
-46.05000000000001
 34
0.0
 50
90.0
1001
ACAD
1000
DSTYLE
1002
{
1070
   287
1070
     5
1070
   271
1070
     3
1070
   272
1070
     3
1070
   279
1070
     2
1002
}
  0
DIMENSION
  5
1A28
  8
SK2
  2
*D11
 10
260.6885181504587
 20
-19.05000000000001
 30
0.0
 11
258.8135181504587
 21
-0.0000000000000036
 31
0.0
 70
    32
  3
ISO-25
 13
224.8
 23
19.05000000000001
 33
0.0
 14
224.8
 24
-19.05000000000001
 34
0.0
 50
90.0
1001
ACAD
1000
DSTYLE
1002
{
1070
   287
1070
     5
1070
   271
1070
     3
1070
   272
1070
     3
1070
   279
1070
     2
1002
}
  0
ENDSEC
  0
EOF
