  0
SECTION
  2
HEADER
  9
$ACADVER
  1
AC1009
  9
$DWGCODEPAGE
  3
ansi_1251
  9
$INSBASE
 10
0.0
 20
0.0
 30
0.0
  9
$EXTMIN
 10
-68.25000000000001
 20
-30.5409271246
 30
0.0
  9
$EXTMAX
 10
88.90000000000003
 20
30.50275418977125
 30
0.0
  9
$LIMMIN
 10
0.0
 20
0.0
  9
$LIMMAX
 10
420.0
 20
297.0
  9
$ORTHOMODE
 70
     1
  9
$REGENMODE
 70
     1
  9
$FILLMODE
 70
     1
  9
$QTEXTMODE
 70
     0
  9
$MIRRTEXT
 70
     0
  9
$DRAGMODE
 70
     2
  9
$LTSCALE
 40
1.0
  9
$OSMODE
 70
   279
  9
$ATTMODE
 70
     1
  9
$TEXTSIZE
 40
2.5
  9
$TRACEWID
 40
1.0
  9
$TEXTSTYLE
  7
STANDARD
  9
$CLAYER
  8
0
  9
$CELTYPE
  6
BYLAYER
  9
$CECOLOR
 62
   256
  9
$DIMSCALE
 40
1.0
  9
$DIMASZ
 40
2.5
  9
$DIMEXO
 40
0.625
  9
$DIMDLI
 40
3.75
  9
$DIMRND
 40
0.0
  9
$DIMDLE
 40
0.0
  9
$DIMEXE
 40
1.25
  9
$DIMTP
 40
0.0
  9
$DIMTM
 40
0.0
  9
$DIMTXT
 40
2.5
  9
$DIMCEN
 40
2.5
  9
$DIMTSZ
 40
0.0
  9
$DIMTOL
 70
     0
  9
$DIMLIM
 70
     0
  9
$DIMTIH
 70
     0
  9
$DIMTOH
 70
     0
  9
$DIMSE1
 70
     0
  9
$DIMSE2
 70
     0
  9
$DIMTAD
 70
     1
  9
$DIMZIN
 70
     8
  9
$DIMBLK
  1

  9
$DIMASO
 70
     1
  9
$DIMSHO
 70
     1
  9
$DIMPOST
  1

  9
$DIMAPOST
  1

  9
$DIMALT
 70
     0
  9
$DIMALTD
 70
     3
  9
$DIMALTF
 40
0.03937007874016
  9
$DIMLFAC
 40
1.0
  9
$DIMTOFL
 70
     1
  9
$DIMTVP
 40
0.0
  9
$DIMTIX
 70
     0
  9
$DIMSOXD
 70
     0
  9
$DIMSAH
 70
     0
  9
$DIMBLK1
  1

  9
$DIMBLK2
  1

  9
$DIMSTYLE
  2
ISO-25
  9
$DIMCLRD
 70
     0
  9
$DIMCLRE
 70
     0
  9
$DIMCLRT
 70
     0
  9
$DIMTFAC
 40
1.0
  9
$DIMGAP
 40
0.625
  9
$LUNITS
 70
     2
  9
$LUPREC
 70
     3
  9
$SKETCHINC
 40
1.0
  9
$FILLETRAD
 40
10.0
  9
$AUNITS
 70
     0
  9
$AUPREC
 70
     0
  9
$MENU
  1
.
  9
$ELEVATION
 40
0.0
  9
$PELEVATION
 40
0.0
  9
$THICKNESS
 40
0.0
  9
$LIMCHECK
 70
     0
  9
$CHAMFERA
 40
10.0
  9
$CHAMFERB
 40
10.0
  9
$SKPOLY
 70
     0
  9
$TDCREATE
 40
2455022.429026158
  9
$TDUPDATE
 40
2458659.538982558
  9
$TDINDWG
 40
0.1506771181
  9
$TDUSRTIMER
 40
2458702.698169965
  9
$USRTIMER
 70
     1
  9
$ANGBASE
 50
0.0
  9
$ANGDIR
 70
     0
  9
$PDMODE
 70
     0
  9
$PDSIZE
 40
0.0
  9
$PLINEWID
 40
0.0
  9
$COORDS
 70
     1
  9
$SPLFRAME
 70
     0
  9
$SPLINETYPE
 70
     6
  9
$SPLINESEGS
 70
     8
  9
$ATTDIA
 70
     0
  9
$ATTREQ
 70
     1
  9
$HANDLING
 70
     1
  9
$HANDSEED
  5
2A48
  9
$SURFTAB1
 70
     6
  9
$SURFTAB2
 70
     6
  9
$SURFTYPE
 70
     6
  9
$SURFU
 70
     6
  9
$SURFV
 70
     6
  9
$UCSNAME
  2

  9
$UCSORG
 10
0.0
 20
0.0
 30
0.0
  9
$UCSXDIR
 10
1.0
 20
0.0
 30
0.0
  9
$UCSYDIR
 10
0.0
 20
1.0
 30
0.0
  9
$PUCSNAME
  2

  9
$PUCSORG
 10
0.0
 20
0.0
 30
0.0
  9
$PUCSXDIR
 10
1.0
 20
0.0
 30
0.0
  9
$PUCSYDIR
 10
0.0
 20
1.0
 30
0.0
  9
$USERI1
 70
     0
  9
$USERI2
 70
     0
  9
$USERI3
 70
     0
  9
$USERI4
 70
     0
  9
$USERI5
 70
     0
  9
$USERR1
 40
0.0
  9
$USERR2
 40
0.0
  9
$USERR3
 40
0.0
  9
$USERR4
 40
0.0
  9
$USERR5
 40
0.0
  9
$WORLDVIEW
 70
     1
  9
$SHADEDGE
 70
     3
  9
$SHADEDIF
 70
    70
  9
$TILEMODE
 70
     1
  9
$MAXACTVP
 70
    64
  9
$PLIMCHECK
 70
     0
  9
$PEXTMIN
 10
1.000000000000000E+20
 20
1.000000000000000E+20
 30
1.000000000000000E+20
  9
$PEXTMAX
 10
-1.000000000000000E+20
 20
-1.000000000000000E+20
 30
-1.000000000000000E+20
  9
$PLIMMIN
 10
0.0
 20
0.0
  9
$PLIMMAX
 10
420.0
 20
297.0
  9
$UNITMODE
 70
     0
  9
$VISRETAIN
 70
     1
  9
$PLINEGEN
 70
     0
  9
$PSLTSCALE
 70
     1
  0
ENDSEC
  0
SECTION
  2
TABLES
  0
TABLE
  2
VPORT
 70
     1
  0
VPORT
  2
*ACTIVE
 70
     0
 10
0.0
 20
0.0
 11
1.0
 21
1.0
 12
62.09851111131488
 22
-2.020325411445
 13
0.0
 23
0.0
 14
10.0
 24
10.0
 15
10.0
 25
10.0
 16
0.0
 26
0.0
 36
1.0
 17
0.0
 27
0.0
 37
0.0
 40
250.543825201807
 41
1.332880434782609
 42
50.0
 43
0.0
 44
0.0
 50
0.0
 51
0.0
 71
    16
 72
  1000
 73
     1
 74
     3
 75
     0
 76
     0
 77
     0
 78
     0
  0
ENDTAB
  0
TABLE
  2
LTYPE
 70
     6
  0
LTYPE
  2
CONTINUOUS
 70
     0
  3
Solid line
 72
    65
 73
     0
 40
0.0
  0
LTYPE
  2
CENTER
 70
     0
  3
 Center _____  _  _____  _  _____  _  _____  _ 
 72
    65
 73
     4
 40
50.8
 49
31.75
 49
-6.35
 49
6.35
 49
-6.35
  0
LTYPE
  2
DASHED
 70
     0
  3
Dashed __  __  __  __  __  __  __  __  __  __  
 72
    65
 73
     2
 40
19.05
 49
12.7
 49
-6.35
  0
LTYPE
  2
HIDDEN
 70
     0
  3
Hidden __ __ __ __ __ __ __ __ __ __ __ __ __ __
 72
    65
 73
     2
 40
1.905
 49
1.27
 49
-0.635
  0
LTYPE
  2
CENTERX2
 70
     0
  3
Center (2x) ________  __  ________  __  _____
 72
    65
 73
     4
 40
20.32
 49
12.7
 49
-2.54
 49
2.54
 49
-2.54
  0
LTYPE
  2
PHANTOM
 70
     0
  3
Phantom ______  __  __  ______  __  __  ______
 72
    65
 73
     6
 40
12.7
 49
6.35
 49
-1.27
 49
1.27
 49
-1.27
 49
1.27
 49
-1.27
  0
ENDTAB
  0
TABLE
  2
LAYER
 70
    26
  0
LAYER
  2
0
 70
     0
 62
     7
  6
CONTINUOUS
  0
LAYER
  2
1
 70
     0
 62
     4
  6
CONTINUOUS
  0
LAYER
  2
2
 70
     0
 62
     7
  6
CONTINUOUS
  0
LAYER
  2
3
 70
     0
 62
     1
  6
DASHED
  0
LAYER
  2
4
 70
     0
 62
     2
  6
CENTER
  0
LAYER
  2
6
 70
     0
 62
     5
  6
CONTINUOUS
  0
LAYER
  2
7
 70
     0
 62
     5
  6
CONTINUOUS
  0
LAYER
  2
11
 70
     0
 62
     4
  6
CONTINUOUS
  0
LAYER
  2
SK1
 70
     0
 62
     4
  6
CONTINUOUS
  0
LAYER
  2
SK2
 70
     0
 62
     7
  6
CONTINUOUS
  0
LAYER
  2
SK3
 70
     0
 62
     1
  6
DASHED
  0
LAYER
  2
SK4
 70
     0
 62
     2
  6
CENTER
  0
LAYER
  2
SK6
 70
     0
 62
     5
  6
CONTINUOUS
  0
LAYER
  2
SK7
 70
     0
 62
     5
  6
CONTINUOUS
  0
LAYER
  2
SK11
 70
     0
 62
     4
  6
CONTINUOUS
  0
LAYER
  2
CUT
 70
     0
 62
     1
  6
CONTINUOUS
  0
LAYER
  2
NOCUT
 70
     0
 62
    -7
  6
CONTINUOUS
  0
LAYER
  2
SKVIEW1
 70
     0
 62
     4
  6
CONTINUOUS
  0
LAYER
  2
SKVIEW2
 70
     0
 62
     7
  6
CONTINUOUS
  0
LAYER
  2
SKVIEW3
 70
     0
 62
     1
  6
DASHED
  0
LAYER
  2
SKVIEW4
 70
     0
 62
     2
  6
CENTER
  0
LAYER
  2
SKVIEW6
 70
     0
 62
     5
  6
CONTINUOUS
  0
LAYER
  2
SKVIEW7
 70
     0
 62
     5
  6
CONTINUOUS
  0
LAYER
  2
SKVIEW11
 70
     0
 62
     4
  6
CONTINUOUS
  0
LAYER
  2
INFTOTAL
 70
     0
 62
     9
  6
CONTINUOUS
  0
LAYER
  2
DEFPOINTS
 70
     0
 62
     7
  6
CONTINUOUS
  0
ENDTAB
  0
TABLE
  2
STYLE
 70
     1
  0
STYLE
  2
STANDARD
 70
     0
 40
0.0
 41
1.0
 50
0.0
 71
     0
 42
2.5
  3
txt
  4

  0
ENDTAB
  0
TABLE
  2
VIEW
 70
     0
  0
ENDTAB
  0
TABLE
  2
UCS
 70
     0
  0
ENDTAB
  0
TABLE
  2
APPID
 70
     2
  0
APPID
  2
ACAD
 70
     0
  0
APPID
  2
ACAECLAYERSTANDARD
 70
     0
  0
ENDTAB
  0
TABLE
  2
DIMSTYLE
 70
     1
  0
DIMSTYLE
  2
ISO-25
 70
     0
  3

  4

  5

  6

  7

 40
1.0
 41
2.5
 42
0.625
 43
3.75
 44
1.25
 45
0.0
 46
0.0
 47
0.0
 48
0.0
140
2.5
141
2.5
142
0.0
143
0.03937007874016
144
1.0
145
0.0
146
1.0
147
0.625
 71
     0
 72
     0
 73
     0
 74
     0
 75
     0
 76
     0
 77
     1
 78
     8
170
     0
171
     3
172
     1
173
     0
174
     0
175
     0
176
     0
177
     0
178
     0
  0
ENDTAB
  0
ENDSEC
  0
SECTION
  2
BLOCKS
  0
BLOCK
  8
0
  2
$MODEL_SPACE
 70
     0
 10
0.0
 20
0.0
 30
0.0
  3
$MODEL_SPACE
  1

  0
ENDBLK
  5
21
  8
0
  0
BLOCK
 67
     1
  8
0
  2
$PAPER_SPACE
 70
     0
 10
0.0
 20
0.0
 30
0.0
  3
$PAPER_SPACE
  1

  0
ENDBLK
  5
1D
 67
     1
  8
0
  0
BLOCK
  8
0
  2
*U2
 70
     1
 10
0.0
 20
0.0
 30
0.0
  3
*U2
  1

  0
TEXT
  5
77E
  8
SK6
 10
-50.0
 20
78.25
 30
0.0
 40
3.5
  1
BIG KAISER
 41
0.85
  0
TEXT
  5
781
  8
SK6
 10
-50.0
 20
73.0
 30
0.0
 40
3.5
  1
BCV50-SMC1.500-6
 41
0.85
  0
ENDBLK
  5
782
  8
0
  0
BLOCK
  8
0
  2
_FILLED
 70
     0
 10
0.0
 20
0.0
 30
0.0
  3
_FILLED
  1

  0
SOLID
  5
789
  8
0
  6
BYBLOCK
 62
     0
 10
0.0
 20
0.0
 30
0.0
 11
-1.0
 21
0.2142857143
 31
0.0
 12
-1.0
 22
-0.2142857143
 32
0.0
 13
-1.0
 23
-0.2142857143
 33
0.0
  0
ENDBLK
  5
78A
  8
0
  6
BYBLOCK
 62
     0
  0
BLOCK
  8
0
  2
*U5
 70
     1
 10
0.0
 20
0.0
 30
0.0
  3
*U5
  1

  0
TEXT
  5
790
  8
SK6
 10
-85.96178542556666
 20
-67.06748653279999
 30
0.0
 40
3.5
  1
BCV50
 41
0.85
  0
ENDBLK
  5
791
  8
0
  0
BLOCK
  8
0
  2
*D8
 70
     1
 10
0.0
 20
0.0
 30
0.0
  3
*D8
  1

  0
LINE
  5
808
  8
SK2
 62
     0
 10
0.0
 20
35.54999999999998
 30
0.0
 11
0.0
 21
63.71215670356074
 31
0.0
  0
LINE
  5
809
  8
SK2
 62
     0
 10
152.3999999999999
 20
45.67500000000001
 30
0.0
 11
152.3999999999999
 21
63.71215670356074
 31
0.0
  0
LINE
  5
80A
  8
SK2
 62
     0
 10
2.5
 20
62.46215670356074
 30
0.0
 11
149.8999999999999
 21
62.46215670356074
 31
0.0
  0
SOLID
  5
80B
  8
SK2
 62
     0
 10
2.5
 20
62.8788233702274
 30
0.0
 11
2.5
 21
62.04549003689407
 31
0.0
 12
0.0
 22
62.46215670356074
 32
0.0
 13
0.0
 23
62.46215670356074
 33
0.0
  0
SOLID
  5
80C
  8
SK2
 62
     0
 10
149.8999999999999
 20
62.04549003689407
 30
0.0
 11
149.8999999999999
 21
62.8788233702274
 31
0.0
 12
152.3999999999999
 22
62.46215670356074
 32
0.0
 13
152.3999999999999
 23
62.46215670356074
 33
0.0
  0
TEXT
  5
80D
  8
SK2
  6
CONTINUOUS
 62
     0
 10
71.61666666666663
 20
63.08715670356074
 30
0.0
 40
2.5
  1
152.4
  0
POINT
  5
80E
  8
DEFPOINTS
 62
     0
 10
0.0
 20
34.92499999999998
 30
0.0
  0
POINT
  5
80F
  8
DEFPOINTS
 62
     0
 10
152.3999999999999
 20
45.05000000000001
 30
0.0
  0
POINT
  5
810
  8
DEFPOINTS
 62
     0
 10
152.3999999999999
 20
62.46215670356074
 30
0.0
  0
ENDBLK
  5
812
  8
0
  0
BLOCK
  8
0
  2
*D10
 70
     1
 10
0.0
 20
0.0
 30
0.0
  3
*D10
  1

  0
LINE
  5
1ADA
  8
SK2
 62
     0
 10
174.6249999999998
 20
19.05000000000001
 30
0.0
 11
209.2383117379489
 21
19.05000000000001
 31
0.0
  0
LINE
  5
1ADB
  8
SK2
 62
     0
 10
174.6249999999998
 20
-19.05000000000001
 30
0.0
 11
209.2383117379489
 21
-19.05000000000001
 31
0.0
  0
LINE
  5
1ADC
  8
SK2
 62
     0
 10
207.9883117379489
 20
16.55000000000001
 30
0.0
 11
207.9883117379489
 21
-16.55000000000001
 31
0.0
  0
SOLID
  5
1ADD
  8
SK2
 62
     0
 10
208.4049784046156
 20
16.55000000000001
 30
0.0
 11
207.5716450712823
 21
16.55000000000001
 31
0.0
 12
207.9883117379489
 22
19.05000000000001
 32
0.0
 13
207.9883117379489
 23
19.05000000000001
 33
0.0
  0
SOLID
  5
1ADE
  8
SK2
 62
     0
 10
207.5716450712823
 20
-16.55000000000001
 30
0.0
 11
208.4049784046156
 21
-16.55000000000001
 31
0.0
 12
207.9883117379489
 22
-19.05000000000001
 32
0.0
 13
207.9883117379489
 23
-19.05000000000001
 33
0.0
  0
TEXT
  5
1ADF
  8
SK2
  6
CONTINUOUS
 62
     0
 10
207.3633117379489
 20
-3.333333333333343
 30
0.0
 40
2.5
  1
38.1
 50
90.0
  0
POINT
  5
1AE0
  8
DEFPOINTS
 62
     0
 10
173.9999999999998
 20
19.05000000000001
 30
0.0
  0
POINT
  5
1AE1
  8
DEFPOINTS
 62
     0
 10
173.9999999999998
 20
-19.05000000000001
 30
0.0
  0
POINT
  5
1AE2
  8
DEFPOINTS
 62
     0
 10
207.9883117379489
 20
-19.05000000000001
 30
0.0
  0
ENDBLK
  5
1AE4
  8
0
  0
BLOCK
  8
0
  2
*D11
 70
     1
 10
0.0
 20
0.0
 30
0.0
  3
*D11
  1

  0
LINE
  5
1AE9
  8
SK2
 62
     0
 10
152.0249999999999
 20
46.05000000000001
 30
0.0
 11
225.7970222226297
 21
46.05000000000002
 31
0.0
  0
LINE
  5
1AEA
  8
SK2
 62
     0
 10
152.0249999999999
 20
-46.05
 30
0.0
 11
225.7970222226297
 21
-46.05
 31
0.0
  0
LINE
  5
1AEB
  8
SK2
 62
     0
 10
224.5470222226297
 20
43.55000000000002
 30
0.0
 11
224.5470222226297
 21
-43.55
 31
0.0
  0
SOLID
  5
1AEC
  8
SK2
 62
     0
 10
224.9636888892964
 20
43.55000000000002
 30
0.0
 11
224.1303555559631
 21
43.55000000000002
 31
0.0
 12
224.5470222226297
 22
46.05000000000002
 32
0.0
 13
224.5470222226297
 23
46.05000000000002
 33
0.0
  0
SOLID
  5
1AED
  8
SK2
 62
     0
 10
224.1303555559631
 20
-43.55
 30
0.0
 11
224.9636888892964
 21
-43.55
 31
0.0
 12
224.5470222226297
 22
-46.05
 32
0.0
 13
224.5470222226297
 23
-46.05
 33
0.0
  0
TEXT
  5
1AEE
  8
SK2
  6
CONTINUOUS
 62
     0
 10
223.9220222226297
 20
-3.333333333333343
 30
0.0
 40
2.5
  1
92.1
 50
90.0
  0
POINT
  5
1AEF
  8
DEFPOINTS
 62
     0
 10
151.3999999999999
 20
46.05000000000001
 30
0.0
  0
POINT
  5
1AF0
  8
DEFPOINTS
 62
     0
 10
151.3999999999999
 20
-46.05
 30
0.0
  0
POINT
  5
1AF1
  8
DEFPOINTS
 62
     0
 10
224.5470222226297
 20
-46.05
 30
0.0
  0
ENDBLK
  5
1AF3
  8
0
  0
ENDSEC
  0
SECTION
  2
ENTITIES
  0
LINE
  5
685
  8
SK1
 10
0.0
 20
34.92499999999998
 30
0.0
 11
-99.6319088344
 21
20.3952133832
 31
0.0
  0
LINE
  5
686
  8
SK1
 10
-99.6319088344
 20
-20.3952133832
 30
0.0
 11
0.0
 21
-34.92500000000001
 31
0.0
  0
ARC
  5
68D
  8
SK1
 10
-99.3
 20
18.1192879614
 30
0.0
 40
2.299999999999995
 50
98.29722000000018
 51
180.0
  0
ARC
  5
68E
  8
SK1
 10
-99.3
 20
-18.1192879614
 30
0.0
 40
2.299999999999995
 50
180.0
 51
261.7027799999998
  0
LINE
  5
6F6
  8
SK1
 10
-101.6
 20
0.0
 30
0.0
 11
-101.6
 21
-18.1192879614
 31
0.0
  0
LINE
  5
6F7
  8
SK1
 10
-101.6
 20
18.1192879614
 30
0.0
 11
-101.6
 21
0.0
 31
0.0
  0
LINE
  5
71A
  8
SK3
 10
-99.5215390309
 20
-13.10000000000002
 30
0.0
 11
-99.5215390309
 21
13.09999999999999
 31
0.0
  0
LINE
  5
71B
  8
SK3
 10
-95.25
 20
-13.10000000000002
 30
0.0
 11
-95.25
 21
13.09999999999999
 31
0.0
  0
LINE
  5
72A
  8
SK3
 10
-101.6
 20
-14.30000000000001
 30
0.0
 11
-99.5215390309
 21
-13.10000000000002
 31
0.0
  0
LINE
  5
72B
  8
SK3
 10
-99.5215390309
 20
13.09999999999999
 30
0.0
 11
-101.6
 21
14.3
 31
0.0
  0
LINE
  5
72C
  8
SK3
 10
-99.5215390309
 20
-13.10000000000002
 30
0.0
 11
-95.25
 21
-13.10000000000002
 31
0.0
  0
LINE
  5
72D
  8
SK3
 10
-95.25
 20
13.09999999999999
 30
0.0
 11
-99.5215390309
 21
13.09999999999999
 31
0.0
  0
LINE
  5
72E
  8
SK3
 10
-95.25
 20
-11.09980000000002
 30
0.0
 11
-5.249999999999986
 21
-11.09980000000002
 31
0.0
  0
LINE
  5
72F
  8
SK3
 10
-5.250000000000001
 20
11.09979999999999
 30
0.0
 11
-95.25
 21
11.09979999999999
 31
0.0
  0
LINE
  5
760
  8
SK3
 10
-57.1
 20
12.69999999999999
 30
0.0
 11
-95.25
 21
12.69999999999999
 31
0.0
  0
LINE
  5
761
  8
SK3
 10
-95.25
 20
-12.69999999999999
 30
0.0
 11
-57.1
 21
-12.69999999999999
 31
0.0
  0
LINE
  5
774
  8
SK3
 10
-57.1
 20
12.69999999999999
 30
0.0
 11
-57.1
 21
-12.69999999999999
 31
0.0
  0
LINE
  5
777
  8
SK4
 10
0.0
 20
0.0
 30
0.0
 11
-101.6
 21
0.0
 31
0.0
  0
LINE
  5
779
  8
4
 10
0.0
 20
0.0
 30
0.0
 11
152.3999999999999
 21
0.0
 31
0.0
  0
INSERT
  5
77B
  8
SK6
  2
*U2
 10
-44.10380399683656
 20
-23.39313954296377
 30
0.0
  0
INSERT
  5
78D
  8
SK6
  2
*U5
 10
17.55665382414153
 20
-2.560320993650734
 30
0.0
  0
LINE
  5
793
  8
0
 10
3.0
 20
3.0
 30
0.0
 11
-3.0
 21
-3.0
 31
0.0
  0
LINE
  5
794
  8
0
 10
-3.0
 20
3.0
 30
0.0
 11
3.0
 21
-3.0
 31
0.0
  0
CIRCLE
  5
795
  8
0
 10
0.0
 20
0.0
 30
0.0
 40
2.5
  0
LINE
  5
796
  8
0
 10
155.3999999999999
 20
-3.0
 30
0.0
 11
149.3999999999999
 21
3.0
 31
0.0
  0
CIRCLE
  5
797
  8
0
 10
152.3999999999999
 20
0.0
 30
0.0
 40
2.5
  0
LINE
  5
798
  8
0
 10
149.3999999999999
 20
-3.0
 30
0.0
 11
155.3999999999999
 21
3.0
 31
0.0
  0
LINE
  5
799
  8
NOCUT
 10
0.7999999999999972
 20
34.62500000000001
 30
0.0
 11
0.2999999999999972
 21
34.62500000000001
 31
0.0
  0
LINE
  5
79C
  8
NOCUT
 10
0.2999999999999972
 20
34.62500000000001
 30
0.0
 11
0.0
 21
34.92499999999999
 31
0.0
  0
LINE
  5
79D
  8
NOCUT
 10
120.4465728752998
 20
34.92500000000001
 30
0.0
 11
20.05
 21
34.92499999999999
 31
0.0
  0
ARC
  5
79E
  8
NOCUT
 10
0.7999999999999972
 20
35.62500000000001
 30
0.0
 40
1.0
 50
270.0
 51
314.4270040008
  0
ARC
  5
79F
  8
NOCUT
 10
20.05
 20
35.92499999999999
 30
0.0
 40
1.0
 50
180.0
 51
270.0
  0
LINE
  5
7A0
  8
NOCUT
 10
12.55499999999999
 20
45.64499999999999
 30
0.0
 11
9.704999999999998
 21
45.64499999999999
 31
0.0
  0
ARC
  5
7A1
  8
NOCUT
 10
12.55499999999999
 20
46.14499999999999
 30
0.0
 40
0.5
 50
270.0
 51
0.0
  0
ARC
  5
7A2
  8
NOCUT
 10
9.704999999999998
 20
46.14499999999999
 30
0.0
 40
0.5
 50
180.0
 51
270.0
  0
ARC
  5
7A3
  8
NOCUT
 10
2.299999999999997
 20
48.4125
 30
0.0
 40
0.7999999999999972
 50
90.0
 51
180.0
  0
ARC
  5
7A4
  8
NOCUT
 10
18.24999999999999
 20
48.4125
 30
0.0
 40
0.799999999999983
 50
0.0
 51
90.0
  0
LINE
  5
7A5
  8
NOCUT
 10
9.204999999999998
 20
46.43919780459999
 30
0.0
 11
7.603833230999996
 21
49.21250000000001
 31
0.0
  0
LINE
  5
7A6
  8
NOCUT
 10
14.65616676910001
 20
49.21250000000001
 30
0.0
 11
13.05499999999999
 21
46.43919780459999
 31
0.0
  0
LINE
  5
7A7
  8
NOCUT
 10
18.24999999999999
 20
49.21250000000001
 30
0.0
 11
14.65616676910001
 21
49.21250000000001
 31
0.0
  0
LINE
  5
7A8
  8
NOCUT
 10
7.603833230999996
 20
49.21250000000001
 30
0.0
 11
2.299999999999997
 21
49.21250000000001
 31
0.0
  0
LINE
  5
7AC
  8
NOCUT
 10
1.5
 20
48.4125
 30
0.0
 11
1.499999999999929
 21
34.91085715714565
 31
0.0
  0
LINE
  5
7AD
  8
NOCUT
 10
19.04999999999997
 20
48.4125
 30
0.0
 11
19.05
 21
35.92499999999999
 31
0.0
  0
LINE
  5
7AE
  8
NOCUT
 10
9.204999999999998
 20
46.43919780459999
 30
0.0
 11
9.204999999999998
 21
46.14499999999999
 31
0.0
  0
LINE
  5
7AF
  8
NOCUT
 10
13.05499999999999
 20
46.43919780459999
 30
0.0
 11
13.05499999999999
 21
46.14499999999999
 31
0.0
  0
DIMENSION
  5
804
  8
SK2
  2
*D8
 10
152.3999999999999
 20
62.46215670356074
 30
0.0
 11
76.19999999999996
 21
64.33715670356074
 31
0.0
 70
    32
  3
ISO-25
 13
0.0
 23
34.92499999999998
 33
0.0
 14
152.3999999999999
 24
45.05000000000001
 34
0.0
1001
ACAD
1000
DSTYLE
1002
{
1070
   287
1070
     5
1070
   271
1070
     3
1070
   272
1070
     3
1070
   279
1070
     2
1002
}
  0
LINE
  5
8BF
  8
NOCUT
 10
0.0
 20
34.92499999999999
 30
0.0
 11
0.0
 21
0.0
 31
0.0
  0
LINE
  5
8C0
  8
NOCUT
 10
0.0
 20
0.0
 30
0.0
 11
152.3999999999999
 21
0.0
 31
0.0
  0
INSERT
  5
A17
  8
SK6
  2
_FILLED
 10
-20.78186483605847
 20
-31.89428358495073
 30
0.0
 41
3.5
 42
3.5
 43
3.5
 50
52.86965044919886
  0
POLYLINE
  5
A18
  8
SK6
 66
     1
 10
0.0
 20
0.0
 30
0.0
  0
VERTEX
  5
2561
  8
SK6
 10
-22.89457117648658
 20
-34.68470862768434
 30
0.0
  0
VERTEX
  5
2562
  8
SK6
 10
-48.02596493475846
 20
-67.87780752645074
 30
0.0
  0
VERTEX
  5
2563
  8
SK6
 10
-49.90096493475846
 20
-66.12780752645074
 30
0.0
  0
VERTEX
  5
2564
  8
SK6
 10
-53.40096493475846
 20
-66.12780752645074
 30
0.0
  0
SEQEND
  5
2A47
  8
SK6
  0
ARC
  5
AC7
  8
1
 10
20.04999999999998
 20
35.92499999999998
 30
0.0
 40
1.0
 50
180.0
 51
270.0
  0
ARC
  5
AC9
  8
1
 10
20.04999999999998
 20
-35.92500000000001
 30
0.0
 40
1.0
 50
90.0
 51
180.0
  0
ARC
  5
ACA
  8
1
 10
1.299999999999983
 20
35.125
 30
0.0
 40
0.5
 50
270.0
 51
293.5781784781994
  0
ARC
  5
ACB
  8
1
 10
1.299999999999983
 20
-35.125
 30
0.0
 40
0.500000000000009
 50
66.42182152180017
 51
90.0
  0
LINE
  5
ACC
  8
1
 10
120.4465728752998
 20
34.92500000000001
 30
0.0
 11
20.04999999999998
 21
34.92499999999998
 31
0.0
  0
LINE
  5
ACE
  8
1
 10
20.04999999999998
 20
-34.92500000000001
 30
0.0
 11
120.4465728752999
 21
-34.92500000000001
 31
0.0
  0
LINE
  5
ACF
  8
1
 10
0.0
 20
-34.92500000000001
 30
0.0
 11
0.2999999999999829
 21
-34.625
 31
0.0
  0
LINE
  5
AD0
  8
1
 10
0.2999999999999829
 20
34.625
 30
0.0
 11
0.0
 21
34.92499999999998
 31
0.0
  0
LINE
  5
AD5
  8
1
 10
1.299999999999983
 20
34.625
 30
0.0
 11
0.2999999999999829
 21
34.625
 31
0.0
  0
LINE
  5
AD6
  8
1
 10
0.2999999999999829
 20
-34.625
 30
0.0
 11
1.299999999999983
 21
-34.625
 31
0.0
  0
LINE
  5
ADB
  8
1
 10
14.65616694409999
 20
-47.282880439
 30
0.0
 11
14.68806954659999
 21
-47.29184187660002
 31
0.0
  0
LINE
  5
ADC
  8
1
 10
14.6561667691
 20
47.30816788690001
 30
0.0
 11
14.6561667691
 21
-47.2826327523
 31
0.0
  0
LINE
  5
ADD
  8
1
 10
14.7615962207
 20
47.3314147463
 30
0.0
 11
14.6561668942
 21
47.30816788690001
 31
0.0
  0
LINE
  5
ADE
  8
1
 10
18.25
 20
47.3314147463
 30
0.0
 11
14.7615962207
 21
47.3314147463
 31
0.0
  0
LINE
  5
ADF
  8
1
 10
14.68806954659999
 20
-47.29184187660002
 30
0.0
 11
18.25
 21
-47.29184187660002
 31
0.0
  0
LINE
  5
AE0
  8
1
 10
7.498403779400007
 20
47.3314147463
 30
0.0
 11
4.006414746699988
 21
47.3314147463
 31
0.0
  0
LINE
  5
AE1
  8
1
 10
7.603833105900009
 20
47.30816788690001
 30
0.0
 11
7.498403779400007
 21
47.3314147463
 31
0.0
  0
LINE
  5
AE2
  8
1
 10
7.603833230899994
 20
47.30844201400001
 30
0.0
 11
7.603833230899994
 21
-47.28288044160001
 31
0.0
  0
LINE
  5
AE3
  8
1
 10
7.571930453299984
 20
-47.29184187660002
 30
0.0
 11
7.603833055899997
 21
-47.282880439
 31
0.0
  0
LINE
  5
AE4
  8
1
 10
4.040356993800003
 20
-47.29184187660002
 30
0.0
 11
7.571930453299984
 21
-47.29184187660002
 31
0.0
  0
LINE
  5
AE5
  8
1
 10
2.300001405499984
 20
-46.74795901499999
 30
0.0
 11
4.040356993800003
 21
-47.29184189310001
 31
0.0
  0
LINE
  5
AE6
  8
1
 10
4.006414746699988
 20
47.33141476029999
 30
0.0
 11
2.299999765199999
 21
46.80267569
 31
0.0
  0
ARC
  5
AE7
  8
1
 10
2.557435939599998
 20
-45.59355264690001
 30
0.0
 40
1.184053137363273
 50
207.7147598986998
 51
257.3157095984005
  0
LINE
  5
AE8
  8
1
 10
1.50922466130001
 20
-46.14422037630001
 30
0.0
 11
1.5
 21
-46.01377680920001
 31
0.0
  0
LINE
  5
AE9
  8
1
 10
1.5
 20
-46.01377680920001
 30
0.0
 11
1.5
 21
46.01377680919998
 31
0.0
  0
ARC
  5
AEA
  8
1
 10
2.572884962100005
 20
45.72649004249999
 30
0.0
 40
1.111555736593689
 50
104.3436511600003
 51
164.8417645594994
  0
LINE
  5
AEB
  8
1
 10
9.204999995999998
 20
44.41431970880001
 30
0.0
 11
7.60383322749999
 21
47.3081678945
 31
0.0
  0
LINE
  5
AEC
  8
1
 10
9.204999999999984
 20
44.4143196734
 30
0.0
 11
9.204999999999984
 21
-44.387299867
 31
0.0
  0
LINE
  5
AED
  8
1
 10
7.603833226399985
 20
-47.28288044990001
 30
0.0
 11
9.2049999921
 21
-44.38762367050001
 31
0.0
  0
LINE
  5
AEE
  8
1
 10
14.65616677259999
 20
47.3081678945
 30
0.0
 11
13.05500000399999
 21
44.41431970880001
 31
0.0
  0
LINE
  5
AEF
  8
1
 10
13.05500000800001
 20
-44.38762367050001
 30
0.0
 11
14.65616677360001
 21
-47.28288044990001
 31
0.0
  0
LINE
  5
AF0
  8
1
 10
13.05500000000001
 20
44.41459195280001
 30
0.0
 11
13.05500000000001
 21
-44.38762365650001
 31
0.0
  0
ARC
  5
AF1
  8
1
 10
17.92302328310001
 20
46.41895288640001
 30
0.0
 40
1.127359624435328
 50
1.493363825500091
 51
43.53750291790048
  0
LINE
  5
AF2
  8
1
 10
19.04999999999998
 20
46.44833319130001
 30
0.0
 11
19.04999999999998
 21
-46.44833319130001
 31
0.0
  0
ARC
  5
AF3
  8
1
 10
17.91824827779999
 20
-46.4157978575
 30
0.0
 40
1.1322192847622
 50
319.2464850235001
 51
358.3533278529993
  0
ARC
  5
AF4
  8
1
 10
18.2616113983
 20
-46.25791326929999
 30
0.0
 40
1.033993805426882
 50
269.3565743835002
 51
299.8289453780985
  0
ARC
  5
AF5
  8
1
 10
18.2610591033
 20
46.41902767409999
 30
0.0
 40
0.9124540938653742
 50
58.31881226410037
 51
90.69445187719943
  0
ARC
  5
AF6
  8
1
 10
12.5158206966
 20
-44.1073442162
 30
0.0
 40
0.5397579791454132
 50
357.3466499737992
 51
85.83742202690154
  0
ARC
  5
AF7
  8
1
 10
12.54139279200001
 20
44.09944295630001
 30
0.0
 40
0.4858431210597904
 50
271.6049163143007
 51
333.441972537701
  0
POLYLINE
  5
AF8
  8
1
 66
     1
 10
0.0
 20
0.0
 30
0.0
  0
VERTEX
  5
2565
  8
1
 10
13.05500000000001
 20
44.14662312639999
 30
0.0
  0
VERTEX
  5
2566
  8
1
 10
13.03542892280001
 20
44.01594229719998
 30
0.0
  0
VERTEX
  5
2567
  8
1
 10
12.97787844319998
 20
43.88571451269999
 30
0.0
  0
SEQEND
  5
2A46
  8
1
  0
ARC
  5
AF9
  8
1
 10
9.744214343399989
 20
-44.10737531749999
 30
0.0
 40
0.5397915428070933
 50
94.16604783349855
 51
182.6498801657025
  0
POLYLINE
  5
AFA
  8
1
 66
     1
 10
0.0
 20
0.0
 30
0.0
  0
VERTEX
  5
2568
  8
1
 10
9.280099379399985
 20
43.88913247470001
 30
0.0
  0
VERTEX
  5
2569
  8
1
 10
9.224055884099982
 20
44.0177026321
 30
0.0
  0
VERTEX
  5
256A
  8
1
 10
9.204999999999984
 20
44.14662312639999
 30
0.0
  0
SEQEND
  5
2A45
  8
1
  0
ARC
  5
AFB
  8
1
 10
9.721350266000002
 20
44.10422581969999
 30
0.0
 40
0.4907078648052702
 50
206.0244317763009
 51
268.0905652222996
  0
LINE
  5
AFC
  8
1
 10
12.55500000000001
 20
43.613790424
 30
0.0
 11
9.704999999999984
 21
43.613790424
 31
0.0
  0
LINE
  5
AFD
  8
1
 10
9.704999999999984
 20
-43.5690100651
 30
0.0
 11
12.55500000000001
 21
-43.5690100651
 31
0.0
  0
LINE
  5
B00
  8
1
 10
0.2999999999999829
 20
34.625
 30
0.0
 11
0.2999999999999829
 21
-34.625
 31
0.0
  0
LINE
  5
B01
  8
1
 10
0.0
 20
34.92499999999998
 30
0.0
 11
0.0
 21
-34.92500000000001
 31
0.0
  0
LINE
  5
B04
  8
1
 10
14.68806954670001
 20
-47.29184187660002
 30
0.0
 11
14.65616694420001
 21
-47.282880439
 31
0.0
  0
LINE
  5
B1A
  8
3
 10
1.500000000000004
 20
37.72
 30
0.0
 11
19.04999999999998
 21
37.72
 31
0.0
  0
LINE
  5
B3B
  8
3
 10
1.5
 20
-35.30000000000001
 30
0.0
 11
19.26937525020018
 21
-35.30000000000001
 31
0.0
  0
LINE
  5
B42
  8
3
 10
26.97499999999999
 20
28.32499999999999
 30
0.0
 11
33.32499999999999
 21
28.32499999999999
 31
0.0
  0
LINE
  5
B43
  8
3
 10
20.625
 20
28.32499999999999
 30
0.0
 11
26.97499999999999
 21
28.32499999999999
 31
0.0
  0
LINE
  5
B44
  8
3
 10
11.375
 20
37.31999999999999
 30
0.0
 11
16.125
 21
37.31999999999999
 31
0.0
  0
LINE
  5
B45
  8
3
 10
6.625
 20
37.31999999999999
 30
0.0
 11
11.375
 21
37.31999999999999
 31
0.0
  0
LINE
  5
B55
  8
3
 10
20.625
 20
28.32499999999999
 30
0.0
 11
26.97499999999999
 21
24.50953506919998
 31
0.0
  0
LINE
  5
B56
  8
3
 10
26.97499999999999
 20
24.50953506919998
 30
0.0
 11
33.32499999999999
 21
28.32499999999999
 31
0.0
  0
LINE
  5
B57
  8
3
 10
20.625
 20
34.92499999999998
 30
0.0
 11
20.625
 21
28.32499999999999
 31
0.0
  0
LINE
  5
B58
  8
3
 10
33.32499999999999
 20
28.32499999999999
 30
0.0
 11
33.32499999999999
 21
34.92499999999998
 31
0.0
  0
LINE
  5
B59
  8
3
 10
6.625
 20
37.72
 30
0.0
 11
6.625
 21
37.31999999999999
 31
0.0
  0
LINE
  5
B5A
  8
3
 10
16.125
 20
37.31999999999999
 30
0.0
 11
16.125
 21
37.72
 31
0.0
  0
LINE
  5
B5B
  8
1
 10
20.04999999999998
 20
-34.92500000000001
 30
0.0
 11
20.04999999999998
 21
34.92499999999998
 31
0.0
  0
LINE
  5
B5C
  8
1
 10
1.299999999999983
 20
-34.625
 30
0.0
 11
1.299999999999983
 21
34.625
 31
0.0
  0
LINE
  5
B5F
  8
1
 10
12.55500000000001
 20
-43.00413183130001
 30
0.0
 11
12.55500000000001
 21
42.79577481850001
 31
0.0
  0
LINE
  5
B60
  8
1
 10
9.704999999999984
 20
-43.00421493109999
 30
0.0
 11
9.704999999999984
 21
42.7957705776
 31
0.0
  0
LINE
  5
B62
  8
1
 10
18.25
 20
47.3314147463
 30
0.0
 11
18.25
 21
-47.29184187660002
 31
0.0
  0
LINE
  5
B64
  8
1
 10
2.299999999999983
 20
-46.74795854910002
 30
0.0
 11
2.299999999999983
 21
46.80267576719999
 31
0.0
  0
LINE
  5
CD6
  8
1
 10
132.3999999999999
 20
-46.05
 30
0.0
 11
151.3999999999999
 21
-46.05
 31
0.0
  0
LINE
  5
CD8
  8
1
 10
151.3999999999999
 20
46.05000000000001
 30
0.0
 11
132.3999999999999
 21
46.05000000000001
 31
0.0
  0
ARC
  5
CD9
  8
1
 10
151.3999999999999
 20
-45.05
 30
0.0
 40
1.000000000000014
 50
270.0
 51
0.0
  0
ARC
  5
CDA
  8
1
 10
151.3999999999999
 20
45.05000000000001
 30
0.0
 40
1.0
 50
0.0
 51
90.0
  0
LINE
  5
CDB
  8
1
 10
132.3999999999999
 20
46.05000000000001
 30
0.0
 11
121.8607864377
 21
35.51078643759999
 31
0.0
  0
LINE
  5
CDC
  8
1
 10
121.8607864377
 20
-35.51078643760002
 30
0.0
 11
132.3999999999999
 21
-46.05
 31
0.0
  0
ARC
  5
CE1
  8
1
 10
120.4465728752999
 20
-36.92500000000001
 30
0.0
 40
2.0
 50
45.0
 51
90.0
  0
ARC
  5
CE2
  8
1
 10
120.4465728752999
 20
36.92500000000001
 30
0.0
 40
2.0
 50
270.0
 51
315.0
  0
LINE
  5
D01
  8
1
 10
152.3999999999999
 20
-41.28131
 30
0.0
 11
152.4285674554999
 21
-41.28131
 31
0.0
  0
LINE
  5
D02
  8
1
 10
152.4285674554999
 20
41.28130999999999
 30
0.0
 11
152.3999999999999
 21
41.28130999999999
 31
0.0
  0
LINE
  5
D03
  8
1
 10
152.3999999999999
 20
25.39868999999999
 30
0.0
 11
152.4285674554999
 21
25.39868999999999
 31
0.0
  0
LINE
  5
D20
  8
1
 10
132.3999999999999
 20
0.0
 30
0.0
 11
132.3999999999999
 21
46.05000000000001
 31
0.0
  0
LINE
  5
D21
  8
1
 10
132.3999999999999
 20
-46.05
 30
0.0
 11
132.3999999999999
 21
0.0
 31
0.0
  0
CIRCLE
  5
D22
  8
1
 10
142.3999999999999
 20
0.0
 30
0.0
 40
2.625000000000227
  0
LINE
  5
D23
  8
1
 10
152.3999999999999
 20
0.0
 30
0.0
 11
152.3999999999999
 21
45.05000000000001
 31
0.0
  0
LINE
  5
D24
  8
1
 10
152.3999999999999
 20
-45.05
 30
0.0
 11
152.3999999999999
 21
0.0
 31
0.0
  0
LINE
  5
D3D
  8
1
 10
141.1499999999999
 20
-0.7216878364999957
 30
0.0
 11
142.3999999999999
 21
-1.443375672999991
 31
0.0
  0
LINE
  5
D3E
  8
1
 10
143.6499999999999
 20
-0.7216878364999957
 30
0.0
 11
142.3999999999999
 21
-1.443375672999991
 31
0.0
  0
LINE
  5
D3F
  8
1
 10
143.6499999999999
 20
0.7216878364999957
 30
0.0
 11
143.6499999999999
 21
-0.7216878364999957
 31
0.0
  0
LINE
  5
D40
  8
1
 10
143.6499999999999
 20
0.7216878364999957
 30
0.0
 11
142.3999999999999
 21
1.443375672999991
 31
0.0
  0
LINE
  5
D41
  8
1
 10
141.1499999999999
 20
0.7216878364999957
 30
0.0
 11
142.3999999999999
 21
1.443375672999991
 31
0.0
  0
LINE
  5
D42
  8
1
 10
141.1499999999999
 20
0.7216878364999957
 30
0.0
 11
141.1499999999999
 21
-0.7216878364999957
 31
0.0
  0
CIRCLE
  5
D43
  8
1
 10
142.3999999999999
 20
0.0
 30
0.0
 40
2.055000000000014
  0
CIRCLE
  5
D44
  8
1
 10
142.3999999999999
 20
0.0
 30
0.0
 40
2.256103126841936
  0
CIRCLE
  5
D45
  8
1
 10
142.3999999999999
 20
0.0
 30
0.0
 40
2.500000000000227
  0
POLYLINE
  5
D46
  8
3
 66
     1
 10
0.0
 20
0.0
 30
0.0
  0
VERTEX
  5
256B
  8
3
 10
142.3999999999999
 20
-38.5031238963
 30
0.0
  0
VERTEX
  5
256C
  8
3
 10
141.5319102511999
 20
-38.5840677727
 30
0.0
  0
VERTEX
  5
256D
  8
3
 10
140.7617010266
 20
-38.8153950614
 30
0.0
  0
VERTEX
  5
256E
  8
3
 10
140.1753100628999
 20
-39.1655436706
 30
0.0
  0
VERTEX
  5
256F
  8
3
 10
139.8394093545999
 20
-39.5883651786
 30
0.0
  0
VERTEX
  5
2570
  8
3
 10
139.7924176451
 20
-40.0305592433
 30
0.0
  0
VERTEX
  5
2571
  8
3
 10
140.0387017674998
 20
-40.44144833200001
 30
0.0
  0
VERTEX
  5
2572
  8
3
 10
140.5505642489
 20
-40.7792510396
 30
0.0
  0
VERTEX
  5
2573
  8
3
 10
141.2715514443999
 20
-41.0126501507
 30
0.0
  0
VERTEX
  5
2574
  8
3
 10
142.1200409178999
 20
-41.12137624500001
 30
0.0
  0
VERTEX
  5
2575
  8
3
 10
142.9989828905
 20
-41.096876569
 30
0.0
  0
VERTEX
  5
2576
  8
3
 10
143.8098787037
 20
-40.94146195580001
 30
0.0
  0
VERTEX
  5
2577
  8
3
 10
144.4628879323
 20
-40.6673362488
 30
0.0
  0
VERTEX
  5
2578
  8
3
 10
144.8840553819999
 20
-40.29798987700001
 30
0.0
  0
VERTEX
  5
2579
  8
3
 10
145.0249114967999
 20
-39.8696877862
 30
0.0
  0
VERTEX
  5
257A
  8
3
 10
144.8702138545999
 20
-39.4290181738
 30
0.0
  0
VERTEX
  5
257B
  8
3
 10
144.4379038744999
 20
-39.02743925840001
 30
0.0
  0
VERTEX
  5
257C
  8
3
 10
143.7755690118
 20
-38.7155823472
 30
0.0
  0
VERTEX
  5
257D
  8
3
 10
142.9575140159
 20
-38.53599489160001
 30
0.0
  0
VERTEX
  5
257E
  8
3
 10
142.3999999999999
 20
-38.5031238963
 30
0.0
  0
SEQEND
  5
2A44
  8
3
  0
POLYLINE
  5
D49
  8
3
 66
     1
 10
0.0
 20
0.0
 30
0.0
  0
VERTEX
  5
257F
  8
3
 10
142.3999999999999
 20
41.1281238963
 30
0.0
  0
VERTEX
  5
2580
  8
3
 10
141.5319102511999
 20
41.06137380709998
 30
0.0
  0
VERTEX
  5
2581
  8
3
 10
140.7617010266
 20
40.8663951769
 30
0.0
  0
VERTEX
  5
2582
  8
3
 10
140.1753100628999
 20
40.55887768790001
 30
0.0
  0
VERTEX
  5
2583
  8
3
 10
139.8394093545999
 20
40.16629298230001
 30
0.0
  0
VERTEX
  5
2584
  8
3
 10
139.7924176451
 20
39.72866644390001
 30
0.0
  0
VERTEX
  5
2585
  8
3
 10
140.0387017674998
 20
39.29475933449999
 30
0.0
  0
VERTEX
  5
2586
  8
3
 10
140.5505642489
 20
38.9164004276
 30
0.0
  0
VERTEX
  5
2587
  8
3
 10
141.2715514443999
 20
38.6425807725
 30
0.0
  0
VERTEX
  5
2588
  8
3
 10
141.3175370205
 20
38.63546834619999
 30
0.0
  0
SEQEND
  5
2A43
  8
3
  0
POLYLINE
  5
D4A
  8
3
 66
     1
 10
0.0
 20
0.0
 30
0.0
  0
VERTEX
  5
2589
  8
3
 10
143.4785027753999
 20
38.6511732873
 30
0.0
  0
VERTEX
  5
258A
  8
3
 10
143.8098787037
 20
38.7272200898
 30
0.0
  0
VERTEX
  5
258B
  8
3
 10
144.4628879323
 20
39.04403147790001
 30
0.0
  0
VERTEX
  5
258C
  8
3
 10
144.8840553819999
 20
39.4494064342
 30
0.0
  0
VERTEX
  5
258D
  8
3
 10
145.0249114967999
 20
39.89124316440001
 30
0.0
  0
VERTEX
  5
258E
  8
3
 10
144.8702138545999
 20
40.31708827950001
 30
0.0
  0
VERTEX
  5
258F
  8
3
 10
144.4379038744999
 20
40.68200046869998
 30
0.0
  0
VERTEX
  5
2590
  8
3
 10
143.7755690118
 20
40.9513003289
 30
0.0
  0
VERTEX
  5
2591
  8
3
 10
142.9575140159
 20
41.10110758349998
 30
0.0
  0
VERTEX
  5
2592
  8
3
 10
142.3999999999999
 20
41.1281238963
 30
0.0
  0
SEQEND
  5
2A42
  8
3
  0
CIRCLE
  5
D4B
  8
3
 10
142.3999999999999
 20
0.0
 30
0.0
 40
2.099999999999909
  0
LINE
  5
D4D
  8
3
 10
142.9999999999998
 20
-2.012461179799999
 30
0.0
 11
142.9999999999998
 21
-2.5
 31
0.0
  0
LINE
  5
D4E
  8
3
 10
142.9999999999998
 20
2.5
 30
0.0
 11
142.9999999999998
 21
2.012461179699983
 31
0.0
  0
LINE
  5
D5C
  8
SK3
 10
-5.25
 20
0.0
 30
0.0
 11
-5.25
 21
11.09979999999999
 31
0.0
  0
LINE
  5
D5D
  8
SK3
 10
-5.25
 20
-11.09980000000002
 30
0.0
 11
-5.25
 21
0.0
 31
0.0
  0
LINE
  5
D5E
  8
SK3
 10
-4.761656058700055
 20
0.0
 30
0.0
 11
-4.761656058700055
 21
-8.731249999999989
 31
0.0
  0
LINE
  5
D5F
  8
SK3
 10
-4.761656058700055
 20
8.731249999999989
 30
0.0
 11
-4.761656058700055
 21
0.0
 31
0.0
  0
POLYLINE
  5
D63
  8
3
 66
     1
 10
0.0
 20
0.0
 30
0.0
  0
VERTEX
  5
2593
  8
3
 10
142.3999999999999
 20
-6.289519393100022
 30
0.0
  0
VERTEX
  5
2594
  8
3
 10
143.0836275222999
 20
-6.3705531409
 30
0.0
  0
VERTEX
  5
2595
  8
3
 10
143.6899821286
 20
-6.595509683200021
 30
0.0
  0
VERTEX
  5
2596
  8
3
 10
144.1634566777
 20
-6.926588517200003
 30
0.0
  0
VERTEX
  5
2597
  8
3
 10
144.4431502272999
 20
-7.307133325199999
 30
0.0
  0
VERTEX
  5
2598
  8
3
 10
144.4890324256999
 20
-7.666377669500008
 30
0.0
  0
VERTEX
  5
2599
  8
3
 10
144.3086125756
 20
-7.961289317299986
 30
0.0
  0
VERTEX
  5
259A
  8
3
 10
143.9225929487
 20
-8.1801650699
 30
0.0
  0
VERTEX
  5
259B
  8
3
 10
143.3576078878999
 20
-8.320700715599997
 30
0.0
  0
VERTEX
  5
259C
  8
3
 10
142.6786985690999
 20
-8.3841990313
 30
0.0
  0
VERTEX
  5
259D
  8
3
 10
141.9835403119999
 20
-8.377521035499996
 30
0.0
  0
VERTEX
  5
259E
  8
3
 10
141.3448975406
 20
-8.304028753900013
 30
0.0
  0
VERTEX
  5
259F
  8
3
 10
140.811252498
 20
-8.1540082649
 30
0.0
  0
VERTEX
  5
25A0
  8
3
 10
140.4444397400999
 20
-7.915059897800006
 30
0.0
  0
VERTEX
  5
25A1
  8
3
 10
140.3012374040998
 20
-7.597266773200005
 30
0.0
  0
VERTEX
  5
25A2
  8
3
 10
140.3913604378
 20
-7.236509536900002
 30
0.0
  0
VERTEX
  5
25A3
  8
3
 10
140.6953095009999
 20
-6.873328137899989
 30
0.0
  0
VERTEX
  5
25A4
  8
3
 10
141.1917888716999
 20
-6.554917776100012
 30
0.0
  0
VERTEX
  5
25A5
  8
3
 10
141.8350433761998
 20
-6.344519781200006
 30
0.0
  0
VERTEX
  5
25A6
  8
3
 10
142.3999999999999
 20
-6.289519393100022
 30
0.0
  0
SEQEND
  5
2A41
  8
3
  0
POLYLINE
  5
D64
  8
3
 66
     1
 10
0.0
 20
0.0
 30
0.0
  0
VERTEX
  5
25A7
  8
3
 10
142.3999999999999
 20
8.389519393099988
 30
0.0
  0
VERTEX
  5
25A8
  8
3
 10
143.0836275222999
 20
8.356164737
 30
0.0
  0
VERTEX
  5
25A9
  8
3
 10
143.6899821286
 20
8.25259933320001
 30
0.0
  0
VERTEX
  5
25AA
  8
3
 10
144.1634566777
 20
8.066860653999981
 30
0.0
  0
VERTEX
  5
25AB
  8
3
 10
144.4431502272999
 20
7.79245502149999
 30
0.0
  0
VERTEX
  5
25AC
  8
3
 10
144.4890324256999
 20
7.452033262700013
 30
0.0
  0
VERTEX
  5
25AD
  8
3
 10
144.3086125756
 20
7.085390900600004
 30
0.0
  0
VERTEX
  5
25AE
  8
3
 10
143.9225929487
 20
6.733890299099983
 30
0.0
  0
VERTEX
  5
25AF
  8
3
 10
143.3576078878999
 20
6.4517472295
 30
0.0
  0
VERTEX
  5
25B0
  8
3
 10
142.6786985690999
 20
6.302774733399986
 30
0.0
  0
VERTEX
  5
25B1
  8
3
 10
141.9835403119999
 20
6.319230159999989
 30
0.0
  0
VERTEX
  5
25B2
  8
3
 10
141.3448975406
 20
6.488330871500011
 30
0.0
  0
VERTEX
  5
25B3
  8
3
 10
140.811252498
 20
6.780734302799999
 30
0.0
  0
VERTEX
  5
25B4
  8
3
 10
140.4444397400999
 20
7.149694579999988
 30
0.0
  0
VERTEX
  5
25B5
  8
3
 10
140.3012374040998
 20
7.525186499699998
 30
0.0
  0
VERTEX
  5
25B6
  8
3
 10
140.3913604378
 20
7.849181642500014
 30
0.0
  0
VERTEX
  5
25B7
  8
3
 10
140.6953095009999
 20
8.099717269699994
 30
0.0
  0
VERTEX
  5
25B8
  8
3
 10
141.1917888716999
 20
8.27253993170001
 30
0.0
  0
VERTEX
  5
25B9
  8
3
 10
141.8350433761998
 20
8.367098336699996
 30
0.0
  0
VERTEX
  5
25BA
  8
3
 10
142.3999999999999
 20
8.389519393099988
 30
0.0
  0
SEQEND
  5
2A40
  8
3
  0
LINE
  5
D65
  8
3
 10
134.3999999999999
 20
-25.40525000000002
 30
0.0
 11
134.3999999999999
 21
-41.27475
 31
0.0
  0
LINE
  5
D66
  8
3
 10
134.3999999999999
 20
41.27474999999998
 30
0.0
 11
134.3999999999999
 21
25.40525
 31
0.0
  0
POLYLINE
  5
D6B
  8
3
 66
     1
 10
0.0
 20
0.0
 30
0.0
  0
VERTEX
  5
25BB
  8
3
 10
142.3999999999999
 20
39.60978110349998
 30
0.0
  0
VERTEX
  5
25BC
  8
3
 10
143.1586074989999
 20
39.53887694439999
 30
0.0
  0
VERTEX
  5
25BD
  8
3
 10
143.8147608517
 20
39.33574046659999
 30
0.0
  0
VERTEX
  5
25BE
  8
3
 10
144.2798429118998
 20
39.02780637710001
 30
0.0
  0
VERTEX
  5
25BF
  8
3
 10
144.4910417703
 20
38.6566628809
 30
0.0
  0
VERTEX
  5
25C0
  8
3
 10
144.4198338506999
 20
38.2724349639
 30
0.0
  0
VERTEX
  5
25C1
  8
3
 10
144.0758361772999
 20
37.92701473529999
 30
0.0
  0
VERTEX
  5
25C2
  8
3
 10
143.5055075420999
 20
37.667053111
 30
0.0
  0
VERTEX
  5
25C3
  8
3
 10
142.7858739874999
 20
37.5276593488
 30
0.0
  0
VERTEX
  5
25C4
  8
3
 10
142.0141260126
 20
37.5276593488
 30
0.0
  0
VERTEX
  5
25C5
  8
3
 10
141.294492458
 20
37.667053111
 30
0.0
  0
VERTEX
  5
25C6
  8
3
 10
140.7241638226999
 20
37.92701473529999
 30
0.0
  0
VERTEX
  5
25C7
  8
3
 10
140.3801661493999
 20
38.2724349639
 30
0.0
  0
VERTEX
  5
25C8
  8
3
 10
140.3089582297999
 20
38.6566628809
 30
0.0
  0
VERTEX
  5
25C9
  8
3
 10
140.5201570881998
 20
39.02780637710001
 30
0.0
  0
VERTEX
  5
25CA
  8
3
 10
140.9852391483999
 20
39.33574046659999
 30
0.0
  0
VERTEX
  5
25CB
  8
3
 10
141.641392501
 20
39.53887694439999
 30
0.0
  0
VERTEX
  5
25CC
  8
3
 10
142.3999999999999
 20
39.60978110349998
 30
0.0
  0
SEQEND
  5
2A3F
  8
3
  0
POLYLINE
  5
D6C
  8
3
 66
     1
 10
0.0
 20
0.0
 30
0.0
  0
VERTEX
  5
25CD
  8
3
 10
142.9999999999998
 20
9.833601805200004
 30
0.0
  0
VERTEX
  5
25CE
  8
3
 10
143.6641973842998
 20
9.680117388899987
 30
0.0
  0
VERTEX
  5
25CF
  8
3
 10
144.1665938242
 20
9.627756632099988
 30
0.0
  0
VERTEX
  5
25D0
  8
3
 10
144.4162522232999
 20
9.726280179599996
 30
0.0
  0
VERTEX
  5
25D1
  8
3
 10
144.4995573365998
 20
9.981172159599993
 30
0.0
  0
VERTEX
  5
25D2
  8
3
 10
144.4157172317999
 20
10.31471616499999
 30
0.0
  0
VERTEX
  5
25D3
  8
3
 10
144.2043094918
 20
10.7066823669
 30
0.0
  0
VERTEX
  5
25D4
  8
3
 10
143.7342143668
 20
11.28744483060001
 30
0.0
  0
VERTEX
  5
25D5
  8
3
 10
143.1008053632
 20
11.79191228600001
 30
0.0
  0
VERTEX
  5
25D6
  8
3
 10
142.9999999999998
 20
11.846062985
 30
0.0
  0
SEQEND
  5
2A3E
  8
3
  0
POLYLINE
  5
D6D
  8
3
 66
     1
 10
0.0
 20
0.0
 30
0.0
  0
VERTEX
  5
25D7
  8
3
 10
142.9999999999998
 20
11.846062985
 30
0.0
  0
VERTEX
  5
25D8
  8
3
 10
142.7431127984999
 20
13.20647561429999
 30
0.0
  0
VERTEX
  5
25D9
  8
3
 10
142.9999999999998
 20
14.4151095007
 30
0.0
  0
SEQEND
  5
2A3D
  8
3
  0
POLYLINE
  5
D6E
  8
3
 66
     1
 10
0.0
 20
0.0
 30
0.0
  0
VERTEX
  5
25DA
  8
3
 10
142.9999999999998
 20
14.4151095007
 30
0.0
  0
VERTEX
  5
25DB
  8
3
 10
143.6641973842998
 20
14.56859391699999
 30
0.0
  0
VERTEX
  5
25DC
  8
3
 10
144.1665938242
 20
14.62095467379999
 30
0.0
  0
VERTEX
  5
25DD
  8
3
 10
144.4162522232999
 20
14.52243112639999
 30
0.0
  0
VERTEX
  5
25DE
  8
3
 10
144.4995573365998
 20
14.2675391464
 30
0.0
  0
VERTEX
  5
25DF
  8
3
 10
144.4157172317999
 20
13.933995141
 30
0.0
  0
VERTEX
  5
25E0
  8
3
 10
144.2043094918
 20
13.54202893900001
 30
0.0
  0
VERTEX
  5
25E1
  8
3
 10
143.7342143668
 20
12.96126647540001
 30
0.0
  0
VERTEX
  5
25E2
  8
3
 10
143.1008053632
 20
12.45679901989999
 30
0.0
  0
VERTEX
  5
25E3
  8
3
 10
142.9999999999998
 20
12.40264832099999
 30
0.0
  0
SEQEND
  5
2A3C
  8
3
  0
POLYLINE
  5
D6F
  8
3
 66
     1
 10
0.0
 20
0.0
 30
0.0
  0
VERTEX
  5
25E4
  8
3
 10
142.9999999999998
 20
12.40264832099999
 30
0.0
  0
VERTEX
  5
25E5
  8
3
 10
142.7431127984999
 20
11.04223569160001
 30
0.0
  0
VERTEX
  5
25E6
  8
3
 10
142.9999999999998
 20
9.833601805200004
 30
0.0
  0
SEQEND
  5
2A3B
  8
3
  0
POLYLINE
  5
D70
  8
3
 66
     1
 10
0.0
 20
0.0
 30
0.0
  0
VERTEX
  5
25E7
  8
3
 10
142.3999999999999
 20
-37.50978110350002
 30
0.0
  0
VERTEX
  5
25E8
  8
3
 10
143.1586074989999
 20
-37.58068526260001
 30
0.0
  0
VERTEX
  5
25E9
  8
3
 10
143.8147608517
 20
-37.78382174040001
 30
0.0
  0
VERTEX
  5
25EA
  8
3
 10
144.2798429118998
 20
-38.09175582990002
 30
0.0
  0
VERTEX
  5
25EB
  8
3
 10
144.4910417703
 20
-38.4628993261
 30
0.0
  0
VERTEX
  5
25EC
  8
3
 10
144.4198338506999
 20
-38.8471272431
 30
0.0
  0
VERTEX
  5
25ED
  8
3
 10
144.0758361772999
 20
-39.1925474717
 30
0.0
  0
VERTEX
  5
25EE
  8
3
 10
143.5055075420999
 20
-39.452509096
 30
0.0
  0
VERTEX
  5
25EF
  8
3
 10
142.7858739874999
 20
-39.5919028582
 30
0.0
  0
VERTEX
  5
25F0
  8
3
 10
142.0141260126
 20
-39.5919028582
 30
0.0
  0
VERTEX
  5
25F1
  8
3
 10
141.294492458
 20
-39.452509096
 30
0.0
  0
VERTEX
  5
25F2
  8
3
 10
140.7241638226999
 20
-39.1925474717
 30
0.0
  0
VERTEX
  5
25F3
  8
3
 10
140.3801661493999
 20
-38.8471272431
 30
0.0
  0
VERTEX
  5
25F4
  8
3
 10
140.3089582297999
 20
-38.4628993261
 30
0.0
  0
VERTEX
  5
25F5
  8
3
 10
140.5201570881998
 20
-38.09175582990002
 30
0.0
  0
VERTEX
  5
25F6
  8
3
 10
140.9852391483999
 20
-37.78382174040001
 30
0.0
  0
VERTEX
  5
25F7
  8
3
 10
141.641392501
 20
-37.58068526260001
 30
0.0
  0
VERTEX
  5
25F8
  8
3
 10
142.3999999999999
 20
-37.50978110350002
 30
0.0
  0
SEQEND
  5
2A3A
  8
3
  0
POLYLINE
  5
D71
  8
3
 66
     1
 10
0.0
 20
0.0
 30
0.0
  0
VERTEX
  5
25F9
  8
3
 10
142.9999999999998
 20
-12.40264832100002
 30
0.0
  0
VERTEX
  5
25FA
  8
3
 10
143.6641973842998
 20
-12.89175016360002
 30
0.0
  0
VERTEX
  5
25FB
  8
3
 10
144.1665938242
 20
-13.4855489048
 30
0.0
  0
VERTEX
  5
25FC
  8
3
 10
144.4162522232999
 20
-13.93529658290001
 30
0.0
  0
VERTEX
  5
25FD
  8
3
 10
144.4995573365998
 20
-14.31065515739999
 30
0.0
  0
VERTEX
  5
25FE
  8
3
 10
144.4157172317999
 20
-14.52296376639998
 30
0.0
  0
VERTEX
  5
25FF
  8
3
 10
144.2043094918
 20
-14.6164903195
 30
0.0
  0
VERTEX
  5
2600
  8
3
 10
143.7342143668
 20
-14.58295449209999
 30
0.0
  0
VERTEX
  5
2601
  8
3
 10
143.1008053632
 20
-14.4364130841
 30
0.0
  0
VERTEX
  5
2602
  8
3
 10
142.9999999999998
 20
-14.4151095007
 30
0.0
  0
SEQEND
  5
2A39
  8
3
  0
POLYLINE
  5
D72
  8
3
 66
     1
 10
0.0
 20
0.0
 30
0.0
  0
VERTEX
  5
2603
  8
3
 10
142.9999999999998
 20
-14.4151095007
 30
0.0
  0
VERTEX
  5
2604
  8
3
 10
142.7431127984999
 20
-13.11401599070001
 30
0.0
  0
VERTEX
  5
2605
  8
3
 10
142.9999999999998
 20
-11.846062985
 30
0.0
  0
SEQEND
  5
2A38
  8
3
  0
POLYLINE
  5
D73
  8
3
 66
     1
 10
0.0
 20
0.0
 30
0.0
  0
VERTEX
  5
2606
  8
3
 10
142.9999999999998
 20
-11.846062985
 30
0.0
  0
VERTEX
  5
2607
  8
3
 10
143.6641973842998
 20
-11.3569611424
 30
0.0
  0
VERTEX
  5
2608
  8
3
 10
144.1665938242
 20
-10.76316240120002
 30
0.0
  0
VERTEX
  5
2609
  8
3
 10
144.4162522232999
 20
-10.31341472309998
 30
0.0
  0
VERTEX
  5
260A
  8
3
 10
144.4995573365998
 20
-9.938056148499982
 30
0.0
  0
VERTEX
  5
260B
  8
3
 10
144.4157172317999
 20
-9.725747539600007
 30
0.0
  0
VERTEX
  5
260C
  8
3
 10
144.2043094918
 20
-9.632220986499988
 30
0.0
  0
VERTEX
  5
260D
  8
3
 10
143.7342143668
 20
-9.665756813900003
 30
0.0
  0
VERTEX
  5
260E
  8
3
 10
143.1008053632
 20
-9.812298221899994
 30
0.0
  0
VERTEX
  5
260F
  8
3
 10
142.9999999999998
 20
-9.83360180530002
 30
0.0
  0
SEQEND
  5
2A37
  8
3
  0
POLYLINE
  5
D74
  8
3
 66
     1
 10
0.0
 20
0.0
 30
0.0
  0
VERTEX
  5
2610
  8
3
 10
142.9999999999998
 20
-9.83360180530002
 30
0.0
  0
VERTEX
  5
2611
  8
3
 10
142.7431127984999
 20
-11.13469531530001
 30
0.0
  0
VERTEX
  5
2612
  8
3
 10
142.9999999999998
 20
-12.40264832100002
 30
0.0
  0
SEQEND
  5
2A36
  8
3
  0
LINE
  5
D75
  8
3
 10
142.9999999999998
 20
14.4151095007
 30
0.0
 11
142.9999999999998
 21
11.846062985
 31
0.0
  0
LINE
  5
D76
  8
3
 10
142.9999999999998
 20
9.833601805200004
 30
0.0
 11
142.9999999999998
 21
11.846062985
 31
0.0
  0
LINE
  5
D77
  8
3
 10
142.9999999999998
 20
-11.846062985
 30
0.0
 11
142.9999999999998
 21
-14.4151095007
 31
0.0
  0
LINE
  5
D78
  8
3
 10
142.9999999999998
 20
-11.846062985
 30
0.0
 11
142.9999999999998
 21
-9.83360180530002
 31
0.0
  0
POLYLINE
  5
D79
  8
3
 66
     1
 10
0.0
 20
0.0
 30
0.0
  0
VERTEX
  5
2613
  8
3
 10
142.3999999999999
 20
40.3269444405
 30
0.0
  0
VERTEX
  5
2614
  8
3
 10
143.2523361066999
 20
40.25582957020001
 30
0.0
  0
VERTEX
  5
2615
  8
3
 10
144.0123083708
 20
40.05019135909998
 30
0.0
  0
VERTEX
  5
2616
  8
3
 10
144.5975620054999
 20
39.732313898
 30
0.0
  0
VERTEX
  5
2617
  8
3
 10
144.9446756981
 20
39.3366441423
 30
0.0
  0
VERTEX
  5
2618
  8
3
 10
145.0160342942
 20
38.90605904949999
 30
0.0
  0
VERTEX
  5
2619
  8
3
 10
144.8039049825
 20
38.48721919560001
 30
0.0
  0
VERTEX
  5
261A
  8
3
 10
144.3312752656
 20
38.12551237770001
 30
0.0
  0
VERTEX
  5
261B
  8
3
 10
143.6493619067999
 20
37.86013514199999
 30
0.0
  0
VERTEX
  5
261C
  8
3
 10
142.8320607995
 20
37.7198452298
 30
0.0
  0
VERTEX
  5
261D
  8
3
 10
141.9679392004999
 20
37.7198452298
 30
0.0
  0
VERTEX
  5
261E
  8
3
 10
141.1506380933
 20
37.86013514199999
 30
0.0
  0
VERTEX
  5
261F
  8
3
 10
140.4687247344999
 20
38.12551237770001
 30
0.0
  0
VERTEX
  5
2620
  8
3
 10
139.9960950175999
 20
38.48721919560001
 30
0.0
  0
VERTEX
  5
2621
  8
3
 10
139.7839657058999
 20
38.90605904949999
 30
0.0
  0
VERTEX
  5
2622
  8
3
 10
139.8553243018999
 20
39.3366441423
 30
0.0
  0
VERTEX
  5
2623
  8
3
 10
140.2024379946
 20
39.732313898
 30
0.0
  0
VERTEX
  5
2624
  8
3
 10
140.7876916291999
 20
40.05019135909998
 30
0.0
  0
VERTEX
  5
2625
  8
3
 10
141.5476638933999
 20
40.25582957020001
 30
0.0
  0
VERTEX
  5
2626
  8
3
 10
142.3999999999999
 20
40.3269444405
 30
0.0
  0
SEQEND
  5
2A35
  8
3
  0
POLYLINE
  5
D7A
  8
3
 66
     1
 10
0.0
 20
0.0
 30
0.0
  0
VERTEX
  5
2627
  8
3
 10
142.3999999999999
 20
-37.7019444405
 30
0.0
  0
VERTEX
  5
2628
  8
3
 10
143.2523361066999
 20
-37.77305931080002
 30
0.0
  0
VERTEX
  5
2629
  8
3
 10
144.0123083708
 20
-37.97869752190002
 30
0.0
  0
VERTEX
  5
262A
  8
3
 10
144.5975620054999
 20
-38.296574983
 30
0.0
  0
VERTEX
  5
262B
  8
3
 10
144.9446756981
 20
-38.6922447386
 30
0.0
  0
VERTEX
  5
262C
  8
3
 10
145.0160342942
 20
-39.1228298314
 30
0.0
  0
VERTEX
  5
262D
  8
3
 10
144.8039049825
 20
-39.54166968540001
 30
0.0
  0
VERTEX
  5
262E
  8
3
 10
144.3312752656
 20
-39.90337650330001
 30
0.0
  0
VERTEX
  5
262F
  8
3
 10
143.6493619067999
 20
-40.168753739
 30
0.0
  0
VERTEX
  5
2630
  8
3
 10
142.8320607995
 20
-40.3090436512
 30
0.0
  0
VERTEX
  5
2631
  8
3
 10
141.9679392004999
 20
-40.3090436512
 30
0.0
  0
VERTEX
  5
2632
  8
3
 10
141.1506380933
 20
-40.168753739
 30
0.0
  0
VERTEX
  5
2633
  8
3
 10
140.4687247344999
 20
-39.90337650330001
 30
0.0
  0
VERTEX
  5
2634
  8
3
 10
139.9960950175999
 20
-39.54166968540001
 30
0.0
  0
VERTEX
  5
2635
  8
3
 10
139.7839657058999
 20
-39.1228298314
 30
0.0
  0
VERTEX
  5
2636
  8
3
 10
139.8553243018999
 20
-38.6922447386
 30
0.0
  0
VERTEX
  5
2637
  8
3
 10
140.2024379946
 20
-38.296574983
 30
0.0
  0
VERTEX
  5
2638
  8
3
 10
140.7876916291999
 20
-37.97869752190002
 30
0.0
  0
VERTEX
  5
2639
  8
3
 10
141.5476638933999
 20
-37.77305931080002
 30
0.0
  0
VERTEX
  5
263A
  8
3
 10
142.3999999999999
 20
-37.7019444405
 30
0.0
  0
SEQEND
  5
2A34
  8
3
  0
LINE
  5
D7B
  8
3
 10
146.98599
 20
0.0
 30
0.0
 11
146.98599
 21
-9.525000000000006
 31
0.0
  0
LINE
  5
D7C
  8
3
 10
146.98599
 20
9.525000000000006
 30
0.0
 11
146.98599
 21
0.0
 31
0.0
  0
LINE
  5
D7D
  8
3
 10
146.05
 20
0.0
 30
0.0
 11
146.05
 21
-8.589010000000002
 31
0.0
  0
LINE
  5
D7E
  8
3
 10
146.05
 20
8.589010000000002
 30
0.0
 11
146.05
 21
0.0
 31
0.0
  0
LINE
  5
D88
  8
3
 10
137.9101603049999
 20
-25.39868999999999
 30
0.0
 11
137.9101603049999
 21
-41.28131
 31
0.0
  0
LINE
  5
D89
  8
3
 10
137.2720395106999
 20
-25.40869000000001
 30
0.0
 11
137.2720395106999
 21
-41.27131
 31
0.0
  0
LINE
  5
D8A
  8
3
 10
136.3472
 20
-25.65649999999999
 30
0.0
 11
136.3472
 21
-41.0235
 31
0.0
  0
LINE
  5
D8B
  8
3
 10
137.9101603049999
 20
41.28130999999999
 30
0.0
 11
137.9101603049999
 21
25.39868999999999
 31
0.0
  0
LINE
  5
D8C
  8
3
 10
136.3472
 20
41.02350000000001
 30
0.0
 11
136.3472
 21
25.65649999999999
 31
0.0
  0
LINE
  5
D8D
  8
3
 10
137.2720395106999
 20
41.27131
 30
0.0
 11
137.2720395106999
 21
25.40869000000001
 31
0.0
  0
POLYLINE
  5
D8E
  8
3
 66
     1
 10
0.0
 20
0.0
 30
0.0
  0
VERTEX
  5
263B
  8
3
 10
142.3999999999999
 20
-35.55931742159999
 30
0.0
  0
VERTEX
  5
263C
  8
3
 10
141.7303039934
 20
-35.49271201250002
 30
0.0
  0
VERTEX
  5
263D
  8
3
 10
141.1625631329999
 20
-35.30303585510001
 30
0.0
  0
VERTEX
  5
263E
  8
3
 10
140.7832108180999
 20
-35.0191654249
 30
0.0
  0
VERTEX
  5
263F
  8
3
 10
140.6499999999999
 20
-34.68431742159999
 30
0.0
  0
VERTEX
  5
2640
  8
3
 10
140.7832108180999
 20
-34.3494694183
 30
0.0
  0
VERTEX
  5
2641
  8
3
 10
141.1625631329999
 20
-34.065598988
 30
0.0
  0
VERTEX
  5
2642
  8
3
 10
141.7303039934
 20
-33.87592283060002
 30
0.0
  0
VERTEX
  5
2643
  8
3
 10
142.3999999999999
 20
-33.80931742159999
 30
0.0
  0
VERTEX
  5
2644
  8
3
 10
143.0696960066999
 20
-33.87592283060002
 30
0.0
  0
VERTEX
  5
2645
  8
3
 10
143.6374368671
 20
-34.065598988
 30
0.0
  0
VERTEX
  5
2646
  8
3
 10
144.0167891818999
 20
-34.3494694183
 30
0.0
  0
VERTEX
  5
2647
  8
3
 10
144.1499999999999
 20
-34.68431742159999
 30
0.0
  0
VERTEX
  5
2648
  8
3
 10
144.0167891818999
 20
-35.0191654249
 30
0.0
  0
VERTEX
  5
2649
  8
3
 10
143.6374368671
 20
-35.30303585510001
 30
0.0
  0
VERTEX
  5
264A
  8
3
 10
143.0696960066999
 20
-35.49271201250002
 30
0.0
  0
VERTEX
  5
264B
  8
3
 10
142.3999999999999
 20
-35.55931742159999
 30
0.0
  0
SEQEND
  5
2A33
  8
3
  0
POLYLINE
  5
D8F
  8
3
 66
     1
 10
0.0
 20
0.0
 30
0.0
  0
VERTEX
  5
264C
  8
3
 10
140.0832672565999
 20
-35.17512237459999
 30
0.0
  0
VERTEX
  5
264D
  8
3
 10
140.2229833366999
 20
-34.7789377421
 30
0.0
  0
VERTEX
  5
264E
  8
3
 10
140.6252797557
 20
-34.4305388233
 30
0.0
  0
VERTEX
  5
264F
  8
3
 10
141.2416336283
 20
-34.17194766980001
 30
0.0
  0
VERTEX
  5
2650
  8
3
 10
141.9977035809998
 20
-34.03435419089999
 30
0.0
  0
VERTEX
  5
2651
  8
3
 10
142.8022964190998
 20
-34.03435419089999
 30
0.0
  0
VERTEX
  5
2652
  8
3
 10
143.5583663717999
 20
-34.17194766980001
 30
0.0
  0
VERTEX
  5
2653
  8
3
 10
144.1747202442999
 20
-34.4305388233
 30
0.0
  0
VERTEX
  5
2654
  8
3
 10
144.5770166634
 20
-34.7789377421
 30
0.0
  0
VERTEX
  5
2655
  8
3
 10
144.7167327435
 20
-35.17512237459999
 30
0.0
  0
VERTEX
  5
2656
  8
3
 10
144.5770166634
 20
-35.571307007
 30
0.0
  0
VERTEX
  5
2657
  8
3
 10
144.1747202442999
 20
-35.9197059258
 30
0.0
  0
VERTEX
  5
2658
  8
3
 10
143.5583663717999
 20
-36.17829707940001
 30
0.0
  0
VERTEX
  5
2659
  8
3
 10
142.8022964190998
 20
-36.3158905583
 30
0.0
  0
VERTEX
  5
265A
  8
3
 10
141.9977035809998
 20
-36.3158905583
 30
0.0
  0
VERTEX
  5
265B
  8
3
 10
141.2416336283
 20
-36.17829707940001
 30
0.0
  0
VERTEX
  5
265C
  8
3
 10
140.6252797557
 20
-35.9197059258
 30
0.0
  0
VERTEX
  5
265D
  8
3
 10
140.2229833366999
 20
-35.571307007
 30
0.0
  0
VERTEX
  5
265E
  8
3
 10
140.0832672565999
 20
-35.17512237459999
 30
0.0
  0
SEQEND
  5
2A32
  8
3
  0
POLYLINE
  5
D90
  8
3
 66
     1
 10
0.0
 20
0.0
 30
0.0
  0
VERTEX
  5
265F
  8
3
 10
144.455
 20
-35.3338364601
 30
0.0
  0
VERTEX
  5
2660
  8
3
 10
144.3162304314999
 20
-35.70501227210002
 30
0.0
  0
VERTEX
  5
2661
  8
3
 10
143.9186633248999
 20
-36.02605873390002
 30
0.0
  0
VERTEX
  5
2662
  8
3
 10
143.3159923210999
 20
-36.2536167419
 30
0.0
  0
VERTEX
  5
2663
  8
3
 10
142.5896114787
 20
-36.3569533262
 30
0.0
  0
VERTEX
  5
2664
  8
3
 10
141.8376225553998
 20
-36.32211230839999
 30
0.0
  0
VERTEX
  5
2665
  8
3
 10
141.1615858223
 20
-36.15379916109998
 30
0.0
  0
VERTEX
  5
2666
  8
3
 10
140.6528037860999
 20
-35.87474550740001
 30
0.0
  0
VERTEX
  5
2667
  8
3
 10
140.3799902801998
 20
-35.52263908960001
 30
0.0
  0
VERTEX
  5
2668
  8
3
 10
140.3799902801998
 20
-35.14503383049998
 30
0.0
  0
VERTEX
  5
2669
  8
3
 10
140.6528037860999
 20
-34.79292741270001
 30
0.0
  0
VERTEX
  5
266A
  8
3
 10
141.1615858223
 20
-34.51387375900001
 30
0.0
  0
VERTEX
  5
266B
  8
3
 10
141.8376225553998
 20
-34.34556061170002
 30
0.0
  0
VERTEX
  5
266C
  8
3
 10
142.5896114787
 20
-34.31071959389999
 30
0.0
  0
VERTEX
  5
266D
  8
3
 10
143.3159923210999
 20
-34.41405617819998
 30
0.0
  0
VERTEX
  5
266E
  8
3
 10
143.9186633248999
 20
-34.6416141862
 30
0.0
  0
VERTEX
  5
266F
  8
3
 10
144.3162304314999
 20
-34.962660648
 30
0.0
  0
VERTEX
  5
2670
  8
3
 10
144.455
 20
-35.3338364601
 30
0.0
  0
SEQEND
  5
2A31
  8
3
  0
POLYLINE
  5
D91
  8
3
 66
     1
 10
0.0
 20
0.0
 30
0.0
  0
VERTEX
  5
2671
  8
3
 10
144.8999999999999
 20
-35.6036833547
 30
0.0
  0
VERTEX
  5
2672
  8
3
 10
144.7492315519999
 20
-36.0312085338
 30
0.0
  0
VERTEX
  5
2673
  8
3
 10
144.3151111077999
 20
-36.40716786680002
 30
0.0
  0
VERTEX
  5
2674
  8
3
 10
143.6499999999999
 20
-36.6862151094
 30
0.0
  0
VERTEX
  5
2675
  8
3
 10
142.8341204442
 20
-36.8346930459
 30
0.0
  0
VERTEX
  5
2676
  8
3
 10
141.9658795558999
 20
-36.8346930459
 30
0.0
  0
VERTEX
  5
2677
  8
3
 10
141.1499999999999
 20
-36.6862151094
 30
0.0
  0
VERTEX
  5
2678
  8
3
 10
140.4848888922
 20
-36.40716786680002
 30
0.0
  0
VERTEX
  5
2679
  8
3
 10
140.0507684481
 20
-36.0312085338
 30
0.0
  0
VERTEX
  5
267A
  8
3
 10
139.8999999999999
 20
-35.6036833547
 30
0.0
  0
VERTEX
  5
267B
  8
3
 10
140.0507684481
 20
-35.17615817550001
 30
0.0
  0
VERTEX
  5
267C
  8
3
 10
140.4848888922
 20
-34.8001988426
 30
0.0
  0
VERTEX
  5
267D
  8
3
 10
141.1499999999999
 20
-34.52115159990001
 30
0.0
  0
VERTEX
  5
267E
  8
3
 10
141.9658795558999
 20
-34.37267366340001
 30
0.0
  0
VERTEX
  5
267F
  8
3
 10
142.8341204442
 20
-34.37267366340001
 30
0.0
  0
VERTEX
  5
2680
  8
3
 10
143.6499999999999
 20
-34.52115159990001
 30
0.0
  0
VERTEX
  5
2681
  8
3
 10
144.3151111077999
 20
-34.8001988426
 30
0.0
  0
VERTEX
  5
2682
  8
3
 10
144.7492315519999
 20
-35.17615817550001
 30
0.0
  0
VERTEX
  5
2683
  8
3
 10
144.8999999999999
 20
-35.6036833547
 30
0.0
  0
SEQEND
  5
2A30
  8
3
  0
POLYLINE
  5
D92
  8
3
 66
     1
 10
0.0
 20
0.0
 30
0.0
  0
VERTEX
  5
2684
  8
3
 10
144.8999999999999
 20
-35.681722906
 30
0.0
  0
VERTEX
  5
2685
  8
3
 10
144.7492315519999
 20
-36.10924808520002
 30
0.0
  0
VERTEX
  5
2686
  8
3
 10
144.3151111077999
 20
-36.4852074181
 30
0.0
  0
VERTEX
  5
2687
  8
3
 10
143.6499999999999
 20
-36.76425466080002
 30
0.0
  0
VERTEX
  5
2688
  8
3
 10
142.8341204442
 20
-36.91273259730002
 30
0.0
  0
VERTEX
  5
2689
  8
3
 10
141.9658795558999
 20
-36.91273259730002
 30
0.0
  0
VERTEX
  5
268A
  8
3
 10
141.1499999999999
 20
-36.76425466080002
 30
0.0
  0
VERTEX
  5
268B
  8
3
 10
140.4848888922
 20
-36.4852074181
 30
0.0
  0
VERTEX
  5
268C
  8
3
 10
140.0507684481
 20
-36.10924808520002
 30
0.0
  0
VERTEX
  5
268D
  8
3
 10
139.8999999999999
 20
-35.681722906
 30
0.0
  0
VERTEX
  5
268E
  8
3
 10
140.0507684481
 20
-35.2541977269
 30
0.0
  0
VERTEX
  5
268F
  8
3
 10
140.4848888922
 20
-34.87823839390001
 30
0.0
  0
VERTEX
  5
2690
  8
3
 10
141.1499999999999
 20
-34.5991911513
 30
0.0
  0
VERTEX
  5
2691
  8
3
 10
141.9658795558999
 20
-34.4507132148
 30
0.0
  0
VERTEX
  5
2692
  8
3
 10
142.8341204442
 20
-34.4507132148
 30
0.0
  0
VERTEX
  5
2693
  8
3
 10
143.6499999999999
 20
-34.5991911513
 30
0.0
  0
VERTEX
  5
2694
  8
3
 10
144.3151111077999
 20
-34.87823839390001
 30
0.0
  0
VERTEX
  5
2695
  8
3
 10
144.7492315519999
 20
-35.2541977269
 30
0.0
  0
VERTEX
  5
2696
  8
3
 10
144.8999999999999
 20
-35.681722906
 30
0.0
  0
SEQEND
  5
2A2F
  8
3
  0
POLYLINE
  5
D93
  8
3
 66
     1
 10
0.0
 20
0.0
 30
0.0
  0
VERTEX
  5
2697
  8
3
 10
144.455
 20
-35.95156980069999
 30
0.0
  0
VERTEX
  5
2698
  8
3
 10
144.3162304313999
 20
-36.3227456127
 30
0.0
  0
VERTEX
  5
2699
  8
3
 10
143.9186633248999
 20
-36.6437920745
 30
0.0
  0
VERTEX
  5
269A
  8
3
 10
143.3159923210999
 20
-36.87135008249999
 30
0.0
  0
VERTEX
  5
269B
  8
3
 10
142.5896114787
 20
-36.97468666679998
 30
0.0
  0
VERTEX
  5
269C
  8
3
 10
141.8376225553998
 20
-36.93984564900001
 30
0.0
  0
VERTEX
  5
269D
  8
3
 10
141.1615858223
 20
-36.77153250169999
 30
0.0
  0
VERTEX
  5
269E
  8
3
 10
140.6528037860999
 20
-36.49247884800002
 30
0.0
  0
VERTEX
  5
269F
  8
3
 10
140.3799902801998
 20
-36.14037243019999
 30
0.0
  0
VERTEX
  5
26A0
  8
3
 10
140.3799902801998
 20
-35.76276717109999
 30
0.0
  0
VERTEX
  5
26A1
  8
3
 10
140.6528037860999
 20
-35.41066075330002
 30
0.0
  0
VERTEX
  5
26A2
  8
3
 10
141.1615858223
 20
-35.13160709959999
 30
0.0
  0
VERTEX
  5
26A3
  8
3
 10
141.8376225553998
 20
-34.96329395230001
 30
0.0
  0
VERTEX
  5
26A4
  8
3
 10
142.5896114787
 20
-34.9284529345
 30
0.0
  0
VERTEX
  5
26A5
  8
3
 10
143.3159923210999
 20
-35.0317895188
 30
0.0
  0
VERTEX
  5
26A6
  8
3
 10
143.9186633248999
 20
-35.25934752680001
 30
0.0
  0
VERTEX
  5
26A7
  8
3
 10
144.3162304313999
 20
-35.5803939887
 30
0.0
  0
VERTEX
  5
26A8
  8
3
 10
144.455
 20
-35.95156980069999
 30
0.0
  0
SEQEND
  5
2A2E
  8
3
  0
POLYLINE
  5
D94
  8
3
 66
     1
 10
0.0
 20
0.0
 30
0.0
  0
VERTEX
  5
26A9
  8
3
 10
144.8999999999999
 20
-36.22141669530001
 30
0.0
  0
VERTEX
  5
26AA
  8
3
 10
144.7492315519999
 20
-36.64894187440001
 30
0.0
  0
VERTEX
  5
26AB
  8
3
 10
144.3151111077999
 20
-37.02490120740001
 30
0.0
  0
VERTEX
  5
26AC
  8
3
 10
143.6499999999999
 20
-37.30394845000001
 30
0.0
  0
VERTEX
  5
26AD
  8
3
 10
142.8341204442
 20
-37.45242638650001
 30
0.0
  0
VERTEX
  5
26AE
  8
3
 10
141.9658795558999
 20
-37.45242638650001
 30
0.0
  0
VERTEX
  5
26AF
  8
3
 10
141.1499999999999
 20
-37.30394845000001
 30
0.0
  0
VERTEX
  5
26B0
  8
3
 10
140.4848888922
 20
-37.02490120740001
 30
0.0
  0
VERTEX
  5
26B1
  8
3
 10
140.0507684481
 20
-36.64894187440001
 30
0.0
  0
VERTEX
  5
26B2
  8
3
 10
139.8999999999999
 20
-36.22141669530001
 30
0.0
  0
VERTEX
  5
26B3
  8
3
 10
140.0507684481
 20
-35.79389151610002
 30
0.0
  0
VERTEX
  5
26B4
  8
3
 10
140.4848888922
 20
-35.41793218320001
 30
0.0
  0
VERTEX
  5
26B5
  8
3
 10
141.1499999999999
 20
-35.13888494060001
 30
0.0
  0
VERTEX
  5
26B6
  8
3
 10
141.9658795558999
 20
-34.99040700400002
 30
0.0
  0
VERTEX
  5
26B7
  8
3
 10
142.8341204442
 20
-34.99040700400002
 30
0.0
  0
VERTEX
  5
26B8
  8
3
 10
143.6499999999999
 20
-35.13888494060001
 30
0.0
  0
VERTEX
  5
26B9
  8
3
 10
144.3151111077999
 20
-35.41793218320001
 30
0.0
  0
VERTEX
  5
26BA
  8
3
 10
144.7492315519999
 20
-35.79389151610002
 30
0.0
  0
VERTEX
  5
26BB
  8
3
 10
144.8999999999999
 20
-36.22141669530001
 30
0.0
  0
SEQEND
  5
2A2D
  8
3
  0
POLYLINE
  5
D95
  8
3
 66
     1
 10
0.0
 20
0.0
 30
0.0
  0
VERTEX
  5
26BC
  8
3
 10
144.8999999999999
 20
-36.29945624660002
 30
0.0
  0
VERTEX
  5
26BD
  8
3
 10
144.7492315519999
 20
-36.72698142580001
 30
0.0
  0
VERTEX
  5
26BE
  8
3
 10
144.3151111077999
 20
-37.10294075870002
 30
0.0
  0
VERTEX
  5
26BF
  8
3
 10
143.6499999999999
 20
-37.3819880014
 30
0.0
  0
VERTEX
  5
26C0
  8
3
 10
142.8341204442
 20
-37.5304659379
 30
0.0
  0
VERTEX
  5
26C1
  8
3
 10
141.9658795558999
 20
-37.5304659379
 30
0.0
  0
VERTEX
  5
26C2
  8
3
 10
141.1499999999999
 20
-37.3819880014
 30
0.0
  0
VERTEX
  5
26C3
  8
3
 10
140.4848888922
 20
-37.10294075870002
 30
0.0
  0
VERTEX
  5
26C4
  8
3
 10
140.0507684481
 20
-36.72698142580001
 30
0.0
  0
VERTEX
  5
26C5
  8
3
 10
139.8999999999999
 20
-36.29945624660002
 30
0.0
  0
VERTEX
  5
26C6
  8
3
 10
140.0507684481
 20
-35.87193106749999
 30
0.0
  0
VERTEX
  5
26C7
  8
3
 10
140.4848888922
 20
-35.49597173450002
 30
0.0
  0
VERTEX
  5
26C8
  8
3
 10
141.1499999999999
 20
-35.21692449189999
 30
0.0
  0
VERTEX
  5
26C9
  8
3
 10
141.9658795558999
 20
-35.06844655539999
 30
0.0
  0
VERTEX
  5
26CA
  8
3
 10
142.8341204442
 20
-35.06844655539999
 30
0.0
  0
VERTEX
  5
26CB
  8
3
 10
143.6499999999999
 20
-35.21692449189999
 30
0.0
  0
VERTEX
  5
26CC
  8
3
 10
144.3151111077999
 20
-35.49597173450002
 30
0.0
  0
VERTEX
  5
26CD
  8
3
 10
144.7492315519999
 20
-35.87193106749999
 30
0.0
  0
VERTEX
  5
26CE
  8
3
 10
144.8999999999999
 20
-36.29945624660002
 30
0.0
  0
SEQEND
  5
2A2C
  8
3
  0
POLYLINE
  5
D96
  8
3
 66
     1
 10
0.0
 20
0.0
 30
0.0
  0
VERTEX
  5
26CF
  8
3
 10
144.455
 20
-36.5693031413
 30
0.0
  0
VERTEX
  5
26D0
  8
3
 10
144.3162304313999
 20
-36.94047895329999
 30
0.0
  0
VERTEX
  5
26D1
  8
3
 10
143.9186633248999
 20
-37.26152541509998
 30
0.0
  0
VERTEX
  5
26D2
  8
3
 10
143.3159923210999
 20
-37.4890834231
 30
0.0
  0
VERTEX
  5
26D3
  8
3
 10
142.5896114787
 20
-37.59242000739999
 30
0.0
  0
VERTEX
  5
26D4
  8
3
 10
141.8376225553998
 20
-37.55757898960002
 30
0.0
  0
VERTEX
  5
26D5
  8
3
 10
141.1615858223
 20
-37.38926584230001
 30
0.0
  0
VERTEX
  5
26D6
  8
3
 10
140.6528037860999
 20
-37.1102121886
 30
0.0
  0
VERTEX
  5
26D7
  8
3
 10
140.3799902801998
 20
-36.7581057708
 30
0.0
  0
VERTEX
  5
26D8
  8
3
 10
140.3799902801998
 20
-36.38050051170001
 30
0.0
  0
VERTEX
  5
26D9
  8
3
 10
140.6528037860999
 20
-36.0283940939
 30
0.0
  0
VERTEX
  5
26DA
  8
3
 10
141.1615858223
 20
-35.7493404402
 30
0.0
  0
VERTEX
  5
26DB
  8
3
 10
141.8376225553998
 20
-35.58102729289999
 30
0.0
  0
VERTEX
  5
26DC
  8
3
 10
142.5896114787
 20
-35.54618627510001
 30
0.0
  0
VERTEX
  5
26DD
  8
3
 10
143.3159923210999
 20
-35.64952285940001
 30
0.0
  0
VERTEX
  5
26DE
  8
3
 10
143.9186633248999
 20
-35.8770808674
 30
0.0
  0
VERTEX
  5
26DF
  8
3
 10
144.3162304313999
 20
-36.19812732930001
 30
0.0
  0
VERTEX
  5
26E0
  8
3
 10
144.455
 20
-36.5693031413
 30
0.0
  0
SEQEND
  5
2A2B
  8
3
  0
POLYLINE
  5
D97
  8
3
 66
     1
 10
0.0
 20
0.0
 30
0.0
  0
VERTEX
  5
26E1
  8
3
 10
144.8999999999999
 20
-36.83915003589999
 30
0.0
  0
VERTEX
  5
26E2
  8
3
 10
144.7492315519999
 20
-37.26667521500002
 30
0.0
  0
VERTEX
  5
26E3
  8
3
 10
144.3151111077999
 20
-37.64263454799999
 30
0.0
  0
VERTEX
  5
26E4
  8
3
 10
143.6499999999999
 20
-37.92168179060002
 30
0.0
  0
VERTEX
  5
26E5
  8
3
 10
142.8341204442
 20
-38.07015972720001
 30
0.0
  0
VERTEX
  5
26E6
  8
3
 10
141.9658795558999
 20
-38.07015972720001
 30
0.0
  0
VERTEX
  5
26E7
  8
3
 10
141.1499999999999
 20
-37.92168179060002
 30
0.0
  0
VERTEX
  5
26E8
  8
3
 10
140.4848888922
 20
-37.64263454799999
 30
0.0
  0
VERTEX
  5
26E9
  8
3
 10
140.0507684481
 20
-37.26667521500002
 30
0.0
  0
VERTEX
  5
26EA
  8
3
 10
139.8999999999999
 20
-36.83915003589999
 30
0.0
  0
VERTEX
  5
26EB
  8
3
 10
140.0507684481
 20
-36.4116248567
 30
0.0
  0
VERTEX
  5
26EC
  8
3
 10
140.4848888922
 20
-36.03566552379999
 30
0.0
  0
VERTEX
  5
26ED
  8
3
 10
141.1499999999999
 20
-35.75661828120002
 30
0.0
  0
VERTEX
  5
26EE
  8
3
 10
141.9658795558999
 20
-35.6081403446
 30
0.0
  0
VERTEX
  5
26EF
  8
3
 10
142.8341204442
 20
-35.6081403446
 30
0.0
  0
VERTEX
  5
26F0
  8
3
 10
143.6499999999999
 20
-35.75661828120002
 30
0.0
  0
VERTEX
  5
26F1
  8
3
 10
144.3151111077999
 20
-36.03566552379999
 30
0.0
  0
VERTEX
  5
26F2
  8
3
 10
144.7492315519999
 20
-36.4116248567
 30
0.0
  0
VERTEX
  5
26F3
  8
3
 10
144.8999999999999
 20
-36.83915003589999
 30
0.0
  0
SEQEND
  5
2A2A
  8
3
  0
POLYLINE
  5
D98
  8
3
 66
     1
 10
0.0
 20
0.0
 30
0.0
  0
VERTEX
  5
26F4
  8
3
 10
144.8999999999999
 20
-36.9171895872
 30
0.0
  0
VERTEX
  5
26F5
  8
3
 10
144.7492315519999
 20
-37.34471476639999
 30
0.0
  0
VERTEX
  5
26F6
  8
3
 10
144.3151111077999
 20
-37.72067409940001
 30
0.0
  0
VERTEX
  5
26F7
  8
3
 10
143.6499999999999
 20
-37.99972134199999
 30
0.0
  0
VERTEX
  5
26F8
  8
3
 10
142.8341204442
 20
-38.14819927849999
 30
0.0
  0
VERTEX
  5
26F9
  8
3
 10
141.9658795558999
 20
-38.14819927849999
 30
0.0
  0
VERTEX
  5
26FA
  8
3
 10
141.1499999999999
 20
-37.99972134199999
 30
0.0
  0
VERTEX
  5
26FB
  8
3
 10
140.4848888922
 20
-37.72067409940001
 30
0.0
  0
VERTEX
  5
26FC
  8
3
 10
140.0507684481
 20
-37.34471476639999
 30
0.0
  0
VERTEX
  5
26FD
  8
3
 10
139.8999999999999
 20
-36.9171895872
 30
0.0
  0
VERTEX
  5
26FE
  8
3
 10
140.0507684481
 20
-36.4896644081
 30
0.0
  0
VERTEX
  5
26FF
  8
3
 10
140.4848888922
 20
-36.1137050751
 30
0.0
  0
VERTEX
  5
2700
  8
3
 10
141.1499999999999
 20
-35.8346578325
 30
0.0
  0
VERTEX
  5
2701
  8
3
 10
141.9658795558999
 20
-35.686179896
 30
0.0
  0
VERTEX
  5
2702
  8
3
 10
142.8341204442
 20
-35.686179896
 30
0.0
  0
VERTEX
  5
2703
  8
3
 10
143.6499999999999
 20
-35.8346578325
 30
0.0
  0
VERTEX
  5
2704
  8
3
 10
144.3151111077999
 20
-36.1137050751
 30
0.0
  0
VERTEX
  5
2705
  8
3
 10
144.7492315519999
 20
-36.4896644081
 30
0.0
  0
VERTEX
  5
2706
  8
3
 10
144.8999999999999
 20
-36.9171895872
 30
0.0
  0
SEQEND
  5
2A29
  8
3
  0
POLYLINE
  5
D99
  8
3
 66
     1
 10
0.0
 20
0.0
 30
0.0
  0
VERTEX
  5
2707
  8
3
 10
144.455
 20
-37.18703648190001
 30
0.0
  0
VERTEX
  5
2708
  8
3
 10
144.3162304314999
 20
-37.5582122939
 30
0.0
  0
VERTEX
  5
2709
  8
3
 10
143.9186633248999
 20
-37.87925875569999
 30
0.0
  0
VERTEX
  5
270A
  8
3
 10
143.3159923210999
 20
-38.10681676370001
 30
0.0
  0
VERTEX
  5
270B
  8
3
 10
142.5896114787
 20
-38.21015334800001
 30
0.0
  0
VERTEX
  5
270C
  8
3
 10
141.8376225553998
 20
-38.1753123302
 30
0.0
  0
VERTEX
  5
270D
  8
3
 10
141.1615858223
 20
-38.00699918290002
 30
0.0
  0
VERTEX
  5
270E
  8
3
 10
140.6528037860999
 20
-37.72794552919999
 30
0.0
  0
VERTEX
  5
270F
  8
3
 10
140.3799902801998
 20
-37.37583911140001
 30
0.0
  0
VERTEX
  5
2710
  8
3
 10
140.3799902801998
 20
-36.99823385230002
 30
0.0
  0
VERTEX
  5
2711
  8
3
 10
140.6528037860999
 20
-36.64612743449999
 30
0.0
  0
VERTEX
  5
2712
  8
3
 10
141.1615858223
 20
-36.36707378080001
 30
0.0
  0
VERTEX
  5
2713
  8
3
 10
141.8376225553998
 20
-36.1987606335
 30
0.0
  0
VERTEX
  5
2714
  8
3
 10
142.5896114787
 20
-36.1639196157
 30
0.0
  0
VERTEX
  5
2715
  8
3
 10
143.3159923210999
 20
-36.26725620000002
 30
0.0
  0
VERTEX
  5
2716
  8
3
 10
143.9186633248999
 20
-36.49481420800001
 30
0.0
  0
VERTEX
  5
2717
  8
3
 10
144.3162304314999
 20
-36.81586066990002
 30
0.0
  0
VERTEX
  5
2718
  8
3
 10
144.455
 20
-37.18703648190001
 30
0.0
  0
SEQEND
  5
2A28
  8
3
  0
POLYLINE
  5
D9A
  8
3
 66
     1
 10
0.0
 20
0.0
 30
0.0
  0
VERTEX
  5
2719
  8
3
 10
144.8999999999999
 20
-37.4568833765
 30
0.0
  0
VERTEX
  5
271A
  8
3
 10
144.7492315519999
 20
-37.8844085556
 30
0.0
  0
VERTEX
  5
271B
  8
3
 10
144.3151111077999
 20
-38.2603678886
 30
0.0
  0
VERTEX
  5
271C
  8
3
 10
143.6499999999999
 20
-38.5394151312
 30
0.0
  0
VERTEX
  5
271D
  8
3
 10
142.8341204442
 20
-38.6878930678
 30
0.0
  0
VERTEX
  5
271E
  8
3
 10
141.9658795558999
 20
-38.6878930678
 30
0.0
  0
VERTEX
  5
271F
  8
3
 10
141.1499999999999
 20
-38.5394151312
 30
0.0
  0
VERTEX
  5
2720
  8
3
 10
140.4848888922
 20
-38.2603678886
 30
0.0
  0
VERTEX
  5
2721
  8
3
 10
140.0507684481
 20
-37.8844085556
 30
0.0
  0
VERTEX
  5
2722
  8
3
 10
139.8999999999999
 20
-37.4568833765
 30
0.0
  0
VERTEX
  5
2723
  8
3
 10
140.0507684481
 20
-37.02935819729998
 30
0.0
  0
VERTEX
  5
2724
  8
3
 10
140.4848888922
 20
-36.6533988644
 30
0.0
  0
VERTEX
  5
2725
  8
3
 10
141.1499999999999
 20
-36.3743516218
 30
0.0
  0
VERTEX
  5
2726
  8
3
 10
141.9658795558999
 20
-36.22587368519999
 30
0.0
  0
VERTEX
  5
2727
  8
3
 10
142.8341204442
 20
-36.22587368519999
 30
0.0
  0
VERTEX
  5
2728
  8
3
 10
143.6499999999999
 20
-36.3743516218
 30
0.0
  0
VERTEX
  5
2729
  8
3
 10
144.3151111077999
 20
-36.6533988644
 30
0.0
  0
VERTEX
  5
272A
  8
3
 10
144.7492315519999
 20
-37.02935819729998
 30
0.0
  0
VERTEX
  5
272B
  8
3
 10
144.8999999999999
 20
-37.4568833765
 30
0.0
  0
SEQEND
  5
2A27
  8
3
  0
POLYLINE
  5
D9B
  8
3
 66
     1
 10
0.0
 20
0.0
 30
0.0
  0
VERTEX
  5
272C
  8
3
 10
144.8999999999999
 20
-37.53492292779998
 30
0.0
  0
VERTEX
  5
272D
  8
3
 10
144.7492315519999
 20
-37.962448107
 30
0.0
  0
VERTEX
  5
272E
  8
3
 10
144.3151111077999
 20
-38.33840744
 30
0.0
  0
VERTEX
  5
272F
  8
3
 10
143.6499999999999
 20
-38.6174546826
 30
0.0
  0
VERTEX
  5
2730
  8
3
 10
142.8341204442
 20
-38.7659326191
 30
0.0
  0
VERTEX
  5
2731
  8
3
 10
141.9658795558999
 20
-38.7659326191
 30
0.0
  0
VERTEX
  5
2732
  8
3
 10
141.1499999999999
 20
-38.6174546826
 30
0.0
  0
VERTEX
  5
2733
  8
3
 10
140.4848888922
 20
-38.33840744
 30
0.0
  0
VERTEX
  5
2734
  8
3
 10
140.0507684481
 20
-37.962448107
 30
0.0
  0
VERTEX
  5
2735
  8
3
 10
139.8999999999999
 20
-37.53492292779998
 30
0.0
  0
VERTEX
  5
2736
  8
3
 10
140.0507684481
 20
-37.10739774870001
 30
0.0
  0
VERTEX
  5
2737
  8
3
 10
140.4848888922
 20
-36.73143841569998
 30
0.0
  0
VERTEX
  5
2738
  8
3
 10
141.1499999999999
 20
-36.45239117310001
 30
0.0
  0
VERTEX
  5
2739
  8
3
 10
141.9658795558999
 20
-36.30391323660001
 30
0.0
  0
VERTEX
  5
273A
  8
3
 10
142.8341204442
 20
-36.30391323660001
 30
0.0
  0
VERTEX
  5
273B
  8
3
 10
143.6499999999999
 20
-36.45239117310001
 30
0.0
  0
VERTEX
  5
273C
  8
3
 10
144.3151111077999
 20
-36.73143841569998
 30
0.0
  0
VERTEX
  5
273D
  8
3
 10
144.7492315519999
 20
-37.10739774870001
 30
0.0
  0
VERTEX
  5
273E
  8
3
 10
144.8999999999999
 20
-37.53492292779998
 30
0.0
  0
SEQEND
  5
2A26
  8
3
  0
POLYLINE
  5
D9C
  8
3
 66
     1
 10
0.0
 20
0.0
 30
0.0
  0
VERTEX
  5
273F
  8
3
 10
144.455
 20
-37.80476982250002
 30
0.0
  0
VERTEX
  5
2740
  8
3
 10
144.3162304314999
 20
-38.17594563450001
 30
0.0
  0
VERTEX
  5
2741
  8
3
 10
143.9186633248999
 20
-38.4969920963
 30
0.0
  0
VERTEX
  5
2742
  8
3
 10
143.3159923212
 20
-38.72455010430001
 30
0.0
  0
VERTEX
  5
2743
  8
3
 10
142.5896114787
 20
-38.8278866886
 30
0.0
  0
VERTEX
  5
2744
  8
3
 10
141.8376225553998
 20
-38.7930456708
 30
0.0
  0
VERTEX
  5
2745
  8
3
 10
141.1615858223
 20
-38.6247325235
 30
0.0
  0
VERTEX
  5
2746
  8
3
 10
140.6528037860999
 20
-38.3456788698
 30
0.0
  0
VERTEX
  5
2747
  8
3
 10
140.3799902801998
 20
-37.99357245200002
 30
0.0
  0
VERTEX
  5
2748
  8
3
 10
140.3799902801998
 20
-37.6159671929
 30
0.0
  0
VERTEX
  5
2749
  8
3
 10
140.6528037860999
 20
-37.2638607751
 30
0.0
  0
VERTEX
  5
274A
  8
3
 10
141.1615858223
 20
-36.9848071214
 30
0.0
  0
VERTEX
  5
274B
  8
3
 10
141.8376225553998
 20
-36.81649397410001
 30
0.0
  0
VERTEX
  5
274C
  8
3
 10
142.5896114787
 20
-36.78165295630001
 30
0.0
  0
VERTEX
  5
274D
  8
3
 10
143.3159923212
 20
-36.8849895406
 30
0.0
  0
VERTEX
  5
274E
  8
3
 10
143.9186633248999
 20
-37.11254754859999
 30
0.0
  0
VERTEX
  5
274F
  8
3
 10
144.3162304314999
 20
-37.4335940105
 30
0.0
  0
VERTEX
  5
2750
  8
3
 10
144.455
 20
-37.80476982250002
 30
0.0
  0
SEQEND
  5
2A25
  8
3
  0
POLYLINE
  5
D9D
  8
3
 66
     1
 10
0.0
 20
0.0
 30
0.0
  0
VERTEX
  5
2751
  8
3
 10
144.8999999999999
 20
-38.07461671710001
 30
0.0
  0
VERTEX
  5
2752
  8
3
 10
144.7492315519999
 20
-38.5021418963
 30
0.0
  0
VERTEX
  5
2753
  8
3
 10
144.3151111077999
 20
-38.8781012292
 30
0.0
  0
VERTEX
  5
2754
  8
3
 10
143.6499999999999
 20
-39.1571484718
 30
0.0
  0
VERTEX
  5
2755
  8
3
 10
142.8341204442
 20
-39.3056264084
 30
0.0
  0
VERTEX
  5
2756
  8
3
 10
141.9658795558999
 20
-39.3056264084
 30
0.0
  0
VERTEX
  5
2757
  8
3
 10
141.1499999999999
 20
-39.1571484718
 30
0.0
  0
VERTEX
  5
2758
  8
3
 10
140.4848888922
 20
-38.8781012292
 30
0.0
  0
VERTEX
  5
2759
  8
3
 10
140.0507684481
 20
-38.5021418963
 30
0.0
  0
VERTEX
  5
275A
  8
3
 10
139.8999999999999
 20
-38.07461671710001
 30
0.0
  0
VERTEX
  5
275B
  8
3
 10
140.0507684481
 20
-37.6470915379
 30
0.0
  0
VERTEX
  5
275C
  8
3
 10
140.4848888922
 20
-37.27113220500001
 30
0.0
  0
VERTEX
  5
275D
  8
3
 10
141.1499999999999
 20
-36.99208496239999
 30
0.0
  0
VERTEX
  5
275E
  8
3
 10
141.9658795558999
 20
-36.8436070258
 30
0.0
  0
VERTEX
  5
275F
  8
3
 10
142.8341204442
 20
-36.8436070258
 30
0.0
  0
VERTEX
  5
2760
  8
3
 10
143.6499999999999
 20
-36.99208496239999
 30
0.0
  0
VERTEX
  5
2761
  8
3
 10
144.3151111077999
 20
-37.27113220500001
 30
0.0
  0
VERTEX
  5
2762
  8
3
 10
144.7492315519999
 20
-37.6470915379
 30
0.0
  0
VERTEX
  5
2763
  8
3
 10
144.8999999999999
 20
-38.07461671710001
 30
0.0
  0
SEQEND
  5
2A24
  8
3
  0
POLYLINE
  5
D9E
  8
3
 66
     1
 10
0.0
 20
0.0
 30
0.0
  0
VERTEX
  5
2764
  8
3
 10
144.8999999999999
 20
-38.15265626849998
 30
0.0
  0
VERTEX
  5
2765
  8
3
 10
144.7492315519999
 20
-38.58018144760001
 30
0.0
  0
VERTEX
  5
2766
  8
3
 10
144.3151111077999
 20
-38.95614078060001
 30
0.0
  0
VERTEX
  5
2767
  8
3
 10
143.6499999999999
 20
-39.2351880232
 30
0.0
  0
VERTEX
  5
2768
  8
3
 10
142.8341204442
 20
-39.3836659597
 30
0.0
  0
VERTEX
  5
2769
  8
3
 10
141.9658795558999
 20
-39.3836659597
 30
0.0
  0
VERTEX
  5
276A
  8
3
 10
141.1499999999999
 20
-39.2351880232
 30
0.0
  0
VERTEX
  5
276B
  8
3
 10
140.4848888922
 20
-38.95614078060001
 30
0.0
  0
VERTEX
  5
276C
  8
3
 10
140.0507684481
 20
-38.58018144760001
 30
0.0
  0
VERTEX
  5
276D
  8
3
 10
139.8999999999999
 20
-38.15265626849998
 30
0.0
  0
VERTEX
  5
276E
  8
3
 10
140.0507684481
 20
-37.72513108930002
 30
0.0
  0
VERTEX
  5
276F
  8
3
 10
140.4848888922
 20
-37.3491717563
 30
0.0
  0
VERTEX
  5
2770
  8
3
 10
141.1499999999999
 20
-37.07012451370002
 30
0.0
  0
VERTEX
  5
2771
  8
3
 10
141.9658795558999
 20
-36.92164657720002
 30
0.0
  0
VERTEX
  5
2772
  8
3
 10
142.8341204442
 20
-36.92164657720002
 30
0.0
  0
VERTEX
  5
2773
  8
3
 10
143.6499999999999
 20
-37.07012451370002
 30
0.0
  0
VERTEX
  5
2774
  8
3
 10
144.3151111077999
 20
-37.3491717563
 30
0.0
  0
VERTEX
  5
2775
  8
3
 10
144.7492315519999
 20
-37.72513108930002
 30
0.0
  0
VERTEX
  5
2776
  8
3
 10
144.8999999999999
 20
-38.15265626849998
 30
0.0
  0
SEQEND
  5
2A23
  8
3
  0
POLYLINE
  5
D9F
  8
3
 66
     1
 10
0.0
 20
0.0
 30
0.0
  0
VERTEX
  5
2777
  8
3
 10
144.455
 20
-38.4225031631
 30
0.0
  0
VERTEX
  5
2778
  8
3
 10
144.3162304314999
 20
-38.79367897510001
 30
0.0
  0
VERTEX
  5
2779
  8
3
 10
143.9186633248999
 20
-39.1147254369
 30
0.0
  0
VERTEX
  5
277A
  8
3
 10
143.3159923212
 20
-39.3422834449
 30
0.0
  0
VERTEX
  5
277B
  8
3
 10
142.5896114787
 20
-39.4456200292
 30
0.0
  0
VERTEX
  5
277C
  8
3
 10
141.8376225553998
 20
-39.41077901140001
 30
0.0
  0
VERTEX
  5
277D
  8
3
 10
141.1615858223
 20
-39.2424658641
 30
0.0
  0
VERTEX
  5
277E
  8
3
 10
140.6528037860999
 20
-38.96341221040001
 30
0.0
  0
VERTEX
  5
277F
  8
3
 10
140.3799902801998
 20
-38.61130579260001
 30
0.0
  0
VERTEX
  5
2780
  8
3
 10
140.3799902801998
 20
-38.23370053349998
 30
0.0
  0
VERTEX
  5
2781
  8
3
 10
140.6528037860999
 20
-37.88159411570001
 30
0.0
  0
VERTEX
  5
2782
  8
3
 10
141.1615858223
 20
-37.60254046200001
 30
0.0
  0
VERTEX
  5
2783
  8
3
 10
141.8376225553998
 20
-37.4342273147
 30
0.0
  0
VERTEX
  5
2784
  8
3
 10
142.5896114787
 20
-37.39938629689999
 30
0.0
  0
VERTEX
  5
2785
  8
3
 10
143.3159923212
 20
-37.50272288119999
 30
0.0
  0
VERTEX
  5
2786
  8
3
 10
143.9186633248999
 20
-37.7302808892
 30
0.0
  0
VERTEX
  5
2787
  8
3
 10
144.3162304314999
 20
-38.05132735109999
 30
0.0
  0
VERTEX
  5
2788
  8
3
 10
144.455
 20
-38.4225031631
 30
0.0
  0
SEQEND
  5
2A22
  8
3
  0
POLYLINE
  5
DA0
  8
3
 66
     1
 10
0.0
 20
0.0
 30
0.0
  0
VERTEX
  5
2789
  8
3
 10
144.8999999999999
 20
-38.6923500577
 30
0.0
  0
VERTEX
  5
278A
  8
3
 10
144.7492315519999
 20
-39.1198752369
 30
0.0
  0
VERTEX
  5
278B
  8
3
 10
144.3151111077999
 20
-39.4958345698
 30
0.0
  0
VERTEX
  5
278C
  8
3
 10
143.6499999999999
 20
-39.7748818124
 30
0.0
  0
VERTEX
  5
278D
  8
3
 10
142.8341204442
 20
-39.923359749
 30
0.0
  0
VERTEX
  5
278E
  8
3
 10
141.9658795558999
 20
-39.923359749
 30
0.0
  0
VERTEX
  5
278F
  8
3
 10
141.1499999999999
 20
-39.7748818124
 30
0.0
  0
VERTEX
  5
2790
  8
3
 10
140.4848888922
 20
-39.4958345698
 30
0.0
  0
VERTEX
  5
2791
  8
3
 10
140.0507684481
 20
-39.1198752369
 30
0.0
  0
VERTEX
  5
2792
  8
3
 10
139.8999999999999
 20
-38.6923500577
 30
0.0
  0
VERTEX
  5
2793
  8
3
 10
140.0507684481
 20
-38.26482487850001
 30
0.0
  0
VERTEX
  5
2794
  8
3
 10
140.4848888922
 20
-37.8888655456
 30
0.0
  0
VERTEX
  5
2795
  8
3
 10
141.1499999999999
 20
-37.609818303
 30
0.0
  0
VERTEX
  5
2796
  8
3
 10
141.9658795558999
 20
-37.46134036640001
 30
0.0
  0
VERTEX
  5
2797
  8
3
 10
142.8341204442
 20
-37.46134036640001
 30
0.0
  0
VERTEX
  5
2798
  8
3
 10
143.6499999999999
 20
-37.609818303
 30
0.0
  0
VERTEX
  5
2799
  8
3
 10
144.3151111077999
 20
-37.8888655456
 30
0.0
  0
VERTEX
  5
279A
  8
3
 10
144.7492315519999
 20
-38.26482487850001
 30
0.0
  0
VERTEX
  5
279B
  8
3
 10
144.8999999999999
 20
-38.6923500577
 30
0.0
  0
SEQEND
  5
2A21
  8
3
  0
POLYLINE
  5
DA1
  8
3
 66
     1
 10
0.0
 20
0.0
 30
0.0
  0
VERTEX
  5
279C
  8
3
 10
144.8999999999999
 20
-38.77038960910001
 30
0.0
  0
VERTEX
  5
279D
  8
3
 10
144.7492315519999
 20
-39.19791478820001
 30
0.0
  0
VERTEX
  5
279E
  8
3
 10
144.3151111077999
 20
-39.57387412120001
 30
0.0
  0
VERTEX
  5
279F
  8
3
 10
143.6499999999999
 20
-39.85292136380001
 30
0.0
  0
VERTEX
  5
27A0
  8
3
 10
142.8341204442
 20
-40.00139930030001
 30
0.0
  0
VERTEX
  5
27A1
  8
3
 10
141.9658795558999
 20
-40.00139930030001
 30
0.0
  0
VERTEX
  5
27A2
  8
3
 10
141.1499999999999
 20
-39.85292136380001
 30
0.0
  0
VERTEX
  5
27A3
  8
3
 10
140.4848888922
 20
-39.57387412120001
 30
0.0
  0
VERTEX
  5
27A4
  8
3
 10
140.0507684481
 20
-39.19791478820001
 30
0.0
  0
VERTEX
  5
27A5
  8
3
 10
139.8999999999999
 20
-38.77038960910001
 30
0.0
  0
VERTEX
  5
27A6
  8
3
 10
140.0507684481
 20
-38.3428644299
 30
0.0
  0
VERTEX
  5
27A7
  8
3
 10
140.4848888922
 20
-37.96690509690001
 30
0.0
  0
VERTEX
  5
27A8
  8
3
 10
141.1499999999999
 20
-37.68785785430001
 30
0.0
  0
VERTEX
  5
27A9
  8
3
 10
141.9658795558999
 20
-37.53937991780001
 30
0.0
  0
VERTEX
  5
27AA
  8
3
 10
142.8341204442
 20
-37.53937991780001
 30
0.0
  0
VERTEX
  5
27AB
  8
3
 10
143.6499999999999
 20
-37.68785785430001
 30
0.0
  0
VERTEX
  5
27AC
  8
3
 10
144.3151111077999
 20
-37.96690509690001
 30
0.0
  0
VERTEX
  5
27AD
  8
3
 10
144.7492315519999
 20
-38.3428644299
 30
0.0
  0
VERTEX
  5
27AE
  8
3
 10
144.8999999999999
 20
-38.77038960910001
 30
0.0
  0
SEQEND
  5
2A20
  8
3
  0
POLYLINE
  5
DA2
  8
3
 66
     1
 10
0.0
 20
0.0
 30
0.0
  0
VERTEX
  5
27AF
  8
3
 10
144.455
 20
-39.0402365037
 30
0.0
  0
VERTEX
  5
27B0
  8
3
 10
144.3162304314999
 20
-39.41141231570001
 30
0.0
  0
VERTEX
  5
27B1
  8
3
 10
143.9186633248999
 20
-39.7324587775
 30
0.0
  0
VERTEX
  5
27B2
  8
3
 10
143.3159923212
 20
-39.9600167855
 30
0.0
  0
VERTEX
  5
27B3
  8
3
 10
142.5896114787
 20
-40.0633533698
 30
0.0
  0
VERTEX
  5
27B4
  8
3
 10
141.8376225553998
 20
-40.02851235200001
 30
0.0
  0
VERTEX
  5
27B5
  8
3
 10
141.1615858223
 20
-39.86019920470001
 30
0.0
  0
VERTEX
  5
27B6
  8
3
 10
140.6528037860999
 20
-39.58114555100001
 30
0.0
  0
VERTEX
  5
27B7
  8
3
 10
140.3799902801998
 20
-39.2290391332
 30
0.0
  0
VERTEX
  5
27B8
  8
3
 10
140.3799902801998
 20
-38.8514338741
 30
0.0
  0
VERTEX
  5
27B9
  8
3
 10
140.6528037860999
 20
-38.49932745630002
 30
0.0
  0
VERTEX
  5
27BA
  8
3
 10
141.1615858223
 20
-38.22027380270001
 30
0.0
  0
VERTEX
  5
27BB
  8
3
 10
141.8376225553998
 20
-38.05196065530001
 30
0.0
  0
VERTEX
  5
27BC
  8
3
 10
142.5896114787
 20
-38.0171196375
 30
0.0
  0
VERTEX
  5
27BD
  8
3
 10
143.3159923212
 20
-38.1204562218
 30
0.0
  0
VERTEX
  5
27BE
  8
3
 10
143.9186633248999
 20
-38.34801422980001
 30
0.0
  0
VERTEX
  5
27BF
  8
3
 10
144.3162304314999
 20
-38.6690606917
 30
0.0
  0
VERTEX
  5
27C0
  8
3
 10
144.455
 20
-39.0402365037
 30
0.0
  0
SEQEND
  5
2A1F
  8
3
  0
POLYLINE
  5
DA3
  8
3
 66
     1
 10
0.0
 20
0.0
 30
0.0
  0
VERTEX
  5
27C1
  8
3
 10
144.8999999999999
 20
-39.31008339830001
 30
0.0
  0
VERTEX
  5
27C2
  8
3
 10
144.7492315519999
 20
-39.7376085775
 30
0.0
  0
VERTEX
  5
27C3
  8
3
 10
144.3151111077999
 20
-40.11356791040001
 30
0.0
  0
VERTEX
  5
27C4
  8
3
 10
143.6499999999999
 20
-40.39261515300001
 30
0.0
  0
VERTEX
  5
27C5
  8
3
 10
142.8341204442
 20
-40.5410930896
 30
0.0
  0
VERTEX
  5
27C6
  8
3
 10
141.9658795558999
 20
-40.5410930896
 30
0.0
  0
VERTEX
  5
27C7
  8
3
 10
141.1499999999999
 20
-40.39261515300001
 30
0.0
  0
VERTEX
  5
27C8
  8
3
 10
140.4848888922
 20
-40.11356791040001
 30
0.0
  0
VERTEX
  5
27C9
  8
3
 10
140.0507684481
 20
-39.7376085775
 30
0.0
  0
VERTEX
  5
27CA
  8
3
 10
139.8999999999999
 20
-39.31008339830001
 30
0.0
  0
VERTEX
  5
27CB
  8
3
 10
140.0507684481
 20
-38.88255821910001
 30
0.0
  0
VERTEX
  5
27CC
  8
3
 10
140.4848888922
 20
-38.50659888620001
 30
0.0
  0
VERTEX
  5
27CD
  8
3
 10
141.1499999999999
 20
-38.22755164360001
 30
0.0
  0
VERTEX
  5
27CE
  8
3
 10
141.9658795558999
 20
-38.07907370700002
 30
0.0
  0
VERTEX
  5
27CF
  8
3
 10
142.8341204442
 20
-38.07907370700002
 30
0.0
  0
VERTEX
  5
27D0
  8
3
 10
143.6499999999999
 20
-38.22755164360001
 30
0.0
  0
VERTEX
  5
27D1
  8
3
 10
144.3151111077999
 20
-38.50659888620001
 30
0.0
  0
VERTEX
  5
27D2
  8
3
 10
144.7492315519999
 20
-38.88255821910001
 30
0.0
  0
VERTEX
  5
27D3
  8
3
 10
144.8999999999999
 20
-39.31008339830001
 30
0.0
  0
SEQEND
  5
2A1E
  8
3
  0
LINE
  5
DA4
  8
3
 10
142.3999999999999
 20
-38.2638890906
 30
0.0
 11
142.3999999999999
 21
-40.6021576808
 31
0.0
  0
LINE
  5
DA5
  8
3
 10
143.6499999999999
 20
-37.90304517229998
 30
0.0
 11
142.3999999999999
 21
-38.2638890906
 31
0.0
  0
LINE
  5
DA6
  8
3
 10
141.1499999999999
 20
-37.90304517229998
 30
0.0
 11
142.3999999999999
 21
-38.2638890906
 31
0.0
  0
POLYLINE
  5
DA7
  8
3
 66
     1
 10
0.0
 20
0.0
 30
0.0
  0
VERTEX
  5
27D4
  8
3
 10
144.8999999999999
 20
-39.3881229497
 30
0.0
  0
VERTEX
  5
27D5
  8
3
 10
144.7492315519999
 20
-39.81564812880001
 30
0.0
  0
VERTEX
  5
27D6
  8
3
 10
144.3151111077999
 20
-40.1916074618
 30
0.0
  0
VERTEX
  5
27D7
  8
3
 10
143.6499999999999
 20
-40.4706547044
 30
0.0
  0
VERTEX
  5
27D8
  8
3
 10
142.8341204442
 20
-40.61913264090001
 30
0.0
  0
VERTEX
  5
27D9
  8
3
 10
141.9658795558999
 20
-40.61913264090001
 30
0.0
  0
VERTEX
  5
27DA
  8
3
 10
141.1499999999999
 20
-40.4706547044
 30
0.0
  0
VERTEX
  5
27DB
  8
3
 10
140.4848888922
 20
-40.1916074618
 30
0.0
  0
VERTEX
  5
27DC
  8
3
 10
140.0507684481
 20
-39.81564812880001
 30
0.0
  0
VERTEX
  5
27DD
  8
3
 10
139.8999999999999
 20
-39.3881229497
 30
0.0
  0
VERTEX
  5
27DE
  8
3
 10
140.0507684481
 20
-38.9605977705
 30
0.0
  0
VERTEX
  5
27DF
  8
3
 10
140.4848888922
 20
-38.58463843760001
 30
0.0
  0
VERTEX
  5
27E0
  8
3
 10
141.1499999999999
 20
-38.30559119489999
 30
0.0
  0
VERTEX
  5
27E1
  8
3
 10
141.9658795558999
 20
-38.15711325839999
 30
0.0
  0
VERTEX
  5
27E2
  8
3
 10
142.8341204442
 20
-38.15711325839999
 30
0.0
  0
VERTEX
  5
27E3
  8
3
 10
143.6499999999999
 20
-38.30559119489999
 30
0.0
  0
VERTEX
  5
27E4
  8
3
 10
144.3151111077999
 20
-38.58463843760001
 30
0.0
  0
VERTEX
  5
27E5
  8
3
 10
144.7492315519999
 20
-38.9605977705
 30
0.0
  0
VERTEX
  5
27E6
  8
3
 10
144.8999999999999
 20
-39.3881229497
 30
0.0
  0
SEQEND
  5
2A1D
  8
3
  0
POLYLINE
  5
DA8
  8
3
 66
     1
 10
0.0
 20
0.0
 30
0.0
  0
VERTEX
  5
27E7
  8
3
 10
144.455
 20
-39.6579698443
 30
0.0
  0
VERTEX
  5
27E8
  8
3
 10
144.3162304314999
 20
-40.0291456563
 30
0.0
  0
VERTEX
  5
27E9
  8
3
 10
143.9186633248999
 20
-40.3501921181
 30
0.0
  0
VERTEX
  5
27EA
  8
3
 10
143.3159923212
 20
-40.5777501262
 30
0.0
  0
VERTEX
  5
27EB
  8
3
 10
142.5896114787
 20
-40.68108671040001
 30
0.0
  0
VERTEX
  5
27EC
  8
3
 10
141.8376225553998
 20
-40.6462456926
 30
0.0
  0
VERTEX
  5
27ED
  8
3
 10
141.1615858223
 20
-40.47793254530001
 30
0.0
  0
VERTEX
  5
27EE
  8
3
 10
140.6528037860999
 20
-40.1988788916
 30
0.0
  0
VERTEX
  5
27EF
  8
3
 10
140.3799902801998
 20
-39.8467724738
 30
0.0
  0
VERTEX
  5
27F0
  8
3
 10
140.3799902801998
 20
-39.46916721470001
 30
0.0
  0
VERTEX
  5
27F1
  8
3
 10
140.6528037860999
 20
-39.11706079690001
 30
0.0
  0
VERTEX
  5
27F2
  8
3
 10
141.1615858223
 20
-38.8380071433
 30
0.0
  0
VERTEX
  5
27F3
  8
3
 10
141.8376225553998
 20
-38.6696939959
 30
0.0
  0
VERTEX
  5
27F4
  8
3
 10
142.5896114787
 20
-38.6348529781
 30
0.0
  0
VERTEX
  5
27F5
  8
3
 10
143.3159923212
 20
-38.73818956240001
 30
0.0
  0
VERTEX
  5
27F6
  8
3
 10
143.9186633248999
 20
-38.9657475704
 30
0.0
  0
VERTEX
  5
27F7
  8
3
 10
144.3162304314999
 20
-39.28679403230001
 30
0.0
  0
VERTEX
  5
27F8
  8
3
 10
144.455
 20
-39.6579698443
 30
0.0
  0
SEQEND
  5
2A1C
  8
3
  0
POLYLINE
  5
DA9
  8
3
 66
     1
 10
0.0
 20
0.0
 30
0.0
  0
VERTEX
  5
27F9
  8
3
 10
144.6561031268998
 20
-39.77991828090001
 30
0.0
  0
VERTEX
  5
27FA
  8
3
 10
144.5037535124998
 20
-39.3724190545
 30
0.0
  0
VERTEX
  5
27FB
  8
3
 10
144.0672803288999
 20
-39.0199548568
 30
0.0
  0
VERTEX
  5
27FC
  8
3
 10
143.4056316982999
 20
-38.7701279305
 30
0.0
  0
VERTEX
  5
27FD
  8
3
 10
142.6081669342998
 20
-38.65667878650001
 30
0.0
  0
VERTEX
  5
27FE
  8
3
 10
141.7825880724
 20
-38.69492936030001
 30
0.0
  0
VERTEX
  5
27FF
  8
3
 10
141.0403941125999
 20
-38.8797137
 30
0.0
  0
VERTEX
  5
2800
  8
3
 10
140.4818224616
 20
-39.18607565650001
 30
0.0
  0
VERTEX
  5
2801
  8
3
 10
140.1823113162
 20
-39.57263935
 30
0.0
  0
VERTEX
  5
2802
  8
3
 10
140.1823113162
 20
-39.98719721170001
 30
0.0
  0
VERTEX
  5
2803
  8
3
 10
140.4818224616
 20
-40.3737609052
 30
0.0
  0
VERTEX
  5
2804
  8
3
 10
141.0403941125999
 20
-40.6801228617
 30
0.0
  0
VERTEX
  5
2805
  8
3
 10
141.7825880724
 20
-40.8649072014
 30
0.0
  0
VERTEX
  5
2806
  8
3
 10
142.6081669342998
 20
-40.9031577752
 30
0.0
  0
VERTEX
  5
2807
  8
3
 10
143.4056316982999
 20
-40.7897086312
 30
0.0
  0
VERTEX
  5
2808
  8
3
 10
144.0672803288999
 20
-40.539881705
 30
0.0
  0
VERTEX
  5
2809
  8
3
 10
144.5037535124998
 20
-40.1874175072
 30
0.0
  0
VERTEX
  5
280A
  8
3
 10
144.6561031268998
 20
-39.77991828090001
 30
0.0
  0
SEQEND
  5
2A1B
  8
3
  0
LINE
  5
DAA
  8
3
 10
143.6499999999999
 20
-37.90304517229998
 30
0.0
 11
143.6499999999999
 21
-37.18135733579999
 31
0.0
  0
LINE
  5
DAB
  8
3
 10
143.6499999999999
 20
-37.90304517229998
 30
0.0
 11
143.6499999999999
 21
-40.2413137625
 31
0.0
  0
LINE
  5
DAC
  8
3
 10
141.1499999999999
 20
-37.90304517229998
 30
0.0
 11
141.1499999999999
 21
-37.18135733579999
 31
0.0
  0
LINE
  5
DAD
  8
3
 10
141.1499999999999
 20
-37.90304517229998
 30
0.0
 11
141.1499999999999
 21
-40.2413137625
 31
0.0
  0
POLYLINE
  5
DAE
  8
3
 66
     1
 10
0.0
 20
0.0
 30
0.0
  0
VERTEX
  5
280B
  8
3
 10
142.3999999999999
 20
-40.9079698443
 30
0.0
  0
VERTEX
  5
280C
  8
3
 10
141.6576483759998
 20
-40.83858506
 30
0.0
  0
VERTEX
  5
280D
  8
3
 10
141.0155554522999
 20
-40.6398015067
 30
0.0
  0
VERTEX
  5
280E
  8
3
 10
140.5604394363
 20
-40.3384660048
 30
0.0
  0
VERTEX
  5
280F
  8
3
 10
140.3537662677
 20
-39.97527558360001
 30
0.0
  0
VERTEX
  5
2810
  8
3
 10
140.4234483032999
 20
-39.59928112200001
 30
0.0
  0
VERTEX
  5
2811
  8
3
 10
140.7600745979999
 20
-39.2612627554
 30
0.0
  0
VERTEX
  5
2812
  8
3
 10
141.3181819053
 20
-39.0068717373
 30
0.0
  0
VERTEX
  5
2813
  8
3
 10
142.0223947409
 20
-38.8704649844
 30
0.0
  0
VERTEX
  5
2814
  8
3
 10
142.7776052590999
 20
-38.8704649844
 30
0.0
  0
VERTEX
  5
2815
  8
3
 10
143.4818180947
 20
-39.0068717373
 30
0.0
  0
VERTEX
  5
2816
  8
3
 10
144.0399254021
 20
-39.2612627554
 30
0.0
  0
VERTEX
  5
2817
  8
3
 10
144.3765516967999
 20
-39.59928112200001
 30
0.0
  0
VERTEX
  5
2818
  8
3
 10
144.4462337322998
 20
-39.97527558360001
 30
0.0
  0
VERTEX
  5
2819
  8
3
 10
144.2395605637999
 20
-40.3384660048
 30
0.0
  0
VERTEX
  5
281A
  8
3
 10
143.7844445476999
 20
-40.6398015067
 30
0.0
  0
VERTEX
  5
281B
  8
3
 10
143.142351624
 20
-40.83858506
 30
0.0
  0
VERTEX
  5
281C
  8
3
 10
142.3999999999999
 20
-40.9079698443
 30
0.0
  0
SEQEND
  5
2A1A
  8
3
  0
LINE
  5
DAF
  8
3
 10
143.6499999999999
 20
-40.2413137625
 30
0.0
 11
142.3999999999999
 21
-40.6021576808
 31
0.0
  0
LINE
  5
DB0
  8
3
 10
141.1499999999999
 20
-40.2413137625
 30
0.0
 11
142.3999999999999
 21
-40.6021576808
 31
0.0
  0
LINE
  5
DB1
  8
3
 10
142.3999999999999
 20
-36.82051341760001
 30
0.0
 11
142.3999999999999
 21
-38.2638890906
 31
0.0
  0
LINE
  5
DB2
  8
3
 10
141.1499999999999
 20
-39.519625926
 30
0.0
 11
142.3999999999999
 21
-39.1587820078
 31
0.0
  0
LINE
  5
DB3
  8
3
 10
141.1499999999999
 20
-37.18135733579999
 30
0.0
 11
142.3999999999999
 21
-36.82051341760001
 31
0.0
  0
LINE
  5
DB4
  8
3
 10
143.6499999999999
 20
-39.519625926
 30
0.0
 11
142.3999999999999
 21
-39.1587820078
 31
0.0
  0
LINE
  5
DB5
  8
3
 10
143.6499999999999
 20
-37.18135733579999
 30
0.0
 11
142.3999999999999
 21
-36.82051341760001
 31
0.0
  0
CIRCLE
  5
DB6
  8
3
 10
142.3999999999999
 20
0.0
 30
0.0
 40
2.316732743452349
  0
CIRCLE
  5
DB7
  8
3
 10
142.3999999999999
 20
0.0
 30
0.0
 40
1.750000000000007
  0
POLYLINE
  5
DB8
  8
3
 66
     1
 10
0.0
 20
0.0
 30
0.0
  0
VERTEX
  5
281D
  8
3
 10
142.3999999999999
 20
33.80931742159999
 30
0.0
  0
VERTEX
  5
281E
  8
3
 10
141.7303039934
 20
33.87592283059999
 30
0.0
  0
VERTEX
  5
281F
  8
3
 10
141.1625631329999
 20
34.065598988
 30
0.0
  0
VERTEX
  5
2820
  8
3
 10
140.7832108180999
 20
34.34946941819999
 30
0.0
  0
VERTEX
  5
2821
  8
3
 10
140.6499999999999
 20
34.68431742159999
 30
0.0
  0
VERTEX
  5
2822
  8
3
 10
140.7832108180999
 20
35.0191654249
 30
0.0
  0
VERTEX
  5
2823
  8
3
 10
141.1625631329999
 20
35.30303585510001
 30
0.0
  0
VERTEX
  5
2824
  8
3
 10
141.7303039934
 20
35.49271201249999
 30
0.0
  0
VERTEX
  5
2825
  8
3
 10
142.3999999999999
 20
35.55931742159999
 30
0.0
  0
VERTEX
  5
2826
  8
3
 10
143.0696960066999
 20
35.49271201249999
 30
0.0
  0
VERTEX
  5
2827
  8
3
 10
143.6374368671
 20
35.30303585510001
 30
0.0
  0
VERTEX
  5
2828
  8
3
 10
144.0167891818999
 20
35.0191654249
 30
0.0
  0
VERTEX
  5
2829
  8
3
 10
144.1499999999999
 20
34.68431742159999
 30
0.0
  0
VERTEX
  5
282A
  8
3
 10
144.0167891818999
 20
34.34946941819999
 30
0.0
  0
VERTEX
  5
282B
  8
3
 10
143.6374368671
 20
34.065598988
 30
0.0
  0
VERTEX
  5
282C
  8
3
 10
143.0696960066999
 20
33.87592283059999
 30
0.0
  0
VERTEX
  5
282D
  8
3
 10
142.3999999999999
 20
33.80931742159999
 30
0.0
  0
SEQEND
  5
2A19
  8
3
  0
POLYLINE
  5
DB9
  8
3
 66
     1
 10
0.0
 20
0.0
 30
0.0
  0
VERTEX
  5
282E
  8
3
 10
140.0832672565999
 20
35.17512237450001
 30
0.0
  0
VERTEX
  5
282F
  8
3
 10
140.2229833366999
 20
35.571307007
 30
0.0
  0
VERTEX
  5
2830
  8
3
 10
140.6252797557
 20
35.9197059258
 30
0.0
  0
VERTEX
  5
2831
  8
3
 10
141.2416336283
 20
36.17829707929999
 30
0.0
  0
VERTEX
  5
2832
  8
3
 10
141.9977035809998
 20
36.31589055820001
 30
0.0
  0
VERTEX
  5
2833
  8
3
 10
142.8022964190998
 20
36.31589055820001
 30
0.0
  0
VERTEX
  5
2834
  8
3
 10
143.5583663717999
 20
36.17829707929999
 30
0.0
  0
VERTEX
  5
2835
  8
3
 10
144.1747202442999
 20
35.9197059258
 30
0.0
  0
VERTEX
  5
2836
  8
3
 10
144.5770166634
 20
35.571307007
 30
0.0
  0
VERTEX
  5
2837
  8
3
 10
144.7167327435
 20
35.17512237450001
 30
0.0
  0
VERTEX
  5
2838
  8
3
 10
144.5770166634
 20
34.7789377421
 30
0.0
  0
VERTEX
  5
2839
  8
3
 10
144.1747202442999
 20
34.4305388233
 30
0.0
  0
VERTEX
  5
283A
  8
3
 10
143.5583663717999
 20
34.17194766969999
 30
0.0
  0
VERTEX
  5
283B
  8
3
 10
142.8022964190998
 20
34.0343541908
 30
0.0
  0
VERTEX
  5
283C
  8
3
 10
141.9977035809998
 20
34.0343541908
 30
0.0
  0
VERTEX
  5
283D
  8
3
 10
141.2416336283
 20
34.17194766969999
 30
0.0
  0
VERTEX
  5
283E
  8
3
 10
140.6252797557
 20
34.4305388233
 30
0.0
  0
VERTEX
  5
283F
  8
3
 10
140.2229833366999
 20
34.7789377421
 30
0.0
  0
VERTEX
  5
2840
  8
3
 10
140.0832672565999
 20
35.17512237450001
 30
0.0
  0
SEQEND
  5
2A18
  8
3
  0
POLYLINE
  5
DBA
  8
3
 66
     1
 10
0.0
 20
0.0
 30
0.0
  0
VERTEX
  5
2841
  8
3
 10
144.455
 20
35.33383645999999
 30
0.0
  0
VERTEX
  5
2842
  8
3
 10
144.3162304314999
 20
34.962660648
 30
0.0
  0
VERTEX
  5
2843
  8
3
 10
143.9186633248999
 20
34.6416141862
 30
0.0
  0
VERTEX
  5
2844
  8
3
 10
143.3159923210999
 20
34.41405617819998
 30
0.0
  0
VERTEX
  5
2845
  8
3
 10
142.5896114787
 20
34.31071959389999
 30
0.0
  0
VERTEX
  5
2846
  8
3
 10
141.8376225553998
 20
34.34556061169999
 30
0.0
  0
VERTEX
  5
2847
  8
3
 10
141.1615858223
 20
34.51387375900001
 30
0.0
  0
VERTEX
  5
2848
  8
3
 10
140.6528037860999
 20
34.79292741270001
 30
0.0
  0
VERTEX
  5
2849
  8
3
 10
140.3799902801998
 20
35.14503383049998
 30
0.0
  0
VERTEX
  5
284A
  8
3
 10
140.3799902801998
 20
35.52263908960001
 30
0.0
  0
VERTEX
  5
284B
  8
3
 10
140.6528037860999
 20
35.87474550740001
 30
0.0
  0
VERTEX
  5
284C
  8
3
 10
141.1615858223
 20
36.15379916109998
 30
0.0
  0
VERTEX
  5
284D
  8
3
 10
141.8376225553998
 20
36.32211230839999
 30
0.0
  0
VERTEX
  5
284E
  8
3
 10
142.5896114787
 20
36.3569533262
 30
0.0
  0
VERTEX
  5
284F
  8
3
 10
143.3159923210999
 20
36.2536167419
 30
0.0
  0
VERTEX
  5
2850
  8
3
 10
143.9186633248999
 20
36.02605873389999
 30
0.0
  0
VERTEX
  5
2851
  8
3
 10
144.3162304314999
 20
35.705012272
 30
0.0
  0
VERTEX
  5
2852
  8
3
 10
144.455
 20
35.33383645999999
 30
0.0
  0
SEQEND
  5
2A17
  8
3
  0
POLYLINE
  5
DBB
  8
3
 66
     1
 10
0.0
 20
0.0
 30
0.0
  0
VERTEX
  5
2853
  8
3
 10
144.8999999999999
 20
35.6036833547
 30
0.0
  0
VERTEX
  5
2854
  8
3
 10
144.7492315519999
 20
35.17615817550001
 30
0.0
  0
VERTEX
  5
2855
  8
3
 10
144.3151111077999
 20
34.80019884250001
 30
0.0
  0
VERTEX
  5
2856
  8
3
 10
143.6499999999999
 20
34.52115159990001
 30
0.0
  0
VERTEX
  5
2857
  8
3
 10
142.8341204442
 20
34.37267366340001
 30
0.0
  0
VERTEX
  5
2858
  8
3
 10
141.9658795558999
 20
34.37267366340001
 30
0.0
  0
VERTEX
  5
2859
  8
3
 10
141.1499999999999
 20
34.52115159990001
 30
0.0
  0
VERTEX
  5
285A
  8
3
 10
140.4848888922
 20
34.80019884250001
 30
0.0
  0
VERTEX
  5
285B
  8
3
 10
140.0507684481
 20
35.17615817550001
 30
0.0
  0
VERTEX
  5
285C
  8
3
 10
139.8999999999999
 20
35.6036833547
 30
0.0
  0
VERTEX
  5
285D
  8
3
 10
140.0507684481
 20
36.0312085338
 30
0.0
  0
VERTEX
  5
285E
  8
3
 10
140.4848888922
 20
36.40716786679999
 30
0.0
  0
VERTEX
  5
285F
  8
3
 10
141.1499999999999
 20
36.6862151094
 30
0.0
  0
VERTEX
  5
2860
  8
3
 10
141.9658795558999
 20
36.8346930459
 30
0.0
  0
VERTEX
  5
2861
  8
3
 10
142.8341204442
 20
36.8346930459
 30
0.0
  0
VERTEX
  5
2862
  8
3
 10
143.6499999999999
 20
36.6862151094
 30
0.0
  0
VERTEX
  5
2863
  8
3
 10
144.3151111077999
 20
36.40716786679999
 30
0.0
  0
VERTEX
  5
2864
  8
3
 10
144.7492315519999
 20
36.0312085338
 30
0.0
  0
VERTEX
  5
2865
  8
3
 10
144.8999999999999
 20
35.6036833547
 30
0.0
  0
SEQEND
  5
2A16
  8
3
  0
POLYLINE
  5
DBC
  8
3
 66
     1
 10
0.0
 20
0.0
 30
0.0
  0
VERTEX
  5
2866
  8
3
 10
144.8999999999999
 20
35.681722906
 30
0.0
  0
VERTEX
  5
2867
  8
3
 10
144.7492315519999
 20
35.2541977269
 30
0.0
  0
VERTEX
  5
2868
  8
3
 10
144.3151111077999
 20
34.87823839390001
 30
0.0
  0
VERTEX
  5
2869
  8
3
 10
143.6499999999999
 20
34.5991911513
 30
0.0
  0
VERTEX
  5
286A
  8
3
 10
142.8341204442
 20
34.45071321469999
 30
0.0
  0
VERTEX
  5
286B
  8
3
 10
141.9658795558999
 20
34.45071321469999
 30
0.0
  0
VERTEX
  5
286C
  8
3
 10
141.1499999999999
 20
34.5991911513
 30
0.0
  0
VERTEX
  5
286D
  8
3
 10
140.4848888922
 20
34.87823839390001
 30
0.0
  0
VERTEX
  5
286E
  8
3
 10
140.0507684481
 20
35.2541977269
 30
0.0
  0
VERTEX
  5
286F
  8
3
 10
139.8999999999999
 20
35.681722906
 30
0.0
  0
VERTEX
  5
2870
  8
3
 10
140.0507684481
 20
36.10924808519999
 30
0.0
  0
VERTEX
  5
2871
  8
3
 10
140.4848888922
 20
36.4852074181
 30
0.0
  0
VERTEX
  5
2872
  8
3
 10
141.1499999999999
 20
36.7642546607
 30
0.0
  0
VERTEX
  5
2873
  8
3
 10
141.9658795558999
 20
36.91273259729999
 30
0.0
  0
VERTEX
  5
2874
  8
3
 10
142.8341204442
 20
36.91273259729999
 30
0.0
  0
VERTEX
  5
2875
  8
3
 10
143.6499999999999
 20
36.7642546607
 30
0.0
  0
VERTEX
  5
2876
  8
3
 10
144.3151111077999
 20
36.4852074181
 30
0.0
  0
VERTEX
  5
2877
  8
3
 10
144.7492315519999
 20
36.10924808519999
 30
0.0
  0
VERTEX
  5
2878
  8
3
 10
144.8999999999999
 20
35.681722906
 30
0.0
  0
SEQEND
  5
2A15
  8
3
  0
POLYLINE
  5
DBD
  8
3
 66
     1
 10
0.0
 20
0.0
 30
0.0
  0
VERTEX
  5
2879
  8
3
 10
144.455
 20
35.9515698006
 30
0.0
  0
VERTEX
  5
287A
  8
3
 10
144.3162304313999
 20
35.58039398860001
 30
0.0
  0
VERTEX
  5
287B
  8
3
 10
143.9186633248999
 20
35.25934752679998
 30
0.0
  0
VERTEX
  5
287C
  8
3
 10
143.3159923210999
 20
35.0317895188
 30
0.0
  0
VERTEX
  5
287D
  8
3
 10
142.5896114787
 20
34.9284529345
 30
0.0
  0
VERTEX
  5
287E
  8
3
 10
141.8376225553998
 20
34.96329395230001
 30
0.0
  0
VERTEX
  5
287F
  8
3
 10
141.1615858223
 20
35.13160709959999
 30
0.0
  0
VERTEX
  5
2880
  8
3
 10
140.6528037860999
 20
35.41066075329999
 30
0.0
  0
VERTEX
  5
2881
  8
3
 10
140.3799902801998
 20
35.76276717109999
 30
0.0
  0
VERTEX
  5
2882
  8
3
 10
140.3799902801998
 20
36.14037243019999
 30
0.0
  0
VERTEX
  5
2883
  8
3
 10
140.6528037860999
 20
36.49247884799999
 30
0.0
  0
VERTEX
  5
2884
  8
3
 10
141.1615858223
 20
36.77153250169999
 30
0.0
  0
VERTEX
  5
2885
  8
3
 10
141.8376225553998
 20
36.93984564900001
 30
0.0
  0
VERTEX
  5
2886
  8
3
 10
142.5896114787
 20
36.97468666679998
 30
0.0
  0
VERTEX
  5
2887
  8
3
 10
143.3159923210999
 20
36.87135008249999
 30
0.0
  0
VERTEX
  5
2888
  8
3
 10
143.9186633248999
 20
36.6437920745
 30
0.0
  0
VERTEX
  5
2889
  8
3
 10
144.3162304313999
 20
36.32274561259999
 30
0.0
  0
VERTEX
  5
288A
  8
3
 10
144.455
 20
35.9515698006
 30
0.0
  0
SEQEND
  5
2A14
  8
3
  0
POLYLINE
  5
DBE
  8
3
 66
     1
 10
0.0
 20
0.0
 30
0.0
  0
VERTEX
  5
288B
  8
3
 10
144.8999999999999
 20
36.22141669530001
 30
0.0
  0
VERTEX
  5
288C
  8
3
 10
144.7492315519999
 20
35.79389151609999
 30
0.0
  0
VERTEX
  5
288D
  8
3
 10
144.3151111077999
 20
35.41793218309999
 30
0.0
  0
VERTEX
  5
288E
  8
3
 10
143.6499999999999
 20
35.13888494049999
 30
0.0
  0
VERTEX
  5
288F
  8
3
 10
142.8341204442
 20
34.99040700399999
 30
0.0
  0
VERTEX
  5
2890
  8
3
 10
141.9658795558999
 20
34.99040700399999
 30
0.0
  0
VERTEX
  5
2891
  8
3
 10
141.1499999999999
 20
35.13888494049999
 30
0.0
  0
VERTEX
  5
2892
  8
3
 10
140.4848888922
 20
35.41793218309999
 30
0.0
  0
VERTEX
  5
2893
  8
3
 10
140.0507684481
 20
35.79389151609999
 30
0.0
  0
VERTEX
  5
2894
  8
3
 10
139.8999999999999
 20
36.22141669530001
 30
0.0
  0
VERTEX
  5
2895
  8
3
 10
140.0507684481
 20
36.64894187440001
 30
0.0
  0
VERTEX
  5
2896
  8
3
 10
140.4848888922
 20
37.02490120740001
 30
0.0
  0
VERTEX
  5
2897
  8
3
 10
141.1499999999999
 20
37.30394845000001
 30
0.0
  0
VERTEX
  5
2898
  8
3
 10
141.9658795558999
 20
37.45242638650001
 30
0.0
  0
VERTEX
  5
2899
  8
3
 10
142.8341204442
 20
37.45242638650001
 30
0.0
  0
VERTEX
  5
289A
  8
3
 10
143.6499999999999
 20
37.30394845000001
 30
0.0
  0
VERTEX
  5
289B
  8
3
 10
144.3151111077999
 20
37.02490120740001
 30
0.0
  0
VERTEX
  5
289C
  8
3
 10
144.7492315519999
 20
36.64894187440001
 30
0.0
  0
VERTEX
  5
289D
  8
3
 10
144.8999999999999
 20
36.22141669530001
 30
0.0
  0
SEQEND
  5
2A13
  8
3
  0
POLYLINE
  5
DBF
  8
3
 66
     1
 10
0.0
 20
0.0
 30
0.0
  0
VERTEX
  5
289E
  8
3
 10
144.8999999999999
 20
36.29945624659999
 30
0.0
  0
VERTEX
  5
289F
  8
3
 10
144.7492315519999
 20
35.87193106749999
 30
0.0
  0
VERTEX
  5
28A0
  8
3
 10
144.3151111077999
 20
35.49597173449999
 30
0.0
  0
VERTEX
  5
28A1
  8
3
 10
143.6499999999999
 20
35.21692449189999
 30
0.0
  0
VERTEX
  5
28A2
  8
3
 10
142.8341204442
 20
35.0684465553
 30
0.0
  0
VERTEX
  5
28A3
  8
3
 10
141.9658795558999
 20
35.0684465553
 30
0.0
  0
VERTEX
  5
28A4
  8
3
 10
141.1499999999999
 20
35.21692449189999
 30
0.0
  0
VERTEX
  5
28A5
  8
3
 10
140.4848888922
 20
35.49597173449999
 30
0.0
  0
VERTEX
  5
28A6
  8
3
 10
140.0507684481
 20
35.87193106749999
 30
0.0
  0
VERTEX
  5
28A7
  8
3
 10
139.8999999999999
 20
36.29945624659999
 30
0.0
  0
VERTEX
  5
28A8
  8
3
 10
140.0507684481
 20
36.72698142580001
 30
0.0
  0
VERTEX
  5
28A9
  8
3
 10
140.4848888922
 20
37.10294075869999
 30
0.0
  0
VERTEX
  5
28AA
  8
3
 10
141.1499999999999
 20
37.38198800129999
 30
0.0
  0
VERTEX
  5
28AB
  8
3
 10
141.9658795558999
 20
37.5304659379
 30
0.0
  0
VERTEX
  5
28AC
  8
3
 10
142.8341204442
 20
37.5304659379
 30
0.0
  0
VERTEX
  5
28AD
  8
3
 10
143.6499999999999
 20
37.38198800129999
 30
0.0
  0
VERTEX
  5
28AE
  8
3
 10
144.3151111077999
 20
37.10294075869999
 30
0.0
  0
VERTEX
  5
28AF
  8
3
 10
144.7492315519999
 20
36.72698142580001
 30
0.0
  0
VERTEX
  5
28B0
  8
3
 10
144.8999999999999
 20
36.29945624659999
 30
0.0
  0
SEQEND
  5
2A12
  8
3
  0
POLYLINE
  5
DC0
  8
3
 66
     1
 10
0.0
 20
0.0
 30
0.0
  0
VERTEX
  5
28B1
  8
3
 10
144.455
 20
36.56930314120001
 30
0.0
  0
VERTEX
  5
28B2
  8
3
 10
144.3162304313999
 20
36.19812732919999
 30
0.0
  0
VERTEX
  5
28B3
  8
3
 10
143.9186633248999
 20
35.8770808674
 30
0.0
  0
VERTEX
  5
28B4
  8
3
 10
143.3159923210999
 20
35.64952285940001
 30
0.0
  0
VERTEX
  5
28B5
  8
3
 10
142.5896114787
 20
35.54618627510001
 30
0.0
  0
VERTEX
  5
28B6
  8
3
 10
141.8376225553998
 20
35.58102729289999
 30
0.0
  0
VERTEX
  5
28B7
  8
3
 10
141.1615858223
 20
35.7493404402
 30
0.0
  0
VERTEX
  5
28B8
  8
3
 10
140.6528037860999
 20
36.0283940939
 30
0.0
  0
VERTEX
  5
28B9
  8
3
 10
140.3799902801998
 20
36.38050051170001
 30
0.0
  0
VERTEX
  5
28BA
  8
3
 10
140.3799902801998
 20
36.7581057708
 30
0.0
  0
VERTEX
  5
28BB
  8
3
 10
140.6528037860999
 20
37.1102121886
 30
0.0
  0
VERTEX
  5
28BC
  8
3
 10
141.1615858223
 20
37.38926584230001
 30
0.0
  0
VERTEX
  5
28BD
  8
3
 10
141.8376225553998
 20
37.55757898959999
 30
0.0
  0
VERTEX
  5
28BE
  8
3
 10
142.5896114787
 20
37.59242000739999
 30
0.0
  0
VERTEX
  5
28BF
  8
3
 10
143.3159923210999
 20
37.4890834231
 30
0.0
  0
VERTEX
  5
28C0
  8
3
 10
143.9186633248999
 20
37.26152541509998
 30
0.0
  0
VERTEX
  5
28C1
  8
3
 10
144.3162304313999
 20
36.9404789532
 30
0.0
  0
VERTEX
  5
28C2
  8
3
 10
144.455
 20
36.56930314120001
 30
0.0
  0
SEQEND
  5
2A11
  8
3
  0
POLYLINE
  5
DC1
  8
3
 66
     1
 10
0.0
 20
0.0
 30
0.0
  0
VERTEX
  5
28C3
  8
3
 10
144.8999999999999
 20
36.83915003589999
 30
0.0
  0
VERTEX
  5
28C4
  8
3
 10
144.7492315519999
 20
36.4116248567
 30
0.0
  0
VERTEX
  5
28C5
  8
3
 10
144.3151111077999
 20
36.03566552379999
 30
0.0
  0
VERTEX
  5
28C6
  8
3
 10
143.6499999999999
 20
35.7566182811
 30
0.0
  0
VERTEX
  5
28C7
  8
3
 10
142.8341204442
 20
35.6081403446
 30
0.0
  0
VERTEX
  5
28C8
  8
3
 10
141.9658795558999
 20
35.6081403446
 30
0.0
  0
VERTEX
  5
28C9
  8
3
 10
141.1499999999999
 20
35.7566182811
 30
0.0
  0
VERTEX
  5
28CA
  8
3
 10
140.4848888922
 20
36.03566552379999
 30
0.0
  0
VERTEX
  5
28CB
  8
3
 10
140.0507684481
 20
36.4116248567
 30
0.0
  0
VERTEX
  5
28CC
  8
3
 10
139.8999999999999
 20
36.83915003589999
 30
0.0
  0
VERTEX
  5
28CD
  8
3
 10
140.0507684481
 20
37.26667521499999
 30
0.0
  0
VERTEX
  5
28CE
  8
3
 10
140.4848888922
 20
37.64263454799999
 30
0.0
  0
VERTEX
  5
28CF
  8
3
 10
141.1499999999999
 20
37.92168179059999
 30
0.0
  0
VERTEX
  5
28D0
  8
3
 10
141.9658795558999
 20
38.07015972709999
 30
0.0
  0
VERTEX
  5
28D1
  8
3
 10
142.8341204442
 20
38.07015972709999
 30
0.0
  0
VERTEX
  5
28D2
  8
3
 10
143.6499999999999
 20
37.92168179059999
 30
0.0
  0
VERTEX
  5
28D3
  8
3
 10
144.3151111077999
 20
37.64263454799999
 30
0.0
  0
VERTEX
  5
28D4
  8
3
 10
144.7492315519999
 20
37.26667521499999
 30
0.0
  0
VERTEX
  5
28D5
  8
3
 10
144.8999999999999
 20
36.83915003589999
 30
0.0
  0
SEQEND
  5
2A10
  8
3
  0
POLYLINE
  5
DC2
  8
3
 66
     1
 10
0.0
 20
0.0
 30
0.0
  0
VERTEX
  5
28D6
  8
3
 10
144.8999999999999
 20
36.9171895872
 30
0.0
  0
VERTEX
  5
28D7
  8
3
 10
144.7492315519999
 20
36.4896644081
 30
0.0
  0
VERTEX
  5
28D8
  8
3
 10
144.3151111077999
 20
36.1137050751
 30
0.0
  0
VERTEX
  5
28D9
  8
3
 10
143.6499999999999
 20
35.8346578325
 30
0.0
  0
VERTEX
  5
28DA
  8
3
 10
142.8341204442
 20
35.686179896
 30
0.0
  0
VERTEX
  5
28DB
  8
3
 10
141.9658795558999
 20
35.686179896
 30
0.0
  0
VERTEX
  5
28DC
  8
3
 10
141.1499999999999
 20
35.8346578325
 30
0.0
  0
VERTEX
  5
28DD
  8
3
 10
140.4848888922
 20
36.1137050751
 30
0.0
  0
VERTEX
  5
28DE
  8
3
 10
140.0507684481
 20
36.4896644081
 30
0.0
  0
VERTEX
  5
28DF
  8
3
 10
139.8999999999999
 20
36.9171895872
 30
0.0
  0
VERTEX
  5
28E0
  8
3
 10
140.0507684481
 20
37.34471476639999
 30
0.0
  0
VERTEX
  5
28E1
  8
3
 10
140.4848888922
 20
37.7206740993
 30
0.0
  0
VERTEX
  5
28E2
  8
3
 10
141.1499999999999
 20
37.9997213419
 30
0.0
  0
VERTEX
  5
28E3
  8
3
 10
141.9658795558999
 20
38.14819927849999
 30
0.0
  0
VERTEX
  5
28E4
  8
3
 10
142.8341204442
 20
38.14819927849999
 30
0.0
  0
VERTEX
  5
28E5
  8
3
 10
143.6499999999999
 20
37.9997213419
 30
0.0
  0
VERTEX
  5
28E6
  8
3
 10
144.3151111077999
 20
37.7206740993
 30
0.0
  0
VERTEX
  5
28E7
  8
3
 10
144.7492315519999
 20
37.34471476639999
 30
0.0
  0
VERTEX
  5
28E8
  8
3
 10
144.8999999999999
 20
36.9171895872
 30
0.0
  0
SEQEND
  5
2A0F
  8
3
  0
POLYLINE
  5
DC3
  8
3
 66
     1
 10
0.0
 20
0.0
 30
0.0
  0
VERTEX
  5
28E9
  8
3
 10
144.455
 20
37.18703648179999
 30
0.0
  0
VERTEX
  5
28EA
  8
3
 10
144.3162304314999
 20
36.8158606698
 30
0.0
  0
VERTEX
  5
28EB
  8
3
 10
143.9186633248999
 20
36.49481420800001
 30
0.0
  0
VERTEX
  5
28EC
  8
3
 10
143.3159923210999
 20
36.26725619999999
 30
0.0
  0
VERTEX
  5
28ED
  8
3
 10
142.5896114787
 20
36.1639196157
 30
0.0
  0
VERTEX
  5
28EE
  8
3
 10
141.8376225553998
 20
36.1987606335
 30
0.0
  0
VERTEX
  5
28EF
  8
3
 10
141.1615858223
 20
36.36707378080001
 30
0.0
  0
VERTEX
  5
28F0
  8
3
 10
140.6528037860999
 20
36.64612743449999
 30
0.0
  0
VERTEX
  5
28F1
  8
3
 10
140.3799902801998
 20
36.99823385229999
 30
0.0
  0
VERTEX
  5
28F2
  8
3
 10
140.3799902801998
 20
37.37583911140001
 30
0.0
  0
VERTEX
  5
28F3
  8
3
 10
140.6528037860999
 20
37.72794552919999
 30
0.0
  0
VERTEX
  5
28F4
  8
3
 10
141.1615858223
 20
38.00699918289999
 30
0.0
  0
VERTEX
  5
28F5
  8
3
 10
141.8376225553998
 20
38.1753123302
 30
0.0
  0
VERTEX
  5
28F6
  8
3
 10
142.5896114787
 20
38.21015334800001
 30
0.0
  0
VERTEX
  5
28F7
  8
3
 10
143.3159923210999
 20
38.10681676370001
 30
0.0
  0
VERTEX
  5
28F8
  8
3
 10
143.9186633248999
 20
37.87925875569999
 30
0.0
  0
VERTEX
  5
28F9
  8
3
 10
144.3162304314999
 20
37.55821229380001
 30
0.0
  0
VERTEX
  5
28FA
  8
3
 10
144.455
 20
37.18703648179999
 30
0.0
  0
SEQEND
  5
2A0E
  8
3
  0
POLYLINE
  5
DC4
  8
3
 66
     1
 10
0.0
 20
0.0
 30
0.0
  0
VERTEX
  5
28FB
  8
3
 10
144.8999999999999
 20
37.4568833765
 30
0.0
  0
VERTEX
  5
28FC
  8
3
 10
144.7492315519999
 20
37.02935819729998
 30
0.0
  0
VERTEX
  5
28FD
  8
3
 10
144.3151111077999
 20
36.6533988644
 30
0.0
  0
VERTEX
  5
28FE
  8
3
 10
143.6499999999999
 20
36.37435162169999
 30
0.0
  0
VERTEX
  5
28FF
  8
3
 10
142.8341204442
 20
36.22587368519999
 30
0.0
  0
VERTEX
  5
2900
  8
3
 10
141.9658795558999
 20
36.22587368519999
 30
0.0
  0
VERTEX
  5
2901
  8
3
 10
141.1499999999999
 20
36.37435162169999
 30
0.0
  0
VERTEX
  5
2902
  8
3
 10
140.4848888922
 20
36.6533988644
 30
0.0
  0
VERTEX
  5
2903
  8
3
 10
140.0507684481
 20
37.02935819729998
 30
0.0
  0
VERTEX
  5
2904
  8
3
 10
139.8999999999999
 20
37.4568833765
 30
0.0
  0
VERTEX
  5
2905
  8
3
 10
140.0507684481
 20
37.8844085556
 30
0.0
  0
VERTEX
  5
2906
  8
3
 10
140.4848888922
 20
38.2603678886
 30
0.0
  0
VERTEX
  5
2907
  8
3
 10
141.1499999999999
 20
38.5394151312
 30
0.0
  0
VERTEX
  5
2908
  8
3
 10
141.9658795558999
 20
38.6878930677
 30
0.0
  0
VERTEX
  5
2909
  8
3
 10
142.8341204442
 20
38.6878930677
 30
0.0
  0
VERTEX
  5
290A
  8
3
 10
143.6499999999999
 20
38.5394151312
 30
0.0
  0
VERTEX
  5
290B
  8
3
 10
144.3151111077999
 20
38.2603678886
 30
0.0
  0
VERTEX
  5
290C
  8
3
 10
144.7492315519999
 20
37.8844085556
 30
0.0
  0
VERTEX
  5
290D
  8
3
 10
144.8999999999999
 20
37.4568833765
 30
0.0
  0
SEQEND
  5
2A0D
  8
3
  0
POLYLINE
  5
DC5
  8
3
 66
     1
 10
0.0
 20
0.0
 30
0.0
  0
VERTEX
  5
290E
  8
3
 10
144.8999999999999
 20
37.53492292779998
 30
0.0
  0
VERTEX
  5
290F
  8
3
 10
144.7492315519999
 20
37.10739774870001
 30
0.0
  0
VERTEX
  5
2910
  8
3
 10
144.3151111077999
 20
36.73143841569998
 30
0.0
  0
VERTEX
  5
2911
  8
3
 10
143.6499999999999
 20
36.45239117310001
 30
0.0
  0
VERTEX
  5
2912
  8
3
 10
142.8341204442
 20
36.30391323660001
 30
0.0
  0
VERTEX
  5
2913
  8
3
 10
141.9658795558999
 20
36.30391323660001
 30
0.0
  0
VERTEX
  5
2914
  8
3
 10
141.1499999999999
 20
36.45239117310001
 30
0.0
  0
VERTEX
  5
2915
  8
3
 10
140.4848888922
 20
36.73143841569998
 30
0.0
  0
VERTEX
  5
2916
  8
3
 10
140.0507684481
 20
37.10739774870001
 30
0.0
  0
VERTEX
  5
2917
  8
3
 10
139.8999999999999
 20
37.53492292779998
 30
0.0
  0
VERTEX
  5
2918
  8
3
 10
140.0507684481
 20
37.962448107
 30
0.0
  0
VERTEX
  5
2919
  8
3
 10
140.4848888922
 20
38.33840743989998
 30
0.0
  0
VERTEX
  5
291A
  8
3
 10
141.1499999999999
 20
38.6174546826
 30
0.0
  0
VERTEX
  5
291B
  8
3
 10
141.9658795558999
 20
38.7659326191
 30
0.0
  0
VERTEX
  5
291C
  8
3
 10
142.8341204442
 20
38.7659326191
 30
0.0
  0
VERTEX
  5
291D
  8
3
 10
143.6499999999999
 20
38.6174546826
 30
0.0
  0
VERTEX
  5
291E
  8
3
 10
144.3151111077999
 20
38.33840743989998
 30
0.0
  0
VERTEX
  5
291F
  8
3
 10
144.7492315519999
 20
37.962448107
 30
0.0
  0
VERTEX
  5
2920
  8
3
 10
144.8999999999999
 20
37.53492292779998
 30
0.0
  0
SEQEND
  5
2A0C
  8
3
  0
POLYLINE
  5
DC6
  8
3
 66
     1
 10
0.0
 20
0.0
 30
0.0
  0
VERTEX
  5
2921
  8
3
 10
144.455
 20
37.8047698224
 30
0.0
  0
VERTEX
  5
2922
  8
3
 10
144.3162304314999
 20
37.43359401039999
 30
0.0
  0
VERTEX
  5
2923
  8
3
 10
143.9186633248999
 20
37.11254754859999
 30
0.0
  0
VERTEX
  5
2924
  8
3
 10
143.3159923212
 20
36.8849895406
 30
0.0
  0
VERTEX
  5
2925
  8
3
 10
142.5896114787
 20
36.78165295630001
 30
0.0
  0
VERTEX
  5
2926
  8
3
 10
141.8376225553998
 20
36.81649397410001
 30
0.0
  0
VERTEX
  5
2927
  8
3
 10
141.1615858223
 20
36.9848071214
 30
0.0
  0
VERTEX
  5
2928
  8
3
 10
140.6528037860999
 20
37.2638607751
 30
0.0
  0
VERTEX
  5
2929
  8
3
 10
140.3799902801998
 20
37.6159671929
 30
0.0
  0
VERTEX
  5
292A
  8
3
 10
140.3799902801998
 20
37.993572452
 30
0.0
  0
VERTEX
  5
292B
  8
3
 10
140.6528037860999
 20
38.3456788698
 30
0.0
  0
VERTEX
  5
292C
  8
3
 10
141.1615858223
 20
38.6247325235
 30
0.0
  0
VERTEX
  5
292D
  8
3
 10
141.8376225553998
 20
38.79304567079998
 30
0.0
  0
VERTEX
  5
292E
  8
3
 10
142.5896114787
 20
38.82788668859999
 30
0.0
  0
VERTEX
  5
292F
  8
3
 10
143.3159923212
 20
38.72455010429999
 30
0.0
  0
VERTEX
  5
2930
  8
3
 10
143.9186633248999
 20
38.4969920963
 30
0.0
  0
VERTEX
  5
2931
  8
3
 10
144.3162304314999
 20
38.17594563450001
 30
0.0
  0
VERTEX
  5
2932
  8
3
 10
144.455
 20
37.8047698224
 30
0.0
  0
SEQEND
  5
2A0B
  8
3
  0
POLYLINE
  5
DC7
  8
3
 66
     1
 10
0.0
 20
0.0
 30
0.0
  0
VERTEX
  5
2933
  8
3
 10
144.8999999999999
 20
38.07461671709999
 30
0.0
  0
VERTEX
  5
2934
  8
3
 10
144.7492315519999
 20
37.6470915379
 30
0.0
  0
VERTEX
  5
2935
  8
3
 10
144.3151111077999
 20
37.27113220499999
 30
0.0
  0
VERTEX
  5
2936
  8
3
 10
143.6499999999999
 20
36.9920849623
 30
0.0
  0
VERTEX
  5
2937
  8
3
 10
142.8341204442
 20
36.8436070258
 30
0.0
  0
VERTEX
  5
2938
  8
3
 10
141.9658795558999
 20
36.8436070258
 30
0.0
  0
VERTEX
  5
2939
  8
3
 10
141.1499999999999
 20
36.9920849623
 30
0.0
  0
VERTEX
  5
293A
  8
3
 10
140.4848888922
 20
37.27113220499999
 30
0.0
  0
VERTEX
  5
293B
  8
3
 10
140.0507684481
 20
37.6470915379
 30
0.0
  0
VERTEX
  5
293C
  8
3
 10
139.8999999999999
 20
38.07461671709999
 30
0.0
  0
VERTEX
  5
293D
  8
3
 10
140.0507684481
 20
38.50214189619999
 30
0.0
  0
VERTEX
  5
293E
  8
3
 10
140.4848888922
 20
38.87810122920001
 30
0.0
  0
VERTEX
  5
293F
  8
3
 10
141.1499999999999
 20
39.15714847179999
 30
0.0
  0
VERTEX
  5
2940
  8
3
 10
141.9658795558999
 20
39.30562640829999
 30
0.0
  0
VERTEX
  5
2941
  8
3
 10
142.8341204442
 20
39.30562640829999
 30
0.0
  0
VERTEX
  5
2942
  8
3
 10
143.6499999999999
 20
39.15714847179999
 30
0.0
  0
VERTEX
  5
2943
  8
3
 10
144.3151111077999
 20
38.87810122920001
 30
0.0
  0
VERTEX
  5
2944
  8
3
 10
144.7492315519999
 20
38.50214189619999
 30
0.0
  0
VERTEX
  5
2945
  8
3
 10
144.8999999999999
 20
38.07461671709999
 30
0.0
  0
SEQEND
  5
2A0A
  8
3
  0
POLYLINE
  5
DC8
  8
3
 66
     1
 10
0.0
 20
0.0
 30
0.0
  0
VERTEX
  5
2946
  8
3
 10
144.8999999999999
 20
38.15265626839999
 30
0.0
  0
VERTEX
  5
2947
  8
3
 10
144.7492315519999
 20
37.72513108929999
 30
0.0
  0
VERTEX
  5
2948
  8
3
 10
144.3151111077999
 20
37.3491717563
 30
0.0
  0
VERTEX
  5
2949
  8
3
 10
143.6499999999999
 20
37.07012451369999
 30
0.0
  0
VERTEX
  5
294A
  8
3
 10
142.8341204442
 20
36.92164657719999
 30
0.0
  0
VERTEX
  5
294B
  8
3
 10
141.9658795558999
 20
36.92164657719999
 30
0.0
  0
VERTEX
  5
294C
  8
3
 10
141.1499999999999
 20
37.07012451369999
 30
0.0
  0
VERTEX
  5
294D
  8
3
 10
140.4848888922
 20
37.3491717563
 30
0.0
  0
VERTEX
  5
294E
  8
3
 10
140.0507684481
 20
37.72513108929999
 30
0.0
  0
VERTEX
  5
294F
  8
3
 10
139.8999999999999
 20
38.15265626839999
 30
0.0
  0
VERTEX
  5
2950
  8
3
 10
140.0507684481
 20
38.58018144760001
 30
0.0
  0
VERTEX
  5
2951
  8
3
 10
140.4848888922
 20
38.95614078049999
 30
0.0
  0
VERTEX
  5
2952
  8
3
 10
141.1499999999999
 20
39.23518802320001
 30
0.0
  0
VERTEX
  5
2953
  8
3
 10
141.9658795558999
 20
39.38366595970001
 30
0.0
  0
VERTEX
  5
2954
  8
3
 10
142.8341204442
 20
39.38366595970001
 30
0.0
  0
VERTEX
  5
2955
  8
3
 10
143.6499999999999
 20
39.23518802320001
 30
0.0
  0
VERTEX
  5
2956
  8
3
 10
144.3151111077999
 20
38.95614078049999
 30
0.0
  0
VERTEX
  5
2957
  8
3
 10
144.7492315519999
 20
38.58018144760001
 30
0.0
  0
VERTEX
  5
2958
  8
3
 10
144.8999999999999
 20
38.15265626839999
 30
0.0
  0
SEQEND
  5
2A09
  8
3
  0
POLYLINE
  5
DC9
  8
3
 66
     1
 10
0.0
 20
0.0
 30
0.0
  0
VERTEX
  5
2959
  8
3
 10
144.455
 20
38.4225031631
 30
0.0
  0
VERTEX
  5
295A
  8
3
 10
144.3162304314999
 20
38.051327351
 30
0.0
  0
VERTEX
  5
295B
  8
3
 10
143.9186633248999
 20
37.7302808892
 30
0.0
  0
VERTEX
  5
295C
  8
3
 10
143.3159923212
 20
37.50272288119999
 30
0.0
  0
VERTEX
  5
295D
  8
3
 10
142.5896114787
 20
37.39938629689999
 30
0.0
  0
VERTEX
  5
295E
  8
3
 10
141.8376225553998
 20
37.4342273147
 30
0.0
  0
VERTEX
  5
295F
  8
3
 10
141.1615858223
 20
37.60254046200001
 30
0.0
  0
VERTEX
  5
2960
  8
3
 10
140.6528037860999
 20
37.88159411570001
 30
0.0
  0
VERTEX
  5
2961
  8
3
 10
140.3799902801998
 20
38.23370053349998
 30
0.0
  0
VERTEX
  5
2962
  8
3
 10
140.3799902801998
 20
38.61130579260001
 30
0.0
  0
VERTEX
  5
2963
  8
3
 10
140.6528037860999
 20
38.96341221040001
 30
0.0
  0
VERTEX
  5
2964
  8
3
 10
141.1615858223
 20
39.24246586409998
 30
0.0
  0
VERTEX
  5
2965
  8
3
 10
141.8376225553998
 20
39.4107790114
 30
0.0
  0
VERTEX
  5
2966
  8
3
 10
142.5896114787
 20
39.4456200292
 30
0.0
  0
VERTEX
  5
2967
  8
3
 10
143.3159923212
 20
39.3422834449
 30
0.0
  0
VERTEX
  5
2968
  8
3
 10
143.9186633248999
 20
39.11472543689999
 30
0.0
  0
VERTEX
  5
2969
  8
3
 10
144.3162304314999
 20
38.79367897509999
 30
0.0
  0
VERTEX
  5
296A
  8
3
 10
144.455
 20
38.4225031631
 30
0.0
  0
SEQEND
  5
2A08
  8
3
  0
POLYLINE
  5
DCA
  8
3
 66
     1
 10
0.0
 20
0.0
 30
0.0
  0
VERTEX
  5
296B
  8
3
 10
144.8999999999999
 20
38.6923500577
 30
0.0
  0
VERTEX
  5
296C
  8
3
 10
144.7492315519999
 20
38.26482487850001
 30
0.0
  0
VERTEX
  5
296D
  8
3
 10
144.3151111077999
 20
37.8888655456
 30
0.0
  0
VERTEX
  5
296E
  8
3
 10
143.6499999999999
 20
37.60981830290001
 30
0.0
  0
VERTEX
  5
296F
  8
3
 10
142.8341204442
 20
37.46134036640001
 30
0.0
  0
VERTEX
  5
2970
  8
3
 10
141.9658795558999
 20
37.46134036640001
 30
0.0
  0
VERTEX
  5
2971
  8
3
 10
141.1499999999999
 20
37.60981830290001
 30
0.0
  0
VERTEX
  5
2972
  8
3
 10
140.4848888922
 20
37.8888655456
 30
0.0
  0
VERTEX
  5
2973
  8
3
 10
140.0507684481
 20
38.26482487850001
 30
0.0
  0
VERTEX
  5
2974
  8
3
 10
139.8999999999999
 20
38.6923500577
 30
0.0
  0
VERTEX
  5
2975
  8
3
 10
140.0507684481
 20
39.1198752368
 30
0.0
  0
VERTEX
  5
2976
  8
3
 10
140.4848888922
 20
39.4958345698
 30
0.0
  0
VERTEX
  5
2977
  8
3
 10
141.1499999999999
 20
39.7748818124
 30
0.0
  0
VERTEX
  5
2978
  8
3
 10
141.9658795558999
 20
39.9233597489
 30
0.0
  0
VERTEX
  5
2979
  8
3
 10
142.8341204442
 20
39.9233597489
 30
0.0
  0
VERTEX
  5
297A
  8
3
 10
143.6499999999999
 20
39.7748818124
 30
0.0
  0
VERTEX
  5
297B
  8
3
 10
144.3151111077999
 20
39.4958345698
 30
0.0
  0
VERTEX
  5
297C
  8
3
 10
144.7492315519999
 20
39.1198752368
 30
0.0
  0
VERTEX
  5
297D
  8
3
 10
144.8999999999999
 20
38.6923500577
 30
0.0
  0
SEQEND
  5
2A07
  8
3
  0
POLYLINE
  5
DCB
  8
3
 66
     1
 10
0.0
 20
0.0
 30
0.0
  0
VERTEX
  5
297E
  8
3
 10
144.8999999999999
 20
38.77038960900001
 30
0.0
  0
VERTEX
  5
297F
  8
3
 10
144.7492315519999
 20
38.3428644299
 30
0.0
  0
VERTEX
  5
2980
  8
3
 10
144.3151111077999
 20
37.96690509690001
 30
0.0
  0
VERTEX
  5
2981
  8
3
 10
143.6499999999999
 20
37.68785785430001
 30
0.0
  0
VERTEX
  5
2982
  8
3
 10
142.8341204442
 20
37.53937991780001
 30
0.0
  0
VERTEX
  5
2983
  8
3
 10
141.9658795558999
 20
37.53937991780001
 30
0.0
  0
VERTEX
  5
2984
  8
3
 10
141.1499999999999
 20
37.68785785430001
 30
0.0
  0
VERTEX
  5
2985
  8
3
 10
140.4848888922
 20
37.96690509690001
 30
0.0
  0
VERTEX
  5
2986
  8
3
 10
140.0507684481
 20
38.3428644299
 30
0.0
  0
VERTEX
  5
2987
  8
3
 10
139.8999999999999
 20
38.77038960900001
 30
0.0
  0
VERTEX
  5
2988
  8
3
 10
140.0507684481
 20
39.19791478819999
 30
0.0
  0
VERTEX
  5
2989
  8
3
 10
140.4848888922
 20
39.5738741211
 30
0.0
  0
VERTEX
  5
298A
  8
3
 10
141.1499999999999
 20
39.85292136379999
 30
0.0
  0
VERTEX
  5
298B
  8
3
 10
141.9658795558999
 20
40.00139930029999
 30
0.0
  0
VERTEX
  5
298C
  8
3
 10
142.8341204442
 20
40.00139930029999
 30
0.0
  0
VERTEX
  5
298D
  8
3
 10
143.6499999999999
 20
39.85292136379999
 30
0.0
  0
VERTEX
  5
298E
  8
3
 10
144.3151111077999
 20
39.5738741211
 30
0.0
  0
VERTEX
  5
298F
  8
3
 10
144.7492315519999
 20
39.19791478819999
 30
0.0
  0
VERTEX
  5
2990
  8
3
 10
144.8999999999999
 20
38.77038960900001
 30
0.0
  0
SEQEND
  5
2A06
  8
3
  0
POLYLINE
  5
DCC
  8
3
 66
     1
 10
0.0
 20
0.0
 30
0.0
  0
VERTEX
  5
2991
  8
3
 10
144.455
 20
39.04023650369999
 30
0.0
  0
VERTEX
  5
2992
  8
3
 10
144.3162304314999
 20
38.66906069160001
 30
0.0
  0
VERTEX
  5
2993
  8
3
 10
143.9186633248999
 20
38.34801422979999
 30
0.0
  0
VERTEX
  5
2994
  8
3
 10
143.3159923212
 20
38.1204562218
 30
0.0
  0
VERTEX
  5
2995
  8
3
 10
142.5896114787
 20
38.0171196375
 30
0.0
  0
VERTEX
  5
2996
  8
3
 10
141.8376225553998
 20
38.05196065530001
 30
0.0
  0
VERTEX
  5
2997
  8
3
 10
141.1615858223
 20
38.22027380259999
 30
0.0
  0
VERTEX
  5
2998
  8
3
 10
140.6528037860999
 20
38.49932745629999
 30
0.0
  0
VERTEX
  5
2999
  8
3
 10
140.3799902801998
 20
38.8514338741
 30
0.0
  0
VERTEX
  5
299A
  8
3
 10
140.3799902801998
 20
39.22903913319999
 30
0.0
  0
VERTEX
  5
299B
  8
3
 10
140.6528037860999
 20
39.58114555099999
 30
0.0
  0
VERTEX
  5
299C
  8
3
 10
141.1615858223
 20
39.8601992047
 30
0.0
  0
VERTEX
  5
299D
  8
3
 10
141.8376225553998
 20
40.02851235200001
 30
0.0
  0
VERTEX
  5
299E
  8
3
 10
142.5896114787
 20
40.06335336979998
 30
0.0
  0
VERTEX
  5
299F
  8
3
 10
143.3159923212
 20
39.96001678549999
 30
0.0
  0
VERTEX
  5
29A0
  8
3
 10
143.9186633248999
 20
39.7324587775
 30
0.0
  0
VERTEX
  5
29A1
  8
3
 10
144.3162304314999
 20
39.41141231570001
 30
0.0
  0
VERTEX
  5
29A2
  8
3
 10
144.455
 20
39.04023650369999
 30
0.0
  0
SEQEND
  5
2A05
  8
3
  0
POLYLINE
  5
DCD
  8
3
 66
     1
 10
0.0
 20
0.0
 30
0.0
  0
VERTEX
  5
29A3
  8
3
 10
144.8999999999999
 20
39.31008339830001
 30
0.0
  0
VERTEX
  5
29A4
  8
3
 10
144.7492315519999
 20
38.88255821909999
 30
0.0
  0
VERTEX
  5
29A5
  8
3
 10
144.3151111077999
 20
38.50659888620001
 30
0.0
  0
VERTEX
  5
29A6
  8
3
 10
143.6499999999999
 20
38.22755164360001
 30
0.0
  0
VERTEX
  5
29A7
  8
3
 10
142.8341204442
 20
38.07907370699999
 30
0.0
  0
VERTEX
  5
29A8
  8
3
 10
141.9658795558999
 20
38.07907370699999
 30
0.0
  0
VERTEX
  5
29A9
  8
3
 10
141.1499999999999
 20
38.22755164360001
 30
0.0
  0
VERTEX
  5
29AA
  8
3
 10
140.4848888922
 20
38.50659888620001
 30
0.0
  0
VERTEX
  5
29AB
  8
3
 10
140.0507684481
 20
38.88255821909999
 30
0.0
  0
VERTEX
  5
29AC
  8
3
 10
139.8999999999999
 20
39.31008339830001
 30
0.0
  0
VERTEX
  5
29AD
  8
3
 10
140.0507684481
 20
39.73760857740001
 30
0.0
  0
VERTEX
  5
29AE
  8
3
 10
140.4848888922
 20
40.11356791040001
 30
0.0
  0
VERTEX
  5
29AF
  8
3
 10
141.1499999999999
 20
40.39261515300001
 30
0.0
  0
VERTEX
  5
29B0
  8
3
 10
141.9658795558999
 20
40.54109308950001
 30
0.0
  0
VERTEX
  5
29B1
  8
3
 10
142.8341204442
 20
40.54109308950001
 30
0.0
  0
VERTEX
  5
29B2
  8
3
 10
143.6499999999999
 20
40.39261515300001
 30
0.0
  0
VERTEX
  5
29B3
  8
3
 10
144.3151111077999
 20
40.11356791040001
 30
0.0
  0
VERTEX
  5
29B4
  8
3
 10
144.7492315519999
 20
39.73760857740001
 30
0.0
  0
VERTEX
  5
29B5
  8
3
 10
144.8999999999999
 20
39.31008339830001
 30
0.0
  0
SEQEND
  5
2A04
  8
3
  0
LINE
  5
DCE
  8
3
 10
142.3999999999999
 20
38.26388909049999
 30
0.0
 11
142.3999999999999
 21
40.6021576807
 31
0.0
  0
LINE
  5
DCF
  8
3
 10
143.6499999999999
 20
37.90304517229998
 30
0.0
 11
142.3999999999999
 21
38.26388909049999
 31
0.0
  0
LINE
  5
DD0
  8
3
 10
141.1499999999999
 20
37.90304517229998
 30
0.0
 11
142.3999999999999
 21
38.26388909049999
 31
0.0
  0
POLYLINE
  5
DD1
  8
3
 66
     1
 10
0.0
 20
0.0
 30
0.0
  0
VERTEX
  5
29B6
  8
3
 10
144.8999999999999
 20
39.38812294959999
 30
0.0
  0
VERTEX
  5
29B7
  8
3
 10
144.7492315519999
 20
38.96059777049999
 30
0.0
  0
VERTEX
  5
29B8
  8
3
 10
144.3151111077999
 20
38.58463843749999
 30
0.0
  0
VERTEX
  5
29B9
  8
3
 10
143.6499999999999
 20
38.30559119489999
 30
0.0
  0
VERTEX
  5
29BA
  8
3
 10
142.8341204442
 20
38.15711325839999
 30
0.0
  0
VERTEX
  5
29BB
  8
3
 10
141.9658795558999
 20
38.15711325839999
 30
0.0
  0
VERTEX
  5
29BC
  8
3
 10
141.1499999999999
 20
38.30559119489999
 30
0.0
  0
VERTEX
  5
29BD
  8
3
 10
140.4848888922
 20
38.58463843749999
 30
0.0
  0
VERTEX
  5
29BE
  8
3
 10
140.0507684481
 20
38.96059777049999
 30
0.0
  0
VERTEX
  5
29BF
  8
3
 10
139.8999999999999
 20
39.38812294959999
 30
0.0
  0
VERTEX
  5
29C0
  8
3
 10
140.0507684481
 20
39.81564812880001
 30
0.0
  0
VERTEX
  5
29C1
  8
3
 10
140.4848888922
 20
40.19160746169999
 30
0.0
  0
VERTEX
  5
29C2
  8
3
 10
141.1499999999999
 20
40.4706547044
 30
0.0
  0
VERTEX
  5
29C3
  8
3
 10
141.9658795558999
 20
40.61913264090001
 30
0.0
  0
VERTEX
  5
29C4
  8
3
 10
142.8341204442
 20
40.61913264090001
 30
0.0
  0
VERTEX
  5
29C5
  8
3
 10
143.6499999999999
 20
40.4706547044
 30
0.0
  0
VERTEX
  5
29C6
  8
3
 10
144.3151111077999
 20
40.19160746169999
 30
0.0
  0
VERTEX
  5
29C7
  8
3
 10
144.7492315519999
 20
39.81564812880001
 30
0.0
  0
VERTEX
  5
29C8
  8
3
 10
144.8999999999999
 20
39.38812294959999
 30
0.0
  0
SEQEND
  5
2A03
  8
3
  0
POLYLINE
  5
DD2
  8
3
 66
     1
 10
0.0
 20
0.0
 30
0.0
  0
VERTEX
  5
29C9
  8
3
 10
144.455
 20
39.6579698443
 30
0.0
  0
VERTEX
  5
29CA
  8
3
 10
144.3162304314999
 20
39.28679403230001
 30
0.0
  0
VERTEX
  5
29CB
  8
3
 10
143.9186633248999
 20
38.9657475704
 30
0.0
  0
VERTEX
  5
29CC
  8
3
 10
143.3159923212
 20
38.73818956240001
 30
0.0
  0
VERTEX
  5
29CD
  8
3
 10
142.5896114787
 20
38.63485297809999
 30
0.0
  0
VERTEX
  5
29CE
  8
3
 10
141.8376225553998
 20
38.66969399589999
 30
0.0
  0
VERTEX
  5
29CF
  8
3
 10
141.1615858223
 20
38.8380071432
 30
0.0
  0
VERTEX
  5
29D0
  8
3
 10
140.6528037860999
 20
39.11706079690001
 30
0.0
  0
VERTEX
  5
29D1
  8
3
 10
140.3799902801998
 20
39.46916721470001
 30
0.0
  0
VERTEX
  5
29D2
  8
3
 10
140.3799902801998
 20
39.8467724738
 30
0.0
  0
VERTEX
  5
29D3
  8
3
 10
140.6528037860999
 20
40.1988788916
 30
0.0
  0
VERTEX
  5
29D4
  8
3
 10
141.1615858223
 20
40.47793254530001
 30
0.0
  0
VERTEX
  5
29D5
  8
3
 10
141.8376225553998
 20
40.64624569259999
 30
0.0
  0
VERTEX
  5
29D6
  8
3
 10
142.5896114787
 20
40.6810867104
 30
0.0
  0
VERTEX
  5
29D7
  8
3
 10
143.3159923212
 20
40.5777501261
 30
0.0
  0
VERTEX
  5
29D8
  8
3
 10
143.9186633248999
 20
40.35019211809998
 30
0.0
  0
VERTEX
  5
29D9
  8
3
 10
144.3162304314999
 20
40.02914565629999
 30
0.0
  0
VERTEX
  5
29DA
  8
3
 10
144.455
 20
39.6579698443
 30
0.0
  0
SEQEND
  5
2A02
  8
3
  0
POLYLINE
  5
DD3
  8
3
 66
     1
 10
0.0
 20
0.0
 30
0.0
  0
VERTEX
  5
29DB
  8
3
 10
144.6561031268998
 20
39.77991828079999
 30
0.0
  0
VERTEX
  5
29DC
  8
3
 10
144.5037535124998
 20
40.1874175072
 30
0.0
  0
VERTEX
  5
29DD
  8
3
 10
144.0672803288999
 20
40.53988170489998
 30
0.0
  0
VERTEX
  5
29DE
  8
3
 10
143.4056316982999
 20
40.7897086312
 30
0.0
  0
VERTEX
  5
29DF
  8
3
 10
142.6081669342998
 20
40.90315777519999
 30
0.0
  0
VERTEX
  5
29E0
  8
3
 10
141.7825880724
 20
40.8649072014
 30
0.0
  0
VERTEX
  5
29E1
  8
3
 10
141.0403941125999
 20
40.6801228617
 30
0.0
  0
VERTEX
  5
29E2
  8
3
 10
140.4818224616
 20
40.37376090519999
 30
0.0
  0
VERTEX
  5
29E3
  8
3
 10
140.1823113162
 20
39.98719721169999
 30
0.0
  0
VERTEX
  5
29E4
  8
3
 10
140.1823113162
 20
39.57263935
 30
0.0
  0
VERTEX
  5
29E5
  8
3
 10
140.4818224616
 20
39.18607565650001
 30
0.0
  0
VERTEX
  5
29E6
  8
3
 10
141.0403941125999
 20
38.8797137
 30
0.0
  0
VERTEX
  5
29E7
  8
3
 10
141.7825880724
 20
38.69492936029999
 30
0.0
  0
VERTEX
  5
29E8
  8
3
 10
142.6081669342998
 20
38.65667878650001
 30
0.0
  0
VERTEX
  5
29E9
  8
3
 10
143.4056316982999
 20
38.7701279305
 30
0.0
  0
VERTEX
  5
29EA
  8
3
 10
144.0672803288999
 20
39.01995485679998
 30
0.0
  0
VERTEX
  5
29EB
  8
3
 10
144.5037535124998
 20
39.3724190545
 30
0.0
  0
VERTEX
  5
29EC
  8
3
 10
144.6561031268998
 20
39.77991828079999
 30
0.0
  0
SEQEND
  5
2A01
  8
3
  0
LINE
  5
DD4
  8
3
 10
143.6499999999999
 20
37.18135733579999
 30
0.0
 11
143.6499999999999
 21
37.90304517229998
 31
0.0
  0
LINE
  5
DD5
  8
3
 10
143.6499999999999
 20
37.90304517229998
 30
0.0
 11
143.6499999999999
 21
40.2413137625
 31
0.0
  0
LINE
  5
DD6
  8
3
 10
141.1499999999999
 20
37.18135733579999
 30
0.0
 11
141.1499999999999
 21
37.90304517229998
 31
0.0
  0
LINE
  5
DD7
  8
3
 10
141.1499999999999
 20
37.90304517229998
 30
0.0
 11
141.1499999999999
 21
40.2413137625
 31
0.0
  0
POLYLINE
  5
DD8
  8
3
 66
     1
 10
0.0
 20
0.0
 30
0.0
  0
VERTEX
  5
29ED
  8
3
 10
142.3999999999999
 20
38.85296984429999
 30
0.0
  0
VERTEX
  5
29EE
  8
3
 10
141.6576483759998
 20
38.92235462849999
 30
0.0
  0
VERTEX
  5
29EF
  8
3
 10
141.0155554522999
 20
39.12113818180001
 30
0.0
  0
VERTEX
  5
29F0
  8
3
 10
140.5604394363
 20
39.42247368369999
 30
0.0
  0
VERTEX
  5
29F1
  8
3
 10
140.3537662677
 20
39.78566410490001
 30
0.0
  0
VERTEX
  5
29F2
  8
3
 10
140.4234483032999
 20
40.16165856660001
 30
0.0
  0
VERTEX
  5
29F3
  8
3
 10
140.7600745979999
 20
40.49967693310001
 30
0.0
  0
VERTEX
  5
29F4
  8
3
 10
141.3181819053
 20
40.7540679512
 30
0.0
  0
VERTEX
  5
29F5
  8
3
 10
142.0223947409
 20
40.89047470419999
 30
0.0
  0
VERTEX
  5
29F6
  8
3
 10
142.7776052590999
 20
40.89047470419999
 30
0.0
  0
VERTEX
  5
29F7
  8
3
 10
143.4818180947
 20
40.7540679512
 30
0.0
  0
VERTEX
  5
29F8
  8
3
 10
144.0399254021
 20
40.49967693310001
 30
0.0
  0
VERTEX
  5
29F9
  8
3
 10
144.3765516967999
 20
40.16165856660001
 30
0.0
  0
VERTEX
  5
29FA
  8
3
 10
144.4462337322998
 20
39.78566410490001
 30
0.0
  0
VERTEX
  5
29FB
  8
3
 10
144.2395605637999
 20
39.42247368369999
 30
0.0
  0
VERTEX
  5
29FC
  8
3
 10
143.7844445476999
 20
39.12113818180001
 30
0.0
  0
VERTEX
  5
29FD
  8
3
 10
143.142351624
 20
38.92235462849999
 30
0.0
  0
VERTEX
  5
29FE
  8
3
 10
142.3999999999999
 20
38.85296984429999
 30
0.0
  0
SEQEND
  5
2A00
  8
3
  0
LINE
  5
DD9
  8
3
 10
143.6499999999999
 20
40.2413137625
 30
0.0
 11
142.3999999999999
 21
40.6021576807
 31
0.0
  0
LINE
  5
DDA
  8
3
 10
141.1499999999999
 20
40.2413137625
 30
0.0
 11
142.3999999999999
 21
40.6021576807
 31
0.0
  0
LINE
  5
DDB
  8
3
 10
142.3999999999999
 20
36.82051341760001
 30
0.0
 11
142.3999999999999
 21
38.26388909049999
 31
0.0
  0
LINE
  5
DDC
  8
3
 10
141.1499999999999
 20
39.519625926
 30
0.0
 11
142.3999999999999
 21
39.1587820078
 31
0.0
  0
LINE
  5
DDD
  8
3
 10
141.1499999999999
 20
37.18135733579999
 30
0.0
 11
142.3999999999999
 21
36.82051341760001
 31
0.0
  0
LINE
  5
DDE
  8
3
 10
143.6499999999999
 20
39.519625926
 30
0.0
 11
142.3999999999999
 21
39.1587820078
 31
0.0
  0
LINE
  5
DDF
  8
3
 10
143.6499999999999
 20
37.18135733579999
 30
0.0
 11
142.3999999999999
 21
36.82051341760001
 31
0.0
  0
LINE
  5
DE2
  8
3
 10
152.3999999999999
 20
20.04907116050001
 30
0.0
 11
152.2136296694999
 21
19.35352761799999
 31
0.0
  0
LINE
  5
DE3
  8
3
 10
152.2136296694999
 20
-19.3535276181
 30
0.0
 11
152.3999999999999
 21
-20.04907116060002
 31
0.0
  0
ARC
  5
DE4
  8
3
 10
152.6
 20
-19.25
 30
0.0
 40
0.3999999999999199
 50
166.8750000000022
 51
194.9999999999983
  0
ARC
  5
DE5
  8
3
 10
152.6
 20
-19.25
 30
0.0
 40
0.4000000000000088
 50
120.0000000000066
 51
166.8750000000009
  0
ARC
  5
DE6
  8
3
 10
152.6
 20
19.25
 30
0.0
 40
0.4000000000000909
 50
165.0000000000046
 51
180.0
  0
ARC
  5
DE7
  8
3
 10
152.6
 20
19.25
 30
0.0
 40
0.4000000000000909
 50
180.0
 51
240.0000000000001
  0
LINE
  5
DE8
  8
3
 10
152.1999999999999
 20
19.25
 30
0.0
 11
152.1999999999999
 21
-19.25
 31
0.0
  0
LINE
  5
DE9
  8
3
 10
152.3999999999999
 20
2.5
 30
0.0
 11
142.9999999999998
 21
2.5
 31
0.0
  0
LINE
  5
DEA
  8
3
 10
142.9999999999998
 20
-2.5
 30
0.0
 11
152.3999999999999
 21
-2.5
 31
0.0
  0
LINE
  5
DEB
  8
3
 10
142.9999999999998
 20
2.5
 30
0.0
 11
142.744227404
 21
2.074322916200003
 31
0.0
  0
LINE
  5
DEC
  8
3
 10
142.744227404
 20
-2.074322916299991
 30
0.0
 11
142.9999999999998
 21
-2.5
 31
0.0
  0
LINE
  5
DF5
  8
SK3
 10
-5.25
 20
-10.84649999999999
 30
0.0
 11
-4.761656058700055
 21
-8.731249999999989
 31
0.0
  0
LINE
  5
DF6
  8
SK3
 10
-4.761656058700055
 20
8.731249999999989
 30
0.0
 11
-5.25
 21
10.84649999999999
 31
0.0
  0
LINE
  5
DFD
  8
3
 10
152.3999999999999
 20
8.731249999999989
 30
0.0
 11
0.0
 21
8.731249999999989
 31
0.0
  0
LINE
  5
DFE
  8
3
 10
0.0
 20
-8.731249999999989
 30
0.0
 11
152.3999999999999
 21
-8.731249999999989
 31
0.0
  0
LINE
  5
DFF
  8
3
 10
152.3999999999999
 20
-25.40525000000002
 30
0.0
 11
134.3999999999999
 21
-25.40525000000002
 31
0.0
  0
LINE
  5
E00
  8
3
 10
134.3999999999999
 20
-41.27475
 30
0.0
 11
152.3999999999999
 21
-41.27475
 31
0.0
  0
LINE
  5
E01
  8
3
 10
134.3999999999999
 20
-25.40525000000002
 30
0.0
 11
129.6323212031999
 21
-33.34
 31
0.0
  0
LINE
  5
E02
  8
3
 10
129.6323212031999
 20
-33.34
 30
0.0
 11
134.3999999999999
 21
-41.27475
 31
0.0
  0
LINE
  5
E03
  8
3
 10
134.3999999999999
 20
41.27474999999998
 30
0.0
 11
129.6323212031999
 21
33.34
 31
0.0
  0
LINE
  5
E04
  8
3
 10
129.6323212031999
 20
33.34
 30
0.0
 11
134.3999999999999
 21
25.40525
 31
0.0
  0
LINE
  5
E05
  8
3
 10
152.3999999999999
 20
41.27474999999998
 30
0.0
 11
134.3999999999999
 21
41.27474999999998
 31
0.0
  0
LINE
  5
E06
  8
3
 10
134.3999999999999
 20
25.40525
 30
0.0
 11
152.3999999999999
 21
25.40525
 31
0.0
  0
LINE
  5
E0D
  8
3
 10
140.3
 20
38.5597811035
 30
0.0
 11
140.3
 21
7.559329003500011
 31
0.0
  0
LINE
  5
E0E
  8
3
 10
144.4999999999998
 20
14.28505278829999
 30
0.0
 11
144.4999999999998
 21
38.5597811035
 31
0.0
  0
LINE
  5
E0F
  8
3
 10
144.4999999999998
 20
7.556344272300009
 30
0.0
 11
144.4999999999998
 21
9.963658517699997
 31
0.0
  0
LINE
  5
E10
  8
3
 10
144.4999999999998
 20
-9.963658517699997
 30
0.0
 11
144.4999999999998
 21
-7.556344272300009
 31
0.0
  0
LINE
  5
E11
  8
3
 10
144.4999999999998
 20
-38.5597811035
 30
0.0
 11
144.4999999999998
 21
-14.28505278829999
 31
0.0
  0
LINE
  5
E12
  8
3
 10
140.3
 20
-7.559329003500011
 30
0.0
 11
140.3
 21
-38.5597811035
 31
0.0
  0
LINE
  5
E13
  8
3
 10
152.3999999999999
 20
14.62435565300001
 30
0.0
 11
144.0675126857998
 21
14.62435565300001
 31
0.0
  0
LINE
  5
E14
  8
3
 10
144.0675126857998
 20
9.62435565300001
 30
0.0
 11
152.3999999999999
 21
9.62435565300001
 31
0.0
  0
LINE
  5
E15
  8
3
 10
152.3999999999999
 20
-9.62435565300001
 30
0.0
 11
144.0619440840999
 21
-9.62435565300001
 31
0.0
  0
LINE
  5
E16
  8
3
 10
144.0619440840999
 20
-14.62435565300001
 30
0.0
 11
152.3999999999999
 21
-14.62435565300001
 31
0.0
  0
LINE
  5
E17
  8
3
 10
140.2566964751
 20
38.25667221219999
 30
0.0
 11
140.6853571800999
 21
37.95356332079999
 31
0.0
  0
LINE
  5
E18
  8
3
 10
144.11464282
 20
37.95356332079999
 30
0.0
 11
144.5433035249999
 21
38.25667221219999
 31
0.0
  0
LINE
  5
E19
  8
3
 10
139.7749999999999
 20
39.878833853
 30
0.0
 11
139.7749999999999
 21
39.0144444405
 31
0.0
  0
LINE
  5
E1A
  8
3
 10
145.0249999999999
 20
39.0144444405
 30
0.0
 11
145.0249999999999
 21
39.8803022223
 31
0.0
  0
LINE
  5
E1B
  8
3
 10
144.5433035249999
 20
-38.25667221219999
 30
0.0
 11
144.11464282
 21
-37.9535633209
 31
0.0
  0
LINE
  5
E1C
  8
3
 10
140.6853571800999
 20
-37.9535633209
 30
0.0
 11
140.2566964751
 21
-38.25667221219999
 31
0.0
  0
LINE
  5
E1D
  8
3
 10
145.0249999999999
 20
-39.8803022223
 30
0.0
 11
145.0249999999999
 21
-39.0144444405
 31
0.0
  0
LINE
  5
E1E
  8
3
 10
139.7749999999999
 20
-39.0144444405
 30
0.0
 11
139.7749999999999
 21
-39.878833853
 31
0.0
  0
LINE
  5
E1F
  8
3
 10
152.3999999999999
 20
9.525000000000006
 30
0.0
 11
146.98599
 21
9.525000000000006
 31
0.0
  0
LINE
  5
E20
  8
3
 10
146.98599
 20
-9.525000000000006
 30
0.0
 11
152.3999999999999
 21
-9.525000000000006
 31
0.0
  0
LINE
  5
E21
  8
3
 10
146.98599
 20
9.525000000000006
 30
0.0
 11
146.05
 21
8.589010000000002
 31
0.0
  0
LINE
  5
E22
  8
3
 10
146.05
 20
-8.589010000000002
 30
0.0
 11
146.98599
 21
-9.525000000000006
 31
0.0
  0
LINE
  5
E27
  8
3
 10
152.3999999999999
 20
-25.39868999999999
 30
0.0
 11
137.9101603049999
 21
-25.39868999999999
 31
0.0
  0
LINE
  5
E28
  8
3
 10
137.9101603049999
 20
-41.28131
 30
0.0
 11
152.3999999999999
 21
-41.28131
 31
0.0
  0
ARC
  5
E29
  8
3
 10
137.8472
 20
-25.20549
 30
0.0
 40
0.2031999999999954
 50
270.0
 51
288.0498306933262
  0
ARC
  5
E2A
  8
3
 10
137.8472
 20
-41.47451000000001
 30
0.0
 40
0.2032000000000238
 50
71.9501693066763
 51
90.0
  0
LINE
  5
E2B
  8
3
 10
137.8472
 20
-25.40869000000001
 30
0.0
 11
137.2720395106999
 21
-25.40869000000001
 31
0.0
  0
LINE
  5
E2C
  8
3
 10
137.2720395106999
 20
-41.27131
 30
0.0
 11
137.8472
 21
-41.27131
 31
0.0
  0
LINE
  5
E2D
  8
3
 10
137.2720395106999
 20
-25.40869000000001
 30
0.0
 11
136.3472
 21
-25.65649999999999
 31
0.0
  0
LINE
  5
E2E
  8
3
 10
136.3472
 20
-41.0235
 30
0.0
 11
137.2720395106999
 21
-41.27131
 31
0.0
  0
LINE
  5
E2F
  8
3
 10
152.3999999999999
 20
41.28130999999999
 30
0.0
 11
137.9101603049999
 21
41.28130999999999
 31
0.0
  0
LINE
  5
E30
  8
3
 10
137.9101603049999
 20
25.39868999999999
 30
0.0
 11
152.3999999999999
 21
25.39868999999999
 31
0.0
  0
ARC
  5
E31
  8
3
 10
137.8472
 20
41.47451000000001
 30
0.0
 40
0.2032000000000025
 50
270.0
 51
288.0498306933255
  0
ARC
  5
E32
  8
3
 10
137.8472
 20
25.20549
 30
0.0
 40
0.2032000000000025
 50
71.95016930667444
 51
90.0
  0
LINE
  5
E33
  8
3
 10
137.2720395106999
 20
41.27131
 30
0.0
 11
136.3472
 21
41.02350000000001
 31
0.0
  0
LINE
  5
E34
  8
3
 10
136.3472
 20
25.65649999999999
 30
0.0
 11
137.2720395106999
 21
25.40869000000001
 31
0.0
  0
LINE
  5
E35
  8
3
 10
137.8472
 20
41.27131
 30
0.0
 11
137.2720395106999
 21
41.27131
 31
0.0
  0
LINE
  5
E36
  8
3
 10
137.2720395106999
 20
25.40869000000001
 30
0.0
 11
137.8472
 21
25.40869000000001
 31
0.0
  0
LINE
  5
E37
  8
3
 10
144.2916043639999
 20
-34.50633923800001
 30
0.0
 11
143.8288690165999
 21
-34.17913593600002
 31
0.0
  0
LINE
  5
E38
  8
3
 10
140.9711309834
 20
-34.17913593600002
 30
0.0
 11
140.5083956361
 21
-34.50633923800001
 31
0.0
  0
LINE
  5
E39
  8
3
 10
143.8145032040998
 20
-34.57300630949999
 30
0.0
 11
143.5627216336998
 21
-34.48661992889998
 31
0.0
  0
LINE
  5
E3A
  8
3
 10
141.2372783663
 20
-34.48661992889998
 30
0.0
 11
140.9854967959998
 21
-34.57300630949999
 31
0.0
  0
LINE
  5
E3B
  8
3
 10
141.0891896445999
 20
-36.130243678
 30
0.0
 11
141.2372783663
 21
-36.1810529912
 31
0.0
  0
LINE
  5
E3C
  8
3
 10
143.5627216336998
 20
-36.1810529912
 30
0.0
 11
143.7108103553999
 21
-36.130243678
 31
0.0
  0
LINE
  5
E3D
  8
3
 10
144.8999999999999
 20
-35.681722906
 30
0.0
 11
144.8999999999999
 21
-35.6036833547
 31
0.0
  0
LINE
  5
E3E
  8
3
 10
139.8999999999999
 20
-35.6036833547
 30
0.0
 11
139.8999999999999
 21
-35.681722906
 31
0.0
  0
LINE
  5
E3F
  8
3
 10
140.9854967959998
 20
-36.71239995119998
 30
0.0
 11
141.2372783663
 21
-36.79878633179999
 31
0.0
  0
LINE
  5
E40
  8
3
 10
143.5627216336998
 20
-36.79878633179999
 30
0.0
 11
143.8145032040998
 21
-36.71239995119998
 31
0.0
  0
LINE
  5
E41
  8
3
 10
143.8145032040998
 20
-35.1907396501
 30
0.0
 11
143.5627216336998
 21
-35.1043532695
 31
0.0
  0
LINE
  5
E42
  8
3
 10
141.2372783663
 20
-35.1043532695
 30
0.0
 11
140.9854967959998
 21
-35.1907396501
 31
0.0
  0
LINE
  5
E43
  8
3
 10
144.8999999999999
 20
-36.29945624660002
 30
0.0
 11
144.8999999999999
 21
-36.22141669530001
 31
0.0
  0
LINE
  5
E44
  8
3
 10
139.8999999999999
 20
-36.22141669530001
 30
0.0
 11
139.8999999999999
 21
-36.29945624660002
 31
0.0
  0
LINE
  5
E45
  8
3
 10
140.9854967959998
 20
-37.3301332918
 30
0.0
 11
141.2372783663
 21
-37.4165196724
 31
0.0
  0
LINE
  5
E46
  8
3
 10
143.5627216336998
 20
-37.4165196724
 30
0.0
 11
143.8145032040998
 21
-37.3301332918
 31
0.0
  0
LINE
  5
E47
  8
3
 10
143.8145032040998
 20
-35.80847299070001
 30
0.0
 11
143.5627216336998
 21
-35.72208661010001
 31
0.0
  0
LINE
  5
E48
  8
3
 10
141.2372783663
 20
-35.72208661010001
 30
0.0
 11
140.9854967959998
 21
-35.80847299070001
 31
0.0
  0
LINE
  5
E49
  8
3
 10
144.8999999999999
 20
-36.9171895872
 30
0.0
 11
144.8999999999999
 21
-36.83915003589999
 31
0.0
  0
LINE
  5
E4A
  8
3
 10
139.8999999999999
 20
-36.83915003589999
 30
0.0
 11
139.8999999999999
 21
-36.9171895872
 31
0.0
  0
LINE
  5
E4B
  8
3
 10
140.9854967959998
 20
-37.94786663240001
 30
0.0
 11
141.2372783663
 21
-38.03425301300001
 31
0.0
  0
LINE
  5
E4C
  8
3
 10
143.5627216336998
 20
-38.03425301300001
 30
0.0
 11
143.8145032040998
 21
-37.94786663240001
 31
0.0
  0
LINE
  5
E4D
  8
3
 10
143.8145032040998
 20
-36.42620633130002
 30
0.0
 11
143.5627216337999
 21
-36.33981995070002
 31
0.0
  0
LINE
  5
E4E
  8
3
 10
141.2372783663
 20
-36.33981995070002
 30
0.0
 11
140.9854967959998
 21
-36.42620633130002
 31
0.0
  0
LINE
  5
E4F
  8
3
 10
144.8999999999999
 20
-37.53492292779998
 30
0.0
 11
144.8999999999999
 21
-37.4568833765
 31
0.0
  0
LINE
  5
E50
  8
3
 10
139.8999999999999
 20
-37.4568833765
 30
0.0
 11
139.8999999999999
 21
-37.53492292779998
 31
0.0
  0
LINE
  5
E51
  8
3
 10
140.9854967959998
 20
-38.56559997300002
 30
0.0
 11
141.2372783663
 21
-38.65198635360001
 31
0.0
  0
LINE
  5
E52
  8
3
 10
143.5627216337999
 20
-38.65198635360001
 30
0.0
 11
143.8145032040998
 21
-38.56559997300002
 31
0.0
  0
LINE
  5
E53
  8
3
 10
143.8145032040998
 20
-37.04393967190001
 30
0.0
 11
143.5627216337999
 21
-36.9575532913
 31
0.0
  0
LINE
  5
E54
  8
3
 10
141.2372783663
 20
-36.9575532913
 30
0.0
 11
140.9854967959998
 21
-37.04393967190001
 31
0.0
  0
LINE
  5
E55
  8
3
 10
144.8999999999999
 20
-38.15265626849998
 30
0.0
 11
144.8999999999999
 21
-38.07461671710001
 31
0.0
  0
LINE
  5
E56
  8
3
 10
139.8999999999999
 20
-38.07461671710001
 30
0.0
 11
139.8999999999999
 21
-38.15265626849998
 31
0.0
  0
LINE
  5
E57
  8
3
 10
140.9854967959998
 20
-39.1833333136
 30
0.0
 11
141.2372783663
 21
-39.26971969420001
 31
0.0
  0
LINE
  5
E58
  8
3
 10
143.5627216337999
 20
-39.26971969420001
 30
0.0
 11
143.8145032040998
 21
-39.1833333136
 31
0.0
  0
LINE
  5
E59
  8
3
 10
143.8145032040998
 20
-37.66167301249999
 30
0.0
 11
143.5627216337999
 21
-37.57528663189998
 31
0.0
  0
LINE
  5
E5A
  8
3
 10
141.2372783663
 20
-37.57528663189998
 30
0.0
 11
140.9854967959998
 21
-37.66167301249999
 31
0.0
  0
LINE
  5
E5B
  8
3
 10
144.8999999999999
 20
-38.77038960910001
 30
0.0
 11
144.8999999999999
 21
-38.6923500577
 31
0.0
  0
LINE
  5
E5C
  8
3
 10
139.8999999999999
 20
-38.6923500577
 30
0.0
 11
139.8999999999999
 21
-38.77038960910001
 31
0.0
  0
LINE
  5
E5D
  8
3
 10
140.9854967959998
 20
-39.8010666542
 30
0.0
 11
141.2372783663
 21
-39.8874530348
 31
0.0
  0
LINE
  5
E5E
  8
3
 10
143.5627216337999
 20
-39.8874530348
 30
0.0
 11
143.8145032040998
 21
-39.8010666542
 31
0.0
  0
LINE
  5
E5F
  8
3
 10
143.8145032040998
 20
-38.2794063531
 30
0.0
 11
143.5627216337999
 21
-38.19301997259998
 31
0.0
  0
LINE
  5
E60
  8
3
 10
141.2372783663
 20
-38.19301997259998
 30
0.0
 11
140.9854967959998
 21
-38.2794063531
 31
0.0
  0
LINE
  5
E61
  8
3
 10
144.8999999999999
 20
-39.3881229497
 30
0.0
 11
144.8999999999999
 21
-39.31008339830001
 31
0.0
  0
LINE
  5
E62
  8
3
 10
139.8999999999999
 20
-39.31008339830001
 30
0.0
 11
139.8999999999999
 21
-39.3881229497
 31
0.0
  0
LINE
  5
E63
  8
3
 10
140.9854967959998
 20
-40.4187999948
 30
0.0
 11
141.2372783663
 21
-40.5051863754
 31
0.0
  0
LINE
  5
E64
  8
3
 10
143.5627216337999
 20
-40.5051863754
 30
0.0
 11
143.8145032040998
 21
-40.4187999948
 31
0.0
  0
LINE
  5
E65
  8
3
 10
143.6765060407
 20
-38.8497927991
 30
0.0
 11
143.5627216337999
 21
-38.8107533132
 31
0.0
  0
LINE
  5
E66
  8
3
 10
141.2372783663
 20
-38.8107533132
 30
0.0
 11
141.1234939593999
 21
-38.8497927991
 31
0.0
  0
LINE
  5
E67
  8
3
 10
140.5083956361
 20
34.50633923800001
 30
0.0
 11
140.9711309834
 21
34.17913593599999
 31
0.0
  0
LINE
  5
E68
  8
3
 10
143.8288690165999
 20
34.17913593599999
 30
0.0
 11
144.2916043639999
 21
34.50633923800001
 31
0.0
  0
LINE
  5
E69
  8
3
 10
140.9854967959998
 20
34.57300630949999
 30
0.0
 11
141.2372783663
 21
34.48661992889998
 31
0.0
  0
LINE
  5
E6A
  8
3
 10
143.5627216336998
 20
34.48661992889998
 30
0.0
 11
143.8145032040998
 21
34.57300630949999
 31
0.0
  0
LINE
  5
E6B
  8
3
 10
143.7108103553999
 20
36.13024367790001
 30
0.0
 11
143.5627216336998
 21
36.1810529912
 31
0.0
  0
LINE
  5
E6C
  8
3
 10
141.2372783663
 20
36.1810529912
 30
0.0
 11
141.0891896445999
 21
36.13024367790001
 31
0.0
  0
LINE
  5
E6D
  8
3
 10
139.8999999999999
 20
35.681722906
 30
0.0
 11
139.8999999999999
 21
35.6036833547
 31
0.0
  0
LINE
  5
E6E
  8
3
 10
144.8999999999999
 20
35.6036833547
 30
0.0
 11
144.8999999999999
 21
35.681722906
 31
0.0
  0
LINE
  5
E6F
  8
3
 10
143.8145032040998
 20
36.71239995119998
 30
0.0
 11
143.5627216336998
 21
36.79878633179999
 31
0.0
  0
LINE
  5
E70
  8
3
 10
141.2372783663
 20
36.79878633179999
 30
0.0
 11
140.9854967959998
 21
36.71239995119998
 31
0.0
  0
LINE
  5
E71
  8
3
 10
140.9854967959998
 20
35.1907396501
 30
0.0
 11
141.2372783663
 21
35.1043532695
 31
0.0
  0
LINE
  5
E72
  8
3
 10
143.5627216336998
 20
35.1043532695
 30
0.0
 11
143.8145032040998
 21
35.1907396501
 31
0.0
  0
LINE
  5
E73
  8
3
 10
139.8999999999999
 20
36.29945624659999
 30
0.0
 11
139.8999999999999
 21
36.22141669530001
 31
0.0
  0
LINE
  5
E74
  8
3
 10
144.8999999999999
 20
36.22141669530001
 30
0.0
 11
144.8999999999999
 21
36.29945624659999
 31
0.0
  0
LINE
  5
E75
  8
3
 10
143.8145032040998
 20
37.3301332918
 30
0.0
 11
143.5627216336998
 21
37.4165196724
 31
0.0
  0
LINE
  5
E76
  8
3
 10
141.2372783663
 20
37.4165196724
 30
0.0
 11
140.9854967959998
 21
37.3301332918
 31
0.0
  0
LINE
  5
E77
  8
3
 10
140.9854967959998
 20
35.80847299070001
 30
0.0
 11
141.2372783663
 21
35.72208661010001
 31
0.0
  0
LINE
  5
E78
  8
3
 10
143.5627216336998
 20
35.72208661010001
 30
0.0
 11
143.8145032040998
 21
35.80847299070001
 31
0.0
  0
LINE
  5
E79
  8
3
 10
139.8999999999999
 20
36.9171895872
 30
0.0
 11
139.8999999999999
 21
36.83915003589999
 31
0.0
  0
LINE
  5
E7A
  8
3
 10
144.8999999999999
 20
36.83915003589999
 30
0.0
 11
144.8999999999999
 21
36.9171895872
 31
0.0
  0
LINE
  5
E7B
  8
3
 10
143.8145032040998
 20
37.94786663240001
 30
0.0
 11
143.5627216336998
 21
38.03425301300001
 31
0.0
  0
LINE
  5
E7C
  8
3
 10
141.2372783663
 20
38.03425301300001
 30
0.0
 11
140.9854967959998
 21
37.94786663240001
 31
0.0
  0
LINE
  5
E7D
  8
3
 10
140.9854967959998
 20
36.42620633129999
 30
0.0
 11
141.2372783663
 21
36.33981995069999
 31
0.0
  0
LINE
  5
E7E
  8
3
 10
143.5627216337999
 20
36.33981995069999
 30
0.0
 11
143.8145032040998
 21
36.42620633129999
 31
0.0
  0
LINE
  5
E7F
  8
3
 10
139.8999999999999
 20
37.53492292779998
 30
0.0
 11
139.8999999999999
 21
37.4568833765
 31
0.0
  0
LINE
  5
E80
  8
3
 10
144.8999999999999
 20
37.4568833765
 30
0.0
 11
144.8999999999999
 21
37.53492292779998
 31
0.0
  0
LINE
  5
E81
  8
3
 10
143.8145032040998
 20
38.56559997299999
 30
0.0
 11
143.5627216337999
 21
38.65198635359999
 31
0.0
  0
LINE
  5
E82
  8
3
 10
141.2372783663
 20
38.65198635359999
 30
0.0
 11
140.9854967959998
 21
38.56559997299999
 31
0.0
  0
LINE
  5
E83
  8
3
 10
140.9854967959998
 20
37.04393967190001
 30
0.0
 11
141.2372783663
 21
36.9575532913
 31
0.0
  0
LINE
  5
E84
  8
3
 10
143.5627216337999
 20
36.9575532913
 30
0.0
 11
143.8145032040998
 21
37.04393967190001
 31
0.0
  0
LINE
  5
E85
  8
3
 10
139.8999999999999
 20
38.15265626839999
 30
0.0
 11
139.8999999999999
 21
38.07461671709999
 31
0.0
  0
LINE
  5
E86
  8
3
 10
144.8999999999999
 20
38.07461671709999
 30
0.0
 11
144.8999999999999
 21
38.15265626839999
 31
0.0
  0
LINE
  5
E87
  8
3
 10
143.8145032040998
 20
39.1833333136
 30
0.0
 11
143.5627216337999
 21
39.26971969420001
 31
0.0
  0
LINE
  5
E88
  8
3
 10
141.2372783663
 20
39.26971969420001
 30
0.0
 11
140.9854967959998
 21
39.1833333136
 31
0.0
  0
LINE
  5
E89
  8
3
 10
140.9854967959998
 20
37.66167301249999
 30
0.0
 11
141.2372783663
 21
37.57528663189998
 31
0.0
  0
LINE
  5
E8A
  8
3
 10
143.5627216337999
 20
37.57528663189998
 30
0.0
 11
143.8145032040998
 21
37.66167301249999
 31
0.0
  0
LINE
  5
E8B
  8
3
 10
139.8999999999999
 20
38.77038960900001
 30
0.0
 11
139.8999999999999
 21
38.6923500577
 31
0.0
  0
LINE
  5
E8C
  8
3
 10
144.8999999999999
 20
38.6923500577
 30
0.0
 11
144.8999999999999
 21
38.77038960900001
 31
0.0
  0
LINE
  5
E8D
  8
3
 10
143.8145032040998
 20
39.80106665419999
 30
0.0
 11
143.5627216337999
 21
39.88745303479999
 31
0.0
  0
LINE
  5
E8E
  8
3
 10
141.2372783663
 20
39.88745303479999
 30
0.0
 11
140.9854967959998
 21
39.80106665419999
 31
0.0
  0
LINE
  5
E8F
  8
3
 10
140.9854967959998
 20
38.2794063531
 30
0.0
 11
141.2372783663
 21
38.1930199725
 31
0.0
  0
LINE
  5
E90
  8
3
 10
143.5627216337999
 20
38.1930199725
 30
0.0
 11
143.8145032040998
 21
38.2794063531
 31
0.0
  0
LINE
  5
E91
  8
3
 10
139.8999999999999
 20
39.38812294959999
 30
0.0
 11
139.8999999999999
 21
39.31008339830001
 31
0.0
  0
LINE
  5
E92
  8
3
 10
144.8999999999999
 20
39.31008339830001
 30
0.0
 11
144.8999999999999
 21
39.38812294959999
 31
0.0
  0
LINE
  5
E93
  8
3
 10
143.8145032040998
 20
40.4187999948
 30
0.0
 11
143.5627216337999
 21
40.5051863754
 31
0.0
  0
LINE
  5
E94
  8
3
 10
141.2372783663
 20
40.5051863754
 30
0.0
 11
140.9854967959998
 21
40.4187999948
 31
0.0
  0
LINE
  5
E95
  8
3
 10
141.1234939593999
 20
38.84979279909999
 30
0.0
 11
141.2372783663
 21
38.81075331310001
 31
0.0
  0
LINE
  5
E96
  8
3
 10
143.5627216337999
 20
38.81075331310001
 30
0.0
 11
143.6765060407
 21
38.84979279909999
 31
0.0
  0
ARC
  5
EAF
  8
1
 10
152.6
 20
-19.25
 30
0.0
 40
0.4000000000000538
 50
75.00000000000772
 51
120.0000000000033
  0
ARC
  5
EB0
  8
1
 10
152.6
 20
19.25
 30
0.0
 40
0.40000000000004
 50
239.999999999996
 51
284.999999999993
  0
ARC
  5
EB1
  8
1
 10
173.9999999999998
 20
-17.05000000000001
 30
0.0
 40
2.0
 50
270.0
 51
0.0
  0
ARC
  5
EB2
  8
1
 10
173.9999999999998
 20
17.05000000000001
 30
0.0
 40
2.0
 50
0.0
 51
90.0
  0
LINE
  5
EB3
  8
1
 10
153.3990711606
 20
19.05000000000001
 30
0.0
 11
152.7035276180998
 21
18.86362966949997
 31
0.0
  0
LINE
  5
EB4
  8
1
 10
152.7035276180998
 20
-18.86362966949997
 30
0.0
 11
153.3990711606
 21
-19.05000000000001
 31
0.0
  0
LINE
  5
EB5
  8
1
 10
153.3990711606
 20
-19.05000000000001
 30
0.0
 11
173.9999999999998
 21
-19.05000000000001
 31
0.0
  0
LINE
  5
EB6
  8
1
 10
173.9999999999998
 20
19.05000000000001
 30
0.0
 11
153.3990711606
 21
19.05000000000001
 31
0.0
  0
LINE
  5
EB7
  8
1
 10
189.7379999999999
 20
23.8125
 30
0.0
 11
178.562
 21
23.8125
 31
0.0
  0
LINE
  5
EB8
  8
1
 10
178.562
 20
-23.8125
 30
0.0
 11
189.7379999999999
 21
-23.8125
 31
0.0
  0
LINE
  5
EB9
  8
1
 10
189.7379999999999
 20
-23.8125
 30
0.0
 11
190.4999999999998
 21
-23.0505
 31
0.0
  0
LINE
  5
EBA
  8
1
 10
190.4999999999998
 20
23.0505
 30
0.0
 11
189.7379999999999
 21
23.8125
 31
0.0
  0
LINE
  5
EBB
  8
1
 10
178.562
 20
23.8125
 30
0.0
 11
177.8
 21
23.0505
 31
0.0
  0
LINE
  5
EBC
  8
1
 10
177.8
 20
-23.0505
 30
0.0
 11
178.562
 21
-23.8125
 31
0.0
  0
ARC
  5
EBD
  8
1
 10
177.0125999999998
 20
10.31239999999997
 30
0.0
 40
0.7873999999999981
 50
270.0
 51
0.0
  0
ARC
  5
EBE
  8
1
 10
177.0125999999998
 20
-10.31239999999997
 30
0.0
 40
0.787399999999991
 50
0.0
 51
90.0
  0
LINE
  5
EBF
  8
1
 10
177.0125999999998
 20
9.524999999999977
 30
0.0
 11
175.9999999999998
 21
9.524999999999977
 31
0.0
  0
LINE
  5
EC0
  8
1
 10
175.9999999999998
 20
-9.525000000000034
 30
0.0
 11
177.0125999999998
 21
-9.525000000000034
 31
0.0
  0
LINE
  5
EC1
  8
1
 10
152.4285674554999
 20
-25.39868999999999
 30
0.0
 11
152.3999999999999
 21
-25.39868999999999
 31
0.0
  0
LINE
  5
EEC
  8
1
 10
175.9999999999998
 20
0.0
 30
0.0
 11
175.9999999999998
 21
17.05000000000001
 31
0.0
  0
LINE
  5
EED
  8
1
 10
175.9999999999998
 20
-17.05000000000001
 30
0.0
 11
175.9999999999998
 21
0.0
 31
0.0
  0
LINE
  5
EEE
  8
1
 10
153.3990711606
 20
0.0
 30
0.0
 11
153.3990711606
 21
19.05000000000001
 31
0.0
  0
LINE
  5
EEF
  8
1
 10
153.3990711606
 20
-19.05000000000001
 30
0.0
 11
153.3990711606
 21
0.0
 31
0.0
  0
LINE
  5
EF0
  8
1
 10
189.7379999999999
 20
0.0
 30
0.0
 11
189.7379999999999
 21
-23.8125
 31
0.0
  0
LINE
  5
EF1
  8
1
 10
189.7379999999999
 20
23.8125
 30
0.0
 11
189.7379999999999
 21
0.0
 31
0.0
  0
LINE
  5
EF2
  8
1
 10
178.562
 20
0.0
 30
0.0
 11
178.562
 21
-23.8125
 31
0.0
  0
LINE
  5
EF3
  8
1
 10
178.562
 20
23.8125
 30
0.0
 11
178.562
 21
0.0
 31
0.0
  0
LINE
  5
EF4
  8
1
 10
190.4999999999998
 20
0.0
 30
0.0
 11
190.4999999999998
 21
-23.0505
 31
0.0
  0
LINE
  5
EF5
  8
1
 10
190.4999999999998
 20
23.0505
 30
0.0
 11
190.4999999999998
 21
0.0
 31
0.0
  0
LINE
  5
EF6
  8
1
 10
177.8
 20
0.0
 30
0.0
 11
177.8
 21
-23.0505
 31
0.0
  0
LINE
  5
EF7
  8
1
 10
177.8
 20
23.0505
 30
0.0
 11
177.8
 21
0.0
 31
0.0
  0
LINE
  5
EF8
  8
1
 10
160.4771999999999
 20
-25.40249999999997
 30
0.0
 11
152.3999999999999
 21
-25.40249999999997
 31
0.0
  0
LINE
  5
EF9
  8
1
 10
160.4771999999999
 20
-25.40249999999997
 30
0.0
 11
160.4771999999999
 21
-41.27749999999997
 31
0.0
  0
LINE
  5
EFA
  8
1
 10
160.4771999999999
 20
-41.27749999999997
 30
0.0
 11
152.3999999999999
 21
-41.27749999999997
 31
0.0
  0
LINE
  5
EFB
  8
1
 10
160.4771999999999
 20
41.27749999999997
 30
0.0
 11
152.3999999999999
 21
41.27749999999997
 31
0.0
  0
LINE
  5
EFC
  8
1
 10
160.4771999999999
 20
41.27749999999997
 30
0.0
 11
160.4771999999999
 21
25.40249999999997
 31
0.0
  0
LINE
  5
EFD
  8
1
 10
160.4771999999999
 20
25.40249999999997
 30
0.0
 11
152.3999999999999
 21
25.40249999999997
 31
0.0
  0
LINE
  5
F21
  8
SK3
 10
175.1339746741999
 20
-10.0
 30
0.0
 11
175.1339746741999
 21
10.0
 31
0.0
  0
LINE
  5
F22
  8
SK3
 10
172.9999999999998
 20
10.0
 30
0.0
 11
172.9999999999998
 21
-10.0
 31
0.0
  0
LINE
  5
F23
  8
SK3
 10
172.9364352121
 20
8.731249999999989
 30
0.0
 11
172.9364352121
 21
-8.731249999999989
 31
0.0
  0
LINE
  5
F40
  8
SK3
 10
180.975
 20
0.0
 30
0.0
 11
180.975
 21
-2.400300000000016
 31
0.0
  0
LINE
  5
F41
  8
SK3
 10
180.975
 20
2.400300000000016
 30
0.0
 11
180.975
 21
0.0
 31
0.0
  0
LINE
  5
F42
  8
SK3
 10
180.975
 20
0.0
 30
0.0
 11
190.4999999999998
 21
0.0
 31
0.0
  0
LINE
  5
F43
  8
SK3
 10
180.34
 20
0.0
 30
0.0
 11
180.34
 21
-4.800599999999974
 31
0.0
  0
LINE
  5
F44
  8
SK3
 10
180.34
 20
4.800599999999974
 30
0.0
 11
180.34
 21
0.0
 31
0.0
  0
LINE
  5
F45
  8
SK3
 10
180.975
 20
4.800599999999974
 30
0.0
 11
180.975
 21
2.400300000000016
 31
0.0
  0
LINE
  5
F46
  8
SK3
 10
180.975
 20
-2.400300000000016
 30
0.0
 11
180.975
 21
-4.800599999999974
 31
0.0
  0
LINE
  5
F47
  8
SK3
 10
180.975
 20
4.800599999999974
 30
0.0
 11
190.4999999999998
 21
4.800599999999974
 31
0.0
  0
LINE
  5
F48
  8
SK3
 10
180.975
 20
-4.800599999999974
 30
0.0
 11
190.4999999999998
 21
-4.800599999999974
 31
0.0
  0
LINE
  5
FAA
  8
SK3
 10
175.9999999999998
 20
2.5
 30
0.0
 11
152.3999999999999
 21
2.5
 31
0.0
  0
LINE
  5
FAB
  8
SK3
 10
152.3999999999999
 20
-2.5
 30
0.0
 11
175.9999999999998
 21
-2.5
 31
0.0
  0
LINE
  5
FB8
  8
SK3
 10
175.9999999999998
 20
10.49999995500002
 30
0.0
 11
175.1339746741999
 21
10.0
 31
0.0
  0
LINE
  5
FB9
  8
SK3
 10
175.1339746741999
 20
-10.0
 30
0.0
 11
175.9999999999998
 21
-10.49999995500002
 31
0.0
  0
LINE
  5
FBA
  8
SK3
 10
175.1339746741999
 20
10.0
 30
0.0
 11
172.9999999999998
 21
10.0
 31
0.0
  0
LINE
  5
FBB
  8
SK3
 10
172.9999999999998
 20
-10.0
 30
0.0
 11
175.1339746741999
 21
-10.0
 31
0.0
  0
LINE
  5
FBC
  8
SK3
 10
172.9999999999998
 20
8.767949147399975
 30
0.0
 11
172.9364352121
 21
8.731249999999989
 31
0.0
  0
LINE
  5
FBD
  8
SK3
 10
172.9364352121
 20
-8.731249999999989
 30
0.0
 11
172.9999999999998
 21
-8.767949147399975
 31
0.0
  0
LINE
  5
FBE
  8
3
 10
172.9364352121
 20
8.731249999999989
 30
0.0
 11
152.3999999999999
 21
8.731249999999989
 31
0.0
  0
LINE
  5
FBF
  8
3
 10
152.3999999999999
 20
-8.731249999999989
 30
0.0
 11
172.9364352121
 21
-8.731249999999989
 31
0.0
  0
LINE
  5
FD4
  8
SK3
 10
175.9999999999998
 20
14.62435565300001
 30
0.0
 11
152.3999999999999
 21
14.62435565300001
 31
0.0
  0
LINE
  5
FD5
  8
SK3
 10
152.3999999999999
 20
9.62435565300001
 30
0.0
 11
175.9999999999998
 21
9.62435565300001
 31
0.0
  0
LINE
  5
FD6
  8
SK3
 10
175.9999999999998
 20
-9.62435565300001
 30
0.0
 11
152.3999999999999
 21
-9.62435565300001
 31
0.0
  0
LINE
  5
FD7
  8
SK3
 10
152.3999999999999
 20
-14.62435565300001
 30
0.0
 11
175.9999999999998
 21
-14.62435565300001
 31
0.0
  0
LINE
  5
FE0
  8
SK3
 10
175.9999999999998
 20
9.524999999999977
 30
0.0
 11
152.3999999999999
 21
9.524999999999977
 31
0.0
  0
LINE
  5
FE1
  8
SK3
 10
152.3999999999999
 20
-9.525000000000034
 30
0.0
 11
175.9999999999998
 21
-9.525000000000034
 31
0.0
  0
LINE
  5
FE4
  8
SK3
 10
180.975
 20
4.800599999999974
 30
0.0
 11
180.34
 21
4.800599999999974
 31
0.0
  0
LINE
  5
FE5
  8
SK3
 10
180.34
 20
-4.800599999999974
 30
0.0
 11
180.975
 21
-4.800599999999974
 31
0.0
  0
LINE
  5
FE6
  8
SK3
 10
180.34
 20
4.800599999999974
 30
0.0
 11
177.4555085123
 21
0.0
 31
0.0
  0
LINE
  5
FE7
  8
SK3
 10
177.4555085123
 20
0.0
 30
0.0
 11
180.34
 21
-4.800599999999974
 31
0.0
  0
LINE
  5
105D
  8
SK3
 10
-4.761656058700055
 20
8.731249999999989
 30
0.0
 11
0.0
 21
8.731249999999989
 31
0.0
  0
LINE
  5
105E
  8
SK3
 10
-4.761656058700055
 20
-8.731249999999989
 30
0.0
 11
0.0
 21
-8.731249999999989
 31
0.0
  0
LINE
  5
1AD4
  8
SK4
 10
152.3999999999999
 20
0.0
 30
0.0
 11
190.4999999999998
 21
0.0
 31
0.0
  0
DIMENSION
  5
1AD6
  8
SK2
  2
*D10
 10
207.9883117379489
 20
-19.05000000000001
 30
0.0
 11
206.1133117379489
 21
-0.0000000000000036
 31
0.0
 70
    32
  3
ISO-25
 13
173.9999999999998
 23
19.05000000000001
 33
0.0
 14
173.9999999999998
 24
-19.05000000000001
 34
0.0
 50
90.0
1001
ACAD
1000
DSTYLE
1002
{
1070
   287
1070
     5
1070
   271
1070
     3
1070
   272
1070
     3
1070
   279
1070
     2
1002
}
  0
DIMENSION
  5
1AE5
  8
SK2
  2
*D11
 10
224.5470222226297
 20
-46.05
 30
0.0
 11
222.6720222226297
 21
0.0000000000000071
 31
0.0
 70
    32
  3
ISO-25
 13
151.3999999999999
 23
46.05000000000001
 33
0.0
 14
151.3999999999999
 24
-46.05
 34
0.0
 50
90.0
1001
ACAD
1000
DSTYLE
1002
{
1070
   287
1070
     5
1070
   271
1070
     3
1070
   272
1070
     3
1070
   279
1070
     2
1002
}
  0
ARC
  5
1AF6
  8
NOCUT
 10
120.4465728752998
 20
36.92500000000001
 30
0.0
 40
2.0
 50
270.0
 51
315.0000000000004
  0
LINE
  5
1AF8
  8
NOCUT
 10
132.3999999999999
 20
46.05000000000002
 30
0.0
 11
121.8607864377
 21
35.51078643759999
 31
0.0
  0
LINE
  5
1AF9
  8
NOCUT
 10
151.3999999999999
 20
46.05000000000002
 30
0.0
 11
132.3999999999999
 21
46.05000000000002
 31
0.0
  0
ARC
  5
1AFA
  8
NOCUT
 10
151.3999999999999
 20
45.05000000000002
 30
0.0
 40
1.0
 50
0.0
 51
90.0
  0
LINE
  5
1AFB
  8
NOCUT
 10
152.3999999999999
 20
0.0
 30
0.0
 11
152.3999999999999
 21
45.05000000000002
 31
0.0
  0
ENDSEC
  0
EOF
