  0
SECTION
  2
HEADER
  9
$ACADVER
  1
AC1009
  9
$DWGCODEPAGE
  3
ansi_1251
  9
$INSBASE
 10
0.0
 20
0.0
 30
0.0
  9
$EXTMIN
 10
-68.25000000000001
 20
-30.5409271246
 30
0.0
  9
$EXTMAX
 10
88.90000000000003
 20
30.50275418977125
 30
0.0
  9
$LIMMIN
 10
0.0
 20
0.0
  9
$LIMMAX
 10
420.0
 20
297.0
  9
$ORTHOMODE
 70
     1
  9
$REGENMODE
 70
     1
  9
$FILLMODE
 70
     1
  9
$QTEXTMODE
 70
     0
  9
$MIRRTEXT
 70
     0
  9
$DRAGMODE
 70
     2
  9
$LTSCALE
 40
1.0
  9
$OSMODE
 70
   279
  9
$ATTMODE
 70
     1
  9
$TEXTSIZE
 40
2.5
  9
$TRACEWID
 40
1.0
  9
$TEXTSTYLE
  7
STANDARD
  9
$CLAYER
  8
0
  9
$CELTYPE
  6
BYLAYER
  9
$CECOLOR
 62
   256
  9
$DIMSCALE
 40
1.0
  9
$DIMASZ
 40
2.5
  9
$DIMEXO
 40
0.625
  9
$DIMDLI
 40
3.75
  9
$DIMRND
 40
0.0
  9
$DIMDLE
 40
0.0
  9
$DIMEXE
 40
1.25
  9
$DIMTP
 40
0.0
  9
$DIMTM
 40
0.0
  9
$DIMTXT
 40
2.5
  9
$DIMCEN
 40
2.5
  9
$DIMTSZ
 40
0.0
  9
$DIMTOL
 70
     0
  9
$DIMLIM
 70
     0
  9
$DIMTIH
 70
     0
  9
$DIMTOH
 70
     0
  9
$DIMSE1
 70
     0
  9
$DIMSE2
 70
     0
  9
$DIMTAD
 70
     1
  9
$DIMZIN
 70
     8
  9
$DIMBLK
  1

  9
$DIMASO
 70
     1
  9
$DIMSHO
 70
     1
  9
$DIMPOST
  1

  9
$DIMAPOST
  1

  9
$DIMALT
 70
     0
  9
$DIMALTD
 70
     3
  9
$DIMALTF
 40
0.03937007874016
  9
$DIMLFAC
 40
1.0
  9
$DIMTOFL
 70
     1
  9
$DIMTVP
 40
0.0
  9
$DIMTIX
 70
     0
  9
$DIMSOXD
 70
     0
  9
$DIMSAH
 70
     0
  9
$DIMBLK1
  1

  9
$DIMBLK2
  1

  9
$DIMSTYLE
  2
ISO-25
  9
$DIMCLRD
 70
     0
  9
$DIMCLRE
 70
     0
  9
$DIMCLRT
 70
     0
  9
$DIMTFAC
 40
1.0
  9
$DIMGAP
 40
0.625
  9
$LUNITS
 70
     2
  9
$LUPREC
 70
     3
  9
$SKETCHINC
 40
1.0
  9
$FILLETRAD
 40
10.0
  9
$AUNITS
 70
     0
  9
$AUPREC
 70
     0
  9
$MENU
  1
.
  9
$ELEVATION
 40
0.0
  9
$PELEVATION
 40
0.0
  9
$THICKNESS
 40
0.0
  9
$LIMCHECK
 70
     0
  9
$CHAMFERA
 40
10.0
  9
$CHAMFERB
 40
10.0
  9
$SKPOLY
 70
     0
  9
$TDCREATE
 40
2455022.429026158
  9
$TDUPDATE
 40
2458659.538982558
  9
$TDINDWG
 40
0.1506771181
  9
$TDUSRTIMER
 40
2458702.695312836
  9
$USRTIMER
 70
     1
  9
$ANGBASE
 50
0.0
  9
$ANGDIR
 70
     0
  9
$PDMODE
 70
     0
  9
$PDSIZE
 40
0.0
  9
$PLINEWID
 40
0.0
  9
$COORDS
 70
     1
  9
$SPLFRAME
 70
     0
  9
$SPLINETYPE
 70
     6
  9
$SPLINESEGS
 70
     8
  9
$ATTDIA
 70
     0
  9
$ATTREQ
 70
     1
  9
$HANDLING
 70
     1
  9
$HANDSEED
  5
1FE8
  9
$SURFTAB1
 70
     6
  9
$SURFTAB2
 70
     6
  9
$SURFTYPE
 70
     6
  9
$SURFU
 70
     6
  9
$SURFV
 70
     6
  9
$UCSNAME
  2

  9
$UCSORG
 10
0.0
 20
0.0
 30
0.0
  9
$UCSXDIR
 10
1.0
 20
0.0
 30
0.0
  9
$UCSYDIR
 10
0.0
 20
1.0
 30
0.0
  9
$PUCSNAME
  2

  9
$PUCSORG
 10
0.0
 20
0.0
 30
0.0
  9
$PUCSXDIR
 10
1.0
 20
0.0
 30
0.0
  9
$PUCSYDIR
 10
0.0
 20
1.0
 30
0.0
  9
$USERI1
 70
     0
  9
$USERI2
 70
     0
  9
$USERI3
 70
     0
  9
$USERI4
 70
     0
  9
$USERI5
 70
     0
  9
$USERR1
 40
0.0
  9
$USERR2
 40
0.0
  9
$USERR3
 40
0.0
  9
$USERR4
 40
0.0
  9
$USERR5
 40
0.0
  9
$WORLDVIEW
 70
     1
  9
$SHADEDGE
 70
     3
  9
$SHADEDIF
 70
    70
  9
$TILEMODE
 70
     1
  9
$MAXACTVP
 70
    64
  9
$PLIMCHECK
 70
     0
  9
$PEXTMIN
 10
1.000000000000000E+20
 20
1.000000000000000E+20
 30
1.000000000000000E+20
  9
$PEXTMAX
 10
-1.000000000000000E+20
 20
-1.000000000000000E+20
 30
-1.000000000000000E+20
  9
$PLIMMIN
 10
0.0
 20
0.0
  9
$PLIMMAX
 10
420.0
 20
297.0
  9
$UNITMODE
 70
     0
  9
$VISRETAIN
 70
     1
  9
$PLINEGEN
 70
     0
  9
$PSLTSCALE
 70
     1
  0
ENDSEC
  0
SECTION
  2
TABLES
  0
TABLE
  2
VPORT
 70
     1
  0
VPORT
  2
*ACTIVE
 70
     0
 10
0.0
 20
0.0
 11
1.0
 21
1.0
 12
36.69851111131484
 22
-2.020325411445
 13
0.0
 23
0.0
 14
10.0
 24
10.0
 15
10.0
 25
10.0
 16
0.0
 26
0.0
 36
1.0
 17
0.0
 27
0.0
 37
0.0
 40
211.6686203088405
 41
1.332880434782609
 42
50.0
 43
0.0
 44
0.0
 50
0.0
 51
0.0
 71
    16
 72
  1000
 73
     1
 74
     3
 75
     0
 76
     0
 77
     0
 78
     0
  0
ENDTAB
  0
TABLE
  2
LTYPE
 70
     6
  0
LTYPE
  2
CONTINUOUS
 70
     0
  3
Solid line
 72
    65
 73
     0
 40
0.0
  0
LTYPE
  2
CENTER
 70
     0
  3
 Center _____  _  _____  _  _____  _  _____  _ 
 72
    65
 73
     4
 40
50.8
 49
31.75
 49
-6.35
 49
6.35
 49
-6.35
  0
LTYPE
  2
DASHED
 70
     0
  3
Dashed __  __  __  __  __  __  __  __  __  __  
 72
    65
 73
     2
 40
19.05
 49
12.7
 49
-6.35
  0
LTYPE
  2
HIDDEN
 70
     0
  3
Hidden __ __ __ __ __ __ __ __ __ __ __ __ __ __
 72
    65
 73
     2
 40
1.905
 49
1.27
 49
-0.635
  0
LTYPE
  2
CENTERX2
 70
     0
  3
Center (2x) ________  __  ________  __  _____
 72
    65
 73
     4
 40
20.32
 49
12.7
 49
-2.54
 49
2.54
 49
-2.54
  0
LTYPE
  2
PHANTOM
 70
     0
  3
Phantom ______  __  __  ______  __  __  ______
 72
    65
 73
     6
 40
12.7
 49
6.35
 49
-1.27
 49
1.27
 49
-1.27
 49
1.27
 49
-1.27
  0
ENDTAB
  0
TABLE
  2
LAYER
 70
    26
  0
LAYER
  2
0
 70
     0
 62
     7
  6
CONTINUOUS
  0
LAYER
  2
1
 70
     0
 62
     4
  6
CONTINUOUS
  0
LAYER
  2
2
 70
     0
 62
     7
  6
CONTINUOUS
  0
LAYER
  2
3
 70
     0
 62
     1
  6
DASHED
  0
LAYER
  2
4
 70
     0
 62
     2
  6
CENTER
  0
LAYER
  2
6
 70
     0
 62
     5
  6
CONTINUOUS
  0
LAYER
  2
7
 70
     0
 62
     5
  6
CONTINUOUS
  0
LAYER
  2
11
 70
     0
 62
     4
  6
CONTINUOUS
  0
LAYER
  2
SK1
 70
     0
 62
     4
  6
CONTINUOUS
  0
LAYER
  2
SK2
 70
     0
 62
     7
  6
CONTINUOUS
  0
LAYER
  2
SK3
 70
     0
 62
     1
  6
DASHED
  0
LAYER
  2
SK4
 70
     0
 62
     2
  6
CENTER
  0
LAYER
  2
SK6
 70
     0
 62
     5
  6
CONTINUOUS
  0
LAYER
  2
SK7
 70
     0
 62
     5
  6
CONTINUOUS
  0
LAYER
  2
SK11
 70
     0
 62
     4
  6
CONTINUOUS
  0
LAYER
  2
CUT
 70
     0
 62
     1
  6
CONTINUOUS
  0
LAYER
  2
NOCUT
 70
     0
 62
    -7
  6
CONTINUOUS
  0
LAYER
  2
SKVIEW1
 70
     0
 62
     4
  6
CONTINUOUS
  0
LAYER
  2
SKVIEW2
 70
     0
 62
     7
  6
CONTINUOUS
  0
LAYER
  2
SKVIEW3
 70
     0
 62
     1
  6
DASHED
  0
LAYER
  2
SKVIEW4
 70
     0
 62
     2
  6
CENTER
  0
LAYER
  2
SKVIEW6
 70
     0
 62
     5
  6
CONTINUOUS
  0
LAYER
  2
SKVIEW7
 70
     0
 62
     5
  6
CONTINUOUS
  0
LAYER
  2
SKVIEW11
 70
     0
 62
     4
  6
CONTINUOUS
  0
LAYER
  2
INFTOTAL
 70
     0
 62
     9
  6
CONTINUOUS
  0
LAYER
  2
DEFPOINTS
 70
     0
 62
     7
  6
CONTINUOUS
  0
ENDTAB
  0
TABLE
  2
STYLE
 70
     1
  0
STYLE
  2
STANDARD
 70
     0
 40
0.0
 41
1.0
 50
0.0
 71
     0
 42
2.5
  3
txt
  4

  0
ENDTAB
  0
TABLE
  2
VIEW
 70
     0
  0
ENDTAB
  0
TABLE
  2
UCS
 70
     0
  0
ENDTAB
  0
TABLE
  2
APPID
 70
     2
  0
APPID
  2
ACAD
 70
     0
  0
APPID
  2
ACAECLAYERSTANDARD
 70
     0
  0
ENDTAB
  0
TABLE
  2
DIMSTYLE
 70
     1
  0
DIMSTYLE
  2
ISO-25
 70
     0
  3

  4

  5

  6

  7

 40
1.0
 41
2.5
 42
0.625
 43
3.75
 44
1.25
 45
0.0
 46
0.0
 47
0.0
 48
0.0
140
2.5
141
2.5
142
0.0
143
0.03937007874016
144
1.0
145
0.0
146
1.0
147
0.625
 71
     0
 72
     0
 73
     0
 74
     0
 75
     0
 76
     0
 77
     1
 78
     8
170
     0
171
     3
172
     1
173
     0
174
     0
175
     0
176
     0
177
     0
178
     0
  0
ENDTAB
  0
ENDSEC
  0
SECTION
  2
BLOCKS
  0
BLOCK
  8
0
  2
$MODEL_SPACE
 70
     0
 10
0.0
 20
0.0
 30
0.0
  3
$MODEL_SPACE
  1

  0
ENDBLK
  5
21
  8
0
  0
BLOCK
 67
     1
  8
0
  2
$PAPER_SPACE
 70
     0
 10
0.0
 20
0.0
 30
0.0
  3
$PAPER_SPACE
  1

  0
ENDBLK
  5
1D
 67
     1
  8
0
  0
BLOCK
  8
0
  2
*U2
 70
     1
 10
0.0
 20
0.0
 30
0.0
  3
*U2
  1

  0
TEXT
  5
77E
  8
SK6
 10
-50.0
 20
78.25
 30
0.0
 40
3.5
  1
BIG KAISER
 41
0.85
  0
TEXT
  5
781
  8
SK6
 10
-50.0
 20
73.0
 30
0.0
 40
3.5
  1
BCV50-SMC1.500-4
 41
0.85
  0
ENDBLK
  5
782
  8
0
  0
BLOCK
  8
0
  2
_FILLED
 70
     0
 10
0.0
 20
0.0
 30
0.0
  3
_FILLED
  1

  0
SOLID
  5
789
  8
0
  6
BYBLOCK
 62
     0
 10
0.0
 20
0.0
 30
0.0
 11
-1.0
 21
0.2142857143
 31
0.0
 12
-1.0
 22
-0.2142857143
 32
0.0
 13
-1.0
 23
-0.2142857143
 33
0.0
  0
ENDBLK
  5
78A
  8
0
  6
BYBLOCK
 62
     0
  0
BLOCK
  8
0
  2
*U5
 70
     1
 10
0.0
 20
0.0
 30
0.0
  3
*U5
  1

  0
TEXT
  5
790
  8
SK6
 10
-85.96178542556666
 20
-67.06748653279999
 30
0.0
 40
3.5
  1
BCV50
 41
0.85
  0
ENDBLK
  5
791
  8
0
  0
BLOCK
  8
0
  2
*D8
 70
     1
 10
0.0
 20
0.0
 30
0.0
  3
*D8
  1

  0
LINE
  5
808
  8
SK2
 62
     0
 10
0.0
 20
35.54999999999998
 30
0.0
 11
0.0
 21
63.71215670356074
 31
0.0
  0
LINE
  5
809
  8
SK2
 62
     0
 10
101.5999999999999
 20
45.67500000000001
 30
0.0
 11
101.5999999999999
 21
63.71215670356074
 31
0.0
  0
LINE
  5
80A
  8
SK2
 62
     0
 10
2.5
 20
62.46215670356074
 30
0.0
 11
99.09999999999991
 21
62.46215670356074
 31
0.0
  0
SOLID
  5
80B
  8
SK2
 62
     0
 10
2.5
 20
62.8788233702274
 30
0.0
 11
2.5
 21
62.04549003689407
 31
0.0
 12
0.0
 22
62.46215670356074
 32
0.0
 13
0.0
 23
62.46215670356074
 33
0.0
  0
SOLID
  5
80C
  8
SK2
 62
     0
 10
99.09999999999991
 20
62.04549003689407
 30
0.0
 11
99.09999999999991
 21
62.8788233702274
 31
0.0
 12
101.5999999999999
 22
62.46215670356074
 32
0.0
 13
101.5999999999999
 23
62.46215670356074
 33
0.0
  0
TEXT
  5
80D
  8
SK2
  6
CONTINUOUS
 62
     0
 10
46.84166666666662
 20
63.08715670356074
 30
0.0
 40
2.5
  1
101.6
  0
POINT
  5
80E
  8
DEFPOINTS
 62
     0
 10
0.0
 20
34.92499999999998
 30
0.0
  0
POINT
  5
80F
  8
DEFPOINTS
 62
     0
 10
101.5999999999999
 20
45.05000000000001
 30
0.0
  0
POINT
  5
810
  8
DEFPOINTS
 62
     0
 10
101.5999999999999
 20
62.46215670356074
 30
0.0
  0
ENDBLK
  5
812
  8
0
  0
BLOCK
  8
0
  2
*D10
 70
     1
 10
0.0
 20
0.0
 30
0.0
  3
*D10
  1

  0
LINE
  5
1ADA
  8
SK2
 62
     0
 10
123.8249999999998
 20
19.05000000000001
 30
0.0
 11
158.4383117379489
 21
19.05000000000001
 31
0.0
  0
LINE
  5
1ADB
  8
SK2
 62
     0
 10
123.8249999999998
 20
-19.05000000000001
 30
0.0
 11
158.4383117379489
 21
-19.05000000000001
 31
0.0
  0
LINE
  5
1ADC
  8
SK2
 62
     0
 10
157.1883117379489
 20
16.55000000000001
 30
0.0
 11
157.1883117379489
 21
-16.55000000000001
 31
0.0
  0
SOLID
  5
1ADD
  8
SK2
 62
     0
 10
157.6049784046156
 20
16.55000000000001
 30
0.0
 11
156.7716450712823
 21
16.55000000000001
 31
0.0
 12
157.1883117379489
 22
19.05000000000001
 32
0.0
 13
157.1883117379489
 23
19.05000000000001
 33
0.0
  0
SOLID
  5
1ADE
  8
SK2
 62
     0
 10
156.7716450712823
 20
-16.55000000000001
 30
0.0
 11
157.6049784046156
 21
-16.55000000000001
 31
0.0
 12
157.1883117379489
 22
-19.05000000000001
 32
0.0
 13
157.1883117379489
 23
-19.05000000000001
 33
0.0
  0
TEXT
  5
1ADF
  8
SK2
  6
CONTINUOUS
 62
     0
 10
156.5633117379489
 20
-3.333333333333343
 30
0.0
 40
2.5
  1
38.1
 50
90.0
  0
POINT
  5
1AE0
  8
DEFPOINTS
 62
     0
 10
123.1999999999998
 20
19.05000000000001
 30
0.0
  0
POINT
  5
1AE1
  8
DEFPOINTS
 62
     0
 10
123.1999999999998
 20
-19.05000000000001
 30
0.0
  0
POINT
  5
1AE2
  8
DEFPOINTS
 62
     0
 10
157.1883117379489
 20
-19.05000000000001
 30
0.0
  0
ENDBLK
  5
1AE4
  8
0
  0
BLOCK
  8
0
  2
*D11
 70
     1
 10
0.0
 20
0.0
 30
0.0
  3
*D11
  1

  0
LINE
  5
1AE9
  8
SK2
 62
     0
 10
101.2249999999999
 20
46.05000000000001
 30
0.0
 11
174.9970222226297
 21
46.05000000000002
 31
0.0
  0
LINE
  5
1AEA
  8
SK2
 62
     0
 10
101.2249999999999
 20
-46.05
 30
0.0
 11
174.9970222226297
 21
-46.05
 31
0.0
  0
LINE
  5
1AEB
  8
SK2
 62
     0
 10
173.7470222226297
 20
43.55000000000002
 30
0.0
 11
173.7470222226297
 21
-43.55
 31
0.0
  0
SOLID
  5
1AEC
  8
SK2
 62
     0
 10
174.1636888892964
 20
43.55000000000002
 30
0.0
 11
173.3303555559631
 21
43.55000000000002
 31
0.0
 12
173.7470222226297
 22
46.05000000000002
 32
0.0
 13
173.7470222226297
 23
46.05000000000002
 33
0.0
  0
SOLID
  5
1AED
  8
SK2
 62
     0
 10
173.3303555559631
 20
-43.55
 30
0.0
 11
174.1636888892964
 21
-43.55
 31
0.0
 12
173.7470222226297
 22
-46.05
 32
0.0
 13
173.7470222226297
 23
-46.05
 33
0.0
  0
TEXT
  5
1AEE
  8
SK2
  6
CONTINUOUS
 62
     0
 10
173.1220222226297
 20
-3.333333333333343
 30
0.0
 40
2.5
  1
92.1
 50
90.0
  0
POINT
  5
1AEF
  8
DEFPOINTS
 62
     0
 10
100.5999999999999
 20
46.05000000000001
 30
0.0
  0
POINT
  5
1AF0
  8
DEFPOINTS
 62
     0
 10
100.5999999999999
 20
-46.05
 30
0.0
  0
POINT
  5
1AF1
  8
DEFPOINTS
 62
     0
 10
173.7470222226297
 20
-46.05
 30
0.0
  0
ENDBLK
  5
1AF3
  8
0
  0
ENDSEC
  0
SECTION
  2
ENTITIES
  0
LINE
  5
685
  8
SK1
 10
0.0
 20
34.92499999999998
 30
0.0
 11
-99.6319088344
 21
20.3952133832
 31
0.0
  0
LINE
  5
686
  8
SK1
 10
-99.6319088344
 20
-20.3952133832
 30
0.0
 11
0.0
 21
-34.92500000000001
 31
0.0
  0
ARC
  5
68D
  8
SK1
 10
-99.3
 20
18.1192879614
 30
0.0
 40
2.299999999999995
 50
98.29722000000018
 51
180.0
  0
ARC
  5
68E
  8
SK1
 10
-99.3
 20
-18.1192879614
 30
0.0
 40
2.299999999999995
 50
180.0
 51
261.7027799999998
  0
LINE
  5
6F6
  8
SK1
 10
-101.6
 20
0.0
 30
0.0
 11
-101.6
 21
-18.1192879614
 31
0.0
  0
LINE
  5
6F7
  8
SK1
 10
-101.6
 20
18.1192879614
 30
0.0
 11
-101.6
 21
0.0
 31
0.0
  0
LINE
  5
71A
  8
SK3
 10
-99.5215390309
 20
-13.10000000000002
 30
0.0
 11
-99.5215390309
 21
13.09999999999999
 31
0.0
  0
LINE
  5
71B
  8
SK3
 10
-95.25
 20
-13.10000000000002
 30
0.0
 11
-95.25
 21
13.09999999999999
 31
0.0
  0
LINE
  5
72A
  8
SK3
 10
-101.6
 20
-14.30000000000001
 30
0.0
 11
-99.5215390309
 21
-13.10000000000002
 31
0.0
  0
LINE
  5
72B
  8
SK3
 10
-99.5215390309
 20
13.09999999999999
 30
0.0
 11
-101.6
 21
14.3
 31
0.0
  0
LINE
  5
72C
  8
SK3
 10
-99.5215390309
 20
-13.10000000000002
 30
0.0
 11
-95.25
 21
-13.10000000000002
 31
0.0
  0
LINE
  5
72D
  8
SK3
 10
-95.25
 20
13.09999999999999
 30
0.0
 11
-99.5215390309
 21
13.09999999999999
 31
0.0
  0
LINE
  5
72E
  8
SK3
 10
-95.25
 20
-11.09980000000002
 30
0.0
 11
-5.249999999999986
 21
-11.09980000000002
 31
0.0
  0
LINE
  5
72F
  8
SK3
 10
-5.250000000000001
 20
11.09979999999999
 30
0.0
 11
-95.25
 21
11.09979999999999
 31
0.0
  0
LINE
  5
760
  8
SK3
 10
-57.1
 20
12.69999999999999
 30
0.0
 11
-95.25
 21
12.69999999999999
 31
0.0
  0
LINE
  5
761
  8
SK3
 10
-95.25
 20
-12.69999999999999
 30
0.0
 11
-57.1
 21
-12.69999999999999
 31
0.0
  0
LINE
  5
774
  8
SK3
 10
-57.1
 20
12.69999999999999
 30
0.0
 11
-57.1
 21
-12.69999999999999
 31
0.0
  0
LINE
  5
777
  8
SK4
 10
0.0
 20
0.0
 30
0.0
 11
-101.6
 21
0.0
 31
0.0
  0
LINE
  5
779
  8
4
 10
0.0
 20
0.0
 30
0.0
 11
101.5999999999999
 21
0.0
 31
0.0
  0
INSERT
  5
77B
  8
SK6
  2
*U2
 10
-44.10380399683656
 20
-23.39313954296377
 30
0.0
  0
INSERT
  5
78D
  8
SK6
  2
*U5
 10
17.55665382414153
 20
-2.560320993650734
 30
0.0
  0
LINE
  5
793
  8
0
 10
3.0
 20
3.0
 30
0.0
 11
-3.0
 21
-3.0
 31
0.0
  0
LINE
  5
794
  8
0
 10
-3.0
 20
3.0
 30
0.0
 11
3.0
 21
-3.0
 31
0.0
  0
CIRCLE
  5
795
  8
0
 10
0.0
 20
0.0
 30
0.0
 40
2.5
  0
LINE
  5
796
  8
0
 10
104.5999999999999
 20
-3.0
 30
0.0
 11
98.59999999999987
 21
3.0
 31
0.0
  0
CIRCLE
  5
797
  8
0
 10
101.5999999999999
 20
0.0
 30
0.0
 40
2.5
  0
LINE
  5
798
  8
0
 10
98.59999999999987
 20
-3.0
 30
0.0
 11
104.5999999999999
 21
3.0
 31
0.0
  0
LINE
  5
799
  8
NOCUT
 10
0.7999999999999972
 20
34.62500000000001
 30
0.0
 11
0.2999999999999972
 21
34.62500000000001
 31
0.0
  0
LINE
  5
79C
  8
NOCUT
 10
0.2999999999999972
 20
34.62500000000001
 30
0.0
 11
0.0
 21
34.92499999999999
 31
0.0
  0
LINE
  5
79D
  8
NOCUT
 10
69.64657287529985
 20
34.92500000000001
 30
0.0
 11
20.05
 21
34.92499999999999
 31
0.0
  0
ARC
  5
79E
  8
NOCUT
 10
0.7999999999999972
 20
35.62500000000001
 30
0.0
 40
1.0
 50
270.0
 51
314.4270040008
  0
ARC
  5
79F
  8
NOCUT
 10
20.05
 20
35.92499999999999
 30
0.0
 40
1.0
 50
180.0
 51
270.0
  0
LINE
  5
7A0
  8
NOCUT
 10
12.55499999999999
 20
45.64499999999999
 30
0.0
 11
9.704999999999998
 21
45.64499999999999
 31
0.0
  0
ARC
  5
7A1
  8
NOCUT
 10
12.55499999999999
 20
46.14499999999999
 30
0.0
 40
0.5
 50
270.0
 51
0.0
  0
ARC
  5
7A2
  8
NOCUT
 10
9.704999999999998
 20
46.14499999999999
 30
0.0
 40
0.5
 50
180.0
 51
270.0
  0
ARC
  5
7A3
  8
NOCUT
 10
2.299999999999997
 20
48.4125
 30
0.0
 40
0.7999999999999972
 50
90.0
 51
180.0
  0
ARC
  5
7A4
  8
NOCUT
 10
18.24999999999999
 20
48.4125
 30
0.0
 40
0.799999999999983
 50
0.0
 51
90.0
  0
LINE
  5
7A5
  8
NOCUT
 10
9.204999999999998
 20
46.43919780459999
 30
0.0
 11
7.603833230999996
 21
49.21250000000001
 31
0.0
  0
LINE
  5
7A6
  8
NOCUT
 10
14.65616676910001
 20
49.21250000000001
 30
0.0
 11
13.05499999999999
 21
46.43919780459999
 31
0.0
  0
LINE
  5
7A7
  8
NOCUT
 10
18.24999999999999
 20
49.21250000000001
 30
0.0
 11
14.65616676910001
 21
49.21250000000001
 31
0.0
  0
LINE
  5
7A8
  8
NOCUT
 10
7.603833230999996
 20
49.21250000000001
 30
0.0
 11
2.299999999999997
 21
49.21250000000001
 31
0.0
  0
LINE
  5
7AC
  8
NOCUT
 10
1.5
 20
48.4125
 30
0.0
 11
1.499999999999929
 21
34.91085715714565
 31
0.0
  0
LINE
  5
7AD
  8
NOCUT
 10
19.04999999999997
 20
48.4125
 30
0.0
 11
19.05
 21
35.92499999999999
 31
0.0
  0
LINE
  5
7AE
  8
NOCUT
 10
9.204999999999998
 20
46.43919780459999
 30
0.0
 11
9.204999999999998
 21
46.14499999999999
 31
0.0
  0
LINE
  5
7AF
  8
NOCUT
 10
13.05499999999999
 20
46.43919780459999
 30
0.0
 11
13.05499999999999
 21
46.14499999999999
 31
0.0
  0
DIMENSION
  5
804
  8
SK2
  2
*D8
 10
101.5999999999999
 20
62.46215670356074
 30
0.0
 11
50.79999999999995
 21
64.33715670356074
 31
0.0
 70
    32
  3
ISO-25
 13
0.0
 23
34.92499999999998
 33
0.0
 14
101.5999999999999
 24
45.05000000000001
 34
0.0
1001
ACAD
1000
DSTYLE
1002
{
1070
   287
1070
     5
1070
   271
1070
     3
1070
   272
1070
     3
1070
   279
1070
     2
1002
}
  0
LINE
  5
8BF
  8
NOCUT
 10
0.0
 20
34.92499999999999
 30
0.0
 11
0.0
 21
0.0
 31
0.0
  0
LINE
  5
8C0
  8
NOCUT
 10
0.0
 20
0.0
 30
0.0
 11
101.5999999999999
 21
0.0
 31
0.0
  0
INSERT
  5
A17
  8
SK6
  2
_FILLED
 10
-20.78186483605847
 20
-31.89428358495073
 30
0.0
 41
3.5
 42
3.5
 43
3.5
 50
52.86965044919886
  0
POLYLINE
  5
A18
  8
SK6
 66
     1
 10
0.0
 20
0.0
 30
0.0
  0
VERTEX
  5
1B01
  8
SK6
 10
-22.89457117648658
 20
-34.68470862768434
 30
0.0
  0
VERTEX
  5
1B02
  8
SK6
 10
-48.02596493475846
 20
-67.87780752645074
 30
0.0
  0
VERTEX
  5
1B03
  8
SK6
 10
-49.90096493475846
 20
-66.12780752645074
 30
0.0
  0
VERTEX
  5
1B04
  8
SK6
 10
-53.40096493475846
 20
-66.12780752645074
 30
0.0
  0
SEQEND
  5
1FE7
  8
SK6
  0
ARC
  5
AC7
  8
1
 10
20.04999999999998
 20
35.92499999999998
 30
0.0
 40
1.0
 50
180.0
 51
270.0
  0
ARC
  5
AC9
  8
1
 10
20.04999999999998
 20
-35.92500000000001
 30
0.0
 40
1.0
 50
90.0
 51
180.0
  0
ARC
  5
ACA
  8
1
 10
1.299999999999983
 20
35.125
 30
0.0
 40
0.5
 50
270.0
 51
293.5781784781994
  0
ARC
  5
ACB
  8
1
 10
1.299999999999983
 20
-35.125
 30
0.0
 40
0.500000000000009
 50
66.42182152180017
 51
90.0
  0
LINE
  5
ACC
  8
1
 10
69.64657287529985
 20
34.92500000000001
 30
0.0
 11
20.04999999999998
 21
34.92499999999998
 31
0.0
  0
LINE
  5
ACE
  8
1
 10
20.04999999999998
 20
-34.92500000000001
 30
0.0
 11
69.64657287529985
 21
-34.92500000000001
 31
0.0
  0
LINE
  5
ACF
  8
1
 10
0.0
 20
-34.92500000000001
 30
0.0
 11
0.2999999999999829
 21
-34.625
 31
0.0
  0
LINE
  5
AD0
  8
1
 10
0.2999999999999829
 20
34.625
 30
0.0
 11
0.0
 21
34.92499999999998
 31
0.0
  0
LINE
  5
AD5
  8
1
 10
1.299999999999983
 20
34.625
 30
0.0
 11
0.2999999999999829
 21
34.625
 31
0.0
  0
LINE
  5
AD6
  8
1
 10
0.2999999999999829
 20
-34.625
 30
0.0
 11
1.299999999999983
 21
-34.625
 31
0.0
  0
LINE
  5
ADB
  8
1
 10
14.65616694409999
 20
-47.282880439
 30
0.0
 11
14.68806954659999
 21
-47.29184187660002
 31
0.0
  0
LINE
  5
ADC
  8
1
 10
14.6561667691
 20
47.30816788690001
 30
0.0
 11
14.6561667691
 21
-47.2826327523
 31
0.0
  0
LINE
  5
ADD
  8
1
 10
14.7615962207
 20
47.3314147463
 30
0.0
 11
14.6561668942
 21
47.30816788690001
 31
0.0
  0
LINE
  5
ADE
  8
1
 10
18.25
 20
47.3314147463
 30
0.0
 11
14.7615962207
 21
47.3314147463
 31
0.0
  0
LINE
  5
ADF
  8
1
 10
14.68806954659999
 20
-47.29184187660002
 30
0.0
 11
18.25
 21
-47.29184187660002
 31
0.0
  0
LINE
  5
AE0
  8
1
 10
7.498403779400007
 20
47.3314147463
 30
0.0
 11
4.006414746699988
 21
47.3314147463
 31
0.0
  0
LINE
  5
AE1
  8
1
 10
7.603833105900009
 20
47.30816788690001
 30
0.0
 11
7.498403779400007
 21
47.3314147463
 31
0.0
  0
LINE
  5
AE2
  8
1
 10
7.603833230899994
 20
47.30844201400001
 30
0.0
 11
7.603833230899994
 21
-47.28288044160001
 31
0.0
  0
LINE
  5
AE3
  8
1
 10
7.571930453299984
 20
-47.29184187660002
 30
0.0
 11
7.603833055899997
 21
-47.282880439
 31
0.0
  0
LINE
  5
AE4
  8
1
 10
4.040356993800003
 20
-47.29184187660002
 30
0.0
 11
7.571930453299984
 21
-47.29184187660002
 31
0.0
  0
LINE
  5
AE5
  8
1
 10
2.300001405499984
 20
-46.74795901499999
 30
0.0
 11
4.040356993800003
 21
-47.29184189310001
 31
0.0
  0
LINE
  5
AE6
  8
1
 10
4.006414746699988
 20
47.33141476029999
 30
0.0
 11
2.299999765199999
 21
46.80267569
 31
0.0
  0
ARC
  5
AE7
  8
1
 10
2.557435939599998
 20
-45.59355264690001
 30
0.0
 40
1.184053137363273
 50
207.7147598986998
 51
257.3157095984005
  0
LINE
  5
AE8
  8
1
 10
1.50922466130001
 20
-46.14422037630001
 30
0.0
 11
1.5
 21
-46.01377680920001
 31
0.0
  0
LINE
  5
AE9
  8
1
 10
1.5
 20
-46.01377680920001
 30
0.0
 11
1.5
 21
46.01377680919998
 31
0.0
  0
ARC
  5
AEA
  8
1
 10
2.572884962100005
 20
45.72649004249999
 30
0.0
 40
1.111555736593689
 50
104.3436511600003
 51
164.8417645594994
  0
LINE
  5
AEB
  8
1
 10
9.204999995999998
 20
44.41431970880001
 30
0.0
 11
7.60383322749999
 21
47.3081678945
 31
0.0
  0
LINE
  5
AEC
  8
1
 10
9.204999999999984
 20
44.4143196734
 30
0.0
 11
9.204999999999984
 21
-44.387299867
 31
0.0
  0
LINE
  5
AED
  8
1
 10
7.603833226399985
 20
-47.28288044990001
 30
0.0
 11
9.2049999921
 21
-44.38762367050001
 31
0.0
  0
LINE
  5
AEE
  8
1
 10
14.65616677259999
 20
47.3081678945
 30
0.0
 11
13.05500000399999
 21
44.41431970880001
 31
0.0
  0
LINE
  5
AEF
  8
1
 10
13.05500000800001
 20
-44.38762367050001
 30
0.0
 11
14.65616677360001
 21
-47.28288044990001
 31
0.0
  0
LINE
  5
AF0
  8
1
 10
13.05500000000001
 20
44.41459195280001
 30
0.0
 11
13.05500000000001
 21
-44.38762365650001
 31
0.0
  0
ARC
  5
AF1
  8
1
 10
17.92302328310001
 20
46.41895288640001
 30
0.0
 40
1.127359624435328
 50
1.493363825500091
 51
43.53750291790048
  0
LINE
  5
AF2
  8
1
 10
19.04999999999998
 20
46.44833319130001
 30
0.0
 11
19.04999999999998
 21
-46.44833319130001
 31
0.0
  0
ARC
  5
AF3
  8
1
 10
17.91824827779999
 20
-46.4157978575
 30
0.0
 40
1.1322192847622
 50
319.2464850235001
 51
358.3533278529993
  0
ARC
  5
AF4
  8
1
 10
18.2616113983
 20
-46.25791326929999
 30
0.0
 40
1.033993805426882
 50
269.3565743835002
 51
299.8289453780985
  0
ARC
  5
AF5
  8
1
 10
18.2610591033
 20
46.41902767409999
 30
0.0
 40
0.9124540938653742
 50
58.31881226410037
 51
90.69445187719943
  0
ARC
  5
AF6
  8
1
 10
12.5158206966
 20
-44.1073442162
 30
0.0
 40
0.5397579791454132
 50
357.3466499737992
 51
85.83742202690154
  0
ARC
  5
AF7
  8
1
 10
12.54139279200001
 20
44.09944295630001
 30
0.0
 40
0.4858431210597904
 50
271.6049163143007
 51
333.441972537701
  0
POLYLINE
  5
AF8
  8
1
 66
     1
 10
0.0
 20
0.0
 30
0.0
  0
VERTEX
  5
1B05
  8
1
 10
13.05500000000001
 20
44.14662312639999
 30
0.0
  0
VERTEX
  5
1B06
  8
1
 10
13.03542892280001
 20
44.01594229719998
 30
0.0
  0
VERTEX
  5
1B07
  8
1
 10
12.97787844319998
 20
43.88571451269999
 30
0.0
  0
SEQEND
  5
1FE6
  8
1
  0
ARC
  5
AF9
  8
1
 10
9.744214343399989
 20
-44.10737531749999
 30
0.0
 40
0.5397915428070933
 50
94.16604783349855
 51
182.6498801657025
  0
POLYLINE
  5
AFA
  8
1
 66
     1
 10
0.0
 20
0.0
 30
0.0
  0
VERTEX
  5
1B08
  8
1
 10
9.280099379399985
 20
43.88913247470001
 30
0.0
  0
VERTEX
  5
1B09
  8
1
 10
9.224055884099982
 20
44.0177026321
 30
0.0
  0
VERTEX
  5
1B0A
  8
1
 10
9.204999999999984
 20
44.14662312639999
 30
0.0
  0
SEQEND
  5
1FE5
  8
1
  0
ARC
  5
AFB
  8
1
 10
9.721350266000002
 20
44.10422581969999
 30
0.0
 40
0.4907078648052702
 50
206.0244317763009
 51
268.0905652222996
  0
LINE
  5
AFC
  8
1
 10
12.55500000000001
 20
43.613790424
 30
0.0
 11
9.704999999999984
 21
43.613790424
 31
0.0
  0
LINE
  5
AFD
  8
1
 10
9.704999999999984
 20
-43.5690100651
 30
0.0
 11
12.55500000000001
 21
-43.5690100651
 31
0.0
  0
LINE
  5
B00
  8
1
 10
0.2999999999999829
 20
34.625
 30
0.0
 11
0.2999999999999829
 21
-34.625
 31
0.0
  0
LINE
  5
B01
  8
1
 10
0.0
 20
34.92499999999998
 30
0.0
 11
0.0
 21
-34.92500000000001
 31
0.0
  0
LINE
  5
B04
  8
1
 10
14.68806954670001
 20
-47.29184187660002
 30
0.0
 11
14.65616694420001
 21
-47.282880439
 31
0.0
  0
LINE
  5
B1A
  8
3
 10
1.500000000000004
 20
37.72
 30
0.0
 11
19.04999999999998
 21
37.72
 31
0.0
  0
LINE
  5
B3B
  8
3
 10
1.5
 20
-35.30000000000001
 30
0.0
 11
19.26937525020018
 21
-35.30000000000001
 31
0.0
  0
LINE
  5
B42
  8
3
 10
26.97499999999999
 20
28.32499999999999
 30
0.0
 11
33.32499999999999
 21
28.32499999999999
 31
0.0
  0
LINE
  5
B43
  8
3
 10
20.625
 20
28.32499999999999
 30
0.0
 11
26.97499999999999
 21
28.32499999999999
 31
0.0
  0
LINE
  5
B44
  8
3
 10
11.375
 20
37.31999999999999
 30
0.0
 11
16.125
 21
37.31999999999999
 31
0.0
  0
LINE
  5
B45
  8
3
 10
6.625
 20
37.31999999999999
 30
0.0
 11
11.375
 21
37.31999999999999
 31
0.0
  0
LINE
  5
B55
  8
3
 10
20.625
 20
28.32499999999999
 30
0.0
 11
26.97499999999999
 21
24.50953506919998
 31
0.0
  0
LINE
  5
B56
  8
3
 10
26.97499999999999
 20
24.50953506919998
 30
0.0
 11
33.32499999999999
 21
28.32499999999999
 31
0.0
  0
LINE
  5
B57
  8
3
 10
20.625
 20
34.92499999999998
 30
0.0
 11
20.625
 21
28.32499999999999
 31
0.0
  0
LINE
  5
B58
  8
3
 10
33.32499999999999
 20
28.32499999999999
 30
0.0
 11
33.32499999999999
 21
34.92499999999998
 31
0.0
  0
LINE
  5
B59
  8
3
 10
6.625
 20
37.72
 30
0.0
 11
6.625
 21
37.31999999999999
 31
0.0
  0
LINE
  5
B5A
  8
3
 10
16.125
 20
37.31999999999999
 30
0.0
 11
16.125
 21
37.72
 31
0.0
  0
LINE
  5
B5B
  8
1
 10
20.04999999999998
 20
-34.92500000000001
 30
0.0
 11
20.04999999999998
 21
34.92499999999998
 31
0.0
  0
LINE
  5
B5C
  8
1
 10
1.299999999999983
 20
-34.625
 30
0.0
 11
1.299999999999983
 21
34.625
 31
0.0
  0
LINE
  5
B5F
  8
1
 10
12.55500000000001
 20
-43.00413183130001
 30
0.0
 11
12.55500000000001
 21
42.79577481850001
 31
0.0
  0
LINE
  5
B60
  8
1
 10
9.704999999999984
 20
-43.00421493109999
 30
0.0
 11
9.704999999999984
 21
42.7957705776
 31
0.0
  0
LINE
  5
B62
  8
1
 10
18.25
 20
47.3314147463
 30
0.0
 11
18.25
 21
-47.29184187660002
 31
0.0
  0
LINE
  5
B64
  8
1
 10
2.299999999999983
 20
-46.74795854910002
 30
0.0
 11
2.299999999999983
 21
46.80267576719999
 31
0.0
  0
LINE
  5
CD6
  8
1
 10
81.59999999999991
 20
-46.05
 30
0.0
 11
100.5999999999999
 21
-46.05
 31
0.0
  0
LINE
  5
CD8
  8
1
 10
100.5999999999999
 20
46.05000000000001
 30
0.0
 11
81.59999999999991
 21
46.05000000000001
 31
0.0
  0
ARC
  5
CD9
  8
1
 10
100.5999999999999
 20
-45.05
 30
0.0
 40
1.000000000000014
 50
270.0
 51
0.0
  0
ARC
  5
CDA
  8
1
 10
100.5999999999999
 20
45.05000000000001
 30
0.0
 40
1.0
 50
0.0
 51
90.0
  0
LINE
  5
CDB
  8
1
 10
81.59999999999991
 20
46.05000000000001
 30
0.0
 11
71.06078643770002
 21
35.51078643759999
 31
0.0
  0
LINE
  5
CDC
  8
1
 10
71.06078643770002
 20
-35.51078643760002
 30
0.0
 11
81.59999999999991
 21
-46.05
 31
0.0
  0
ARC
  5
CE1
  8
1
 10
69.64657287529985
 20
-36.92500000000001
 30
0.0
 40
2.0
 50
45.0
 51
90.0
  0
ARC
  5
CE2
  8
1
 10
69.64657287529985
 20
36.92500000000001
 30
0.0
 40
2.0
 50
270.0
 51
315.0
  0
LINE
  5
D01
  8
1
 10
101.5999999999999
 20
-41.28131
 30
0.0
 11
101.6285674554999
 21
-41.28131
 31
0.0
  0
LINE
  5
D02
  8
1
 10
101.6285674554999
 20
41.28130999999999
 30
0.0
 11
101.5999999999999
 21
41.28130999999999
 31
0.0
  0
LINE
  5
D03
  8
1
 10
101.5999999999999
 20
25.39868999999999
 30
0.0
 11
101.6285674554999
 21
25.39868999999999
 31
0.0
  0
LINE
  5
D20
  8
1
 10
81.59999999999991
 20
0.0
 30
0.0
 11
81.59999999999991
 21
46.05000000000001
 31
0.0
  0
LINE
  5
D21
  8
1
 10
81.59999999999991
 20
-46.05
 30
0.0
 11
81.59999999999991
 21
0.0
 31
0.0
  0
CIRCLE
  5
D22
  8
1
 10
91.59999999999991
 20
0.0
 30
0.0
 40
2.625000000000227
  0
LINE
  5
D23
  8
1
 10
101.5999999999999
 20
0.0
 30
0.0
 11
101.5999999999999
 21
45.05000000000001
 31
0.0
  0
LINE
  5
D24
  8
1
 10
101.5999999999999
 20
-45.05
 30
0.0
 11
101.5999999999999
 21
0.0
 31
0.0
  0
LINE
  5
D3D
  8
1
 10
90.34999999999991
 20
-0.7216878364999957
 30
0.0
 11
91.59999999999991
 21
-1.443375672999991
 31
0.0
  0
LINE
  5
D3E
  8
1
 10
92.84999999999991
 20
-0.7216878364999957
 30
0.0
 11
91.59999999999991
 21
-1.443375672999991
 31
0.0
  0
LINE
  5
D3F
  8
1
 10
92.84999999999991
 20
0.7216878364999957
 30
0.0
 11
92.84999999999991
 21
-0.7216878364999957
 31
0.0
  0
LINE
  5
D40
  8
1
 10
92.84999999999991
 20
0.7216878364999957
 30
0.0
 11
91.59999999999991
 21
1.443375672999991
 31
0.0
  0
LINE
  5
D41
  8
1
 10
90.34999999999991
 20
0.7216878364999957
 30
0.0
 11
91.59999999999991
 21
1.443375672999991
 31
0.0
  0
LINE
  5
D42
  8
1
 10
90.34999999999991
 20
0.7216878364999957
 30
0.0
 11
90.34999999999991
 21
-0.7216878364999957
 31
0.0
  0
CIRCLE
  5
D43
  8
1
 10
91.59999999999991
 20
0.0
 30
0.0
 40
2.055000000000014
  0
CIRCLE
  5
D44
  8
1
 10
91.59999999999991
 20
0.0
 30
0.0
 40
2.256103126841936
  0
CIRCLE
  5
D45
  8
1
 10
91.59999999999991
 20
0.0
 30
0.0
 40
2.500000000000227
  0
POLYLINE
  5
D46
  8
3
 66
     1
 10
0.0
 20
0.0
 30
0.0
  0
VERTEX
  5
1B0B
  8
3
 10
91.59999999999991
 20
-38.5031238963
 30
0.0
  0
VERTEX
  5
1B0C
  8
3
 10
90.7319102511999
 20
-38.5840677727
 30
0.0
  0
VERTEX
  5
1B0D
  8
3
 10
89.96170102659994
 20
-38.8153950614
 30
0.0
  0
VERTEX
  5
1B0E
  8
3
 10
89.37531006289987
 20
-39.1655436706
 30
0.0
  0
VERTEX
  5
1B0F
  8
3
 10
89.03940935459991
 20
-39.5883651786
 30
0.0
  0
VERTEX
  5
1B10
  8
3
 10
88.99241764509998
 20
-40.0305592433
 30
0.0
  0
VERTEX
  5
1B11
  8
3
 10
89.23870176749983
 20
-40.44144833200001
 30
0.0
  0
VERTEX
  5
1B12
  8
3
 10
89.75056424889999
 20
-40.7792510396
 30
0.0
  0
VERTEX
  5
1B13
  8
3
 10
90.47155144439989
 20
-41.0126501507
 30
0.0
  0
VERTEX
  5
1B14
  8
3
 10
91.32004091789986
 20
-41.12137624500001
 30
0.0
  0
VERTEX
  5
1B15
  8
3
 10
92.19898289050002
 20
-41.096876569
 30
0.0
  0
VERTEX
  5
1B16
  8
3
 10
93.0098787037
 20
-40.94146195580001
 30
0.0
  0
VERTEX
  5
1B17
  8
3
 10
93.66288793230001
 20
-40.6673362488
 30
0.0
  0
VERTEX
  5
1B18
  8
3
 10
94.08405538199986
 20
-40.29798987700001
 30
0.0
  0
VERTEX
  5
1B19
  8
3
 10
94.2249114967999
 20
-39.8696877862
 30
0.0
  0
VERTEX
  5
1B1A
  8
3
 10
94.07021385459984
 20
-39.4290181738
 30
0.0
  0
VERTEX
  5
1B1B
  8
3
 10
93.6379038744999
 20
-39.02743925840001
 30
0.0
  0
VERTEX
  5
1B1C
  8
3
 10
92.97556901179996
 20
-38.7155823472
 30
0.0
  0
VERTEX
  5
1B1D
  8
3
 10
92.1575140159
 20
-38.53599489160001
 30
0.0
  0
VERTEX
  5
1B1E
  8
3
 10
91.59999999999991
 20
-38.5031238963
 30
0.0
  0
SEQEND
  5
1FE4
  8
3
  0
POLYLINE
  5
D49
  8
3
 66
     1
 10
0.0
 20
0.0
 30
0.0
  0
VERTEX
  5
1B1F
  8
3
 10
91.59999999999991
 20
41.1281238963
 30
0.0
  0
VERTEX
  5
1B20
  8
3
 10
90.7319102511999
 20
41.06137380709998
 30
0.0
  0
VERTEX
  5
1B21
  8
3
 10
89.96170102659994
 20
40.8663951769
 30
0.0
  0
VERTEX
  5
1B22
  8
3
 10
89.37531006289987
 20
40.55887768790001
 30
0.0
  0
VERTEX
  5
1B23
  8
3
 10
89.03940935459991
 20
40.16629298230001
 30
0.0
  0
VERTEX
  5
1B24
  8
3
 10
88.99241764509998
 20
39.72866644390001
 30
0.0
  0
VERTEX
  5
1B25
  8
3
 10
89.23870176749983
 20
39.29475933449999
 30
0.0
  0
VERTEX
  5
1B26
  8
3
 10
89.75056424889999
 20
38.9164004276
 30
0.0
  0
VERTEX
  5
1B27
  8
3
 10
90.47155144439989
 20
38.6425807725
 30
0.0
  0
VERTEX
  5
1B28
  8
3
 10
90.51753702049996
 20
38.63546834619999
 30
0.0
  0
SEQEND
  5
1FE3
  8
3
  0
POLYLINE
  5
D4A
  8
3
 66
     1
 10
0.0
 20
0.0
 30
0.0
  0
VERTEX
  5
1B29
  8
3
 10
92.67850277539992
 20
38.6511732873
 30
0.0
  0
VERTEX
  5
1B2A
  8
3
 10
93.0098787037
 20
38.7272200898
 30
0.0
  0
VERTEX
  5
1B2B
  8
3
 10
93.66288793230001
 20
39.04403147790001
 30
0.0
  0
VERTEX
  5
1B2C
  8
3
 10
94.08405538199986
 20
39.4494064342
 30
0.0
  0
VERTEX
  5
1B2D
  8
3
 10
94.2249114967999
 20
39.89124316440001
 30
0.0
  0
VERTEX
  5
1B2E
  8
3
 10
94.07021385459984
 20
40.31708827950001
 30
0.0
  0
VERTEX
  5
1B2F
  8
3
 10
93.6379038744999
 20
40.68200046869998
 30
0.0
  0
VERTEX
  5
1B30
  8
3
 10
92.97556901179996
 20
40.9513003289
 30
0.0
  0
VERTEX
  5
1B31
  8
3
 10
92.1575140159
 20
41.10110758349998
 30
0.0
  0
VERTEX
  5
1B32
  8
3
 10
91.59999999999991
 20
41.1281238963
 30
0.0
  0
SEQEND
  5
1FE2
  8
3
  0
CIRCLE
  5
D4B
  8
3
 10
91.59999999999991
 20
0.0
 30
0.0
 40
2.099999999999909
  0
LINE
  5
D4D
  8
3
 10
92.19999999999982
 20
-2.012461179799999
 30
0.0
 11
92.19999999999982
 21
-2.5
 31
0.0
  0
LINE
  5
D4E
  8
3
 10
92.19999999999982
 20
2.5
 30
0.0
 11
92.19999999999982
 21
2.012461179699983
 31
0.0
  0
LINE
  5
D5C
  8
SK3
 10
-5.25
 20
0.0
 30
0.0
 11
-5.25
 21
11.09979999999999
 31
0.0
  0
LINE
  5
D5D
  8
SK3
 10
-5.25
 20
-11.09980000000002
 30
0.0
 11
-5.25
 21
0.0
 31
0.0
  0
LINE
  5
D5E
  8
SK3
 10
-4.761656058700055
 20
0.0
 30
0.0
 11
-4.761656058700055
 21
-8.731249999999989
 31
0.0
  0
LINE
  5
D5F
  8
SK3
 10
-4.761656058700055
 20
8.731249999999989
 30
0.0
 11
-4.761656058700055
 21
0.0
 31
0.0
  0
POLYLINE
  5
D63
  8
3
 66
     1
 10
0.0
 20
0.0
 30
0.0
  0
VERTEX
  5
1B33
  8
3
 10
91.59999999999991
 20
-6.289519393100022
 30
0.0
  0
VERTEX
  5
1B34
  8
3
 10
92.28362752229987
 20
-6.3705531409
 30
0.0
  0
VERTEX
  5
1B35
  8
3
 10
92.88998212859997
 20
-6.595509683200021
 30
0.0
  0
VERTEX
  5
1B36
  8
3
 10
93.36345667770001
 20
-6.926588517200003
 30
0.0
  0
VERTEX
  5
1B37
  8
3
 10
93.64315022729988
 20
-7.307133325199999
 30
0.0
  0
VERTEX
  5
1B38
  8
3
 10
93.6890324256999
 20
-7.666377669500008
 30
0.0
  0
VERTEX
  5
1B39
  8
3
 10
93.50861257559995
 20
-7.961289317299986
 30
0.0
  0
VERTEX
  5
1B3A
  8
3
 10
93.1225929487
 20
-8.1801650699
 30
0.0
  0
VERTEX
  5
1B3B
  8
3
 10
92.55760788789985
 20
-8.320700715599997
 30
0.0
  0
VERTEX
  5
1B3C
  8
3
 10
91.87869856909992
 20
-8.3841990313
 30
0.0
  0
VERTEX
  5
1B3D
  8
3
 10
91.18354031199988
 20
-8.377521035499996
 30
0.0
  0
VERTEX
  5
1B3E
  8
3
 10
90.5448975406
 20
-8.304028753900013
 30
0.0
  0
VERTEX
  5
1B3F
  8
3
 10
90.01125249799998
 20
-8.1540082649
 30
0.0
  0
VERTEX
  5
1B40
  8
3
 10
89.64443974009987
 20
-7.915059897800006
 30
0.0
  0
VERTEX
  5
1B41
  8
3
 10
89.50123740409981
 20
-7.597266773200005
 30
0.0
  0
VERTEX
  5
1B42
  8
3
 10
89.59136043779995
 20
-7.236509536900002
 30
0.0
  0
VERTEX
  5
1B43
  8
3
 10
89.89530950099993
 20
-6.873328137899989
 30
0.0
  0
VERTEX
  5
1B44
  8
3
 10
90.39178887169987
 20
-6.554917776100012
 30
0.0
  0
VERTEX
  5
1B45
  8
3
 10
91.03504337619984
 20
-6.344519781200006
 30
0.0
  0
VERTEX
  5
1B46
  8
3
 10
91.59999999999991
 20
-6.289519393100022
 30
0.0
  0
SEQEND
  5
1FE1
  8
3
  0
POLYLINE
  5
D64
  8
3
 66
     1
 10
0.0
 20
0.0
 30
0.0
  0
VERTEX
  5
1B47
  8
3
 10
91.59999999999991
 20
8.389519393099988
 30
0.0
  0
VERTEX
  5
1B48
  8
3
 10
92.28362752229987
 20
8.356164737
 30
0.0
  0
VERTEX
  5
1B49
  8
3
 10
92.88998212859997
 20
8.25259933320001
 30
0.0
  0
VERTEX
  5
1B4A
  8
3
 10
93.36345667770001
 20
8.066860653999981
 30
0.0
  0
VERTEX
  5
1B4B
  8
3
 10
93.64315022729988
 20
7.79245502149999
 30
0.0
  0
VERTEX
  5
1B4C
  8
3
 10
93.6890324256999
 20
7.452033262700013
 30
0.0
  0
VERTEX
  5
1B4D
  8
3
 10
93.50861257559995
 20
7.085390900600004
 30
0.0
  0
VERTEX
  5
1B4E
  8
3
 10
93.1225929487
 20
6.733890299099983
 30
0.0
  0
VERTEX
  5
1B4F
  8
3
 10
92.55760788789985
 20
6.4517472295
 30
0.0
  0
VERTEX
  5
1B50
  8
3
 10
91.87869856909992
 20
6.302774733399986
 30
0.0
  0
VERTEX
  5
1B51
  8
3
 10
91.18354031199988
 20
6.319230159999989
 30
0.0
  0
VERTEX
  5
1B52
  8
3
 10
90.5448975406
 20
6.488330871500011
 30
0.0
  0
VERTEX
  5
1B53
  8
3
 10
90.01125249799998
 20
6.780734302799999
 30
0.0
  0
VERTEX
  5
1B54
  8
3
 10
89.64443974009987
 20
7.149694579999988
 30
0.0
  0
VERTEX
  5
1B55
  8
3
 10
89.50123740409981
 20
7.525186499699998
 30
0.0
  0
VERTEX
  5
1B56
  8
3
 10
89.59136043779995
 20
7.849181642500014
 30
0.0
  0
VERTEX
  5
1B57
  8
3
 10
89.89530950099993
 20
8.099717269699994
 30
0.0
  0
VERTEX
  5
1B58
  8
3
 10
90.39178887169987
 20
8.27253993170001
 30
0.0
  0
VERTEX
  5
1B59
  8
3
 10
91.03504337619984
 20
8.367098336699996
 30
0.0
  0
VERTEX
  5
1B5A
  8
3
 10
91.59999999999991
 20
8.389519393099988
 30
0.0
  0
SEQEND
  5
1FE0
  8
3
  0
LINE
  5
D65
  8
3
 10
83.59999999999991
 20
-25.40525000000002
 30
0.0
 11
83.59999999999991
 21
-41.27475
 31
0.0
  0
LINE
  5
D66
  8
3
 10
83.59999999999991
 20
41.27474999999998
 30
0.0
 11
83.59999999999991
 21
25.40525
 31
0.0
  0
POLYLINE
  5
D6B
  8
3
 66
     1
 10
0.0
 20
0.0
 30
0.0
  0
VERTEX
  5
1B5B
  8
3
 10
91.59999999999991
 20
39.60978110349998
 30
0.0
  0
VERTEX
  5
1B5C
  8
3
 10
92.35860749899985
 20
39.53887694439999
 30
0.0
  0
VERTEX
  5
1B5D
  8
3
 10
93.01476085169998
 20
39.33574046659999
 30
0.0
  0
VERTEX
  5
1B5E
  8
3
 10
93.47984291189982
 20
39.02780637710001
 30
0.0
  0
VERTEX
  5
1B5F
  8
3
 10
93.69104177029999
 20
38.6566628809
 30
0.0
  0
VERTEX
  5
1B60
  8
3
 10
93.61983385069993
 20
38.2724349639
 30
0.0
  0
VERTEX
  5
1B61
  8
3
 10
93.27583617729988
 20
37.92701473529999
 30
0.0
  0
VERTEX
  5
1B62
  8
3
 10
92.7055075420999
 20
37.667053111
 30
0.0
  0
VERTEX
  5
1B63
  8
3
 10
91.98587398749987
 20
37.5276593488
 30
0.0
  0
VERTEX
  5
1B64
  8
3
 10
91.21412601259999
 20
37.5276593488
 30
0.0
  0
VERTEX
  5
1B65
  8
3
 10
90.49449245799997
 20
37.667053111
 30
0.0
  0
VERTEX
  5
1B66
  8
3
 10
89.92416382269994
 20
37.92701473529999
 30
0.0
  0
VERTEX
  5
1B67
  8
3
 10
89.58016614939993
 20
38.2724349639
 30
0.0
  0
VERTEX
  5
1B68
  8
3
 10
89.50895822979987
 20
38.6566628809
 30
0.0
  0
VERTEX
  5
1B69
  8
3
 10
89.72015708819981
 20
39.02780637710001
 30
0.0
  0
VERTEX
  5
1B6A
  8
3
 10
90.18523914839989
 20
39.33574046659999
 30
0.0
  0
VERTEX
  5
1B6B
  8
3
 10
90.84139250099997
 20
39.53887694439999
 30
0.0
  0
VERTEX
  5
1B6C
  8
3
 10
91.59999999999991
 20
39.60978110349998
 30
0.0
  0
SEQEND
  5
1FDF
  8
3
  0
POLYLINE
  5
D6C
  8
3
 66
     1
 10
0.0
 20
0.0
 30
0.0
  0
VERTEX
  5
1B6D
  8
3
 10
92.19999999999982
 20
9.833601805200004
 30
0.0
  0
VERTEX
  5
1B6E
  8
3
 10
92.86419738429981
 20
9.680117388899987
 30
0.0
  0
VERTEX
  5
1B6F
  8
3
 10
93.36659382419998
 20
9.627756632099988
 30
0.0
  0
VERTEX
  5
1B70
  8
3
 10
93.61625222329985
 20
9.726280179599996
 30
0.0
  0
VERTEX
  5
1B71
  8
3
 10
93.69955733659981
 20
9.981172159599993
 30
0.0
  0
VERTEX
  5
1B72
  8
3
 10
93.61571723179986
 20
10.31471616499999
 30
0.0
  0
VERTEX
  5
1B73
  8
3
 10
93.40430949179995
 20
10.7066823669
 30
0.0
  0
VERTEX
  5
1B74
  8
3
 10
92.9342143668
 20
11.28744483060001
 30
0.0
  0
VERTEX
  5
1B75
  8
3
 10
92.30080536319997
 20
11.79191228600001
 30
0.0
  0
VERTEX
  5
1B76
  8
3
 10
92.19999999999982
 20
11.846062985
 30
0.0
  0
SEQEND
  5
1FDE
  8
3
  0
POLYLINE
  5
D6D
  8
3
 66
     1
 10
0.0
 20
0.0
 30
0.0
  0
VERTEX
  5
1B77
  8
3
 10
92.19999999999982
 20
11.846062985
 30
0.0
  0
VERTEX
  5
1B78
  8
3
 10
91.9431127984999
 20
13.20647561429999
 30
0.0
  0
VERTEX
  5
1B79
  8
3
 10
92.19999999999982
 20
14.4151095007
 30
0.0
  0
SEQEND
  5
1FDD
  8
3
  0
POLYLINE
  5
D6E
  8
3
 66
     1
 10
0.0
 20
0.0
 30
0.0
  0
VERTEX
  5
1B7A
  8
3
 10
92.19999999999982
 20
14.4151095007
 30
0.0
  0
VERTEX
  5
1B7B
  8
3
 10
92.86419738429981
 20
14.56859391699999
 30
0.0
  0
VERTEX
  5
1B7C
  8
3
 10
93.36659382419998
 20
14.62095467379999
 30
0.0
  0
VERTEX
  5
1B7D
  8
3
 10
93.61625222329985
 20
14.52243112639999
 30
0.0
  0
VERTEX
  5
1B7E
  8
3
 10
93.69955733659981
 20
14.2675391464
 30
0.0
  0
VERTEX
  5
1B7F
  8
3
 10
93.61571723179986
 20
13.933995141
 30
0.0
  0
VERTEX
  5
1B80
  8
3
 10
93.40430949179995
 20
13.54202893900001
 30
0.0
  0
VERTEX
  5
1B81
  8
3
 10
92.9342143668
 20
12.96126647540001
 30
0.0
  0
VERTEX
  5
1B82
  8
3
 10
92.30080536319997
 20
12.45679901989999
 30
0.0
  0
VERTEX
  5
1B83
  8
3
 10
92.19999999999982
 20
12.40264832099999
 30
0.0
  0
SEQEND
  5
1FDC
  8
3
  0
POLYLINE
  5
D6F
  8
3
 66
     1
 10
0.0
 20
0.0
 30
0.0
  0
VERTEX
  5
1B84
  8
3
 10
92.19999999999982
 20
12.40264832099999
 30
0.0
  0
VERTEX
  5
1B85
  8
3
 10
91.9431127984999
 20
11.04223569160001
 30
0.0
  0
VERTEX
  5
1B86
  8
3
 10
92.19999999999982
 20
9.833601805200004
 30
0.0
  0
SEQEND
  5
1FDB
  8
3
  0
POLYLINE
  5
D70
  8
3
 66
     1
 10
0.0
 20
0.0
 30
0.0
  0
VERTEX
  5
1B87
  8
3
 10
91.59999999999991
 20
-37.50978110350002
 30
0.0
  0
VERTEX
  5
1B88
  8
3
 10
92.35860749899985
 20
-37.58068526260001
 30
0.0
  0
VERTEX
  5
1B89
  8
3
 10
93.01476085169998
 20
-37.78382174040001
 30
0.0
  0
VERTEX
  5
1B8A
  8
3
 10
93.47984291189982
 20
-38.09175582990002
 30
0.0
  0
VERTEX
  5
1B8B
  8
3
 10
93.69104177029999
 20
-38.4628993261
 30
0.0
  0
VERTEX
  5
1B8C
  8
3
 10
93.61983385069993
 20
-38.8471272431
 30
0.0
  0
VERTEX
  5
1B8D
  8
3
 10
93.27583617729988
 20
-39.1925474717
 30
0.0
  0
VERTEX
  5
1B8E
  8
3
 10
92.7055075420999
 20
-39.452509096
 30
0.0
  0
VERTEX
  5
1B8F
  8
3
 10
91.98587398749987
 20
-39.5919028582
 30
0.0
  0
VERTEX
  5
1B90
  8
3
 10
91.21412601259999
 20
-39.5919028582
 30
0.0
  0
VERTEX
  5
1B91
  8
3
 10
90.49449245799997
 20
-39.452509096
 30
0.0
  0
VERTEX
  5
1B92
  8
3
 10
89.92416382269994
 20
-39.1925474717
 30
0.0
  0
VERTEX
  5
1B93
  8
3
 10
89.58016614939993
 20
-38.8471272431
 30
0.0
  0
VERTEX
  5
1B94
  8
3
 10
89.50895822979987
 20
-38.4628993261
 30
0.0
  0
VERTEX
  5
1B95
  8
3
 10
89.72015708819981
 20
-38.09175582990002
 30
0.0
  0
VERTEX
  5
1B96
  8
3
 10
90.18523914839989
 20
-37.78382174040001
 30
0.0
  0
VERTEX
  5
1B97
  8
3
 10
90.84139250099997
 20
-37.58068526260001
 30
0.0
  0
VERTEX
  5
1B98
  8
3
 10
91.59999999999991
 20
-37.50978110350002
 30
0.0
  0
SEQEND
  5
1FDA
  8
3
  0
POLYLINE
  5
D71
  8
3
 66
     1
 10
0.0
 20
0.0
 30
0.0
  0
VERTEX
  5
1B99
  8
3
 10
92.19999999999982
 20
-12.40264832100002
 30
0.0
  0
VERTEX
  5
1B9A
  8
3
 10
92.86419738429981
 20
-12.89175016360002
 30
0.0
  0
VERTEX
  5
1B9B
  8
3
 10
93.36659382419998
 20
-13.4855489048
 30
0.0
  0
VERTEX
  5
1B9C
  8
3
 10
93.61625222329985
 20
-13.93529658290001
 30
0.0
  0
VERTEX
  5
1B9D
  8
3
 10
93.69955733659981
 20
-14.31065515739999
 30
0.0
  0
VERTEX
  5
1B9E
  8
3
 10
93.61571723179986
 20
-14.52296376639998
 30
0.0
  0
VERTEX
  5
1B9F
  8
3
 10
93.40430949179995
 20
-14.6164903195
 30
0.0
  0
VERTEX
  5
1BA0
  8
3
 10
92.9342143668
 20
-14.58295449209999
 30
0.0
  0
VERTEX
  5
1BA1
  8
3
 10
92.30080536319997
 20
-14.4364130841
 30
0.0
  0
VERTEX
  5
1BA2
  8
3
 10
92.19999999999982
 20
-14.4151095007
 30
0.0
  0
SEQEND
  5
1FD9
  8
3
  0
POLYLINE
  5
D72
  8
3
 66
     1
 10
0.0
 20
0.0
 30
0.0
  0
VERTEX
  5
1BA3
  8
3
 10
92.19999999999982
 20
-14.4151095007
 30
0.0
  0
VERTEX
  5
1BA4
  8
3
 10
91.9431127984999
 20
-13.11401599070001
 30
0.0
  0
VERTEX
  5
1BA5
  8
3
 10
92.19999999999982
 20
-11.846062985
 30
0.0
  0
SEQEND
  5
1FD8
  8
3
  0
POLYLINE
  5
D73
  8
3
 66
     1
 10
0.0
 20
0.0
 30
0.0
  0
VERTEX
  5
1BA6
  8
3
 10
92.19999999999982
 20
-11.846062985
 30
0.0
  0
VERTEX
  5
1BA7
  8
3
 10
92.86419738429981
 20
-11.3569611424
 30
0.0
  0
VERTEX
  5
1BA8
  8
3
 10
93.36659382419998
 20
-10.76316240120002
 30
0.0
  0
VERTEX
  5
1BA9
  8
3
 10
93.61625222329985
 20
-10.31341472309998
 30
0.0
  0
VERTEX
  5
1BAA
  8
3
 10
93.69955733659981
 20
-9.938056148499982
 30
0.0
  0
VERTEX
  5
1BAB
  8
3
 10
93.61571723179986
 20
-9.725747539600007
 30
0.0
  0
VERTEX
  5
1BAC
  8
3
 10
93.40430949179995
 20
-9.632220986499988
 30
0.0
  0
VERTEX
  5
1BAD
  8
3
 10
92.9342143668
 20
-9.665756813900003
 30
0.0
  0
VERTEX
  5
1BAE
  8
3
 10
92.30080536319997
 20
-9.812298221899994
 30
0.0
  0
VERTEX
  5
1BAF
  8
3
 10
92.19999999999982
 20
-9.83360180530002
 30
0.0
  0
SEQEND
  5
1FD7
  8
3
  0
POLYLINE
  5
D74
  8
3
 66
     1
 10
0.0
 20
0.0
 30
0.0
  0
VERTEX
  5
1BB0
  8
3
 10
92.19999999999982
 20
-9.83360180530002
 30
0.0
  0
VERTEX
  5
1BB1
  8
3
 10
91.9431127984999
 20
-11.13469531530001
 30
0.0
  0
VERTEX
  5
1BB2
  8
3
 10
92.19999999999982
 20
-12.40264832100002
 30
0.0
  0
SEQEND
  5
1FD6
  8
3
  0
LINE
  5
D75
  8
3
 10
92.19999999999982
 20
14.4151095007
 30
0.0
 11
92.19999999999982
 21
11.846062985
 31
0.0
  0
LINE
  5
D76
  8
3
 10
92.19999999999982
 20
9.833601805200004
 30
0.0
 11
92.19999999999982
 21
11.846062985
 31
0.0
  0
LINE
  5
D77
  8
3
 10
92.19999999999982
 20
-11.846062985
 30
0.0
 11
92.19999999999982
 21
-14.4151095007
 31
0.0
  0
LINE
  5
D78
  8
3
 10
92.19999999999982
 20
-11.846062985
 30
0.0
 11
92.19999999999982
 21
-9.83360180530002
 31
0.0
  0
POLYLINE
  5
D79
  8
3
 66
     1
 10
0.0
 20
0.0
 30
0.0
  0
VERTEX
  5
1BB3
  8
3
 10
91.59999999999991
 20
40.3269444405
 30
0.0
  0
VERTEX
  5
1BB4
  8
3
 10
92.45233610669993
 20
40.25582957020001
 30
0.0
  0
VERTEX
  5
1BB5
  8
3
 10
93.21230837079997
 20
40.05019135909998
 30
0.0
  0
VERTEX
  5
1BB6
  8
3
 10
93.79756200549991
 20
39.732313898
 30
0.0
  0
VERTEX
  5
1BB7
  8
3
 10
94.14467569809995
 20
39.3366441423
 30
0.0
  0
VERTEX
  5
1BB8
  8
3
 10
94.21603429419997
 20
38.90605904949999
 30
0.0
  0
VERTEX
  5
1BB9
  8
3
 10
94.00390498249999
 20
38.48721919560001
 30
0.0
  0
VERTEX
  5
1BBA
  8
3
 10
93.53127526560002
 20
38.12551237770001
 30
0.0
  0
VERTEX
  5
1BBB
  8
3
 10
92.84936190679991
 20
37.86013514199999
 30
0.0
  0
VERTEX
  5
1BBC
  8
3
 10
92.03206079949996
 20
37.7198452298
 30
0.0
  0
VERTEX
  5
1BBD
  8
3
 10
91.16793920049986
 20
37.7198452298
 30
0.0
  0
VERTEX
  5
1BBE
  8
3
 10
90.35063809329995
 20
37.86013514199999
 30
0.0
  0
VERTEX
  5
1BBF
  8
3
 10
89.66872473449985
 20
38.12551237770001
 30
0.0
  0
VERTEX
  5
1BC0
  8
3
 10
89.19609501759987
 20
38.48721919560001
 30
0.0
  0
VERTEX
  5
1BC1
  8
3
 10
88.98396570589989
 20
38.90605904949999
 30
0.0
  0
VERTEX
  5
1BC2
  8
3
 10
89.05532430189987
 20
39.3366441423
 30
0.0
  0
VERTEX
  5
1BC3
  8
3
 10
89.40243799459995
 20
39.732313898
 30
0.0
  0
VERTEX
  5
1BC4
  8
3
 10
89.98769162919984
 20
40.05019135909998
 30
0.0
  0
VERTEX
  5
1BC5
  8
3
 10
90.74766389339993
 20
40.25582957020001
 30
0.0
  0
VERTEX
  5
1BC6
  8
3
 10
91.59999999999991
 20
40.3269444405
 30
0.0
  0
SEQEND
  5
1FD5
  8
3
  0
POLYLINE
  5
D7A
  8
3
 66
     1
 10
0.0
 20
0.0
 30
0.0
  0
VERTEX
  5
1BC7
  8
3
 10
91.59999999999991
 20
-37.7019444405
 30
0.0
  0
VERTEX
  5
1BC8
  8
3
 10
92.45233610669993
 20
-37.77305931080002
 30
0.0
  0
VERTEX
  5
1BC9
  8
3
 10
93.21230837079997
 20
-37.97869752190002
 30
0.0
  0
VERTEX
  5
1BCA
  8
3
 10
93.79756200549991
 20
-38.296574983
 30
0.0
  0
VERTEX
  5
1BCB
  8
3
 10
94.14467569809995
 20
-38.6922447386
 30
0.0
  0
VERTEX
  5
1BCC
  8
3
 10
94.21603429419997
 20
-39.1228298314
 30
0.0
  0
VERTEX
  5
1BCD
  8
3
 10
94.00390498249999
 20
-39.54166968540001
 30
0.0
  0
VERTEX
  5
1BCE
  8
3
 10
93.53127526560002
 20
-39.90337650330001
 30
0.0
  0
VERTEX
  5
1BCF
  8
3
 10
92.84936190679991
 20
-40.168753739
 30
0.0
  0
VERTEX
  5
1BD0
  8
3
 10
92.03206079949996
 20
-40.3090436512
 30
0.0
  0
VERTEX
  5
1BD1
  8
3
 10
91.16793920049986
 20
-40.3090436512
 30
0.0
  0
VERTEX
  5
1BD2
  8
3
 10
90.35063809329995
 20
-40.168753739
 30
0.0
  0
VERTEX
  5
1BD3
  8
3
 10
89.66872473449985
 20
-39.90337650330001
 30
0.0
  0
VERTEX
  5
1BD4
  8
3
 10
89.19609501759987
 20
-39.54166968540001
 30
0.0
  0
VERTEX
  5
1BD5
  8
3
 10
88.98396570589989
 20
-39.1228298314
 30
0.0
  0
VERTEX
  5
1BD6
  8
3
 10
89.05532430189987
 20
-38.6922447386
 30
0.0
  0
VERTEX
  5
1BD7
  8
3
 10
89.40243799459995
 20
-38.296574983
 30
0.0
  0
VERTEX
  5
1BD8
  8
3
 10
89.98769162919984
 20
-37.97869752190002
 30
0.0
  0
VERTEX
  5
1BD9
  8
3
 10
90.74766389339993
 20
-37.77305931080002
 30
0.0
  0
VERTEX
  5
1BDA
  8
3
 10
91.59999999999991
 20
-37.7019444405
 30
0.0
  0
SEQEND
  5
1FD4
  8
3
  0
LINE
  5
D7B
  8
3
 10
96.18598999999995
 20
0.0
 30
0.0
 11
96.18598999999995
 21
-9.525000000000006
 31
0.0
  0
LINE
  5
D7C
  8
3
 10
96.18598999999995
 20
9.525000000000006
 30
0.0
 11
96.18598999999995
 21
0.0
 31
0.0
  0
LINE
  5
D7D
  8
3
 10
95.25
 20
0.0
 30
0.0
 11
95.25
 21
-8.589010000000002
 31
0.0
  0
LINE
  5
D7E
  8
3
 10
95.25
 20
8.589010000000002
 30
0.0
 11
95.25
 21
0.0
 31
0.0
  0
LINE
  5
D88
  8
3
 10
87.11016030499991
 20
-25.39868999999999
 30
0.0
 11
87.11016030499991
 21
-41.28131
 31
0.0
  0
LINE
  5
D89
  8
3
 10
86.47203951069991
 20
-25.40869000000001
 30
0.0
 11
86.47203951069991
 21
-41.27131
 31
0.0
  0
LINE
  5
D8A
  8
3
 10
85.54719999999998
 20
-25.65649999999999
 30
0.0
 11
85.54719999999998
 21
-41.0235
 31
0.0
  0
LINE
  5
D8B
  8
3
 10
87.11016030499991
 20
41.28130999999999
 30
0.0
 11
87.11016030499991
 21
25.39868999999999
 31
0.0
  0
LINE
  5
D8C
  8
3
 10
85.54719999999998
 20
41.02350000000001
 30
0.0
 11
85.54719999999998
 21
25.65649999999999
 31
0.0
  0
LINE
  5
D8D
  8
3
 10
86.47203951069991
 20
41.27131
 30
0.0
 11
86.47203951069991
 21
25.40869000000001
 31
0.0
  0
POLYLINE
  5
D8E
  8
3
 66
     1
 10
0.0
 20
0.0
 30
0.0
  0
VERTEX
  5
1BDB
  8
3
 10
91.59999999999991
 20
-35.55931742159999
 30
0.0
  0
VERTEX
  5
1BDC
  8
3
 10
90.9303039934
 20
-35.49271201250002
 30
0.0
  0
VERTEX
  5
1BDD
  8
3
 10
90.36256313299987
 20
-35.30303585510001
 30
0.0
  0
VERTEX
  5
1BDE
  8
3
 10
89.9832108180999
 20
-35.0191654249
 30
0.0
  0
VERTEX
  5
1BDF
  8
3
 10
89.84999999999991
 20
-34.68431742159999
 30
0.0
  0
VERTEX
  5
1BE0
  8
3
 10
89.9832108180999
 20
-34.3494694183
 30
0.0
  0
VERTEX
  5
1BE1
  8
3
 10
90.36256313299987
 20
-34.065598988
 30
0.0
  0
VERTEX
  5
1BE2
  8
3
 10
90.9303039934
 20
-33.87592283060002
 30
0.0
  0
VERTEX
  5
1BE3
  8
3
 10
91.59999999999991
 20
-33.80931742159999
 30
0.0
  0
VERTEX
  5
1BE4
  8
3
 10
92.26969600669986
 20
-33.87592283060002
 30
0.0
  0
VERTEX
  5
1BE5
  8
3
 10
92.8374368671
 20
-34.065598988
 30
0.0
  0
VERTEX
  5
1BE6
  8
3
 10
93.21678918189991
 20
-34.3494694183
 30
0.0
  0
VERTEX
  5
1BE7
  8
3
 10
93.34999999999991
 20
-34.68431742159999
 30
0.0
  0
VERTEX
  5
1BE8
  8
3
 10
93.21678918189991
 20
-35.0191654249
 30
0.0
  0
VERTEX
  5
1BE9
  8
3
 10
92.8374368671
 20
-35.30303585510001
 30
0.0
  0
VERTEX
  5
1BEA
  8
3
 10
92.26969600669986
 20
-35.49271201250002
 30
0.0
  0
VERTEX
  5
1BEB
  8
3
 10
91.59999999999991
 20
-35.55931742159999
 30
0.0
  0
SEQEND
  5
1FD3
  8
3
  0
POLYLINE
  5
D8F
  8
3
 66
     1
 10
0.0
 20
0.0
 30
0.0
  0
VERTEX
  5
1BEC
  8
3
 10
89.28326725659986
 20
-35.17512237459999
 30
0.0
  0
VERTEX
  5
1BED
  8
3
 10
89.42298333669987
 20
-34.7789377421
 30
0.0
  0
VERTEX
  5
1BEE
  8
3
 10
89.82527975569997
 20
-34.4305388233
 30
0.0
  0
VERTEX
  5
1BEF
  8
3
 10
90.4416336283
 20
-34.17194766980001
 30
0.0
  0
VERTEX
  5
1BF0
  8
3
 10
91.19770358099981
 20
-34.03435419089999
 30
0.0
  0
VERTEX
  5
1BF1
  8
3
 10
92.00229641909982
 20
-34.03435419089999
 30
0.0
  0
VERTEX
  5
1BF2
  8
3
 10
92.75836637179987
 20
-34.17194766980001
 30
0.0
  0
VERTEX
  5
1BF3
  8
3
 10
93.37472024429985
 20
-34.4305388233
 30
0.0
  0
VERTEX
  5
1BF4
  8
3
 10
93.77701666339999
 20
-34.7789377421
 30
0.0
  0
VERTEX
  5
1BF5
  8
3
 10
93.9167327435
 20
-35.17512237459999
 30
0.0
  0
VERTEX
  5
1BF6
  8
3
 10
93.77701666339999
 20
-35.571307007
 30
0.0
  0
VERTEX
  5
1BF7
  8
3
 10
93.37472024429985
 20
-35.9197059258
 30
0.0
  0
VERTEX
  5
1BF8
  8
3
 10
92.75836637179987
 20
-36.17829707940001
 30
0.0
  0
VERTEX
  5
1BF9
  8
3
 10
92.00229641909982
 20
-36.3158905583
 30
0.0
  0
VERTEX
  5
1BFA
  8
3
 10
91.19770358099981
 20
-36.3158905583
 30
0.0
  0
VERTEX
  5
1BFB
  8
3
 10
90.4416336283
 20
-36.17829707940001
 30
0.0
  0
VERTEX
  5
1BFC
  8
3
 10
89.82527975569997
 20
-35.9197059258
 30
0.0
  0
VERTEX
  5
1BFD
  8
3
 10
89.42298333669987
 20
-35.571307007
 30
0.0
  0
VERTEX
  5
1BFE
  8
3
 10
89.28326725659986
 20
-35.17512237459999
 30
0.0
  0
SEQEND
  5
1FD2
  8
3
  0
POLYLINE
  5
D90
  8
3
 66
     1
 10
0.0
 20
0.0
 30
0.0
  0
VERTEX
  5
1BFF
  8
3
 10
93.65499999999997
 20
-35.3338364601
 30
0.0
  0
VERTEX
  5
1C00
  8
3
 10
93.51623043149993
 20
-35.70501227210002
 30
0.0
  0
VERTEX
  5
1C01
  8
3
 10
93.1186633248999
 20
-36.02605873390002
 30
0.0
  0
VERTEX
  5
1C02
  8
3
 10
92.51599232109993
 20
-36.2536167419
 30
0.0
  0
VERTEX
  5
1C03
  8
3
 10
91.78961147869995
 20
-36.3569533262
 30
0.0
  0
VERTEX
  5
1C04
  8
3
 10
91.03762255539982
 20
-36.32211230839999
 30
0.0
  0
VERTEX
  5
1C05
  8
3
 10
90.36158582229996
 20
-36.15379916109998
 30
0.0
  0
VERTEX
  5
1C06
  8
3
 10
89.85280378609991
 20
-35.87474550740001
 30
0.0
  0
VERTEX
  5
1C07
  8
3
 10
89.57999028019981
 20
-35.52263908960001
 30
0.0
  0
VERTEX
  5
1C08
  8
3
 10
89.57999028019981
 20
-35.14503383049998
 30
0.0
  0
VERTEX
  5
1C09
  8
3
 10
89.85280378609991
 20
-34.79292741270001
 30
0.0
  0
VERTEX
  5
1C0A
  8
3
 10
90.36158582229996
 20
-34.51387375900001
 30
0.0
  0
VERTEX
  5
1C0B
  8
3
 10
91.03762255539982
 20
-34.34556061170002
 30
0.0
  0
VERTEX
  5
1C0C
  8
3
 10
91.78961147869995
 20
-34.31071959389999
 30
0.0
  0
VERTEX
  5
1C0D
  8
3
 10
92.51599232109993
 20
-34.41405617819998
 30
0.0
  0
VERTEX
  5
1C0E
  8
3
 10
93.1186633248999
 20
-34.6416141862
 30
0.0
  0
VERTEX
  5
1C0F
  8
3
 10
93.51623043149993
 20
-34.962660648
 30
0.0
  0
VERTEX
  5
1C10
  8
3
 10
93.65499999999997
 20
-35.3338364601
 30
0.0
  0
SEQEND
  5
1FD1
  8
3
  0
POLYLINE
  5
D91
  8
3
 66
     1
 10
0.0
 20
0.0
 30
0.0
  0
VERTEX
  5
1C11
  8
3
 10
94.09999999999991
 20
-35.6036833547
 30
0.0
  0
VERTEX
  5
1C12
  8
3
 10
93.9492315519999
 20
-36.0312085338
 30
0.0
  0
VERTEX
  5
1C13
  8
3
 10
93.51511110779984
 20
-36.40716786680002
 30
0.0
  0
VERTEX
  5
1C14
  8
3
 10
92.84999999999991
 20
-36.6862151094
 30
0.0
  0
VERTEX
  5
1C15
  8
3
 10
92.03412044419997
 20
-36.8346930459
 30
0.0
  0
VERTEX
  5
1C16
  8
3
 10
91.16587955589989
 20
-36.8346930459
 30
0.0
  0
VERTEX
  5
1C17
  8
3
 10
90.34999999999991
 20
-36.6862151094
 30
0.0
  0
VERTEX
  5
1C18
  8
3
 10
89.68488889219998
 20
-36.40716786680002
 30
0.0
  0
VERTEX
  5
1C19
  8
3
 10
89.25076844809996
 20
-36.0312085338
 30
0.0
  0
VERTEX
  5
1C1A
  8
3
 10
89.09999999999991
 20
-35.6036833547
 30
0.0
  0
VERTEX
  5
1C1B
  8
3
 10
89.25076844809996
 20
-35.17615817550001
 30
0.0
  0
VERTEX
  5
1C1C
  8
3
 10
89.68488889219998
 20
-34.8001988426
 30
0.0
  0
VERTEX
  5
1C1D
  8
3
 10
90.34999999999991
 20
-34.52115159990001
 30
0.0
  0
VERTEX
  5
1C1E
  8
3
 10
91.16587955589989
 20
-34.37267366340001
 30
0.0
  0
VERTEX
  5
1C1F
  8
3
 10
92.03412044419997
 20
-34.37267366340001
 30
0.0
  0
VERTEX
  5
1C20
  8
3
 10
92.84999999999991
 20
-34.52115159990001
 30
0.0
  0
VERTEX
  5
1C21
  8
3
 10
93.51511110779984
 20
-34.8001988426
 30
0.0
  0
VERTEX
  5
1C22
  8
3
 10
93.9492315519999
 20
-35.17615817550001
 30
0.0
  0
VERTEX
  5
1C23
  8
3
 10
94.09999999999991
 20
-35.6036833547
 30
0.0
  0
SEQEND
  5
1FD0
  8
3
  0
POLYLINE
  5
D92
  8
3
 66
     1
 10
0.0
 20
0.0
 30
0.0
  0
VERTEX
  5
1C24
  8
3
 10
94.09999999999991
 20
-35.681722906
 30
0.0
  0
VERTEX
  5
1C25
  8
3
 10
93.9492315519999
 20
-36.10924808520002
 30
0.0
  0
VERTEX
  5
1C26
  8
3
 10
93.51511110779984
 20
-36.4852074181
 30
0.0
  0
VERTEX
  5
1C27
  8
3
 10
92.84999999999991
 20
-36.76425466080002
 30
0.0
  0
VERTEX
  5
1C28
  8
3
 10
92.03412044419997
 20
-36.91273259730002
 30
0.0
  0
VERTEX
  5
1C29
  8
3
 10
91.16587955589989
 20
-36.91273259730002
 30
0.0
  0
VERTEX
  5
1C2A
  8
3
 10
90.34999999999991
 20
-36.76425466080002
 30
0.0
  0
VERTEX
  5
1C2B
  8
3
 10
89.68488889219998
 20
-36.4852074181
 30
0.0
  0
VERTEX
  5
1C2C
  8
3
 10
89.25076844809996
 20
-36.10924808520002
 30
0.0
  0
VERTEX
  5
1C2D
  8
3
 10
89.09999999999991
 20
-35.681722906
 30
0.0
  0
VERTEX
  5
1C2E
  8
3
 10
89.25076844809996
 20
-35.2541977269
 30
0.0
  0
VERTEX
  5
1C2F
  8
3
 10
89.68488889219998
 20
-34.87823839390001
 30
0.0
  0
VERTEX
  5
1C30
  8
3
 10
90.34999999999991
 20
-34.5991911513
 30
0.0
  0
VERTEX
  5
1C31
  8
3
 10
91.16587955589989
 20
-34.4507132148
 30
0.0
  0
VERTEX
  5
1C32
  8
3
 10
92.03412044419997
 20
-34.4507132148
 30
0.0
  0
VERTEX
  5
1C33
  8
3
 10
92.84999999999991
 20
-34.5991911513
 30
0.0
  0
VERTEX
  5
1C34
  8
3
 10
93.51511110779984
 20
-34.87823839390001
 30
0.0
  0
VERTEX
  5
1C35
  8
3
 10
93.9492315519999
 20
-35.2541977269
 30
0.0
  0
VERTEX
  5
1C36
  8
3
 10
94.09999999999991
 20
-35.681722906
 30
0.0
  0
SEQEND
  5
1FCF
  8
3
  0
POLYLINE
  5
D93
  8
3
 66
     1
 10
0.0
 20
0.0
 30
0.0
  0
VERTEX
  5
1C37
  8
3
 10
93.65499999999997
 20
-35.95156980069999
 30
0.0
  0
VERTEX
  5
1C38
  8
3
 10
93.51623043139989
 20
-36.3227456127
 30
0.0
  0
VERTEX
  5
1C39
  8
3
 10
93.1186633248999
 20
-36.6437920745
 30
0.0
  0
VERTEX
  5
1C3A
  8
3
 10
92.51599232109993
 20
-36.87135008249999
 30
0.0
  0
VERTEX
  5
1C3B
  8
3
 10
91.78961147869995
 20
-36.97468666679998
 30
0.0
  0
VERTEX
  5
1C3C
  8
3
 10
91.03762255539982
 20
-36.93984564900001
 30
0.0
  0
VERTEX
  5
1C3D
  8
3
 10
90.36158582229996
 20
-36.77153250169999
 30
0.0
  0
VERTEX
  5
1C3E
  8
3
 10
89.85280378609991
 20
-36.49247884800002
 30
0.0
  0
VERTEX
  5
1C3F
  8
3
 10
89.57999028019981
 20
-36.14037243019999
 30
0.0
  0
VERTEX
  5
1C40
  8
3
 10
89.57999028019981
 20
-35.76276717109999
 30
0.0
  0
VERTEX
  5
1C41
  8
3
 10
89.85280378609991
 20
-35.41066075330002
 30
0.0
  0
VERTEX
  5
1C42
  8
3
 10
90.36158582229996
 20
-35.13160709959999
 30
0.0
  0
VERTEX
  5
1C43
  8
3
 10
91.03762255539982
 20
-34.96329395230001
 30
0.0
  0
VERTEX
  5
1C44
  8
3
 10
91.78961147869995
 20
-34.9284529345
 30
0.0
  0
VERTEX
  5
1C45
  8
3
 10
92.51599232109993
 20
-35.0317895188
 30
0.0
  0
VERTEX
  5
1C46
  8
3
 10
93.1186633248999
 20
-35.25934752680001
 30
0.0
  0
VERTEX
  5
1C47
  8
3
 10
93.51623043139989
 20
-35.5803939887
 30
0.0
  0
VERTEX
  5
1C48
  8
3
 10
93.65499999999997
 20
-35.95156980069999
 30
0.0
  0
SEQEND
  5
1FCE
  8
3
  0
POLYLINE
  5
D94
  8
3
 66
     1
 10
0.0
 20
0.0
 30
0.0
  0
VERTEX
  5
1C49
  8
3
 10
94.09999999999991
 20
-36.22141669530001
 30
0.0
  0
VERTEX
  5
1C4A
  8
3
 10
93.9492315519999
 20
-36.64894187440001
 30
0.0
  0
VERTEX
  5
1C4B
  8
3
 10
93.51511110779984
 20
-37.02490120740001
 30
0.0
  0
VERTEX
  5
1C4C
  8
3
 10
92.84999999999991
 20
-37.30394845000001
 30
0.0
  0
VERTEX
  5
1C4D
  8
3
 10
92.03412044419997
 20
-37.45242638650001
 30
0.0
  0
VERTEX
  5
1C4E
  8
3
 10
91.16587955589989
 20
-37.45242638650001
 30
0.0
  0
VERTEX
  5
1C4F
  8
3
 10
90.34999999999991
 20
-37.30394845000001
 30
0.0
  0
VERTEX
  5
1C50
  8
3
 10
89.68488889219998
 20
-37.02490120740001
 30
0.0
  0
VERTEX
  5
1C51
  8
3
 10
89.25076844809996
 20
-36.64894187440001
 30
0.0
  0
VERTEX
  5
1C52
  8
3
 10
89.09999999999991
 20
-36.22141669530001
 30
0.0
  0
VERTEX
  5
1C53
  8
3
 10
89.25076844809996
 20
-35.79389151610002
 30
0.0
  0
VERTEX
  5
1C54
  8
3
 10
89.68488889219998
 20
-35.41793218320001
 30
0.0
  0
VERTEX
  5
1C55
  8
3
 10
90.34999999999991
 20
-35.13888494060001
 30
0.0
  0
VERTEX
  5
1C56
  8
3
 10
91.16587955589989
 20
-34.99040700400002
 30
0.0
  0
VERTEX
  5
1C57
  8
3
 10
92.03412044419997
 20
-34.99040700400002
 30
0.0
  0
VERTEX
  5
1C58
  8
3
 10
92.84999999999991
 20
-35.13888494060001
 30
0.0
  0
VERTEX
  5
1C59
  8
3
 10
93.51511110779984
 20
-35.41793218320001
 30
0.0
  0
VERTEX
  5
1C5A
  8
3
 10
93.9492315519999
 20
-35.79389151610002
 30
0.0
  0
VERTEX
  5
1C5B
  8
3
 10
94.09999999999991
 20
-36.22141669530001
 30
0.0
  0
SEQEND
  5
1FCD
  8
3
  0
POLYLINE
  5
D95
  8
3
 66
     1
 10
0.0
 20
0.0
 30
0.0
  0
VERTEX
  5
1C5C
  8
3
 10
94.09999999999991
 20
-36.29945624660002
 30
0.0
  0
VERTEX
  5
1C5D
  8
3
 10
93.9492315519999
 20
-36.72698142580001
 30
0.0
  0
VERTEX
  5
1C5E
  8
3
 10
93.51511110779984
 20
-37.10294075870002
 30
0.0
  0
VERTEX
  5
1C5F
  8
3
 10
92.84999999999991
 20
-37.3819880014
 30
0.0
  0
VERTEX
  5
1C60
  8
3
 10
92.03412044419997
 20
-37.5304659379
 30
0.0
  0
VERTEX
  5
1C61
  8
3
 10
91.16587955589989
 20
-37.5304659379
 30
0.0
  0
VERTEX
  5
1C62
  8
3
 10
90.34999999999991
 20
-37.3819880014
 30
0.0
  0
VERTEX
  5
1C63
  8
3
 10
89.68488889219998
 20
-37.10294075870002
 30
0.0
  0
VERTEX
  5
1C64
  8
3
 10
89.25076844809996
 20
-36.72698142580001
 30
0.0
  0
VERTEX
  5
1C65
  8
3
 10
89.09999999999991
 20
-36.29945624660002
 30
0.0
  0
VERTEX
  5
1C66
  8
3
 10
89.25076844809996
 20
-35.87193106749999
 30
0.0
  0
VERTEX
  5
1C67
  8
3
 10
89.68488889219998
 20
-35.49597173450002
 30
0.0
  0
VERTEX
  5
1C68
  8
3
 10
90.34999999999991
 20
-35.21692449189999
 30
0.0
  0
VERTEX
  5
1C69
  8
3
 10
91.16587955589989
 20
-35.06844655539999
 30
0.0
  0
VERTEX
  5
1C6A
  8
3
 10
92.03412044419997
 20
-35.06844655539999
 30
0.0
  0
VERTEX
  5
1C6B
  8
3
 10
92.84999999999991
 20
-35.21692449189999
 30
0.0
  0
VERTEX
  5
1C6C
  8
3
 10
93.51511110779984
 20
-35.49597173450002
 30
0.0
  0
VERTEX
  5
1C6D
  8
3
 10
93.9492315519999
 20
-35.87193106749999
 30
0.0
  0
VERTEX
  5
1C6E
  8
3
 10
94.09999999999991
 20
-36.29945624660002
 30
0.0
  0
SEQEND
  5
1FCC
  8
3
  0
POLYLINE
  5
D96
  8
3
 66
     1
 10
0.0
 20
0.0
 30
0.0
  0
VERTEX
  5
1C6F
  8
3
 10
93.65499999999997
 20
-36.5693031413
 30
0.0
  0
VERTEX
  5
1C70
  8
3
 10
93.51623043139989
 20
-36.94047895329999
 30
0.0
  0
VERTEX
  5
1C71
  8
3
 10
93.1186633248999
 20
-37.26152541509998
 30
0.0
  0
VERTEX
  5
1C72
  8
3
 10
92.51599232109993
 20
-37.4890834231
 30
0.0
  0
VERTEX
  5
1C73
  8
3
 10
91.78961147869995
 20
-37.59242000739999
 30
0.0
  0
VERTEX
  5
1C74
  8
3
 10
91.03762255539982
 20
-37.55757898960002
 30
0.0
  0
VERTEX
  5
1C75
  8
3
 10
90.36158582229996
 20
-37.38926584230001
 30
0.0
  0
VERTEX
  5
1C76
  8
3
 10
89.85280378609991
 20
-37.1102121886
 30
0.0
  0
VERTEX
  5
1C77
  8
3
 10
89.57999028019981
 20
-36.7581057708
 30
0.0
  0
VERTEX
  5
1C78
  8
3
 10
89.57999028019981
 20
-36.38050051170001
 30
0.0
  0
VERTEX
  5
1C79
  8
3
 10
89.85280378609991
 20
-36.0283940939
 30
0.0
  0
VERTEX
  5
1C7A
  8
3
 10
90.36158582229996
 20
-35.7493404402
 30
0.0
  0
VERTEX
  5
1C7B
  8
3
 10
91.03762255539982
 20
-35.58102729289999
 30
0.0
  0
VERTEX
  5
1C7C
  8
3
 10
91.78961147869995
 20
-35.54618627510001
 30
0.0
  0
VERTEX
  5
1C7D
  8
3
 10
92.51599232109993
 20
-35.64952285940001
 30
0.0
  0
VERTEX
  5
1C7E
  8
3
 10
93.1186633248999
 20
-35.8770808674
 30
0.0
  0
VERTEX
  5
1C7F
  8
3
 10
93.51623043139989
 20
-36.19812732930001
 30
0.0
  0
VERTEX
  5
1C80
  8
3
 10
93.65499999999997
 20
-36.5693031413
 30
0.0
  0
SEQEND
  5
1FCB
  8
3
  0
POLYLINE
  5
D97
  8
3
 66
     1
 10
0.0
 20
0.0
 30
0.0
  0
VERTEX
  5
1C81
  8
3
 10
94.09999999999991
 20
-36.83915003589999
 30
0.0
  0
VERTEX
  5
1C82
  8
3
 10
93.9492315519999
 20
-37.26667521500002
 30
0.0
  0
VERTEX
  5
1C83
  8
3
 10
93.51511110779984
 20
-37.64263454799999
 30
0.0
  0
VERTEX
  5
1C84
  8
3
 10
92.84999999999991
 20
-37.92168179060002
 30
0.0
  0
VERTEX
  5
1C85
  8
3
 10
92.03412044419997
 20
-38.07015972720001
 30
0.0
  0
VERTEX
  5
1C86
  8
3
 10
91.16587955589989
 20
-38.07015972720001
 30
0.0
  0
VERTEX
  5
1C87
  8
3
 10
90.34999999999991
 20
-37.92168179060002
 30
0.0
  0
VERTEX
  5
1C88
  8
3
 10
89.68488889219998
 20
-37.64263454799999
 30
0.0
  0
VERTEX
  5
1C89
  8
3
 10
89.25076844809996
 20
-37.26667521500002
 30
0.0
  0
VERTEX
  5
1C8A
  8
3
 10
89.09999999999991
 20
-36.83915003589999
 30
0.0
  0
VERTEX
  5
1C8B
  8
3
 10
89.25076844809996
 20
-36.4116248567
 30
0.0
  0
VERTEX
  5
1C8C
  8
3
 10
89.68488889219998
 20
-36.03566552379999
 30
0.0
  0
VERTEX
  5
1C8D
  8
3
 10
90.34999999999991
 20
-35.75661828120002
 30
0.0
  0
VERTEX
  5
1C8E
  8
3
 10
91.16587955589989
 20
-35.6081403446
 30
0.0
  0
VERTEX
  5
1C8F
  8
3
 10
92.03412044419997
 20
-35.6081403446
 30
0.0
  0
VERTEX
  5
1C90
  8
3
 10
92.84999999999991
 20
-35.75661828120002
 30
0.0
  0
VERTEX
  5
1C91
  8
3
 10
93.51511110779984
 20
-36.03566552379999
 30
0.0
  0
VERTEX
  5
1C92
  8
3
 10
93.9492315519999
 20
-36.4116248567
 30
0.0
  0
VERTEX
  5
1C93
  8
3
 10
94.09999999999991
 20
-36.83915003589999
 30
0.0
  0
SEQEND
  5
1FCA
  8
3
  0
POLYLINE
  5
D98
  8
3
 66
     1
 10
0.0
 20
0.0
 30
0.0
  0
VERTEX
  5
1C94
  8
3
 10
94.09999999999991
 20
-36.9171895872
 30
0.0
  0
VERTEX
  5
1C95
  8
3
 10
93.9492315519999
 20
-37.34471476639999
 30
0.0
  0
VERTEX
  5
1C96
  8
3
 10
93.51511110779984
 20
-37.72067409940001
 30
0.0
  0
VERTEX
  5
1C97
  8
3
 10
92.84999999999991
 20
-37.99972134199999
 30
0.0
  0
VERTEX
  5
1C98
  8
3
 10
92.03412044419997
 20
-38.14819927849999
 30
0.0
  0
VERTEX
  5
1C99
  8
3
 10
91.16587955589989
 20
-38.14819927849999
 30
0.0
  0
VERTEX
  5
1C9A
  8
3
 10
90.34999999999991
 20
-37.99972134199999
 30
0.0
  0
VERTEX
  5
1C9B
  8
3
 10
89.68488889219998
 20
-37.72067409940001
 30
0.0
  0
VERTEX
  5
1C9C
  8
3
 10
89.25076844809996
 20
-37.34471476639999
 30
0.0
  0
VERTEX
  5
1C9D
  8
3
 10
89.09999999999991
 20
-36.9171895872
 30
0.0
  0
VERTEX
  5
1C9E
  8
3
 10
89.25076844809996
 20
-36.4896644081
 30
0.0
  0
VERTEX
  5
1C9F
  8
3
 10
89.68488889219998
 20
-36.1137050751
 30
0.0
  0
VERTEX
  5
1CA0
  8
3
 10
90.34999999999991
 20
-35.8346578325
 30
0.0
  0
VERTEX
  5
1CA1
  8
3
 10
91.16587955589989
 20
-35.686179896
 30
0.0
  0
VERTEX
  5
1CA2
  8
3
 10
92.03412044419997
 20
-35.686179896
 30
0.0
  0
VERTEX
  5
1CA3
  8
3
 10
92.84999999999991
 20
-35.8346578325
 30
0.0
  0
VERTEX
  5
1CA4
  8
3
 10
93.51511110779984
 20
-36.1137050751
 30
0.0
  0
VERTEX
  5
1CA5
  8
3
 10
93.9492315519999
 20
-36.4896644081
 30
0.0
  0
VERTEX
  5
1CA6
  8
3
 10
94.09999999999991
 20
-36.9171895872
 30
0.0
  0
SEQEND
  5
1FC9
  8
3
  0
POLYLINE
  5
D99
  8
3
 66
     1
 10
0.0
 20
0.0
 30
0.0
  0
VERTEX
  5
1CA7
  8
3
 10
93.65499999999997
 20
-37.18703648190001
 30
0.0
  0
VERTEX
  5
1CA8
  8
3
 10
93.51623043149993
 20
-37.5582122939
 30
0.0
  0
VERTEX
  5
1CA9
  8
3
 10
93.1186633248999
 20
-37.87925875569999
 30
0.0
  0
VERTEX
  5
1CAA
  8
3
 10
92.51599232109993
 20
-38.10681676370001
 30
0.0
  0
VERTEX
  5
1CAB
  8
3
 10
91.78961147869995
 20
-38.21015334800001
 30
0.0
  0
VERTEX
  5
1CAC
  8
3
 10
91.03762255539982
 20
-38.1753123302
 30
0.0
  0
VERTEX
  5
1CAD
  8
3
 10
90.36158582229996
 20
-38.00699918290002
 30
0.0
  0
VERTEX
  5
1CAE
  8
3
 10
89.85280378609991
 20
-37.72794552919999
 30
0.0
  0
VERTEX
  5
1CAF
  8
3
 10
89.57999028019981
 20
-37.37583911140001
 30
0.0
  0
VERTEX
  5
1CB0
  8
3
 10
89.57999028019981
 20
-36.99823385230002
 30
0.0
  0
VERTEX
  5
1CB1
  8
3
 10
89.85280378609991
 20
-36.64612743449999
 30
0.0
  0
VERTEX
  5
1CB2
  8
3
 10
90.36158582229996
 20
-36.36707378080001
 30
0.0
  0
VERTEX
  5
1CB3
  8
3
 10
91.03762255539982
 20
-36.1987606335
 30
0.0
  0
VERTEX
  5
1CB4
  8
3
 10
91.78961147869995
 20
-36.1639196157
 30
0.0
  0
VERTEX
  5
1CB5
  8
3
 10
92.51599232109993
 20
-36.26725620000002
 30
0.0
  0
VERTEX
  5
1CB6
  8
3
 10
93.1186633248999
 20
-36.49481420800001
 30
0.0
  0
VERTEX
  5
1CB7
  8
3
 10
93.51623043149993
 20
-36.81586066990002
 30
0.0
  0
VERTEX
  5
1CB8
  8
3
 10
93.65499999999997
 20
-37.18703648190001
 30
0.0
  0
SEQEND
  5
1FC8
  8
3
  0
POLYLINE
  5
D9A
  8
3
 66
     1
 10
0.0
 20
0.0
 30
0.0
  0
VERTEX
  5
1CB9
  8
3
 10
94.09999999999991
 20
-37.4568833765
 30
0.0
  0
VERTEX
  5
1CBA
  8
3
 10
93.9492315519999
 20
-37.8844085556
 30
0.0
  0
VERTEX
  5
1CBB
  8
3
 10
93.51511110779984
 20
-38.2603678886
 30
0.0
  0
VERTEX
  5
1CBC
  8
3
 10
92.84999999999991
 20
-38.5394151312
 30
0.0
  0
VERTEX
  5
1CBD
  8
3
 10
92.03412044419997
 20
-38.6878930678
 30
0.0
  0
VERTEX
  5
1CBE
  8
3
 10
91.16587955589989
 20
-38.6878930678
 30
0.0
  0
VERTEX
  5
1CBF
  8
3
 10
90.34999999999991
 20
-38.5394151312
 30
0.0
  0
VERTEX
  5
1CC0
  8
3
 10
89.68488889219998
 20
-38.2603678886
 30
0.0
  0
VERTEX
  5
1CC1
  8
3
 10
89.25076844809996
 20
-37.8844085556
 30
0.0
  0
VERTEX
  5
1CC2
  8
3
 10
89.09999999999991
 20
-37.4568833765
 30
0.0
  0
VERTEX
  5
1CC3
  8
3
 10
89.25076844809996
 20
-37.02935819729998
 30
0.0
  0
VERTEX
  5
1CC4
  8
3
 10
89.68488889219998
 20
-36.6533988644
 30
0.0
  0
VERTEX
  5
1CC5
  8
3
 10
90.34999999999991
 20
-36.3743516218
 30
0.0
  0
VERTEX
  5
1CC6
  8
3
 10
91.16587955589989
 20
-36.22587368519999
 30
0.0
  0
VERTEX
  5
1CC7
  8
3
 10
92.03412044419997
 20
-36.22587368519999
 30
0.0
  0
VERTEX
  5
1CC8
  8
3
 10
92.84999999999991
 20
-36.3743516218
 30
0.0
  0
VERTEX
  5
1CC9
  8
3
 10
93.51511110779984
 20
-36.6533988644
 30
0.0
  0
VERTEX
  5
1CCA
  8
3
 10
93.9492315519999
 20
-37.02935819729998
 30
0.0
  0
VERTEX
  5
1CCB
  8
3
 10
94.09999999999991
 20
-37.4568833765
 30
0.0
  0
SEQEND
  5
1FC7
  8
3
  0
POLYLINE
  5
D9B
  8
3
 66
     1
 10
0.0
 20
0.0
 30
0.0
  0
VERTEX
  5
1CCC
  8
3
 10
94.09999999999991
 20
-37.53492292779998
 30
0.0
  0
VERTEX
  5
1CCD
  8
3
 10
93.9492315519999
 20
-37.962448107
 30
0.0
  0
VERTEX
  5
1CCE
  8
3
 10
93.51511110779984
 20
-38.33840744
 30
0.0
  0
VERTEX
  5
1CCF
  8
3
 10
92.84999999999991
 20
-38.6174546826
 30
0.0
  0
VERTEX
  5
1CD0
  8
3
 10
92.03412044419997
 20
-38.7659326191
 30
0.0
  0
VERTEX
  5
1CD1
  8
3
 10
91.16587955589989
 20
-38.7659326191
 30
0.0
  0
VERTEX
  5
1CD2
  8
3
 10
90.34999999999991
 20
-38.6174546826
 30
0.0
  0
VERTEX
  5
1CD3
  8
3
 10
89.68488889219998
 20
-38.33840744
 30
0.0
  0
VERTEX
  5
1CD4
  8
3
 10
89.25076844809996
 20
-37.962448107
 30
0.0
  0
VERTEX
  5
1CD5
  8
3
 10
89.09999999999991
 20
-37.53492292779998
 30
0.0
  0
VERTEX
  5
1CD6
  8
3
 10
89.25076844809996
 20
-37.10739774870001
 30
0.0
  0
VERTEX
  5
1CD7
  8
3
 10
89.68488889219998
 20
-36.73143841569998
 30
0.0
  0
VERTEX
  5
1CD8
  8
3
 10
90.34999999999991
 20
-36.45239117310001
 30
0.0
  0
VERTEX
  5
1CD9
  8
3
 10
91.16587955589989
 20
-36.30391323660001
 30
0.0
  0
VERTEX
  5
1CDA
  8
3
 10
92.03412044419997
 20
-36.30391323660001
 30
0.0
  0
VERTEX
  5
1CDB
  8
3
 10
92.84999999999991
 20
-36.45239117310001
 30
0.0
  0
VERTEX
  5
1CDC
  8
3
 10
93.51511110779984
 20
-36.73143841569998
 30
0.0
  0
VERTEX
  5
1CDD
  8
3
 10
93.9492315519999
 20
-37.10739774870001
 30
0.0
  0
VERTEX
  5
1CDE
  8
3
 10
94.09999999999991
 20
-37.53492292779998
 30
0.0
  0
SEQEND
  5
1FC6
  8
3
  0
POLYLINE
  5
D9C
  8
3
 66
     1
 10
0.0
 20
0.0
 30
0.0
  0
VERTEX
  5
1CDF
  8
3
 10
93.65499999999997
 20
-37.80476982250002
 30
0.0
  0
VERTEX
  5
1CE0
  8
3
 10
93.51623043149993
 20
-38.17594563450001
 30
0.0
  0
VERTEX
  5
1CE1
  8
3
 10
93.1186633248999
 20
-38.4969920963
 30
0.0
  0
VERTEX
  5
1CE2
  8
3
 10
92.51599232119997
 20
-38.72455010430001
 30
0.0
  0
VERTEX
  5
1CE3
  8
3
 10
91.78961147869995
 20
-38.8278866886
 30
0.0
  0
VERTEX
  5
1CE4
  8
3
 10
91.03762255539982
 20
-38.7930456708
 30
0.0
  0
VERTEX
  5
1CE5
  8
3
 10
90.36158582229996
 20
-38.6247325235
 30
0.0
  0
VERTEX
  5
1CE6
  8
3
 10
89.85280378609991
 20
-38.3456788698
 30
0.0
  0
VERTEX
  5
1CE7
  8
3
 10
89.57999028019981
 20
-37.99357245200002
 30
0.0
  0
VERTEX
  5
1CE8
  8
3
 10
89.57999028019981
 20
-37.6159671929
 30
0.0
  0
VERTEX
  5
1CE9
  8
3
 10
89.85280378609991
 20
-37.2638607751
 30
0.0
  0
VERTEX
  5
1CEA
  8
3
 10
90.36158582229996
 20
-36.9848071214
 30
0.0
  0
VERTEX
  5
1CEB
  8
3
 10
91.03762255539982
 20
-36.81649397410001
 30
0.0
  0
VERTEX
  5
1CEC
  8
3
 10
91.78961147869995
 20
-36.78165295630001
 30
0.0
  0
VERTEX
  5
1CED
  8
3
 10
92.51599232119997
 20
-36.8849895406
 30
0.0
  0
VERTEX
  5
1CEE
  8
3
 10
93.1186633248999
 20
-37.11254754859999
 30
0.0
  0
VERTEX
  5
1CEF
  8
3
 10
93.51623043149993
 20
-37.4335940105
 30
0.0
  0
VERTEX
  5
1CF0
  8
3
 10
93.65499999999997
 20
-37.80476982250002
 30
0.0
  0
SEQEND
  5
1FC5
  8
3
  0
POLYLINE
  5
D9D
  8
3
 66
     1
 10
0.0
 20
0.0
 30
0.0
  0
VERTEX
  5
1CF1
  8
3
 10
94.09999999999991
 20
-38.07461671710001
 30
0.0
  0
VERTEX
  5
1CF2
  8
3
 10
93.9492315519999
 20
-38.5021418963
 30
0.0
  0
VERTEX
  5
1CF3
  8
3
 10
93.51511110779984
 20
-38.8781012292
 30
0.0
  0
VERTEX
  5
1CF4
  8
3
 10
92.84999999999991
 20
-39.1571484718
 30
0.0
  0
VERTEX
  5
1CF5
  8
3
 10
92.03412044419997
 20
-39.3056264084
 30
0.0
  0
VERTEX
  5
1CF6
  8
3
 10
91.16587955589989
 20
-39.3056264084
 30
0.0
  0
VERTEX
  5
1CF7
  8
3
 10
90.34999999999991
 20
-39.1571484718
 30
0.0
  0
VERTEX
  5
1CF8
  8
3
 10
89.68488889219998
 20
-38.8781012292
 30
0.0
  0
VERTEX
  5
1CF9
  8
3
 10
89.25076844809996
 20
-38.5021418963
 30
0.0
  0
VERTEX
  5
1CFA
  8
3
 10
89.09999999999991
 20
-38.07461671710001
 30
0.0
  0
VERTEX
  5
1CFB
  8
3
 10
89.25076844809996
 20
-37.6470915379
 30
0.0
  0
VERTEX
  5
1CFC
  8
3
 10
89.68488889219998
 20
-37.27113220500001
 30
0.0
  0
VERTEX
  5
1CFD
  8
3
 10
90.34999999999991
 20
-36.99208496239999
 30
0.0
  0
VERTEX
  5
1CFE
  8
3
 10
91.16587955589989
 20
-36.8436070258
 30
0.0
  0
VERTEX
  5
1CFF
  8
3
 10
92.03412044419997
 20
-36.8436070258
 30
0.0
  0
VERTEX
  5
1D00
  8
3
 10
92.84999999999991
 20
-36.99208496239999
 30
0.0
  0
VERTEX
  5
1D01
  8
3
 10
93.51511110779984
 20
-37.27113220500001
 30
0.0
  0
VERTEX
  5
1D02
  8
3
 10
93.9492315519999
 20
-37.6470915379
 30
0.0
  0
VERTEX
  5
1D03
  8
3
 10
94.09999999999991
 20
-38.07461671710001
 30
0.0
  0
SEQEND
  5
1FC4
  8
3
  0
POLYLINE
  5
D9E
  8
3
 66
     1
 10
0.0
 20
0.0
 30
0.0
  0
VERTEX
  5
1D04
  8
3
 10
94.09999999999991
 20
-38.15265626849998
 30
0.0
  0
VERTEX
  5
1D05
  8
3
 10
93.9492315519999
 20
-38.58018144760001
 30
0.0
  0
VERTEX
  5
1D06
  8
3
 10
93.51511110779984
 20
-38.95614078060001
 30
0.0
  0
VERTEX
  5
1D07
  8
3
 10
92.84999999999991
 20
-39.2351880232
 30
0.0
  0
VERTEX
  5
1D08
  8
3
 10
92.03412044419997
 20
-39.3836659597
 30
0.0
  0
VERTEX
  5
1D09
  8
3
 10
91.16587955589989
 20
-39.3836659597
 30
0.0
  0
VERTEX
  5
1D0A
  8
3
 10
90.34999999999991
 20
-39.2351880232
 30
0.0
  0
VERTEX
  5
1D0B
  8
3
 10
89.68488889219998
 20
-38.95614078060001
 30
0.0
  0
VERTEX
  5
1D0C
  8
3
 10
89.25076844809996
 20
-38.58018144760001
 30
0.0
  0
VERTEX
  5
1D0D
  8
3
 10
89.09999999999991
 20
-38.15265626849998
 30
0.0
  0
VERTEX
  5
1D0E
  8
3
 10
89.25076844809996
 20
-37.72513108930002
 30
0.0
  0
VERTEX
  5
1D0F
  8
3
 10
89.68488889219998
 20
-37.3491717563
 30
0.0
  0
VERTEX
  5
1D10
  8
3
 10
90.34999999999991
 20
-37.07012451370002
 30
0.0
  0
VERTEX
  5
1D11
  8
3
 10
91.16587955589989
 20
-36.92164657720002
 30
0.0
  0
VERTEX
  5
1D12
  8
3
 10
92.03412044419997
 20
-36.92164657720002
 30
0.0
  0
VERTEX
  5
1D13
  8
3
 10
92.84999999999991
 20
-37.07012451370002
 30
0.0
  0
VERTEX
  5
1D14
  8
3
 10
93.51511110779984
 20
-37.3491717563
 30
0.0
  0
VERTEX
  5
1D15
  8
3
 10
93.9492315519999
 20
-37.72513108930002
 30
0.0
  0
VERTEX
  5
1D16
  8
3
 10
94.09999999999991
 20
-38.15265626849998
 30
0.0
  0
SEQEND
  5
1FC3
  8
3
  0
POLYLINE
  5
D9F
  8
3
 66
     1
 10
0.0
 20
0.0
 30
0.0
  0
VERTEX
  5
1D17
  8
3
 10
93.65499999999997
 20
-38.4225031631
 30
0.0
  0
VERTEX
  5
1D18
  8
3
 10
93.51623043149993
 20
-38.79367897510001
 30
0.0
  0
VERTEX
  5
1D19
  8
3
 10
93.1186633248999
 20
-39.1147254369
 30
0.0
  0
VERTEX
  5
1D1A
  8
3
 10
92.51599232119997
 20
-39.3422834449
 30
0.0
  0
VERTEX
  5
1D1B
  8
3
 10
91.78961147869995
 20
-39.4456200292
 30
0.0
  0
VERTEX
  5
1D1C
  8
3
 10
91.03762255539982
 20
-39.41077901140001
 30
0.0
  0
VERTEX
  5
1D1D
  8
3
 10
90.36158582229996
 20
-39.2424658641
 30
0.0
  0
VERTEX
  5
1D1E
  8
3
 10
89.85280378609991
 20
-38.96341221040001
 30
0.0
  0
VERTEX
  5
1D1F
  8
3
 10
89.57999028019981
 20
-38.61130579260001
 30
0.0
  0
VERTEX
  5
1D20
  8
3
 10
89.57999028019981
 20
-38.23370053349998
 30
0.0
  0
VERTEX
  5
1D21
  8
3
 10
89.85280378609991
 20
-37.88159411570001
 30
0.0
  0
VERTEX
  5
1D22
  8
3
 10
90.36158582229996
 20
-37.60254046200001
 30
0.0
  0
VERTEX
  5
1D23
  8
3
 10
91.03762255539982
 20
-37.4342273147
 30
0.0
  0
VERTEX
  5
1D24
  8
3
 10
91.78961147869995
 20
-37.39938629689999
 30
0.0
  0
VERTEX
  5
1D25
  8
3
 10
92.51599232119997
 20
-37.50272288119999
 30
0.0
  0
VERTEX
  5
1D26
  8
3
 10
93.1186633248999
 20
-37.7302808892
 30
0.0
  0
VERTEX
  5
1D27
  8
3
 10
93.51623043149993
 20
-38.05132735109999
 30
0.0
  0
VERTEX
  5
1D28
  8
3
 10
93.65499999999997
 20
-38.4225031631
 30
0.0
  0
SEQEND
  5
1FC2
  8
3
  0
POLYLINE
  5
DA0
  8
3
 66
     1
 10
0.0
 20
0.0
 30
0.0
  0
VERTEX
  5
1D29
  8
3
 10
94.09999999999991
 20
-38.6923500577
 30
0.0
  0
VERTEX
  5
1D2A
  8
3
 10
93.9492315519999
 20
-39.1198752369
 30
0.0
  0
VERTEX
  5
1D2B
  8
3
 10
93.51511110779984
 20
-39.4958345698
 30
0.0
  0
VERTEX
  5
1D2C
  8
3
 10
92.84999999999991
 20
-39.7748818124
 30
0.0
  0
VERTEX
  5
1D2D
  8
3
 10
92.03412044419997
 20
-39.923359749
 30
0.0
  0
VERTEX
  5
1D2E
  8
3
 10
91.16587955589989
 20
-39.923359749
 30
0.0
  0
VERTEX
  5
1D2F
  8
3
 10
90.34999999999991
 20
-39.7748818124
 30
0.0
  0
VERTEX
  5
1D30
  8
3
 10
89.68488889219998
 20
-39.4958345698
 30
0.0
  0
VERTEX
  5
1D31
  8
3
 10
89.25076844809996
 20
-39.1198752369
 30
0.0
  0
VERTEX
  5
1D32
  8
3
 10
89.09999999999991
 20
-38.6923500577
 30
0.0
  0
VERTEX
  5
1D33
  8
3
 10
89.25076844809996
 20
-38.26482487850001
 30
0.0
  0
VERTEX
  5
1D34
  8
3
 10
89.68488889219998
 20
-37.8888655456
 30
0.0
  0
VERTEX
  5
1D35
  8
3
 10
90.34999999999991
 20
-37.609818303
 30
0.0
  0
VERTEX
  5
1D36
  8
3
 10
91.16587955589989
 20
-37.46134036640001
 30
0.0
  0
VERTEX
  5
1D37
  8
3
 10
92.03412044419997
 20
-37.46134036640001
 30
0.0
  0
VERTEX
  5
1D38
  8
3
 10
92.84999999999991
 20
-37.609818303
 30
0.0
  0
VERTEX
  5
1D39
  8
3
 10
93.51511110779984
 20
-37.8888655456
 30
0.0
  0
VERTEX
  5
1D3A
  8
3
 10
93.9492315519999
 20
-38.26482487850001
 30
0.0
  0
VERTEX
  5
1D3B
  8
3
 10
94.09999999999991
 20
-38.6923500577
 30
0.0
  0
SEQEND
  5
1FC1
  8
3
  0
POLYLINE
  5
DA1
  8
3
 66
     1
 10
0.0
 20
0.0
 30
0.0
  0
VERTEX
  5
1D3C
  8
3
 10
94.09999999999991
 20
-38.77038960910001
 30
0.0
  0
VERTEX
  5
1D3D
  8
3
 10
93.9492315519999
 20
-39.19791478820001
 30
0.0
  0
VERTEX
  5
1D3E
  8
3
 10
93.51511110779984
 20
-39.57387412120001
 30
0.0
  0
VERTEX
  5
1D3F
  8
3
 10
92.84999999999991
 20
-39.85292136380001
 30
0.0
  0
VERTEX
  5
1D40
  8
3
 10
92.03412044419997
 20
-40.00139930030001
 30
0.0
  0
VERTEX
  5
1D41
  8
3
 10
91.16587955589989
 20
-40.00139930030001
 30
0.0
  0
VERTEX
  5
1D42
  8
3
 10
90.34999999999991
 20
-39.85292136380001
 30
0.0
  0
VERTEX
  5
1D43
  8
3
 10
89.68488889219998
 20
-39.57387412120001
 30
0.0
  0
VERTEX
  5
1D44
  8
3
 10
89.25076844809996
 20
-39.19791478820001
 30
0.0
  0
VERTEX
  5
1D45
  8
3
 10
89.09999999999991
 20
-38.77038960910001
 30
0.0
  0
VERTEX
  5
1D46
  8
3
 10
89.25076844809996
 20
-38.3428644299
 30
0.0
  0
VERTEX
  5
1D47
  8
3
 10
89.68488889219998
 20
-37.96690509690001
 30
0.0
  0
VERTEX
  5
1D48
  8
3
 10
90.34999999999991
 20
-37.68785785430001
 30
0.0
  0
VERTEX
  5
1D49
  8
3
 10
91.16587955589989
 20
-37.53937991780001
 30
0.0
  0
VERTEX
  5
1D4A
  8
3
 10
92.03412044419997
 20
-37.53937991780001
 30
0.0
  0
VERTEX
  5
1D4B
  8
3
 10
92.84999999999991
 20
-37.68785785430001
 30
0.0
  0
VERTEX
  5
1D4C
  8
3
 10
93.51511110779984
 20
-37.96690509690001
 30
0.0
  0
VERTEX
  5
1D4D
  8
3
 10
93.9492315519999
 20
-38.3428644299
 30
0.0
  0
VERTEX
  5
1D4E
  8
3
 10
94.09999999999991
 20
-38.77038960910001
 30
0.0
  0
SEQEND
  5
1FC0
  8
3
  0
POLYLINE
  5
DA2
  8
3
 66
     1
 10
0.0
 20
0.0
 30
0.0
  0
VERTEX
  5
1D4F
  8
3
 10
93.65499999999997
 20
-39.0402365037
 30
0.0
  0
VERTEX
  5
1D50
  8
3
 10
93.51623043149993
 20
-39.41141231570001
 30
0.0
  0
VERTEX
  5
1D51
  8
3
 10
93.1186633248999
 20
-39.7324587775
 30
0.0
  0
VERTEX
  5
1D52
  8
3
 10
92.51599232119997
 20
-39.9600167855
 30
0.0
  0
VERTEX
  5
1D53
  8
3
 10
91.78961147869995
 20
-40.0633533698
 30
0.0
  0
VERTEX
  5
1D54
  8
3
 10
91.03762255539982
 20
-40.02851235200001
 30
0.0
  0
VERTEX
  5
1D55
  8
3
 10
90.36158582229996
 20
-39.86019920470001
 30
0.0
  0
VERTEX
  5
1D56
  8
3
 10
89.85280378609991
 20
-39.58114555100001
 30
0.0
  0
VERTEX
  5
1D57
  8
3
 10
89.57999028019981
 20
-39.2290391332
 30
0.0
  0
VERTEX
  5
1D58
  8
3
 10
89.57999028019981
 20
-38.8514338741
 30
0.0
  0
VERTEX
  5
1D59
  8
3
 10
89.85280378609991
 20
-38.49932745630002
 30
0.0
  0
VERTEX
  5
1D5A
  8
3
 10
90.36158582229996
 20
-38.22027380270001
 30
0.0
  0
VERTEX
  5
1D5B
  8
3
 10
91.03762255539982
 20
-38.05196065530001
 30
0.0
  0
VERTEX
  5
1D5C
  8
3
 10
91.78961147869995
 20
-38.0171196375
 30
0.0
  0
VERTEX
  5
1D5D
  8
3
 10
92.51599232119997
 20
-38.1204562218
 30
0.0
  0
VERTEX
  5
1D5E
  8
3
 10
93.1186633248999
 20
-38.34801422980001
 30
0.0
  0
VERTEX
  5
1D5F
  8
3
 10
93.51623043149993
 20
-38.6690606917
 30
0.0
  0
VERTEX
  5
1D60
  8
3
 10
93.65499999999997
 20
-39.0402365037
 30
0.0
  0
SEQEND
  5
1FBF
  8
3
  0
POLYLINE
  5
DA3
  8
3
 66
     1
 10
0.0
 20
0.0
 30
0.0
  0
VERTEX
  5
1D61
  8
3
 10
94.09999999999991
 20
-39.31008339830001
 30
0.0
  0
VERTEX
  5
1D62
  8
3
 10
93.9492315519999
 20
-39.7376085775
 30
0.0
  0
VERTEX
  5
1D63
  8
3
 10
93.51511110779984
 20
-40.11356791040001
 30
0.0
  0
VERTEX
  5
1D64
  8
3
 10
92.84999999999991
 20
-40.39261515300001
 30
0.0
  0
VERTEX
  5
1D65
  8
3
 10
92.03412044419997
 20
-40.5410930896
 30
0.0
  0
VERTEX
  5
1D66
  8
3
 10
91.16587955589989
 20
-40.5410930896
 30
0.0
  0
VERTEX
  5
1D67
  8
3
 10
90.34999999999991
 20
-40.39261515300001
 30
0.0
  0
VERTEX
  5
1D68
  8
3
 10
89.68488889219998
 20
-40.11356791040001
 30
0.0
  0
VERTEX
  5
1D69
  8
3
 10
89.25076844809996
 20
-39.7376085775
 30
0.0
  0
VERTEX
  5
1D6A
  8
3
 10
89.09999999999991
 20
-39.31008339830001
 30
0.0
  0
VERTEX
  5
1D6B
  8
3
 10
89.25076844809996
 20
-38.88255821910001
 30
0.0
  0
VERTEX
  5
1D6C
  8
3
 10
89.68488889219998
 20
-38.50659888620001
 30
0.0
  0
VERTEX
  5
1D6D
  8
3
 10
90.34999999999991
 20
-38.22755164360001
 30
0.0
  0
VERTEX
  5
1D6E
  8
3
 10
91.16587955589989
 20
-38.07907370700002
 30
0.0
  0
VERTEX
  5
1D6F
  8
3
 10
92.03412044419997
 20
-38.07907370700002
 30
0.0
  0
VERTEX
  5
1D70
  8
3
 10
92.84999999999991
 20
-38.22755164360001
 30
0.0
  0
VERTEX
  5
1D71
  8
3
 10
93.51511110779984
 20
-38.50659888620001
 30
0.0
  0
VERTEX
  5
1D72
  8
3
 10
93.9492315519999
 20
-38.88255821910001
 30
0.0
  0
VERTEX
  5
1D73
  8
3
 10
94.09999999999991
 20
-39.31008339830001
 30
0.0
  0
SEQEND
  5
1FBE
  8
3
  0
LINE
  5
DA4
  8
3
 10
91.59999999999991
 20
-38.2638890906
 30
0.0
 11
91.59999999999991
 21
-40.6021576808
 31
0.0
  0
LINE
  5
DA5
  8
3
 10
92.84999999999991
 20
-37.90304517229998
 30
0.0
 11
91.59999999999991
 21
-38.2638890906
 31
0.0
  0
LINE
  5
DA6
  8
3
 10
90.34999999999991
 20
-37.90304517229998
 30
0.0
 11
91.59999999999991
 21
-38.2638890906
 31
0.0
  0
POLYLINE
  5
DA7
  8
3
 66
     1
 10
0.0
 20
0.0
 30
0.0
  0
VERTEX
  5
1D74
  8
3
 10
94.09999999999991
 20
-39.3881229497
 30
0.0
  0
VERTEX
  5
1D75
  8
3
 10
93.9492315519999
 20
-39.81564812880001
 30
0.0
  0
VERTEX
  5
1D76
  8
3
 10
93.51511110779984
 20
-40.1916074618
 30
0.0
  0
VERTEX
  5
1D77
  8
3
 10
92.84999999999991
 20
-40.4706547044
 30
0.0
  0
VERTEX
  5
1D78
  8
3
 10
92.03412044419997
 20
-40.61913264090001
 30
0.0
  0
VERTEX
  5
1D79
  8
3
 10
91.16587955589989
 20
-40.61913264090001
 30
0.0
  0
VERTEX
  5
1D7A
  8
3
 10
90.34999999999991
 20
-40.4706547044
 30
0.0
  0
VERTEX
  5
1D7B
  8
3
 10
89.68488889219998
 20
-40.1916074618
 30
0.0
  0
VERTEX
  5
1D7C
  8
3
 10
89.25076844809996
 20
-39.81564812880001
 30
0.0
  0
VERTEX
  5
1D7D
  8
3
 10
89.09999999999991
 20
-39.3881229497
 30
0.0
  0
VERTEX
  5
1D7E
  8
3
 10
89.25076844809996
 20
-38.9605977705
 30
0.0
  0
VERTEX
  5
1D7F
  8
3
 10
89.68488889219998
 20
-38.58463843760001
 30
0.0
  0
VERTEX
  5
1D80
  8
3
 10
90.34999999999991
 20
-38.30559119489999
 30
0.0
  0
VERTEX
  5
1D81
  8
3
 10
91.16587955589989
 20
-38.15711325839999
 30
0.0
  0
VERTEX
  5
1D82
  8
3
 10
92.03412044419997
 20
-38.15711325839999
 30
0.0
  0
VERTEX
  5
1D83
  8
3
 10
92.84999999999991
 20
-38.30559119489999
 30
0.0
  0
VERTEX
  5
1D84
  8
3
 10
93.51511110779984
 20
-38.58463843760001
 30
0.0
  0
VERTEX
  5
1D85
  8
3
 10
93.9492315519999
 20
-38.9605977705
 30
0.0
  0
VERTEX
  5
1D86
  8
3
 10
94.09999999999991
 20
-39.3881229497
 30
0.0
  0
SEQEND
  5
1FBD
  8
3
  0
POLYLINE
  5
DA8
  8
3
 66
     1
 10
0.0
 20
0.0
 30
0.0
  0
VERTEX
  5
1D87
  8
3
 10
93.65499999999997
 20
-39.6579698443
 30
0.0
  0
VERTEX
  5
1D88
  8
3
 10
93.51623043149993
 20
-40.0291456563
 30
0.0
  0
VERTEX
  5
1D89
  8
3
 10
93.1186633248999
 20
-40.3501921181
 30
0.0
  0
VERTEX
  5
1D8A
  8
3
 10
92.51599232119997
 20
-40.5777501262
 30
0.0
  0
VERTEX
  5
1D8B
  8
3
 10
91.78961147869995
 20
-40.68108671040001
 30
0.0
  0
VERTEX
  5
1D8C
  8
3
 10
91.03762255539982
 20
-40.6462456926
 30
0.0
  0
VERTEX
  5
1D8D
  8
3
 10
90.36158582229996
 20
-40.47793254530001
 30
0.0
  0
VERTEX
  5
1D8E
  8
3
 10
89.85280378609991
 20
-40.1988788916
 30
0.0
  0
VERTEX
  5
1D8F
  8
3
 10
89.57999028019981
 20
-39.8467724738
 30
0.0
  0
VERTEX
  5
1D90
  8
3
 10
89.57999028019981
 20
-39.46916721470001
 30
0.0
  0
VERTEX
  5
1D91
  8
3
 10
89.85280378609991
 20
-39.11706079690001
 30
0.0
  0
VERTEX
  5
1D92
  8
3
 10
90.36158582229996
 20
-38.8380071433
 30
0.0
  0
VERTEX
  5
1D93
  8
3
 10
91.03762255539982
 20
-38.6696939959
 30
0.0
  0
VERTEX
  5
1D94
  8
3
 10
91.78961147869995
 20
-38.6348529781
 30
0.0
  0
VERTEX
  5
1D95
  8
3
 10
92.51599232119997
 20
-38.73818956240001
 30
0.0
  0
VERTEX
  5
1D96
  8
3
 10
93.1186633248999
 20
-38.9657475704
 30
0.0
  0
VERTEX
  5
1D97
  8
3
 10
93.51623043149993
 20
-39.28679403230001
 30
0.0
  0
VERTEX
  5
1D98
  8
3
 10
93.65499999999997
 20
-39.6579698443
 30
0.0
  0
SEQEND
  5
1FBC
  8
3
  0
POLYLINE
  5
DA9
  8
3
 66
     1
 10
0.0
 20
0.0
 30
0.0
  0
VERTEX
  5
1D99
  8
3
 10
93.85610312689982
 20
-39.77991828090001
 30
0.0
  0
VERTEX
  5
1D9A
  8
3
 10
93.70375351249982
 20
-39.3724190545
 30
0.0
  0
VERTEX
  5
1D9B
  8
3
 10
93.26728032889991
 20
-39.0199548568
 30
0.0
  0
VERTEX
  5
1D9C
  8
3
 10
92.60563169829993
 20
-38.7701279305
 30
0.0
  0
VERTEX
  5
1D9D
  8
3
 10
91.80816693429983
 20
-38.65667878650001
 30
0.0
  0
VERTEX
  5
1D9E
  8
3
 10
90.98258807239995
 20
-38.69492936030001
 30
0.0
  0
VERTEX
  5
1D9F
  8
3
 10
90.24039411259992
 20
-38.8797137
 30
0.0
  0
VERTEX
  5
1DA0
  8
3
 10
89.68182246159995
 20
-39.18607565650001
 30
0.0
  0
VERTEX
  5
1DA1
  8
3
 10
89.3823113162
 20
-39.57263935
 30
0.0
  0
VERTEX
  5
1DA2
  8
3
 10
89.3823113162
 20
-39.98719721170001
 30
0.0
  0
VERTEX
  5
1DA3
  8
3
 10
89.68182246159995
 20
-40.3737609052
 30
0.0
  0
VERTEX
  5
1DA4
  8
3
 10
90.24039411259992
 20
-40.6801228617
 30
0.0
  0
VERTEX
  5
1DA5
  8
3
 10
90.98258807239995
 20
-40.8649072014
 30
0.0
  0
VERTEX
  5
1DA6
  8
3
 10
91.80816693429983
 20
-40.9031577752
 30
0.0
  0
VERTEX
  5
1DA7
  8
3
 10
92.60563169829993
 20
-40.7897086312
 30
0.0
  0
VERTEX
  5
1DA8
  8
3
 10
93.26728032889991
 20
-40.539881705
 30
0.0
  0
VERTEX
  5
1DA9
  8
3
 10
93.70375351249982
 20
-40.1874175072
 30
0.0
  0
VERTEX
  5
1DAA
  8
3
 10
93.85610312689982
 20
-39.77991828090001
 30
0.0
  0
SEQEND
  5
1FBB
  8
3
  0
LINE
  5
DAA
  8
3
 10
92.84999999999991
 20
-37.90304517229998
 30
0.0
 11
92.84999999999991
 21
-37.18135733579999
 31
0.0
  0
LINE
  5
DAB
  8
3
 10
92.84999999999991
 20
-37.90304517229998
 30
0.0
 11
92.84999999999991
 21
-40.2413137625
 31
0.0
  0
LINE
  5
DAC
  8
3
 10
90.34999999999991
 20
-37.90304517229998
 30
0.0
 11
90.34999999999991
 21
-37.18135733579999
 31
0.0
  0
LINE
  5
DAD
  8
3
 10
90.34999999999991
 20
-37.90304517229998
 30
0.0
 11
90.34999999999991
 21
-40.2413137625
 31
0.0
  0
POLYLINE
  5
DAE
  8
3
 66
     1
 10
0.0
 20
0.0
 30
0.0
  0
VERTEX
  5
1DAB
  8
3
 10
91.59999999999991
 20
-40.9079698443
 30
0.0
  0
VERTEX
  5
1DAC
  8
3
 10
90.85764837599982
 20
-40.83858506
 30
0.0
  0
VERTEX
  5
1DAD
  8
3
 10
90.2155554522999
 20
-40.6398015067
 30
0.0
  0
VERTEX
  5
1DAE
  8
3
 10
89.76043943629998
 20
-40.3384660048
 30
0.0
  0
VERTEX
  5
1DAF
  8
3
 10
89.55376626769998
 20
-39.97527558360001
 30
0.0
  0
VERTEX
  5
1DB0
  8
3
 10
89.62344830329994
 20
-39.59928112200001
 30
0.0
  0
VERTEX
  5
1DB1
  8
3
 10
89.96007459799989
 20
-39.2612627554
 30
0.0
  0
VERTEX
  5
1DB2
  8
3
 10
90.51818190530003
 20
-39.0068717373
 30
0.0
  0
VERTEX
  5
1DB3
  8
3
 10
91.22239474089997
 20
-38.8704649844
 30
0.0
  0
VERTEX
  5
1DB4
  8
3
 10
91.97760525909985
 20
-38.8704649844
 30
0.0
  0
VERTEX
  5
1DB5
  8
3
 10
92.68181809470002
 20
-39.0068717373
 30
0.0
  0
VERTEX
  5
1DB6
  8
3
 10
93.23992540209997
 20
-39.2612627554
 30
0.0
  0
VERTEX
  5
1DB7
  8
3
 10
93.57655169679992
 20
-39.59928112200001
 30
0.0
  0
VERTEX
  5
1DB8
  8
3
 10
93.64623373229983
 20
-39.97527558360001
 30
0.0
  0
VERTEX
  5
1DB9
  8
3
 10
93.43956056379989
 20
-40.3384660048
 30
0.0
  0
VERTEX
  5
1DBA
  8
3
 10
92.98444454769992
 20
-40.6398015067
 30
0.0
  0
VERTEX
  5
1DBB
  8
3
 10
92.342351624
 20
-40.83858506
 30
0.0
  0
VERTEX
  5
1DBC
  8
3
 10
91.59999999999991
 20
-40.9079698443
 30
0.0
  0
SEQEND
  5
1FBA
  8
3
  0
LINE
  5
DAF
  8
3
 10
92.84999999999991
 20
-40.2413137625
 30
0.0
 11
91.59999999999991
 21
-40.6021576808
 31
0.0
  0
LINE
  5
DB0
  8
3
 10
90.34999999999991
 20
-40.2413137625
 30
0.0
 11
91.59999999999991
 21
-40.6021576808
 31
0.0
  0
LINE
  5
DB1
  8
3
 10
91.59999999999991
 20
-36.82051341760001
 30
0.0
 11
91.59999999999991
 21
-38.2638890906
 31
0.0
  0
LINE
  5
DB2
  8
3
 10
90.34999999999991
 20
-39.519625926
 30
0.0
 11
91.59999999999991
 21
-39.1587820078
 31
0.0
  0
LINE
  5
DB3
  8
3
 10
90.34999999999991
 20
-37.18135733579999
 30
0.0
 11
91.59999999999991
 21
-36.82051341760001
 31
0.0
  0
LINE
  5
DB4
  8
3
 10
92.84999999999991
 20
-39.519625926
 30
0.0
 11
91.59999999999991
 21
-39.1587820078
 31
0.0
  0
LINE
  5
DB5
  8
3
 10
92.84999999999991
 20
-37.18135733579999
 30
0.0
 11
91.59999999999991
 21
-36.82051341760001
 31
0.0
  0
CIRCLE
  5
DB6
  8
3
 10
91.59999999999991
 20
0.0
 30
0.0
 40
2.316732743452349
  0
CIRCLE
  5
DB7
  8
3
 10
91.59999999999991
 20
0.0
 30
0.0
 40
1.750000000000007
  0
POLYLINE
  5
DB8
  8
3
 66
     1
 10
0.0
 20
0.0
 30
0.0
  0
VERTEX
  5
1DBD
  8
3
 10
91.59999999999991
 20
33.80931742159999
 30
0.0
  0
VERTEX
  5
1DBE
  8
3
 10
90.9303039934
 20
33.87592283059999
 30
0.0
  0
VERTEX
  5
1DBF
  8
3
 10
90.36256313299987
 20
34.065598988
 30
0.0
  0
VERTEX
  5
1DC0
  8
3
 10
89.9832108180999
 20
34.34946941819999
 30
0.0
  0
VERTEX
  5
1DC1
  8
3
 10
89.84999999999991
 20
34.68431742159999
 30
0.0
  0
VERTEX
  5
1DC2
  8
3
 10
89.9832108180999
 20
35.0191654249
 30
0.0
  0
VERTEX
  5
1DC3
  8
3
 10
90.36256313299987
 20
35.30303585510001
 30
0.0
  0
VERTEX
  5
1DC4
  8
3
 10
90.9303039934
 20
35.49271201249999
 30
0.0
  0
VERTEX
  5
1DC5
  8
3
 10
91.59999999999991
 20
35.55931742159999
 30
0.0
  0
VERTEX
  5
1DC6
  8
3
 10
92.26969600669986
 20
35.49271201249999
 30
0.0
  0
VERTEX
  5
1DC7
  8
3
 10
92.8374368671
 20
35.30303585510001
 30
0.0
  0
VERTEX
  5
1DC8
  8
3
 10
93.21678918189991
 20
35.0191654249
 30
0.0
  0
VERTEX
  5
1DC9
  8
3
 10
93.34999999999991
 20
34.68431742159999
 30
0.0
  0
VERTEX
  5
1DCA
  8
3
 10
93.21678918189991
 20
34.34946941819999
 30
0.0
  0
VERTEX
  5
1DCB
  8
3
 10
92.8374368671
 20
34.065598988
 30
0.0
  0
VERTEX
  5
1DCC
  8
3
 10
92.26969600669986
 20
33.87592283059999
 30
0.0
  0
VERTEX
  5
1DCD
  8
3
 10
91.59999999999991
 20
33.80931742159999
 30
0.0
  0
SEQEND
  5
1FB9
  8
3
  0
POLYLINE
  5
DB9
  8
3
 66
     1
 10
0.0
 20
0.0
 30
0.0
  0
VERTEX
  5
1DCE
  8
3
 10
89.28326725659986
 20
35.17512237450001
 30
0.0
  0
VERTEX
  5
1DCF
  8
3
 10
89.42298333669987
 20
35.571307007
 30
0.0
  0
VERTEX
  5
1DD0
  8
3
 10
89.82527975569997
 20
35.9197059258
 30
0.0
  0
VERTEX
  5
1DD1
  8
3
 10
90.4416336283
 20
36.17829707929999
 30
0.0
  0
VERTEX
  5
1DD2
  8
3
 10
91.19770358099981
 20
36.31589055820001
 30
0.0
  0
VERTEX
  5
1DD3
  8
3
 10
92.00229641909982
 20
36.31589055820001
 30
0.0
  0
VERTEX
  5
1DD4
  8
3
 10
92.75836637179987
 20
36.17829707929999
 30
0.0
  0
VERTEX
  5
1DD5
  8
3
 10
93.37472024429985
 20
35.9197059258
 30
0.0
  0
VERTEX
  5
1DD6
  8
3
 10
93.77701666339999
 20
35.571307007
 30
0.0
  0
VERTEX
  5
1DD7
  8
3
 10
93.9167327435
 20
35.17512237450001
 30
0.0
  0
VERTEX
  5
1DD8
  8
3
 10
93.77701666339999
 20
34.7789377421
 30
0.0
  0
VERTEX
  5
1DD9
  8
3
 10
93.37472024429985
 20
34.4305388233
 30
0.0
  0
VERTEX
  5
1DDA
  8
3
 10
92.75836637179987
 20
34.17194766969999
 30
0.0
  0
VERTEX
  5
1DDB
  8
3
 10
92.00229641909982
 20
34.0343541908
 30
0.0
  0
VERTEX
  5
1DDC
  8
3
 10
91.19770358099981
 20
34.0343541908
 30
0.0
  0
VERTEX
  5
1DDD
  8
3
 10
90.4416336283
 20
34.17194766969999
 30
0.0
  0
VERTEX
  5
1DDE
  8
3
 10
89.82527975569997
 20
34.4305388233
 30
0.0
  0
VERTEX
  5
1DDF
  8
3
 10
89.42298333669987
 20
34.7789377421
 30
0.0
  0
VERTEX
  5
1DE0
  8
3
 10
89.28326725659986
 20
35.17512237450001
 30
0.0
  0
SEQEND
  5
1FB8
  8
3
  0
POLYLINE
  5
DBA
  8
3
 66
     1
 10
0.0
 20
0.0
 30
0.0
  0
VERTEX
  5
1DE1
  8
3
 10
93.65499999999997
 20
35.33383645999999
 30
0.0
  0
VERTEX
  5
1DE2
  8
3
 10
93.51623043149993
 20
34.962660648
 30
0.0
  0
VERTEX
  5
1DE3
  8
3
 10
93.1186633248999
 20
34.6416141862
 30
0.0
  0
VERTEX
  5
1DE4
  8
3
 10
92.51599232109993
 20
34.41405617819998
 30
0.0
  0
VERTEX
  5
1DE5
  8
3
 10
91.78961147869995
 20
34.31071959389999
 30
0.0
  0
VERTEX
  5
1DE6
  8
3
 10
91.03762255539982
 20
34.34556061169999
 30
0.0
  0
VERTEX
  5
1DE7
  8
3
 10
90.36158582229996
 20
34.51387375900001
 30
0.0
  0
VERTEX
  5
1DE8
  8
3
 10
89.85280378609991
 20
34.79292741270001
 30
0.0
  0
VERTEX
  5
1DE9
  8
3
 10
89.57999028019981
 20
35.14503383049998
 30
0.0
  0
VERTEX
  5
1DEA
  8
3
 10
89.57999028019981
 20
35.52263908960001
 30
0.0
  0
VERTEX
  5
1DEB
  8
3
 10
89.85280378609991
 20
35.87474550740001
 30
0.0
  0
VERTEX
  5
1DEC
  8
3
 10
90.36158582229996
 20
36.15379916109998
 30
0.0
  0
VERTEX
  5
1DED
  8
3
 10
91.03762255539982
 20
36.32211230839999
 30
0.0
  0
VERTEX
  5
1DEE
  8
3
 10
91.78961147869995
 20
36.3569533262
 30
0.0
  0
VERTEX
  5
1DEF
  8
3
 10
92.51599232109993
 20
36.2536167419
 30
0.0
  0
VERTEX
  5
1DF0
  8
3
 10
93.1186633248999
 20
36.02605873389999
 30
0.0
  0
VERTEX
  5
1DF1
  8
3
 10
93.51623043149993
 20
35.705012272
 30
0.0
  0
VERTEX
  5
1DF2
  8
3
 10
93.65499999999997
 20
35.33383645999999
 30
0.0
  0
SEQEND
  5
1FB7
  8
3
  0
POLYLINE
  5
DBB
  8
3
 66
     1
 10
0.0
 20
0.0
 30
0.0
  0
VERTEX
  5
1DF3
  8
3
 10
94.09999999999991
 20
35.6036833547
 30
0.0
  0
VERTEX
  5
1DF4
  8
3
 10
93.9492315519999
 20
35.17615817550001
 30
0.0
  0
VERTEX
  5
1DF5
  8
3
 10
93.51511110779984
 20
34.80019884250001
 30
0.0
  0
VERTEX
  5
1DF6
  8
3
 10
92.84999999999991
 20
34.52115159990001
 30
0.0
  0
VERTEX
  5
1DF7
  8
3
 10
92.03412044419997
 20
34.37267366340001
 30
0.0
  0
VERTEX
  5
1DF8
  8
3
 10
91.16587955589989
 20
34.37267366340001
 30
0.0
  0
VERTEX
  5
1DF9
  8
3
 10
90.34999999999991
 20
34.52115159990001
 30
0.0
  0
VERTEX
  5
1DFA
  8
3
 10
89.68488889219998
 20
34.80019884250001
 30
0.0
  0
VERTEX
  5
1DFB
  8
3
 10
89.25076844809996
 20
35.17615817550001
 30
0.0
  0
VERTEX
  5
1DFC
  8
3
 10
89.09999999999991
 20
35.6036833547
 30
0.0
  0
VERTEX
  5
1DFD
  8
3
 10
89.25076844809996
 20
36.0312085338
 30
0.0
  0
VERTEX
  5
1DFE
  8
3
 10
89.68488889219998
 20
36.40716786679999
 30
0.0
  0
VERTEX
  5
1DFF
  8
3
 10
90.34999999999991
 20
36.6862151094
 30
0.0
  0
VERTEX
  5
1E00
  8
3
 10
91.16587955589989
 20
36.8346930459
 30
0.0
  0
VERTEX
  5
1E01
  8
3
 10
92.03412044419997
 20
36.8346930459
 30
0.0
  0
VERTEX
  5
1E02
  8
3
 10
92.84999999999991
 20
36.6862151094
 30
0.0
  0
VERTEX
  5
1E03
  8
3
 10
93.51511110779984
 20
36.40716786679999
 30
0.0
  0
VERTEX
  5
1E04
  8
3
 10
93.9492315519999
 20
36.0312085338
 30
0.0
  0
VERTEX
  5
1E05
  8
3
 10
94.09999999999991
 20
35.6036833547
 30
0.0
  0
SEQEND
  5
1FB6
  8
3
  0
POLYLINE
  5
DBC
  8
3
 66
     1
 10
0.0
 20
0.0
 30
0.0
  0
VERTEX
  5
1E06
  8
3
 10
94.09999999999991
 20
35.681722906
 30
0.0
  0
VERTEX
  5
1E07
  8
3
 10
93.9492315519999
 20
35.2541977269
 30
0.0
  0
VERTEX
  5
1E08
  8
3
 10
93.51511110779984
 20
34.87823839390001
 30
0.0
  0
VERTEX
  5
1E09
  8
3
 10
92.84999999999991
 20
34.5991911513
 30
0.0
  0
VERTEX
  5
1E0A
  8
3
 10
92.03412044419997
 20
34.45071321469999
 30
0.0
  0
VERTEX
  5
1E0B
  8
3
 10
91.16587955589989
 20
34.45071321469999
 30
0.0
  0
VERTEX
  5
1E0C
  8
3
 10
90.34999999999991
 20
34.5991911513
 30
0.0
  0
VERTEX
  5
1E0D
  8
3
 10
89.68488889219998
 20
34.87823839390001
 30
0.0
  0
VERTEX
  5
1E0E
  8
3
 10
89.25076844809996
 20
35.2541977269
 30
0.0
  0
VERTEX
  5
1E0F
  8
3
 10
89.09999999999991
 20
35.681722906
 30
0.0
  0
VERTEX
  5
1E10
  8
3
 10
89.25076844809996
 20
36.10924808519999
 30
0.0
  0
VERTEX
  5
1E11
  8
3
 10
89.68488889219998
 20
36.4852074181
 30
0.0
  0
VERTEX
  5
1E12
  8
3
 10
90.34999999999991
 20
36.7642546607
 30
0.0
  0
VERTEX
  5
1E13
  8
3
 10
91.16587955589989
 20
36.91273259729999
 30
0.0
  0
VERTEX
  5
1E14
  8
3
 10
92.03412044419997
 20
36.91273259729999
 30
0.0
  0
VERTEX
  5
1E15
  8
3
 10
92.84999999999991
 20
36.7642546607
 30
0.0
  0
VERTEX
  5
1E16
  8
3
 10
93.51511110779984
 20
36.4852074181
 30
0.0
  0
VERTEX
  5
1E17
  8
3
 10
93.9492315519999
 20
36.10924808519999
 30
0.0
  0
VERTEX
  5
1E18
  8
3
 10
94.09999999999991
 20
35.681722906
 30
0.0
  0
SEQEND
  5
1FB5
  8
3
  0
POLYLINE
  5
DBD
  8
3
 66
     1
 10
0.0
 20
0.0
 30
0.0
  0
VERTEX
  5
1E19
  8
3
 10
93.65499999999997
 20
35.9515698006
 30
0.0
  0
VERTEX
  5
1E1A
  8
3
 10
93.51623043139989
 20
35.58039398860001
 30
0.0
  0
VERTEX
  5
1E1B
  8
3
 10
93.1186633248999
 20
35.25934752679998
 30
0.0
  0
VERTEX
  5
1E1C
  8
3
 10
92.51599232109993
 20
35.0317895188
 30
0.0
  0
VERTEX
  5
1E1D
  8
3
 10
91.78961147869995
 20
34.9284529345
 30
0.0
  0
VERTEX
  5
1E1E
  8
3
 10
91.03762255539982
 20
34.96329395230001
 30
0.0
  0
VERTEX
  5
1E1F
  8
3
 10
90.36158582229996
 20
35.13160709959999
 30
0.0
  0
VERTEX
  5
1E20
  8
3
 10
89.85280378609991
 20
35.41066075329999
 30
0.0
  0
VERTEX
  5
1E21
  8
3
 10
89.57999028019981
 20
35.76276717109999
 30
0.0
  0
VERTEX
  5
1E22
  8
3
 10
89.57999028019981
 20
36.14037243019999
 30
0.0
  0
VERTEX
  5
1E23
  8
3
 10
89.85280378609991
 20
36.49247884799999
 30
0.0
  0
VERTEX
  5
1E24
  8
3
 10
90.36158582229996
 20
36.77153250169999
 30
0.0
  0
VERTEX
  5
1E25
  8
3
 10
91.03762255539982
 20
36.93984564900001
 30
0.0
  0
VERTEX
  5
1E26
  8
3
 10
91.78961147869995
 20
36.97468666679998
 30
0.0
  0
VERTEX
  5
1E27
  8
3
 10
92.51599232109993
 20
36.87135008249999
 30
0.0
  0
VERTEX
  5
1E28
  8
3
 10
93.1186633248999
 20
36.6437920745
 30
0.0
  0
VERTEX
  5
1E29
  8
3
 10
93.51623043139989
 20
36.32274561259999
 30
0.0
  0
VERTEX
  5
1E2A
  8
3
 10
93.65499999999997
 20
35.9515698006
 30
0.0
  0
SEQEND
  5
1FB4
  8
3
  0
POLYLINE
  5
DBE
  8
3
 66
     1
 10
0.0
 20
0.0
 30
0.0
  0
VERTEX
  5
1E2B
  8
3
 10
94.09999999999991
 20
36.22141669530001
 30
0.0
  0
VERTEX
  5
1E2C
  8
3
 10
93.9492315519999
 20
35.79389151609999
 30
0.0
  0
VERTEX
  5
1E2D
  8
3
 10
93.51511110779984
 20
35.41793218309999
 30
0.0
  0
VERTEX
  5
1E2E
  8
3
 10
92.84999999999991
 20
35.13888494049999
 30
0.0
  0
VERTEX
  5
1E2F
  8
3
 10
92.03412044419997
 20
34.99040700399999
 30
0.0
  0
VERTEX
  5
1E30
  8
3
 10
91.16587955589989
 20
34.99040700399999
 30
0.0
  0
VERTEX
  5
1E31
  8
3
 10
90.34999999999991
 20
35.13888494049999
 30
0.0
  0
VERTEX
  5
1E32
  8
3
 10
89.68488889219998
 20
35.41793218309999
 30
0.0
  0
VERTEX
  5
1E33
  8
3
 10
89.25076844809996
 20
35.79389151609999
 30
0.0
  0
VERTEX
  5
1E34
  8
3
 10
89.09999999999991
 20
36.22141669530001
 30
0.0
  0
VERTEX
  5
1E35
  8
3
 10
89.25076844809996
 20
36.64894187440001
 30
0.0
  0
VERTEX
  5
1E36
  8
3
 10
89.68488889219998
 20
37.02490120740001
 30
0.0
  0
VERTEX
  5
1E37
  8
3
 10
90.34999999999991
 20
37.30394845000001
 30
0.0
  0
VERTEX
  5
1E38
  8
3
 10
91.16587955589989
 20
37.45242638650001
 30
0.0
  0
VERTEX
  5
1E39
  8
3
 10
92.03412044419997
 20
37.45242638650001
 30
0.0
  0
VERTEX
  5
1E3A
  8
3
 10
92.84999999999991
 20
37.30394845000001
 30
0.0
  0
VERTEX
  5
1E3B
  8
3
 10
93.51511110779984
 20
37.02490120740001
 30
0.0
  0
VERTEX
  5
1E3C
  8
3
 10
93.9492315519999
 20
36.64894187440001
 30
0.0
  0
VERTEX
  5
1E3D
  8
3
 10
94.09999999999991
 20
36.22141669530001
 30
0.0
  0
SEQEND
  5
1FB3
  8
3
  0
POLYLINE
  5
DBF
  8
3
 66
     1
 10
0.0
 20
0.0
 30
0.0
  0
VERTEX
  5
1E3E
  8
3
 10
94.09999999999991
 20
36.29945624659999
 30
0.0
  0
VERTEX
  5
1E3F
  8
3
 10
93.9492315519999
 20
35.87193106749999
 30
0.0
  0
VERTEX
  5
1E40
  8
3
 10
93.51511110779984
 20
35.49597173449999
 30
0.0
  0
VERTEX
  5
1E41
  8
3
 10
92.84999999999991
 20
35.21692449189999
 30
0.0
  0
VERTEX
  5
1E42
  8
3
 10
92.03412044419997
 20
35.0684465553
 30
0.0
  0
VERTEX
  5
1E43
  8
3
 10
91.16587955589989
 20
35.0684465553
 30
0.0
  0
VERTEX
  5
1E44
  8
3
 10
90.34999999999991
 20
35.21692449189999
 30
0.0
  0
VERTEX
  5
1E45
  8
3
 10
89.68488889219998
 20
35.49597173449999
 30
0.0
  0
VERTEX
  5
1E46
  8
3
 10
89.25076844809996
 20
35.87193106749999
 30
0.0
  0
VERTEX
  5
1E47
  8
3
 10
89.09999999999991
 20
36.29945624659999
 30
0.0
  0
VERTEX
  5
1E48
  8
3
 10
89.25076844809996
 20
36.72698142580001
 30
0.0
  0
VERTEX
  5
1E49
  8
3
 10
89.68488889219998
 20
37.10294075869999
 30
0.0
  0
VERTEX
  5
1E4A
  8
3
 10
90.34999999999991
 20
37.38198800129999
 30
0.0
  0
VERTEX
  5
1E4B
  8
3
 10
91.16587955589989
 20
37.5304659379
 30
0.0
  0
VERTEX
  5
1E4C
  8
3
 10
92.03412044419997
 20
37.5304659379
 30
0.0
  0
VERTEX
  5
1E4D
  8
3
 10
92.84999999999991
 20
37.38198800129999
 30
0.0
  0
VERTEX
  5
1E4E
  8
3
 10
93.51511110779984
 20
37.10294075869999
 30
0.0
  0
VERTEX
  5
1E4F
  8
3
 10
93.9492315519999
 20
36.72698142580001
 30
0.0
  0
VERTEX
  5
1E50
  8
3
 10
94.09999999999991
 20
36.29945624659999
 30
0.0
  0
SEQEND
  5
1FB2
  8
3
  0
POLYLINE
  5
DC0
  8
3
 66
     1
 10
0.0
 20
0.0
 30
0.0
  0
VERTEX
  5
1E51
  8
3
 10
93.65499999999997
 20
36.56930314120001
 30
0.0
  0
VERTEX
  5
1E52
  8
3
 10
93.51623043139989
 20
36.19812732919999
 30
0.0
  0
VERTEX
  5
1E53
  8
3
 10
93.1186633248999
 20
35.8770808674
 30
0.0
  0
VERTEX
  5
1E54
  8
3
 10
92.51599232109993
 20
35.64952285940001
 30
0.0
  0
VERTEX
  5
1E55
  8
3
 10
91.78961147869995
 20
35.54618627510001
 30
0.0
  0
VERTEX
  5
1E56
  8
3
 10
91.03762255539982
 20
35.58102729289999
 30
0.0
  0
VERTEX
  5
1E57
  8
3
 10
90.36158582229996
 20
35.7493404402
 30
0.0
  0
VERTEX
  5
1E58
  8
3
 10
89.85280378609991
 20
36.0283940939
 30
0.0
  0
VERTEX
  5
1E59
  8
3
 10
89.57999028019981
 20
36.38050051170001
 30
0.0
  0
VERTEX
  5
1E5A
  8
3
 10
89.57999028019981
 20
36.7581057708
 30
0.0
  0
VERTEX
  5
1E5B
  8
3
 10
89.85280378609991
 20
37.1102121886
 30
0.0
  0
VERTEX
  5
1E5C
  8
3
 10
90.36158582229996
 20
37.38926584230001
 30
0.0
  0
VERTEX
  5
1E5D
  8
3
 10
91.03762255539982
 20
37.55757898959999
 30
0.0
  0
VERTEX
  5
1E5E
  8
3
 10
91.78961147869995
 20
37.59242000739999
 30
0.0
  0
VERTEX
  5
1E5F
  8
3
 10
92.51599232109993
 20
37.4890834231
 30
0.0
  0
VERTEX
  5
1E60
  8
3
 10
93.1186633248999
 20
37.26152541509998
 30
0.0
  0
VERTEX
  5
1E61
  8
3
 10
93.51623043139989
 20
36.9404789532
 30
0.0
  0
VERTEX
  5
1E62
  8
3
 10
93.65499999999997
 20
36.56930314120001
 30
0.0
  0
SEQEND
  5
1FB1
  8
3
  0
POLYLINE
  5
DC1
  8
3
 66
     1
 10
0.0
 20
0.0
 30
0.0
  0
VERTEX
  5
1E63
  8
3
 10
94.09999999999991
 20
36.83915003589999
 30
0.0
  0
VERTEX
  5
1E64
  8
3
 10
93.9492315519999
 20
36.4116248567
 30
0.0
  0
VERTEX
  5
1E65
  8
3
 10
93.51511110779984
 20
36.03566552379999
 30
0.0
  0
VERTEX
  5
1E66
  8
3
 10
92.84999999999991
 20
35.7566182811
 30
0.0
  0
VERTEX
  5
1E67
  8
3
 10
92.03412044419997
 20
35.6081403446
 30
0.0
  0
VERTEX
  5
1E68
  8
3
 10
91.16587955589989
 20
35.6081403446
 30
0.0
  0
VERTEX
  5
1E69
  8
3
 10
90.34999999999991
 20
35.7566182811
 30
0.0
  0
VERTEX
  5
1E6A
  8
3
 10
89.68488889219998
 20
36.03566552379999
 30
0.0
  0
VERTEX
  5
1E6B
  8
3
 10
89.25076844809996
 20
36.4116248567
 30
0.0
  0
VERTEX
  5
1E6C
  8
3
 10
89.09999999999991
 20
36.83915003589999
 30
0.0
  0
VERTEX
  5
1E6D
  8
3
 10
89.25076844809996
 20
37.26667521499999
 30
0.0
  0
VERTEX
  5
1E6E
  8
3
 10
89.68488889219998
 20
37.64263454799999
 30
0.0
  0
VERTEX
  5
1E6F
  8
3
 10
90.34999999999991
 20
37.92168179059999
 30
0.0
  0
VERTEX
  5
1E70
  8
3
 10
91.16587955589989
 20
38.07015972709999
 30
0.0
  0
VERTEX
  5
1E71
  8
3
 10
92.03412044419997
 20
38.07015972709999
 30
0.0
  0
VERTEX
  5
1E72
  8
3
 10
92.84999999999991
 20
37.92168179059999
 30
0.0
  0
VERTEX
  5
1E73
  8
3
 10
93.51511110779984
 20
37.64263454799999
 30
0.0
  0
VERTEX
  5
1E74
  8
3
 10
93.9492315519999
 20
37.26667521499999
 30
0.0
  0
VERTEX
  5
1E75
  8
3
 10
94.09999999999991
 20
36.83915003589999
 30
0.0
  0
SEQEND
  5
1FB0
  8
3
  0
POLYLINE
  5
DC2
  8
3
 66
     1
 10
0.0
 20
0.0
 30
0.0
  0
VERTEX
  5
1E76
  8
3
 10
94.09999999999991
 20
36.9171895872
 30
0.0
  0
VERTEX
  5
1E77
  8
3
 10
93.9492315519999
 20
36.4896644081
 30
0.0
  0
VERTEX
  5
1E78
  8
3
 10
93.51511110779984
 20
36.1137050751
 30
0.0
  0
VERTEX
  5
1E79
  8
3
 10
92.84999999999991
 20
35.8346578325
 30
0.0
  0
VERTEX
  5
1E7A
  8
3
 10
92.03412044419997
 20
35.686179896
 30
0.0
  0
VERTEX
  5
1E7B
  8
3
 10
91.16587955589989
 20
35.686179896
 30
0.0
  0
VERTEX
  5
1E7C
  8
3
 10
90.34999999999991
 20
35.8346578325
 30
0.0
  0
VERTEX
  5
1E7D
  8
3
 10
89.68488889219998
 20
36.1137050751
 30
0.0
  0
VERTEX
  5
1E7E
  8
3
 10
89.25076844809996
 20
36.4896644081
 30
0.0
  0
VERTEX
  5
1E7F
  8
3
 10
89.09999999999991
 20
36.9171895872
 30
0.0
  0
VERTEX
  5
1E80
  8
3
 10
89.25076844809996
 20
37.34471476639999
 30
0.0
  0
VERTEX
  5
1E81
  8
3
 10
89.68488889219998
 20
37.7206740993
 30
0.0
  0
VERTEX
  5
1E82
  8
3
 10
90.34999999999991
 20
37.9997213419
 30
0.0
  0
VERTEX
  5
1E83
  8
3
 10
91.16587955589989
 20
38.14819927849999
 30
0.0
  0
VERTEX
  5
1E84
  8
3
 10
92.03412044419997
 20
38.14819927849999
 30
0.0
  0
VERTEX
  5
1E85
  8
3
 10
92.84999999999991
 20
37.9997213419
 30
0.0
  0
VERTEX
  5
1E86
  8
3
 10
93.51511110779984
 20
37.7206740993
 30
0.0
  0
VERTEX
  5
1E87
  8
3
 10
93.9492315519999
 20
37.34471476639999
 30
0.0
  0
VERTEX
  5
1E88
  8
3
 10
94.09999999999991
 20
36.9171895872
 30
0.0
  0
SEQEND
  5
1FAF
  8
3
  0
POLYLINE
  5
DC3
  8
3
 66
     1
 10
0.0
 20
0.0
 30
0.0
  0
VERTEX
  5
1E89
  8
3
 10
93.65499999999997
 20
37.18703648179999
 30
0.0
  0
VERTEX
  5
1E8A
  8
3
 10
93.51623043149993
 20
36.8158606698
 30
0.0
  0
VERTEX
  5
1E8B
  8
3
 10
93.1186633248999
 20
36.49481420800001
 30
0.0
  0
VERTEX
  5
1E8C
  8
3
 10
92.51599232109993
 20
36.26725619999999
 30
0.0
  0
VERTEX
  5
1E8D
  8
3
 10
91.78961147869995
 20
36.1639196157
 30
0.0
  0
VERTEX
  5
1E8E
  8
3
 10
91.03762255539982
 20
36.1987606335
 30
0.0
  0
VERTEX
  5
1E8F
  8
3
 10
90.36158582229996
 20
36.36707378080001
 30
0.0
  0
VERTEX
  5
1E90
  8
3
 10
89.85280378609991
 20
36.64612743449999
 30
0.0
  0
VERTEX
  5
1E91
  8
3
 10
89.57999028019981
 20
36.99823385229999
 30
0.0
  0
VERTEX
  5
1E92
  8
3
 10
89.57999028019981
 20
37.37583911140001
 30
0.0
  0
VERTEX
  5
1E93
  8
3
 10
89.85280378609991
 20
37.72794552919999
 30
0.0
  0
VERTEX
  5
1E94
  8
3
 10
90.36158582229996
 20
38.00699918289999
 30
0.0
  0
VERTEX
  5
1E95
  8
3
 10
91.03762255539982
 20
38.1753123302
 30
0.0
  0
VERTEX
  5
1E96
  8
3
 10
91.78961147869995
 20
38.21015334800001
 30
0.0
  0
VERTEX
  5
1E97
  8
3
 10
92.51599232109993
 20
38.10681676370001
 30
0.0
  0
VERTEX
  5
1E98
  8
3
 10
93.1186633248999
 20
37.87925875569999
 30
0.0
  0
VERTEX
  5
1E99
  8
3
 10
93.51623043149993
 20
37.55821229380001
 30
0.0
  0
VERTEX
  5
1E9A
  8
3
 10
93.65499999999997
 20
37.18703648179999
 30
0.0
  0
SEQEND
  5
1FAE
  8
3
  0
POLYLINE
  5
DC4
  8
3
 66
     1
 10
0.0
 20
0.0
 30
0.0
  0
VERTEX
  5
1E9B
  8
3
 10
94.09999999999991
 20
37.4568833765
 30
0.0
  0
VERTEX
  5
1E9C
  8
3
 10
93.9492315519999
 20
37.02935819729998
 30
0.0
  0
VERTEX
  5
1E9D
  8
3
 10
93.51511110779984
 20
36.6533988644
 30
0.0
  0
VERTEX
  5
1E9E
  8
3
 10
92.84999999999991
 20
36.37435162169999
 30
0.0
  0
VERTEX
  5
1E9F
  8
3
 10
92.03412044419997
 20
36.22587368519999
 30
0.0
  0
VERTEX
  5
1EA0
  8
3
 10
91.16587955589989
 20
36.22587368519999
 30
0.0
  0
VERTEX
  5
1EA1
  8
3
 10
90.34999999999991
 20
36.37435162169999
 30
0.0
  0
VERTEX
  5
1EA2
  8
3
 10
89.68488889219998
 20
36.6533988644
 30
0.0
  0
VERTEX
  5
1EA3
  8
3
 10
89.25076844809996
 20
37.02935819729998
 30
0.0
  0
VERTEX
  5
1EA4
  8
3
 10
89.09999999999991
 20
37.4568833765
 30
0.0
  0
VERTEX
  5
1EA5
  8
3
 10
89.25076844809996
 20
37.8844085556
 30
0.0
  0
VERTEX
  5
1EA6
  8
3
 10
89.68488889219998
 20
38.2603678886
 30
0.0
  0
VERTEX
  5
1EA7
  8
3
 10
90.34999999999991
 20
38.5394151312
 30
0.0
  0
VERTEX
  5
1EA8
  8
3
 10
91.16587955589989
 20
38.6878930677
 30
0.0
  0
VERTEX
  5
1EA9
  8
3
 10
92.03412044419997
 20
38.6878930677
 30
0.0
  0
VERTEX
  5
1EAA
  8
3
 10
92.84999999999991
 20
38.5394151312
 30
0.0
  0
VERTEX
  5
1EAB
  8
3
 10
93.51511110779984
 20
38.2603678886
 30
0.0
  0
VERTEX
  5
1EAC
  8
3
 10
93.9492315519999
 20
37.8844085556
 30
0.0
  0
VERTEX
  5
1EAD
  8
3
 10
94.09999999999991
 20
37.4568833765
 30
0.0
  0
SEQEND
  5
1FAD
  8
3
  0
POLYLINE
  5
DC5
  8
3
 66
     1
 10
0.0
 20
0.0
 30
0.0
  0
VERTEX
  5
1EAE
  8
3
 10
94.09999999999991
 20
37.53492292779998
 30
0.0
  0
VERTEX
  5
1EAF
  8
3
 10
93.9492315519999
 20
37.10739774870001
 30
0.0
  0
VERTEX
  5
1EB0
  8
3
 10
93.51511110779984
 20
36.73143841569998
 30
0.0
  0
VERTEX
  5
1EB1
  8
3
 10
92.84999999999991
 20
36.45239117310001
 30
0.0
  0
VERTEX
  5
1EB2
  8
3
 10
92.03412044419997
 20
36.30391323660001
 30
0.0
  0
VERTEX
  5
1EB3
  8
3
 10
91.16587955589989
 20
36.30391323660001
 30
0.0
  0
VERTEX
  5
1EB4
  8
3
 10
90.34999999999991
 20
36.45239117310001
 30
0.0
  0
VERTEX
  5
1EB5
  8
3
 10
89.68488889219998
 20
36.73143841569998
 30
0.0
  0
VERTEX
  5
1EB6
  8
3
 10
89.25076844809996
 20
37.10739774870001
 30
0.0
  0
VERTEX
  5
1EB7
  8
3
 10
89.09999999999991
 20
37.53492292779998
 30
0.0
  0
VERTEX
  5
1EB8
  8
3
 10
89.25076844809996
 20
37.962448107
 30
0.0
  0
VERTEX
  5
1EB9
  8
3
 10
89.68488889219998
 20
38.33840743989998
 30
0.0
  0
VERTEX
  5
1EBA
  8
3
 10
90.34999999999991
 20
38.6174546826
 30
0.0
  0
VERTEX
  5
1EBB
  8
3
 10
91.16587955589989
 20
38.7659326191
 30
0.0
  0
VERTEX
  5
1EBC
  8
3
 10
92.03412044419997
 20
38.7659326191
 30
0.0
  0
VERTEX
  5
1EBD
  8
3
 10
92.84999999999991
 20
38.6174546826
 30
0.0
  0
VERTEX
  5
1EBE
  8
3
 10
93.51511110779984
 20
38.33840743989998
 30
0.0
  0
VERTEX
  5
1EBF
  8
3
 10
93.9492315519999
 20
37.962448107
 30
0.0
  0
VERTEX
  5
1EC0
  8
3
 10
94.09999999999991
 20
37.53492292779998
 30
0.0
  0
SEQEND
  5
1FAC
  8
3
  0
POLYLINE
  5
DC6
  8
3
 66
     1
 10
0.0
 20
0.0
 30
0.0
  0
VERTEX
  5
1EC1
  8
3
 10
93.65499999999997
 20
37.8047698224
 30
0.0
  0
VERTEX
  5
1EC2
  8
3
 10
93.51623043149993
 20
37.43359401039999
 30
0.0
  0
VERTEX
  5
1EC3
  8
3
 10
93.1186633248999
 20
37.11254754859999
 30
0.0
  0
VERTEX
  5
1EC4
  8
3
 10
92.51599232119997
 20
36.8849895406
 30
0.0
  0
VERTEX
  5
1EC5
  8
3
 10
91.78961147869995
 20
36.78165295630001
 30
0.0
  0
VERTEX
  5
1EC6
  8
3
 10
91.03762255539982
 20
36.81649397410001
 30
0.0
  0
VERTEX
  5
1EC7
  8
3
 10
90.36158582229996
 20
36.9848071214
 30
0.0
  0
VERTEX
  5
1EC8
  8
3
 10
89.85280378609991
 20
37.2638607751
 30
0.0
  0
VERTEX
  5
1EC9
  8
3
 10
89.57999028019981
 20
37.6159671929
 30
0.0
  0
VERTEX
  5
1ECA
  8
3
 10
89.57999028019981
 20
37.993572452
 30
0.0
  0
VERTEX
  5
1ECB
  8
3
 10
89.85280378609991
 20
38.3456788698
 30
0.0
  0
VERTEX
  5
1ECC
  8
3
 10
90.36158582229996
 20
38.6247325235
 30
0.0
  0
VERTEX
  5
1ECD
  8
3
 10
91.03762255539982
 20
38.79304567079998
 30
0.0
  0
VERTEX
  5
1ECE
  8
3
 10
91.78961147869995
 20
38.82788668859999
 30
0.0
  0
VERTEX
  5
1ECF
  8
3
 10
92.51599232119997
 20
38.72455010429999
 30
0.0
  0
VERTEX
  5
1ED0
  8
3
 10
93.1186633248999
 20
38.4969920963
 30
0.0
  0
VERTEX
  5
1ED1
  8
3
 10
93.51623043149993
 20
38.17594563450001
 30
0.0
  0
VERTEX
  5
1ED2
  8
3
 10
93.65499999999997
 20
37.8047698224
 30
0.0
  0
SEQEND
  5
1FAB
  8
3
  0
POLYLINE
  5
DC7
  8
3
 66
     1
 10
0.0
 20
0.0
 30
0.0
  0
VERTEX
  5
1ED3
  8
3
 10
94.09999999999991
 20
38.07461671709999
 30
0.0
  0
VERTEX
  5
1ED4
  8
3
 10
93.9492315519999
 20
37.6470915379
 30
0.0
  0
VERTEX
  5
1ED5
  8
3
 10
93.51511110779984
 20
37.27113220499999
 30
0.0
  0
VERTEX
  5
1ED6
  8
3
 10
92.84999999999991
 20
36.9920849623
 30
0.0
  0
VERTEX
  5
1ED7
  8
3
 10
92.03412044419997
 20
36.8436070258
 30
0.0
  0
VERTEX
  5
1ED8
  8
3
 10
91.16587955589989
 20
36.8436070258
 30
0.0
  0
VERTEX
  5
1ED9
  8
3
 10
90.34999999999991
 20
36.9920849623
 30
0.0
  0
VERTEX
  5
1EDA
  8
3
 10
89.68488889219998
 20
37.27113220499999
 30
0.0
  0
VERTEX
  5
1EDB
  8
3
 10
89.25076844809996
 20
37.6470915379
 30
0.0
  0
VERTEX
  5
1EDC
  8
3
 10
89.09999999999991
 20
38.07461671709999
 30
0.0
  0
VERTEX
  5
1EDD
  8
3
 10
89.25076844809996
 20
38.50214189619999
 30
0.0
  0
VERTEX
  5
1EDE
  8
3
 10
89.68488889219998
 20
38.87810122920001
 30
0.0
  0
VERTEX
  5
1EDF
  8
3
 10
90.34999999999991
 20
39.15714847179999
 30
0.0
  0
VERTEX
  5
1EE0
  8
3
 10
91.16587955589989
 20
39.30562640829999
 30
0.0
  0
VERTEX
  5
1EE1
  8
3
 10
92.03412044419997
 20
39.30562640829999
 30
0.0
  0
VERTEX
  5
1EE2
  8
3
 10
92.84999999999991
 20
39.15714847179999
 30
0.0
  0
VERTEX
  5
1EE3
  8
3
 10
93.51511110779984
 20
38.87810122920001
 30
0.0
  0
VERTEX
  5
1EE4
  8
3
 10
93.9492315519999
 20
38.50214189619999
 30
0.0
  0
VERTEX
  5
1EE5
  8
3
 10
94.09999999999991
 20
38.07461671709999
 30
0.0
  0
SEQEND
  5
1FAA
  8
3
  0
POLYLINE
  5
DC8
  8
3
 66
     1
 10
0.0
 20
0.0
 30
0.0
  0
VERTEX
  5
1EE6
  8
3
 10
94.09999999999991
 20
38.15265626839999
 30
0.0
  0
VERTEX
  5
1EE7
  8
3
 10
93.9492315519999
 20
37.72513108929999
 30
0.0
  0
VERTEX
  5
1EE8
  8
3
 10
93.51511110779984
 20
37.3491717563
 30
0.0
  0
VERTEX
  5
1EE9
  8
3
 10
92.84999999999991
 20
37.07012451369999
 30
0.0
  0
VERTEX
  5
1EEA
  8
3
 10
92.03412044419997
 20
36.92164657719999
 30
0.0
  0
VERTEX
  5
1EEB
  8
3
 10
91.16587955589989
 20
36.92164657719999
 30
0.0
  0
VERTEX
  5
1EEC
  8
3
 10
90.34999999999991
 20
37.07012451369999
 30
0.0
  0
VERTEX
  5
1EED
  8
3
 10
89.68488889219998
 20
37.3491717563
 30
0.0
  0
VERTEX
  5
1EEE
  8
3
 10
89.25076844809996
 20
37.72513108929999
 30
0.0
  0
VERTEX
  5
1EEF
  8
3
 10
89.09999999999991
 20
38.15265626839999
 30
0.0
  0
VERTEX
  5
1EF0
  8
3
 10
89.25076844809996
 20
38.58018144760001
 30
0.0
  0
VERTEX
  5
1EF1
  8
3
 10
89.68488889219998
 20
38.95614078049999
 30
0.0
  0
VERTEX
  5
1EF2
  8
3
 10
90.34999999999991
 20
39.23518802320001
 30
0.0
  0
VERTEX
  5
1EF3
  8
3
 10
91.16587955589989
 20
39.38366595970001
 30
0.0
  0
VERTEX
  5
1EF4
  8
3
 10
92.03412044419997
 20
39.38366595970001
 30
0.0
  0
VERTEX
  5
1EF5
  8
3
 10
92.84999999999991
 20
39.23518802320001
 30
0.0
  0
VERTEX
  5
1EF6
  8
3
 10
93.51511110779984
 20
38.95614078049999
 30
0.0
  0
VERTEX
  5
1EF7
  8
3
 10
93.9492315519999
 20
38.58018144760001
 30
0.0
  0
VERTEX
  5
1EF8
  8
3
 10
94.09999999999991
 20
38.15265626839999
 30
0.0
  0
SEQEND
  5
1FA9
  8
3
  0
POLYLINE
  5
DC9
  8
3
 66
     1
 10
0.0
 20
0.0
 30
0.0
  0
VERTEX
  5
1EF9
  8
3
 10
93.65499999999997
 20
38.4225031631
 30
0.0
  0
VERTEX
  5
1EFA
  8
3
 10
93.51623043149993
 20
38.051327351
 30
0.0
  0
VERTEX
  5
1EFB
  8
3
 10
93.1186633248999
 20
37.7302808892
 30
0.0
  0
VERTEX
  5
1EFC
  8
3
 10
92.51599232119997
 20
37.50272288119999
 30
0.0
  0
VERTEX
  5
1EFD
  8
3
 10
91.78961147869995
 20
37.39938629689999
 30
0.0
  0
VERTEX
  5
1EFE
  8
3
 10
91.03762255539982
 20
37.4342273147
 30
0.0
  0
VERTEX
  5
1EFF
  8
3
 10
90.36158582229996
 20
37.60254046200001
 30
0.0
  0
VERTEX
  5
1F00
  8
3
 10
89.85280378609991
 20
37.88159411570001
 30
0.0
  0
VERTEX
  5
1F01
  8
3
 10
89.57999028019981
 20
38.23370053349998
 30
0.0
  0
VERTEX
  5
1F02
  8
3
 10
89.57999028019981
 20
38.61130579260001
 30
0.0
  0
VERTEX
  5
1F03
  8
3
 10
89.85280378609991
 20
38.96341221040001
 30
0.0
  0
VERTEX
  5
1F04
  8
3
 10
90.36158582229996
 20
39.24246586409998
 30
0.0
  0
VERTEX
  5
1F05
  8
3
 10
91.03762255539982
 20
39.4107790114
 30
0.0
  0
VERTEX
  5
1F06
  8
3
 10
91.78961147869995
 20
39.4456200292
 30
0.0
  0
VERTEX
  5
1F07
  8
3
 10
92.51599232119997
 20
39.3422834449
 30
0.0
  0
VERTEX
  5
1F08
  8
3
 10
93.1186633248999
 20
39.11472543689999
 30
0.0
  0
VERTEX
  5
1F09
  8
3
 10
93.51623043149993
 20
38.79367897509999
 30
0.0
  0
VERTEX
  5
1F0A
  8
3
 10
93.65499999999997
 20
38.4225031631
 30
0.0
  0
SEQEND
  5
1FA8
  8
3
  0
POLYLINE
  5
DCA
  8
3
 66
     1
 10
0.0
 20
0.0
 30
0.0
  0
VERTEX
  5
1F0B
  8
3
 10
94.09999999999991
 20
38.6923500577
 30
0.0
  0
VERTEX
  5
1F0C
  8
3
 10
93.9492315519999
 20
38.26482487850001
 30
0.0
  0
VERTEX
  5
1F0D
  8
3
 10
93.51511110779984
 20
37.8888655456
 30
0.0
  0
VERTEX
  5
1F0E
  8
3
 10
92.84999999999991
 20
37.60981830290001
 30
0.0
  0
VERTEX
  5
1F0F
  8
3
 10
92.03412044419997
 20
37.46134036640001
 30
0.0
  0
VERTEX
  5
1F10
  8
3
 10
91.16587955589989
 20
37.46134036640001
 30
0.0
  0
VERTEX
  5
1F11
  8
3
 10
90.34999999999991
 20
37.60981830290001
 30
0.0
  0
VERTEX
  5
1F12
  8
3
 10
89.68488889219998
 20
37.8888655456
 30
0.0
  0
VERTEX
  5
1F13
  8
3
 10
89.25076844809996
 20
38.26482487850001
 30
0.0
  0
VERTEX
  5
1F14
  8
3
 10
89.09999999999991
 20
38.6923500577
 30
0.0
  0
VERTEX
  5
1F15
  8
3
 10
89.25076844809996
 20
39.1198752368
 30
0.0
  0
VERTEX
  5
1F16
  8
3
 10
89.68488889219998
 20
39.4958345698
 30
0.0
  0
VERTEX
  5
1F17
  8
3
 10
90.34999999999991
 20
39.7748818124
 30
0.0
  0
VERTEX
  5
1F18
  8
3
 10
91.16587955589989
 20
39.9233597489
 30
0.0
  0
VERTEX
  5
1F19
  8
3
 10
92.03412044419997
 20
39.9233597489
 30
0.0
  0
VERTEX
  5
1F1A
  8
3
 10
92.84999999999991
 20
39.7748818124
 30
0.0
  0
VERTEX
  5
1F1B
  8
3
 10
93.51511110779984
 20
39.4958345698
 30
0.0
  0
VERTEX
  5
1F1C
  8
3
 10
93.9492315519999
 20
39.1198752368
 30
0.0
  0
VERTEX
  5
1F1D
  8
3
 10
94.09999999999991
 20
38.6923500577
 30
0.0
  0
SEQEND
  5
1FA7
  8
3
  0
POLYLINE
  5
DCB
  8
3
 66
     1
 10
0.0
 20
0.0
 30
0.0
  0
VERTEX
  5
1F1E
  8
3
 10
94.09999999999991
 20
38.77038960900001
 30
0.0
  0
VERTEX
  5
1F1F
  8
3
 10
93.9492315519999
 20
38.3428644299
 30
0.0
  0
VERTEX
  5
1F20
  8
3
 10
93.51511110779984
 20
37.96690509690001
 30
0.0
  0
VERTEX
  5
1F21
  8
3
 10
92.84999999999991
 20
37.68785785430001
 30
0.0
  0
VERTEX
  5
1F22
  8
3
 10
92.03412044419997
 20
37.53937991780001
 30
0.0
  0
VERTEX
  5
1F23
  8
3
 10
91.16587955589989
 20
37.53937991780001
 30
0.0
  0
VERTEX
  5
1F24
  8
3
 10
90.34999999999991
 20
37.68785785430001
 30
0.0
  0
VERTEX
  5
1F25
  8
3
 10
89.68488889219998
 20
37.96690509690001
 30
0.0
  0
VERTEX
  5
1F26
  8
3
 10
89.25076844809996
 20
38.3428644299
 30
0.0
  0
VERTEX
  5
1F27
  8
3
 10
89.09999999999991
 20
38.77038960900001
 30
0.0
  0
VERTEX
  5
1F28
  8
3
 10
89.25076844809996
 20
39.19791478819999
 30
0.0
  0
VERTEX
  5
1F29
  8
3
 10
89.68488889219998
 20
39.5738741211
 30
0.0
  0
VERTEX
  5
1F2A
  8
3
 10
90.34999999999991
 20
39.85292136379999
 30
0.0
  0
VERTEX
  5
1F2B
  8
3
 10
91.16587955589989
 20
40.00139930029999
 30
0.0
  0
VERTEX
  5
1F2C
  8
3
 10
92.03412044419997
 20
40.00139930029999
 30
0.0
  0
VERTEX
  5
1F2D
  8
3
 10
92.84999999999991
 20
39.85292136379999
 30
0.0
  0
VERTEX
  5
1F2E
  8
3
 10
93.51511110779984
 20
39.5738741211
 30
0.0
  0
VERTEX
  5
1F2F
  8
3
 10
93.9492315519999
 20
39.19791478819999
 30
0.0
  0
VERTEX
  5
1F30
  8
3
 10
94.09999999999991
 20
38.77038960900001
 30
0.0
  0
SEQEND
  5
1FA6
  8
3
  0
POLYLINE
  5
DCC
  8
3
 66
     1
 10
0.0
 20
0.0
 30
0.0
  0
VERTEX
  5
1F31
  8
3
 10
93.65499999999997
 20
39.04023650369999
 30
0.0
  0
VERTEX
  5
1F32
  8
3
 10
93.51623043149993
 20
38.66906069160001
 30
0.0
  0
VERTEX
  5
1F33
  8
3
 10
93.1186633248999
 20
38.34801422979999
 30
0.0
  0
VERTEX
  5
1F34
  8
3
 10
92.51599232119997
 20
38.1204562218
 30
0.0
  0
VERTEX
  5
1F35
  8
3
 10
91.78961147869995
 20
38.0171196375
 30
0.0
  0
VERTEX
  5
1F36
  8
3
 10
91.03762255539982
 20
38.05196065530001
 30
0.0
  0
VERTEX
  5
1F37
  8
3
 10
90.36158582229996
 20
38.22027380259999
 30
0.0
  0
VERTEX
  5
1F38
  8
3
 10
89.85280378609991
 20
38.49932745629999
 30
0.0
  0
VERTEX
  5
1F39
  8
3
 10
89.57999028019981
 20
38.8514338741
 30
0.0
  0
VERTEX
  5
1F3A
  8
3
 10
89.57999028019981
 20
39.22903913319999
 30
0.0
  0
VERTEX
  5
1F3B
  8
3
 10
89.85280378609991
 20
39.58114555099999
 30
0.0
  0
VERTEX
  5
1F3C
  8
3
 10
90.36158582229996
 20
39.8601992047
 30
0.0
  0
VERTEX
  5
1F3D
  8
3
 10
91.03762255539982
 20
40.02851235200001
 30
0.0
  0
VERTEX
  5
1F3E
  8
3
 10
91.78961147869995
 20
40.06335336979998
 30
0.0
  0
VERTEX
  5
1F3F
  8
3
 10
92.51599232119997
 20
39.96001678549999
 30
0.0
  0
VERTEX
  5
1F40
  8
3
 10
93.1186633248999
 20
39.7324587775
 30
0.0
  0
VERTEX
  5
1F41
  8
3
 10
93.51623043149993
 20
39.41141231570001
 30
0.0
  0
VERTEX
  5
1F42
  8
3
 10
93.65499999999997
 20
39.04023650369999
 30
0.0
  0
SEQEND
  5
1FA5
  8
3
  0
POLYLINE
  5
DCD
  8
3
 66
     1
 10
0.0
 20
0.0
 30
0.0
  0
VERTEX
  5
1F43
  8
3
 10
94.09999999999991
 20
39.31008339830001
 30
0.0
  0
VERTEX
  5
1F44
  8
3
 10
93.9492315519999
 20
38.88255821909999
 30
0.0
  0
VERTEX
  5
1F45
  8
3
 10
93.51511110779984
 20
38.50659888620001
 30
0.0
  0
VERTEX
  5
1F46
  8
3
 10
92.84999999999991
 20
38.22755164360001
 30
0.0
  0
VERTEX
  5
1F47
  8
3
 10
92.03412044419997
 20
38.07907370699999
 30
0.0
  0
VERTEX
  5
1F48
  8
3
 10
91.16587955589989
 20
38.07907370699999
 30
0.0
  0
VERTEX
  5
1F49
  8
3
 10
90.34999999999991
 20
38.22755164360001
 30
0.0
  0
VERTEX
  5
1F4A
  8
3
 10
89.68488889219998
 20
38.50659888620001
 30
0.0
  0
VERTEX
  5
1F4B
  8
3
 10
89.25076844809996
 20
38.88255821909999
 30
0.0
  0
VERTEX
  5
1F4C
  8
3
 10
89.09999999999991
 20
39.31008339830001
 30
0.0
  0
VERTEX
  5
1F4D
  8
3
 10
89.25076844809996
 20
39.73760857740001
 30
0.0
  0
VERTEX
  5
1F4E
  8
3
 10
89.68488889219998
 20
40.11356791040001
 30
0.0
  0
VERTEX
  5
1F4F
  8
3
 10
90.34999999999991
 20
40.39261515300001
 30
0.0
  0
VERTEX
  5
1F50
  8
3
 10
91.16587955589989
 20
40.54109308950001
 30
0.0
  0
VERTEX
  5
1F51
  8
3
 10
92.03412044419997
 20
40.54109308950001
 30
0.0
  0
VERTEX
  5
1F52
  8
3
 10
92.84999999999991
 20
40.39261515300001
 30
0.0
  0
VERTEX
  5
1F53
  8
3
 10
93.51511110779984
 20
40.11356791040001
 30
0.0
  0
VERTEX
  5
1F54
  8
3
 10
93.9492315519999
 20
39.73760857740001
 30
0.0
  0
VERTEX
  5
1F55
  8
3
 10
94.09999999999991
 20
39.31008339830001
 30
0.0
  0
SEQEND
  5
1FA4
  8
3
  0
LINE
  5
DCE
  8
3
 10
91.59999999999991
 20
38.26388909049999
 30
0.0
 11
91.59999999999991
 21
40.6021576807
 31
0.0
  0
LINE
  5
DCF
  8
3
 10
92.84999999999991
 20
37.90304517229998
 30
0.0
 11
91.59999999999991
 21
38.26388909049999
 31
0.0
  0
LINE
  5
DD0
  8
3
 10
90.34999999999991
 20
37.90304517229998
 30
0.0
 11
91.59999999999991
 21
38.26388909049999
 31
0.0
  0
POLYLINE
  5
DD1
  8
3
 66
     1
 10
0.0
 20
0.0
 30
0.0
  0
VERTEX
  5
1F56
  8
3
 10
94.09999999999991
 20
39.38812294959999
 30
0.0
  0
VERTEX
  5
1F57
  8
3
 10
93.9492315519999
 20
38.96059777049999
 30
0.0
  0
VERTEX
  5
1F58
  8
3
 10
93.51511110779984
 20
38.58463843749999
 30
0.0
  0
VERTEX
  5
1F59
  8
3
 10
92.84999999999991
 20
38.30559119489999
 30
0.0
  0
VERTEX
  5
1F5A
  8
3
 10
92.03412044419997
 20
38.15711325839999
 30
0.0
  0
VERTEX
  5
1F5B
  8
3
 10
91.16587955589989
 20
38.15711325839999
 30
0.0
  0
VERTEX
  5
1F5C
  8
3
 10
90.34999999999991
 20
38.30559119489999
 30
0.0
  0
VERTEX
  5
1F5D
  8
3
 10
89.68488889219998
 20
38.58463843749999
 30
0.0
  0
VERTEX
  5
1F5E
  8
3
 10
89.25076844809996
 20
38.96059777049999
 30
0.0
  0
VERTEX
  5
1F5F
  8
3
 10
89.09999999999991
 20
39.38812294959999
 30
0.0
  0
VERTEX
  5
1F60
  8
3
 10
89.25076844809996
 20
39.81564812880001
 30
0.0
  0
VERTEX
  5
1F61
  8
3
 10
89.68488889219998
 20
40.19160746169999
 30
0.0
  0
VERTEX
  5
1F62
  8
3
 10
90.34999999999991
 20
40.4706547044
 30
0.0
  0
VERTEX
  5
1F63
  8
3
 10
91.16587955589989
 20
40.61913264090001
 30
0.0
  0
VERTEX
  5
1F64
  8
3
 10
92.03412044419997
 20
40.61913264090001
 30
0.0
  0
VERTEX
  5
1F65
  8
3
 10
92.84999999999991
 20
40.4706547044
 30
0.0
  0
VERTEX
  5
1F66
  8
3
 10
93.51511110779984
 20
40.19160746169999
 30
0.0
  0
VERTEX
  5
1F67
  8
3
 10
93.9492315519999
 20
39.81564812880001
 30
0.0
  0
VERTEX
  5
1F68
  8
3
 10
94.09999999999991
 20
39.38812294959999
 30
0.0
  0
SEQEND
  5
1FA3
  8
3
  0
POLYLINE
  5
DD2
  8
3
 66
     1
 10
0.0
 20
0.0
 30
0.0
  0
VERTEX
  5
1F69
  8
3
 10
93.65499999999997
 20
39.6579698443
 30
0.0
  0
VERTEX
  5
1F6A
  8
3
 10
93.51623043149993
 20
39.28679403230001
 30
0.0
  0
VERTEX
  5
1F6B
  8
3
 10
93.1186633248999
 20
38.9657475704
 30
0.0
  0
VERTEX
  5
1F6C
  8
3
 10
92.51599232119997
 20
38.73818956240001
 30
0.0
  0
VERTEX
  5
1F6D
  8
3
 10
91.78961147869995
 20
38.63485297809999
 30
0.0
  0
VERTEX
  5
1F6E
  8
3
 10
91.03762255539982
 20
38.66969399589999
 30
0.0
  0
VERTEX
  5
1F6F
  8
3
 10
90.36158582229996
 20
38.8380071432
 30
0.0
  0
VERTEX
  5
1F70
  8
3
 10
89.85280378609991
 20
39.11706079690001
 30
0.0
  0
VERTEX
  5
1F71
  8
3
 10
89.57999028019981
 20
39.46916721470001
 30
0.0
  0
VERTEX
  5
1F72
  8
3
 10
89.57999028019981
 20
39.8467724738
 30
0.0
  0
VERTEX
  5
1F73
  8
3
 10
89.85280378609991
 20
40.1988788916
 30
0.0
  0
VERTEX
  5
1F74
  8
3
 10
90.36158582229996
 20
40.47793254530001
 30
0.0
  0
VERTEX
  5
1F75
  8
3
 10
91.03762255539982
 20
40.64624569259999
 30
0.0
  0
VERTEX
  5
1F76
  8
3
 10
91.78961147869995
 20
40.6810867104
 30
0.0
  0
VERTEX
  5
1F77
  8
3
 10
92.51599232119997
 20
40.5777501261
 30
0.0
  0
VERTEX
  5
1F78
  8
3
 10
93.1186633248999
 20
40.35019211809998
 30
0.0
  0
VERTEX
  5
1F79
  8
3
 10
93.51623043149993
 20
40.02914565629999
 30
0.0
  0
VERTEX
  5
1F7A
  8
3
 10
93.65499999999997
 20
39.6579698443
 30
0.0
  0
SEQEND
  5
1FA2
  8
3
  0
POLYLINE
  5
DD3
  8
3
 66
     1
 10
0.0
 20
0.0
 30
0.0
  0
VERTEX
  5
1F7B
  8
3
 10
93.85610312689982
 20
39.77991828079999
 30
0.0
  0
VERTEX
  5
1F7C
  8
3
 10
93.70375351249982
 20
40.1874175072
 30
0.0
  0
VERTEX
  5
1F7D
  8
3
 10
93.26728032889991
 20
40.53988170489998
 30
0.0
  0
VERTEX
  5
1F7E
  8
3
 10
92.60563169829993
 20
40.7897086312
 30
0.0
  0
VERTEX
  5
1F7F
  8
3
 10
91.80816693429983
 20
40.90315777519999
 30
0.0
  0
VERTEX
  5
1F80
  8
3
 10
90.98258807239995
 20
40.8649072014
 30
0.0
  0
VERTEX
  5
1F81
  8
3
 10
90.24039411259992
 20
40.6801228617
 30
0.0
  0
VERTEX
  5
1F82
  8
3
 10
89.68182246159995
 20
40.37376090519999
 30
0.0
  0
VERTEX
  5
1F83
  8
3
 10
89.3823113162
 20
39.98719721169999
 30
0.0
  0
VERTEX
  5
1F84
  8
3
 10
89.3823113162
 20
39.57263935
 30
0.0
  0
VERTEX
  5
1F85
  8
3
 10
89.68182246159995
 20
39.18607565650001
 30
0.0
  0
VERTEX
  5
1F86
  8
3
 10
90.24039411259992
 20
38.8797137
 30
0.0
  0
VERTEX
  5
1F87
  8
3
 10
90.98258807239995
 20
38.69492936029999
 30
0.0
  0
VERTEX
  5
1F88
  8
3
 10
91.80816693429983
 20
38.65667878650001
 30
0.0
  0
VERTEX
  5
1F89
  8
3
 10
92.60563169829993
 20
38.7701279305
 30
0.0
  0
VERTEX
  5
1F8A
  8
3
 10
93.26728032889991
 20
39.01995485679998
 30
0.0
  0
VERTEX
  5
1F8B
  8
3
 10
93.70375351249982
 20
39.3724190545
 30
0.0
  0
VERTEX
  5
1F8C
  8
3
 10
93.85610312689982
 20
39.77991828079999
 30
0.0
  0
SEQEND
  5
1FA1
  8
3
  0
LINE
  5
DD4
  8
3
 10
92.84999999999991
 20
37.18135733579999
 30
0.0
 11
92.84999999999991
 21
37.90304517229998
 31
0.0
  0
LINE
  5
DD5
  8
3
 10
92.84999999999991
 20
37.90304517229998
 30
0.0
 11
92.84999999999991
 21
40.2413137625
 31
0.0
  0
LINE
  5
DD6
  8
3
 10
90.34999999999991
 20
37.18135733579999
 30
0.0
 11
90.34999999999991
 21
37.90304517229998
 31
0.0
  0
LINE
  5
DD7
  8
3
 10
90.34999999999991
 20
37.90304517229998
 30
0.0
 11
90.34999999999991
 21
40.2413137625
 31
0.0
  0
POLYLINE
  5
DD8
  8
3
 66
     1
 10
0.0
 20
0.0
 30
0.0
  0
VERTEX
  5
1F8D
  8
3
 10
91.59999999999991
 20
38.85296984429999
 30
0.0
  0
VERTEX
  5
1F8E
  8
3
 10
90.85764837599982
 20
38.92235462849999
 30
0.0
  0
VERTEX
  5
1F8F
  8
3
 10
90.2155554522999
 20
39.12113818180001
 30
0.0
  0
VERTEX
  5
1F90
  8
3
 10
89.76043943629998
 20
39.42247368369999
 30
0.0
  0
VERTEX
  5
1F91
  8
3
 10
89.55376626769998
 20
39.78566410490001
 30
0.0
  0
VERTEX
  5
1F92
  8
3
 10
89.62344830329994
 20
40.16165856660001
 30
0.0
  0
VERTEX
  5
1F93
  8
3
 10
89.96007459799989
 20
40.49967693310001
 30
0.0
  0
VERTEX
  5
1F94
  8
3
 10
90.51818190530003
 20
40.7540679512
 30
0.0
  0
VERTEX
  5
1F95
  8
3
 10
91.22239474089997
 20
40.89047470419999
 30
0.0
  0
VERTEX
  5
1F96
  8
3
 10
91.97760525909985
 20
40.89047470419999
 30
0.0
  0
VERTEX
  5
1F97
  8
3
 10
92.68181809470002
 20
40.7540679512
 30
0.0
  0
VERTEX
  5
1F98
  8
3
 10
93.23992540209997
 20
40.49967693310001
 30
0.0
  0
VERTEX
  5
1F99
  8
3
 10
93.57655169679992
 20
40.16165856660001
 30
0.0
  0
VERTEX
  5
1F9A
  8
3
 10
93.64623373229983
 20
39.78566410490001
 30
0.0
  0
VERTEX
  5
1F9B
  8
3
 10
93.43956056379989
 20
39.42247368369999
 30
0.0
  0
VERTEX
  5
1F9C
  8
3
 10
92.98444454769992
 20
39.12113818180001
 30
0.0
  0
VERTEX
  5
1F9D
  8
3
 10
92.342351624
 20
38.92235462849999
 30
0.0
  0
VERTEX
  5
1F9E
  8
3
 10
91.59999999999991
 20
38.85296984429999
 30
0.0
  0
SEQEND
  5
1FA0
  8
3
  0
LINE
  5
DD9
  8
3
 10
92.84999999999991
 20
40.2413137625
 30
0.0
 11
91.59999999999991
 21
40.6021576807
 31
0.0
  0
LINE
  5
DDA
  8
3
 10
90.34999999999991
 20
40.2413137625
 30
0.0
 11
91.59999999999991
 21
40.6021576807
 31
0.0
  0
LINE
  5
DDB
  8
3
 10
91.59999999999991
 20
36.82051341760001
 30
0.0
 11
91.59999999999991
 21
38.26388909049999
 31
0.0
  0
LINE
  5
DDC
  8
3
 10
90.34999999999991
 20
39.519625926
 30
0.0
 11
91.59999999999991
 21
39.1587820078
 31
0.0
  0
LINE
  5
DDD
  8
3
 10
90.34999999999991
 20
37.18135733579999
 30
0.0
 11
91.59999999999991
 21
36.82051341760001
 31
0.0
  0
LINE
  5
DDE
  8
3
 10
92.84999999999991
 20
39.519625926
 30
0.0
 11
91.59999999999991
 21
39.1587820078
 31
0.0
  0
LINE
  5
DDF
  8
3
 10
92.84999999999991
 20
37.18135733579999
 30
0.0
 11
91.59999999999991
 21
36.82051341760001
 31
0.0
  0
LINE
  5
DE2
  8
3
 10
101.5999999999999
 20
20.04907116050001
 30
0.0
 11
101.4136296694999
 21
19.35352761799999
 31
0.0
  0
LINE
  5
DE3
  8
3
 10
101.4136296694999
 20
-19.3535276181
 30
0.0
 11
101.5999999999999
 21
-20.04907116060002
 31
0.0
  0
ARC
  5
DE4
  8
3
 10
101.8
 20
-19.25
 30
0.0
 40
0.3999999999999199
 50
166.8750000000022
 51
194.9999999999978
  0
ARC
  5
DE5
  8
3
 10
101.8
 20
-19.25
 30
0.0
 40
0.4000000000000088
 50
120.0000000000058
 51
166.8750000000001
  0
ARC
  5
DE6
  8
3
 10
101.8
 20
19.25
 30
0.0
 40
0.4000000000000909
 50
165.0000000000046
 51
180.0
  0
ARC
  5
DE7
  8
3
 10
101.8
 20
19.25
 30
0.0
 40
0.4000000000000909
 50
180.0
 51
240.0000000000003
  0
LINE
  5
DE8
  8
3
 10
101.3999999999999
 20
19.25
 30
0.0
 11
101.3999999999999
 21
-19.25
 31
0.0
  0
LINE
  5
DE9
  8
3
 10
101.5999999999999
 20
2.5
 30
0.0
 11
92.19999999999982
 21
2.5
 31
0.0
  0
LINE
  5
DEA
  8
3
 10
92.19999999999982
 20
-2.5
 30
0.0
 11
101.5999999999999
 21
-2.5
 31
0.0
  0
LINE
  5
DEB
  8
3
 10
92.19999999999982
 20
2.5
 30
0.0
 11
91.944227404
 21
2.074322916200003
 31
0.0
  0
LINE
  5
DEC
  8
3
 10
91.944227404
 20
-2.074322916299991
 30
0.0
 11
92.19999999999982
 21
-2.5
 31
0.0
  0
LINE
  5
DF5
  8
SK3
 10
-5.25
 20
-10.84649999999999
 30
0.0
 11
-4.761656058700055
 21
-8.731249999999989
 31
0.0
  0
LINE
  5
DF6
  8
SK3
 10
-4.761656058700055
 20
8.731249999999989
 30
0.0
 11
-5.25
 21
10.84649999999999
 31
0.0
  0
LINE
  5
DFD
  8
3
 10
101.5999999999999
 20
8.731249999999989
 30
0.0
 11
0.0
 21
8.731249999999989
 31
0.0
  0
LINE
  5
DFE
  8
3
 10
0.0
 20
-8.731249999999989
 30
0.0
 11
101.5999999999999
 21
-8.731249999999989
 31
0.0
  0
LINE
  5
DFF
  8
3
 10
101.5999999999999
 20
-25.40525000000002
 30
0.0
 11
83.59999999999991
 21
-25.40525000000002
 31
0.0
  0
LINE
  5
E00
  8
3
 10
83.59999999999991
 20
-41.27475
 30
0.0
 11
101.5999999999999
 21
-41.27475
 31
0.0
  0
LINE
  5
E01
  8
3
 10
83.59999999999991
 20
-25.40525000000002
 30
0.0
 11
78.83232120319985
 21
-33.34
 31
0.0
  0
LINE
  5
E02
  8
3
 10
78.83232120319985
 20
-33.34
 30
0.0
 11
83.59999999999991
 21
-41.27475
 31
0.0
  0
LINE
  5
E03
  8
3
 10
83.59999999999991
 20
41.27474999999998
 30
0.0
 11
78.83232120319985
 21
33.34
 31
0.0
  0
LINE
  5
E04
  8
3
 10
78.83232120319985
 20
33.34
 30
0.0
 11
83.59999999999991
 21
25.40525
 31
0.0
  0
LINE
  5
E05
  8
3
 10
101.5999999999999
 20
41.27474999999998
 30
0.0
 11
83.59999999999991
 21
41.27474999999998
 31
0.0
  0
LINE
  5
E06
  8
3
 10
83.59999999999991
 20
25.40525
 30
0.0
 11
101.5999999999999
 21
25.40525
 31
0.0
  0
LINE
  5
E0D
  8
3
 10
89.5
 20
38.5597811035
 30
0.0
 11
89.5
 21
7.559329003500011
 31
0.0
  0
LINE
  5
E0E
  8
3
 10
93.69999999999982
 20
14.28505278829999
 30
0.0
 11
93.69999999999982
 21
38.5597811035
 31
0.0
  0
LINE
  5
E0F
  8
3
 10
93.69999999999982
 20
7.556344272300009
 30
0.0
 11
93.69999999999982
 21
9.963658517699997
 31
0.0
  0
LINE
  5
E10
  8
3
 10
93.69999999999982
 20
-9.963658517699997
 30
0.0
 11
93.69999999999982
 21
-7.556344272300009
 31
0.0
  0
LINE
  5
E11
  8
3
 10
93.69999999999982
 20
-38.5597811035
 30
0.0
 11
93.69999999999982
 21
-14.28505278829999
 31
0.0
  0
LINE
  5
E12
  8
3
 10
89.5
 20
-7.559329003500011
 30
0.0
 11
89.5
 21
-38.5597811035
 31
0.0
  0
LINE
  5
E13
  8
3
 10
101.5999999999999
 20
14.62435565300001
 30
0.0
 11
93.26751268579983
 21
14.62435565300001
 31
0.0
  0
LINE
  5
E14
  8
3
 10
93.26751268579983
 20
9.62435565300001
 30
0.0
 11
101.5999999999999
 21
9.62435565300001
 31
0.0
  0
LINE
  5
E15
  8
3
 10
101.5999999999999
 20
-9.62435565300001
 30
0.0
 11
93.26194408409992
 21
-9.62435565300001
 31
0.0
  0
LINE
  5
E16
  8
3
 10
93.26194408409992
 20
-14.62435565300001
 30
0.0
 11
101.5999999999999
 21
-14.62435565300001
 31
0.0
  0
LINE
  5
E17
  8
3
 10
89.45669647509999
 20
38.25667221219999
 30
0.0
 11
89.88535718009985
 21
37.95356332079999
 31
0.0
  0
LINE
  5
E18
  8
3
 10
93.31464282000002
 20
37.95356332079999
 30
0.0
 11
93.74330352499987
 21
38.25667221219999
 31
0.0
  0
LINE
  5
E19
  8
3
 10
88.97499999999991
 20
39.878833853
 30
0.0
 11
88.97499999999991
 21
39.0144444405
 31
0.0
  0
LINE
  5
E1A
  8
3
 10
94.22499999999991
 20
39.0144444405
 30
0.0
 11
94.22499999999991
 21
39.8803022223
 31
0.0
  0
LINE
  5
E1B
  8
3
 10
93.74330352499987
 20
-38.25667221219999
 30
0.0
 11
93.31464282000002
 21
-37.9535633209
 31
0.0
  0
LINE
  5
E1C
  8
3
 10
89.88535718009985
 20
-37.9535633209
 30
0.0
 11
89.45669647509999
 21
-38.25667221219999
 31
0.0
  0
LINE
  5
E1D
  8
3
 10
94.22499999999991
 20
-39.8803022223
 30
0.0
 11
94.22499999999991
 21
-39.0144444405
 31
0.0
  0
LINE
  5
E1E
  8
3
 10
88.97499999999991
 20
-39.0144444405
 30
0.0
 11
88.97499999999991
 21
-39.878833853
 31
0.0
  0
LINE
  5
E1F
  8
3
 10
101.5999999999999
 20
9.525000000000006
 30
0.0
 11
96.18598999999995
 21
9.525000000000006
 31
0.0
  0
LINE
  5
E20
  8
3
 10
96.18598999999995
 20
-9.525000000000006
 30
0.0
 11
101.5999999999999
 21
-9.525000000000006
 31
0.0
  0
LINE
  5
E21
  8
3
 10
96.18598999999995
 20
9.525000000000006
 30
0.0
 11
95.25
 21
8.589010000000002
 31
0.0
  0
LINE
  5
E22
  8
3
 10
95.25
 20
-8.589010000000002
 30
0.0
 11
96.18598999999995
 21
-9.525000000000006
 31
0.0
  0
LINE
  5
E27
  8
3
 10
101.5999999999999
 20
-25.39868999999999
 30
0.0
 11
87.11016030499991
 21
-25.39868999999999
 31
0.0
  0
LINE
  5
E28
  8
3
 10
87.11016030499991
 20
-41.28131
 30
0.0
 11
101.5999999999999
 21
-41.28131
 31
0.0
  0
ARC
  5
E29
  8
3
 10
87.04719999999998
 20
-25.20549
 30
0.0
 40
0.2031999999999954
 50
270.0
 51
288.0498306933255
  0
ARC
  5
E2A
  8
3
 10
87.04719999999998
 20
-41.47451000000001
 30
0.0
 40
0.2032000000000238
 50
71.95016930667691
 51
90.0
  0
LINE
  5
E2B
  8
3
 10
87.04719999999998
 20
-25.40869000000001
 30
0.0
 11
86.47203951069991
 21
-25.40869000000001
 31
0.0
  0
LINE
  5
E2C
  8
3
 10
86.47203951069991
 20
-41.27131
 30
0.0
 11
87.04719999999998
 21
-41.27131
 31
0.0
  0
LINE
  5
E2D
  8
3
 10
86.47203951069991
 20
-25.40869000000001
 30
0.0
 11
85.54719999999998
 21
-25.65649999999999
 31
0.0
  0
LINE
  5
E2E
  8
3
 10
85.54719999999998
 20
-41.0235
 30
0.0
 11
86.47203951069991
 21
-41.27131
 31
0.0
  0
LINE
  5
E2F
  8
3
 10
101.5999999999999
 20
41.28130999999999
 30
0.0
 11
87.11016030499991
 21
41.28130999999999
 31
0.0
  0
LINE
  5
E30
  8
3
 10
87.11016030499991
 20
25.39868999999999
 30
0.0
 11
101.5999999999999
 21
25.39868999999999
 31
0.0
  0
ARC
  5
E31
  8
3
 10
87.04719999999998
 20
41.47451000000001
 30
0.0
 40
0.2032000000000025
 50
270.0
 51
288.0498306933255
  0
ARC
  5
E32
  8
3
 10
87.04719999999998
 20
25.20549
 30
0.0
 40
0.2032000000000025
 50
71.95016930667444
 51
90.0
  0
LINE
  5
E33
  8
3
 10
86.47203951069991
 20
41.27131
 30
0.0
 11
85.54719999999998
 21
41.02350000000001
 31
0.0
  0
LINE
  5
E34
  8
3
 10
85.54719999999998
 20
25.65649999999999
 30
0.0
 11
86.47203951069991
 21
25.40869000000001
 31
0.0
  0
LINE
  5
E35
  8
3
 10
87.04719999999998
 20
41.27131
 30
0.0
 11
86.47203951069991
 21
41.27131
 31
0.0
  0
LINE
  5
E36
  8
3
 10
86.47203951069991
 20
25.40869000000001
 30
0.0
 11
87.04719999999998
 21
25.40869000000001
 31
0.0
  0
LINE
  5
E37
  8
3
 10
93.49160436399984
 20
-34.50633923800001
 30
0.0
 11
93.02886901659986
 21
-34.17913593600002
 31
0.0
  0
LINE
  5
E38
  8
3
 10
90.17113098339996
 20
-34.17913593600002
 30
0.0
 11
89.70839563610002
 21
-34.50633923800001
 31
0.0
  0
LINE
  5
E39
  8
3
 10
93.01450320409981
 20
-34.57300630949999
 30
0.0
 11
92.76272163369981
 21
-34.48661992889998
 31
0.0
  0
LINE
  5
E3A
  8
3
 10
90.4372783663
 20
-34.48661992889998
 30
0.0
 11
90.18549679599982
 21
-34.57300630949999
 31
0.0
  0
LINE
  5
E3B
  8
3
 10
90.2891896445999
 20
-36.130243678
 30
0.0
 11
90.4372783663
 21
-36.1810529912
 31
0.0
  0
LINE
  5
E3C
  8
3
 10
92.76272163369981
 20
-36.1810529912
 30
0.0
 11
92.91081035539992
 21
-36.130243678
 31
0.0
  0
LINE
  5
E3D
  8
3
 10
94.09999999999991
 20
-35.681722906
 30
0.0
 11
94.09999999999991
 21
-35.6036833547
 31
0.0
  0
LINE
  5
E3E
  8
3
 10
89.09999999999991
 20
-35.6036833547
 30
0.0
 11
89.09999999999991
 21
-35.681722906
 31
0.0
  0
LINE
  5
E3F
  8
3
 10
90.18549679599982
 20
-36.71239995119998
 30
0.0
 11
90.4372783663
 21
-36.79878633179999
 31
0.0
  0
LINE
  5
E40
  8
3
 10
92.76272163369981
 20
-36.79878633179999
 30
0.0
 11
93.01450320409981
 21
-36.71239995119998
 31
0.0
  0
LINE
  5
E41
  8
3
 10
93.01450320409981
 20
-35.1907396501
 30
0.0
 11
92.76272163369981
 21
-35.1043532695
 31
0.0
  0
LINE
  5
E42
  8
3
 10
90.4372783663
 20
-35.1043532695
 30
0.0
 11
90.18549679599982
 21
-35.1907396501
 31
0.0
  0
LINE
  5
E43
  8
3
 10
94.09999999999991
 20
-36.29945624660002
 30
0.0
 11
94.09999999999991
 21
-36.22141669530001
 31
0.0
  0
LINE
  5
E44
  8
3
 10
89.09999999999991
 20
-36.22141669530001
 30
0.0
 11
89.09999999999991
 21
-36.29945624660002
 31
0.0
  0
LINE
  5
E45
  8
3
 10
90.18549679599982
 20
-37.3301332918
 30
0.0
 11
90.4372783663
 21
-37.4165196724
 31
0.0
  0
LINE
  5
E46
  8
3
 10
92.76272163369981
 20
-37.4165196724
 30
0.0
 11
93.01450320409981
 21
-37.3301332918
 31
0.0
  0
LINE
  5
E47
  8
3
 10
93.01450320409981
 20
-35.80847299070001
 30
0.0
 11
92.76272163369981
 21
-35.72208661010001
 31
0.0
  0
LINE
  5
E48
  8
3
 10
90.4372783663
 20
-35.72208661010001
 30
0.0
 11
90.18549679599982
 21
-35.80847299070001
 31
0.0
  0
LINE
  5
E49
  8
3
 10
94.09999999999991
 20
-36.9171895872
 30
0.0
 11
94.09999999999991
 21
-36.83915003589999
 31
0.0
  0
LINE
  5
E4A
  8
3
 10
89.09999999999991
 20
-36.83915003589999
 30
0.0
 11
89.09999999999991
 21
-36.9171895872
 31
0.0
  0
LINE
  5
E4B
  8
3
 10
90.18549679599982
 20
-37.94786663240001
 30
0.0
 11
90.4372783663
 21
-38.03425301300001
 31
0.0
  0
LINE
  5
E4C
  8
3
 10
92.76272163369981
 20
-38.03425301300001
 30
0.0
 11
93.01450320409981
 21
-37.94786663240001
 31
0.0
  0
LINE
  5
E4D
  8
3
 10
93.01450320409981
 20
-36.42620633130002
 30
0.0
 11
92.76272163379986
 21
-36.33981995070002
 31
0.0
  0
LINE
  5
E4E
  8
3
 10
90.4372783663
 20
-36.33981995070002
 30
0.0
 11
90.18549679599982
 21
-36.42620633130002
 31
0.0
  0
LINE
  5
E4F
  8
3
 10
94.09999999999991
 20
-37.53492292779998
 30
0.0
 11
94.09999999999991
 21
-37.4568833765
 31
0.0
  0
LINE
  5
E50
  8
3
 10
89.09999999999991
 20
-37.4568833765
 30
0.0
 11
89.09999999999991
 21
-37.53492292779998
 31
0.0
  0
LINE
  5
E51
  8
3
 10
90.18549679599982
 20
-38.56559997300002
 30
0.0
 11
90.4372783663
 21
-38.65198635360001
 31
0.0
  0
LINE
  5
E52
  8
3
 10
92.76272163379986
 20
-38.65198635360001
 30
0.0
 11
93.01450320409981
 21
-38.56559997300002
 31
0.0
  0
LINE
  5
E53
  8
3
 10
93.01450320409981
 20
-37.04393967190001
 30
0.0
 11
92.76272163379986
 21
-36.9575532913
 31
0.0
  0
LINE
  5
E54
  8
3
 10
90.4372783663
 20
-36.9575532913
 30
0.0
 11
90.18549679599982
 21
-37.04393967190001
 31
0.0
  0
LINE
  5
E55
  8
3
 10
94.09999999999991
 20
-38.15265626849998
 30
0.0
 11
94.09999999999991
 21
-38.07461671710001
 31
0.0
  0
LINE
  5
E56
  8
3
 10
89.09999999999991
 20
-38.07461671710001
 30
0.0
 11
89.09999999999991
 21
-38.15265626849998
 31
0.0
  0
LINE
  5
E57
  8
3
 10
90.18549679599982
 20
-39.1833333136
 30
0.0
 11
90.4372783663
 21
-39.26971969420001
 31
0.0
  0
LINE
  5
E58
  8
3
 10
92.76272163379986
 20
-39.26971969420001
 30
0.0
 11
93.01450320409981
 21
-39.1833333136
 31
0.0
  0
LINE
  5
E59
  8
3
 10
93.01450320409981
 20
-37.66167301249999
 30
0.0
 11
92.76272163379986
 21
-37.57528663189998
 31
0.0
  0
LINE
  5
E5A
  8
3
 10
90.4372783663
 20
-37.57528663189998
 30
0.0
 11
90.18549679599982
 21
-37.66167301249999
 31
0.0
  0
LINE
  5
E5B
  8
3
 10
94.09999999999991
 20
-38.77038960910001
 30
0.0
 11
94.09999999999991
 21
-38.6923500577
 31
0.0
  0
LINE
  5
E5C
  8
3
 10
89.09999999999991
 20
-38.6923500577
 30
0.0
 11
89.09999999999991
 21
-38.77038960910001
 31
0.0
  0
LINE
  5
E5D
  8
3
 10
90.18549679599982
 20
-39.8010666542
 30
0.0
 11
90.4372783663
 21
-39.8874530348
 31
0.0
  0
LINE
  5
E5E
  8
3
 10
92.76272163379986
 20
-39.8874530348
 30
0.0
 11
93.01450320409981
 21
-39.8010666542
 31
0.0
  0
LINE
  5
E5F
  8
3
 10
93.01450320409981
 20
-38.2794063531
 30
0.0
 11
92.76272163379986
 21
-38.19301997259998
 31
0.0
  0
LINE
  5
E60
  8
3
 10
90.4372783663
 20
-38.19301997259998
 30
0.0
 11
90.18549679599982
 21
-38.2794063531
 31
0.0
  0
LINE
  5
E61
  8
3
 10
94.09999999999991
 20
-39.3881229497
 30
0.0
 11
94.09999999999991
 21
-39.31008339830001
 31
0.0
  0
LINE
  5
E62
  8
3
 10
89.09999999999991
 20
-39.31008339830001
 30
0.0
 11
89.09999999999991
 21
-39.3881229497
 31
0.0
  0
LINE
  5
E63
  8
3
 10
90.18549679599982
 20
-40.4187999948
 30
0.0
 11
90.4372783663
 21
-40.5051863754
 31
0.0
  0
LINE
  5
E64
  8
3
 10
92.76272163379986
 20
-40.5051863754
 30
0.0
 11
93.01450320409981
 21
-40.4187999948
 31
0.0
  0
LINE
  5
E65
  8
3
 10
92.87650604069995
 20
-38.8497927991
 30
0.0
 11
92.76272163379986
 21
-38.8107533132
 31
0.0
  0
LINE
  5
E66
  8
3
 10
90.4372783663
 20
-38.8107533132
 30
0.0
 11
90.32349395939991
 21
-38.8497927991
 31
0.0
  0
LINE
  5
E67
  8
3
 10
89.70839563610002
 20
34.50633923800001
 30
0.0
 11
90.17113098339996
 21
34.17913593599999
 31
0.0
  0
LINE
  5
E68
  8
3
 10
93.02886901659986
 20
34.17913593599999
 30
0.0
 11
93.49160436399984
 21
34.50633923800001
 31
0.0
  0
LINE
  5
E69
  8
3
 10
90.18549679599982
 20
34.57300630949999
 30
0.0
 11
90.4372783663
 21
34.48661992889998
 31
0.0
  0
LINE
  5
E6A
  8
3
 10
92.76272163369981
 20
34.48661992889998
 30
0.0
 11
93.01450320409981
 21
34.57300630949999
 31
0.0
  0
LINE
  5
E6B
  8
3
 10
92.91081035539992
 20
36.13024367790001
 30
0.0
 11
92.76272163369981
 21
36.1810529912
 31
0.0
  0
LINE
  5
E6C
  8
3
 10
90.4372783663
 20
36.1810529912
 30
0.0
 11
90.2891896445999
 21
36.13024367790001
 31
0.0
  0
LINE
  5
E6D
  8
3
 10
89.09999999999991
 20
35.681722906
 30
0.0
 11
89.09999999999991
 21
35.6036833547
 31
0.0
  0
LINE
  5
E6E
  8
3
 10
94.09999999999991
 20
35.6036833547
 30
0.0
 11
94.09999999999991
 21
35.681722906
 31
0.0
  0
LINE
  5
E6F
  8
3
 10
93.01450320409981
 20
36.71239995119998
 30
0.0
 11
92.76272163369981
 21
36.79878633179999
 31
0.0
  0
LINE
  5
E70
  8
3
 10
90.4372783663
 20
36.79878633179999
 30
0.0
 11
90.18549679599982
 21
36.71239995119998
 31
0.0
  0
LINE
  5
E71
  8
3
 10
90.18549679599982
 20
35.1907396501
 30
0.0
 11
90.4372783663
 21
35.1043532695
 31
0.0
  0
LINE
  5
E72
  8
3
 10
92.76272163369981
 20
35.1043532695
 30
0.0
 11
93.01450320409981
 21
35.1907396501
 31
0.0
  0
LINE
  5
E73
  8
3
 10
89.09999999999991
 20
36.29945624659999
 30
0.0
 11
89.09999999999991
 21
36.22141669530001
 31
0.0
  0
LINE
  5
E74
  8
3
 10
94.09999999999991
 20
36.22141669530001
 30
0.0
 11
94.09999999999991
 21
36.29945624659999
 31
0.0
  0
LINE
  5
E75
  8
3
 10
93.01450320409981
 20
37.3301332918
 30
0.0
 11
92.76272163369981
 21
37.4165196724
 31
0.0
  0
LINE
  5
E76
  8
3
 10
90.4372783663
 20
37.4165196724
 30
0.0
 11
90.18549679599982
 21
37.3301332918
 31
0.0
  0
LINE
  5
E77
  8
3
 10
90.18549679599982
 20
35.80847299070001
 30
0.0
 11
90.4372783663
 21
35.72208661010001
 31
0.0
  0
LINE
  5
E78
  8
3
 10
92.76272163369981
 20
35.72208661010001
 30
0.0
 11
93.01450320409981
 21
35.80847299070001
 31
0.0
  0
LINE
  5
E79
  8
3
 10
89.09999999999991
 20
36.9171895872
 30
0.0
 11
89.09999999999991
 21
36.83915003589999
 31
0.0
  0
LINE
  5
E7A
  8
3
 10
94.09999999999991
 20
36.83915003589999
 30
0.0
 11
94.09999999999991
 21
36.9171895872
 31
0.0
  0
LINE
  5
E7B
  8
3
 10
93.01450320409981
 20
37.94786663240001
 30
0.0
 11
92.76272163369981
 21
38.03425301300001
 31
0.0
  0
LINE
  5
E7C
  8
3
 10
90.4372783663
 20
38.03425301300001
 30
0.0
 11
90.18549679599982
 21
37.94786663240001
 31
0.0
  0
LINE
  5
E7D
  8
3
 10
90.18549679599982
 20
36.42620633129999
 30
0.0
 11
90.4372783663
 21
36.33981995069999
 31
0.0
  0
LINE
  5
E7E
  8
3
 10
92.76272163379986
 20
36.33981995069999
 30
0.0
 11
93.01450320409981
 21
36.42620633129999
 31
0.0
  0
LINE
  5
E7F
  8
3
 10
89.09999999999991
 20
37.53492292779998
 30
0.0
 11
89.09999999999991
 21
37.4568833765
 31
0.0
  0
LINE
  5
E80
  8
3
 10
94.09999999999991
 20
37.4568833765
 30
0.0
 11
94.09999999999991
 21
37.53492292779998
 31
0.0
  0
LINE
  5
E81
  8
3
 10
93.01450320409981
 20
38.56559997299999
 30
0.0
 11
92.76272163379986
 21
38.65198635359999
 31
0.0
  0
LINE
  5
E82
  8
3
 10
90.4372783663
 20
38.65198635359999
 30
0.0
 11
90.18549679599982
 21
38.56559997299999
 31
0.0
  0
LINE
  5
E83
  8
3
 10
90.18549679599982
 20
37.04393967190001
 30
0.0
 11
90.4372783663
 21
36.9575532913
 31
0.0
  0
LINE
  5
E84
  8
3
 10
92.76272163379986
 20
36.9575532913
 30
0.0
 11
93.01450320409981
 21
37.04393967190001
 31
0.0
  0
LINE
  5
E85
  8
3
 10
89.09999999999991
 20
38.15265626839999
 30
0.0
 11
89.09999999999991
 21
38.07461671709999
 31
0.0
  0
LINE
  5
E86
  8
3
 10
94.09999999999991
 20
38.07461671709999
 30
0.0
 11
94.09999999999991
 21
38.15265626839999
 31
0.0
  0
LINE
  5
E87
  8
3
 10
93.01450320409981
 20
39.1833333136
 30
0.0
 11
92.76272163379986
 21
39.26971969420001
 31
0.0
  0
LINE
  5
E88
  8
3
 10
90.4372783663
 20
39.26971969420001
 30
0.0
 11
90.18549679599982
 21
39.1833333136
 31
0.0
  0
LINE
  5
E89
  8
3
 10
90.18549679599982
 20
37.66167301249999
 30
0.0
 11
90.4372783663
 21
37.57528663189998
 31
0.0
  0
LINE
  5
E8A
  8
3
 10
92.76272163379986
 20
37.57528663189998
 30
0.0
 11
93.01450320409981
 21
37.66167301249999
 31
0.0
  0
LINE
  5
E8B
  8
3
 10
89.09999999999991
 20
38.77038960900001
 30
0.0
 11
89.09999999999991
 21
38.6923500577
 31
0.0
  0
LINE
  5
E8C
  8
3
 10
94.09999999999991
 20
38.6923500577
 30
0.0
 11
94.09999999999991
 21
38.77038960900001
 31
0.0
  0
LINE
  5
E8D
  8
3
 10
93.01450320409981
 20
39.80106665419999
 30
0.0
 11
92.76272163379986
 21
39.88745303479999
 31
0.0
  0
LINE
  5
E8E
  8
3
 10
90.4372783663
 20
39.88745303479999
 30
0.0
 11
90.18549679599982
 21
39.80106665419999
 31
0.0
  0
LINE
  5
E8F
  8
3
 10
90.18549679599982
 20
38.2794063531
 30
0.0
 11
90.4372783663
 21
38.1930199725
 31
0.0
  0
LINE
  5
E90
  8
3
 10
92.76272163379986
 20
38.1930199725
 30
0.0
 11
93.01450320409981
 21
38.2794063531
 31
0.0
  0
LINE
  5
E91
  8
3
 10
89.09999999999991
 20
39.38812294959999
 30
0.0
 11
89.09999999999991
 21
39.31008339830001
 31
0.0
  0
LINE
  5
E92
  8
3
 10
94.09999999999991
 20
39.31008339830001
 30
0.0
 11
94.09999999999991
 21
39.38812294959999
 31
0.0
  0
LINE
  5
E93
  8
3
 10
93.01450320409981
 20
40.4187999948
 30
0.0
 11
92.76272163379986
 21
40.5051863754
 31
0.0
  0
LINE
  5
E94
  8
3
 10
90.4372783663
 20
40.5051863754
 30
0.0
 11
90.18549679599982
 21
40.4187999948
 31
0.0
  0
LINE
  5
E95
  8
3
 10
90.32349395939991
 20
38.84979279909999
 30
0.0
 11
90.4372783663
 21
38.81075331310001
 31
0.0
  0
LINE
  5
E96
  8
3
 10
92.76272163379986
 20
38.81075331310001
 30
0.0
 11
92.87650604069995
 21
38.84979279909999
 31
0.0
  0
ARC
  5
EAF
  8
1
 10
101.8
 20
-19.25
 30
0.0
 40
0.4000000000000538
 50
75.00000000000851
 51
120.0000000000038
  0
ARC
  5
EB0
  8
1
 10
101.8
 20
19.25
 30
0.0
 40
0.40000000000004
 50
239.9999999999963
 51
284.9999999999936
  0
ARC
  5
EB1
  8
1
 10
123.1999999999998
 20
-17.05000000000001
 30
0.0
 40
2.0
 50
270.0
 51
0.0
  0
ARC
  5
EB2
  8
1
 10
123.1999999999998
 20
17.05000000000001
 30
0.0
 40
2.0
 50
0.0
 51
90.0
  0
LINE
  5
EB3
  8
1
 10
102.5990711606
 20
19.05000000000001
 30
0.0
 11
101.9035276180998
 21
18.86362966949997
 31
0.0
  0
LINE
  5
EB4
  8
1
 10
101.9035276180998
 20
-18.86362966949997
 30
0.0
 11
102.5990711606
 21
-19.05000000000001
 31
0.0
  0
LINE
  5
EB5
  8
1
 10
102.5990711606
 20
-19.05000000000001
 30
0.0
 11
123.1999999999998
 21
-19.05000000000001
 31
0.0
  0
LINE
  5
EB6
  8
1
 10
123.1999999999998
 20
19.05000000000001
 30
0.0
 11
102.5990711606
 21
19.05000000000001
 31
0.0
  0
LINE
  5
EB7
  8
1
 10
138.9379999999999
 20
23.8125
 30
0.0
 11
127.7619999999999
 21
23.8125
 31
0.0
  0
LINE
  5
EB8
  8
1
 10
127.7619999999999
 20
-23.8125
 30
0.0
 11
138.9379999999999
 21
-23.8125
 31
0.0
  0
LINE
  5
EB9
  8
1
 10
138.9379999999999
 20
-23.8125
 30
0.0
 11
139.6999999999998
 21
-23.0505
 31
0.0
  0
LINE
  5
EBA
  8
1
 10
139.6999999999998
 20
23.0505
 30
0.0
 11
138.9379999999999
 21
23.8125
 31
0.0
  0
LINE
  5
EBB
  8
1
 10
127.7619999999999
 20
23.8125
 30
0.0
 11
127.0
 21
23.0505
 31
0.0
  0
LINE
  5
EBC
  8
1
 10
127.0
 20
-23.0505
 30
0.0
 11
127.7619999999999
 21
-23.8125
 31
0.0
  0
ARC
  5
EBD
  8
1
 10
126.2125999999998
 20
10.31239999999997
 30
0.0
 40
0.7873999999999981
 50
270.0
 51
0.0
  0
ARC
  5
EBE
  8
1
 10
126.2125999999998
 20
-10.31239999999997
 30
0.0
 40
0.787399999999991
 50
0.0
 51
90.0
  0
LINE
  5
EBF
  8
1
 10
126.2125999999998
 20
9.524999999999977
 30
0.0
 11
125.1999999999998
 21
9.524999999999977
 31
0.0
  0
LINE
  5
EC0
  8
1
 10
125.1999999999998
 20
-9.525000000000034
 30
0.0
 11
126.2125999999998
 21
-9.525000000000034
 31
0.0
  0
LINE
  5
EC1
  8
1
 10
101.6285674554999
 20
-25.39868999999999
 30
0.0
 11
101.5999999999999
 21
-25.39868999999999
 31
0.0
  0
LINE
  5
EEC
  8
1
 10
125.1999999999998
 20
0.0
 30
0.0
 11
125.1999999999998
 21
17.05000000000001
 31
0.0
  0
LINE
  5
EED
  8
1
 10
125.1999999999998
 20
-17.05000000000001
 30
0.0
 11
125.1999999999998
 21
0.0
 31
0.0
  0
LINE
  5
EEE
  8
1
 10
102.5990711606
 20
0.0
 30
0.0
 11
102.5990711606
 21
19.05000000000001
 31
0.0
  0
LINE
  5
EEF
  8
1
 10
102.5990711606
 20
-19.05000000000001
 30
0.0
 11
102.5990711606
 21
0.0
 31
0.0
  0
LINE
  5
EF0
  8
1
 10
138.9379999999999
 20
0.0
 30
0.0
 11
138.9379999999999
 21
-23.8125
 31
0.0
  0
LINE
  5
EF1
  8
1
 10
138.9379999999999
 20
23.8125
 30
0.0
 11
138.9379999999999
 21
0.0
 31
0.0
  0
LINE
  5
EF2
  8
1
 10
127.7619999999999
 20
0.0
 30
0.0
 11
127.7619999999999
 21
-23.8125
 31
0.0
  0
LINE
  5
EF3
  8
1
 10
127.7619999999999
 20
23.8125
 30
0.0
 11
127.7619999999999
 21
0.0
 31
0.0
  0
LINE
  5
EF4
  8
1
 10
139.6999999999998
 20
0.0
 30
0.0
 11
139.6999999999998
 21
-23.0505
 31
0.0
  0
LINE
  5
EF5
  8
1
 10
139.6999999999998
 20
23.0505
 30
0.0
 11
139.6999999999998
 21
0.0
 31
0.0
  0
LINE
  5
EF6
  8
1
 10
127.0
 20
0.0
 30
0.0
 11
127.0
 21
-23.0505
 31
0.0
  0
LINE
  5
EF7
  8
1
 10
127.0
 20
23.0505
 30
0.0
 11
127.0
 21
0.0
 31
0.0
  0
LINE
  5
EF8
  8
1
 10
109.6771999999999
 20
-25.40249999999997
 30
0.0
 11
101.5999999999999
 21
-25.40249999999997
 31
0.0
  0
LINE
  5
EF9
  8
1
 10
109.6771999999999
 20
-25.40249999999997
 30
0.0
 11
109.6771999999999
 21
-41.27749999999997
 31
0.0
  0
LINE
  5
EFA
  8
1
 10
109.6771999999999
 20
-41.27749999999997
 30
0.0
 11
101.5999999999999
 21
-41.27749999999997
 31
0.0
  0
LINE
  5
EFB
  8
1
 10
109.6771999999999
 20
41.27749999999997
 30
0.0
 11
101.5999999999999
 21
41.27749999999997
 31
0.0
  0
LINE
  5
EFC
  8
1
 10
109.6771999999999
 20
41.27749999999997
 30
0.0
 11
109.6771999999999
 21
25.40249999999997
 31
0.0
  0
LINE
  5
EFD
  8
1
 10
109.6771999999999
 20
25.40249999999997
 30
0.0
 11
101.5999999999999
 21
25.40249999999997
 31
0.0
  0
LINE
  5
F21
  8
SK3
 10
124.3339746741999
 20
-10.0
 30
0.0
 11
124.3339746741999
 21
10.0
 31
0.0
  0
LINE
  5
F22
  8
SK3
 10
122.1999999999998
 20
10.0
 30
0.0
 11
122.1999999999998
 21
-10.0
 31
0.0
  0
LINE
  5
F23
  8
SK3
 10
122.1364352121
 20
8.731249999999989
 30
0.0
 11
122.1364352121
 21
-8.731249999999989
 31
0.0
  0
LINE
  5
F40
  8
SK3
 10
130.175
 20
0.0
 30
0.0
 11
130.175
 21
-2.400300000000016
 31
0.0
  0
LINE
  5
F41
  8
SK3
 10
130.175
 20
2.400300000000016
 30
0.0
 11
130.175
 21
0.0
 31
0.0
  0
LINE
  5
F42
  8
SK3
 10
130.175
 20
0.0
 30
0.0
 11
139.6999999999998
 21
0.0
 31
0.0
  0
LINE
  5
F43
  8
SK3
 10
129.54
 20
0.0
 30
0.0
 11
129.54
 21
-4.800599999999974
 31
0.0
  0
LINE
  5
F44
  8
SK3
 10
129.54
 20
4.800599999999974
 30
0.0
 11
129.54
 21
0.0
 31
0.0
  0
LINE
  5
F45
  8
SK3
 10
130.175
 20
4.800599999999974
 30
0.0
 11
130.175
 21
2.400300000000016
 31
0.0
  0
LINE
  5
F46
  8
SK3
 10
130.175
 20
-2.400300000000016
 30
0.0
 11
130.175
 21
-4.800599999999974
 31
0.0
  0
LINE
  5
F47
  8
SK3
 10
130.175
 20
4.800599999999974
 30
0.0
 11
139.6999999999998
 21
4.800599999999974
 31
0.0
  0
LINE
  5
F48
  8
SK3
 10
130.175
 20
-4.800599999999974
 30
0.0
 11
139.6999999999998
 21
-4.800599999999974
 31
0.0
  0
LINE
  5
FAA
  8
SK3
 10
125.1999999999998
 20
2.5
 30
0.0
 11
101.5999999999999
 21
2.5
 31
0.0
  0
LINE
  5
FAB
  8
SK3
 10
101.5999999999999
 20
-2.5
 30
0.0
 11
125.1999999999998
 21
-2.5
 31
0.0
  0
LINE
  5
FB8
  8
SK3
 10
125.1999999999998
 20
10.49999995500002
 30
0.0
 11
124.3339746741999
 21
10.0
 31
0.0
  0
LINE
  5
FB9
  8
SK3
 10
124.3339746741999
 20
-10.0
 30
0.0
 11
125.1999999999998
 21
-10.49999995500002
 31
0.0
  0
LINE
  5
FBA
  8
SK3
 10
124.3339746741999
 20
10.0
 30
0.0
 11
122.1999999999998
 21
10.0
 31
0.0
  0
LINE
  5
FBB
  8
SK3
 10
122.1999999999998
 20
-10.0
 30
0.0
 11
124.3339746741999
 21
-10.0
 31
0.0
  0
LINE
  5
FBC
  8
SK3
 10
122.1999999999998
 20
8.767949147399975
 30
0.0
 11
122.1364352121
 21
8.731249999999989
 31
0.0
  0
LINE
  5
FBD
  8
SK3
 10
122.1364352121
 20
-8.731249999999989
 30
0.0
 11
122.1999999999998
 21
-8.767949147399975
 31
0.0
  0
LINE
  5
FBE
  8
3
 10
122.1364352121
 20
8.731249999999989
 30
0.0
 11
101.5999999999999
 21
8.731249999999989
 31
0.0
  0
LINE
  5
FBF
  8
3
 10
101.5999999999999
 20
-8.731249999999989
 30
0.0
 11
122.1364352121
 21
-8.731249999999989
 31
0.0
  0
LINE
  5
FD4
  8
SK3
 10
125.1999999999998
 20
14.62435565300001
 30
0.0
 11
101.5999999999999
 21
14.62435565300001
 31
0.0
  0
LINE
  5
FD5
  8
SK3
 10
101.5999999999999
 20
9.62435565300001
 30
0.0
 11
125.1999999999998
 21
9.62435565300001
 31
0.0
  0
LINE
  5
FD6
  8
SK3
 10
125.1999999999998
 20
-9.62435565300001
 30
0.0
 11
101.5999999999999
 21
-9.62435565300001
 31
0.0
  0
LINE
  5
FD7
  8
SK3
 10
101.5999999999999
 20
-14.62435565300001
 30
0.0
 11
125.1999999999998
 21
-14.62435565300001
 31
0.0
  0
LINE
  5
FE0
  8
SK3
 10
125.1999999999998
 20
9.524999999999977
 30
0.0
 11
101.5999999999999
 21
9.524999999999977
 31
0.0
  0
LINE
  5
FE1
  8
SK3
 10
101.5999999999999
 20
-9.525000000000034
 30
0.0
 11
125.1999999999998
 21
-9.525000000000034
 31
0.0
  0
LINE
  5
FE4
  8
SK3
 10
130.175
 20
4.800599999999974
 30
0.0
 11
129.54
 21
4.800599999999974
 31
0.0
  0
LINE
  5
FE5
  8
SK3
 10
129.54
 20
-4.800599999999974
 30
0.0
 11
130.175
 21
-4.800599999999974
 31
0.0
  0
LINE
  5
FE6
  8
SK3
 10
129.54
 20
4.800599999999974
 30
0.0
 11
126.6555085123
 21
0.0
 31
0.0
  0
LINE
  5
FE7
  8
SK3
 10
126.6555085123
 20
0.0
 30
0.0
 11
129.54
 21
-4.800599999999974
 31
0.0
  0
LINE
  5
105D
  8
SK3
 10
-4.761656058700055
 20
8.731249999999989
 30
0.0
 11
0.0
 21
8.731249999999989
 31
0.0
  0
LINE
  5
105E
  8
SK3
 10
-4.761656058700055
 20
-8.731249999999989
 30
0.0
 11
0.0
 21
-8.731249999999989
 31
0.0
  0
LINE
  5
1AD4
  8
SK4
 10
101.5999999999999
 20
0.0
 30
0.0
 11
139.6999999999998
 21
0.0
 31
0.0
  0
DIMENSION
  5
1AD6
  8
SK2
  2
*D10
 10
157.1883117379489
 20
-19.05000000000001
 30
0.0
 11
155.3133117379489
 21
-0.0000000000000036
 31
0.0
 70
    32
  3
ISO-25
 13
123.1999999999998
 23
19.05000000000001
 33
0.0
 14
123.1999999999998
 24
-19.05000000000001
 34
0.0
 50
90.0
1001
ACAD
1000
DSTYLE
1002
{
1070
   287
1070
     5
1070
   271
1070
     3
1070
   272
1070
     3
1070
   279
1070
     2
1002
}
  0
DIMENSION
  5
1AE5
  8
SK2
  2
*D11
 10
173.7470222226297
 20
-46.05
 30
0.0
 11
171.8720222226297
 21
0.0000000000000071
 31
0.0
 70
    32
  3
ISO-25
 13
100.5999999999999
 23
46.05000000000001
 33
0.0
 14
100.5999999999999
 24
-46.05
 34
0.0
 50
90.0
1001
ACAD
1000
DSTYLE
1002
{
1070
   287
1070
     5
1070
   271
1070
     3
1070
   272
1070
     3
1070
   279
1070
     2
1002
}
  0
ARC
  5
1AF6
  8
NOCUT
 10
69.6465728752998
 20
36.92500000000001
 30
0.0
 40
2.0
 50
270.0
 51
315.0000000000004
  0
LINE
  5
1AF8
  8
NOCUT
 10
81.59999999999985
 20
46.05000000000002
 30
0.0
 11
71.06078643769996
 21
35.51078643759999
 31
0.0
  0
LINE
  5
1AF9
  8
NOCUT
 10
100.5999999999999
 20
46.05000000000002
 30
0.0
 11
81.59999999999985
 21
46.05000000000002
 31
0.0
  0
ARC
  5
1AFA
  8
NOCUT
 10
100.5999999999999
 20
45.05000000000002
 30
0.0
 40
1.0
 50
0.0
 51
90.0
  0
LINE
  5
1AFB
  8
NOCUT
 10
101.5999999999999
 20
0.0
 30
0.0
 11
101.5999999999999
 21
45.05000000000002
 31
0.0
  0
ENDSEC
  0
EOF
