  0
SECTION
  2
HEADER
  9
$ACADVER
  1
AC1009
  9
$DWGCODEPAGE
  3
ansi_1251
  9
$INSBASE
 10
0.0
 20
0.0
 30
0.0
  9
$EXTMIN
 10
-68.25000000000001
 20
-30.5409271246
 30
0.0
  9
$EXTMAX
 10
88.90000000000003
 20
30.50275418977125
 30
0.0
  9
$LIMMIN
 10
0.0
 20
0.0
  9
$LIMMAX
 10
420.0
 20
297.0
  9
$ORTHOMODE
 70
     1
  9
$REGENMODE
 70
     1
  9
$FILLMODE
 70
     1
  9
$QTEXTMODE
 70
     0
  9
$MIRRTEXT
 70
     0
  9
$DRAGMODE
 70
     2
  9
$LTSCALE
 40
1.0
  9
$OSMODE
 70
   279
  9
$ATTMODE
 70
     1
  9
$TEXTSIZE
 40
2.5
  9
$TRACEWID
 40
1.0
  9
$TEXTSTYLE
  7
STANDARD
  9
$CLAYER
  8
0
  9
$CELTYPE
  6
BYLAYER
  9
$CECOLOR
 62
   256
  9
$DIMSCALE
 40
1.0
  9
$DIMASZ
 40
2.5
  9
$DIMEXO
 40
0.625
  9
$DIMDLI
 40
3.75
  9
$DIMRND
 40
0.0
  9
$DIMDLE
 40
0.0
  9
$DIMEXE
 40
1.25
  9
$DIMTP
 40
0.0
  9
$DIMTM
 40
0.0
  9
$DIMTXT
 40
2.5
  9
$DIMCEN
 40
2.5
  9
$DIMTSZ
 40
0.0
  9
$DIMTOL
 70
     0
  9
$DIMLIM
 70
     0
  9
$DIMTIH
 70
     0
  9
$DIMTOH
 70
     0
  9
$DIMSE1
 70
     0
  9
$DIMSE2
 70
     0
  9
$DIMTAD
 70
     1
  9
$DIMZIN
 70
     8
  9
$DIMBLK
  1

  9
$DIMASO
 70
     1
  9
$DIMSHO
 70
     1
  9
$DIMPOST
  1

  9
$DIMAPOST
  1

  9
$DIMALT
 70
     0
  9
$DIMALTD
 70
     3
  9
$DIMALTF
 40
0.03937007874016
  9
$DIMLFAC
 40
1.0
  9
$DIMTOFL
 70
     1
  9
$DIMTVP
 40
0.0
  9
$DIMTIX
 70
     0
  9
$DIMSOXD
 70
     0
  9
$DIMSAH
 70
     0
  9
$DIMBLK1
  1

  9
$DIMBLK2
  1

  9
$DIMSTYLE
  2
ISO-25
  9
$DIMCLRD
 70
     0
  9
$DIMCLRE
 70
     0
  9
$DIMCLRT
 70
     0
  9
$DIMTFAC
 40
1.0
  9
$DIMGAP
 40
0.625
  9
$LUNITS
 70
     2
  9
$LUPREC
 70
     3
  9
$SKETCHINC
 40
1.0
  9
$FILLETRAD
 40
1.5
  9
$AUNITS
 70
     0
  9
$AUPREC
 70
     0
  9
$MENU
  1
.
  9
$ELEVATION
 40
0.0
  9
$PELEVATION
 40
0.0
  9
$THICKNESS
 40
0.0
  9
$LIMCHECK
 70
     0
  9
$CHAMFERA
 40
10.0
  9
$CHAMFERB
 40
10.0
  9
$SKPOLY
 70
     0
  9
$TDCREATE
 40
2455022.429026158
  9
$TDUPDATE
 40
2458659.538982558
  9
$TDINDWG
 40
0.1506771181
  9
$TDUSRTIMER
 40
2458702.688317662
  9
$USRTIMER
 70
     1
  9
$ANGBASE
 50
0.0
  9
$ANGDIR
 70
     0
  9
$PDMODE
 70
     0
  9
$PDSIZE
 40
0.0
  9
$PLINEWID
 40
0.0
  9
$COORDS
 70
     1
  9
$SPLFRAME
 70
     0
  9
$SPLINETYPE
 70
     6
  9
$SPLINESEGS
 70
     8
  9
$ATTDIA
 70
     0
  9
$ATTREQ
 70
     1
  9
$HANDLING
 70
     1
  9
$HANDSEED
  5
2178
  9
$SURFTAB1
 70
     6
  9
$SURFTAB2
 70
     6
  9
$SURFTYPE
 70
     6
  9
$SURFU
 70
     6
  9
$SURFV
 70
     6
  9
$UCSNAME
  2

  9
$UCSORG
 10
0.0
 20
0.0
 30
0.0
  9
$UCSXDIR
 10
1.0
 20
0.0
 30
0.0
  9
$UCSYDIR
 10
0.0
 20
1.0
 30
0.0
  9
$PUCSNAME
  2

  9
$PUCSORG
 10
0.0
 20
0.0
 30
0.0
  9
$PUCSXDIR
 10
1.0
 20
0.0
 30
0.0
  9
$PUCSYDIR
 10
0.0
 20
1.0
 30
0.0
  9
$USERI1
 70
     0
  9
$USERI2
 70
     0
  9
$USERI3
 70
     0
  9
$USERI4
 70
     0
  9
$USERI5
 70
     0
  9
$USERR1
 40
0.0
  9
$USERR2
 40
0.0
  9
$USERR3
 40
0.0
  9
$USERR4
 40
0.0
  9
$USERR5
 40
0.0
  9
$WORLDVIEW
 70
     1
  9
$SHADEDGE
 70
     3
  9
$SHADEDIF
 70
    70
  9
$TILEMODE
 70
     1
  9
$MAXACTVP
 70
    64
  9
$PLIMCHECK
 70
     0
  9
$PEXTMIN
 10
1.000000000000000E+20
 20
1.000000000000000E+20
 30
1.000000000000000E+20
  9
$PEXTMAX
 10
-1.000000000000000E+20
 20
-1.000000000000000E+20
 30
-1.000000000000000E+20
  9
$PLIMMIN
 10
0.0
 20
0.0
  9
$PLIMMAX
 10
420.0
 20
297.0
  9
$UNITMODE
 70
     0
  9
$VISRETAIN
 70
     1
  9
$PLINEGEN
 70
     0
  9
$PSLTSCALE
 70
     1
  0
ENDSEC
  0
SECTION
  2
TABLES
  0
TABLE
  2
VPORT
 70
     1
  0
VPORT
  2
*ACTIVE
 70
     0
 10
0.0
 20
0.0
 11
1.0
 21
1.0
 12
12.12860687956453
 22
-4.409747193426497
 13
0.0
 23
0.0
 14
10.0
 24
10.0
 15
10.0
 25
10.0
 16
0.0
 26
0.0
 36
1.0
 17
0.0
 27
0.0
 37
0.0
 40
174.0638934895549
 41
1.332880434782609
 42
50.0
 43
0.0
 44
0.0
 50
0.0
 51
0.0
 71
    16
 72
  1000
 73
     1
 74
     3
 75
     0
 76
     0
 77
     0
 78
     0
  0
ENDTAB
  0
TABLE
  2
LTYPE
 70
     6
  0
LTYPE
  2
CONTINUOUS
 70
     0
  3
Solid line
 72
    65
 73
     0
 40
0.0
  0
LTYPE
  2
CENTER
 70
     0
  3
 Center _____  _  _____  _  _____  _  _____  _ 
 72
    65
 73
     4
 40
50.8
 49
31.75
 49
-6.35
 49
6.35
 49
-6.35
  0
LTYPE
  2
DASHED
 70
     0
  3
Dashed __  __  __  __  __  __  __  __  __  __  
 72
    65
 73
     2
 40
19.05
 49
12.7
 49
-6.35
  0
LTYPE
  2
HIDDEN
 70
     0
  3
Hidden __ __ __ __ __ __ __ __ __ __ __ __ __ __
 72
    65
 73
     2
 40
1.905
 49
1.27
 49
-0.635
  0
LTYPE
  2
CENTERX2
 70
     0
  3
Center (2x) ________  __  ________  __  _____
 72
    65
 73
     4
 40
20.32
 49
12.7
 49
-2.54
 49
2.54
 49
-2.54
  0
LTYPE
  2
PHANTOM
 70
     0
  3
Phantom ______  __  __  ______  __  __  ______
 72
    65
 73
     6
 40
12.7
 49
6.35
 49
-1.27
 49
1.27
 49
-1.27
 49
1.27
 49
-1.27
  0
ENDTAB
  0
TABLE
  2
LAYER
 70
    26
  0
LAYER
  2
0
 70
     0
 62
     7
  6
CONTINUOUS
  0
LAYER
  2
1
 70
     0
 62
     4
  6
CONTINUOUS
  0
LAYER
  2
2
 70
     0
 62
     7
  6
CONTINUOUS
  0
LAYER
  2
3
 70
     0
 62
     1
  6
DASHED
  0
LAYER
  2
4
 70
     0
 62
     2
  6
CENTER
  0
LAYER
  2
6
 70
     0
 62
     5
  6
CONTINUOUS
  0
LAYER
  2
7
 70
     0
 62
     5
  6
CONTINUOUS
  0
LAYER
  2
11
 70
     0
 62
     4
  6
CONTINUOUS
  0
LAYER
  2
SK1
 70
     0
 62
     4
  6
CONTINUOUS
  0
LAYER
  2
SK2
 70
     0
 62
     7
  6
CONTINUOUS
  0
LAYER
  2
SK3
 70
     0
 62
     1
  6
DASHED
  0
LAYER
  2
SK4
 70
     0
 62
     2
  6
CENTER
  0
LAYER
  2
SK6
 70
     0
 62
     5
  6
CONTINUOUS
  0
LAYER
  2
SK7
 70
     0
 62
     5
  6
CONTINUOUS
  0
LAYER
  2
SK11
 70
     0
 62
     4
  6
CONTINUOUS
  0
LAYER
  2
CUT
 70
     0
 62
     1
  6
CONTINUOUS
  0
LAYER
  2
NOCUT
 70
     0
 62
    -7
  6
CONTINUOUS
  0
LAYER
  2
SKVIEW1
 70
     0
 62
     4
  6
CONTINUOUS
  0
LAYER
  2
SKVIEW2
 70
     0
 62
     7
  6
CONTINUOUS
  0
LAYER
  2
SKVIEW3
 70
     0
 62
     1
  6
DASHED
  0
LAYER
  2
SKVIEW4
 70
     0
 62
     2
  6
CENTER
  0
LAYER
  2
SKVIEW6
 70
     0
 62
     5
  6
CONTINUOUS
  0
LAYER
  2
SKVIEW7
 70
     0
 62
     5
  6
CONTINUOUS
  0
LAYER
  2
SKVIEW11
 70
     0
 62
     4
  6
CONTINUOUS
  0
LAYER
  2
INFTOTAL
 70
     0
 62
     9
  6
CONTINUOUS
  0
LAYER
  2
DEFPOINTS
 70
     0
 62
     7
  6
CONTINUOUS
  0
ENDTAB
  0
TABLE
  2
STYLE
 70
     1
  0
STYLE
  2
STANDARD
 70
     0
 40
0.0
 41
1.0
 50
0.0
 71
     0
 42
2.5
  3
txt
  4

  0
ENDTAB
  0
TABLE
  2
VIEW
 70
     0
  0
ENDTAB
  0
TABLE
  2
UCS
 70
     0
  0
ENDTAB
  0
TABLE
  2
APPID
 70
     2
  0
APPID
  2
ACAD
 70
     0
  0
APPID
  2
ACAECLAYERSTANDARD
 70
     0
  0
ENDTAB
  0
TABLE
  2
DIMSTYLE
 70
     1
  0
DIMSTYLE
  2
ISO-25
 70
     0
  3

  4

  5

  6

  7

 40
1.0
 41
2.5
 42
0.625
 43
3.75
 44
1.25
 45
0.0
 46
0.0
 47
0.0
 48
0.0
140
2.5
141
2.5
142
0.0
143
0.03937007874016
144
1.0
145
0.0
146
1.0
147
0.625
 71
     0
 72
     0
 73
     0
 74
     0
 75
     0
 76
     0
 77
     1
 78
     8
170
     0
171
     3
172
     1
173
     0
174
     0
175
     0
176
     0
177
     0
178
     0
  0
ENDTAB
  0
ENDSEC
  0
SECTION
  2
BLOCKS
  0
BLOCK
  8
0
  2
$MODEL_SPACE
 70
     0
 10
0.0
 20
0.0
 30
0.0
  3
$MODEL_SPACE
  1

  0
ENDBLK
  5
21
  8
0
  0
BLOCK
 67
     1
  8
0
  2
$PAPER_SPACE
 70
     0
 10
0.0
 20
0.0
 30
0.0
  3
$PAPER_SPACE
  1

  0
ENDBLK
  5
1D
 67
     1
  8
0
  0
BLOCK
  8
0
  2
*U2
 70
     1
 10
0.0
 20
0.0
 30
0.0
  3
*U2
  1

  0
TEXT
  5
77E
  8
SK6
 10
-50.0
 20
78.25
 30
0.0
 40
3.5
  1
BIG KAISER
 41
0.85
  0
TEXT
  5
781
  8
SK6
 10
-50.0
 20
73.0
 30
0.0
 40
3.5
  1
BCV50-SMC1.500-2
 41
0.85
  0
ENDBLK
  5
782
  8
0
  0
BLOCK
  8
0
  2
_FILLED
 70
     0
 10
0.0
 20
0.0
 30
0.0
  3
_FILLED
  1

  0
SOLID
  5
789
  8
0
  6
BYBLOCK
 62
     0
 10
0.0
 20
0.0
 30
0.0
 11
-1.0
 21
0.2142857143
 31
0.0
 12
-1.0
 22
-0.2142857143
 32
0.0
 13
-1.0
 23
-0.2142857143
 33
0.0
  0
ENDBLK
  5
78A
  8
0
  6
BYBLOCK
 62
     0
  0
BLOCK
  8
0
  2
*U5
 70
     1
 10
0.0
 20
0.0
 30
0.0
  3
*U5
  1

  0
TEXT
  5
790
  8
SK6
 10
-85.96178542556666
 20
-67.06748653279999
 30
0.0
 40
3.5
  1
BCV50
 41
0.85
  0
ENDBLK
  5
791
  8
0
  0
BLOCK
  8
0
  2
*D7
 70
     1
 10
0.0
 20
0.0
 30
0.0
  3
*D7
  1

  0
LINE
  5
7F9
  8
SK2
 62
     0
 10
0.0
 20
-35.55000000000001
 30
0.0
 11
0.0
 21
-74.40665109041375
 31
0.0
  0
LINE
  5
7FA
  8
SK2
 62
     0
 10
35.05
 20
-35.05000000000001
 30
0.0
 11
35.05
 21
-74.40665109041375
 31
0.0
  0
LINE
  5
7FB
  8
SK2
 62
     0
 10
2.5
 20
-73.15665109041375
 30
0.0
 11
32.55
 21
-73.15665109041375
 31
0.0
  0
SOLID
  5
7FC
  8
SK2
 62
     0
 10
2.5
 20
-72.73998442374707
 30
0.0
 11
2.5
 21
-73.57331775708042
 31
0.0
 12
0.0
 22
-73.15665109041375
 32
0.0
 13
0.0
 23
-73.15665109041375
 33
0.0
  0
SOLID
  5
7FD
  8
SK2
 62
     0
 10
32.55
 20
-73.57331775708042
 30
0.0
 11
32.55
 21
-72.73998442374707
 31
0.0
 12
35.05
 22
-73.15665109041375
 32
0.0
 13
35.05
 23
-73.15665109041375
 33
0.0
  0
TEXT
  5
7FE
  8
SK2
  6
CONTINUOUS
 62
     0
 10
12.73333333333333
 20
-72.53165109041375
 30
0.0
 40
2.5
  1
35.05
  0
POINT
  5
7FF
  8
DEFPOINTS
 62
     0
 10
0.0
 20
-34.92500000000001
 30
0.0
  0
POINT
  5
800
  8
DEFPOINTS
 62
     0
 10
35.05
 20
-34.42500000000001
 30
0.0
  0
POINT
  5
801
  8
DEFPOINTS
 62
     0
 10
35.05
 20
-73.15665109041375
 30
0.0
  0
ENDBLK
  5
803
  8
0
  0
BLOCK
  8
0
  2
*D8
 70
     1
 10
0.0
 20
0.0
 30
0.0
  3
*D8
  1

  0
LINE
  5
808
  8
SK2
 62
     0
 10
0.0
 20
35.54999999999998
 30
0.0
 11
0.0
 21
63.71215670356074
 31
0.0
  0
LINE
  5
809
  8
SK2
 62
     0
 10
50.79999999999995
 20
45.67499999999998
 30
0.0
 11
50.79999999999995
 21
63.71215670356074
 31
0.0
  0
LINE
  5
80A
  8
SK2
 62
     0
 10
2.5
 20
62.46215670356074
 30
0.0
 11
48.29999999999995
 21
62.46215670356074
 31
0.0
  0
SOLID
  5
80B
  8
SK2
 62
     0
 10
2.5
 20
62.8788233702274
 30
0.0
 11
2.5
 21
62.04549003689407
 31
0.0
 12
0.0
 22
62.46215670356074
 32
0.0
 13
0.0
 23
62.46215670356074
 33
0.0
  0
SOLID
  5
80C
  8
SK2
 62
     0
 10
48.29999999999995
 20
62.04549003689407
 30
0.0
 11
48.29999999999995
 21
62.8788233702274
 31
0.0
 12
50.79999999999995
 22
62.46215670356074
 32
0.0
 13
50.79999999999995
 23
62.46215670356074
 33
0.0
  0
TEXT
  5
80D
  8
SK2
  6
CONTINUOUS
 62
     0
 10
21.85833333333331
 20
63.08715670356074
 30
0.0
 40
2.5
  1
50.8
  0
POINT
  5
80E
  8
DEFPOINTS
 62
     0
 10
0.0
 20
34.92499999999998
 30
0.0
  0
POINT
  5
80F
  8
DEFPOINTS
 62
     0
 10
50.79999999999995
 20
45.04999999999998
 30
0.0
  0
POINT
  5
810
  8
DEFPOINTS
 62
     0
 10
50.79999999999995
 20
62.46215670356074
 30
0.0
  0
ENDBLK
  5
812
  8
0
  0
BLOCK
  8
0
  2
*D10
 70
     1
 10
0.0
 20
0.0
 30
0.0
  3
*D10
  1

  0
LINE
  5
1BE4
  8
SK2
 62
     0
 10
73.02500000000009
 20
19.04999999999995
 30
0.0
 11
108.0359198540314
 21
19.04999999999995
 31
0.0
  0
LINE
  5
1BE5
  8
SK2
 62
     0
 10
73.02500000000009
 20
-19.05000000000001
 30
0.0
 11
108.0359198540314
 21
-19.05000000000001
 31
0.0
  0
LINE
  5
1BE6
  8
SK2
 62
     0
 10
106.7859198540314
 20
16.54999999999995
 30
0.0
 11
106.7859198540314
 21
-16.55000000000001
 31
0.0
  0
SOLID
  5
1BE7
  8
SK2
 62
     0
 10
107.202586520698
 20
16.54999999999995
 30
0.0
 11
106.3692531873647
 21
16.54999999999995
 31
0.0
 12
106.7859198540314
 22
19.04999999999995
 32
0.0
 13
106.7859198540314
 23
19.04999999999995
 33
0.0
  0
SOLID
  5
1BE8
  8
SK2
 62
     0
 10
106.3692531873647
 20
-16.55000000000001
 30
0.0
 11
107.202586520698
 21
-16.55000000000001
 31
0.0
 12
106.7859198540314
 22
-19.05000000000001
 32
0.0
 13
106.7859198540314
 23
-19.05000000000001
 33
0.0
  0
TEXT
  5
1BE9
  8
SK2
  6
CONTINUOUS
 62
     0
 10
106.1609198540314
 20
-3.333333333333357
 30
0.0
 40
2.5
  1
38.1
 50
90.0
  0
POINT
  5
1BEA
  8
DEFPOINTS
 62
     0
 10
72.40000000000009
 20
19.04999999999995
 30
0.0
  0
POINT
  5
1BEB
  8
DEFPOINTS
 62
     0
 10
72.40000000000009
 20
-19.05000000000001
 30
0.0
  0
POINT
  5
1BEC
  8
DEFPOINTS
 62
     0
 10
106.7859198540314
 20
-19.05000000000001
 30
0.0
  0
ENDBLK
  5
1BEE
  8
0
  0
BLOCK
  8
0
  2
*D11
 70
     1
 10
0.0
 20
0.0
 30
0.0
  3
*D11
  1

  0
LINE
  5
1BF3
  8
SK2
 62
     0
 10
50.42499999999995
 20
46.04999999999998
 30
0.0
 11
125.8572137591291
 21
46.04999999999998
 31
0.0
  0
LINE
  5
1BF4
  8
SK2
 62
     0
 10
50.42499999999995
 20
-46.05000000000001
 30
0.0
 11
125.8572137591291
 21
-46.05000000000002
 31
0.0
  0
LINE
  5
1BF5
  8
SK2
 62
     0
 10
124.6072137591291
 20
43.54999999999998
 30
0.0
 11
124.6072137591291
 21
-43.55000000000002
 31
0.0
  0
SOLID
  5
1BF6
  8
SK2
 62
     0
 10
125.0238804257957
 20
43.54999999999998
 30
0.0
 11
124.1905470924624
 21
43.54999999999998
 31
0.0
 12
124.6072137591291
 22
46.04999999999998
 32
0.0
 13
124.6072137591291
 23
46.04999999999998
 33
0.0
  0
SOLID
  5
1BF7
  8
SK2
 62
     0
 10
124.1905470924624
 20
-43.55000000000002
 30
0.0
 11
125.0238804257957
 21
-43.55000000000002
 31
0.0
 12
124.6072137591291
 22
-46.05000000000002
 32
0.0
 13
124.6072137591291
 23
-46.05000000000002
 33
0.0
  0
TEXT
  5
1BF8
  8
SK2
  6
CONTINUOUS
 62
     0
 10
123.9822137591291
 20
-3.333333333333357
 30
0.0
 40
2.5
  1
92.1
 50
90.0
  0
POINT
  5
1BF9
  8
DEFPOINTS
 62
     0
 10
49.79999999999995
 20
46.04999999999998
 30
0.0
  0
POINT
  5
1BFA
  8
DEFPOINTS
 62
     0
 10
49.79999999999995
 20
-46.05000000000001
 30
0.0
  0
POINT
  5
1BFB
  8
DEFPOINTS
 62
     0
 10
124.6072137591291
 20
-46.05000000000002
 30
0.0
  0
ENDBLK
  5
1BFD
  8
0
  0
ENDSEC
  0
SECTION
  2
ENTITIES
  0
LINE
  5
685
  8
SK1
 10
0.0
 20
34.92499999999998
 30
0.0
 11
-99.6319088344
 21
20.3952133832
 31
0.0
  0
LINE
  5
686
  8
SK1
 10
-99.6319088344
 20
-20.3952133832
 30
0.0
 11
0.0
 21
-34.92500000000001
 31
0.0
  0
ARC
  5
68D
  8
SK1
 10
-99.3
 20
18.1192879614
 30
0.0
 40
2.299999999999995
 50
98.29722000000018
 51
180.0
  0
ARC
  5
68E
  8
SK1
 10
-99.3
 20
-18.1192879614
 30
0.0
 40
2.299999999999995
 50
180.0
 51
261.7027799999998
  0
LINE
  5
6F6
  8
SK1
 10
-101.6
 20
0.0
 30
0.0
 11
-101.6
 21
-18.1192879614
 31
0.0
  0
LINE
  5
6F7
  8
SK1
 10
-101.6
 20
18.1192879614
 30
0.0
 11
-101.6
 21
0.0
 31
0.0
  0
LINE
  5
71A
  8
SK3
 10
-99.5215390309
 20
-13.10000000000002
 30
0.0
 11
-99.5215390309
 21
13.09999999999999
 31
0.0
  0
LINE
  5
71B
  8
SK3
 10
-95.25
 20
-13.10000000000002
 30
0.0
 11
-95.25
 21
13.09999999999999
 31
0.0
  0
LINE
  5
72A
  8
SK3
 10
-101.6
 20
-14.30000000000001
 30
0.0
 11
-99.5215390309
 21
-13.10000000000002
 31
0.0
  0
LINE
  5
72B
  8
SK3
 10
-99.5215390309
 20
13.09999999999999
 30
0.0
 11
-101.6
 21
14.3
 31
0.0
  0
LINE
  5
72C
  8
SK3
 10
-99.5215390309
 20
-13.10000000000002
 30
0.0
 11
-95.25
 21
-13.10000000000002
 31
0.0
  0
LINE
  5
72D
  8
SK3
 10
-95.25
 20
13.09999999999999
 30
0.0
 11
-99.5215390309
 21
13.09999999999999
 31
0.0
  0
LINE
  5
72E
  8
SK3
 10
-95.25
 20
-11.09980000000002
 30
0.0
 11
-5.249999999999986
 21
-11.09980000000002
 31
0.0
  0
LINE
  5
72F
  8
SK3
 10
-5.250000000000001
 20
11.09979999999999
 30
0.0
 11
-95.25
 21
11.09979999999999
 31
0.0
  0
LINE
  5
760
  8
SK3
 10
-57.1
 20
12.69999999999999
 30
0.0
 11
-95.25
 21
12.69999999999999
 31
0.0
  0
LINE
  5
761
  8
SK3
 10
-95.25
 20
-12.69999999999999
 30
0.0
 11
-57.1
 21
-12.69999999999999
 31
0.0
  0
LINE
  5
774
  8
SK3
 10
-57.1
 20
12.69999999999999
 30
0.0
 11
-57.1
 21
-12.69999999999999
 31
0.0
  0
LINE
  5
777
  8
SK4
 10
0.0
 20
0.0
 30
0.0
 11
-101.6
 21
0.0
 31
0.0
  0
LINE
  5
779
  8
4
 10
0.0
 20
0.0
 30
0.0
 11
50.79999999999994
 21
0.0
 31
0.0
  0
INSERT
  5
77B
  8
SK6
  2
*U2
 10
-44.10380399683656
 20
-23.39313954296377
 30
0.0
  0
INSERT
  5
78D
  8
SK6
  2
*U5
 10
17.55665382414153
 20
-2.560320993650734
 30
0.0
  0
LINE
  5
793
  8
0
 10
3.0
 20
3.0
 30
0.0
 11
-3.0
 21
-3.0
 31
0.0
  0
LINE
  5
794
  8
0
 10
-3.0
 20
3.0
 30
0.0
 11
3.0
 21
-3.0
 31
0.0
  0
CIRCLE
  5
795
  8
0
 10
0.0
 20
0.0
 30
0.0
 40
2.5
  0
LINE
  5
796
  8
0
 10
53.79999999999995
 20
-3.0
 30
0.0
 11
47.79999999999995
 21
3.0
 31
0.0
  0
CIRCLE
  5
797
  8
0
 10
50.79999999999995
 20
0.0
 30
0.0
 40
2.5
  0
LINE
  5
798
  8
0
 10
47.79999999999995
 20
-3.0
 30
0.0
 11
53.79999999999995
 21
3.0
 31
0.0
  0
LINE
  5
799
  8
NOCUT
 10
0.7999999999999972
 20
34.62500000000001
 30
0.0
 11
0.2999999999999972
 21
34.62500000000001
 31
0.0
  0
LINE
  5
79C
  8
NOCUT
 10
0.2999999999999972
 20
34.62500000000001
 30
0.0
 11
0.0
 21
34.92499999999999
 31
0.0
  0
LINE
  5
79D
  8
NOCUT
 10
33.54999999999977
 20
34.92499999999999
 30
0.0
 11
20.05
 21
34.92499999999999
 31
0.0
  0
ARC
  5
79E
  8
NOCUT
 10
0.7999999999999972
 20
35.62500000000001
 30
0.0
 40
1.0
 50
270.0
 51
314.4270040008
  0
ARC
  5
79F
  8
NOCUT
 10
20.05
 20
35.92499999999999
 30
0.0
 40
1.0
 50
180.0
 51
270.0
  0
LINE
  5
7A0
  8
NOCUT
 10
12.55499999999999
 20
45.64499999999999
 30
0.0
 11
9.704999999999998
 21
45.64499999999999
 31
0.0
  0
ARC
  5
7A1
  8
NOCUT
 10
12.55499999999999
 20
46.14499999999999
 30
0.0
 40
0.5
 50
270.0
 51
0.0
  0
ARC
  5
7A2
  8
NOCUT
 10
9.704999999999998
 20
46.14499999999999
 30
0.0
 40
0.5
 50
180.0
 51
270.0
  0
ARC
  5
7A3
  8
NOCUT
 10
2.299999999999997
 20
48.4125
 30
0.0
 40
0.7999999999999972
 50
90.0
 51
180.0
  0
ARC
  5
7A4
  8
NOCUT
 10
18.24999999999999
 20
48.4125
 30
0.0
 40
0.799999999999983
 50
0.0
 51
90.0
  0
LINE
  5
7A5
  8
NOCUT
 10
9.204999999999998
 20
46.43919780459999
 30
0.0
 11
7.603833230999996
 21
49.21250000000001
 31
0.0
  0
LINE
  5
7A6
  8
NOCUT
 10
14.65616676910001
 20
49.21250000000001
 30
0.0
 11
13.05499999999999
 21
46.43919780459999
 31
0.0
  0
LINE
  5
7A7
  8
NOCUT
 10
18.24999999999999
 20
49.21250000000001
 30
0.0
 11
14.65616676910001
 21
49.21250000000001
 31
0.0
  0
LINE
  5
7A8
  8
NOCUT
 10
7.603833230999996
 20
49.21250000000001
 30
0.0
 11
2.299999999999997
 21
49.21250000000001
 31
0.0
  0
LINE
  5
7AC
  8
NOCUT
 10
1.5
 20
48.4125
 30
0.0
 11
1.499999999999929
 21
34.91085715714565
 31
0.0
  0
LINE
  5
7AD
  8
NOCUT
 10
19.04999999999997
 20
48.4125
 30
0.0
 11
19.05
 21
35.92499999999999
 31
0.0
  0
LINE
  5
7AE
  8
NOCUT
 10
9.204999999999998
 20
46.43919780459999
 30
0.0
 11
9.204999999999998
 21
46.14499999999999
 31
0.0
  0
LINE
  5
7AF
  8
NOCUT
 10
13.05499999999999
 20
46.43919780459999
 30
0.0
 11
13.05499999999999
 21
46.14499999999999
 31
0.0
  0
DIMENSION
  5
7F5
  8
SK2
  2
*D7
 10
35.05
 20
-73.15665109041375
 30
0.0
 11
17.525
 21
-71.28165109041375
 31
0.0
 70
    32
  3
ISO-25
 13
0.0
 23
-34.92500000000001
 33
0.0
 14
35.05
 24
-34.42500000000001
 34
0.0
1001
ACAD
1000
DSTYLE
1002
{
1070
   287
1070
     5
1070
   271
1070
     3
1070
   272
1070
     3
1070
   279
1070
     2
1002
}
  0
DIMENSION
  5
804
  8
SK2
  2
*D8
 10
50.79999999999995
 20
62.46215670356074
 30
0.0
 11
25.39999999999998
 21
64.33715670356074
 31
0.0
 70
    32
  3
ISO-25
 13
0.0
 23
34.92499999999998
 33
0.0
 14
50.79999999999995
 24
45.04999999999998
 34
0.0
1001
ACAD
1000
DSTYLE
1002
{
1070
   287
1070
     5
1070
   271
1070
     3
1070
   272
1070
     3
1070
   279
1070
     2
1002
}
  0
LINE
  5
8BF
  8
NOCUT
 10
0.0
 20
34.92499999999999
 30
0.0
 11
0.0
 21
0.0
 31
0.0
  0
LINE
  5
8C0
  8
NOCUT
 10
0.0
 20
0.0
 30
0.0
 11
50.79999999999994
 21
0.0
 31
0.0
  0
INSERT
  5
A17
  8
SK6
  2
_FILLED
 10
-20.78186483605847
 20
-31.89428358495073
 30
0.0
 41
3.5
 42
3.5
 43
3.5
 50
52.86965044919886
  0
POLYLINE
  5
A18
  8
SK6
 66
     1
 10
0.0
 20
0.0
 30
0.0
  0
VERTEX
  5
1C17
  8
SK6
 10
-22.89457117648658
 20
-34.68470862768434
 30
0.0
  0
VERTEX
  5
1C18
  8
SK6
 10
-48.02596493475846
 20
-67.87780752645074
 30
0.0
  0
VERTEX
  5
1C19
  8
SK6
 10
-49.90096493475846
 20
-66.12780752645074
 30
0.0
  0
VERTEX
  5
1C1A
  8
SK6
 10
-53.40096493475846
 20
-66.12780752645074
 30
0.0
  0
SEQEND
  5
2177
  8
SK6
  0
ARC
  5
AC7
  8
1
 10
20.04999999999998
 20
35.92499999999998
 30
0.0
 40
1.0
 50
180.0
 51
270.0
  0
ARC
  5
AC9
  8
1
 10
20.04999999999998
 20
-35.92500000000001
 30
0.0
 40
1.0
 50
90.0
 51
180.0
  0
ARC
  5
ACA
  8
1
 10
1.299999999999983
 20
35.125
 30
0.0
 40
0.5
 50
270.0
 51
293.5781784781994
  0
ARC
  5
ACB
  8
1
 10
1.299999999999983
 20
-35.125
 30
0.0
 40
0.500000000000009
 50
66.42182152180017
 51
90.0
  0
LINE
  5
ACC
  8
1
 10
33.79999999999995
 20
34.92499999999998
 30
0.0
 11
20.04999999999998
 21
34.92499999999998
 31
0.0
  0
LINE
  5
ACE
  8
1
 10
20.04999999999998
 20
-34.92500000000001
 30
0.0
 11
33.04999999999995
 21
-34.92500000000001
 31
0.0
  0
LINE
  5
ACF
  8
1
 10
0.0
 20
-34.92500000000001
 30
0.0
 11
0.2999999999999829
 21
-34.625
 31
0.0
  0
LINE
  5
AD0
  8
1
 10
0.2999999999999829
 20
34.625
 30
0.0
 11
0.0
 21
34.92499999999998
 31
0.0
  0
LINE
  5
AD5
  8
1
 10
1.299999999999983
 20
34.625
 30
0.0
 11
0.2999999999999829
 21
34.625
 31
0.0
  0
LINE
  5
AD6
  8
1
 10
0.2999999999999829
 20
-34.625
 30
0.0
 11
1.299999999999983
 21
-34.625
 31
0.0
  0
LINE
  5
ADB
  8
1
 10
14.65616694409999
 20
-47.282880439
 30
0.0
 11
14.68806954659999
 21
-47.29184187660002
 31
0.0
  0
LINE
  5
ADC
  8
1
 10
14.6561667691
 20
47.30816788690001
 30
0.0
 11
14.6561667691
 21
-47.2826327523
 31
0.0
  0
LINE
  5
ADD
  8
1
 10
14.7615962207
 20
47.3314147463
 30
0.0
 11
14.6561668942
 21
47.30816788690001
 31
0.0
  0
LINE
  5
ADE
  8
1
 10
18.25
 20
47.3314147463
 30
0.0
 11
14.7615962207
 21
47.3314147463
 31
0.0
  0
LINE
  5
ADF
  8
1
 10
14.68806954659999
 20
-47.29184187660002
 30
0.0
 11
18.25
 21
-47.29184187660002
 31
0.0
  0
LINE
  5
AE0
  8
1
 10
7.498403779400007
 20
47.3314147463
 30
0.0
 11
4.006414746699988
 21
47.3314147463
 31
0.0
  0
LINE
  5
AE1
  8
1
 10
7.603833105900009
 20
47.30816788690001
 30
0.0
 11
7.498403779400007
 21
47.3314147463
 31
0.0
  0
LINE
  5
AE2
  8
1
 10
7.603833230899994
 20
47.30844201400001
 30
0.0
 11
7.603833230899994
 21
-47.28288044160001
 31
0.0
  0
LINE
  5
AE3
  8
1
 10
7.571930453299984
 20
-47.29184187660002
 30
0.0
 11
7.603833055899997
 21
-47.282880439
 31
0.0
  0
LINE
  5
AE4
  8
1
 10
4.040356993800003
 20
-47.29184187660002
 30
0.0
 11
7.571930453299984
 21
-47.29184187660002
 31
0.0
  0
LINE
  5
AE5
  8
1
 10
2.300001405499984
 20
-46.74795901499999
 30
0.0
 11
4.040356993800003
 21
-47.29184189310001
 31
0.0
  0
LINE
  5
AE6
  8
1
 10
4.006414746699988
 20
47.33141476029999
 30
0.0
 11
2.299999765199999
 21
46.80267569
 31
0.0
  0
ARC
  5
AE7
  8
1
 10
2.557435939599998
 20
-45.59355264690001
 30
0.0
 40
1.184053137363273
 50
207.7147598986998
 51
257.3157095984005
  0
LINE
  5
AE8
  8
1
 10
1.50922466130001
 20
-46.14422037630001
 30
0.0
 11
1.5
 21
-46.01377680920001
 31
0.0
  0
LINE
  5
AE9
  8
1
 10
1.5
 20
-46.01377680920001
 30
0.0
 11
1.5
 21
46.01377680919998
 31
0.0
  0
ARC
  5
AEA
  8
1
 10
2.572884962100005
 20
45.72649004249999
 30
0.0
 40
1.111555736593689
 50
104.3436511600003
 51
164.8417645594994
  0
LINE
  5
AEB
  8
1
 10
9.204999995999998
 20
44.41431970880001
 30
0.0
 11
7.60383322749999
 21
47.3081678945
 31
0.0
  0
LINE
  5
AEC
  8
1
 10
9.204999999999984
 20
44.4143196734
 30
0.0
 11
9.204999999999984
 21
-44.387299867
 31
0.0
  0
LINE
  5
AED
  8
1
 10
7.603833226399985
 20
-47.28288044990001
 30
0.0
 11
9.2049999921
 21
-44.38762367050001
 31
0.0
  0
LINE
  5
AEE
  8
1
 10
14.65616677259999
 20
47.3081678945
 30
0.0
 11
13.05500000399999
 21
44.41431970880001
 31
0.0
  0
LINE
  5
AEF
  8
1
 10
13.05500000800001
 20
-44.38762367050001
 30
0.0
 11
14.65616677360001
 21
-47.28288044990001
 31
0.0
  0
LINE
  5
AF0
  8
1
 10
13.05500000000001
 20
44.41459195280001
 30
0.0
 11
13.05500000000001
 21
-44.38762365650001
 31
0.0
  0
ARC
  5
AF1
  8
1
 10
17.92302328310001
 20
46.41895288640001
 30
0.0
 40
1.127359624435328
 50
1.493363825500091
 51
43.53750291790048
  0
LINE
  5
AF2
  8
1
 10
19.04999999999998
 20
46.44833319130001
 30
0.0
 11
19.04999999999998
 21
-46.44833319130001
 31
0.0
  0
ARC
  5
AF3
  8
1
 10
17.91824827779999
 20
-46.4157978575
 30
0.0
 40
1.1322192847622
 50
319.2464850235001
 51
358.3533278529993
  0
ARC
  5
AF4
  8
1
 10
18.2616113983
 20
-46.25791326929999
 30
0.0
 40
1.033993805426882
 50
269.3565743835002
 51
299.8289453780985
  0
ARC
  5
AF5
  8
1
 10
18.2610591033
 20
46.41902767409999
 30
0.0
 40
0.9124540938653742
 50
58.31881226410037
 51
90.69445187719943
  0
ARC
  5
AF6
  8
1
 10
12.5158206966
 20
-44.1073442162
 30
0.0
 40
0.5397579791454132
 50
357.3466499737992
 51
85.83742202690154
  0
ARC
  5
AF7
  8
1
 10
12.54139279200001
 20
44.09944295630001
 30
0.0
 40
0.4858431210597904
 50
271.6049163143007
 51
333.441972537701
  0
POLYLINE
  5
AF8
  8
1
 66
     1
 10
0.0
 20
0.0
 30
0.0
  0
VERTEX
  5
1C1B
  8
1
 10
13.05500000000001
 20
44.14662312639999
 30
0.0
  0
VERTEX
  5
1C1C
  8
1
 10
13.03542892280001
 20
44.01594229719998
 30
0.0
  0
VERTEX
  5
1C1D
  8
1
 10
12.97787844319998
 20
43.88571451269999
 30
0.0
  0
SEQEND
  5
2176
  8
1
  0
ARC
  5
AF9
  8
1
 10
9.744214343399989
 20
-44.10737531749999
 30
0.0
 40
0.5397915428070933
 50
94.16604783349855
 51
182.6498801657025
  0
POLYLINE
  5
AFA
  8
1
 66
     1
 10
0.0
 20
0.0
 30
0.0
  0
VERTEX
  5
1C1E
  8
1
 10
9.280099379399985
 20
43.88913247470001
 30
0.0
  0
VERTEX
  5
1C1F
  8
1
 10
9.224055884099982
 20
44.0177026321
 30
0.0
  0
VERTEX
  5
1C20
  8
1
 10
9.204999999999984
 20
44.14662312639999
 30
0.0
  0
SEQEND
  5
2175
  8
1
  0
ARC
  5
AFB
  8
1
 10
9.721350266000002
 20
44.10422581969999
 30
0.0
 40
0.4907078648052702
 50
206.0244317763009
 51
268.0905652222996
  0
LINE
  5
AFC
  8
1
 10
12.55500000000001
 20
43.613790424
 30
0.0
 11
9.704999999999984
 21
43.613790424
 31
0.0
  0
LINE
  5
AFD
  8
1
 10
9.704999999999984
 20
-43.5690100651
 30
0.0
 11
12.55500000000001
 21
-43.5690100651
 31
0.0
  0
LINE
  5
B00
  8
1
 10
0.2999999999999829
 20
34.625
 30
0.0
 11
0.2999999999999829
 21
-34.625
 31
0.0
  0
LINE
  5
B01
  8
1
 10
0.0
 20
34.92499999999998
 30
0.0
 11
0.0
 21
-34.92500000000001
 31
0.0
  0
LINE
  5
B02
  8
1
 10
35.05
 20
34.42499999999998
 30
0.0
 11
35.05
 21
-34.42500000000001
 31
0.0
  0
LINE
  5
B04
  8
1
 10
14.68806954670001
 20
-47.29184187660002
 30
0.0
 11
14.65616694420001
 21
-47.282880439
 31
0.0
  0
LINE
  5
B1A
  8
3
 10
1.500000000000004
 20
37.72
 30
0.0
 11
19.04999999999998
 21
37.72
 31
0.0
  0
LINE
  5
B3B
  8
3
 10
1.5
 20
-35.30000000000001
 30
0.0
 11
19.26937525020018
 21
-35.30000000000001
 31
0.0
  0
LINE
  5
B42
  8
3
 10
26.97499999999999
 20
28.32499999999999
 30
0.0
 11
33.32499999999999
 21
28.32499999999999
 31
0.0
  0
LINE
  5
B43
  8
3
 10
20.625
 20
28.32499999999999
 30
0.0
 11
26.97499999999999
 21
28.32499999999999
 31
0.0
  0
LINE
  5
B44
  8
3
 10
11.375
 20
37.31999999999999
 30
0.0
 11
16.125
 21
37.31999999999999
 31
0.0
  0
LINE
  5
B45
  8
3
 10
6.625
 20
37.31999999999999
 30
0.0
 11
11.375
 21
37.31999999999999
 31
0.0
  0
LINE
  5
B55
  8
3
 10
20.625
 20
28.32499999999999
 30
0.0
 11
26.97499999999999
 21
24.50953506919998
 31
0.0
  0
LINE
  5
B56
  8
3
 10
26.97499999999999
 20
24.50953506919998
 30
0.0
 11
33.32499999999999
 21
28.32499999999999
 31
0.0
  0
LINE
  5
B57
  8
3
 10
20.625
 20
34.92499999999998
 30
0.0
 11
20.625
 21
28.32499999999999
 31
0.0
  0
LINE
  5
B58
  8
3
 10
33.32499999999999
 20
28.32499999999999
 30
0.0
 11
33.32499999999999
 21
34.92499999999998
 31
0.0
  0
LINE
  5
B59
  8
3
 10
6.625
 20
37.72
 30
0.0
 11
6.625
 21
37.31999999999999
 31
0.0
  0
LINE
  5
B5A
  8
3
 10
16.125
 20
37.31999999999999
 30
0.0
 11
16.125
 21
37.72
 31
0.0
  0
LINE
  5
B5B
  8
1
 10
20.04999999999998
 20
-34.92500000000001
 30
0.0
 11
20.04999999999998
 21
34.92499999999998
 31
0.0
  0
LINE
  5
B5C
  8
1
 10
1.299999999999983
 20
-34.625
 30
0.0
 11
1.299999999999983
 21
34.625
 31
0.0
  0
LINE
  5
B5F
  8
1
 10
12.55500000000001
 20
-43.00413183130001
 30
0.0
 11
12.55500000000001
 21
42.79577481850001
 31
0.0
  0
LINE
  5
B60
  8
1
 10
9.704999999999984
 20
-43.00421493109999
 30
0.0
 11
9.704999999999984
 21
42.7957705776
 31
0.0
  0
LINE
  5
B62
  8
1
 10
18.25
 20
47.3314147463
 30
0.0
 11
18.25
 21
-47.29184187660002
 31
0.0
  0
LINE
  5
B64
  8
1
 10
2.299999999999983
 20
-46.74795854910002
 30
0.0
 11
2.299999999999983
 21
46.80267576719999
 31
0.0
  0
LINE
  5
CE2
  8
1
 10
50.79999999999995
 20
-41.28131
 30
0.0
 11
50.82856745539993
 21
-41.28131
 31
0.0
  0
LINE
  5
CE3
  8
1
 10
34.74720000000002
 20
-41.02350000000001
 30
0.0
 11
35.04999999999995
 21
-41.10463501550001
 31
0.0
  0
LINE
  5
CE4
  8
1
 10
50.82856745539993
 20
41.28130999999999
 30
0.0
 11
50.79999999999995
 21
41.28130999999999
 31
0.0
  0
LINE
  5
CE6
  8
1
 10
35.04999999999995
 20
41.10463501539999
 30
0.0
 11
34.74720000000002
 21
41.02349999999998
 31
0.0
  0
LINE
  5
CE7
  8
1
 10
36.04999999999995
 20
-46.05000000000001
 30
0.0
 11
49.79999999999995
 21
-46.05000000000001
 31
0.0
  0
LINE
  5
CE8
  8
1
 10
49.79999999999995
 20
46.04999999999998
 30
0.0
 11
36.04999999999995
 21
46.04999999999998
 31
0.0
  0
ARC
  5
CE9
  8
1
 10
36.04999999999995
 20
45.04999999999998
 30
0.0
 40
1.000000000000227
 50
90.0
 51
180.0
  0
ARC
  5
CEA
  8
1
 10
36.04999999999995
 20
-45.05000000000001
 30
0.0
 40
1.000000000000227
 50
180.0
 51
270.0
  0
ARC
  5
CEB
  8
1
 10
49.79999999999995
 20
-45.05000000000001
 30
0.0
 40
1.0
 50
270.0
 51
0.0
  0
ARC
  5
CEC
  8
1
 10
49.79999999999995
 20
45.04999999999998
 30
0.0
 40
1.0
 50
0.0
 51
90.0
  0
ARC
  5
CED
  8
1
 10
33.04999999999995
 20
-36.92500000000001
 30
0.0
 40
2.000000000000052
 50
67.97568716290215
 51
90.0
  0
LINE
  5
D0F
  8
1
 10
34.74720000000002
 20
-35.03810898680001
 30
0.0
 11
34.74720000000002
 21
-41.02350000000001
 31
0.0
  0
LINE
  5
D13
  8
1
 10
34.74720000000002
 20
41.02349999999998
 30
0.0
 11
34.74720000000002
 21
35.08913422819998
 31
0.0
  0
LINE
  5
D30
  8
1
 10
35.04999999999995
 20
-45.05000000000001
 30
0.0
 11
35.04999999999995
 21
45.04999999999998
 31
0.0
  0
LINE
  5
D31
  8
1
 10
50.79999999999995
 20
0.0
 30
0.0
 11
50.79999999999995
 21
45.04999999999998
 31
0.0
  0
LINE
  5
D32
  8
1
 10
50.79999999999995
 20
-45.05000000000001
 30
0.0
 11
50.79999999999995
 21
0.0
 31
0.0
  0
ARC
  5
D35
  8
1
 10
32.91002274919992
 20
-36.118580245
 30
0.0
 40
2.140682622000782
 50
358.5291029466998
 51
65.43378344839806
  0
LINE
  5
D36
  8
1
 10
33.79999999999995
 20
-35.07095037820001
 30
0.0
 11
33.79999999999995
 21
-34.1716692092
 31
0.0
  0
LINE
  5
D37
  8
1
 10
33.79999999999995
 20
34.17166920919999
 30
0.0
 11
33.79999999999995
 21
34.92499999999999
 31
0.0
  0
ARC
  5
D38
  8
1
 10
32.89585375310003
 20
36.12742763669999
 30
0.0
 40
2.154639520349126
 50
294.811079612302
 51
1.226033992700216
  0
CIRCLE
  5
D3C
  8
1
 10
26.0
 20
0.0
 30
0.0
 40
2.625
  0
LINE
  5
D44
  8
1
 10
24.75
 20
-0.7216878364999957
 30
0.0
 11
26.0
 21
-1.44337567300002
 31
0.0
  0
LINE
  5
D45
  8
1
 10
27.25
 20
-0.7216878364999957
 30
0.0
 11
26.0
 21
-1.44337567300002
 31
0.0
  0
LINE
  5
D46
  8
1
 10
27.25
 20
0.7216878364999957
 30
0.0
 11
27.25
 21
-0.7216878364999957
 31
0.0
  0
LINE
  5
D47
  8
1
 10
27.25
 20
0.7216878364999957
 30
0.0
 11
26.0
 21
1.443375672999991
 31
0.0
  0
LINE
  5
D48
  8
1
 10
24.75
 20
0.7216878364999957
 30
0.0
 11
26.0
 21
1.443375672999991
 31
0.0
  0
LINE
  5
D49
  8
1
 10
24.75
 20
0.7216878364999957
 30
0.0
 11
24.75
 21
-0.7216878364999957
 31
0.0
  0
CIRCLE
  5
D4A
  8
1
 10
26.0
 20
0.0
 30
0.0
 40
2.055000000000007
  0
CIRCLE
  5
D4B
  8
1
 10
26.0
 20
0.0
 30
0.0
 40
2.256103126842163
  0
LINE
  5
D4C
  8
3
 10
45.38598999999999
 20
0.0
 30
0.0
 11
45.38598999999999
 21
-9.525000000000006
 31
0.0
  0
LINE
  5
D4F
  8
3
 10
45.38598999999999
 20
9.525000000000006
 30
0.0
 11
45.38598999999999
 21
0.0
 31
0.0
  0
LINE
  5
D50
  8
3
 10
44.45000000000005
 20
0.0
 30
0.0
 11
44.45000000000005
 21
-8.589010000000002
 31
0.0
  0
LINE
  5
D51
  8
3
 10
44.45000000000005
 20
8.589010000000002
 30
0.0
 11
44.45000000000005
 21
0.0
 31
0.0
  0
LINE
  5
D5B
  8
3
 10
36.31016030490014
 20
-25.39869
 30
0.0
 11
36.31016030490014
 21
-41.28131
 31
0.0
  0
LINE
  5
D5C
  8
3
 10
35.67203951059992
 20
-25.40869000000001
 30
0.0
 11
35.67203951059992
 21
-41.27131000000001
 31
0.0
  0
LINE
  5
D5D
  8
3
 10
34.74720000000002
 20
-25.65650000000001
 30
0.0
 11
34.74720000000002
 21
-35.03810898680001
 31
0.0
  0
LINE
  5
D5E
  8
3
 10
36.31016030490014
 20
41.28130999999999
 30
0.0
 11
36.31016030490014
 21
25.39868999999999
 31
0.0
  0
LINE
  5
D5F
  8
3
 10
35.67203951059992
 20
41.27131
 30
0.0
 11
35.67203951059992
 21
25.40869000000001
 31
0.0
  0
LINE
  5
D60
  8
3
 10
34.74720000000002
 20
35.08913422819998
 30
0.0
 11
34.74720000000002
 21
25.65649999999999
 31
0.0
  0
POLYLINE
  5
D62
  8
3
 66
     1
 10
0.0
 20
0.0
 30
0.0
  0
VERTEX
  5
1C21
  8
3
 10
26.0
 20
31.472883784
 30
0.0
  0
VERTEX
  5
1C22
  8
3
 10
26.86749848160002
 20
31.40849580259999
 30
0.0
  0
VERTEX
  5
1C23
  8
3
 10
27.63717542380004
 20
31.2196400592
 30
0.0
  0
VERTEX
  5
1C24
  8
3
 10
28.22381580730007
 20
30.91917383800001
 30
0.0
  0
VERTEX
  5
1C25
  8
3
 10
28.56030775890008
 20
30.5313677952
 30
0.0
  0
VERTEX
  5
1C26
  8
3
 10
28.60775711430006
 20
30.09462878869999
 30
0.0
  0
VERTEX
  5
1C27
  8
3
 10
28.36242987970013
 20
29.6575187238
 30
0.0
  0
VERTEX
  5
1C28
  8
3
 10
27.85187247110002
 20
29.27277948669999
 30
0.0
  0
VERTEX
  5
1C29
  8
3
 10
27.13146891650013
 20
28.991982788
 30
0.0
  0
VERTEX
  5
1C2A
  8
3
 10
26.52327705910011
 20
28.89488787639999
 30
0.0
  0
SEQEND
  5
2174
  8
3
  0
POLYLINE
  5
D63
  8
3
 66
     1
 10
0.0
 20
0.0
 30
0.0
  0
VERTEX
  5
1C2B
  8
3
 10
25.36246546820007
 20
28.8963758168
 30
0.0
  0
VERTEX
  5
1C2C
  8
3
 10
24.59416224990014
 20
29.07654230929998
 30
0.0
  0
VERTEX
  5
1C2D
  8
3
 10
23.94040920189991
 20
29.3993367022
 30
0.0
  0
VERTEX
  5
1C2E
  8
3
 10
23.51757432980003
 20
29.81023794479998
 30
0.0
  0
VERTEX
  5
1C2F
  8
3
 10
23.37505241529993
 20
30.2542280545
 30
0.0
  0
VERTEX
  5
1C30
  8
3
 10
23.52781611180012
 20
30.6775637799
 30
0.0
  0
VERTEX
  5
1C31
  8
3
 10
23.95775834920005
 20
31.03679846279999
 30
0.0
  0
VERTEX
  5
1C32
  8
3
 10
24.6183925844
 20
31.3001037965
 30
0.0
  0
VERTEX
  5
1C33
  8
3
 10
25.43590866380009
 20
31.44617701609999
 30
0.0
  0
VERTEX
  5
1C34
  8
3
 10
26.0
 20
31.472883784
 30
0.0
  0
SEQEND
  5
2173
  8
3
  0
POLYLINE
  5
D64
  8
3
 66
     1
 10
0.0
 20
0.0
 30
0.0
  0
VERTEX
  5
1C35
  8
3
 10
26.0
 20
-28.84788378410001
 30
0.0
  0
VERTEX
  5
1C36
  8
3
 10
26.86749848160002
 20
-28.93098265750001
 30
0.0
  0
VERTEX
  5
1C37
  8
3
 10
27.63717542380004
 20
-29.16774297820001
 30
0.0
  0
VERTEX
  5
1C38
  8
3
 10
28.22381580730007
 20
-29.52444509930001
 30
0.0
  0
VERTEX
  5
1C39
  8
3
 10
28.56030775890008
 20
-29.9521880482
 30
0.0
  0
VERTEX
  5
1C3A
  8
3
 10
28.60775711430006
 20
-30.39500827000001
 30
0.0
  0
VERTEX
  5
1C3B
  8
3
 10
28.36242987970013
 20
-30.8018744654
 30
0.0
  0
VERTEX
  5
1C3C
  8
3
 10
27.85187247110002
 20
-31.1332077575
 30
0.0
  0
VERTEX
  5
1C3D
  8
3
 10
27.13146891650013
 20
-31.3606117356
 30
0.0
  0
VERTEX
  5
1C3E
  8
3
 10
26.28300586010005
 20
-31.466229463
 30
0.0
  0
VERTEX
  5
1C3F
  8
3
 10
25.40456459780012
 20
-31.44307976850001
 30
0.0
  0
VERTEX
  5
1C40
  8
3
 10
24.59416224990014
 20
-31.2933520035
 30
0.0
  0
VERTEX
  5
1C41
  8
3
 10
23.94040920189991
 20
-31.02682272200001
 30
0.0
  0
VERTEX
  5
1C42
  8
3
 10
23.51757432980003
 20
-30.66357714590001
 30
0.0
  0
VERTEX
  5
1C43
  8
3
 10
23.37505241529993
 20
-30.23763957640001
 30
0.0
  0
VERTEX
  5
1C44
  8
3
 10
23.52781611180012
 20
-29.79499263650001
 30
0.0
  0
VERTEX
  5
1C45
  8
3
 10
23.95775834920005
 20
-29.3875944003
 30
0.0
  0
VERTEX
  5
1C46
  8
3
 10
24.6183925844
 20
-29.06811232050001
 30
0.0
  0
VERTEX
  5
1C47
  8
3
 10
25.43590866380009
 20
-28.88250270680001
 30
0.0
  0
VERTEX
  5
1C48
  8
3
 10
26.0
 20
-28.84788378410001
 30
0.0
  0
SEQEND
  5
2172
  8
3
  0
CIRCLE
  5
D65
  8
3
 10
26.0
 20
0.0
 30
0.0
 40
2.099999999999909
  0
LINE
  5
D66
  8
3
 10
25.40000000000009
 20
-2.012461179799999
 30
0.0
 11
25.40000000000009
 21
-2.5
 31
0.0
  0
LINE
  5
D67
  8
3
 10
25.40000000000009
 20
2.5
 30
0.0
 11
25.40000000000009
 21
2.012461179699983
 31
0.0
  0
LINE
  5
D73
  8
SK3
 10
-5.25
 20
0.0
 30
0.0
 11
-5.25
 21
11.09979999999999
 31
0.0
  0
LINE
  5
D74
  8
SK3
 10
-5.25
 20
-11.09980000000002
 30
0.0
 11
-5.25
 21
0.0
 31
0.0
  0
LINE
  5
D75
  8
SK3
 10
-4.761656058799872
 20
0.0
 30
0.0
 11
-4.761656058799872
 21
-8.731250000000017
 31
0.0
  0
LINE
  5
D76
  8
SK3
 10
-4.761656058799872
 20
8.731249999999989
 30
0.0
 11
-4.761656058799872
 21
0.0
 31
0.0
  0
LINE
  5
D79
  8
3
 10
36.29999999999995
 20
9.525000000000006
 30
0.0
 11
36.29999999999995
 21
-9.525000000000006
 31
0.0
  0
POLYLINE
  5
D7A
  8
3
 66
     1
 10
0.0
 20
0.0
 30
0.0
  0
VERTEX
  5
1C49
  8
3
 10
26.0
 20
8.389519393099988
 30
0.0
  0
VERTEX
  5
1C4A
  8
3
 10
26.68362752219991
 20
8.356164737
 30
0.0
  0
VERTEX
  5
1C4B
  8
3
 10
27.28998212850001
 20
8.252599333199981
 30
0.0
  0
VERTEX
  5
1C4C
  8
3
 10
27.76345667760006
 20
8.066860653999981
 30
0.0
  0
VERTEX
  5
1C4D
  8
3
 10
28.04315022719993
 20
7.79245502149999
 30
0.0
  0
VERTEX
  5
1C4E
  8
3
 10
28.08903242559995
 20
7.452033262699985
 30
0.0
  0
VERTEX
  5
1C4F
  8
3
 10
27.9086125755
 20
7.085390900600004
 30
0.0
  0
VERTEX
  5
1C50
  8
3
 10
27.52259294860005
 20
6.733890298999995
 30
0.0
  0
VERTEX
  5
1C51
  8
3
 10
26.95760788780012
 20
6.4517472295
 30
0.0
  0
VERTEX
  5
1C52
  8
3
 10
26.27869856899997
 20
6.302774733399986
 30
0.0
  0
VERTEX
  5
1C53
  8
3
 10
25.58354031189992
 20
6.319230159999989
 30
0.0
  0
VERTEX
  5
1C54
  8
3
 10
24.9448975406001
 20
6.488330871499983
 30
0.0
  0
VERTEX
  5
1C55
  8
3
 10
24.41125249790002
 20
6.780734302799999
 30
0.0
  0
VERTEX
  5
1C56
  8
3
 10
24.04443973999992
 20
7.149694579999988
 30
0.0
  0
VERTEX
  5
1C57
  8
3
 10
23.90123740400009
 20
7.525186499599982
 30
0.0
  0
VERTEX
  5
1C58
  8
3
 10
23.9913604377
 20
7.849181642499985
 30
0.0
  0
VERTEX
  5
1C59
  8
3
 10
24.29530950100002
 20
8.099717269699994
 30
0.0
  0
VERTEX
  5
1C5A
  8
3
 10
24.79178887169996
 20
8.272539931699981
 30
0.0
  0
VERTEX
  5
1C5B
  8
3
 10
25.43504337610011
 20
8.367098336699996
 30
0.0
  0
VERTEX
  5
1C5C
  8
3
 10
26.0
 20
8.389519393099988
 30
0.0
  0
SEQEND
  5
2171
  8
3
  0
POLYLINE
  5
D7B
  8
3
 66
     1
 10
0.0
 20
0.0
 30
0.0
  0
VERTEX
  5
1C5D
  8
3
 10
26.0
 20
-6.289519393099994
 30
0.0
  0
VERTEX
  5
1C5E
  8
3
 10
26.68362752219991
 20
-6.3705531409
 30
0.0
  0
VERTEX
  5
1C5F
  8
3
 10
27.28998212850001
 20
-6.595509683200021
 30
0.0
  0
VERTEX
  5
1C60
  8
3
 10
27.76345667760006
 20
-6.926588517200003
 30
0.0
  0
VERTEX
  5
1C61
  8
3
 10
28.04315022719993
 20
-7.307133325199999
 30
0.0
  0
VERTEX
  5
1C62
  8
3
 10
28.08903242559995
 20
-7.666377669500008
 30
0.0
  0
VERTEX
  5
1C63
  8
3
 10
27.9086125755
 20
-7.961289317300015
 30
0.0
  0
VERTEX
  5
1C64
  8
3
 10
27.52259294860005
 20
-8.1801650699
 30
0.0
  0
VERTEX
  5
1C65
  8
3
 10
26.95760788780012
 20
-8.320700715599997
 30
0.0
  0
VERTEX
  5
1C66
  8
3
 10
26.27869856899997
 20
-8.3841990313
 30
0.0
  0
VERTEX
  5
1C67
  8
3
 10
25.58354031189992
 20
-8.377521035499996
 30
0.0
  0
VERTEX
  5
1C68
  8
3
 10
24.9448975406001
 20
-8.304028753900013
 30
0.0
  0
VERTEX
  5
1C69
  8
3
 10
24.41125249790002
 20
-8.1540082649
 30
0.0
  0
VERTEX
  5
1C6A
  8
3
 10
24.04443973999992
 20
-7.915059897800006
 30
0.0
  0
VERTEX
  5
1C6B
  8
3
 10
23.90123740400009
 20
-7.597266773200005
 30
0.0
  0
VERTEX
  5
1C6C
  8
3
 10
23.9913604377
 20
-7.236509536900002
 30
0.0
  0
VERTEX
  5
1C6D
  8
3
 10
24.29530950100002
 20
-6.873328137900018
 30
0.0
  0
VERTEX
  5
1C6E
  8
3
 10
24.79178887169996
 20
-6.5549177762
 30
0.0
  0
VERTEX
  5
1C6F
  8
3
 10
25.43504337610011
 20
-6.344519781200006
 30
0.0
  0
VERTEX
  5
1C70
  8
3
 10
26.0
 20
-6.289519393099994
 30
0.0
  0
SEQEND
  5
2170
  8
3
  0
LINE
  5
D7C
  8
3
 10
33.79999999999995
 20
-25.40525000000001
 30
0.0
 11
33.79999999999995
 21
-34.1716692092
 31
0.0
  0
LINE
  5
D7D
  8
3
 10
33.79999999999995
 20
34.17166920919999
 30
0.0
 11
33.79999999999995
 21
25.40525
 31
0.0
  0
POLYLINE
  5
D82
  8
3
 66
     1
 10
0.0
 20
0.0
 30
0.0
  0
VERTEX
  5
1C71
  8
3
 10
23.90000002400006
 20
12.12744422059998
 30
0.0
  0
VERTEX
  5
1C72
  8
3
 10
23.90000000200007
 20
12.1275016397
 30
0.0
  0
VERTEX
  5
1C73
  8
3
 10
23.90000038690005
 20
12.12789152240001
 30
0.0
  0
VERTEX
  5
1C74
  8
3
 10
23.90000127470012
 20
12.1278816313
 30
0.0
  0
VERTEX
  5
1C75
  8
3
 10
23.9000022747
 20
12.1274731922
 30
0.0
  0
VERTEX
  5
1C76
  8
3
 10
23.90000294750007
 20
12.12671332529999
 30
0.0
  0
VERTEX
  5
1C77
  8
3
 10
23.90000299939993
 20
12.1256887262
 30
0.0
  0
VERTEX
  5
1C78
  8
3
 10
23.90000240929999
 20
12.12451492139999
 30
0.0
  0
VERTEX
  5
1C79
  8
3
 10
23.90000143530006
 20
12.1233232351
 30
0.0
  0
VERTEX
  5
1C7A
  8
3
 10
23.90000050250001
 20
12.12224694
 30
0.0
  0
VERTEX
  5
1C7B
  8
3
 10
23.90000001940007
 20
12.1214072459
 30
0.0
  0
VERTEX
  5
1C7C
  8
3
 10
23.90000019929994
 20
12.12089975629999
 30
0.0
  0
VERTEX
  5
1C7D
  8
3
 10
23.90000096450012
 20
12.12078281449999
 30
0.0
  0
VERTEX
  5
1C7E
  8
3
 10
23.90000197840004
 20
12.12106986960001
 30
0.0
  0
VERTEX
  5
1C7F
  8
3
 10
23.90000253879998
 20
12.12144159549999
 30
0.0
  0
VERTEX
  5
1C80
  8
3
 10
23.90000253879998
 20
12.12144159549999
 30
0.0
  0
SEQEND
  5
216F
  8
3
  0
POLYLINE
  5
D83
  8
3
 66
     1
 10
0.0
 20
0.0
 30
0.0
  0
VERTEX
  5
1C81
  8
3
 10
26.0
 20
29.97524848640001
 30
0.0
  0
VERTEX
  5
1C82
  8
3
 10
26.7182423009001
 20
29.91192573819998
 30
0.0
  0
VERTEX
  5
1C83
  8
3
 10
27.34985398029994
 20
29.72959515169998
 30
0.0
  0
VERTEX
  5
1C84
  8
3
 10
27.81865334789995
 20
29.4502484864
 30
0.0
  0
VERTEX
  5
1C85
  8
3
 10
28.06809628130009
 20
29.10757907289999
 30
0.0
  0
VERTEX
  5
1C86
  8
3
 10
28.06809628130009
 20
28.74291789980001
 30
0.0
  0
VERTEX
  5
1C87
  8
3
 10
27.81865334789995
 20
28.40024848639999
 30
0.0
  0
VERTEX
  5
1C88
  8
3
 10
27.34985398029994
 20
28.12090182110001
 30
0.0
  0
VERTEX
  5
1C89
  8
3
 10
26.7182423009001
 20
27.9385712346
 30
0.0
  0
VERTEX
  5
1C8A
  8
3
 10
26.0
 20
27.87524848639998
 30
0.0
  0
VERTEX
  5
1C8B
  8
3
 10
25.28175769900008
 20
27.9385712346
 30
0.0
  0
VERTEX
  5
1C8C
  8
3
 10
24.65014601960002
 20
28.12090182110001
 30
0.0
  0
VERTEX
  5
1C8D
  8
3
 10
24.181346652
 20
28.40024848639999
 30
0.0
  0
VERTEX
  5
1C8E
  8
3
 10
23.9319037186001
 20
28.74291789980001
 30
0.0
  0
VERTEX
  5
1C8F
  8
3
 10
23.9319037186001
 20
29.10757907289999
 30
0.0
  0
VERTEX
  5
1C90
  8
3
 10
24.181346652
 20
29.4502484864
 30
0.0
  0
VERTEX
  5
1C91
  8
3
 10
24.65014601960002
 20
29.72959515169998
 30
0.0
  0
VERTEX
  5
1C92
  8
3
 10
25.28175769900008
 20
29.91192573819998
 30
0.0
  0
VERTEX
  5
1C93
  8
3
 10
26.0
 20
29.97524848640001
 30
0.0
  0
SEQEND
  5
216E
  8
3
  0
ARC
  5
D84
  8
3
 10
27.57761044740005
 20
11.1181250631
 30
0.0
 40
2.528237975525624
 50
149.4646047240009
 51
210.5353952759991
  0
POLYLINE
  5
D85
  8
3
 66
     1
 10
0.0
 20
0.0
 30
0.0
  0
VERTEX
  5
1C94
  8
3
 10
25.40000000000009
 20
9.833601805200004
 30
0.0
  0
VERTEX
  5
1C95
  8
3
 10
25.82202241970003
 20
9.893330882300006
 30
0.0
  0
VERTEX
  5
1C96
  8
3
 10
26.27011404450013
 20
9.885279304199997
 30
0.0
  0
VERTEX
  5
1C97
  8
3
 10
26.74047617740007
 20
9.803427920299981
 30
0.0
  0
VERTEX
  5
1C98
  8
3
 10
27.37007136260013
 20
9.658923482399985
 30
0.0
  0
VERTEX
  5
1C99
  8
3
 10
27.85464990569994
 20
9.641919994700004
 30
0.0
  0
VERTEX
  5
1C9A
  8
3
 10
28.05370248910003
 20
9.773597180999985
 30
0.0
  0
VERTEX
  5
1C9B
  8
3
 10
28.09340517390001
 20
10.0472360306
 30
0.0
  0
VERTEX
  5
1C9C
  8
3
 10
27.9820536277
 20
10.3912928917
 30
0.0
  0
VERTEX
  5
1C9D
  8
3
 10
27.74221771290013
 20
10.79839327339999
 30
0.0
  0
VERTEX
  5
1C9E
  8
3
 10
27.22223539569995
 20
11.39692762659999
 30
0.0
  0
VERTEX
  5
1C9F
  8
3
 10
26.52640161160002
 20
11.88074369349999
 30
0.0
  0
VERTEX
  5
1CA0
  8
3
 10
26.11909574600008
 20
11.99341265699999
 30
0.0
  0
VERTEX
  5
1CA1
  8
3
 10
25.69520172469993
 20
11.9592119031
 30
0.0
  0
VERTEX
  5
1CA2
  8
3
 10
25.40000000000009
 20
11.846062985
 30
0.0
  0
SEQEND
  5
216D
  8
3
  0
ARC
  5
D86
  8
3
 10
27.57761044740005
 20
13.13058624280001
 30
0.0
 40
2.528237975524906
 50
149.4646047239998
 51
210.5353952759996
  0
POLYLINE
  5
D87
  8
3
 66
     1
 10
0.0
 20
0.0
 30
0.0
  0
VERTEX
  5
1CA3
  8
3
 10
25.40000000000009
 20
14.4151095007
 30
0.0
  0
VERTEX
  5
1CA4
  8
3
 10
25.82202241970003
 20
14.3553804236
 30
0.0
  0
VERTEX
  5
1CA5
  8
3
 10
26.27011404450013
 20
14.36343200170001
 30
0.0
  0
VERTEX
  5
1CA6
  8
3
 10
26.74047617740007
 20
14.44528338559999
 30
0.0
  0
VERTEX
  5
1CA7
  8
3
 10
27.37007136260013
 20
14.58978782360001
 30
0.0
  0
VERTEX
  5
1CA8
  8
3
 10
27.85464990569994
 20
14.60679131129999
 30
0.0
  0
VERTEX
  5
1CA9
  8
3
 10
28.05370248910003
 20
14.47511412489999
 30
0.0
  0
VERTEX
  5
1CAA
  8
3
 10
28.09340517390001
 20
14.2014752753
 30
0.0
  0
VERTEX
  5
1CAB
  8
3
 10
27.9820536277
 20
13.8574184142
 30
0.0
  0
VERTEX
  5
1CAC
  8
3
 10
27.74221771290013
 20
13.45031803259999
 30
0.0
  0
VERTEX
  5
1CAD
  8
3
 10
27.22223539569995
 20
12.8517836794
 30
0.0
  0
VERTEX
  5
1CAE
  8
3
 10
26.52640161160002
 20
12.36796761239998
 30
0.0
  0
VERTEX
  5
1CAF
  8
3
 10
26.11909574600008
 20
12.25529864889998
 30
0.0
  0
VERTEX
  5
1CB0
  8
3
 10
25.69520172469993
 20
12.2894994028
 30
0.0
  0
VERTEX
  5
1CB1
  8
3
 10
25.40000000000009
 20
12.40264832099999
 30
0.0
  0
SEQEND
  5
216C
  8
3
  0
ARC
  5
D88
  8
3
 10
21.5127375423001
 20
-12.1236027798
 30
0.0
 40
2.387265301035944
 50
359.9120161021001
 51
0.0668179458003131
  0
POLYLINE
  5
D89
  8
3
 66
     1
 10
0.0
 20
0.0
 30
0.0
  0
VERTEX
  5
1CB2
  8
3
 10
23.90000080749996
 20
-12.12082425280002
 30
0.0
  0
VERTEX
  5
1CB3
  8
3
 10
23.9000003522001
 20
-12.1208303073
 30
0.0
  0
VERTEX
  5
1CB4
  8
3
 10
23.90000000019995
 20
-12.12123940239999
 30
0.0
  0
VERTEX
  5
1CB5
  8
3
 10
23.90000032000012
 20
-12.12200092610001
 30
0.0
  0
VERTEX
  5
1CB6
  8
3
 10
23.90000117220006
 20
-12.12302899170001
 30
0.0
  0
VERTEX
  5
1CB7
  8
3
 10
23.90000218160003
 20
-12.12420666209999
 30
0.0
  0
VERTEX
  5
1CB8
  8
3
 10
23.90000290460011
 20
-12.1254000982
 30
0.0
  0
VERTEX
  5
1CB9
  8
3
 10
23.90000302540011
 20
-12.1264746539
 30
0.0
  0
VERTEX
  5
1CBA
  8
3
 10
23.90000249269997
 20
-12.12731014810001
 30
0.0
  0
VERTEX
  5
1CBB
  8
3
 10
23.90000153970004
 20
-12.12781350189999
 30
0.0
  0
VERTEX
  5
1CBC
  8
3
 10
23.90000058229998
 20
-12.12792818060001
 30
0.0
  0
VERTEX
  5
1CBD
  8
3
 10
23.90000003950013
 20
-12.12764037080001
 30
0.0
  0
VERTEX
  5
1CBE
  8
3
 10
23.90000002860006
 20
-12.12726868370001
 30
0.0
  0
VERTEX
  5
1CBF
  8
3
 10
23.90000002860006
 20
-12.12726868370001
 30
0.0
  0
SEQEND
  5
216B
  8
3
  0
POLYLINE
  5
D8A
  8
3
 66
     1
 10
0.0
 20
0.0
 30
0.0
  0
VERTEX
  5
1CC0
  8
3
 10
26.0
 20
-27.87524848640001
 30
0.0
  0
VERTEX
  5
1CC1
  8
3
 10
26.7182423009001
 20
-27.9385712346
 30
0.0
  0
VERTEX
  5
1CC2
  8
3
 10
27.34985398029994
 20
-28.12090182110001
 30
0.0
  0
VERTEX
  5
1CC3
  8
3
 10
27.81865334789995
 20
-28.4002484864
 30
0.0
  0
VERTEX
  5
1CC4
  8
3
 10
28.06809628130009
 20
-28.74291789990001
 30
0.0
  0
VERTEX
  5
1CC5
  8
3
 10
28.06809628130009
 20
-29.10757907300001
 30
0.0
  0
VERTEX
  5
1CC6
  8
3
 10
27.81865334789995
 20
-29.45024848640001
 30
0.0
  0
VERTEX
  5
1CC7
  8
3
 10
27.34985398029994
 20
-29.72959515170001
 30
0.0
  0
VERTEX
  5
1CC8
  8
3
 10
26.7182423009001
 20
-29.91192573820001
 30
0.0
  0
VERTEX
  5
1CC9
  8
3
 10
26.0
 20
-29.97524848640001
 30
0.0
  0
VERTEX
  5
1CCA
  8
3
 10
25.28175769900008
 20
-29.91192573820001
 30
0.0
  0
VERTEX
  5
1CCB
  8
3
 10
24.65014601960002
 20
-29.72959515170001
 30
0.0
  0
VERTEX
  5
1CCC
  8
3
 10
24.181346652
 20
-29.45024848640001
 30
0.0
  0
VERTEX
  5
1CCD
  8
3
 10
23.9319037186001
 20
-29.10757907300001
 30
0.0
  0
VERTEX
  5
1CCE
  8
3
 10
23.9319037186001
 20
-28.74291789990001
 30
0.0
  0
VERTEX
  5
1CCF
  8
3
 10
24.181346652
 20
-28.4002484864
 30
0.0
  0
VERTEX
  5
1CD0
  8
3
 10
24.65014601960002
 20
-28.12090182110001
 30
0.0
  0
VERTEX
  5
1CD1
  8
3
 10
25.28175769900008
 20
-27.9385712346
 30
0.0
  0
VERTEX
  5
1CD2
  8
3
 10
26.0
 20
-27.87524848640001
 30
0.0
  0
SEQEND
  5
216A
  8
3
  0
ARC
  5
D8B
  8
3
 10
27.51271380310004
 20
-11.1181250631
 30
0.0
 40
2.472561346864989
 50
148.7005320084989
 51
211.2994679915012
  0
POLYLINE
  5
D8C
  8
3
 66
     1
 10
0.0
 20
0.0
 30
0.0
  0
VERTEX
  5
1CD3
  8
3
 10
25.40000000000009
 20
-12.40264832100002
 30
0.0
  0
VERTEX
  5
1CD4
  8
3
 10
25.82202241970003
 20
-12.26293592480002
 30
0.0
  0
VERTEX
  5
1CD5
  8
3
 10
26.27011404450013
 20
-12.28087626350001
 30
0.0
  0
VERTEX
  5
1CD6
  8
3
 10
26.74047617740007
 20
-12.48016378860001
 30
0.0
  0
VERTEX
  5
1CD7
  8
3
 10
27.37007136260013
 20
-12.99827770390002
 30
0.0
  0
VERTEX
  5
1CD8
  8
3
 10
27.85464990569994
 20
-13.6217665769
 30
0.0
  0
VERTEX
  5
1CD9
  8
3
 10
28.05370248910003
 20
-14.0365869467
 30
0.0
  0
VERTEX
  5
1CDA
  8
3
 10
28.09340517390001
 20
-14.36777253280002
 30
0.0
  0
VERTEX
  5
1CDB
  8
3
 10
27.9820536277
 20
-14.55129406360001
 30
0.0
  0
VERTEX
  5
1CDC
  8
3
 10
27.74221771290013
 20
-14.6227844247
 30
0.0
  0
VERTEX
  5
1CDD
  8
3
 10
27.22223539569995
 20
-14.5594547945
 30
0.0
  0
VERTEX
  5
1CDE
  8
3
 10
26.52640161160002
 20
-14.40092145920002
 30
0.0
  0
VERTEX
  5
1CDF
  8
3
 10
26.11909574600008
 20
-14.3519188347
 30
0.0
  0
VERTEX
  5
1CE0
  8
3
 10
25.69520172469993
 20
-14.36726214470002
 30
0.0
  0
VERTEX
  5
1CE1
  8
3
 10
25.40000000000009
 20
-14.4151095007
 30
0.0
  0
SEQEND
  5
2169
  8
3
  0
ARC
  5
D8D
  8
3
 10
27.51271380310004
 20
-13.13058624289999
 30
0.0
 40
2.472561346865242
 50
148.7005320084994
 51
211.2994679915981
  0
POLYLINE
  5
D8E
  8
3
 66
     1
 10
0.0
 20
0.0
 30
0.0
  0
VERTEX
  5
1CE2
  8
3
 10
25.40000000000009
 20
-11.846062985
 30
0.0
  0
VERTEX
  5
1CE3
  8
3
 10
25.82202241970003
 20
-11.9857753812
 30
0.0
  0
VERTEX
  5
1CE4
  8
3
 10
26.27011404450013
 20
-11.96783504250001
 30
0.0
  0
VERTEX
  5
1CE5
  8
3
 10
26.74047617740007
 20
-11.76854751740001
 30
0.0
  0
VERTEX
  5
1CE6
  8
3
 10
27.37007136260013
 20
-11.25043360220002
 30
0.0
  0
VERTEX
  5
1CE7
  8
3
 10
27.85464990569994
 20
-10.62694472910002
 30
0.0
  0
VERTEX
  5
1CE8
  8
3
 10
28.05370248910003
 20
-10.21212435930002
 30
0.0
  0
VERTEX
  5
1CE9
  8
3
 10
28.09340517390001
 20
-9.8809387732
 30
0.0
  0
VERTEX
  5
1CEA
  8
3
 10
27.9820536277
 20
-9.697417242400007
 30
0.0
  0
VERTEX
  5
1CEB
  8
3
 10
27.74221771290013
 20
-9.625926881300018
 30
0.0
  0
VERTEX
  5
1CEC
  8
3
 10
27.22223539569995
 20
-9.68925651150002
 30
0.0
  0
VERTEX
  5
1CED
  8
3
 10
26.52640161160002
 20
-9.847789846799998
 30
0.0
  0
VERTEX
  5
1CEE
  8
3
 10
26.11909574600008
 20
-9.896792471300017
 30
0.0
  0
VERTEX
  5
1CEF
  8
3
 10
25.69520172469993
 20
-9.881449161299997
 30
0.0
  0
VERTEX
  5
1CF0
  8
3
 10
25.40000000000009
 20
-9.83360180530002
 30
0.0
  0
SEQEND
  5
2168
  8
3
  0
LINE
  5
D8F
  8
3
 10
25.40000000000009
 20
-11.846062985
 30
0.0
 11
25.40000000000009
 21
-9.83360180530002
 31
0.0
  0
LINE
  5
D90
  8
3
 10
25.40000000000009
 20
-11.846062985
 30
0.0
 11
25.40000000000009
 21
-14.4151095007
 31
0.0
  0
LINE
  5
D91
  8
3
 10
25.40000000000009
 20
9.833601805200004
 30
0.0
 11
25.40000000000009
 21
11.846062985
 31
0.0
  0
LINE
  5
D92
  8
3
 10
25.40000000000009
 20
14.4151095007
 30
0.0
 11
25.40000000000009
 21
11.846062985
 31
0.0
  0
POLYLINE
  5
D93
  8
3
 66
     1
 10
0.0
 20
0.0
 30
0.0
  0
VERTEX
  5
1CF1
  8
3
 10
26.0
 20
-28.06741182340001
 30
0.0
  0
VERTEX
  5
1CF2
  8
3
 10
26.81116961020007
 20
-28.13165014580001
 30
0.0
  0
VERTEX
  5
1CF3
  8
3
 10
27.54293628720006
 20
-28.3180770183
 30
0.0
  0
VERTEX
  5
1CF4
  8
3
 10
28.12366961020007
 20
-28.6084436798
 30
0.0
  0
VERTEX
  5
1CF5
  8
3
 10
28.4965233552
 20
-28.9743270183
 30
0.0
  0
VERTEX
  5
1CF6
  8
3
 10
28.625
 20
-29.37991182340001
 30
0.0
  0
VERTEX
  5
1CF7
  8
3
 10
28.4965233552
 20
-29.78549662850001
 30
0.0
  0
VERTEX
  5
1CF8
  8
3
 10
28.12366961020007
 20
-30.15137996700001
 30
0.0
  0
VERTEX
  5
1CF9
  8
3
 10
27.54293628720006
 20
-30.44174662850001
 30
0.0
  0
VERTEX
  5
1CFA
  8
3
 10
26.81116961020007
 20
-30.62817350100001
 30
0.0
  0
VERTEX
  5
1CFB
  8
3
 10
26.0
 20
-30.69241182340001
 30
0.0
  0
VERTEX
  5
1CFC
  8
3
 10
25.18883038970012
 20
-30.62817350100001
 30
0.0
  0
VERTEX
  5
1CFD
  8
3
 10
24.45706371270012
 20
-30.44174662850001
 30
0.0
  0
VERTEX
  5
1CFE
  8
3
 10
23.87633038970012
 20
-30.15137996700001
 30
0.0
  0
VERTEX
  5
1CFF
  8
3
 10
23.50347664469996
 20
-29.78549662850001
 30
0.0
  0
VERTEX
  5
1D00
  8
3
 10
23.375
 20
-29.37991182340001
 30
0.0
  0
VERTEX
  5
1D01
  8
3
 10
23.50347664469996
 20
-28.9743270183
 30
0.0
  0
VERTEX
  5
1D02
  8
3
 10
23.87633038970012
 20
-28.6084436798
 30
0.0
  0
VERTEX
  5
1D03
  8
3
 10
24.45706371270012
 20
-28.3180770183
 30
0.0
  0
VERTEX
  5
1D04
  8
3
 10
25.18883038970012
 20
-28.13165014580001
 30
0.0
  0
VERTEX
  5
1D05
  8
3
 10
26.0
 20
-28.06741182340001
 30
0.0
  0
SEQEND
  5
2167
  8
3
  0
POLYLINE
  5
D94
  8
3
 66
     1
 10
0.0
 20
0.0
 30
0.0
  0
VERTEX
  5
1D06
  8
3
 10
26.0
 20
30.69241182339999
 30
0.0
  0
VERTEX
  5
1D07
  8
3
 10
26.81116961020007
 20
30.62817350099999
 30
0.0
  0
VERTEX
  5
1D08
  8
3
 10
27.54293628720006
 20
30.4417466285
 30
0.0
  0
VERTEX
  5
1D09
  8
3
 10
28.12366961020007
 20
30.151379967
 30
0.0
  0
VERTEX
  5
1D0A
  8
3
 10
28.4965233552
 20
29.7854966285
 30
0.0
  0
VERTEX
  5
1D0B
  8
3
 10
28.625
 20
29.37991182339999
 30
0.0
  0
VERTEX
  5
1D0C
  8
3
 10
28.4965233552
 20
28.9743270182
 30
0.0
  0
VERTEX
  5
1D0D
  8
3
 10
28.12366961020007
 20
28.6084436797
 30
0.0
  0
VERTEX
  5
1D0E
  8
3
 10
27.54293628720006
 20
28.3180770182
 30
0.0
  0
VERTEX
  5
1D0F
  8
3
 10
26.81116961020007
 20
28.13165014569998
 30
0.0
  0
VERTEX
  5
1D10
  8
3
 10
26.0
 20
28.06741182339999
 30
0.0
  0
VERTEX
  5
1D11
  8
3
 10
25.18883038970012
 20
28.13165014569998
 30
0.0
  0
VERTEX
  5
1D12
  8
3
 10
24.45706371270012
 20
28.3180770182
 30
0.0
  0
VERTEX
  5
1D13
  8
3
 10
23.87633038970012
 20
28.6084436797
 30
0.0
  0
VERTEX
  5
1D14
  8
3
 10
23.50347664469996
 20
28.9743270182
 30
0.0
  0
VERTEX
  5
1D15
  8
3
 10
23.375
 20
29.37991182339999
 30
0.0
  0
VERTEX
  5
1D16
  8
3
 10
23.50347664469996
 20
29.7854966285
 30
0.0
  0
VERTEX
  5
1D17
  8
3
 10
23.87633038970012
 20
30.151379967
 30
0.0
  0
VERTEX
  5
1D18
  8
3
 10
24.45706371270012
 20
30.4417466285
 30
0.0
  0
VERTEX
  5
1D19
  8
3
 10
25.18883038970012
 20
30.62817350099999
 30
0.0
  0
VERTEX
  5
1D1A
  8
3
 10
26.0
 20
30.69241182339999
 30
0.0
  0
SEQEND
  5
2166
  8
3
  0
POLYLINE
  5
D95
  8
3
 66
     1
 10
0.0
 20
0.0
 30
0.0
  0
VERTEX
  5
1D1B
  8
3
 10
25.99999999989996
 20
-25.05875940070001
 30
0.0
  0
VERTEX
  5
1D1C
  8
3
 10
25.3678270841001
 20
-24.99967260140001
 30
0.0
  0
VERTEX
  5
1D1D
  8
3
 10
24.8210326236001
 20
-24.83039220330001
 30
0.0
  0
VERTEX
  5
1D1E
  8
3
 10
24.43346424009997
 20
-24.573780462
 30
0.0
  0
VERTEX
  5
1D1F
  8
3
 10
24.25746519140012
 20
-24.2644942152
 30
0.0
  0
VERTEX
  5
1D20
  8
3
 10
24.31680512439993
 20
-23.9443042844
 30
0.0
  0
VERTEX
  5
1D21
  8
3
 10
24.60346985220008
 20
-23.65645409390001
 30
0.0
  0
VERTEX
  5
1D22
  8
3
 10
25.07874371489993
 20
-23.43981940690003
 30
0.0
  0
VERTEX
  5
1D23
  8
3
 10
25.67843834380005
 20
-23.32365793849999
 30
0.0
  0
VERTEX
  5
1D24
  8
3
 10
26.32156165610013
 20
-23.32365793849999
 30
0.0
  0
VERTEX
  5
1D25
  8
3
 10
26.92125628500003
 20
-23.43981940690003
 30
0.0
  0
VERTEX
  5
1D26
  8
3
 10
27.3965301477001
 20
-23.65645409390001
 30
0.0
  0
VERTEX
  5
1D27
  8
3
 10
27.68319487550002
 20
-23.9443042844
 30
0.0
  0
VERTEX
  5
1D28
  8
3
 10
27.74253480850007
 20
-24.2644942152
 30
0.0
  0
VERTEX
  5
1D29
  8
3
 10
27.56653575979999
 20
-24.573780462
 30
0.0
  0
VERTEX
  5
1D2A
  8
3
 10
27.17896737630008
 20
-24.83039220330001
 30
0.0
  0
VERTEX
  5
1D2B
  8
3
 10
26.63217291580008
 20
-24.99967260140001
 30
0.0
  0
VERTEX
  5
1D2C
  8
3
 10
25.99999999989996
 20
-25.05875940070001
 30
0.0
  0
SEQEND
  5
2165
  8
3
  0
POLYLINE
  5
D96
  8
3
 66
     1
 10
0.0
 20
0.0
 30
0.0
  0
VERTEX
  5
1D2D
  8
3
 10
23.68326725650013
 20
-24.67456435370001
 30
0.0
  0
VERTEX
  5
1D2E
  8
3
 10
23.80879422680005
 20
-24.2984434076
 30
0.0
  0
VERTEX
  5
1D2F
  8
3
 10
24.17177234259998
 20
-23.96308100220001
 30
0.0
  0
VERTEX
  5
1D30
  8
3
 10
24.73286729310007
 20
-23.70481885769999
 30
0.0
  0
VERTEX
  5
1D31
  8
3
 10
25.43127573380002
 20
-23.5516436849
 30
0.0
  0
VERTEX
  5
1D32
  8
3
 10
26.19131427349998
 20
-23.52015439040002
 30
0.0
  0
VERTEX
  5
1D33
  8
3
 10
26.93062094309994
 20
-23.613763328
 30
0.0
  0
VERTEX
  5
1D34
  8
3
 10
27.56908039349992
 20
-23.8223265167
 30
0.0
  0
VERTEX
  5
1D35
  8
3
 10
28.03750563640006
 20
-24.1232428989
 30
0.0
  0
VERTEX
  5
1D36
  8
3
 10
28.28513552840013
 20
-24.48390351530001
 30
0.0
  0
VERTEX
  5
1D37
  8
3
 10
28.28513552840013
 20
-24.86522519200001
 30
0.0
  0
VERTEX
  5
1D38
  8
3
 10
28.03750563640006
 20
-25.22588580850001
 30
0.0
  0
VERTEX
  5
1D39
  8
3
 10
27.56908039349992
 20
-25.52680219070001
 30
0.0
  0
VERTEX
  5
1D3A
  8
3
 10
26.93062094309994
 20
-25.73536537940001
 30
0.0
  0
VERTEX
  5
1D3B
  8
3
 10
26.19131427349998
 20
-25.828974317
 30
0.0
  0
VERTEX
  5
1D3C
  8
3
 10
25.43127573380002
 20
-25.79748502250001
 30
0.0
  0
VERTEX
  5
1D3D
  8
3
 10
24.73286729310007
 20
-25.64430984960001
 30
0.0
  0
VERTEX
  5
1D3E
  8
3
 10
24.17177234259998
 20
-25.38604770520001
 30
0.0
  0
VERTEX
  5
1D3F
  8
3
 10
23.80879422680005
 20
-25.05068529970001
 30
0.0
  0
VERTEX
  5
1D40
  8
3
 10
23.68326725650013
 20
-24.67456435370001
 30
0.0
  0
SEQEND
  5
2164
  8
3
  0
POLYLINE
  5
D97
  8
3
 66
     1
 10
0.0
 20
0.0
 30
0.0
  0
VERTEX
  5
1D41
  8
3
 10
28.05499999990002
 20
-24.8332784392
 30
0.0
  0
VERTEX
  5
1D42
  8
3
 10
27.93106833570005
 20
-25.1847041364
 30
0.0
  0
VERTEX
  5
1D43
  8
3
 10
27.57422133060004
 20
-25.4937427081
 30
0.0
  0
VERTEX
  5
1D44
  8
3
 10
27.0274999999001
 20
-25.72311954160001
 30
0.0
  0
VERTEX
  5
1D45
  8
3
 10
26.35684700510001
 20
-25.8451684054
 30
0.0
  0
VERTEX
  5
1D46
  8
3
 10
25.64315299479995
 20
-25.8451684054
 30
0.0
  0
VERTEX
  5
1D47
  8
3
 10
24.97249999990004
 20
-25.72311954160001
 30
0.0
  0
VERTEX
  5
1D48
  8
3
 10
24.42577866929992
 20
-25.4937427081
 30
0.0
  0
VERTEX
  5
1D49
  8
3
 10
24.06893166420014
 20
-25.1847041364
 30
0.0
  0
VERTEX
  5
1D4A
  8
3
 10
23.94499999990012
 20
-24.8332784392
 30
0.0
  0
VERTEX
  5
1D4B
  8
3
 10
24.06893166420014
 20
-24.48185274190001
 30
0.0
  0
VERTEX
  5
1D4C
  8
3
 10
24.42577866929992
 20
-24.17281417020001
 30
0.0
  0
VERTEX
  5
1D4D
  8
3
 10
24.97249999990004
 20
-23.9434373368
 30
0.0
  0
VERTEX
  5
1D4E
  8
3
 10
25.64315299479995
 20
-23.82138847300001
 30
0.0
  0
VERTEX
  5
1D4F
  8
3
 10
26.35684700510001
 20
-23.82138847300001
 30
0.0
  0
VERTEX
  5
1D50
  8
3
 10
27.0274999999001
 20
-23.9434373368
 30
0.0
  0
VERTEX
  5
1D51
  8
3
 10
27.57422133060004
 20
-24.17281417020001
 30
0.0
  0
VERTEX
  5
1D52
  8
3
 10
27.93106833570005
 20
-24.48185274190001
 30
0.0
  0
VERTEX
  5
1D53
  8
3
 10
28.05499999990002
 20
-24.8332784392
 30
0.0
  0
SEQEND
  5
2163
  8
3
  0
POLYLINE
  5
D98
  8
3
 66
     1
 10
0.0
 20
0.0
 30
0.0
  0
VERTEX
  5
1D54
  8
3
 10
28.49999999989996
 20
-25.10312533380001
 30
0.0
  0
VERTEX
  5
1D55
  8
3
 10
28.37764129070001
 20
-25.4893965768
 30
0.0
  0
VERTEX
  5
1D56
  8
3
 10
28.02254248589998
 20
-25.83785689920001
 30
0.0
  0
VERTEX
  5
1D57
  8
3
 10
27.46946313069998
 20
-26.1143965768
 30
0.0
  0
VERTEX
  5
1D58
  8
3
 10
26.77254248589998
 20
-26.29194597920001
 30
0.0
  0
VERTEX
  5
1D59
  8
3
 10
25.99999999989996
 20
-26.35312533380001
 30
0.0
  0
VERTEX
  5
1D5A
  8
3
 10
25.22745751399998
 20
-26.29194597920001
 30
0.0
  0
VERTEX
  5
1D5B
  8
3
 10
24.53053686919998
 20
-26.1143965768
 30
0.0
  0
VERTEX
  5
1D5C
  8
3
 10
23.97745751399998
 20
-25.83785689920001
 30
0.0
  0
VERTEX
  5
1D5D
  8
3
 10
23.62235870919994
 20
-25.4893965768
 30
0.0
  0
VERTEX
  5
1D5E
  8
3
 10
23.49999999989996
 20
-25.10312533380001
 30
0.0
  0
VERTEX
  5
1D5F
  8
3
 10
23.62235870919994
 20
-24.71685409080001
 30
0.0
  0
VERTEX
  5
1D60
  8
3
 10
23.97745751399998
 20
-24.36839376840001
 30
0.0
  0
VERTEX
  5
1D61
  8
3
 10
24.53053686919998
 20
-24.09185409080001
 30
0.0
  0
VERTEX
  5
1D62
  8
3
 10
25.22745751399998
 20
-23.91430468840001
 30
0.0
  0
VERTEX
  5
1D63
  8
3
 10
25.99999999989996
 20
-23.85312533379999
 30
0.0
  0
VERTEX
  5
1D64
  8
3
 10
26.77254248589998
 20
-23.91430468840001
 30
0.0
  0
VERTEX
  5
1D65
  8
3
 10
27.46946313069998
 20
-24.09185409080001
 30
0.0
  0
VERTEX
  5
1D66
  8
3
 10
28.02254248589998
 20
-24.36839376840001
 30
0.0
  0
VERTEX
  5
1D67
  8
3
 10
28.37764129070001
 20
-24.71685409080001
 30
0.0
  0
VERTEX
  5
1D68
  8
3
 10
28.49999999989996
 20
-25.10312533380001
 30
0.0
  0
SEQEND
  5
2162
  8
3
  0
POLYLINE
  5
D99
  8
3
 66
     1
 10
0.0
 20
0.0
 30
0.0
  0
VERTEX
  5
1D69
  8
3
 10
28.49999999989996
 20
-25.1811648852
 30
0.0
  0
VERTEX
  5
1D6A
  8
3
 10
28.37764129070001
 20
-25.56743612810001
 30
0.0
  0
VERTEX
  5
1D6B
  8
3
 10
28.02254248589998
 20
-25.9158964505
 30
0.0
  0
VERTEX
  5
1D6C
  8
3
 10
27.46946313069998
 20
-26.19243612810001
 30
0.0
  0
VERTEX
  5
1D6D
  8
3
 10
26.77254248589998
 20
-26.3699855305
 30
0.0
  0
VERTEX
  5
1D6E
  8
3
 10
25.99999999989996
 20
-26.4311648852
 30
0.0
  0
VERTEX
  5
1D6F
  8
3
 10
25.22745751399998
 20
-26.3699855305
 30
0.0
  0
VERTEX
  5
1D70
  8
3
 10
24.53053686919998
 20
-26.19243612810001
 30
0.0
  0
VERTEX
  5
1D71
  8
3
 10
23.97745751399998
 20
-25.9158964505
 30
0.0
  0
VERTEX
  5
1D72
  8
3
 10
23.62235870919994
 20
-25.56743612810001
 30
0.0
  0
VERTEX
  5
1D73
  8
3
 10
23.49999999989996
 20
-25.1811648852
 30
0.0
  0
VERTEX
  5
1D74
  8
3
 10
23.62235870919994
 20
-24.79489364220001
 30
0.0
  0
VERTEX
  5
1D75
  8
3
 10
23.97745751399998
 20
-24.44643331980001
 30
0.0
  0
VERTEX
  5
1D76
  8
3
 10
24.53053686919998
 20
-24.16989364220001
 30
0.0
  0
VERTEX
  5
1D77
  8
3
 10
25.22745751399998
 20
-23.9923442398
 30
0.0
  0
VERTEX
  5
1D78
  8
3
 10
25.99999999989996
 20
-23.9311648852
 30
0.0
  0
VERTEX
  5
1D79
  8
3
 10
26.77254248589998
 20
-23.9923442398
 30
0.0
  0
VERTEX
  5
1D7A
  8
3
 10
27.46946313069998
 20
-24.16989364220001
 30
0.0
  0
VERTEX
  5
1D7B
  8
3
 10
28.02254248589998
 20
-24.44643331980001
 30
0.0
  0
VERTEX
  5
1D7C
  8
3
 10
28.37764129070001
 20
-24.79489364220001
 30
0.0
  0
VERTEX
  5
1D7D
  8
3
 10
28.49999999989996
 20
-25.1811648852
 30
0.0
  0
SEQEND
  5
2161
  8
3
  0
POLYLINE
  5
D9A
  8
3
 66
     1
 10
0.0
 20
0.0
 30
0.0
  0
VERTEX
  5
1D7E
  8
3
 10
28.05499999990002
 20
-25.45101177980001
 30
0.0
  0
VERTEX
  5
1D7F
  8
3
 10
27.93106833570005
 20
-25.80243747700001
 30
0.0
  0
VERTEX
  5
1D80
  8
3
 10
27.5742213305
 20
-26.11147604870001
 30
0.0
  0
VERTEX
  5
1D81
  8
3
 10
27.0274999999001
 20
-26.34085288220001
 30
0.0
  0
VERTEX
  5
1D82
  8
3
 10
26.35684700499996
 20
-26.462901746
 30
0.0
  0
VERTEX
  5
1D83
  8
3
 10
25.64315299479995
 20
-26.462901746
 30
0.0
  0
VERTEX
  5
1D84
  8
3
 10
24.97249999990004
 20
-26.34085288220001
 30
0.0
  0
VERTEX
  5
1D85
  8
3
 10
24.42577866929992
 20
-26.11147604870001
 30
0.0
  0
VERTEX
  5
1D86
  8
3
 10
24.06893166420014
 20
-25.80243747700001
 30
0.0
  0
VERTEX
  5
1D87
  8
3
 10
23.94499999990012
 20
-25.45101177980001
 30
0.0
  0
VERTEX
  5
1D88
  8
3
 10
24.06893166420014
 20
-25.09958608250001
 30
0.0
  0
VERTEX
  5
1D89
  8
3
 10
24.42577866929992
 20
-24.79054751080001
 30
0.0
  0
VERTEX
  5
1D8A
  8
3
 10
24.97249999990004
 20
-24.56117067740001
 30
0.0
  0
VERTEX
  5
1D8B
  8
3
 10
25.64315299479995
 20
-24.43912181360001
 30
0.0
  0
VERTEX
  5
1D8C
  8
3
 10
26.35684700499996
 20
-24.43912181360001
 30
0.0
  0
VERTEX
  5
1D8D
  8
3
 10
27.0274999999001
 20
-24.56117067740001
 30
0.0
  0
VERTEX
  5
1D8E
  8
3
 10
27.5742213305
 20
-24.79054751080001
 30
0.0
  0
VERTEX
  5
1D8F
  8
3
 10
27.93106833570005
 20
-25.09958608250001
 30
0.0
  0
VERTEX
  5
1D90
  8
3
 10
28.05499999990002
 20
-25.45101177980001
 30
0.0
  0
SEQEND
  5
2160
  8
3
  0
POLYLINE
  5
D9B
  8
3
 66
     1
 10
0.0
 20
0.0
 30
0.0
  0
VERTEX
  5
1D91
  8
3
 10
28.49999999989996
 20
-25.72085867440001
 30
0.0
  0
VERTEX
  5
1D92
  8
3
 10
28.37764129070001
 20
-26.1071299174
 30
0.0
  0
VERTEX
  5
1D93
  8
3
 10
28.02254248589998
 20
-26.4555902398
 30
0.0
  0
VERTEX
  5
1D94
  8
3
 10
27.46946313069998
 20
-26.7321299174
 30
0.0
  0
VERTEX
  5
1D95
  8
3
 10
26.77254248589998
 20
-26.90967931980001
 30
0.0
  0
VERTEX
  5
1D96
  8
3
 10
25.99999999989996
 20
-26.97085867440001
 30
0.0
  0
VERTEX
  5
1D97
  8
3
 10
25.22745751399998
 20
-26.90967931980001
 30
0.0
  0
VERTEX
  5
1D98
  8
3
 10
24.53053686919998
 20
-26.7321299174
 30
0.0
  0
VERTEX
  5
1D99
  8
3
 10
23.97745751399998
 20
-26.4555902398
 30
0.0
  0
VERTEX
  5
1D9A
  8
3
 10
23.62235870919994
 20
-26.1071299174
 30
0.0
  0
VERTEX
  5
1D9B
  8
3
 10
23.49999999989996
 20
-25.72085867440001
 30
0.0
  0
VERTEX
  5
1D9C
  8
3
 10
23.62235870919994
 20
-25.33458743140001
 30
0.0
  0
VERTEX
  5
1D9D
  8
3
 10
23.97745751399998
 20
-24.98612710900001
 30
0.0
  0
VERTEX
  5
1D9E
  8
3
 10
24.53053686919998
 20
-24.70958743140001
 30
0.0
  0
VERTEX
  5
1D9F
  8
3
 10
25.22745751399998
 20
-24.53203802900001
 30
0.0
  0
VERTEX
  5
1DA0
  8
3
 10
25.99999999989996
 20
-24.47085867440001
 30
0.0
  0
VERTEX
  5
1DA1
  8
3
 10
26.77254248589998
 20
-24.53203802900001
 30
0.0
  0
VERTEX
  5
1DA2
  8
3
 10
27.46946313069998
 20
-24.70958743140001
 30
0.0
  0
VERTEX
  5
1DA3
  8
3
 10
28.02254248589998
 20
-24.98612710900001
 30
0.0
  0
VERTEX
  5
1DA4
  8
3
 10
28.37764129070001
 20
-25.33458743140001
 30
0.0
  0
VERTEX
  5
1DA5
  8
3
 10
28.49999999989996
 20
-25.72085867440001
 30
0.0
  0
SEQEND
  5
215F
  8
3
  0
POLYLINE
  5
D9C
  8
3
 66
     1
 10
0.0
 20
0.0
 30
0.0
  0
VERTEX
  5
1DA6
  8
3
 10
28.49999999989996
 20
-25.7988982258
 30
0.0
  0
VERTEX
  5
1DA7
  8
3
 10
28.37764129070001
 20
-26.18516946870001
 30
0.0
  0
VERTEX
  5
1DA8
  8
3
 10
28.02254248589998
 20
-26.53362979110001
 30
0.0
  0
VERTEX
  5
1DA9
  8
3
 10
27.46946313069998
 20
-26.81016946870001
 30
0.0
  0
VERTEX
  5
1DAA
  8
3
 10
26.77254248589998
 20
-26.9877188711
 30
0.0
  0
VERTEX
  5
1DAB
  8
3
 10
25.99999999989996
 20
-27.0488982258
 30
0.0
  0
VERTEX
  5
1DAC
  8
3
 10
25.22745751399998
 20
-26.9877188711
 30
0.0
  0
VERTEX
  5
1DAD
  8
3
 10
24.53053686919998
 20
-26.81016946870001
 30
0.0
  0
VERTEX
  5
1DAE
  8
3
 10
23.97745751399998
 20
-26.53362979110001
 30
0.0
  0
VERTEX
  5
1DAF
  8
3
 10
23.62235870919994
 20
-26.18516946870001
 30
0.0
  0
VERTEX
  5
1DB0
  8
3
 10
23.49999999989996
 20
-25.7988982258
 30
0.0
  0
VERTEX
  5
1DB1
  8
3
 10
23.62235870919994
 20
-25.41262698280001
 30
0.0
  0
VERTEX
  5
1DB2
  8
3
 10
23.97745751399998
 20
-25.06416666040001
 30
0.0
  0
VERTEX
  5
1DB3
  8
3
 10
24.53053686919998
 20
-24.78762698280001
 30
0.0
  0
VERTEX
  5
1DB4
  8
3
 10
25.22745751399998
 20
-24.6100775804
 30
0.0
  0
VERTEX
  5
1DB5
  8
3
 10
25.99999999989996
 20
-24.5488982258
 30
0.0
  0
VERTEX
  5
1DB6
  8
3
 10
26.77254248589998
 20
-24.6100775804
 30
0.0
  0
VERTEX
  5
1DB7
  8
3
 10
27.46946313069998
 20
-24.78762698280001
 30
0.0
  0
VERTEX
  5
1DB8
  8
3
 10
28.02254248589998
 20
-25.06416666040001
 30
0.0
  0
VERTEX
  5
1DB9
  8
3
 10
28.37764129070001
 20
-25.41262698280001
 30
0.0
  0
VERTEX
  5
1DBA
  8
3
 10
28.49999999989996
 20
-25.7988982258
 30
0.0
  0
SEQEND
  5
215E
  8
3
  0
POLYLINE
  5
D9D
  8
3
 66
     1
 10
0.0
 20
0.0
 30
0.0
  0
VERTEX
  5
1DBB
  8
3
 10
28.05499999990002
 20
-26.06874512040001
 30
0.0
  0
VERTEX
  5
1DBC
  8
3
 10
27.93106833570005
 20
-26.42017081770001
 30
0.0
  0
VERTEX
  5
1DBD
  8
3
 10
27.5742213305
 20
-26.72920938930001
 30
0.0
  0
VERTEX
  5
1DBE
  8
3
 10
27.0274999999001
 20
-26.95858622280001
 30
0.0
  0
VERTEX
  5
1DBF
  8
3
 10
26.35684700499996
 20
-27.08063508660001
 30
0.0
  0
VERTEX
  5
1DC0
  8
3
 10
25.64315299479995
 20
-27.08063508660001
 30
0.0
  0
VERTEX
  5
1DC1
  8
3
 10
24.97249999990004
 20
-26.95858622280001
 30
0.0
  0
VERTEX
  5
1DC2
  8
3
 10
24.42577866929992
 20
-26.72920938930001
 30
0.0
  0
VERTEX
  5
1DC3
  8
3
 10
24.06893166420014
 20
-26.42017081770001
 30
0.0
  0
VERTEX
  5
1DC4
  8
3
 10
23.94499999990012
 20
-26.06874512040001
 30
0.0
  0
VERTEX
  5
1DC5
  8
3
 10
24.06893166420014
 20
-25.71731942310001
 30
0.0
  0
VERTEX
  5
1DC6
  8
3
 10
24.42577866929992
 20
-25.40828085140001
 30
0.0
  0
VERTEX
  5
1DC7
  8
3
 10
24.97249999990004
 20
-25.17890401800001
 30
0.0
  0
VERTEX
  5
1DC8
  8
3
 10
25.64315299479995
 20
-25.05685515420001
 30
0.0
  0
VERTEX
  5
1DC9
  8
3
 10
26.35684700499996
 20
-25.05685515420001
 30
0.0
  0
VERTEX
  5
1DCA
  8
3
 10
27.0274999999001
 20
-25.17890401800001
 30
0.0
  0
VERTEX
  5
1DCB
  8
3
 10
27.5742213305
 20
-25.40828085140001
 30
0.0
  0
VERTEX
  5
1DCC
  8
3
 10
27.93106833570005
 20
-25.71731942310001
 30
0.0
  0
VERTEX
  5
1DCD
  8
3
 10
28.05499999990002
 20
-26.06874512040001
 30
0.0
  0
SEQEND
  5
215D
  8
3
  0
POLYLINE
  5
D9E
  8
3
 66
     1
 10
0.0
 20
0.0
 30
0.0
  0
VERTEX
  5
1DCE
  8
3
 10
28.49999999989996
 20
-26.338592015
 30
0.0
  0
VERTEX
  5
1DCF
  8
3
 10
28.37764129070001
 20
-26.72486325800001
 30
0.0
  0
VERTEX
  5
1DD0
  8
3
 10
28.02254248589998
 20
-27.0733235804
 30
0.0
  0
VERTEX
  5
1DD1
  8
3
 10
27.46946313069998
 20
-27.34986325800001
 30
0.0
  0
VERTEX
  5
1DD2
  8
3
 10
26.77254248589998
 20
-27.5274126604
 30
0.0
  0
VERTEX
  5
1DD3
  8
3
 10
25.99999999989996
 20
-27.588592015
 30
0.0
  0
VERTEX
  5
1DD4
  8
3
 10
25.22745751399998
 20
-27.5274126604
 30
0.0
  0
VERTEX
  5
1DD5
  8
3
 10
24.53053686919998
 20
-27.34986325800001
 30
0.0
  0
VERTEX
  5
1DD6
  8
3
 10
23.97745751399998
 20
-27.0733235804
 30
0.0
  0
VERTEX
  5
1DD7
  8
3
 10
23.62235870919994
 20
-26.72486325800001
 30
0.0
  0
VERTEX
  5
1DD8
  8
3
 10
23.49999999989996
 20
-26.338592015
 30
0.0
  0
VERTEX
  5
1DD9
  8
3
 10
23.62235870919994
 20
-25.95232077200001
 30
0.0
  0
VERTEX
  5
1DDA
  8
3
 10
23.97745751399998
 20
-25.60386044960001
 30
0.0
  0
VERTEX
  5
1DDB
  8
3
 10
24.53053686919998
 20
-25.32732077200001
 30
0.0
  0
VERTEX
  5
1DDC
  8
3
 10
25.22745751399998
 20
-25.1497713696
 30
0.0
  0
VERTEX
  5
1DDD
  8
3
 10
25.99999999989996
 20
-25.088592015
 30
0.0
  0
VERTEX
  5
1DDE
  8
3
 10
26.77254248589998
 20
-25.1497713696
 30
0.0
  0
VERTEX
  5
1DDF
  8
3
 10
27.46946313069998
 20
-25.32732077200001
 30
0.0
  0
VERTEX
  5
1DE0
  8
3
 10
28.02254248589998
 20
-25.60386044960001
 30
0.0
  0
VERTEX
  5
1DE1
  8
3
 10
28.37764129070001
 20
-25.95232077200001
 30
0.0
  0
VERTEX
  5
1DE2
  8
3
 10
28.49999999989996
 20
-26.338592015
 30
0.0
  0
SEQEND
  5
215C
  8
3
  0
POLYLINE
  5
D9F
  8
3
 66
     1
 10
0.0
 20
0.0
 30
0.0
  0
VERTEX
  5
1DE3
  8
3
 10
28.49999999989996
 20
-26.41663156640001
 30
0.0
  0
VERTEX
  5
1DE4
  8
3
 10
28.37764129070001
 20
-26.80290280930001
 30
0.0
  0
VERTEX
  5
1DE5
  8
3
 10
28.02254248589998
 20
-27.15136313170001
 30
0.0
  0
VERTEX
  5
1DE6
  8
3
 10
27.46946313069998
 20
-27.42790280930001
 30
0.0
  0
VERTEX
  5
1DE7
  8
3
 10
26.77254248589998
 20
-27.60545221170001
 30
0.0
  0
VERTEX
  5
1DE8
  8
3
 10
25.99999999989996
 20
-27.66663156640001
 30
0.0
  0
VERTEX
  5
1DE9
  8
3
 10
25.22745751399998
 20
-27.60545221170001
 30
0.0
  0
VERTEX
  5
1DEA
  8
3
 10
24.53053686919998
 20
-27.42790280930001
 30
0.0
  0
VERTEX
  5
1DEB
  8
3
 10
23.97745751399998
 20
-27.15136313170001
 30
0.0
  0
VERTEX
  5
1DEC
  8
3
 10
23.62235870919994
 20
-26.80290280930001
 30
0.0
  0
VERTEX
  5
1DED
  8
3
 10
23.49999999989996
 20
-26.41663156640001
 30
0.0
  0
VERTEX
  5
1DEE
  8
3
 10
23.62235870919994
 20
-26.0303603234
 30
0.0
  0
VERTEX
  5
1DEF
  8
3
 10
23.97745751399998
 20
-25.681900001
 30
0.0
  0
VERTEX
  5
1DF0
  8
3
 10
24.53053686919998
 20
-25.4053603234
 30
0.0
  0
VERTEX
  5
1DF1
  8
3
 10
25.22745751399998
 20
-25.22781092100001
 30
0.0
  0
VERTEX
  5
1DF2
  8
3
 10
25.99999999989996
 20
-25.16663156640001
 30
0.0
  0
VERTEX
  5
1DF3
  8
3
 10
26.77254248589998
 20
-25.22781092100001
 30
0.0
  0
VERTEX
  5
1DF4
  8
3
 10
27.46946313069998
 20
-25.4053603234
 30
0.0
  0
VERTEX
  5
1DF5
  8
3
 10
28.02254248589998
 20
-25.681900001
 30
0.0
  0
VERTEX
  5
1DF6
  8
3
 10
28.37764129070001
 20
-26.0303603234
 30
0.0
  0
VERTEX
  5
1DF7
  8
3
 10
28.49999999989996
 20
-26.41663156640001
 30
0.0
  0
SEQEND
  5
215B
  8
3
  0
POLYLINE
  5
DA0
  8
3
 66
     1
 10
0.0
 20
0.0
 30
0.0
  0
VERTEX
  5
1DF8
  8
3
 10
28.05499999990002
 20
-26.68647846100001
 30
0.0
  0
VERTEX
  5
1DF9
  8
3
 10
27.93106833570005
 20
-27.03790415830001
 30
0.0
  0
VERTEX
  5
1DFA
  8
3
 10
27.57422133060004
 20
-27.34694272990001
 30
0.0
  0
VERTEX
  5
1DFB
  8
3
 10
27.0274999999001
 20
-27.57631956340001
 30
0.0
  0
VERTEX
  5
1DFC
  8
3
 10
26.35684700510001
 20
-27.69836842720001
 30
0.0
  0
VERTEX
  5
1DFD
  8
3
 10
25.64315299479995
 20
-27.69836842720001
 30
0.0
  0
VERTEX
  5
1DFE
  8
3
 10
24.97249999990004
 20
-27.57631956340001
 30
0.0
  0
VERTEX
  5
1DFF
  8
3
 10
24.42577866929992
 20
-27.34694272990001
 30
0.0
  0
VERTEX
  5
1E00
  8
3
 10
24.06893166420014
 20
-27.03790415830001
 30
0.0
  0
VERTEX
  5
1E01
  8
3
 10
23.94499999990012
 20
-26.68647846100001
 30
0.0
  0
VERTEX
  5
1E02
  8
3
 10
24.06893166420014
 20
-26.33505276370001
 30
0.0
  0
VERTEX
  5
1E03
  8
3
 10
24.42577866929992
 20
-26.02601419200001
 30
0.0
  0
VERTEX
  5
1E04
  8
3
 10
24.97249999990004
 20
-25.79663735860001
 30
0.0
  0
VERTEX
  5
1E05
  8
3
 10
25.64315299479995
 20
-25.67458849480001
 30
0.0
  0
VERTEX
  5
1E06
  8
3
 10
26.35684700510001
 20
-25.67458849480001
 30
0.0
  0
VERTEX
  5
1E07
  8
3
 10
27.0274999999001
 20
-25.79663735860001
 30
0.0
  0
VERTEX
  5
1E08
  8
3
 10
27.57422133060004
 20
-26.02601419200001
 30
0.0
  0
VERTEX
  5
1E09
  8
3
 10
27.93106833570005
 20
-26.33505276370001
 30
0.0
  0
VERTEX
  5
1E0A
  8
3
 10
28.05499999990002
 20
-26.68647846100001
 30
0.0
  0
SEQEND
  5
215A
  8
3
  0
POLYLINE
  5
DA1
  8
3
 66
     1
 10
0.0
 20
0.0
 30
0.0
  0
VERTEX
  5
1E0B
  8
3
 10
28.49999999989996
 20
-26.9563253556
 30
0.0
  0
VERTEX
  5
1E0C
  8
3
 10
28.37764129070001
 20
-27.34259659860001
 30
0.0
  0
VERTEX
  5
1E0D
  8
3
 10
28.02254248589998
 20
-27.69105692100001
 30
0.0
  0
VERTEX
  5
1E0E
  8
3
 10
27.46946313069998
 20
-27.96759659860001
 30
0.0
  0
VERTEX
  5
1E0F
  8
3
 10
26.77254248589998
 20
-28.145146001
 30
0.0
  0
VERTEX
  5
1E10
  8
3
 10
25.99999999989996
 20
-28.2063253556
 30
0.0
  0
VERTEX
  5
1E11
  8
3
 10
25.22745751399998
 20
-28.145146001
 30
0.0
  0
VERTEX
  5
1E12
  8
3
 10
24.53053686919998
 20
-27.96759659860001
 30
0.0
  0
VERTEX
  5
1E13
  8
3
 10
23.97745751399998
 20
-27.69105692100001
 30
0.0
  0
VERTEX
  5
1E14
  8
3
 10
23.62235870919994
 20
-27.34259659860001
 30
0.0
  0
VERTEX
  5
1E15
  8
3
 10
23.49999999989996
 20
-26.9563253556
 30
0.0
  0
VERTEX
  5
1E16
  8
3
 10
23.62235870919994
 20
-26.5700541126
 30
0.0
  0
VERTEX
  5
1E17
  8
3
 10
23.97745751399998
 20
-26.2215937902
 30
0.0
  0
VERTEX
  5
1E18
  8
3
 10
24.53053686919998
 20
-25.9450541126
 30
0.0
  0
VERTEX
  5
1E19
  8
3
 10
25.22745751399998
 20
-25.7675047102
 30
0.0
  0
VERTEX
  5
1E1A
  8
3
 10
25.99999999989996
 20
-25.7063253556
 30
0.0
  0
VERTEX
  5
1E1B
  8
3
 10
26.77254248589998
 20
-25.7675047102
 30
0.0
  0
VERTEX
  5
1E1C
  8
3
 10
27.46946313069998
 20
-25.9450541126
 30
0.0
  0
VERTEX
  5
1E1D
  8
3
 10
28.02254248589998
 20
-26.2215937902
 30
0.0
  0
VERTEX
  5
1E1E
  8
3
 10
28.37764129070001
 20
-26.5700541126
 30
0.0
  0
VERTEX
  5
1E1F
  8
3
 10
28.49999999989996
 20
-26.9563253556
 30
0.0
  0
SEQEND
  5
2159
  8
3
  0
POLYLINE
  5
DA2
  8
3
 66
     1
 10
0.0
 20
0.0
 30
0.0
  0
VERTEX
  5
1E20
  8
3
 10
28.49999999989996
 20
-27.03436490700001
 30
0.0
  0
VERTEX
  5
1E21
  8
3
 10
28.37764129070001
 20
-27.42063614990001
 30
0.0
  0
VERTEX
  5
1E22
  8
3
 10
28.02254248589998
 20
-27.76909647230001
 30
0.0
  0
VERTEX
  5
1E23
  8
3
 10
27.46946313069998
 20
-28.04563614990001
 30
0.0
  0
VERTEX
  5
1E24
  8
3
 10
26.77254248589998
 20
-28.22318555230001
 30
0.0
  0
VERTEX
  5
1E25
  8
3
 10
25.99999999989996
 20
-28.28436490700001
 30
0.0
  0
VERTEX
  5
1E26
  8
3
 10
25.22745751399998
 20
-28.22318555230001
 30
0.0
  0
VERTEX
  5
1E27
  8
3
 10
24.53053686919998
 20
-28.04563614990001
 30
0.0
  0
VERTEX
  5
1E28
  8
3
 10
23.97745751399998
 20
-27.76909647230001
 30
0.0
  0
VERTEX
  5
1E29
  8
3
 10
23.62235870919994
 20
-27.42063614990001
 30
0.0
  0
VERTEX
  5
1E2A
  8
3
 10
23.49999999989996
 20
-27.03436490700001
 30
0.0
  0
VERTEX
  5
1E2B
  8
3
 10
23.62235870919994
 20
-26.648093664
 30
0.0
  0
VERTEX
  5
1E2C
  8
3
 10
23.97745751399998
 20
-26.29963334160001
 30
0.0
  0
VERTEX
  5
1E2D
  8
3
 10
24.53053686919998
 20
-26.023093664
 30
0.0
  0
VERTEX
  5
1E2E
  8
3
 10
25.22745751399998
 20
-25.84554426160001
 30
0.0
  0
VERTEX
  5
1E2F
  8
3
 10
25.99999999989996
 20
-25.78436490700001
 30
0.0
  0
VERTEX
  5
1E30
  8
3
 10
26.77254248589998
 20
-25.84554426160001
 30
0.0
  0
VERTEX
  5
1E31
  8
3
 10
27.46946313069998
 20
-26.023093664
 30
0.0
  0
VERTEX
  5
1E32
  8
3
 10
28.02254248589998
 20
-26.29963334160001
 30
0.0
  0
VERTEX
  5
1E33
  8
3
 10
28.37764129070001
 20
-26.648093664
 30
0.0
  0
VERTEX
  5
1E34
  8
3
 10
28.49999999989996
 20
-27.03436490700001
 30
0.0
  0
SEQEND
  5
2158
  8
3
  0
POLYLINE
  5
DA3
  8
3
 66
     1
 10
0.0
 20
0.0
 30
0.0
  0
VERTEX
  5
1E35
  8
3
 10
28.05499999990002
 20
-27.3042118016
 30
0.0
  0
VERTEX
  5
1E36
  8
3
 10
27.93106833570005
 20
-27.65563749890001
 30
0.0
  0
VERTEX
  5
1E37
  8
3
 10
27.57422133060004
 20
-27.9646760705
 30
0.0
  0
VERTEX
  5
1E38
  8
3
 10
27.0274999999001
 20
-28.194052904
 30
0.0
  0
VERTEX
  5
1E39
  8
3
 10
26.35684700510001
 20
-28.31610176780001
 30
0.0
  0
VERTEX
  5
1E3A
  8
3
 10
25.64315299479995
 20
-28.31610176780001
 30
0.0
  0
VERTEX
  5
1E3B
  8
3
 10
24.97249999990004
 20
-28.194052904
 30
0.0
  0
VERTEX
  5
1E3C
  8
3
 10
24.42577866929992
 20
-27.9646760705
 30
0.0
  0
VERTEX
  5
1E3D
  8
3
 10
24.06893166420014
 20
-27.65563749890001
 30
0.0
  0
VERTEX
  5
1E3E
  8
3
 10
23.94499999990012
 20
-27.3042118016
 30
0.0
  0
VERTEX
  5
1E3F
  8
3
 10
24.06893166420014
 20
-26.9527861043
 30
0.0
  0
VERTEX
  5
1E40
  8
3
 10
24.42577866929992
 20
-26.6437475326
 30
0.0
  0
VERTEX
  5
1E41
  8
3
 10
24.97249999990004
 20
-26.41437069920001
 30
0.0
  0
VERTEX
  5
1E42
  8
3
 10
25.64315299479995
 20
-26.2923218354
 30
0.0
  0
VERTEX
  5
1E43
  8
3
 10
26.35684700510001
 20
-26.2923218354
 30
0.0
  0
VERTEX
  5
1E44
  8
3
 10
27.0274999999001
 20
-26.41437069920001
 30
0.0
  0
VERTEX
  5
1E45
  8
3
 10
27.57422133060004
 20
-26.6437475326
 30
0.0
  0
VERTEX
  5
1E46
  8
3
 10
27.93106833570005
 20
-26.9527861043
 30
0.0
  0
VERTEX
  5
1E47
  8
3
 10
28.05499999990002
 20
-27.3042118016
 30
0.0
  0
SEQEND
  5
2157
  8
3
  0
POLYLINE
  5
DA4
  8
3
 66
     1
 10
0.0
 20
0.0
 30
0.0
  0
VERTEX
  5
1E48
  8
3
 10
28.49999999989996
 20
-27.57405869620001
 30
0.0
  0
VERTEX
  5
1E49
  8
3
 10
28.37764129070001
 20
-27.96032993920001
 30
0.0
  0
VERTEX
  5
1E4A
  8
3
 10
28.02254248589998
 20
-28.30879026160001
 30
0.0
  0
VERTEX
  5
1E4B
  8
3
 10
27.46946313069998
 20
-28.58532993920001
 30
0.0
  0
VERTEX
  5
1E4C
  8
3
 10
26.77254248589998
 20
-28.76287934160001
 30
0.0
  0
VERTEX
  5
1E4D
  8
3
 10
25.99999999989996
 20
-28.82405869620001
 30
0.0
  0
VERTEX
  5
1E4E
  8
3
 10
25.22745751399998
 20
-28.76287934160001
 30
0.0
  0
VERTEX
  5
1E4F
  8
3
 10
24.53053686919998
 20
-28.58532993920001
 30
0.0
  0
VERTEX
  5
1E50
  8
3
 10
23.97745751399998
 20
-28.30879026160001
 30
0.0
  0
VERTEX
  5
1E51
  8
3
 10
23.62235870919994
 20
-27.96032993920001
 30
0.0
  0
VERTEX
  5
1E52
  8
3
 10
23.49999999989996
 20
-27.57405869620001
 30
0.0
  0
VERTEX
  5
1E53
  8
3
 10
23.62235870919994
 20
-27.1877874533
 30
0.0
  0
VERTEX
  5
1E54
  8
3
 10
23.97745751399998
 20
-26.8393271309
 30
0.0
  0
VERTEX
  5
1E55
  8
3
 10
24.53053686919998
 20
-26.5627874533
 30
0.0
  0
VERTEX
  5
1E56
  8
3
 10
25.22745751399998
 20
-26.3852380509
 30
0.0
  0
VERTEX
  5
1E57
  8
3
 10
25.99999999989996
 20
-26.32405869620001
 30
0.0
  0
VERTEX
  5
1E58
  8
3
 10
26.77254248589998
 20
-26.3852380509
 30
0.0
  0
VERTEX
  5
1E59
  8
3
 10
27.46946313069998
 20
-26.5627874533
 30
0.0
  0
VERTEX
  5
1E5A
  8
3
 10
28.02254248589998
 20
-26.8393271309
 30
0.0
  0
VERTEX
  5
1E5B
  8
3
 10
28.37764129070001
 20
-27.1877874533
 30
0.0
  0
VERTEX
  5
1E5C
  8
3
 10
28.49999999989996
 20
-27.57405869620001
 30
0.0
  0
SEQEND
  5
2156
  8
3
  0
POLYLINE
  5
DA5
  8
3
 66
     1
 10
0.0
 20
0.0
 30
0.0
  0
VERTEX
  5
1E5D
  8
3
 10
28.49999999989996
 20
-27.65209824760001
 30
0.0
  0
VERTEX
  5
1E5E
  8
3
 10
28.37764129070001
 20
-28.0383694905
 30
0.0
  0
VERTEX
  5
1E5F
  8
3
 10
28.02254248589998
 20
-28.3868298129
 30
0.0
  0
VERTEX
  5
1E60
  8
3
 10
27.46946313069998
 20
-28.6633694905
 30
0.0
  0
VERTEX
  5
1E61
  8
3
 10
26.77254248589998
 20
-28.84091889290001
 30
0.0
  0
VERTEX
  5
1E62
  8
3
 10
25.99999999989996
 20
-28.90209824760001
 30
0.0
  0
VERTEX
  5
1E63
  8
3
 10
25.22745751399998
 20
-28.84091889290001
 30
0.0
  0
VERTEX
  5
1E64
  8
3
 10
24.53053686919998
 20
-28.6633694905
 30
0.0
  0
VERTEX
  5
1E65
  8
3
 10
23.97745751399998
 20
-28.3868298129
 30
0.0
  0
VERTEX
  5
1E66
  8
3
 10
23.62235870919994
 20
-28.0383694905
 30
0.0
  0
VERTEX
  5
1E67
  8
3
 10
23.49999999989996
 20
-27.65209824760001
 30
0.0
  0
VERTEX
  5
1E68
  8
3
 10
23.62235870919994
 20
-27.26582700460001
 30
0.0
  0
VERTEX
  5
1E69
  8
3
 10
23.97745751399998
 20
-26.91736668220001
 30
0.0
  0
VERTEX
  5
1E6A
  8
3
 10
24.53053686919998
 20
-26.64082700460001
 30
0.0
  0
VERTEX
  5
1E6B
  8
3
 10
25.22745751399998
 20
-26.46327760220001
 30
0.0
  0
VERTEX
  5
1E6C
  8
3
 10
25.99999999989996
 20
-26.40209824760001
 30
0.0
  0
VERTEX
  5
1E6D
  8
3
 10
26.77254248589998
 20
-26.46327760220001
 30
0.0
  0
VERTEX
  5
1E6E
  8
3
 10
27.46946313069998
 20
-26.64082700460001
 30
0.0
  0
VERTEX
  5
1E6F
  8
3
 10
28.02254248589998
 20
-26.91736668220001
 30
0.0
  0
VERTEX
  5
1E70
  8
3
 10
28.37764129070001
 20
-27.26582700460001
 30
0.0
  0
VERTEX
  5
1E71
  8
3
 10
28.49999999989996
 20
-27.65209824760001
 30
0.0
  0
SEQEND
  5
2155
  8
3
  0
POLYLINE
  5
DA6
  8
3
 66
     1
 10
0.0
 20
0.0
 30
0.0
  0
VERTEX
  5
1E72
  8
3
 10
28.05500000000006
 20
-27.9219451422
 30
0.0
  0
VERTEX
  5
1E73
  8
3
 10
27.93106833570005
 20
-28.2733708395
 30
0.0
  0
VERTEX
  5
1E74
  8
3
 10
27.57422133060004
 20
-28.5824094112
 30
0.0
  0
VERTEX
  5
1E75
  8
3
 10
27.02749999999992
 20
-28.8117862446
 30
0.0
  0
VERTEX
  5
1E76
  8
3
 10
26.35684700510001
 20
-28.9338351084
 30
0.0
  0
VERTEX
  5
1E77
  8
3
 10
25.64315299479995
 20
-28.9338351084
 30
0.0
  0
VERTEX
  5
1E78
  8
3
 10
24.97250000000008
 20
-28.8117862446
 30
0.0
  0
VERTEX
  5
1E79
  8
3
 10
24.42577866929992
 20
-28.5824094112
 30
0.0
  0
VERTEX
  5
1E7A
  8
3
 10
24.06893166420014
 20
-28.2733708395
 30
0.0
  0
VERTEX
  5
1E7B
  8
3
 10
23.94499999999994
 20
-27.9219451422
 30
0.0
  0
VERTEX
  5
1E7C
  8
3
 10
24.06893166420014
 20
-27.5705194449
 30
0.0
  0
VERTEX
  5
1E7D
  8
3
 10
24.42577866929992
 20
-27.2614808732
 30
0.0
  0
VERTEX
  5
1E7E
  8
3
 10
24.97250000000008
 20
-27.0321040398
 30
0.0
  0
VERTEX
  5
1E7F
  8
3
 10
25.64315299479995
 20
-26.910055176
 30
0.0
  0
VERTEX
  5
1E80
  8
3
 10
26.35684700510001
 20
-26.910055176
 30
0.0
  0
VERTEX
  5
1E81
  8
3
 10
27.02749999999992
 20
-27.0321040398
 30
0.0
  0
VERTEX
  5
1E82
  8
3
 10
27.57422133060004
 20
-27.2614808732
 30
0.0
  0
VERTEX
  5
1E83
  8
3
 10
27.93106833570005
 20
-27.5705194449
 30
0.0
  0
VERTEX
  5
1E84
  8
3
 10
28.05500000000006
 20
-27.9219451422
 30
0.0
  0
SEQEND
  5
2154
  8
3
  0
POLYLINE
  5
DA7
  8
3
 66
     1
 10
0.0
 20
0.0
 30
0.0
  0
VERTEX
  5
1E85
  8
3
 10
28.5
 20
-28.19179203680001
 30
0.0
  0
VERTEX
  5
1E86
  8
3
 10
28.37764129070001
 20
-28.57806327980001
 30
0.0
  0
VERTEX
  5
1E87
  8
3
 10
28.02254248589998
 20
-28.92652360220001
 30
0.0
  0
VERTEX
  5
1E88
  8
3
 10
27.46946313069998
 20
-29.20306327980001
 30
0.0
  0
VERTEX
  5
1E89
  8
3
 10
26.77254248589998
 20
-29.38061268220001
 30
0.0
  0
VERTEX
  5
1E8A
  8
3
 10
26.0
 20
-29.44179203680001
 30
0.0
  0
VERTEX
  5
1E8B
  8
3
 10
25.22745751399998
 20
-29.38061268220001
 30
0.0
  0
VERTEX
  5
1E8C
  8
3
 10
24.53053686919998
 20
-29.20306327980001
 30
0.0
  0
VERTEX
  5
1E8D
  8
3
 10
23.97745751399998
 20
-28.92652360220001
 30
0.0
  0
VERTEX
  5
1E8E
  8
3
 10
23.62235870919994
 20
-28.57806327980001
 30
0.0
  0
VERTEX
  5
1E8F
  8
3
 10
23.5
 20
-28.19179203680001
 30
0.0
  0
VERTEX
  5
1E90
  8
3
 10
23.62235870919994
 20
-27.8055207939
 30
0.0
  0
VERTEX
  5
1E91
  8
3
 10
23.97745751399998
 20
-27.4570604715
 30
0.0
  0
VERTEX
  5
1E92
  8
3
 10
24.53053686919998
 20
-27.1805207939
 30
0.0
  0
VERTEX
  5
1E93
  8
3
 10
25.22745751399998
 20
-27.00297139150001
 30
0.0
  0
VERTEX
  5
1E94
  8
3
 10
26.0
 20
-26.94179203680001
 30
0.0
  0
VERTEX
  5
1E95
  8
3
 10
26.77254248589998
 20
-27.00297139150001
 30
0.0
  0
VERTEX
  5
1E96
  8
3
 10
27.46946313069998
 20
-27.1805207939
 30
0.0
  0
VERTEX
  5
1E97
  8
3
 10
28.02254248589998
 20
-27.4570604715
 30
0.0
  0
VERTEX
  5
1E98
  8
3
 10
28.37764129070001
 20
-27.8055207939
 30
0.0
  0
VERTEX
  5
1E99
  8
3
 10
28.5
 20
-28.19179203680001
 30
0.0
  0
SEQEND
  5
2153
  8
3
  0
POLYLINE
  5
DA8
  8
3
 66
     1
 10
0.0
 20
0.0
 30
0.0
  0
VERTEX
  5
1E9A
  8
3
 10
28.5
 20
-28.26983158820001
 30
0.0
  0
VERTEX
  5
1E9B
  8
3
 10
28.37764129070001
 20
-28.6561028311
 30
0.0
  0
VERTEX
  5
1E9C
  8
3
 10
28.02254248589998
 20
-29.0045631535
 30
0.0
  0
VERTEX
  5
1E9D
  8
3
 10
27.46946313069998
 20
-29.2811028311
 30
0.0
  0
VERTEX
  5
1E9E
  8
3
 10
26.77254248589998
 20
-29.4586522335
 30
0.0
  0
VERTEX
  5
1E9F
  8
3
 10
26.0
 20
-29.51983158820001
 30
0.0
  0
VERTEX
  5
1EA0
  8
3
 10
25.22745751399998
 20
-29.4586522335
 30
0.0
  0
VERTEX
  5
1EA1
  8
3
 10
24.53053686919998
 20
-29.2811028311
 30
0.0
  0
VERTEX
  5
1EA2
  8
3
 10
23.97745751399998
 20
-29.0045631535
 30
0.0
  0
VERTEX
  5
1EA3
  8
3
 10
23.62235870919994
 20
-28.6561028311
 30
0.0
  0
VERTEX
  5
1EA4
  8
3
 10
23.5
 20
-28.26983158820001
 30
0.0
  0
VERTEX
  5
1EA5
  8
3
 10
23.62235870919994
 20
-27.88356034520001
 30
0.0
  0
VERTEX
  5
1EA6
  8
3
 10
23.97745751399998
 20
-27.53510002280001
 30
0.0
  0
VERTEX
  5
1EA7
  8
3
 10
24.53053686919998
 20
-27.25856034520001
 30
0.0
  0
VERTEX
  5
1EA8
  8
3
 10
25.22745751399998
 20
-27.08101094280001
 30
0.0
  0
VERTEX
  5
1EA9
  8
3
 10
26.0
 20
-27.01983158820001
 30
0.0
  0
VERTEX
  5
1EAA
  8
3
 10
26.77254248589998
 20
-27.08101094280001
 30
0.0
  0
VERTEX
  5
1EAB
  8
3
 10
27.46946313069998
 20
-27.25856034520001
 30
0.0
  0
VERTEX
  5
1EAC
  8
3
 10
28.02254248589998
 20
-27.53510002280001
 30
0.0
  0
VERTEX
  5
1EAD
  8
3
 10
28.37764129070001
 20
-27.88356034520001
 30
0.0
  0
VERTEX
  5
1EAE
  8
3
 10
28.5
 20
-28.26983158820001
 30
0.0
  0
SEQEND
  5
2152
  8
3
  0
POLYLINE
  5
DA9
  8
3
 66
     1
 10
0.0
 20
0.0
 30
0.0
  0
VERTEX
  5
1EAF
  8
3
 10
28.05500000000006
 20
-28.53967848280001
 30
0.0
  0
VERTEX
  5
1EB0
  8
3
 10
27.93106833570005
 20
-28.8911041801
 30
0.0
  0
VERTEX
  5
1EB1
  8
3
 10
27.57422133060004
 20
-29.2001427518
 30
0.0
  0
VERTEX
  5
1EB2
  8
3
 10
27.02749999999992
 20
-29.42951958520001
 30
0.0
  0
VERTEX
  5
1EB3
  8
3
 10
26.35684700510001
 20
-29.551568449
 30
0.0
  0
VERTEX
  5
1EB4
  8
3
 10
25.64315299479995
 20
-29.551568449
 30
0.0
  0
VERTEX
  5
1EB5
  8
3
 10
24.97250000000008
 20
-29.42951958520001
 30
0.0
  0
VERTEX
  5
1EB6
  8
3
 10
24.42577866929992
 20
-29.2001427518
 30
0.0
  0
VERTEX
  5
1EB7
  8
3
 10
24.06893166420014
 20
-28.8911041801
 30
0.0
  0
VERTEX
  5
1EB8
  8
3
 10
23.94499999999994
 20
-28.53967848280001
 30
0.0
  0
VERTEX
  5
1EB9
  8
3
 10
24.06893166420014
 20
-28.18825278550001
 30
0.0
  0
VERTEX
  5
1EBA
  8
3
 10
24.42577866929992
 20
-27.87921421390001
 30
0.0
  0
VERTEX
  5
1EBB
  8
3
 10
24.97250000000008
 20
-27.6498373804
 30
0.0
  0
VERTEX
  5
1EBC
  8
3
 10
25.64315299479995
 20
-27.52778851660001
 30
0.0
  0
VERTEX
  5
1EBD
  8
3
 10
26.35684700510001
 20
-27.52778851660001
 30
0.0
  0
VERTEX
  5
1EBE
  8
3
 10
27.02749999999992
 20
-27.6498373804
 30
0.0
  0
VERTEX
  5
1EBF
  8
3
 10
27.57422133060004
 20
-27.87921421390001
 30
0.0
  0
VERTEX
  5
1EC0
  8
3
 10
27.93106833570005
 20
-28.18825278550001
 30
0.0
  0
VERTEX
  5
1EC1
  8
3
 10
28.05500000000006
 20
-28.53967848280001
 30
0.0
  0
SEQEND
  5
2151
  8
3
  0
POLYLINE
  5
DAA
  8
3
 66
     1
 10
0.0
 20
0.0
 30
0.0
  0
VERTEX
  5
1EC2
  8
3
 10
28.5
 20
-28.80952537740001
 30
0.0
  0
VERTEX
  5
1EC3
  8
3
 10
28.37764129070001
 20
-29.1957966204
 30
0.0
  0
VERTEX
  5
1EC4
  8
3
 10
28.02254248589998
 20
-29.5442569428
 30
0.0
  0
VERTEX
  5
1EC5
  8
3
 10
27.46946313069998
 20
-29.8207966204
 30
0.0
  0
VERTEX
  5
1EC6
  8
3
 10
26.77254248589998
 20
-29.99834602280001
 30
0.0
  0
VERTEX
  5
1EC7
  8
3
 10
26.0
 20
-30.05952537740001
 30
0.0
  0
VERTEX
  5
1EC8
  8
3
 10
25.22745751399998
 20
-29.99834602280001
 30
0.0
  0
VERTEX
  5
1EC9
  8
3
 10
24.53053686919998
 20
-29.8207966204
 30
0.0
  0
VERTEX
  5
1ECA
  8
3
 10
23.97745751399998
 20
-29.5442569428
 30
0.0
  0
VERTEX
  5
1ECB
  8
3
 10
23.62235870919994
 20
-29.1957966204
 30
0.0
  0
VERTEX
  5
1ECC
  8
3
 10
23.5
 20
-28.80952537740001
 30
0.0
  0
VERTEX
  5
1ECD
  8
3
 10
23.62235870919994
 20
-28.42325413450001
 30
0.0
  0
VERTEX
  5
1ECE
  8
3
 10
23.97745751399998
 20
-28.07479381210001
 30
0.0
  0
VERTEX
  5
1ECF
  8
3
 10
24.53053686919998
 20
-27.79825413450001
 30
0.0
  0
VERTEX
  5
1ED0
  8
3
 10
25.22745751399998
 20
-27.62070473210001
 30
0.0
  0
VERTEX
  5
1ED1
  8
3
 10
26.0
 20
-27.55952537740001
 30
0.0
  0
VERTEX
  5
1ED2
  8
3
 10
26.77254248589998
 20
-27.62070473210001
 30
0.0
  0
VERTEX
  5
1ED3
  8
3
 10
27.46946313069998
 20
-27.79825413450001
 30
0.0
  0
VERTEX
  5
1ED4
  8
3
 10
28.02254248589998
 20
-28.07479381210001
 30
0.0
  0
VERTEX
  5
1ED5
  8
3
 10
28.37764129070001
 20
-28.42325413450001
 30
0.0
  0
VERTEX
  5
1ED6
  8
3
 10
28.5
 20
-28.80952537740001
 30
0.0
  0
SEQEND
  5
2150
  8
3
  0
LINE
  5
DAB
  8
3
 10
25.99999999989996
 20
-27.7633310697
 30
0.0
 11
26.0
 21
-30.1015996599
 31
0.0
  0
LINE
  5
DAC
  8
3
 10
27.24999999989996
 20
-27.40248715140001
 30
0.0
 11
25.99999999989996
 21
-27.7633310697
 31
0.0
  0
LINE
  5
DAD
  8
3
 10
24.74999999989996
 20
-27.40248715140001
 30
0.0
 11
25.99999999989996
 21
-27.7633310697
 31
0.0
  0
POLYLINE
  5
DAE
  8
3
 66
     1
 10
0.0
 20
0.0
 30
0.0
  0
VERTEX
  5
1ED7
  8
3
 10
28.5
 20
-28.8875649288
 30
0.0
  0
VERTEX
  5
1ED8
  8
3
 10
28.37764129070001
 20
-29.27383617180001
 30
0.0
  0
VERTEX
  5
1ED9
  8
3
 10
28.02254248589998
 20
-29.62229649410001
 30
0.0
  0
VERTEX
  5
1EDA
  8
3
 10
27.46946313069998
 20
-29.89883617180001
 30
0.0
  0
VERTEX
  5
1EDB
  8
3
 10
26.77254248589998
 20
-30.0763855742
 30
0.0
  0
VERTEX
  5
1EDC
  8
3
 10
26.0
 20
-30.1375649288
 30
0.0
  0
VERTEX
  5
1EDD
  8
3
 10
25.22745751399998
 20
-30.0763855742
 30
0.0
  0
VERTEX
  5
1EDE
  8
3
 10
24.53053686919998
 20
-29.89883617180001
 30
0.0
  0
VERTEX
  5
1EDF
  8
3
 10
23.97745751399998
 20
-29.62229649410001
 30
0.0
  0
VERTEX
  5
1EE0
  8
3
 10
23.62235870919994
 20
-29.27383617180001
 30
0.0
  0
VERTEX
  5
1EE1
  8
3
 10
23.5
 20
-28.8875649288
 30
0.0
  0
VERTEX
  5
1EE2
  8
3
 10
23.62235870919994
 20
-28.50129368580001
 30
0.0
  0
VERTEX
  5
1EE3
  8
3
 10
23.97745751399998
 20
-28.15283336340001
 30
0.0
  0
VERTEX
  5
1EE4
  8
3
 10
24.53053686919998
 20
-27.87629368580001
 30
0.0
  0
VERTEX
  5
1EE5
  8
3
 10
25.22745751399998
 20
-27.6987442834
 30
0.0
  0
VERTEX
  5
1EE6
  8
3
 10
26.0
 20
-27.6375649288
 30
0.0
  0
VERTEX
  5
1EE7
  8
3
 10
26.77254248589998
 20
-27.6987442834
 30
0.0
  0
VERTEX
  5
1EE8
  8
3
 10
27.46946313069998
 20
-27.87629368580001
 30
0.0
  0
VERTEX
  5
1EE9
  8
3
 10
28.02254248589998
 20
-28.15283336340001
 30
0.0
  0
VERTEX
  5
1EEA
  8
3
 10
28.37764129070001
 20
-28.50129368580001
 30
0.0
  0
VERTEX
  5
1EEB
  8
3
 10
28.5
 20
-28.8875649288
 30
0.0
  0
SEQEND
  5
214F
  8
3
  0
POLYLINE
  5
DAF
  8
3
 66
     1
 10
0.0
 20
0.0
 30
0.0
  0
VERTEX
  5
1EEC
  8
3
 10
28.05500000000006
 20
-29.15741182340001
 30
0.0
  0
VERTEX
  5
1EED
  8
3
 10
27.93106833570005
 20
-29.50883752070001
 30
0.0
  0
VERTEX
  5
1EEE
  8
3
 10
27.57422133060004
 20
-29.81787609240001
 30
0.0
  0
VERTEX
  5
1EEF
  8
3
 10
27.02749999999992
 20
-30.04725292580001
 30
0.0
  0
VERTEX
  5
1EF0
  8
3
 10
26.35684700510001
 20
-30.16930178960001
 30
0.0
  0
VERTEX
  5
1EF1
  8
3
 10
25.64315299479995
 20
-30.16930178960001
 30
0.0
  0
VERTEX
  5
1EF2
  8
3
 10
24.97250000000008
 20
-30.04725292580001
 30
0.0
  0
VERTEX
  5
1EF3
  8
3
 10
24.42577866929992
 20
-29.81787609240001
 30
0.0
  0
VERTEX
  5
1EF4
  8
3
 10
24.06893166420014
 20
-29.50883752070001
 30
0.0
  0
VERTEX
  5
1EF5
  8
3
 10
23.94499999999994
 20
-29.15741182340001
 30
0.0
  0
VERTEX
  5
1EF6
  8
3
 10
24.06893166420014
 20
-28.80598612610001
 30
0.0
  0
VERTEX
  5
1EF7
  8
3
 10
24.42577866929992
 20
-28.49694755450001
 30
0.0
  0
VERTEX
  5
1EF8
  8
3
 10
24.97250000000008
 20
-28.26757072100001
 30
0.0
  0
VERTEX
  5
1EF9
  8
3
 10
25.64315299479995
 20
-28.14552185720001
 30
0.0
  0
VERTEX
  5
1EFA
  8
3
 10
26.35684700510001
 20
-28.14552185720001
 30
0.0
  0
VERTEX
  5
1EFB
  8
3
 10
27.02749999999992
 20
-28.26757072100001
 30
0.0
  0
VERTEX
  5
1EFC
  8
3
 10
27.57422133060004
 20
-28.49694755450001
 30
0.0
  0
VERTEX
  5
1EFD
  8
3
 10
27.93106833570005
 20
-28.80598612610001
 30
0.0
  0
VERTEX
  5
1EFE
  8
3
 10
28.05500000000006
 20
-29.15741182340001
 30
0.0
  0
SEQEND
  5
214E
  8
3
  0
POLYLINE
  5
DB0
  8
3
 66
     1
 10
0.0
 20
0.0
 30
0.0
  0
VERTEX
  5
1EFF
  8
3
 10
28.2561031268001
 20
-29.27936026
 30
0.0
  0
VERTEX
  5
1F00
  8
3
 10
28.13386123639998
 20
-28.9130825161
 30
0.0
  0
VERTEX
  5
1F01
  8
3
 10
27.78038237069995
 20
-28.5864966492
 30
0.0
  0
VERTEX
  5
1F02
  8
3
 10
27.23397144969999
 20
-28.3349933053
 30
0.0
  0
VERTEX
  5
1F03
  8
3
 10
26.55384057509991
 20
-28.18582677440001
 30
0.0
  0
VERTEX
  5
1F04
  8
3
 10
25.81369248040005
 20
-28.15516156460001
 30
0.0
  0
VERTEX
  5
1F05
  8
3
 10
25.09373369640002
 20
-28.24632072710001
 30
0.0
  0
VERTEX
  5
1F06
  8
3
 10
24.47198292849998
 20
-28.4494257523
 30
0.0
  0
VERTEX
  5
1F07
  8
3
 10
24.0158165199
 20
-28.74246705920001
 30
0.0
  0
VERTEX
  5
1F08
  8
3
 10
23.77466717919992
 20
-29.0936890751
 30
0.0
  0
VERTEX
  5
1F09
  8
3
 10
23.77466717919992
 20
-29.46503144490001
 30
0.0
  0
VERTEX
  5
1F0A
  8
3
 10
24.0158165199
 20
-29.81625346080001
 30
0.0
  0
VERTEX
  5
1F0B
  8
3
 10
24.47198292849998
 20
-30.10929476770001
 30
0.0
  0
VERTEX
  5
1F0C
  8
3
 10
25.09373369640002
 20
-30.31239979290001
 30
0.0
  0
VERTEX
  5
1F0D
  8
3
 10
25.81369248040005
 20
-30.4035589554
 30
0.0
  0
VERTEX
  5
1F0E
  8
3
 10
26.55384057509991
 20
-30.37289374560001
 30
0.0
  0
VERTEX
  5
1F0F
  8
3
 10
27.23397144969999
 20
-30.2237272146
 30
0.0
  0
VERTEX
  5
1F10
  8
3
 10
27.78038237069995
 20
-29.97222387080001
 30
0.0
  0
VERTEX
  5
1F11
  8
3
 10
28.13386123639998
 20
-29.6456380039
 30
0.0
  0
VERTEX
  5
1F12
  8
3
 10
28.2561031268001
 20
-29.27936026
 30
0.0
  0
SEQEND
  5
214D
  8
3
  0
LINE
  5
DB1
  8
3
 10
27.24999999989996
 20
-27.40248715140001
 30
0.0
 11
27.24999999989996
 21
-26.68079931490001
 31
0.0
  0
LINE
  5
DB2
  8
3
 10
27.24999999989996
 20
-27.40248715140001
 30
0.0
 11
27.25
 21
-29.74075574170001
 31
0.0
  0
LINE
  5
DB3
  8
3
 10
24.74999999989996
 20
-27.40248715140001
 30
0.0
 11
24.74999999989996
 21
-26.68079931490001
 31
0.0
  0
LINE
  5
DB4
  8
3
 10
24.74999999989996
 20
-27.40248715140001
 30
0.0
 11
24.75
 21
-29.74075574170001
 31
0.0
  0
POLYLINE
  5
DB5
  8
3
 66
     1
 10
0.0
 20
0.0
 30
0.0
  0
VERTEX
  5
1F13
  8
3
 10
26.0
 20
-30.40741182340001
 30
0.0
  0
VERTEX
  5
1F14
  8
3
 10
25.29714860540003
 20
-30.34544599130001
 30
0.0
  0
VERTEX
  5
1F15
  8
3
 10
24.67907146199991
 20
-30.16702248870001
 30
0.0
  0
VERTEX
  5
1F16
  8
3
 10
24.22031779520012
 20
-29.89366182340001
 30
0.0
  0
VERTEX
  5
1F17
  8
3
 10
23.97622006749998
 20
-29.55833532600001
 30
0.0
  0
VERTEX
  5
1F18
  8
3
 10
23.97622006749998
 20
-29.20148832090001
 30
0.0
  0
VERTEX
  5
1F19
  8
3
 10
24.22031779520012
 20
-28.86616182340001
 30
0.0
  0
VERTEX
  5
1F1A
  8
3
 10
24.67907146199991
 20
-28.5928011581
 30
0.0
  0
VERTEX
  5
1F1B
  8
3
 10
25.29714860540003
 20
-28.41437765560001
 30
0.0
  0
VERTEX
  5
1F1C
  8
3
 10
26.0
 20
-28.3524118234
 30
0.0
  0
VERTEX
  5
1F1D
  8
3
 10
26.70285139449993
 20
-28.41437765560001
 30
0.0
  0
VERTEX
  5
1F1E
  8
3
 10
27.32092853790004
 20
-28.5928011581
 30
0.0
  0
VERTEX
  5
1F1F
  8
3
 10
27.77968220470007
 20
-28.86616182340001
 30
0.0
  0
VERTEX
  5
1F20
  8
3
 10
28.02377993239998
 20
-29.20148832090001
 30
0.0
  0
VERTEX
  5
1F21
  8
3
 10
28.02377993239998
 20
-29.55833532600001
 30
0.0
  0
VERTEX
  5
1F22
  8
3
 10
27.77968220470007
 20
-29.89366182340001
 30
0.0
  0
VERTEX
  5
1F23
  8
3
 10
27.32092853790004
 20
-30.16702248870001
 30
0.0
  0
VERTEX
  5
1F24
  8
3
 10
26.70285139449993
 20
-30.34544599130001
 30
0.0
  0
VERTEX
  5
1F25
  8
3
 10
26.0
 20
-30.40741182340001
 30
0.0
  0
SEQEND
  5
214C
  8
3
  0
LINE
  5
DB6
  8
3
 10
27.25
 20
-29.74075574170001
 30
0.0
 11
26.0
 21
-30.1015996599
 31
0.0
  0
LINE
  5
DB7
  8
3
 10
24.75
 20
-29.74075574170001
 30
0.0
 11
26.0
 21
-30.1015996599
 31
0.0
  0
LINE
  5
DB8
  8
3
 10
25.99999999989996
 20
-26.31995539670001
 30
0.0
 11
26.0
 21
-27.7633310697
 31
0.0
  0
LINE
  5
DB9
  8
3
 10
24.75
 20
-29.0190679052
 30
0.0
 11
26.0
 21
-28.65822398690001
 31
0.0
  0
LINE
  5
DBA
  8
3
 10
24.74999999989996
 20
-26.68079931490001
 30
0.0
 11
25.99999999989996
 21
-26.31995539670001
 31
0.0
  0
LINE
  5
DBB
  8
3
 10
27.25
 20
-29.0190679052
 30
0.0
 11
26.0
 21
-28.65822398690001
 31
0.0
  0
LINE
  5
DBC
  8
3
 10
27.24999999989996
 20
-26.68079931490001
 30
0.0
 11
25.99999999989996
 21
-26.31995539670001
 31
0.0
  0
CIRCLE
  5
DBD
  8
3
 10
26.0
 20
0.0
 30
0.0
 40
2.500000000000227
  0
CIRCLE
  5
DBE
  8
3
 10
25.99999999989996
 20
0.0
 30
0.0
 40
2.316732743452349
  0
CIRCLE
  5
DBF
  8
3
 10
25.99999999989996
 20
0.0
 30
0.0
 40
1.750000000000028
  0
POLYLINE
  5
DC0
  8
3
 66
     1
 10
0.0
 20
0.0
 30
0.0
  0
VERTEX
  5
1F26
  8
3
 10
25.99999999989996
 20
23.30875940069998
 30
0.0
  0
VERTEX
  5
1F27
  8
3
 10
25.3678270841001
 20
23.36784619989999
 30
0.0
  0
VERTEX
  5
1F28
  8
3
 10
24.8210326236001
 20
23.5371265981
 30
0.0
  0
VERTEX
  5
1F29
  8
3
 10
24.43346424009997
 20
23.79373833939999
 30
0.0
  0
VERTEX
  5
1F2A
  8
3
 10
24.25746519140012
 20
24.10302458609999
 30
0.0
  0
VERTEX
  5
1F2B
  8
3
 10
24.31680512439993
 20
24.42321451699999
 30
0.0
  0
VERTEX
  5
1F2C
  8
3
 10
24.60346985220008
 20
24.71106470749999
 30
0.0
  0
VERTEX
  5
1F2D
  8
3
 10
25.07874371489993
 20
24.92769939439998
 30
0.0
  0
VERTEX
  5
1F2E
  8
3
 10
25.67843834380005
 20
25.0438608629
 30
0.0
  0
VERTEX
  5
1F2F
  8
3
 10
26.32156165610013
 20
25.0438608629
 30
0.0
  0
VERTEX
  5
1F30
  8
3
 10
26.92125628500003
 20
24.92769939439998
 30
0.0
  0
VERTEX
  5
1F31
  8
3
 10
27.3965301477001
 20
24.71106470749999
 30
0.0
  0
VERTEX
  5
1F32
  8
3
 10
27.68319487550002
 20
24.42321451699999
 30
0.0
  0
VERTEX
  5
1F33
  8
3
 10
27.74253480850007
 20
24.10302458609999
 30
0.0
  0
VERTEX
  5
1F34
  8
3
 10
27.56653575979999
 20
23.79373833939999
 30
0.0
  0
VERTEX
  5
1F35
  8
3
 10
27.17896737630008
 20
23.5371265981
 30
0.0
  0
VERTEX
  5
1F36
  8
3
 10
26.63217291580008
 20
23.36784619989999
 30
0.0
  0
VERTEX
  5
1F37
  8
3
 10
25.99999999989996
 20
23.30875940069998
 30
0.0
  0
SEQEND
  5
214B
  8
3
  0
POLYLINE
  5
DC1
  8
3
 66
     1
 10
0.0
 20
0.0
 30
0.0
  0
VERTEX
  5
1F38
  8
3
 10
23.68326725650013
 20
24.6745643536
 30
0.0
  0
VERTEX
  5
1F39
  8
3
 10
23.80879422680005
 20
25.05068529970001
 30
0.0
  0
VERTEX
  5
1F3A
  8
3
 10
24.17177234259998
 20
25.3860477051
 30
0.0
  0
VERTEX
  5
1F3B
  8
3
 10
24.73286729310007
 20
25.64430984960001
 30
0.0
  0
VERTEX
  5
1F3C
  8
3
 10
25.43127573380002
 20
25.79748502249998
 30
0.0
  0
VERTEX
  5
1F3D
  8
3
 10
26.19131427349998
 20
25.8289743169
 30
0.0
  0
VERTEX
  5
1F3E
  8
3
 10
26.93062094309994
 20
25.73536537939998
 30
0.0
  0
VERTEX
  5
1F3F
  8
3
 10
27.56908039349992
 20
25.52680219059999
 30
0.0
  0
VERTEX
  5
1F40
  8
3
 10
28.03750563640006
 20
25.22588580849998
 30
0.0
  0
VERTEX
  5
1F41
  8
3
 10
28.28513552840013
 20
24.865225192
 30
0.0
  0
VERTEX
  5
1F42
  8
3
 10
28.28513552840013
 20
24.4839035153
 30
0.0
  0
VERTEX
  5
1F43
  8
3
 10
28.03750563640006
 20
24.12324289879999
 30
0.0
  0
VERTEX
  5
1F44
  8
3
 10
27.56908039349992
 20
23.82232651659999
 30
0.0
  0
VERTEX
  5
1F45
  8
3
 10
26.93062094309994
 20
23.61376332789999
 30
0.0
  0
VERTEX
  5
1F46
  8
3
 10
26.19131427349998
 20
23.52015439039999
 30
0.0
  0
VERTEX
  5
1F47
  8
3
 10
25.43127573380002
 20
23.55164368479998
 30
0.0
  0
VERTEX
  5
1F48
  8
3
 10
24.73286729310007
 20
23.70481885769999
 30
0.0
  0
VERTEX
  5
1F49
  8
3
 10
24.17177234259998
 20
23.9630810022
 30
0.0
  0
VERTEX
  5
1F4A
  8
3
 10
23.80879422680005
 20
24.29844340759999
 30
0.0
  0
VERTEX
  5
1F4B
  8
3
 10
23.68326725650013
 20
24.6745643536
 30
0.0
  0
SEQEND
  5
214A
  8
3
  0
POLYLINE
  5
DC2
  8
3
 66
     1
 10
0.0
 20
0.0
 30
0.0
  0
VERTEX
  5
1F4C
  8
3
 10
28.05499999990002
 20
24.83327843909998
 30
0.0
  0
VERTEX
  5
1F4D
  8
3
 10
27.93106833570005
 20
24.48185274189998
 30
0.0
  0
VERTEX
  5
1F4E
  8
3
 10
27.57422133060004
 20
24.17281417019998
 30
0.0
  0
VERTEX
  5
1F4F
  8
3
 10
27.0274999999001
 20
23.94343733669999
 30
0.0
  0
VERTEX
  5
1F50
  8
3
 10
26.35684700510001
 20
23.8213884729
 30
0.0
  0
VERTEX
  5
1F51
  8
3
 10
25.64315299479995
 20
23.8213884729
 30
0.0
  0
VERTEX
  5
1F52
  8
3
 10
24.97249999990004
 20
23.94343733669999
 30
0.0
  0
VERTEX
  5
1F53
  8
3
 10
24.42577866929992
 20
24.17281417019998
 30
0.0
  0
VERTEX
  5
1F54
  8
3
 10
24.06893166420014
 20
24.48185274189998
 30
0.0
  0
VERTEX
  5
1F55
  8
3
 10
23.94499999990012
 20
24.83327843909998
 30
0.0
  0
VERTEX
  5
1F56
  8
3
 10
24.06893166420014
 20
25.1847041364
 30
0.0
  0
VERTEX
  5
1F57
  8
3
 10
24.42577866929992
 20
25.4937427081
 30
0.0
  0
VERTEX
  5
1F58
  8
3
 10
24.97249999990004
 20
25.72311954149998
 30
0.0
  0
VERTEX
  5
1F59
  8
3
 10
25.64315299479995
 20
25.84516840539999
 30
0.0
  0
VERTEX
  5
1F5A
  8
3
 10
26.35684700510001
 20
25.84516840539999
 30
0.0
  0
VERTEX
  5
1F5B
  8
3
 10
27.0274999999001
 20
25.72311954149998
 30
0.0
  0
VERTEX
  5
1F5C
  8
3
 10
27.57422133060004
 20
25.4937427081
 30
0.0
  0
VERTEX
  5
1F5D
  8
3
 10
27.93106833570005
 20
25.1847041364
 30
0.0
  0
VERTEX
  5
1F5E
  8
3
 10
28.05499999990002
 20
24.83327843909998
 30
0.0
  0
SEQEND
  5
2149
  8
3
  0
POLYLINE
  5
DC3
  8
3
 66
     1
 10
0.0
 20
0.0
 30
0.0
  0
VERTEX
  5
1F5F
  8
3
 10
28.49999999989996
 20
25.10312533379999
 30
0.0
  0
VERTEX
  5
1F60
  8
3
 10
28.37764129070001
 20
24.71685409079998
 30
0.0
  0
VERTEX
  5
1F61
  8
3
 10
28.02254248589998
 20
24.36839376839998
 30
0.0
  0
VERTEX
  5
1F62
  8
3
 10
27.46946313069998
 20
24.09185409079998
 30
0.0
  0
VERTEX
  5
1F63
  8
3
 10
26.77254248589998
 20
23.91430468839999
 30
0.0
  0
VERTEX
  5
1F64
  8
3
 10
25.99999999989996
 20
23.85312533379999
 30
0.0
  0
VERTEX
  5
1F65
  8
3
 10
25.22745751399998
 20
23.91430468839999
 30
0.0
  0
VERTEX
  5
1F66
  8
3
 10
24.53053686919998
 20
24.09185409079998
 30
0.0
  0
VERTEX
  5
1F67
  8
3
 10
23.97745751399998
 20
24.36839376839998
 30
0.0
  0
VERTEX
  5
1F68
  8
3
 10
23.62235870919994
 20
24.71685409079998
 30
0.0
  0
VERTEX
  5
1F69
  8
3
 10
23.49999999989996
 20
25.10312533379999
 30
0.0
  0
VERTEX
  5
1F6A
  8
3
 10
23.62235870919994
 20
25.48939657669999
 30
0.0
  0
VERTEX
  5
1F6B
  8
3
 10
23.97745751399998
 20
25.83785689909999
 30
0.0
  0
VERTEX
  5
1F6C
  8
3
 10
24.53053686919998
 20
26.11439657669999
 30
0.0
  0
VERTEX
  5
1F6D
  8
3
 10
25.22745751399998
 20
26.29194597910001
 30
0.0
  0
VERTEX
  5
1F6E
  8
3
 10
25.99999999989996
 20
26.35312533379999
 30
0.0
  0
VERTEX
  5
1F6F
  8
3
 10
26.77254248589998
 20
26.29194597910001
 30
0.0
  0
VERTEX
  5
1F70
  8
3
 10
27.46946313069998
 20
26.11439657669999
 30
0.0
  0
VERTEX
  5
1F71
  8
3
 10
28.02254248589998
 20
25.83785689909999
 30
0.0
  0
VERTEX
  5
1F72
  8
3
 10
28.37764129070001
 20
25.48939657669999
 30
0.0
  0
VERTEX
  5
1F73
  8
3
 10
28.49999999989996
 20
25.10312533379999
 30
0.0
  0
SEQEND
  5
2148
  8
3
  0
POLYLINE
  5
DC4
  8
3
 66
     1
 10
0.0
 20
0.0
 30
0.0
  0
VERTEX
  5
1F74
  8
3
 10
28.49999999989996
 20
25.1811648851
 30
0.0
  0
VERTEX
  5
1F75
  8
3
 10
28.37764129070001
 20
24.79489364209999
 30
0.0
  0
VERTEX
  5
1F76
  8
3
 10
28.02254248589998
 20
24.44643331969999
 30
0.0
  0
VERTEX
  5
1F77
  8
3
 10
27.46946313069998
 20
24.16989364209999
 30
0.0
  0
VERTEX
  5
1F78
  8
3
 10
26.77254248589998
 20
23.9923442397
 30
0.0
  0
VERTEX
  5
1F79
  8
3
 10
25.99999999989996
 20
23.9311648851
 30
0.0
  0
VERTEX
  5
1F7A
  8
3
 10
25.22745751399998
 20
23.9923442397
 30
0.0
  0
VERTEX
  5
1F7B
  8
3
 10
24.53053686919998
 20
24.16989364209999
 30
0.0
  0
VERTEX
  5
1F7C
  8
3
 10
23.97745751399998
 20
24.44643331969999
 30
0.0
  0
VERTEX
  5
1F7D
  8
3
 10
23.62235870919994
 20
24.79489364209999
 30
0.0
  0
VERTEX
  5
1F7E
  8
3
 10
23.49999999989996
 20
25.1811648851
 30
0.0
  0
VERTEX
  5
1F7F
  8
3
 10
23.62235870919994
 20
25.56743612809998
 30
0.0
  0
VERTEX
  5
1F80
  8
3
 10
23.97745751399998
 20
25.91589645049999
 30
0.0
  0
VERTEX
  5
1F81
  8
3
 10
24.53053686919998
 20
26.19243612809998
 30
0.0
  0
VERTEX
  5
1F82
  8
3
 10
25.22745751399998
 20
26.3699855305
 30
0.0
  0
VERTEX
  5
1F83
  8
3
 10
25.99999999989996
 20
26.4311648851
 30
0.0
  0
VERTEX
  5
1F84
  8
3
 10
26.77254248589998
 20
26.3699855305
 30
0.0
  0
VERTEX
  5
1F85
  8
3
 10
27.46946313069998
 20
26.19243612809998
 30
0.0
  0
VERTEX
  5
1F86
  8
3
 10
28.02254248589998
 20
25.91589645049999
 30
0.0
  0
VERTEX
  5
1F87
  8
3
 10
28.37764129070001
 20
25.56743612809998
 30
0.0
  0
VERTEX
  5
1F88
  8
3
 10
28.49999999989996
 20
25.1811648851
 30
0.0
  0
SEQEND
  5
2147
  8
3
  0
POLYLINE
  5
DC5
  8
3
 66
     1
 10
0.0
 20
0.0
 30
0.0
  0
VERTEX
  5
1F89
  8
3
 10
28.05499999990002
 20
25.4510117797
 30
0.0
  0
VERTEX
  5
1F8A
  8
3
 10
27.93106833570005
 20
25.0995860825
 30
0.0
  0
VERTEX
  5
1F8B
  8
3
 10
27.5742213305
 20
24.7905475108
 30
0.0
  0
VERTEX
  5
1F8C
  8
3
 10
27.0274999999001
 20
24.5611706773
 30
0.0
  0
VERTEX
  5
1F8D
  8
3
 10
26.35684700499996
 20
24.43912181349998
 30
0.0
  0
VERTEX
  5
1F8E
  8
3
 10
25.64315299479995
 20
24.43912181349998
 30
0.0
  0
VERTEX
  5
1F8F
  8
3
 10
24.97249999990004
 20
24.5611706773
 30
0.0
  0
VERTEX
  5
1F90
  8
3
 10
24.42577866929992
 20
24.7905475108
 30
0.0
  0
VERTEX
  5
1F91
  8
3
 10
24.06893166420014
 20
25.0995860825
 30
0.0
  0
VERTEX
  5
1F92
  8
3
 10
23.94499999990012
 20
25.4510117797
 30
0.0
  0
VERTEX
  5
1F93
  8
3
 10
24.06893166420014
 20
25.80243747699998
 30
0.0
  0
VERTEX
  5
1F94
  8
3
 10
24.42577866929992
 20
26.11147604869998
 30
0.0
  0
VERTEX
  5
1F95
  8
3
 10
24.97249999990004
 20
26.34085288209999
 30
0.0
  0
VERTEX
  5
1F96
  8
3
 10
25.64315299479995
 20
26.462901746
 30
0.0
  0
VERTEX
  5
1F97
  8
3
 10
26.35684700499996
 20
26.462901746
 30
0.0
  0
VERTEX
  5
1F98
  8
3
 10
27.0274999999001
 20
26.34085288209999
 30
0.0
  0
VERTEX
  5
1F99
  8
3
 10
27.5742213305
 20
26.11147604869998
 30
0.0
  0
VERTEX
  5
1F9A
  8
3
 10
27.93106833570005
 20
25.80243747699998
 30
0.0
  0
VERTEX
  5
1F9B
  8
3
 10
28.05499999990002
 20
25.4510117797
 30
0.0
  0
SEQEND
  5
2146
  8
3
  0
POLYLINE
  5
DC6
  8
3
 66
     1
 10
0.0
 20
0.0
 30
0.0
  0
VERTEX
  5
1F9C
  8
3
 10
28.49999999989996
 20
25.72085867440001
 30
0.0
  0
VERTEX
  5
1F9D
  8
3
 10
28.37764129070001
 20
25.3345874314
 30
0.0
  0
VERTEX
  5
1F9E
  8
3
 10
28.02254248589998
 20
24.98612710899999
 30
0.0
  0
VERTEX
  5
1F9F
  8
3
 10
27.46946313069998
 20
24.7095874314
 30
0.0
  0
VERTEX
  5
1FA0
  8
3
 10
26.77254248589998
 20
24.53203802900001
 30
0.0
  0
VERTEX
  5
1FA1
  8
3
 10
25.99999999989996
 20
24.47085867440001
 30
0.0
  0
VERTEX
  5
1FA2
  8
3
 10
25.22745751399998
 20
24.53203802900001
 30
0.0
  0
VERTEX
  5
1FA3
  8
3
 10
24.53053686919998
 20
24.7095874314
 30
0.0
  0
VERTEX
  5
1FA4
  8
3
 10
23.97745751399998
 20
24.98612710899999
 30
0.0
  0
VERTEX
  5
1FA5
  8
3
 10
23.62235870919994
 20
25.3345874314
 30
0.0
  0
VERTEX
  5
1FA6
  8
3
 10
23.49999999989996
 20
25.72085867440001
 30
0.0
  0
VERTEX
  5
1FA7
  8
3
 10
23.62235870919994
 20
26.1071299173
 30
0.0
  0
VERTEX
  5
1FA8
  8
3
 10
23.97745751399998
 20
26.4555902397
 30
0.0
  0
VERTEX
  5
1FA9
  8
3
 10
24.53053686919998
 20
26.7321299173
 30
0.0
  0
VERTEX
  5
1FAA
  8
3
 10
25.22745751399998
 20
26.90967931969999
 30
0.0
  0
VERTEX
  5
1FAB
  8
3
 10
25.99999999989996
 20
26.97085867440001
 30
0.0
  0
VERTEX
  5
1FAC
  8
3
 10
26.77254248589998
 20
26.90967931969999
 30
0.0
  0
VERTEX
  5
1FAD
  8
3
 10
27.46946313069998
 20
26.7321299173
 30
0.0
  0
VERTEX
  5
1FAE
  8
3
 10
28.02254248589998
 20
26.4555902397
 30
0.0
  0
VERTEX
  5
1FAF
  8
3
 10
28.37764129070001
 20
26.1071299173
 30
0.0
  0
VERTEX
  5
1FB0
  8
3
 10
28.49999999989996
 20
25.72085867440001
 30
0.0
  0
SEQEND
  5
2145
  8
3
  0
POLYLINE
  5
DC7
  8
3
 66
     1
 10
0.0
 20
0.0
 30
0.0
  0
VERTEX
  5
1FB1
  8
3
 10
28.49999999989996
 20
25.79889822569999
 30
0.0
  0
VERTEX
  5
1FB2
  8
3
 10
28.37764129070001
 20
25.4126269827
 30
0.0
  0
VERTEX
  5
1FB3
  8
3
 10
28.02254248589998
 20
25.06416666039999
 30
0.0
  0
VERTEX
  5
1FB4
  8
3
 10
27.46946313069998
 20
24.7876269827
 30
0.0
  0
VERTEX
  5
1FB5
  8
3
 10
26.77254248589998
 20
24.61007758029999
 30
0.0
  0
VERTEX
  5
1FB6
  8
3
 10
25.99999999989996
 20
24.54889822569999
 30
0.0
  0
VERTEX
  5
1FB7
  8
3
 10
25.22745751399998
 20
24.61007758029999
 30
0.0
  0
VERTEX
  5
1FB8
  8
3
 10
24.53053686919998
 20
24.7876269827
 30
0.0
  0
VERTEX
  5
1FB9
  8
3
 10
23.97745751399998
 20
25.06416666039999
 30
0.0
  0
VERTEX
  5
1FBA
  8
3
 10
23.62235870919994
 20
25.4126269827
 30
0.0
  0
VERTEX
  5
1FBB
  8
3
 10
23.49999999989996
 20
25.79889822569999
 30
0.0
  0
VERTEX
  5
1FBC
  8
3
 10
23.62235870919994
 20
26.1851694687
 30
0.0
  0
VERTEX
  5
1FBD
  8
3
 10
23.97745751399998
 20
26.5336297911
 30
0.0
  0
VERTEX
  5
1FBE
  8
3
 10
24.53053686919998
 20
26.8101694687
 30
0.0
  0
VERTEX
  5
1FBF
  8
3
 10
25.22745751399998
 20
26.98771887109999
 30
0.0
  0
VERTEX
  5
1FC0
  8
3
 10
25.99999999989996
 20
27.04889822569999
 30
0.0
  0
VERTEX
  5
1FC1
  8
3
 10
26.77254248589998
 20
26.98771887109999
 30
0.0
  0
VERTEX
  5
1FC2
  8
3
 10
27.46946313069998
 20
26.8101694687
 30
0.0
  0
VERTEX
  5
1FC3
  8
3
 10
28.02254248589998
 20
26.5336297911
 30
0.0
  0
VERTEX
  5
1FC4
  8
3
 10
28.37764129070001
 20
26.1851694687
 30
0.0
  0
VERTEX
  5
1FC5
  8
3
 10
28.49999999989996
 20
25.79889822569999
 30
0.0
  0
SEQEND
  5
2144
  8
3
  0
POLYLINE
  5
DC8
  8
3
 66
     1
 10
0.0
 20
0.0
 30
0.0
  0
VERTEX
  5
1FC6
  8
3
 10
28.05499999990002
 20
26.06874512029998
 30
0.0
  0
VERTEX
  5
1FC7
  8
3
 10
27.93106833570005
 20
25.71731942309998
 30
0.0
  0
VERTEX
  5
1FC8
  8
3
 10
27.5742213305
 20
25.40828085139998
 30
0.0
  0
VERTEX
  5
1FC9
  8
3
 10
27.0274999999001
 20
25.178904018
 30
0.0
  0
VERTEX
  5
1FCA
  8
3
 10
26.35684700499996
 20
25.05685515409999
 30
0.0
  0
VERTEX
  5
1FCB
  8
3
 10
25.64315299479995
 20
25.05685515409999
 30
0.0
  0
VERTEX
  5
1FCC
  8
3
 10
24.97249999990004
 20
25.178904018
 30
0.0
  0
VERTEX
  5
1FCD
  8
3
 10
24.42577866929992
 20
25.40828085139998
 30
0.0
  0
VERTEX
  5
1FCE
  8
3
 10
24.06893166420014
 20
25.71731942309998
 30
0.0
  0
VERTEX
  5
1FCF
  8
3
 10
23.94499999990012
 20
26.06874512029998
 30
0.0
  0
VERTEX
  5
1FD0
  8
3
 10
24.06893166420014
 20
26.4201708176
 30
0.0
  0
VERTEX
  5
1FD1
  8
3
 10
24.42577866929992
 20
26.7292093893
 30
0.0
  0
VERTEX
  5
1FD2
  8
3
 10
24.97249999990004
 20
26.95858622270001
 30
0.0
  0
VERTEX
  5
1FD3
  8
3
 10
25.64315299479995
 20
27.08063508659998
 30
0.0
  0
VERTEX
  5
1FD4
  8
3
 10
26.35684700499996
 20
27.08063508659998
 30
0.0
  0
VERTEX
  5
1FD5
  8
3
 10
27.0274999999001
 20
26.95858622270001
 30
0.0
  0
VERTEX
  5
1FD6
  8
3
 10
27.5742213305
 20
26.7292093893
 30
0.0
  0
VERTEX
  5
1FD7
  8
3
 10
27.93106833570005
 20
26.4201708176
 30
0.0
  0
VERTEX
  5
1FD8
  8
3
 10
28.05499999990002
 20
26.06874512029998
 30
0.0
  0
SEQEND
  5
2143
  8
3
  0
POLYLINE
  5
DC9
  8
3
 66
     1
 10
0.0
 20
0.0
 30
0.0
  0
VERTEX
  5
1FD9
  8
3
 10
28.49999999989996
 20
26.33859201499999
 30
0.0
  0
VERTEX
  5
1FDA
  8
3
 10
28.37764129070001
 20
25.95232077199998
 30
0.0
  0
VERTEX
  5
1FDB
  8
3
 10
28.02254248589998
 20
25.60386044960001
 30
0.0
  0
VERTEX
  5
1FDC
  8
3
 10
27.46946313069998
 20
25.32732077199998
 30
0.0
  0
VERTEX
  5
1FDD
  8
3
 10
26.77254248589998
 20
25.14977136959999
 30
0.0
  0
VERTEX
  5
1FDE
  8
3
 10
25.99999999989996
 20
25.08859201499999
 30
0.0
  0
VERTEX
  5
1FDF
  8
3
 10
25.22745751399998
 20
25.14977136959999
 30
0.0
  0
VERTEX
  5
1FE0
  8
3
 10
24.53053686919998
 20
25.32732077199998
 30
0.0
  0
VERTEX
  5
1FE1
  8
3
 10
23.97745751399998
 20
25.60386044960001
 30
0.0
  0
VERTEX
  5
1FE2
  8
3
 10
23.62235870919994
 20
25.95232077199998
 30
0.0
  0
VERTEX
  5
1FE3
  8
3
 10
23.49999999989996
 20
26.33859201499999
 30
0.0
  0
VERTEX
  5
1FE4
  8
3
 10
23.62235870919994
 20
26.72486325789998
 30
0.0
  0
VERTEX
  5
1FE5
  8
3
 10
23.97745751399998
 20
27.07332358029998
 30
0.0
  0
VERTEX
  5
1FE6
  8
3
 10
24.53053686919998
 20
27.34986325789998
 30
0.0
  0
VERTEX
  5
1FE7
  8
3
 10
25.22745751399998
 20
27.5274126603
 30
0.0
  0
VERTEX
  5
1FE8
  8
3
 10
25.99999999989996
 20
27.58859201499999
 30
0.0
  0
VERTEX
  5
1FE9
  8
3
 10
26.77254248589998
 20
27.5274126603
 30
0.0
  0
VERTEX
  5
1FEA
  8
3
 10
27.46946313069998
 20
27.34986325789998
 30
0.0
  0
VERTEX
  5
1FEB
  8
3
 10
28.02254248589998
 20
27.07332358029998
 30
0.0
  0
VERTEX
  5
1FEC
  8
3
 10
28.37764129070001
 20
26.72486325789998
 30
0.0
  0
VERTEX
  5
1FED
  8
3
 10
28.49999999989996
 20
26.33859201499999
 30
0.0
  0
SEQEND
  5
2142
  8
3
  0
POLYLINE
  5
DCA
  8
3
 66
     1
 10
0.0
 20
0.0
 30
0.0
  0
VERTEX
  5
1FEE
  8
3
 10
28.49999999989996
 20
26.4166315663
 30
0.0
  0
VERTEX
  5
1FEF
  8
3
 10
28.37764129070001
 20
26.0303603234
 30
0.0
  0
VERTEX
  5
1FF0
  8
3
 10
28.02254248589998
 20
25.681900001
 30
0.0
  0
VERTEX
  5
1FF1
  8
3
 10
27.46946313069998
 20
25.4053603234
 30
0.0
  0
VERTEX
  5
1FF2
  8
3
 10
26.77254248589998
 20
25.22781092099999
 30
0.0
  0
VERTEX
  5
1FF3
  8
3
 10
25.99999999989996
 20
25.1666315663
 30
0.0
  0
VERTEX
  5
1FF4
  8
3
 10
25.22745751399998
 20
25.22781092099999
 30
0.0
  0
VERTEX
  5
1FF5
  8
3
 10
24.53053686919998
 20
25.4053603234
 30
0.0
  0
VERTEX
  5
1FF6
  8
3
 10
23.97745751399998
 20
25.681900001
 30
0.0
  0
VERTEX
  5
1FF7
  8
3
 10
23.62235870919994
 20
26.0303603234
 30
0.0
  0
VERTEX
  5
1FF8
  8
3
 10
23.49999999989996
 20
26.4166315663
 30
0.0
  0
VERTEX
  5
1FF9
  8
3
 10
23.62235870919994
 20
26.80290280929998
 30
0.0
  0
VERTEX
  5
1FFA
  8
3
 10
23.97745751399998
 20
27.15136313169998
 30
0.0
  0
VERTEX
  5
1FFB
  8
3
 10
24.53053686919998
 20
27.42790280929998
 30
0.0
  0
VERTEX
  5
1FFC
  8
3
 10
25.22745751399998
 20
27.6054522117
 30
0.0
  0
VERTEX
  5
1FFD
  8
3
 10
25.99999999989996
 20
27.6666315663
 30
0.0
  0
VERTEX
  5
1FFE
  8
3
 10
26.77254248589998
 20
27.6054522117
 30
0.0
  0
VERTEX
  5
1FFF
  8
3
 10
27.46946313069998
 20
27.42790280929998
 30
0.0
  0
VERTEX
  5
2000
  8
3
 10
28.02254248589998
 20
27.15136313169998
 30
0.0
  0
VERTEX
  5
2001
  8
3
 10
28.37764129070001
 20
26.80290280929998
 30
0.0
  0
VERTEX
  5
2002
  8
3
 10
28.49999999989996
 20
26.4166315663
 30
0.0
  0
SEQEND
  5
2141
  8
3
  0
POLYLINE
  5
DCB
  8
3
 66
     1
 10
0.0
 20
0.0
 30
0.0
  0
VERTEX
  5
2003
  8
3
 10
28.05499999990002
 20
26.68647846089999
 30
0.0
  0
VERTEX
  5
2004
  8
3
 10
27.93106833570005
 20
26.33505276369999
 30
0.0
  0
VERTEX
  5
2005
  8
3
 10
27.57422133060004
 20
26.02601419199999
 30
0.0
  0
VERTEX
  5
2006
  8
3
 10
27.0274999999001
 20
25.79663735859998
 30
0.0
  0
VERTEX
  5
2007
  8
3
 10
26.35684700510001
 20
25.6745884947
 30
0.0
  0
VERTEX
  5
2008
  8
3
 10
25.64315299479995
 20
25.6745884947
 30
0.0
  0
VERTEX
  5
2009
  8
3
 10
24.97249999990004
 20
25.79663735859998
 30
0.0
  0
VERTEX
  5
200A
  8
3
 10
24.42577866929992
 20
26.02601419199999
 30
0.0
  0
VERTEX
  5
200B
  8
3
 10
24.06893166420014
 20
26.33505276369999
 30
0.0
  0
VERTEX
  5
200C
  8
3
 10
23.94499999990012
 20
26.68647846089999
 30
0.0
  0
VERTEX
  5
200D
  8
3
 10
24.06893166420014
 20
27.03790415820001
 30
0.0
  0
VERTEX
  5
200E
  8
3
 10
24.42577866929992
 20
27.34694272989998
 30
0.0
  0
VERTEX
  5
200F
  8
3
 10
24.97249999990004
 20
27.57631956329999
 30
0.0
  0
VERTEX
  5
2010
  8
3
 10
25.64315299479995
 20
27.69836842719999
 30
0.0
  0
VERTEX
  5
2011
  8
3
 10
26.35684700510001
 20
27.69836842719999
 30
0.0
  0
VERTEX
  5
2012
  8
3
 10
27.0274999999001
 20
27.57631956329999
 30
0.0
  0
VERTEX
  5
2013
  8
3
 10
27.57422133060004
 20
27.34694272989998
 30
0.0
  0
VERTEX
  5
2014
  8
3
 10
27.93106833570005
 20
27.03790415820001
 30
0.0
  0
VERTEX
  5
2015
  8
3
 10
28.05499999990002
 20
26.68647846089999
 30
0.0
  0
SEQEND
  5
2140
  8
3
  0
POLYLINE
  5
DCC
  8
3
 66
     1
 10
0.0
 20
0.0
 30
0.0
  0
VERTEX
  5
2016
  8
3
 10
28.49999999989996
 20
26.9563253556
 30
0.0
  0
VERTEX
  5
2017
  8
3
 10
28.37764129070001
 20
26.57005411259999
 30
0.0
  0
VERTEX
  5
2018
  8
3
 10
28.02254248589998
 20
26.22159379019999
 30
0.0
  0
VERTEX
  5
2019
  8
3
 10
27.46946313069998
 20
25.94505411259999
 30
0.0
  0
VERTEX
  5
201A
  8
3
 10
26.77254248589998
 20
25.7675047102
 30
0.0
  0
VERTEX
  5
201B
  8
3
 10
25.99999999989996
 20
25.7063253556
 30
0.0
  0
VERTEX
  5
201C
  8
3
 10
25.22745751399998
 20
25.7675047102
 30
0.0
  0
VERTEX
  5
201D
  8
3
 10
24.53053686919998
 20
25.94505411259999
 30
0.0
  0
VERTEX
  5
201E
  8
3
 10
23.97745751399998
 20
26.22159379019999
 30
0.0
  0
VERTEX
  5
201F
  8
3
 10
23.62235870919994
 20
26.57005411259999
 30
0.0
  0
VERTEX
  5
2020
  8
3
 10
23.49999999989996
 20
26.9563253556
 30
0.0
  0
VERTEX
  5
2021
  8
3
 10
23.62235870919994
 20
27.34259659849999
 30
0.0
  0
VERTEX
  5
2022
  8
3
 10
23.97745751399998
 20
27.6910569209
 30
0.0
  0
VERTEX
  5
2023
  8
3
 10
24.53053686919998
 20
27.96759659849999
 30
0.0
  0
VERTEX
  5
2024
  8
3
 10
25.22745751399998
 20
28.14514600089998
 30
0.0
  0
VERTEX
  5
2025
  8
3
 10
25.99999999989996
 20
28.2063253556
 30
0.0
  0
VERTEX
  5
2026
  8
3
 10
26.77254248589998
 20
28.14514600089998
 30
0.0
  0
VERTEX
  5
2027
  8
3
 10
27.46946313069998
 20
27.96759659849999
 30
0.0
  0
VERTEX
  5
2028
  8
3
 10
28.02254248589998
 20
27.6910569209
 30
0.0
  0
VERTEX
  5
2029
  8
3
 10
28.37764129070001
 20
27.34259659849999
 30
0.0
  0
VERTEX
  5
202A
  8
3
 10
28.49999999989996
 20
26.9563253556
 30
0.0
  0
SEQEND
  5
213F
  8
3
  0
POLYLINE
  5
DCD
  8
3
 66
     1
 10
0.0
 20
0.0
 30
0.0
  0
VERTEX
  5
202B
  8
3
 10
28.49999999989996
 20
27.03436490689998
 30
0.0
  0
VERTEX
  5
202C
  8
3
 10
28.37764129070001
 20
26.64809366399999
 30
0.0
  0
VERTEX
  5
202D
  8
3
 10
28.02254248589998
 20
26.29963334159999
 30
0.0
  0
VERTEX
  5
202E
  8
3
 10
27.46946313069998
 20
26.02309366399999
 30
0.0
  0
VERTEX
  5
202F
  8
3
 10
26.77254248589998
 20
25.8455442616
 30
0.0
  0
VERTEX
  5
2030
  8
3
 10
25.99999999989996
 20
25.78436490689998
 30
0.0
  0
VERTEX
  5
2031
  8
3
 10
25.22745751399998
 20
25.8455442616
 30
0.0
  0
VERTEX
  5
2032
  8
3
 10
24.53053686919998
 20
26.02309366399999
 30
0.0
  0
VERTEX
  5
2033
  8
3
 10
23.97745751399998
 20
26.29963334159999
 30
0.0
  0
VERTEX
  5
2034
  8
3
 10
23.62235870919994
 20
26.64809366399999
 30
0.0
  0
VERTEX
  5
2035
  8
3
 10
23.49999999989996
 20
27.03436490689998
 30
0.0
  0
VERTEX
  5
2036
  8
3
 10
23.62235870919994
 20
27.42063614989999
 30
0.0
  0
VERTEX
  5
2037
  8
3
 10
23.97745751399998
 20
27.76909647229999
 30
0.0
  0
VERTEX
  5
2038
  8
3
 10
24.53053686919998
 20
28.04563614989999
 30
0.0
  0
VERTEX
  5
2039
  8
3
 10
25.22745751399998
 20
28.22318555229998
 30
0.0
  0
VERTEX
  5
203A
  8
3
 10
25.99999999989996
 20
28.28436490689998
 30
0.0
  0
VERTEX
  5
203B
  8
3
 10
26.77254248589998
 20
28.22318555229998
 30
0.0
  0
VERTEX
  5
203C
  8
3
 10
27.46946313069998
 20
28.04563614989999
 30
0.0
  0
VERTEX
  5
203D
  8
3
 10
28.02254248589998
 20
27.76909647229999
 30
0.0
  0
VERTEX
  5
203E
  8
3
 10
28.37764129070001
 20
27.42063614989999
 30
0.0
  0
VERTEX
  5
203F
  8
3
 10
28.49999999989996
 20
27.03436490689998
 30
0.0
  0
SEQEND
  5
213E
  8
3
  0
POLYLINE
  5
DCE
  8
3
 66
     1
 10
0.0
 20
0.0
 30
0.0
  0
VERTEX
  5
2040
  8
3
 10
28.05499999990002
 20
27.30421180159999
 30
0.0
  0
VERTEX
  5
2041
  8
3
 10
27.93106833570005
 20
26.9527861043
 30
0.0
  0
VERTEX
  5
2042
  8
3
 10
27.57422133060004
 20
26.6437475326
 30
0.0
  0
VERTEX
  5
2043
  8
3
 10
27.0274999999001
 20
26.41437069919999
 30
0.0
  0
VERTEX
  5
2044
  8
3
 10
26.35684700510001
 20
26.29232183529999
 30
0.0
  0
VERTEX
  5
2045
  8
3
 10
25.64315299479995
 20
26.29232183529999
 30
0.0
  0
VERTEX
  5
2046
  8
3
 10
24.97249999990004
 20
26.41437069919999
 30
0.0
  0
VERTEX
  5
2047
  8
3
 10
24.42577866929992
 20
26.6437475326
 30
0.0
  0
VERTEX
  5
2048
  8
3
 10
24.06893166420014
 20
26.9527861043
 30
0.0
  0
VERTEX
  5
2049
  8
3
 10
23.94499999990012
 20
27.30421180159999
 30
0.0
  0
VERTEX
  5
204A
  8
3
 10
24.06893166420014
 20
27.65563749879999
 30
0.0
  0
VERTEX
  5
204B
  8
3
 10
24.42577866929992
 20
27.96467607049999
 30
0.0
  0
VERTEX
  5
204C
  8
3
 10
24.97249999990004
 20
28.1940529039
 30
0.0
  0
VERTEX
  5
204D
  8
3
 10
25.64315299479995
 20
28.31610176780001
 30
0.0
  0
VERTEX
  5
204E
  8
3
 10
26.35684700510001
 20
28.31610176780001
 30
0.0
  0
VERTEX
  5
204F
  8
3
 10
27.0274999999001
 20
28.1940529039
 30
0.0
  0
VERTEX
  5
2050
  8
3
 10
27.57422133060004
 20
27.96467607049999
 30
0.0
  0
VERTEX
  5
2051
  8
3
 10
27.93106833570005
 20
27.65563749879999
 30
0.0
  0
VERTEX
  5
2052
  8
3
 10
28.05499999990002
 20
27.30421180159999
 30
0.0
  0
SEQEND
  5
213D
  8
3
  0
POLYLINE
  5
DCF
  8
3
 66
     1
 10
0.0
 20
0.0
 30
0.0
  0
VERTEX
  5
2053
  8
3
 10
28.49999999989996
 20
27.57405869619998
 30
0.0
  0
VERTEX
  5
2054
  8
3
 10
28.37764129070001
 20
27.1877874532
 30
0.0
  0
VERTEX
  5
2055
  8
3
 10
28.02254248589998
 20
26.8393271308
 30
0.0
  0
VERTEX
  5
2056
  8
3
 10
27.46946313069998
 20
26.5627874532
 30
0.0
  0
VERTEX
  5
2057
  8
3
 10
26.77254248589998
 20
26.38523805079998
 30
0.0
  0
VERTEX
  5
2058
  8
3
 10
25.99999999989996
 20
26.32405869619998
 30
0.0
  0
VERTEX
  5
2059
  8
3
 10
25.22745751399998
 20
26.38523805079998
 30
0.0
  0
VERTEX
  5
205A
  8
3
 10
24.53053686919998
 20
26.5627874532
 30
0.0
  0
VERTEX
  5
205B
  8
3
 10
23.97745751399998
 20
26.8393271308
 30
0.0
  0
VERTEX
  5
205C
  8
3
 10
23.62235870919994
 20
27.1877874532
 30
0.0
  0
VERTEX
  5
205D
  8
3
 10
23.49999999989996
 20
27.57405869619998
 30
0.0
  0
VERTEX
  5
205E
  8
3
 10
23.62235870919994
 20
27.96032993910001
 30
0.0
  0
VERTEX
  5
205F
  8
3
 10
23.97745751399998
 20
28.30879026149998
 30
0.0
  0
VERTEX
  5
2060
  8
3
 10
24.53053686919998
 20
28.58532993910001
 30
0.0
  0
VERTEX
  5
2061
  8
3
 10
25.22745751399998
 20
28.7628793415
 30
0.0
  0
VERTEX
  5
2062
  8
3
 10
25.99999999989996
 20
28.82405869619998
 30
0.0
  0
VERTEX
  5
2063
  8
3
 10
26.77254248589998
 20
28.7628793415
 30
0.0
  0
VERTEX
  5
2064
  8
3
 10
27.46946313069998
 20
28.58532993910001
 30
0.0
  0
VERTEX
  5
2065
  8
3
 10
28.02254248589998
 20
28.30879026149998
 30
0.0
  0
VERTEX
  5
2066
  8
3
 10
28.37764129070001
 20
27.96032993910001
 30
0.0
  0
VERTEX
  5
2067
  8
3
 10
28.49999999989996
 20
27.57405869619998
 30
0.0
  0
SEQEND
  5
213C
  8
3
  0
POLYLINE
  5
DD0
  8
3
 66
     1
 10
0.0
 20
0.0
 30
0.0
  0
VERTEX
  5
2068
  8
3
 10
28.49999999989996
 20
27.65209824749999
 30
0.0
  0
VERTEX
  5
2069
  8
3
 10
28.37764129070001
 20
27.2658270046
 30
0.0
  0
VERTEX
  5
206A
  8
3
 10
28.02254248589998
 20
26.9173666822
 30
0.0
  0
VERTEX
  5
206B
  8
3
 10
27.46946313069998
 20
26.6408270046
 30
0.0
  0
VERTEX
  5
206C
  8
3
 10
26.77254248589998
 20
26.46327760219998
 30
0.0
  0
VERTEX
  5
206D
  8
3
 10
25.99999999989996
 20
26.40209824749999
 30
0.0
  0
VERTEX
  5
206E
  8
3
 10
25.22745751399998
 20
26.46327760219998
 30
0.0
  0
VERTEX
  5
206F
  8
3
 10
24.53053686919998
 20
26.6408270046
 30
0.0
  0
VERTEX
  5
2070
  8
3
 10
23.97745751399998
 20
26.9173666822
 30
0.0
  0
VERTEX
  5
2071
  8
3
 10
23.62235870919994
 20
27.2658270046
 30
0.0
  0
VERTEX
  5
2072
  8
3
 10
23.49999999989996
 20
27.65209824749999
 30
0.0
  0
VERTEX
  5
2073
  8
3
 10
23.62235870919994
 20
28.0383694905
 30
0.0
  0
VERTEX
  5
2074
  8
3
 10
23.97745751399998
 20
28.3868298129
 30
0.0
  0
VERTEX
  5
2075
  8
3
 10
24.53053686919998
 20
28.6633694905
 30
0.0
  0
VERTEX
  5
2076
  8
3
 10
25.22745751399998
 20
28.84091889289999
 30
0.0
  0
VERTEX
  5
2077
  8
3
 10
25.99999999989996
 20
28.90209824749999
 30
0.0
  0
VERTEX
  5
2078
  8
3
 10
26.77254248589998
 20
28.84091889289999
 30
0.0
  0
VERTEX
  5
2079
  8
3
 10
27.46946313069998
 20
28.6633694905
 30
0.0
  0
VERTEX
  5
207A
  8
3
 10
28.02254248589998
 20
28.3868298129
 30
0.0
  0
VERTEX
  5
207B
  8
3
 10
28.37764129070001
 20
28.0383694905
 30
0.0
  0
VERTEX
  5
207C
  8
3
 10
28.49999999989996
 20
27.65209824749999
 30
0.0
  0
SEQEND
  5
213B
  8
3
  0
POLYLINE
  5
DD1
  8
3
 66
     1
 10
0.0
 20
0.0
 30
0.0
  0
VERTEX
  5
207D
  8
3
 10
28.05500000000006
 20
27.9219451422
 30
0.0
  0
VERTEX
  5
207E
  8
3
 10
27.93106833570005
 20
27.57051944489999
 30
0.0
  0
VERTEX
  5
207F
  8
3
 10
27.57422133060004
 20
27.26148087319999
 30
0.0
  0
VERTEX
  5
2080
  8
3
 10
27.02749999999992
 20
27.0321040398
 30
0.0
  0
VERTEX
  5
2081
  8
3
 10
26.35684700510001
 20
26.9100551759
 30
0.0
  0
VERTEX
  5
2082
  8
3
 10
25.64315299479995
 20
26.9100551759
 30
0.0
  0
VERTEX
  5
2083
  8
3
 10
24.97250000000008
 20
27.0321040398
 30
0.0
  0
VERTEX
  5
2084
  8
3
 10
24.42577866929992
 20
27.26148087319999
 30
0.0
  0
VERTEX
  5
2085
  8
3
 10
24.06893166420014
 20
27.57051944489999
 30
0.0
  0
VERTEX
  5
2086
  8
3
 10
23.94499999999994
 20
27.9219451422
 30
0.0
  0
VERTEX
  5
2087
  8
3
 10
24.06893166420014
 20
28.2733708394
 30
0.0
  0
VERTEX
  5
2088
  8
3
 10
24.42577866929992
 20
28.5824094111
 30
0.0
  0
VERTEX
  5
2089
  8
3
 10
24.97250000000008
 20
28.81178624449998
 30
0.0
  0
VERTEX
  5
208A
  8
3
 10
25.64315299479995
 20
28.93383510839999
 30
0.0
  0
VERTEX
  5
208B
  8
3
 10
26.35684700510001
 20
28.93383510839999
 30
0.0
  0
VERTEX
  5
208C
  8
3
 10
27.02749999999992
 20
28.81178624449998
 30
0.0
  0
VERTEX
  5
208D
  8
3
 10
27.57422133060004
 20
28.5824094111
 30
0.0
  0
VERTEX
  5
208E
  8
3
 10
27.93106833570005
 20
28.2733708394
 30
0.0
  0
VERTEX
  5
208F
  8
3
 10
28.05500000000006
 20
27.9219451422
 30
0.0
  0
SEQEND
  5
213A
  8
3
  0
POLYLINE
  5
DD2
  8
3
 66
     1
 10
0.0
 20
0.0
 30
0.0
  0
VERTEX
  5
2090
  8
3
 10
28.5
 20
28.1917920368
 30
0.0
  0
VERTEX
  5
2091
  8
3
 10
28.37764129070001
 20
27.80552079379999
 30
0.0
  0
VERTEX
  5
2092
  8
3
 10
28.02254248589998
 20
27.45706047139998
 30
0.0
  0
VERTEX
  5
2093
  8
3
 10
27.46946313069998
 20
27.18052079379999
 30
0.0
  0
VERTEX
  5
2094
  8
3
 10
26.77254248589998
 20
27.0029713914
 30
0.0
  0
VERTEX
  5
2095
  8
3
 10
26.0
 20
26.9417920368
 30
0.0
  0
VERTEX
  5
2096
  8
3
 10
25.22745751399998
 20
27.0029713914
 30
0.0
  0
VERTEX
  5
2097
  8
3
 10
24.53053686919998
 20
27.18052079379999
 30
0.0
  0
VERTEX
  5
2098
  8
3
 10
23.97745751399998
 20
27.45706047139998
 30
0.0
  0
VERTEX
  5
2099
  8
3
 10
23.62235870919994
 20
27.80552079379999
 30
0.0
  0
VERTEX
  5
209A
  8
3
 10
23.5
 20
28.1917920368
 30
0.0
  0
VERTEX
  5
209B
  8
3
 10
23.62235870919994
 20
28.57806327980001
 30
0.0
  0
VERTEX
  5
209C
  8
3
 10
23.97745751399998
 20
28.92652360209999
 30
0.0
  0
VERTEX
  5
209D
  8
3
 10
24.53053686919998
 20
29.20306327980001
 30
0.0
  0
VERTEX
  5
209E
  8
3
 10
25.22745751399998
 20
29.3806126822
 30
0.0
  0
VERTEX
  5
209F
  8
3
 10
26.0
 20
29.4417920368
 30
0.0
  0
VERTEX
  5
20A0
  8
3
 10
26.77254248589998
 20
29.3806126822
 30
0.0
  0
VERTEX
  5
20A1
  8
3
 10
27.46946313069998
 20
29.20306327980001
 30
0.0
  0
VERTEX
  5
20A2
  8
3
 10
28.02254248589998
 20
28.92652360209999
 30
0.0
  0
VERTEX
  5
20A3
  8
3
 10
28.37764129070001
 20
28.57806327980001
 30
0.0
  0
VERTEX
  5
20A4
  8
3
 10
28.5
 20
28.1917920368
 30
0.0
  0
SEQEND
  5
2139
  8
3
  0
POLYLINE
  5
DD3
  8
3
 66
     1
 10
0.0
 20
0.0
 30
0.0
  0
VERTEX
  5
20A5
  8
3
 10
28.5
 20
28.2698315881
 30
0.0
  0
VERTEX
  5
20A6
  8
3
 10
28.37764129070001
 20
27.88356034519998
 30
0.0
  0
VERTEX
  5
20A7
  8
3
 10
28.02254248589998
 20
27.53510002279998
 30
0.0
  0
VERTEX
  5
20A8
  8
3
 10
27.46946313069998
 20
27.25856034519998
 30
0.0
  0
VERTEX
  5
20A9
  8
3
 10
26.77254248589998
 20
27.08101094279999
 30
0.0
  0
VERTEX
  5
20AA
  8
3
 10
26.0
 20
27.0198315881
 30
0.0
  0
VERTEX
  5
20AB
  8
3
 10
25.22745751399998
 20
27.08101094279999
 30
0.0
  0
VERTEX
  5
20AC
  8
3
 10
24.53053686919998
 20
27.25856034519998
 30
0.0
  0
VERTEX
  5
20AD
  8
3
 10
23.97745751399998
 20
27.53510002279998
 30
0.0
  0
VERTEX
  5
20AE
  8
3
 10
23.62235870919994
 20
27.88356034519998
 30
0.0
  0
VERTEX
  5
20AF
  8
3
 10
23.5
 20
28.2698315881
 30
0.0
  0
VERTEX
  5
20B0
  8
3
 10
23.62235870919994
 20
28.65610283109999
 30
0.0
  0
VERTEX
  5
20B1
  8
3
 10
23.97745751399998
 20
29.00456315349999
 30
0.0
  0
VERTEX
  5
20B2
  8
3
 10
24.53053686919998
 20
29.28110283109999
 30
0.0
  0
VERTEX
  5
20B3
  8
3
 10
25.22745751399998
 20
29.4586522335
 30
0.0
  0
VERTEX
  5
20B4
  8
3
 10
26.0
 20
29.5198315881
 30
0.0
  0
VERTEX
  5
20B5
  8
3
 10
26.77254248589998
 20
29.4586522335
 30
0.0
  0
VERTEX
  5
20B6
  8
3
 10
27.46946313069998
 20
29.28110283109999
 30
0.0
  0
VERTEX
  5
20B7
  8
3
 10
28.02254248589998
 20
29.00456315349999
 30
0.0
  0
VERTEX
  5
20B8
  8
3
 10
28.37764129070001
 20
28.65610283109999
 30
0.0
  0
VERTEX
  5
20B9
  8
3
 10
28.5
 20
28.2698315881
 30
0.0
  0
SEQEND
  5
2138
  8
3
  0
POLYLINE
  5
DD4
  8
3
 66
     1
 10
0.0
 20
0.0
 30
0.0
  0
VERTEX
  5
20BA
  8
3
 10
28.05500000000006
 20
28.53967848279999
 30
0.0
  0
VERTEX
  5
20BB
  8
3
 10
27.93106833570005
 20
28.1882527855
 30
0.0
  0
VERTEX
  5
20BC
  8
3
 10
27.57422133060004
 20
27.8792142138
 30
0.0
  0
VERTEX
  5
20BD
  8
3
 10
27.02749999999992
 20
27.64983738039999
 30
0.0
  0
VERTEX
  5
20BE
  8
3
 10
26.35684700510001
 20
27.52778851649998
 30
0.0
  0
VERTEX
  5
20BF
  8
3
 10
25.64315299479995
 20
27.52778851649998
 30
0.0
  0
VERTEX
  5
20C0
  8
3
 10
24.97250000000008
 20
27.64983738039999
 30
0.0
  0
VERTEX
  5
20C1
  8
3
 10
24.42577866929992
 20
27.8792142138
 30
0.0
  0
VERTEX
  5
20C2
  8
3
 10
24.06893166420014
 20
28.1882527855
 30
0.0
  0
VERTEX
  5
20C3
  8
3
 10
23.94499999999994
 20
28.53967848279999
 30
0.0
  0
VERTEX
  5
20C4
  8
3
 10
24.06893166420014
 20
28.89110417999999
 30
0.0
  0
VERTEX
  5
20C5
  8
3
 10
24.42577866929992
 20
29.20014275169999
 30
0.0
  0
VERTEX
  5
20C6
  8
3
 10
24.97250000000008
 20
29.4295195851
 30
0.0
  0
VERTEX
  5
20C7
  8
3
 10
25.64315299479995
 20
29.551568449
 30
0.0
  0
VERTEX
  5
20C8
  8
3
 10
26.35684700510001
 20
29.551568449
 30
0.0
  0
VERTEX
  5
20C9
  8
3
 10
27.02749999999992
 20
29.4295195851
 30
0.0
  0
VERTEX
  5
20CA
  8
3
 10
27.57422133060004
 20
29.20014275169999
 30
0.0
  0
VERTEX
  5
20CB
  8
3
 10
27.93106833570005
 20
28.89110417999999
 30
0.0
  0
VERTEX
  5
20CC
  8
3
 10
28.05500000000006
 20
28.53967848279999
 30
0.0
  0
SEQEND
  5
2137
  8
3
  0
POLYLINE
  5
DD5
  8
3
 66
     1
 10
0.0
 20
0.0
 30
0.0
  0
VERTEX
  5
20CD
  8
3
 10
28.5
 20
28.80952537740001
 30
0.0
  0
VERTEX
  5
20CE
  8
3
 10
28.37764129070001
 20
28.4232541344
 30
0.0
  0
VERTEX
  5
20CF
  8
3
 10
28.02254248589998
 20
28.074793812
 30
0.0
  0
VERTEX
  5
20D0
  8
3
 10
27.46946313069998
 20
27.7982541344
 30
0.0
  0
VERTEX
  5
20D1
  8
3
 10
26.77254248589998
 20
27.62070473200001
 30
0.0
  0
VERTEX
  5
20D2
  8
3
 10
26.0
 20
27.55952537740001
 30
0.0
  0
VERTEX
  5
20D3
  8
3
 10
25.22745751399998
 20
27.62070473200001
 30
0.0
  0
VERTEX
  5
20D4
  8
3
 10
24.53053686919998
 20
27.7982541344
 30
0.0
  0
VERTEX
  5
20D5
  8
3
 10
23.97745751399998
 20
28.074793812
 30
0.0
  0
VERTEX
  5
20D6
  8
3
 10
23.62235870919994
 20
28.4232541344
 30
0.0
  0
VERTEX
  5
20D7
  8
3
 10
23.5
 20
28.80952537740001
 30
0.0
  0
VERTEX
  5
20D8
  8
3
 10
23.62235870919994
 20
29.19579662039999
 30
0.0
  0
VERTEX
  5
20D9
  8
3
 10
23.97745751399998
 20
29.54425694279999
 30
0.0
  0
VERTEX
  5
20DA
  8
3
 10
24.53053686919998
 20
29.82079662039999
 30
0.0
  0
VERTEX
  5
20DB
  8
3
 10
25.22745751399998
 20
29.99834602280001
 30
0.0
  0
VERTEX
  5
20DC
  8
3
 10
26.0
 20
30.05952537740001
 30
0.0
  0
VERTEX
  5
20DD
  8
3
 10
26.77254248589998
 20
29.99834602280001
 30
0.0
  0
VERTEX
  5
20DE
  8
3
 10
27.46946313069998
 20
29.82079662039999
 30
0.0
  0
VERTEX
  5
20DF
  8
3
 10
28.02254248589998
 20
29.54425694279999
 30
0.0
  0
VERTEX
  5
20E0
  8
3
 10
28.37764129070001
 20
29.19579662039999
 30
0.0
  0
VERTEX
  5
20E1
  8
3
 10
28.5
 20
28.80952537740001
 30
0.0
  0
SEQEND
  5
2136
  8
3
  0
LINE
  5
DD6
  8
3
 10
25.99999999989996
 20
27.76333106959999
 30
0.0
 11
26.0
 21
30.10159965989999
 31
0.0
  0
LINE
  5
DD7
  8
3
 10
27.24999999989996
 20
27.40248715139998
 30
0.0
 11
25.99999999989996
 21
27.76333106959999
 31
0.0
  0
LINE
  5
DD8
  8
3
 10
24.74999999989996
 20
27.40248715139998
 30
0.0
 11
25.99999999989996
 21
27.76333106959999
 31
0.0
  0
POLYLINE
  5
DD9
  8
3
 66
     1
 10
0.0
 20
0.0
 30
0.0
  0
VERTEX
  5
20E2
  8
3
 10
28.5
 20
28.88756492869999
 30
0.0
  0
VERTEX
  5
20E3
  8
3
 10
28.37764129070001
 20
28.50129368579999
 30
0.0
  0
VERTEX
  5
20E4
  8
3
 10
28.02254248589998
 20
28.15283336339999
 30
0.0
  0
VERTEX
  5
20E5
  8
3
 10
27.46946313069998
 20
27.87629368579999
 30
0.0
  0
VERTEX
  5
20E6
  8
3
 10
26.77254248589998
 20
27.6987442834
 30
0.0
  0
VERTEX
  5
20E7
  8
3
 10
26.0
 20
27.63756492869999
 30
0.0
  0
VERTEX
  5
20E8
  8
3
 10
25.22745751399998
 20
27.6987442834
 30
0.0
  0
VERTEX
  5
20E9
  8
3
 10
24.53053686919998
 20
27.87629368579999
 30
0.0
  0
VERTEX
  5
20EA
  8
3
 10
23.97745751399998
 20
28.15283336339999
 30
0.0
  0
VERTEX
  5
20EB
  8
3
 10
23.62235870919994
 20
28.50129368579999
 30
0.0
  0
VERTEX
  5
20EC
  8
3
 10
23.5
 20
28.88756492869999
 30
0.0
  0
VERTEX
  5
20ED
  8
3
 10
23.62235870919994
 20
29.2738361717
 30
0.0
  0
VERTEX
  5
20EE
  8
3
 10
23.97745751399998
 20
29.6222964941
 30
0.0
  0
VERTEX
  5
20EF
  8
3
 10
24.53053686919998
 20
29.8988361717
 30
0.0
  0
VERTEX
  5
20F0
  8
3
 10
25.22745751399998
 20
30.07638557409999
 30
0.0
  0
VERTEX
  5
20F1
  8
3
 10
26.0
 20
30.13756492869999
 30
0.0
  0
VERTEX
  5
20F2
  8
3
 10
26.77254248589998
 20
30.07638557409999
 30
0.0
  0
VERTEX
  5
20F3
  8
3
 10
27.46946313069998
 20
29.8988361717
 30
0.0
  0
VERTEX
  5
20F4
  8
3
 10
28.02254248589998
 20
29.6222964941
 30
0.0
  0
VERTEX
  5
20F5
  8
3
 10
28.37764129070001
 20
29.2738361717
 30
0.0
  0
VERTEX
  5
20F6
  8
3
 10
28.5
 20
28.88756492869999
 30
0.0
  0
SEQEND
  5
2135
  8
3
  0
POLYLINE
  5
DDA
  8
3
 66
     1
 10
0.0
 20
0.0
 30
0.0
  0
VERTEX
  5
20F7
  8
3
 10
28.05500000000006
 20
29.1574118234
 30
0.0
  0
VERTEX
  5
20F8
  8
3
 10
27.93106833570005
 20
28.80598612609998
 30
0.0
  0
VERTEX
  5
20F9
  8
3
 10
27.57422133060004
 20
28.49694755439998
 30
0.0
  0
VERTEX
  5
20FA
  8
3
 10
27.02749999999992
 20
28.267570721
 30
0.0
  0
VERTEX
  5
20FB
  8
3
 10
26.35684700510001
 20
28.14552185709999
 30
0.0
  0
VERTEX
  5
20FC
  8
3
 10
25.64315299479995
 20
28.14552185709999
 30
0.0
  0
VERTEX
  5
20FD
  8
3
 10
24.97250000000008
 20
28.267570721
 30
0.0
  0
VERTEX
  5
20FE
  8
3
 10
24.42577866929992
 20
28.49694755439998
 30
0.0
  0
VERTEX
  5
20FF
  8
3
 10
24.06893166420014
 20
28.80598612609998
 30
0.0
  0
VERTEX
  5
2100
  8
3
 10
23.94499999999994
 20
29.1574118234
 30
0.0
  0
VERTEX
  5
2101
  8
3
 10
24.06893166420014
 20
29.5088375206
 30
0.0
  0
VERTEX
  5
2102
  8
3
 10
24.42577866929992
 20
29.8178760923
 30
0.0
  0
VERTEX
  5
2103
  8
3
 10
24.97250000000008
 20
30.0472529258
 30
0.0
  0
VERTEX
  5
2104
  8
3
 10
25.64315299479995
 20
30.16930178959998
 30
0.0
  0
VERTEX
  5
2105
  8
3
 10
26.35684700510001
 20
30.16930178959998
 30
0.0
  0
VERTEX
  5
2106
  8
3
 10
27.02749999999992
 20
30.0472529258
 30
0.0
  0
VERTEX
  5
2107
  8
3
 10
27.57422133060004
 20
29.8178760923
 30
0.0
  0
VERTEX
  5
2108
  8
3
 10
27.93106833570005
 20
29.5088375206
 30
0.0
  0
VERTEX
  5
2109
  8
3
 10
28.05500000000006
 20
29.1574118234
 30
0.0
  0
SEQEND
  5
2134
  8
3
  0
POLYLINE
  5
DDB
  8
3
 66
     1
 10
0.0
 20
0.0
 30
0.0
  0
VERTEX
  5
210A
  8
3
 10
28.2561031268001
 20
29.27936025989999
 30
0.0
  0
VERTEX
  5
210B
  8
3
 10
28.13386123639998
 20
29.6456380038
 30
0.0
  0
VERTEX
  5
210C
  8
3
 10
27.78038237069995
 20
29.97222387079998
 30
0.0
  0
VERTEX
  5
210D
  8
3
 10
27.23397144969999
 20
30.22372721459999
 30
0.0
  0
VERTEX
  5
210E
  8
3
 10
26.55384057509991
 20
30.37289374549999
 30
0.0
  0
VERTEX
  5
210F
  8
3
 10
25.81369248040005
 20
30.4035589554
 30
0.0
  0
VERTEX
  5
2110
  8
3
 10
25.09373369640002
 20
30.31239979279999
 30
0.0
  0
VERTEX
  5
2111
  8
3
 10
24.47198292849998
 20
30.10929476760001
 30
0.0
  0
VERTEX
  5
2112
  8
3
 10
24.0158165199
 20
29.8162534608
 30
0.0
  0
VERTEX
  5
2113
  8
3
 10
23.77466717919992
 20
29.46503144479999
 30
0.0
  0
VERTEX
  5
2114
  8
3
 10
23.77466717919992
 20
29.09368907499999
 30
0.0
  0
VERTEX
  5
2115
  8
3
 10
24.0158165199
 20
28.74246705909999
 30
0.0
  0
VERTEX
  5
2116
  8
3
 10
24.47198292849998
 20
28.44942575229999
 30
0.0
  0
VERTEX
  5
2117
  8
3
 10
25.09373369640002
 20
28.2463207271
 30
0.0
  0
VERTEX
  5
2118
  8
3
 10
25.81369248040005
 20
28.15516156449999
 30
0.0
  0
VERTEX
  5
2119
  8
3
 10
26.55384057509991
 20
28.1858267744
 30
0.0
  0
VERTEX
  5
211A
  8
3
 10
27.23397144969999
 20
28.3349933053
 30
0.0
  0
VERTEX
  5
211B
  8
3
 10
27.78038237069995
 20
28.58649664909998
 30
0.0
  0
VERTEX
  5
211C
  8
3
 10
28.13386123639998
 20
28.91308251609999
 30
0.0
  0
VERTEX
  5
211D
  8
3
 10
28.2561031268001
 20
29.27936025989999
 30
0.0
  0
SEQEND
  5
2133
  8
3
  0
LINE
  5
DDC
  8
3
 10
27.24999999989996
 20
26.68079931489999
 30
0.0
 11
27.24999999989996
 21
27.40248715139998
 31
0.0
  0
LINE
  5
DDD
  8
3
 10
27.24999999989996
 20
27.40248715139998
 30
0.0
 11
27.25
 21
29.7407557416
 31
0.0
  0
LINE
  5
DDE
  8
3
 10
24.74999999989996
 20
26.68079931489999
 30
0.0
 11
24.74999999989996
 21
27.40248715139998
 31
0.0
  0
LINE
  5
DDF
  8
3
 10
24.74999999989996
 20
27.40248715139998
 30
0.0
 11
24.75
 21
29.7407557416
 31
0.0
  0
POLYLINE
  5
DE0
  8
3
 66
     1
 10
0.0
 20
0.0
 30
0.0
  0
VERTEX
  5
211E
  8
3
 10
26.0
 20
28.35241182339999
 30
0.0
  0
VERTEX
  5
211F
  8
3
 10
25.29714860540003
 20
28.4143776555
 30
0.0
  0
VERTEX
  5
2120
  8
3
 10
24.67907146199991
 20
28.5928011581
 30
0.0
  0
VERTEX
  5
2121
  8
3
 10
24.22031779520012
 20
28.86616182340001
 30
0.0
  0
VERTEX
  5
2122
  8
3
 10
23.97622006749998
 20
29.2014883208
 30
0.0
  0
VERTEX
  5
2123
  8
3
 10
23.97622006749998
 20
29.5583353259
 30
0.0
  0
VERTEX
  5
2124
  8
3
 10
24.22031779520012
 20
29.89366182339998
 30
0.0
  0
VERTEX
  5
2125
  8
3
 10
24.67907146199991
 20
30.16702248869998
 30
0.0
  0
VERTEX
  5
2126
  8
3
 10
25.29714860540003
 20
30.34544599119999
 30
0.0
  0
VERTEX
  5
2127
  8
3
 10
26.0
 20
30.4074118234
 30
0.0
  0
VERTEX
  5
2128
  8
3
 10
26.70285139449993
 20
30.34544599119999
 30
0.0
  0
VERTEX
  5
2129
  8
3
 10
27.32092853790004
 20
30.16702248869998
 30
0.0
  0
VERTEX
  5
212A
  8
3
 10
27.77968220470007
 20
29.89366182339998
 30
0.0
  0
VERTEX
  5
212B
  8
3
 10
28.02377993239998
 20
29.5583353259
 30
0.0
  0
VERTEX
  5
212C
  8
3
 10
28.02377993239998
 20
29.2014883208
 30
0.0
  0
VERTEX
  5
212D
  8
3
 10
27.77968220470007
 20
28.86616182340001
 30
0.0
  0
VERTEX
  5
212E
  8
3
 10
27.32092853790004
 20
28.5928011581
 30
0.0
  0
VERTEX
  5
212F
  8
3
 10
26.70285139449993
 20
28.4143776555
 30
0.0
  0
VERTEX
  5
2130
  8
3
 10
26.0
 20
28.35241182339999
 30
0.0
  0
SEQEND
  5
2132
  8
3
  0
LINE
  5
DE1
  8
3
 10
27.25
 20
29.7407557416
 30
0.0
 11
26.0
 21
30.10159965989999
 31
0.0
  0
LINE
  5
DE2
  8
3
 10
24.75
 20
29.7407557416
 30
0.0
 11
26.0
 21
30.10159965989999
 31
0.0
  0
LINE
  5
DE3
  8
3
 10
25.99999999989996
 20
26.31995539669998
 30
0.0
 11
25.99999999989996
 21
27.76333106959999
 31
0.0
  0
LINE
  5
DE4
  8
3
 10
24.75
 20
29.0190679051
 30
0.0
 11
26.0
 21
28.6582239869
 31
0.0
  0
LINE
  5
DE5
  8
3
 10
24.74999999989996
 20
26.68079931489999
 30
0.0
 11
25.99999999989996
 21
26.31995539669998
 31
0.0
  0
LINE
  5
DE6
  8
3
 10
27.25
 20
29.0190679051
 30
0.0
 11
26.0
 21
28.6582239869
 31
0.0
  0
LINE
  5
DE7
  8
3
 10
27.24999999989996
 20
26.68079931489999
 30
0.0
 11
25.99999999989996
 21
26.31995539669998
 31
0.0
  0
LINE
  5
DE8
  8
3
 10
50.79999999999995
 20
9.525000000000006
 30
0.0
 11
45.38598999999999
 21
9.525000000000006
 31
0.0
  0
LINE
  5
DE9
  8
3
 10
45.38598999999999
 20
-9.525000000000006
 30
0.0
 11
50.79999999999995
 21
-9.525000000000006
 31
0.0
  0
LINE
  5
DEA
  8
3
 10
45.38598999999999
 20
9.525000000000006
 30
0.0
 11
44.45000000000005
 21
8.589010000000002
 31
0.0
  0
LINE
  5
DEB
  8
3
 10
44.45000000000005
 20
-8.589010000000002
 30
0.0
 11
45.38598999999999
 21
-9.525000000000006
 31
0.0
  0
LINE
  5
DF0
  8
3
 10
50.79999999999995
 20
-25.39869
 30
0.0
 11
36.31016030490014
 21
-25.39869
 31
0.0
  0
LINE
  5
DF1
  8
3
 10
36.31016030490014
 20
-41.28131
 30
0.0
 11
50.79999999999995
 21
-41.28131
 31
0.0
  0
ARC
  5
DF2
  8
3
 10
36.24720000000002
 20
-25.20549000000001
 30
0.0
 40
0.2032000000000096
 50
270.0
 51
288.0498306933243
  0
ARC
  5
DF3
  8
3
 10
36.24720000000002
 20
-41.47451000000001
 30
0.0
 40
0.2032000000000096
 50
71.95016930667569
 51
90.0
  0
LINE
  5
DF4
  8
3
 10
36.24720000000002
 20
-25.40869000000001
 30
0.0
 11
35.67203951059992
 21
-25.40869000000001
 31
0.0
  0
LINE
  5
DF5
  8
3
 10
35.67203951059992
 20
-41.27131000000001
 30
0.0
 11
36.24720000000002
 21
-41.27131000000001
 31
0.0
  0
LINE
  5
DF6
  8
3
 10
35.67203951059992
 20
-25.40869000000001
 30
0.0
 11
34.74720000000002
 21
-25.65650000000001
 31
0.0
  0
LINE
  5
DF7
  8
3
 10
35.04999999999995
 20
-41.10463501550001
 30
0.0
 11
35.67203951059992
 21
-41.27131000000001
 31
0.0
  0
LINE
  5
DF8
  8
3
 10
50.79999999999995
 20
41.28130999999999
 30
0.0
 11
36.31016030490014
 21
41.28130999999999
 31
0.0
  0
LINE
  5
DF9
  8
3
 10
36.31016030490014
 20
25.39868999999999
 30
0.0
 11
50.79999999999995
 21
25.39868999999999
 31
0.0
  0
ARC
  5
DFA
  8
3
 10
36.24720000000002
 20
41.47450999999998
 30
0.0
 40
0.2032000000000096
 50
270.0
 51
288.0498306933255
  0
ARC
  5
DFB
  8
3
 10
36.24720000000002
 20
25.20549
 30
0.0
 40
0.2031999999999859
 50
71.95016930667195
 51
90.0
  0
LINE
  5
DFC
  8
3
 10
36.24720000000002
 20
41.27131
 30
0.0
 11
35.67203951059992
 21
41.27131
 31
0.0
  0
LINE
  5
DFD
  8
3
 10
35.67203951059992
 20
25.40869000000001
 30
0.0
 11
36.24720000000002
 21
25.40869000000001
 31
0.0
  0
LINE
  5
DFE
  8
3
 10
35.67203951059992
 20
41.27131
 30
0.0
 11
35.04999999999995
 21
41.10463501539999
 31
0.0
  0
LINE
  5
DFF
  8
3
 10
34.74720000000002
 20
25.65649999999999
 30
0.0
 11
35.67203951059992
 21
25.40869000000001
 31
0.0
  0
LINE
  5
E03
  8
3
 10
50.79999999999995
 20
20.04907116050001
 30
0.0
 11
50.6136296694001
 21
19.35352761799999
 31
0.0
  0
LINE
  5
E04
  8
3
 10
50.6136296694001
 20
-19.3535276181
 30
0.0
 11
50.79999999999995
 21
-20.04907116059999
 31
0.0
  0
ARC
  5
E05
  8
3
 10
51.0
 20
-19.25
 30
0.0
 40
0.3999999999999831
 50
166.8750000000001
 51
195.0000000000036
  0
ARC
  5
E06
  8
3
 10
51.0
 20
-19.25
 30
0.0
 40
0.3999999999999965
 50
120.0000000000078
 51
166.8750000000001
  0
ARC
  5
E07
  8
3
 10
51.0
 20
19.25
 30
0.0
 40
0.4000000000000909
 50
165.0000000000046
 51
180.0
  0
ARC
  5
E08
  8
3
 10
51.0
 20
19.25
 30
0.0
 40
0.4000000000000909
 50
180.0
 51
240.0000000000003
  0
LINE
  5
E09
  8
3
 10
50.60000000000014
 20
19.25
 30
0.0
 11
50.60000000000014
 21
-19.25
 31
0.0
  0
LINE
  5
E0A
  8
3
 10
50.79999999999995
 20
2.5
 30
0.0
 11
25.40000000000009
 21
2.5
 31
0.0
  0
LINE
  5
E0B
  8
3
 10
25.40000000000009
 20
-2.5
 30
0.0
 11
50.79999999999995
 21
-2.5
 31
0.0
  0
LINE
  5
E0C
  8
3
 10
25.02283999609995
 20
-1.872300343999996
 30
0.0
 11
25.40000000000009
 21
-2.5
 31
0.0
  0
LINE
  5
E0D
  8
3
 10
25.40000000000009
 20
2.5
 30
0.0
 11
25.02283999609995
 21
1.87230034389998
 31
0.0
  0
LINE
  5
E10
  8
3
 10
23.899984335
 20
0.0035547055999814
 30
0.0
 11
23.89784845240001
 21
0.0
 31
0.0
  0
LINE
  5
E11
  8
3
 10
23.89784845240001
 20
0.0
 30
0.0
 11
23.89998165340012
 21
-0.0035502425999994
 31
0.0
  0
LINE
  5
E18
  8
SK3
 10
-5.25
 20
-10.84650000000002
 30
0.0
 11
-4.761656058799872
 21
-8.731250000000017
 31
0.0
  0
LINE
  5
E19
  8
SK3
 10
-4.761656058799872
 20
8.731249999999989
 30
0.0
 11
-5.25
 21
10.84649999999999
 31
0.0
  0
LINE
  5
E1E
  8
3
 10
50.79999999999995
 20
9.525000000000006
 30
0.0
 11
36.29999999999995
 21
9.525000000000006
 31
0.0
  0
LINE
  5
E1F
  8
3
 10
36.29999999999995
 20
-9.525000000000006
 30
0.0
 11
50.79999999999995
 21
-9.525000000000006
 31
0.0
  0
LINE
  5
E20
  8
3
 10
36.29999999999995
 20
8.731249999999989
 30
0.0
 11
0.0
 21
8.731249999999989
 31
0.0
  0
LINE
  5
E21
  8
3
 10
0.0
 20
-8.731250000000017
 30
0.0
 11
36.29999999999995
 21
-8.731250000000017
 31
0.0
  0
LINE
  5
E22
  8
3
 10
50.79999999999995
 20
-25.40525000000001
 30
0.0
 11
33.79999999999995
 21
-25.40525000000001
 31
0.0
  0
LINE
  5
E23
  8
3
 10
35.04999999999995
 20
-41.27475000000001
 30
0.0
 11
50.79999999999995
 21
-41.27475000000001
 31
0.0
  0
LINE
  5
E24
  8
3
 10
50.79999999999995
 20
41.27474999999998
 30
0.0
 11
35.04999999999995
 21
41.27474999999998
 31
0.0
  0
LINE
  5
E25
  8
3
 10
33.79999999999995
 20
25.40525
 30
0.0
 11
50.79999999999995
 21
25.40525
 31
0.0
  0
LINE
  5
E2C
  8
3
 10
23.90000000000009
 20
12.12128653529999
 30
0.0
 11
23.90000000000009
 21
7.559329003499982
 31
0.0
  0
LINE
  5
E2D
  8
3
 10
23.90000000000009
 20
28.92524848639999
 30
0.0
 11
23.90000000000009
 21
12.12744422059998
 31
0.0
  0
LINE
  5
E2E
  8
3
 10
28.10000000000014
 20
14.27676707949999
 30
0.0
 11
28.10000000000014
 21
28.92524848639999
 31
0.0
  0
LINE
  5
E2F
  8
3
 10
28.10000000000014
 20
7.556344272299981
 30
0.0
 11
28.10000000000014
 21
9.971944226399984
 31
0.0
  0
LINE
  5
E30
  8
3
 10
28.10000000000014
 20
-9.9719442265
 30
0.0
 11
28.10000000000014
 21
-7.556344272300009
 31
0.0
  0
LINE
  5
E31
  8
3
 10
28.10000000000014
 20
-28.92524848640001
 30
0.0
 11
28.10000000000014
 21
-14.27676707950002
 31
0.0
  0
LINE
  5
E32
  8
3
 10
23.90000000000009
 20
-12.12743959920002
 30
0.0
 11
23.90000000000009
 21
-28.92524848640001
 31
0.0
  0
LINE
  5
E33
  8
3
 10
23.90000000000009
 20
-7.559329003500011
 30
0.0
 11
23.90000000000009
 21
-12.1212590088
 31
0.0
  0
LINE
  5
E34
  8
3
 10
50.79999999999995
 20
-9.62435565300001
 30
0.0
 11
27.67259026529996
 21
-9.62435565300001
 31
0.0
  0
LINE
  5
E35
  8
3
 10
27.67259026529996
 20
-14.62435565300001
 30
0.0
 11
50.79999999999995
 21
-14.62435565300001
 31
0.0
  0
LINE
  5
E36
  8
3
 10
50.79999999999995
 20
14.62435565299998
 30
0.0
 11
27.65318528569992
 21
14.62435565299998
 31
0.0
  0
LINE
  5
E37
  8
3
 10
27.65318528569992
 20
9.62435565299998
 30
0.0
 11
50.79999999999995
 21
9.62435565299998
 31
0.0
  0
LINE
  5
E38
  8
3
 10
23.89997841579998
 20
-12.1208107985
 30
0.0
 11
23.89784845240001
 21
-12.12435565300001
 31
0.0
  0
LINE
  5
E39
  8
3
 10
23.89784845240001
 20
-12.12435565300001
 30
0.0
 11
23.89998574080005
 21
-12.12791269830001
 31
0.0
  0
LINE
  5
E3A
  8
3
 10
23.8999783265001
 20
12.12790035879999
 30
0.0
 11
23.89784845240001
 21
12.12435565299998
 31
0.0
  0
LINE
  5
E3B
  8
3
 10
23.89784845240001
 20
12.12435565299998
 30
0.0
 11
23.89998550309997
 21
12.12079900329999
 31
0.0
  0
LINE
  5
E3C
  8
3
 10
28.14330352489992
 20
-28.62213959510001
 30
0.0
 11
27.71464281990006
 21
-28.31903070380001
 31
0.0
  0
LINE
  5
E3D
  8
3
 10
24.28535718000012
 20
-28.31903070380001
 30
0.0
 11
23.85669647500004
 21
-28.62213959510001
 31
0.0
  0
LINE
  5
E3E
  8
3
 10
28.625
 20
-30.24378634690001
 30
0.0
 11
28.625
 21
-29.37991182340001
 31
0.0
  0
LINE
  5
E3F
  8
3
 10
23.375
 20
-29.37991182340001
 30
0.0
 11
23.375
 21
-30.24576628120001
 31
0.0
  0
LINE
  5
E40
  8
3
 10
23.375
 20
30.2457662811
 30
0.0
 11
23.375
 21
29.37991182339999
 31
0.0
  0
LINE
  5
E41
  8
3
 10
28.625
 20
29.37991182339999
 30
0.0
 11
28.625
 21
30.24378634679999
 31
0.0
  0
LINE
  5
E42
  8
3
 10
23.85669647500004
 20
28.62213959509998
 30
0.0
 11
24.28535718000012
 21
28.31903070369998
 31
0.0
  0
LINE
  5
E43
  8
3
 10
27.71464281990006
 20
28.31903070369998
 30
0.0
 11
28.14330352489992
 21
28.62213959509998
 31
0.0
  0
LINE
  5
E44
  8
3
 10
27.89160436390011
 20
-24.00578121720001
 30
0.0
 11
27.42886901659995
 21
-23.67857791520001
 31
0.0
  0
LINE
  5
E45
  8
3
 10
24.57113098330001
 20
-23.67857791520001
 30
0.0
 11
24.10839563600007
 21
-24.00578121720001
 31
0.0
  0
LINE
  5
E46
  8
3
 10
27.41450320400008
 20
-24.0724482886
 30
0.0
 11
27.16272163370013
 21
-23.98606190800001
 31
0.0
  0
LINE
  5
E47
  8
3
 10
24.83727836620005
 20
-23.98606190800001
 30
0.0
 11
24.5854967959001
 21
-24.0724482886
 31
0.0
  0
LINE
  5
E48
  8
3
 10
24.68918964449995
 20
-25.62968565710001
 30
0.0
 11
24.83727836620005
 21
-25.6804949703
 31
0.0
  0
LINE
  5
E49
  8
3
 10
27.16272163370013
 20
-25.6804949703
 30
0.0
 11
27.31081035540001
 21
-25.62968565710001
 31
0.0
  0
LINE
  5
E4A
  8
3
 10
28.49999999989996
 20
-25.1811648852
 30
0.0
 11
28.49999999989996
 21
-25.10312533380001
 31
0.0
  0
LINE
  5
E4B
  8
3
 10
23.49999999989996
 20
-25.10312533380001
 30
0.0
 11
23.49999999989996
 21
-25.1811648852
 31
0.0
  0
LINE
  5
E4C
  8
3
 10
24.5854967959001
 20
-26.21184193030001
 30
0.0
 11
24.83727836620005
 21
-26.2982283109
 31
0.0
  0
LINE
  5
E4D
  8
3
 10
27.16272163370013
 20
-26.2982283109
 30
0.0
 11
27.41450320400008
 21
-26.21184193030001
 31
0.0
  0
LINE
  5
E4E
  8
3
 10
27.41450320400008
 20
-24.69018162920001
 30
0.0
 11
27.16272163370013
 21
-24.60379524870001
 31
0.0
  0
LINE
  5
E4F
  8
3
 10
24.83727836620005
 20
-24.60379524870001
 30
0.0
 11
24.5854967959001
 21
-24.69018162920001
 31
0.0
  0
LINE
  5
E50
  8
3
 10
28.49999999989996
 20
-25.7988982258
 30
0.0
 11
28.49999999989996
 21
-25.72085867440001
 31
0.0
  0
LINE
  5
E51
  8
3
 10
23.49999999989996
 20
-25.72085867440001
 30
0.0
 11
23.49999999989996
 21
-25.7988982258
 31
0.0
  0
LINE
  5
E52
  8
3
 10
24.5854967959001
 20
-26.82957527090001
 30
0.0
 11
24.83727836620005
 21
-26.91596165150001
 31
0.0
  0
LINE
  5
E53
  8
3
 10
27.16272163370013
 20
-26.91596165150001
 30
0.0
 11
27.41450320400008
 21
-26.82957527090001
 31
0.0
  0
LINE
  5
E54
  8
3
 10
27.41450320400008
 20
-25.30791496980001
 30
0.0
 11
27.16272163370013
 21
-25.22152858930001
 31
0.0
  0
LINE
  5
E55
  8
3
 10
24.83727836620005
 20
-25.22152858930001
 30
0.0
 11
24.5854967959001
 21
-25.30791496980001
 31
0.0
  0
LINE
  5
E56
  8
3
 10
28.49999999989996
 20
-26.41663156640001
 30
0.0
 11
28.49999999989996
 21
-26.338592015
 31
0.0
  0
LINE
  5
E57
  8
3
 10
23.49999999989996
 20
-26.338592015
 30
0.0
 11
23.49999999989996
 21
-26.41663156640001
 31
0.0
  0
LINE
  5
E58
  8
3
 10
24.5854967959001
 20
-27.44730861150001
 30
0.0
 11
24.83727836620005
 21
-27.53369499210001
 31
0.0
  0
LINE
  5
E59
  8
3
 10
27.16272163370013
 20
-27.53369499210001
 30
0.0
 11
27.41450320400008
 21
-27.44730861150001
 31
0.0
  0
LINE
  5
E5A
  8
3
 10
27.41450320400008
 20
-25.92564831040001
 30
0.0
 11
27.16272163370013
 21
-25.8392619299
 31
0.0
  0
LINE
  5
E5B
  8
3
 10
24.83727836620005
 20
-25.8392619299
 30
0.0
 11
24.5854967959001
 21
-25.92564831040001
 31
0.0
  0
LINE
  5
E5C
  8
3
 10
28.49999999989996
 20
-27.03436490700001
 30
0.0
 11
28.49999999989996
 21
-26.9563253556
 31
0.0
  0
LINE
  5
E5D
  8
3
 10
23.49999999989996
 20
-26.9563253556
 30
0.0
 11
23.49999999989996
 21
-27.03436490700001
 31
0.0
  0
LINE
  5
E5E
  8
3
 10
24.5854967959001
 20
-28.0650419521
 30
0.0
 11
24.83727836620005
 21
-28.15142833270001
 31
0.0
  0
LINE
  5
E5F
  8
3
 10
27.16272163370013
 20
-28.15142833270001
 30
0.0
 11
27.41450320400008
 21
-28.0650419521
 31
0.0
  0
LINE
  5
E60
  8
3
 10
27.41450320400008
 20
-26.54338165110001
 30
0.0
 11
27.16272163370013
 21
-26.4569952705
 31
0.0
  0
LINE
  5
E61
  8
3
 10
24.83727836620005
 20
-26.4569952705
 30
0.0
 11
24.5854967959001
 21
-26.54338165110001
 31
0.0
  0
LINE
  5
E62
  8
3
 10
28.49999999989996
 20
-27.65209824760001
 30
0.0
 11
28.49999999989996
 21
-27.57405869620001
 31
0.0
  0
LINE
  5
E63
  8
3
 10
23.49999999989996
 20
-27.57405869620001
 30
0.0
 11
23.49999999989996
 21
-27.65209824760001
 31
0.0
  0
LINE
  5
E64
  8
3
 10
24.5854967959001
 20
-28.6827752927
 30
0.0
 11
24.83727836620005
 21
-28.7691616733
 31
0.0
  0
LINE
  5
E65
  8
3
 10
27.16272163370013
 20
-28.7691616733
 30
0.0
 11
27.41450320400008
 21
-28.6827752927
 31
0.0
  0
LINE
  5
E66
  8
3
 10
27.41450320400008
 20
-27.1611149917
 30
0.0
 11
27.16272163370013
 21
-27.07472861110001
 31
0.0
  0
LINE
  5
E67
  8
3
 10
24.83727836620005
 20
-27.07472861110001
 30
0.0
 11
24.5854967959001
 21
-27.1611149917
 31
0.0
  0
LINE
  5
E68
  8
3
 10
28.49999999989996
 20
-28.26983158820001
 30
0.0
 11
28.49999999989996
 21
-28.19179203680001
 31
0.0
  0
LINE
  5
E69
  8
3
 10
23.49999999989996
 20
-28.19179203680001
 30
0.0
 11
23.49999999989996
 21
-28.26983158820001
 31
0.0
  0
LINE
  5
E6A
  8
3
 10
24.5854967959001
 20
-29.30050863330001
 30
0.0
 11
24.83727836620005
 21
-29.3868950139
 31
0.0
  0
LINE
  5
E6B
  8
3
 10
27.16272163370013
 20
-29.3868950139
 30
0.0
 11
27.41450320400008
 21
-29.30050863330001
 31
0.0
  0
LINE
  5
E6C
  8
3
 10
27.41450320400008
 20
-27.7788483323
 30
0.0
 11
27.16272163370013
 21
-27.69246195170001
 31
0.0
  0
LINE
  5
E6D
  8
3
 10
24.83727836620005
 20
-27.69246195170001
 30
0.0
 11
24.5854967959001
 21
-27.7788483323
 31
0.0
  0
LINE
  5
E6E
  8
3
 10
28.49999999989996
 20
-28.8875649288
 30
0.0
 11
28.49999999989996
 21
-28.80952537740001
 31
0.0
  0
LINE
  5
E6F
  8
3
 10
23.49999999989996
 20
-28.80952537740001
 30
0.0
 11
23.49999999989996
 21
-28.8875649288
 31
0.0
  0
LINE
  5
E70
  8
3
 10
24.5854967959001
 20
-29.91824197400001
 30
0.0
 11
24.83727836620005
 21
-30.00462835450001
 31
0.0
  0
LINE
  5
E71
  8
3
 10
27.16272163370013
 20
-30.00462835450001
 30
0.0
 11
27.41450320400008
 21
-29.91824197400001
 31
0.0
  0
LINE
  5
E72
  8
3
 10
27.2765060406
 20
-28.34923477820001
 30
0.0
 11
27.16272163370013
 21
-28.31019529230001
 31
0.0
  0
LINE
  5
E73
  8
3
 10
24.83727836620005
 20
-28.31019529230001
 30
0.0
 11
24.72349395929996
 21
-28.34923477820001
 31
0.0
  0
LINE
  5
E74
  8
3
 10
24.10839563600007
 20
24.00578121709998
 30
0.0
 11
24.57113098330001
 21
23.67857791509999
 31
0.0
  0
LINE
  5
E75
  8
3
 10
27.42886901659995
 20
23.67857791509999
 30
0.0
 11
27.89160436390011
 21
24.00578121709998
 31
0.0
  0
LINE
  5
E76
  8
3
 10
24.5854967959001
 20
24.07244828859999
 30
0.0
 11
24.83727836620005
 21
23.98606190799998
 31
0.0
  0
LINE
  5
E77
  8
3
 10
27.16272163370013
 20
23.98606190799998
 30
0.0
 11
27.41450320400008
 21
24.07244828859999
 31
0.0
  0
LINE
  5
E78
  8
3
 10
27.31081035540001
 20
25.62968565699998
 30
0.0
 11
27.16272163370013
 21
25.6804949703
 31
0.0
  0
LINE
  5
E79
  8
3
 10
24.83727836620005
 20
25.6804949703
 30
0.0
 11
24.68918964449995
 21
25.62968565699998
 31
0.0
  0
LINE
  5
E7A
  8
3
 10
23.49999999989996
 20
25.1811648851
 30
0.0
 11
23.49999999989996
 21
25.10312533379999
 31
0.0
  0
LINE
  5
E7B
  8
3
 10
28.49999999989996
 20
25.10312533379999
 30
0.0
 11
28.49999999989996
 21
25.1811648851
 31
0.0
  0
LINE
  5
E7C
  8
3
 10
27.41450320400008
 20
26.21184193029998
 30
0.0
 11
27.16272163370013
 21
26.29822831089999
 31
0.0
  0
LINE
  5
E7D
  8
3
 10
24.83727836620005
 20
26.29822831089999
 30
0.0
 11
24.5854967959001
 21
26.21184193029998
 31
0.0
  0
LINE
  5
E7E
  8
3
 10
24.5854967959001
 20
24.6901816292
 30
0.0
 11
24.83727836620005
 21
24.60379524859999
 31
0.0
  0
LINE
  5
E7F
  8
3
 10
27.16272163370013
 20
24.60379524859999
 30
0.0
 11
27.41450320400008
 21
24.6901816292
 31
0.0
  0
LINE
  5
E80
  8
3
 10
23.49999999989996
 20
25.79889822569999
 30
0.0
 11
23.49999999989996
 21
25.72085867440001
 31
0.0
  0
LINE
  5
E81
  8
3
 10
28.49999999989996
 20
25.72085867440001
 30
0.0
 11
28.49999999989996
 21
25.79889822569999
 31
0.0
  0
LINE
  5
E82
  8
3
 10
27.41450320400008
 20
26.82957527089999
 30
0.0
 11
27.16272163370013
 21
26.9159616515
 31
0.0
  0
LINE
  5
E83
  8
3
 10
24.83727836620005
 20
26.9159616515
 30
0.0
 11
24.5854967959001
 21
26.82957527089999
 31
0.0
  0
LINE
  5
E84
  8
3
 10
24.5854967959001
 20
25.30791496979998
 30
0.0
 11
24.83727836620005
 21
25.22152858920001
 31
0.0
  0
LINE
  5
E85
  8
3
 10
27.16272163370013
 20
25.22152858920001
 30
0.0
 11
27.41450320400008
 21
25.30791496979998
 31
0.0
  0
LINE
  5
E86
  8
3
 10
23.49999999989996
 20
26.4166315663
 30
0.0
 11
23.49999999989996
 21
26.33859201499999
 31
0.0
  0
LINE
  5
E87
  8
3
 10
28.49999999989996
 20
26.33859201499999
 30
0.0
 11
28.49999999989996
 21
26.4166315663
 31
0.0
  0
LINE
  5
E88
  8
3
 10
27.41450320400008
 20
27.44730861150001
 30
0.0
 11
27.16272163370013
 21
27.53369499209998
 31
0.0
  0
LINE
  5
E89
  8
3
 10
24.83727836620005
 20
27.53369499209998
 30
0.0
 11
24.5854967959001
 21
27.44730861150001
 31
0.0
  0
LINE
  5
E8A
  8
3
 10
24.5854967959001
 20
25.92564831039999
 30
0.0
 11
24.83727836620005
 21
25.83926192979999
 31
0.0
  0
LINE
  5
E8B
  8
3
 10
27.16272163370013
 20
25.83926192979999
 30
0.0
 11
27.41450320400008
 21
25.92564831039999
 31
0.0
  0
LINE
  5
E8C
  8
3
 10
23.49999999989996
 20
27.03436490689998
 30
0.0
 11
23.49999999989996
 21
26.9563253556
 31
0.0
  0
LINE
  5
E8D
  8
3
 10
28.49999999989996
 20
26.9563253556
 30
0.0
 11
28.49999999989996
 21
27.03436490689998
 31
0.0
  0
LINE
  5
E8E
  8
3
 10
27.41450320400008
 20
28.06504195209999
 30
0.0
 11
27.16272163370013
 21
28.15142833269999
 31
0.0
  0
LINE
  5
E8F
  8
3
 10
24.83727836620005
 20
28.15142833269999
 30
0.0
 11
24.5854967959001
 21
28.06504195209999
 31
0.0
  0
LINE
  5
E90
  8
3
 10
24.5854967959001
 20
26.543381651
 30
0.0
 11
24.83727836620005
 21
26.4569952704
 31
0.0
  0
LINE
  5
E91
  8
3
 10
27.16272163370013
 20
26.4569952704
 30
0.0
 11
27.41450320400008
 21
26.543381651
 31
0.0
  0
LINE
  5
E92
  8
3
 10
23.49999999989996
 20
27.65209824749999
 30
0.0
 11
23.49999999989996
 21
27.57405869619998
 31
0.0
  0
LINE
  5
E93
  8
3
 10
28.49999999989996
 20
27.57405869619998
 30
0.0
 11
28.49999999989996
 21
27.65209824749999
 31
0.0
  0
LINE
  5
E94
  8
3
 10
27.41450320400008
 20
28.6827752927
 30
0.0
 11
27.16272163370013
 21
28.7691616733
 31
0.0
  0
LINE
  5
E95
  8
3
 10
24.83727836620005
 20
28.7691616733
 30
0.0
 11
24.5854967959001
 21
28.6827752927
 31
0.0
  0
LINE
  5
E96
  8
3
 10
24.5854967959001
 20
27.16111499159999
 30
0.0
 11
24.83727836620005
 21
27.07472861099998
 31
0.0
  0
LINE
  5
E97
  8
3
 10
27.16272163370013
 20
27.07472861099998
 30
0.0
 11
27.41450320400008
 21
27.16111499159999
 31
0.0
  0
LINE
  5
E98
  8
3
 10
23.49999999989996
 20
28.2698315881
 30
0.0
 11
23.49999999989996
 21
28.1917920368
 31
0.0
  0
LINE
  5
E99
  8
3
 10
28.49999999989996
 20
28.1917920368
 30
0.0
 11
28.49999999989996
 21
28.2698315881
 31
0.0
  0
LINE
  5
E9A
  8
3
 10
27.41450320400008
 20
29.30050863329998
 30
0.0
 11
27.16272163370013
 21
29.38689501389999
 31
0.0
  0
LINE
  5
E9B
  8
3
 10
24.83727836620005
 20
29.38689501389999
 30
0.0
 11
24.5854967959001
 21
29.30050863329998
 31
0.0
  0
LINE
  5
E9C
  8
3
 10
24.5854967959001
 20
27.7788483322
 30
0.0
 11
24.83727836620005
 21
27.6924619516
 31
0.0
  0
LINE
  5
E9D
  8
3
 10
27.16272163370013
 20
27.6924619516
 30
0.0
 11
27.41450320400008
 21
27.7788483322
 31
0.0
  0
LINE
  5
E9E
  8
3
 10
23.49999999989996
 20
28.88756492869999
 30
0.0
 11
23.49999999989996
 21
28.80952537740001
 31
0.0
  0
LINE
  5
E9F
  8
3
 10
28.49999999989996
 20
28.80952537740001
 30
0.0
 11
28.49999999989996
 21
28.88756492869999
 31
0.0
  0
LINE
  5
EA0
  8
3
 10
27.41450320400008
 20
29.9182419739
 30
0.0
 11
27.16272163370013
 21
30.0046283545
 31
0.0
  0
LINE
  5
EA1
  8
3
 10
24.83727836620005
 20
30.0046283545
 30
0.0
 11
24.5854967959001
 21
29.9182419739
 31
0.0
  0
LINE
  5
EA2
  8
3
 10
24.72349395929996
 20
28.34923477819999
 30
0.0
 11
24.83727836620005
 21
28.31019529220001
 31
0.0
  0
LINE
  5
EA3
  8
3
 10
27.16272163370013
 20
28.31019529220001
 30
0.0
 11
27.2765060406
 21
28.34923477819999
 31
0.0
  0
LINE
  5
EA4
  8
SK1
 10
88.13799999999992
 20
23.8125
 30
0.0
 11
76.96199999999999
 21
23.8125
 31
0.0
  0
LINE
  5
EA6
  8
SK1
 10
76.96199999999999
 20
-23.8125
 30
0.0
 11
88.13799999999992
 21
-23.8125
 31
0.0
  0
LINE
  5
EA7
  8
SK1
 10
88.13799999999992
 20
-23.8125
 30
0.0
 11
88.90000000000009
 21
-23.0505
 31
0.0
  0
LINE
  5
EA8
  8
SK1
 10
88.90000000000009
 20
23.0505
 30
0.0
 11
88.13799999999992
 21
23.8125
 31
0.0
  0
LINE
  5
EA9
  8
SK1
 10
76.96199999999999
 20
23.8125
 30
0.0
 11
76.20000000000005
 21
23.0505
 31
0.0
  0
LINE
  5
EAA
  8
SK1
 10
76.20000000000005
 20
-23.0505
 30
0.0
 11
76.96199999999999
 21
-23.8125
 31
0.0
  0
ARC
  5
EAB
  8
SK1
 10
75.41260000000011
 20
10.31240000000003
 30
0.0
 40
0.7874000000001615
 50
270.0
 51
0.0
  0
ARC
  5
EAC
  8
SK1
 10
75.41260000000011
 20
-10.31240000000003
 30
0.0
 40
0.7874000000001615
 50
0.0
 51
90.0
  0
LINE
  5
EAD
  8
SK1
 10
75.41260000000011
 20
9.524999999999977
 30
0.0
 11
74.40000000000009
 21
9.524999999999977
 31
0.0
  0
LINE
  5
EAE
  8
SK1
 10
74.40000000000009
 20
-9.524999999999977
 30
0.0
 11
75.41260000000011
 21
-9.524999999999977
 31
0.0
  0
LINE
  5
EAF
  8
SK1
 10
50.82856745539993
 20
-25.39868999999999
 30
0.0
 11
50.79999999999995
 21
-25.39868999999999
 31
0.0
  0
LINE
  5
EB3
  8
SK1
 10
50.79999999999995
 20
25.39868999999999
 30
0.0
 11
50.82856745539993
 21
25.39868999999999
 31
0.0
  0
ARC
  5
ECA
  8
SK1
 10
51.0
 20
-19.25
 30
0.0
 40
0.3999999999999965
 50
75.0000000000064
 51
120.0000000000078
  0
ARC
  5
ECB
  8
SK1
 10
51.0
 20
19.25
 30
0.0
 40
0.4000000000000211
 50
239.9999999999963
 51
284.9999999999936
  0
ARC
  5
ECC
  8
SK1
 10
72.40000000000009
 20
-17.05000000000001
 30
0.0
 40
2.000000000000028
 50
270.0
 51
0.0
  0
ARC
  5
ECD
  8
SK1
 10
72.40000000000009
 20
17.04999999999995
 30
0.0
 40
2.000000000000028
 50
0.0
 51
90.0
  0
LINE
  5
ECE
  8
SK1
 10
51.79907116050003
 20
-19.05000000000001
 30
0.0
 11
72.40000000000009
 21
-19.05000000000001
 31
0.0
  0
LINE
  5
ECF
  8
SK1
 10
72.40000000000009
 20
19.04999999999995
 30
0.0
 11
51.79907116050003
 21
19.04999999999995
 31
0.0
  0
LINE
  5
ED0
  8
SK1
 10
51.79907116050003
 20
19.04999999999995
 30
0.0
 11
51.10352761800004
 21
18.86362966950003
 31
0.0
  0
LINE
  5
ED1
  8
SK1
 10
51.10352761800004
 20
-18.86362966950003
 30
0.0
 11
51.79907116050003
 21
-19.05000000000001
 31
0.0
  0
LINE
  5
ED2
  8
SK1
 10
88.13799999999992
 20
0.0
 30
0.0
 11
88.13799999999992
 21
-23.8125
 31
0.0
  0
LINE
  5
ED3
  8
SK1
 10
88.13799999999992
 20
23.8125
 30
0.0
 11
88.13799999999992
 21
0.0
 31
0.0
  0
LINE
  5
ED4
  8
SK1
 10
76.96199999999999
 20
0.0
 30
0.0
 11
76.96199999999999
 21
-23.8125
 31
0.0
  0
LINE
  5
ED5
  8
SK1
 10
76.96199999999999
 20
23.8125
 30
0.0
 11
76.96199999999999
 21
0.0
 31
0.0
  0
LINE
  5
ED6
  8
SK1
 10
88.90000000000009
 20
0.0
 30
0.0
 11
88.90000000000009
 21
-23.0505
 31
0.0
  0
LINE
  5
ED7
  8
SK1
 10
88.90000000000009
 20
23.0505
 30
0.0
 11
88.90000000000009
 21
0.0
 31
0.0
  0
LINE
  5
ED8
  8
SK1
 10
76.20000000000005
 20
0.0
 30
0.0
 11
76.20000000000005
 21
-23.0505
 31
0.0
  0
LINE
  5
ED9
  8
SK1
 10
76.20000000000005
 20
23.0505
 30
0.0
 11
76.20000000000005
 21
0.0
 31
0.0
  0
LINE
  5
EDA
  8
SK1
 10
58.87720000000013
 20
-25.40250000000003
 30
0.0
 11
50.79999999999995
 21
-25.40250000000003
 31
0.0
  0
LINE
  5
EDB
  8
SK1
 10
58.87720000000013
 20
-25.40250000000003
 30
0.0
 11
58.87720000000013
 21
-41.27750000000003
 31
0.0
  0
LINE
  5
EDC
  8
SK1
 10
58.87720000000013
 20
-41.27750000000003
 30
0.0
 11
50.79999999999995
 21
-41.27750000000003
 31
0.0
  0
LINE
  5
EDE
  8
SK1
 10
58.87720000000013
 20
41.27750000000003
 30
0.0
 11
50.79999999999995
 21
41.27750000000003
 31
0.0
  0
LINE
  5
EDF
  8
SK1
 10
58.87720000000013
 20
41.27750000000003
 30
0.0
 11
58.87720000000013
 21
25.40250000000003
 31
0.0
  0
LINE
  5
EE0
  8
SK1
 10
58.87720000000013
 20
25.40250000000003
 30
0.0
 11
50.79999999999995
 21
25.40250000000003
 31
0.0
  0
LINE
  5
F0C
  8
SK1
 10
74.40000000000009
 20
0.0
 30
0.0
 11
74.40000000000009
 21
17.04999999999995
 31
0.0
  0
LINE
  5
F0D
  8
SK1
 10
74.40000000000009
 20
-17.05000000000001
 30
0.0
 11
74.40000000000009
 21
0.0
 31
0.0
  0
LINE
  5
F0E
  8
SK1
 10
51.79907116050003
 20
0.0
 30
0.0
 11
51.79907116050003
 21
19.04999999999995
 31
0.0
  0
LINE
  5
F0F
  8
SK1
 10
51.79907116050003
 20
-19.05000000000001
 30
0.0
 11
51.79907116050003
 21
0.0
 31
0.0
  0
LINE
  5
F20
  8
SK3
 10
79.375
 20
0.0
 30
0.0
 11
88.90000000000009
 21
0.0
 31
0.0
  0
LINE
  5
F21
  8
SK3
 10
79.375
 20
2.400300000000016
 30
0.0
 11
79.375
 21
0.0
 31
0.0
  0
LINE
  5
F22
  8
SK3
 10
79.375
 20
0.0
 30
0.0
 11
79.375
 21
-2.400300000000016
 31
0.0
  0
LINE
  5
F23
  8
SK3
 10
78.74000000000001
 20
0.0
 30
0.0
 11
78.74000000000001
 21
-4.800600000000031
 31
0.0
  0
LINE
  5
F24
  8
SK3
 10
78.74000000000001
 20
4.800600000000031
 30
0.0
 11
78.74000000000001
 21
0.0
 31
0.0
  0
LINE
  5
F25
  8
SK3
 10
79.375
 20
4.800600000000031
 30
0.0
 11
79.375
 21
2.400300000000016
 31
0.0
  0
LINE
  5
F26
  8
SK3
 10
79.375
 20
-2.400300000000016
 30
0.0
 11
79.375
 21
-4.800600000000031
 31
0.0
  0
LINE
  5
F27
  8
SK3
 10
79.375
 20
4.800600000000031
 30
0.0
 11
88.90000000000009
 21
4.800600000000031
 31
0.0
  0
LINE
  5
F28
  8
SK3
 10
79.375
 20
-4.800600000000031
 30
0.0
 11
88.90000000000009
 21
-4.800600000000031
 31
0.0
  0
LINE
  5
F45
  8
SK3
 10
73.53397467410014
 20
-10.0
 30
0.0
 11
73.53397467410014
 21
10.0
 31
0.0
  0
LINE
  5
F46
  8
SK3
 10
71.40000000000009
 20
10.0
 30
0.0
 11
71.40000000000009
 21
-10.0
 31
0.0
  0
LINE
  5
FB6
  8
SK3
 10
74.40000000000009
 20
9.524999999999977
 30
0.0
 11
50.79999999999995
 21
9.524999999999977
 31
0.0
  0
LINE
  5
FB7
  8
SK3
 10
50.79999999999995
 20
-9.524999999999977
 30
0.0
 11
74.40000000000009
 21
-9.524999999999977
 31
0.0
  0
LINE
  5
FBA
  8
SK3
 10
79.375
 20
4.800600000000031
 30
0.0
 11
78.74000000000001
 21
4.800600000000031
 31
0.0
  0
LINE
  5
FBB
  8
SK3
 10
78.74000000000001
 20
-4.800600000000031
 30
0.0
 11
79.375
 21
-4.800600000000031
 31
0.0
  0
LINE
  5
FBC
  8
SK3
 10
78.74000000000001
 20
4.800600000000031
 30
0.0
 11
75.85550851230005
 21
0.0
 31
0.0
  0
LINE
  5
FBD
  8
SK3
 10
75.85550851230005
 20
0.0
 30
0.0
 11
78.74000000000001
 21
-4.800600000000031
 31
0.0
  0
LINE
  5
FD8
  8
SK3
 10
74.40000000000009
 20
2.5
 30
0.0
 11
50.79999999999995
 21
2.5
 31
0.0
  0
LINE
  5
FD9
  8
SK3
 10
50.79999999999995
 20
-2.5
 30
0.0
 11
74.40000000000009
 21
-2.5
 31
0.0
  0
LINE
  5
FE8
  8
SK3
 10
74.40000000000009
 20
10.49999995500002
 30
0.0
 11
73.53397467410014
 21
10.0
 31
0.0
  0
LINE
  5
FE9
  8
SK3
 10
73.53397467410014
 20
-10.0
 30
0.0
 11
74.40000000000009
 21
-10.49999995500002
 31
0.0
  0
LINE
  5
FEA
  8
SK3
 10
73.53397467410014
 20
10.0
 30
0.0
 11
71.40000000000009
 21
10.0
 31
0.0
  0
LINE
  5
FEB
  8
SK3
 10
71.40000000000009
 20
-10.0
 30
0.0
 11
73.53397467410014
 21
-10.0
 31
0.0
  0
LINE
  5
FEC
  8
SK3
 10
71.40000000000009
 20
9.524999999999977
 30
0.0
 11
50.79999999999995
 21
9.524999999999977
 31
0.0
  0
LINE
  5
FED
  8
SK3
 10
50.79999999999995
 20
-9.524999999999977
 30
0.0
 11
71.40000000000009
 21
-9.524999999999977
 31
0.0
  0
LINE
  5
1002
  8
SK3
 10
74.40000000000009
 20
-9.62435565300001
 30
0.0
 11
50.79999999999995
 21
-9.62435565300001
 31
0.0
  0
LINE
  5
1003
  8
SK3
 10
50.79999999999995
 20
-14.62435565300001
 30
0.0
 11
74.40000000000009
 21
-14.62435565300001
 31
0.0
  0
LINE
  5
1004
  8
SK3
 10
74.40000000000009
 20
14.62435565299995
 30
0.0
 11
50.79999999999995
 21
14.62435565299995
 31
0.0
  0
LINE
  5
1005
  8
SK3
 10
50.79999999999995
 20
9.624355652999952
 30
0.0
 11
74.40000000000009
 21
9.624355652999952
 31
0.0
  0
LINE
  5
1BDB
  8
SK3
 10
-4.761656058799872
 20
8.731249999999989
 30
0.0
 11
0.0
 21
8.731249999999989
 31
0.0
  0
LINE
  5
1BDC
  8
SK3
 10
-4.761656058799872
 20
-8.731250000000017
 30
0.0
 11
0.0
 21
-8.731250000000017
 31
0.0
  0
LINE
  5
1BDE
  8
SK4
 10
50.8
 20
0.0
 30
0.0
 11
88.90000000000009
 21
0.0
 31
0.0
  0
DIMENSION
  5
1BE0
  8
SK2
  2
*D10
 10
106.7859198540314
 20
-19.05000000000001
 30
0.0
 11
104.9109198540314
 21
-0.000000000000032
 31
0.0
 70
    32
  3
ISO-25
 13
72.40000000000009
 23
19.04999999999995
 33
0.0
 14
72.40000000000009
 24
-19.05000000000001
 34
0.0
 50
90.0
1001
ACAD
1000
DSTYLE
1002
{
1070
   287
1070
     5
1070
   271
1070
     3
1070
   272
1070
     3
1070
   279
1070
     2
1002
}
  0
DIMENSION
  5
1BEF
  8
SK2
  2
*D11
 10
124.6072137591291
 20
-46.05000000000002
 30
0.0
 11
122.7322137591291
 21
-0.0000000000000213
 31
0.0
 70
    32
  3
ISO-25
 13
49.79999999999995
 23
46.04999999999998
 33
0.0
 14
49.79999999999995
 24
-46.05000000000001
 34
0.0
 50
90.0
1001
ACAD
1000
DSTYLE
1002
{
1070
   287
1070
     5
1070
   271
1070
     3
1070
   272
1070
     3
1070
   279
1070
     2
1002
}
  0
ARC
  5
1C02
  8
NOCUT
 10
49.8
 20
45.04999999999998
 30
0.0
 40
1.0
 50
0.0
 51
90.0
  0
LINE
  5
1C04
  8
NOCUT
 10
50.82856745539998
 20
41.28130999999999
 30
0.0
 11
50.8
 21
41.28130999999999
 31
0.0
  0
LINE
  5
1C05
  8
NOCUT
 10
50.8
 20
0.0
 30
0.0
 11
50.8
 21
45.04999999999998
 31
0.0
  0
LINE
  5
1C06
  8
NOCUT
 10
49.8
 20
46.04999999999998
 30
0.0
 11
36.05
 21
46.04999999999998
 31
0.0
  0
ARC
  5
1C07
  8
NOCUT
 10
36.05
 20
45.04999999999998
 30
0.0
 40
1.000000000000227
 50
90.0
 51
180.0
  0
LINE
  5
1C0B
  8
NOCUT
 10
35.04999999999977
 20
45.04999999999998
 30
0.0
 11
35.04999999999977
 21
36.42499999999999
 31
0.0
  0
ARC
  5
1C0C
  8
NOCUT
 10
33.54999999999977
 20
36.42499999999999
 30
0.0
 40
1.5
 50
270.0
 51
0.0000000000000127
  0
ENDSEC
  0
EOF
