  0
SECTION
  2
HEADER
  9
$ACADVER
  1
AC1009
  9
$DWGCODEPAGE
  3
ansi_1251
  9
$INSBASE
 10
0.0
 20
0.0
 30
0.0
  9
$EXTMIN
 10
-68.25000000000001
 20
-30.5409271246
 30
0.0
  9
$EXTMAX
 10
88.90000000000003
 20
30.50275418977125
 30
0.0
  9
$LIMMIN
 10
0.0
 20
0.0
  9
$LIMMAX
 10
420.0
 20
297.0
  9
$ORTHOMODE
 70
     1
  9
$REGENMODE
 70
     1
  9
$FILLMODE
 70
     1
  9
$QTEXTMODE
 70
     0
  9
$MIRRTEXT
 70
     0
  9
$DRAGMODE
 70
     2
  9
$LTSCALE
 40
1.0
  9
$OSMODE
 70
   279
  9
$ATTMODE
 70
     1
  9
$TEXTSIZE
 40
2.5
  9
$TRACEWID
 40
1.0
  9
$TEXTSTYLE
  7
STANDARD
  9
$CLAYER
  8
0
  9
$CELTYPE
  6
BYLAYER
  9
$CECOLOR
 62
   256
  9
$DIMSCALE
 40
1.0
  9
$DIMASZ
 40
2.5
  9
$DIMEXO
 40
0.625
  9
$DIMDLI
 40
3.75
  9
$DIMRND
 40
0.0
  9
$DIMDLE
 40
0.0
  9
$DIMEXE
 40
1.25
  9
$DIMTP
 40
0.0
  9
$DIMTM
 40
0.0
  9
$DIMTXT
 40
2.5
  9
$DIMCEN
 40
2.5
  9
$DIMTSZ
 40
0.0
  9
$DIMTOL
 70
     0
  9
$DIMLIM
 70
     0
  9
$DIMTIH
 70
     0
  9
$DIMTOH
 70
     0
  9
$DIMSE1
 70
     0
  9
$DIMSE2
 70
     0
  9
$DIMTAD
 70
     1
  9
$DIMZIN
 70
     8
  9
$DIMBLK
  1

  9
$DIMASO
 70
     1
  9
$DIMSHO
 70
     1
  9
$DIMPOST
  1

  9
$DIMAPOST
  1

  9
$DIMALT
 70
     0
  9
$DIMALTD
 70
     3
  9
$DIMALTF
 40
0.03937007874016
  9
$DIMLFAC
 40
1.0
  9
$DIMTOFL
 70
     1
  9
$DIMTVP
 40
0.0
  9
$DIMTIX
 70
     0
  9
$DIMSOXD
 70
     0
  9
$DIMSAH
 70
     0
  9
$DIMBLK1
  1

  9
$DIMBLK2
  1

  9
$DIMSTYLE
  2
ISO-25
  9
$DIMCLRD
 70
     0
  9
$DIMCLRE
 70
     0
  9
$DIMCLRT
 70
     0
  9
$DIMTFAC
 40
1.0
  9
$DIMGAP
 40
0.625
  9
$LUNITS
 70
     2
  9
$LUPREC
 70
     3
  9
$SKETCHINC
 40
1.0
  9
$FILLETRAD
 40
10.0
  9
$AUNITS
 70
     0
  9
$AUPREC
 70
     0
  9
$MENU
  1
.
  9
$ELEVATION
 40
0.0
  9
$PELEVATION
 40
0.0
  9
$THICKNESS
 40
0.0
  9
$LIMCHECK
 70
     0
  9
$CHAMFERA
 40
10.0
  9
$CHAMFERB
 40
10.0
  9
$SKPOLY
 70
     0
  9
$TDCREATE
 40
2455022.429026158
  9
$TDUPDATE
 40
2458659.538982558
  9
$TDINDWG
 40
0.1506771181
  9
$TDUSRTIMER
 40
2458702.703874607
  9
$USRTIMER
 70
     1
  9
$ANGBASE
 50
0.0
  9
$ANGDIR
 70
     0
  9
$PDMODE
 70
     0
  9
$PDSIZE
 40
0.0
  9
$PLINEWID
 40
0.0
  9
$COORDS
 70
     1
  9
$SPLFRAME
 70
     0
  9
$SPLINETYPE
 70
     6
  9
$SPLINESEGS
 70
     8
  9
$ATTDIA
 70
     0
  9
$ATTREQ
 70
     1
  9
$HANDLING
 70
     1
  9
$HANDSEED
  5
3750
  9
$SURFTAB1
 70
     6
  9
$SURFTAB2
 70
     6
  9
$SURFTYPE
 70
     6
  9
$SURFU
 70
     6
  9
$SURFV
 70
     6
  9
$UCSNAME
  2

  9
$UCSORG
 10
0.0
 20
0.0
 30
0.0
  9
$UCSXDIR
 10
1.0
 20
0.0
 30
0.0
  9
$UCSYDIR
 10
0.0
 20
1.0
 30
0.0
  9
$PUCSNAME
  2

  9
$PUCSORG
 10
0.0
 20
0.0
 30
0.0
  9
$PUCSXDIR
 10
1.0
 20
0.0
 30
0.0
  9
$PUCSYDIR
 10
0.0
 20
1.0
 30
0.0
  9
$USERI1
 70
     0
  9
$USERI2
 70
     0
  9
$USERI3
 70
     0
  9
$USERI4
 70
     0
  9
$USERI5
 70
     0
  9
$USERR1
 40
0.0
  9
$USERR2
 40
0.0
  9
$USERR3
 40
0.0
  9
$USERR4
 40
0.0
  9
$USERR5
 40
0.0
  9
$WORLDVIEW
 70
     1
  9
$SHADEDGE
 70
     3
  9
$SHADEDIF
 70
    70
  9
$TILEMODE
 70
     1
  9
$MAXACTVP
 70
    64
  9
$PLIMCHECK
 70
     0
  9
$PEXTMIN
 10
1.000000000000000E+20
 20
1.000000000000000E+20
 30
1.000000000000000E+20
  9
$PEXTMAX
 10
-1.000000000000000E+20
 20
-1.000000000000000E+20
 30
-1.000000000000000E+20
  9
$PLIMMIN
 10
0.0
 20
0.0
  9
$PLIMMAX
 10
420.0
 20
297.0
  9
$UNITMODE
 70
     0
  9
$VISRETAIN
 70
     1
  9
$PLINEGEN
 70
     0
  9
$PSLTSCALE
 70
     1
  0
ENDSEC
  0
SECTION
  2
TABLES
  0
TABLE
  2
VPORT
 70
     1
  0
VPORT
  2
*ACTIVE
 70
     0
 10
0.0
 20
0.0
 11
1.0
 21
1.0
 12
142.036015772477
 22
-2.020325411445
 13
0.0
 23
0.0
 14
10.0
 24
10.0
 15
10.0
 25
10.0
 16
0.0
 26
0.0
 36
1.0
 17
0.0
 27
0.0
 37
0.0
 40
372.8897650575208
 41
1.332880434782609
 42
50.0
 43
0.0
 44
0.0
 50
0.0
 51
0.0
 71
    16
 72
  1000
 73
     1
 74
     3
 75
     0
 76
     0
 77
     0
 78
     0
  0
ENDTAB
  0
TABLE
  2
LTYPE
 70
     6
  0
LTYPE
  2
CONTINUOUS
 70
     0
  3
Solid line
 72
    65
 73
     0
 40
0.0
  0
LTYPE
  2
CENTER
 70
     0
  3
 Center _____  _  _____  _  _____  _  _____  _ 
 72
    65
 73
     4
 40
50.8
 49
31.75
 49
-6.35
 49
6.35
 49
-6.35
  0
LTYPE
  2
DASHED
 70
     0
  3
Dashed __  __  __  __  __  __  __  __  __  __  
 72
    65
 73
     2
 40
19.05
 49
12.7
 49
-6.35
  0
LTYPE
  2
HIDDEN
 70
     0
  3
Hidden __ __ __ __ __ __ __ __ __ __ __ __ __ __
 72
    65
 73
     2
 40
1.905
 49
1.27
 49
-0.635
  0
LTYPE
  2
CENTERX2
 70
     0
  3
Center (2x) ________  __  ________  __  _____
 72
    65
 73
     4
 40
20.32
 49
12.7
 49
-2.54
 49
2.54
 49
-2.54
  0
LTYPE
  2
PHANTOM
 70
     0
  3
Phantom ______  __  __  ______  __  __  ______
 72
    65
 73
     6
 40
12.7
 49
6.35
 49
-1.27
 49
1.27
 49
-1.27
 49
1.27
 49
-1.27
  0
ENDTAB
  0
TABLE
  2
LAYER
 70
    26
  0
LAYER
  2
0
 70
     0
 62
     7
  6
CONTINUOUS
  0
LAYER
  2
1
 70
     0
 62
     4
  6
CONTINUOUS
  0
LAYER
  2
2
 70
     0
 62
     7
  6
CONTINUOUS
  0
LAYER
  2
3
 70
     0
 62
     1
  6
DASHED
  0
LAYER
  2
4
 70
     0
 62
     2
  6
CENTER
  0
LAYER
  2
6
 70
     0
 62
     5
  6
CONTINUOUS
  0
LAYER
  2
7
 70
     0
 62
     5
  6
CONTINUOUS
  0
LAYER
  2
11
 70
     0
 62
     4
  6
CONTINUOUS
  0
LAYER
  2
SK1
 70
     0
 62
     4
  6
CONTINUOUS
  0
LAYER
  2
SK2
 70
     0
 62
     7
  6
CONTINUOUS
  0
LAYER
  2
SK3
 70
     0
 62
     1
  6
DASHED
  0
LAYER
  2
SK4
 70
     0
 62
     2
  6
CENTER
  0
LAYER
  2
SK6
 70
     0
 62
     5
  6
CONTINUOUS
  0
LAYER
  2
SK7
 70
     0
 62
     5
  6
CONTINUOUS
  0
LAYER
  2
SK11
 70
     0
 62
     4
  6
CONTINUOUS
  0
LAYER
  2
CUT
 70
     0
 62
     1
  6
CONTINUOUS
  0
LAYER
  2
NOCUT
 70
     0
 62
    -7
  6
CONTINUOUS
  0
LAYER
  2
SKVIEW1
 70
     0
 62
     4
  6
CONTINUOUS
  0
LAYER
  2
SKVIEW2
 70
     0
 62
     7
  6
CONTINUOUS
  0
LAYER
  2
SKVIEW3
 70
     0
 62
     1
  6
DASHED
  0
LAYER
  2
SKVIEW4
 70
     0
 62
     2
  6
CENTER
  0
LAYER
  2
SKVIEW6
 70
     0
 62
     5
  6
CONTINUOUS
  0
LAYER
  2
SKVIEW7
 70
     0
 62
     5
  6
CONTINUOUS
  0
LAYER
  2
SKVIEW11
 70
     0
 62
     4
  6
CONTINUOUS
  0
LAYER
  2
INFTOTAL
 70
     0
 62
     9
  6
CONTINUOUS
  0
LAYER
  2
DEFPOINTS
 70
     0
 62
     7
  6
CONTINUOUS
  0
ENDTAB
  0
TABLE
  2
STYLE
 70
     1
  0
STYLE
  2
STANDARD
 70
     0
 40
0.0
 41
1.0
 50
0.0
 71
     0
 42
2.5
  3
txt
  4

  0
ENDTAB
  0
TABLE
  2
VIEW
 70
     0
  0
ENDTAB
  0
TABLE
  2
UCS
 70
     0
  0
ENDTAB
  0
TABLE
  2
APPID
 70
     2
  0
APPID
  2
ACAD
 70
     0
  0
APPID
  2
ACAECLAYERSTANDARD
 70
     0
  0
ENDTAB
  0
TABLE
  2
DIMSTYLE
 70
     1
  0
DIMSTYLE
  2
ISO-25
 70
     0
  3

  4

  5

  6

  7

 40
1.0
 41
2.5
 42
0.625
 43
3.75
 44
1.25
 45
0.0
 46
0.0
 47
0.0
 48
0.0
140
2.5
141
2.5
142
0.0
143
0.03937007874016
144
1.0
145
0.0
146
1.0
147
0.625
 71
     0
 72
     0
 73
     0
 74
     0
 75
     0
 76
     0
 77
     1
 78
     8
170
     0
171
     3
172
     1
173
     0
174
     0
175
     0
176
     0
177
     0
178
     0
  0
ENDTAB
  0
ENDSEC
  0
SECTION
  2
BLOCKS
  0
BLOCK
  8
0
  2
$MODEL_SPACE
 70
     0
 10
0.0
 20
0.0
 30
0.0
  3
$MODEL_SPACE
  1

  0
ENDBLK
  5
21
  8
0
  0
BLOCK
 67
     1
  8
0
  2
$PAPER_SPACE
 70
     0
 10
0.0
 20
0.0
 30
0.0
  3
$PAPER_SPACE
  1

  0
ENDBLK
  5
1D
 67
     1
  8
0
  0
BLOCK
  8
0
  2
*U0
 70
     1
 10
0.0
 20
0.0
 30
0.0
  3
*U0
  1

  0
TEXT
  5
77E
  8
SK6
 10
-50.0
 20
78.25
 30
0.0
 40
3.5
  1
BIG KAISER
 41
0.85
  0
TEXT
  5
781
  8
SK6
 10
-50.0
 20
73.0
 30
0.0
 40
3.5
  1
BCV50-SMC1.500-12
 41
0.85
  0
ENDBLK
  5
782
  8
0
  0
BLOCK
  8
0
  2
_FILLED
 70
     0
 10
0.0
 20
0.0
 30
0.0
  3
_FILLED
  1

  0
SOLID
  5
789
  8
0
  6
BYBLOCK
 62
     0
 10
0.0
 20
0.0
 30
0.0
 11
-1.0
 21
0.2142857143
 31
0.0
 12
-1.0
 22
-0.2142857143
 32
0.0
 13
-1.0
 23
-0.2142857143
 33
0.0
  0
ENDBLK
  5
78A
  8
0
  6
BYBLOCK
 62
     0
  0
BLOCK
  8
0
  2
*U2
 70
     1
 10
0.0
 20
0.0
 30
0.0
  3
*U2
  1

  0
TEXT
  5
790
  8
SK6
 10
-85.96178542556666
 20
-67.06748653279999
 30
0.0
 40
3.5
  1
BCV50
 41
0.85
  0
ENDBLK
  5
791
  8
0
  0
BLOCK
  8
0
  2
*D3
 70
     1
 10
0.0
 20
0.0
 30
0.0
  3
*D3
  1

  0
LINE
  5
808
  8
SK2
 62
     0
 10
0.0
 20
35.54999999999998
 30
0.0
 11
0.0
 21
63.71215670356074
 31
0.0
  0
LINE
  5
809
  8
SK2
 62
     0
 10
304.8000000000001
 20
45.67500000000001
 30
0.0
 11
304.8000000000001
 21
63.71215670356074
 31
0.0
  0
LINE
  5
80A
  8
SK2
 62
     0
 10
2.5
 20
62.46215670356074
 30
0.0
 11
302.3000000000001
 21
62.46215670356074
 31
0.0
  0
SOLID
  5
80B
  8
SK2
 62
     0
 10
2.5
 20
62.8788233702274
 30
0.0
 11
2.5
 21
62.04549003689407
 31
0.0
 12
0.0
 22
62.46215670356074
 32
0.0
 13
0.0
 23
62.46215670356074
 33
0.0
  0
SOLID
  5
80C
  8
SK2
 62
     0
 10
302.3000000000001
 20
62.04549003689407
 30
0.0
 11
302.3000000000001
 21
62.8788233702274
 31
0.0
 12
304.8000000000001
 22
62.46215670356074
 32
0.0
 13
304.8000000000001
 23
62.46215670356074
 33
0.0
  0
TEXT
  5
80D
  8
SK2
  6
CONTINUOUS
 62
     0
 10
147.6083333333334
 20
63.08715670356074
 30
0.0
 40
2.5
  1
304.8
  0
POINT
  5
80E
  8
DEFPOINTS
 62
     0
 10
0.0
 20
34.92499999999998
 30
0.0
  0
POINT
  5
80F
  8
DEFPOINTS
 62
     0
 10
304.8000000000001
 20
45.05000000000001
 30
0.0
  0
POINT
  5
810
  8
DEFPOINTS
 62
     0
 10
304.8000000000001
 20
62.46215670356074
 30
0.0
  0
ENDBLK
  5
812
  8
0
  0
BLOCK
  8
0
  2
*D4
 70
     1
 10
0.0
 20
0.0
 30
0.0
  3
*D4
  1

  0
LINE
  5
1A1D
  8
SK2
 62
     0
 10
304.4250000000001
 20
46.05000000000001
 30
0.0
 11
385.6720315449539
 21
46.05
 31
0.0
  0
LINE
  5
1A1E
  8
SK2
 62
     0
 10
304.4250000000001
 20
-46.05000000000001
 30
0.0
 11
385.6720315449539
 21
-46.05000000000002
 31
0.0
  0
LINE
  5
1A1F
  8
SK2
 62
     0
 10
384.4220315449539
 20
43.55
 30
0.0
 11
384.4220315449539
 21
-43.55000000000002
 31
0.0
  0
SOLID
  5
1A20
  8
SK2
 62
     0
 10
384.8386982116206
 20
43.55
 30
0.0
 11
384.0053648782873
 21
43.55
 31
0.0
 12
384.4220315449539
 22
46.05
 32
0.0
 13
384.4220315449539
 23
46.05
 33
0.0
  0
SOLID
  5
1A21
  8
SK2
 62
     0
 10
384.0053648782873
 20
-43.55000000000002
 30
0.0
 11
384.8386982116206
 21
-43.55000000000002
 31
0.0
 12
384.4220315449539
 22
-46.05000000000002
 32
0.0
 13
384.4220315449539
 23
-46.05000000000002
 33
0.0
  0
TEXT
  5
1A22
  8
SK2
  6
CONTINUOUS
 62
     0
 10
383.7970315449539
 20
-3.333333333333314
 30
0.0
 40
2.5
  1
92.1
 50
90.0
  0
POINT
  5
1A23
  8
DEFPOINTS
 62
     0
 10
303.8000000000001
 20
46.05000000000001
 30
0.0
  0
POINT
  5
1A24
  8
DEFPOINTS
 62
     0
 10
303.8000000000001
 20
-46.05000000000001
 30
0.0
  0
POINT
  5
1A25
  8
DEFPOINTS
 62
     0
 10
384.4220315449539
 20
-46.05000000000002
 30
0.0
  0
ENDBLK
  5
1A27
  8
0
  0
BLOCK
  8
0
  2
*D5
 70
     1
 10
0.0
 20
0.0
 30
0.0
  3
*D5
  1

  0
LINE
  5
1A2C
  8
SK2
 62
     0
 10
327.025
 20
19.05000000000001
 30
0.0
 11
363.5385181504587
 21
19.05000000000001
 31
0.0
  0
LINE
  5
1A2D
  8
SK2
 62
     0
 10
327.025
 20
-19.05000000000001
 30
0.0
 11
363.5385181504587
 21
-19.05000000000001
 31
0.0
  0
LINE
  5
1A2E
  8
SK2
 62
     0
 10
362.2885181504587
 20
16.55000000000001
 30
0.0
 11
362.2885181504587
 21
-16.55000000000001
 31
0.0
  0
SOLID
  5
1A2F
  8
SK2
 62
     0
 10
362.7051848171254
 20
16.55000000000001
 30
0.0
 11
361.871851483792
 21
16.55000000000001
 31
0.0
 12
362.2885181504587
 22
19.05000000000001
 32
0.0
 13
362.2885181504587
 23
19.05000000000001
 33
0.0
  0
SOLID
  5
1A30
  8
SK2
 62
     0
 10
361.871851483792
 20
-16.55000000000001
 30
0.0
 11
362.7051848171254
 21
-16.55000000000001
 31
0.0
 12
362.2885181504587
 22
-19.05000000000001
 32
0.0
 13
362.2885181504587
 23
-19.05000000000001
 33
0.0
  0
TEXT
  5
1A31
  8
SK2
  6
CONTINUOUS
 62
     0
 10
361.6635181504587
 20
-3.333333333333314
 30
0.0
 40
2.5
  1
38.1
 50
90.0
  0
POINT
  5
1A32
  8
DEFPOINTS
 62
     0
 10
326.4
 20
19.05000000000001
 30
0.0
  0
POINT
  5
1A33
  8
DEFPOINTS
 62
     0
 10
326.4
 20
-19.05000000000001
 30
0.0
  0
POINT
  5
1A34
  8
DEFPOINTS
 62
     0
 10
362.2885181504587
 20
-19.05000000000001
 30
0.0
  0
ENDBLK
  5
1A36
  8
0
  0
ENDSEC
  0
SECTION
  2
ENTITIES
  0
LINE
  5
685
  8
SK1
 10
0.0
 20
34.92499999999998
 30
0.0
 11
-99.6319088344
 21
20.3952133832
 31
0.0
  0
LINE
  5
686
  8
SK1
 10
-99.6319088344
 20
-20.3952133832
 30
0.0
 11
0.0
 21
-34.92500000000001
 31
0.0
  0
ARC
  5
68D
  8
SK1
 10
-99.3
 20
18.1192879614
 30
0.0
 40
2.299999999999995
 50
98.29722000000018
 51
180.0
  0
ARC
  5
68E
  8
SK1
 10
-99.3
 20
-18.1192879614
 30
0.0
 40
2.299999999999995
 50
180.0
 51
261.7027799999998
  0
LINE
  5
6F6
  8
SK1
 10
-101.6
 20
0.0
 30
0.0
 11
-101.6
 21
-18.1192879614
 31
0.0
  0
LINE
  5
6F7
  8
SK1
 10
-101.6
 20
18.1192879614
 30
0.0
 11
-101.6
 21
0.0
 31
0.0
  0
LINE
  5
71A
  8
SK3
 10
-99.5215390309
 20
-13.10000000000002
 30
0.0
 11
-99.5215390309
 21
13.09999999999999
 31
0.0
  0
LINE
  5
71B
  8
SK3
 10
-95.25
 20
-13.10000000000002
 30
0.0
 11
-95.25
 21
13.09999999999999
 31
0.0
  0
LINE
  5
72A
  8
SK3
 10
-101.6
 20
-14.30000000000001
 30
0.0
 11
-99.5215390309
 21
-13.10000000000002
 31
0.0
  0
LINE
  5
72B
  8
SK3
 10
-99.5215390309
 20
13.09999999999999
 30
0.0
 11
-101.6
 21
14.3
 31
0.0
  0
LINE
  5
72C
  8
SK3
 10
-99.5215390309
 20
-13.10000000000002
 30
0.0
 11
-95.25
 21
-13.10000000000002
 31
0.0
  0
LINE
  5
72D
  8
SK3
 10
-95.25
 20
13.09999999999999
 30
0.0
 11
-99.5215390309
 21
13.09999999999999
 31
0.0
  0
LINE
  5
72E
  8
SK3
 10
-95.25
 20
-11.09980000000002
 30
0.0
 11
-5.249999999999986
 21
-11.09980000000002
 31
0.0
  0
LINE
  5
72F
  8
SK3
 10
-5.250000000000001
 20
11.09979999999999
 30
0.0
 11
-95.25
 21
11.09979999999999
 31
0.0
  0
LINE
  5
760
  8
SK3
 10
-57.1
 20
12.69999999999999
 30
0.0
 11
-95.25
 21
12.69999999999999
 31
0.0
  0
LINE
  5
761
  8
SK3
 10
-95.25
 20
-12.69999999999999
 30
0.0
 11
-57.1
 21
-12.69999999999999
 31
0.0
  0
LINE
  5
774
  8
SK3
 10
-57.1
 20
12.69999999999999
 30
0.0
 11
-57.1
 21
-12.69999999999999
 31
0.0
  0
LINE
  5
777
  8
SK4
 10
0.0
 20
0.0
 30
0.0
 11
-101.6
 21
0.0
 31
0.0
  0
LINE
  5
779
  8
4
 10
-0.0000000000000071
 20
0.0
 30
0.0
 11
304.7999999999998
 21
0.0
 31
0.0
  0
INSERT
  5
77B
  8
SK6
  2
*U0
 10
-44.10380399683656
 20
-23.39313954296377
 30
0.0
  0
INSERT
  5
78D
  8
SK6
  2
*U2
 10
17.55665382414153
 20
-2.560320993650734
 30
0.0
  0
LINE
  5
793
  8
0
 10
3.0
 20
3.0
 30
0.0
 11
-3.0
 21
-3.0
 31
0.0
  0
LINE
  5
794
  8
0
 10
-3.0
 20
3.0
 30
0.0
 11
3.0
 21
-3.0
 31
0.0
  0
CIRCLE
  5
795
  8
0
 10
0.0
 20
0.0
 30
0.0
 40
2.5
  0
LINE
  5
796
  8
0
 10
307.8000000000001
 20
-3.0
 30
0.0
 11
301.8000000000001
 21
3.0
 31
0.0
  0
CIRCLE
  5
797
  8
0
 10
304.8000000000001
 20
0.0
 30
0.0
 40
2.5
  0
LINE
  5
798
  8
0
 10
301.8000000000001
 20
-3.0
 30
0.0
 11
307.8000000000001
 21
3.0
 31
0.0
  0
LINE
  5
799
  8
NOCUT
 10
0.7999999999999972
 20
34.62500000000001
 30
0.0
 11
0.2999999999999972
 21
34.62500000000001
 31
0.0
  0
LINE
  5
79C
  8
NOCUT
 10
0.2999999999999972
 20
34.62500000000001
 30
0.0
 11
0.0
 21
34.92499999999999
 31
0.0
  0
LINE
  5
79D
  8
NOCUT
 10
39.17157287529994
 20
34.92499999999999
 30
0.0
 11
20.05
 21
34.92499999999999
 31
0.0
  0
ARC
  5
79E
  8
NOCUT
 10
0.7999999999999972
 20
35.62500000000001
 30
0.0
 40
1.0
 50
270.0
 51
314.4270040008
  0
ARC
  5
79F
  8
NOCUT
 10
20.05
 20
35.92499999999999
 30
0.0
 40
1.0
 50
180.0
 51
270.0
  0
LINE
  5
7A0
  8
NOCUT
 10
12.55499999999999
 20
45.64499999999999
 30
0.0
 11
9.704999999999998
 21
45.64499999999999
 31
0.0
  0
ARC
  5
7A1
  8
NOCUT
 10
12.55499999999999
 20
46.14499999999999
 30
0.0
 40
0.5
 50
270.0
 51
0.0
  0
ARC
  5
7A2
  8
NOCUT
 10
9.704999999999998
 20
46.14499999999999
 30
0.0
 40
0.5
 50
180.0
 51
270.0
  0
ARC
  5
7A3
  8
NOCUT
 10
2.299999999999997
 20
48.4125
 30
0.0
 40
0.7999999999999972
 50
90.0
 51
180.0
  0
ARC
  5
7A4
  8
NOCUT
 10
18.24999999999999
 20
48.4125
 30
0.0
 40
0.799999999999983
 50
0.0
 51
90.0
  0
LINE
  5
7A5
  8
NOCUT
 10
9.204999999999998
 20
46.43919780459999
 30
0.0
 11
7.603833230999996
 21
49.21250000000001
 31
0.0
  0
LINE
  5
7A6
  8
NOCUT
 10
14.65616676910001
 20
49.21250000000001
 30
0.0
 11
13.05499999999999
 21
46.43919780459999
 31
0.0
  0
LINE
  5
7A7
  8
NOCUT
 10
18.24999999999999
 20
49.21250000000001
 30
0.0
 11
14.65616676910001
 21
49.21250000000001
 31
0.0
  0
LINE
  5
7A8
  8
NOCUT
 10
7.603833230999996
 20
49.21250000000001
 30
0.0
 11
2.299999999999997
 21
49.21250000000001
 31
0.0
  0
LINE
  5
7AC
  8
NOCUT
 10
1.5
 20
48.4125
 30
0.0
 11
1.499999999999929
 21
34.91085715714565
 31
0.0
  0
LINE
  5
7AD
  8
NOCUT
 10
19.04999999999997
 20
48.4125
 30
0.0
 11
19.05
 21
35.92499999999999
 31
0.0
  0
LINE
  5
7AE
  8
NOCUT
 10
9.204999999999998
 20
46.43919780459999
 30
0.0
 11
9.204999999999998
 21
46.14499999999999
 31
0.0
  0
LINE
  5
7AF
  8
NOCUT
 10
13.05499999999999
 20
46.43919780459999
 30
0.0
 11
13.05499999999999
 21
46.14499999999999
 31
0.0
  0
DIMENSION
  5
804
  8
SK2
  2
*D3
 10
304.8000000000001
 20
62.46215670356074
 30
0.0
 11
152.4000000000001
 21
64.33715670356074
 31
0.0
 70
    32
  3
ISO-25
 13
0.0
 23
34.92499999999998
 33
0.0
 14
304.8000000000001
 24
45.05000000000001
 34
0.0
1001
ACAD
1000
DSTYLE
1002
{
1070
   287
1070
     5
1070
   271
1070
     3
1070
   272
1070
     3
1070
   279
1070
     2
1002
}
  0
LINE
  5
8BF
  8
NOCUT
 10
0.0
 20
34.92499999999999
 30
0.0
 11
0.0
 21
0.0
 31
0.0
  0
LINE
  5
8C0
  8
NOCUT
 10
-0.0000000000000071
 20
0.0
 30
0.0
 11
304.7999999999998
 21
0.0
 31
0.0
  0
INSERT
  5
A17
  8
SK6
  2
_FILLED
 10
-20.78186483605847
 20
-31.89428358495073
 30
0.0
 41
3.5
 42
3.5
 43
3.5
 50
52.86965044919886
  0
POLYLINE
  5
A18
  8
SK6
 66
     1
 10
0.0
 20
0.0
 30
0.0
  0
VERTEX
  5
32BB
  8
SK6
 10
-22.89457117648658
 20
-34.68470862768434
 30
0.0
  0
VERTEX
  5
32BC
  8
SK6
 10
-48.02596493475846
 20
-67.87780752645074
 30
0.0
  0
VERTEX
  5
32BD
  8
SK6
 10
-49.90096493475846
 20
-66.12780752645074
 30
0.0
  0
VERTEX
  5
32BE
  8
SK6
 10
-53.40096493475846
 20
-66.12780752645074
 30
0.0
  0
SEQEND
  5
374F
  8
SK6
  0
ARC
  5
AC7
  8
1
 10
20.04999999999998
 20
35.92499999999998
 30
0.0
 40
1.0
 50
180.0
 51
270.0
  0
ARC
  5
AC9
  8
1
 10
20.04999999999998
 20
-35.92500000000001
 30
0.0
 40
1.0
 50
90.0
 51
180.0
  0
ARC
  5
ACA
  8
1
 10
1.299999999999983
 20
35.125
 30
0.0
 40
0.5
 50
270.0
 51
293.5781784781994
  0
ARC
  5
ACB
  8
1
 10
1.299999999999983
 20
-35.125
 30
0.0
 40
0.500000000000009
 50
66.42182152180017
 51
90.0
  0
LINE
  5
ACC
  8
1
 10
39.17157287529994
 20
34.92499999999998
 30
0.0
 11
20.04999999999998
 21
34.92499999999998
 31
0.0
  0
LINE
  5
ACE
  8
1
 10
20.04999999999998
 20
-34.92500000000001
 30
0.0
 11
39.17157287529994
 21
-34.92499999999983
 31
0.0
  0
LINE
  5
ACF
  8
1
 10
0.0
 20
-34.92500000000001
 30
0.0
 11
0.2999999999999829
 21
-34.625
 31
0.0
  0
LINE
  5
AD0
  8
1
 10
0.2999999999999829
 20
34.625
 30
0.0
 11
0.0
 21
34.92499999999998
 31
0.0
  0
LINE
  5
AD5
  8
1
 10
1.299999999999983
 20
34.625
 30
0.0
 11
0.2999999999999829
 21
34.625
 31
0.0
  0
LINE
  5
AD6
  8
1
 10
0.2999999999999829
 20
-34.625
 30
0.0
 11
1.299999999999983
 21
-34.625
 31
0.0
  0
LINE
  5
ADB
  8
1
 10
14.65616694409999
 20
-47.282880439
 30
0.0
 11
14.68806954659999
 21
-47.29184187660002
 31
0.0
  0
LINE
  5
ADC
  8
1
 10
14.6561667691
 20
47.30816788690001
 30
0.0
 11
14.6561667691
 21
-47.2826327523
 31
0.0
  0
LINE
  5
ADD
  8
1
 10
14.7615962207
 20
47.3314147463
 30
0.0
 11
14.6561668942
 21
47.30816788690001
 31
0.0
  0
LINE
  5
ADE
  8
1
 10
18.25
 20
47.3314147463
 30
0.0
 11
14.7615962207
 21
47.3314147463
 31
0.0
  0
LINE
  5
ADF
  8
1
 10
14.68806954659999
 20
-47.29184187660002
 30
0.0
 11
18.25
 21
-47.29184187660002
 31
0.0
  0
LINE
  5
AE0
  8
1
 10
7.498403779400007
 20
47.3314147463
 30
0.0
 11
4.006414746699988
 21
47.3314147463
 31
0.0
  0
LINE
  5
AE1
  8
1
 10
7.603833105900009
 20
47.30816788690001
 30
0.0
 11
7.498403779400007
 21
47.3314147463
 31
0.0
  0
LINE
  5
AE2
  8
1
 10
7.603833230899994
 20
47.30844201400001
 30
0.0
 11
7.603833230899994
 21
-47.28288044160001
 31
0.0
  0
LINE
  5
AE3
  8
1
 10
7.571930453299984
 20
-47.29184187660002
 30
0.0
 11
7.603833055899997
 21
-47.282880439
 31
0.0
  0
LINE
  5
AE4
  8
1
 10
4.040356993800003
 20
-47.29184187660002
 30
0.0
 11
7.571930453299984
 21
-47.29184187660002
 31
0.0
  0
LINE
  5
AE5
  8
1
 10
2.300001405499984
 20
-46.74795901499999
 30
0.0
 11
4.040356993800003
 21
-47.29184189310001
 31
0.0
  0
LINE
  5
AE6
  8
1
 10
4.006414746699988
 20
47.33141476029999
 30
0.0
 11
2.299999765199999
 21
46.80267569
 31
0.0
  0
ARC
  5
AE7
  8
1
 10
2.557435939599998
 20
-45.59355264690001
 30
0.0
 40
1.184053137363273
 50
207.7147598986998
 51
257.3157095984005
  0
LINE
  5
AE8
  8
1
 10
1.50922466130001
 20
-46.14422037630001
 30
0.0
 11
1.5
 21
-46.01377680920001
 31
0.0
  0
LINE
  5
AE9
  8
1
 10
1.5
 20
-46.01377680920001
 30
0.0
 11
1.5
 21
46.01377680919998
 31
0.0
  0
ARC
  5
AEA
  8
1
 10
2.572884962100005
 20
45.72649004249999
 30
0.0
 40
1.111555736593689
 50
104.3436511600003
 51
164.8417645594994
  0
LINE
  5
AEB
  8
1
 10
9.204999995999998
 20
44.41431970880001
 30
0.0
 11
7.60383322749999
 21
47.3081678945
 31
0.0
  0
LINE
  5
AEC
  8
1
 10
9.204999999999984
 20
44.4143196734
 30
0.0
 11
9.204999999999984
 21
-44.387299867
 31
0.0
  0
LINE
  5
AED
  8
1
 10
7.603833226399985
 20
-47.28288044990001
 30
0.0
 11
9.2049999921
 21
-44.38762367050001
 31
0.0
  0
LINE
  5
AEE
  8
1
 10
14.65616677259999
 20
47.3081678945
 30
0.0
 11
13.05500000399999
 21
44.41431970880001
 31
0.0
  0
LINE
  5
AEF
  8
1
 10
13.05500000800001
 20
-44.38762367050001
 30
0.0
 11
14.65616677360001
 21
-47.28288044990001
 31
0.0
  0
LINE
  5
AF0
  8
1
 10
13.05500000000001
 20
44.41459195280001
 30
0.0
 11
13.05500000000001
 21
-44.38762365650001
 31
0.0
  0
ARC
  5
AF1
  8
1
 10
17.92302328310001
 20
46.41895288640001
 30
0.0
 40
1.127359624435328
 50
1.493363825500091
 51
43.53750291790048
  0
LINE
  5
AF2
  8
1
 10
19.04999999999998
 20
46.44833319130001
 30
0.0
 11
19.04999999999998
 21
-46.44833319130001
 31
0.0
  0
ARC
  5
AF3
  8
1
 10
17.91824827779999
 20
-46.4157978575
 30
0.0
 40
1.1322192847622
 50
319.2464850235001
 51
358.3533278529993
  0
ARC
  5
AF4
  8
1
 10
18.2616113983
 20
-46.25791326929999
 30
0.0
 40
1.033993805426882
 50
269.3565743835002
 51
299.8289453780985
  0
ARC
  5
AF5
  8
1
 10
18.2610591033
 20
46.41902767409999
 30
0.0
 40
0.9124540938653742
 50
58.31881226410037
 51
90.69445187719943
  0
ARC
  5
AF6
  8
1
 10
12.5158206966
 20
-44.1073442162
 30
0.0
 40
0.5397579791454132
 50
357.3466499737992
 51
85.83742202690154
  0
ARC
  5
AF7
  8
1
 10
12.54139279200001
 20
44.09944295630001
 30
0.0
 40
0.4858431210597904
 50
271.6049163143007
 51
333.441972537701
  0
POLYLINE
  5
AF8
  8
1
 66
     1
 10
0.0
 20
0.0
 30
0.0
  0
VERTEX
  5
32BF
  8
1
 10
13.05500000000001
 20
44.14662312639999
 30
0.0
  0
VERTEX
  5
32C0
  8
1
 10
13.03542892280001
 20
44.01594229719998
 30
0.0
  0
VERTEX
  5
32C1
  8
1
 10
12.97787844319998
 20
43.88571451269999
 30
0.0
  0
SEQEND
  5
374E
  8
1
  0
ARC
  5
AF9
  8
1
 10
9.744214343399989
 20
-44.10737531749999
 30
0.0
 40
0.5397915428070933
 50
94.16604783349855
 51
182.6498801657025
  0
POLYLINE
  5
AFA
  8
1
 66
     1
 10
0.0
 20
0.0
 30
0.0
  0
VERTEX
  5
32C2
  8
1
 10
9.280099379399985
 20
43.88913247470001
 30
0.0
  0
VERTEX
  5
32C3
  8
1
 10
9.224055884099982
 20
44.0177026321
 30
0.0
  0
VERTEX
  5
32C4
  8
1
 10
9.204999999999984
 20
44.14662312639999
 30
0.0
  0
SEQEND
  5
374D
  8
1
  0
ARC
  5
AFB
  8
1
 10
9.721350266000002
 20
44.10422581969999
 30
0.0
 40
0.4907078648052702
 50
206.0244317763009
 51
268.0905652222996
  0
LINE
  5
AFC
  8
1
 10
12.55500000000001
 20
43.613790424
 30
0.0
 11
9.704999999999984
 21
43.613790424
 31
0.0
  0
LINE
  5
AFD
  8
1
 10
9.704999999999984
 20
-43.5690100651
 30
0.0
 11
12.55500000000001
 21
-43.5690100651
 31
0.0
  0
LINE
  5
B00
  8
1
 10
0.2999999999999829
 20
34.625
 30
0.0
 11
0.2999999999999829
 21
-34.625
 31
0.0
  0
LINE
  5
B01
  8
1
 10
0.0
 20
34.92499999999998
 30
0.0
 11
0.0
 21
-34.92500000000001
 31
0.0
  0
LINE
  5
B04
  8
1
 10
14.68806954670001
 20
-47.29184187660002
 30
0.0
 11
14.65616694420001
 21
-47.282880439
 31
0.0
  0
LINE
  5
B1A
  8
3
 10
1.500000000000004
 20
37.72
 30
0.0
 11
19.04999999999998
 21
37.72
 31
0.0
  0
LINE
  5
B3B
  8
3
 10
1.5
 20
-35.30000000000001
 30
0.0
 11
19.26937525020018
 21
-35.30000000000001
 31
0.0
  0
LINE
  5
B42
  8
3
 10
26.97499999999999
 20
28.32499999999999
 30
0.0
 11
33.32499999999999
 21
28.32499999999999
 31
0.0
  0
LINE
  5
B43
  8
3
 10
20.625
 20
28.32499999999999
 30
0.0
 11
26.97499999999999
 21
28.32499999999999
 31
0.0
  0
LINE
  5
B44
  8
3
 10
11.375
 20
37.31999999999999
 30
0.0
 11
16.125
 21
37.31999999999999
 31
0.0
  0
LINE
  5
B45
  8
3
 10
6.625
 20
37.31999999999999
 30
0.0
 11
11.375
 21
37.31999999999999
 31
0.0
  0
LINE
  5
B55
  8
3
 10
20.625
 20
28.32499999999999
 30
0.0
 11
26.97499999999999
 21
24.50953506919998
 31
0.0
  0
LINE
  5
B56
  8
3
 10
26.97499999999999
 20
24.50953506919998
 30
0.0
 11
33.32499999999999
 21
28.32499999999999
 31
0.0
  0
LINE
  5
B57
  8
3
 10
20.625
 20
34.92499999999998
 30
0.0
 11
20.625
 21
28.32499999999999
 31
0.0
  0
LINE
  5
B58
  8
3
 10
33.32499999999999
 20
28.32499999999999
 30
0.0
 11
33.32499999999999
 21
34.92499999999998
 31
0.0
  0
LINE
  5
B59
  8
3
 10
6.625
 20
37.72
 30
0.0
 11
6.625
 21
37.31999999999999
 31
0.0
  0
LINE
  5
B5A
  8
3
 10
16.125
 20
37.31999999999999
 30
0.0
 11
16.125
 21
37.72
 31
0.0
  0
LINE
  5
B5B
  8
1
 10
20.04999999999998
 20
-34.92500000000001
 30
0.0
 11
20.04999999999998
 21
34.92499999999998
 31
0.0
  0
LINE
  5
B5C
  8
1
 10
1.299999999999983
 20
-34.625
 30
0.0
 11
1.299999999999983
 21
34.625
 31
0.0
  0
LINE
  5
B5F
  8
1
 10
12.55500000000001
 20
-43.00413183130001
 30
0.0
 11
12.55500000000001
 21
42.79577481850001
 31
0.0
  0
LINE
  5
B60
  8
1
 10
9.704999999999984
 20
-43.00421493109999
 30
0.0
 11
9.704999999999984
 21
42.7957705776
 31
0.0
  0
LINE
  5
B62
  8
1
 10
18.25
 20
47.3314147463
 30
0.0
 11
18.25
 21
-47.29184187660002
 31
0.0
  0
LINE
  5
B64
  8
1
 10
2.299999999999983
 20
-46.74795854910002
 30
0.0
 11
2.299999999999983
 21
46.80267576719999
 31
0.0
  0
LINE
  5
CD6
  8
1
 10
51.12499999999999
 20
-46.05000000000001
 30
0.0
 11
303.8000000000001
 21
-46.05000000000001
 31
0.0
  0
LINE
  5
CD8
  8
1
 10
303.8000000000001
 20
46.05000000000001
 30
0.0
 11
51.12500000000003
 21
46.05000000000001
 31
0.0
  0
ARC
  5
CD9
  8
1
 10
303.8000000000001
 20
-45.05000000000001
 30
0.0
 40
1.000000000000227
 50
270.0
 51
0.0
  0
ARC
  5
CDA
  8
1
 10
303.8000000000001
 20
45.05000000000001
 30
0.0
 40
1.000000000000227
 50
0.0
 51
90.0
  0
LINE
  5
CDB
  8
1
 10
51.125
 20
46.05000000000001
 30
0.0
 11
40.58578643769988
 21
35.51078643760002
 31
0.0
  0
LINE
  5
CDC
  8
1
 10
40.58578643769988
 20
-35.51078643760002
 30
0.0
 11
51.125
 21
-46.05000000000001
 31
0.0
  0
ARC
  5
CE1
  8
1
 10
39.17157287529994
 20
-36.92500000000001
 30
0.0
 40
2.000000000000177
 50
44.9999999999977
 51
90.0
  0
LINE
  5
D01
  8
1
 10
304.8000000000001
 20
-41.28131000000002
 30
0.0
 11
304.8285674555001
 21
-41.28131000000002
 31
0.0
  0
LINE
  5
D02
  8
1
 10
304.8285674555001
 20
41.28131000000002
 30
0.0
 11
304.8000000000001
 21
41.28131000000002
 31
0.0
  0
LINE
  5
D20
  8
1
 10
51.125
 20
0.0
 30
0.0
 11
51.125
 21
46.05000000000001
 31
0.0
  0
LINE
  5
D21
  8
1
 10
51.125
 20
-46.05000000000001
 30
0.0
 11
51.125
 21
0.0
 31
0.0
  0
CIRCLE
  5
D22
  8
1
 10
286.8000000000001
 20
0.0
 30
0.0
 40
2.624999999999545
  0
LINE
  5
D23
  8
1
 10
304.8000000000001
 20
0.0
 30
0.0
 11
304.8000000000001
 21
45.05000000000001
 31
0.0
  0
LINE
  5
D24
  8
1
 10
304.8000000000001
 20
-45.05000000000001
 30
0.0
 11
304.8000000000001
 21
0.0
 31
0.0
  0
LINE
  5
D3D
  8
1
 10
285.5500000000001
 20
-0.7216878364999957
 30
0.0
 11
286.8000000000001
 21
-1.443375672999991
 31
0.0
  0
LINE
  5
D3E
  8
1
 10
288.0500000000001
 20
-0.7216878364999957
 30
0.0
 11
286.8000000000001
 21
-1.443375672999991
 31
0.0
  0
LINE
  5
D3F
  8
1
 10
288.0500000000001
 20
0.7216878364999957
 30
0.0
 11
288.0500000000001
 21
-0.7216878364999957
 31
0.0
  0
LINE
  5
D40
  8
1
 10
288.0500000000001
 20
0.7216878364999957
 30
0.0
 11
286.8000000000001
 21
1.443375672999991
 31
0.0
  0
LINE
  5
D41
  8
1
 10
285.5500000000001
 20
0.7216878364999957
 30
0.0
 11
286.8000000000001
 21
1.443375672999991
 31
0.0
  0
LINE
  5
D42
  8
1
 10
285.5500000000001
 20
0.7216878364999957
 30
0.0
 11
285.5500000000001
 21
-0.7216878364999957
 31
0.0
  0
CIRCLE
  5
D43
  8
1
 10
286.8000000000001
 20
0.0
 30
0.0
 40
2.055000000000007
  0
CIRCLE
  5
D44
  8
1
 10
286.8000000000001
 20
0.0
 30
0.0
 40
2.256103126842163
  0
CIRCLE
  5
D45
  8
1
 10
286.8000000000001
 20
0.0
 30
0.0
 40
2.5
  0
POLYLINE
  5
D46
  8
3
 66
     1
 10
0.0
 20
0.0
 30
0.0
  0
VERTEX
  5
32C5
  8
3
 10
286.8000000000001
 20
-38.5031238963
 30
0.0
  0
VERTEX
  5
32C6
  8
3
 10
285.9319102512001
 20
-38.5840677727
 30
0.0
  0
VERTEX
  5
32C7
  8
3
 10
285.1617010266001
 20
-38.81539506140001
 30
0.0
  0
VERTEX
  5
32C8
  8
3
 10
284.5753100630001
 20
-39.16554367060002
 30
0.0
  0
VERTEX
  5
32C9
  8
3
 10
284.2394093546001
 20
-39.5883651785
 30
0.0
  0
VERTEX
  5
32CA
  8
3
 10
284.1924176450999
 20
-40.0305592432
 30
0.0
  0
VERTEX
  5
32CB
  8
3
 10
284.4387017675
 20
-40.44144833199999
 30
0.0
  0
VERTEX
  5
32CC
  8
3
 10
284.9505642488999
 20
-40.77925103960001
 30
0.0
  0
VERTEX
  5
32CD
  8
3
 10
285.6715514444
 20
-41.01265015069998
 30
0.0
  0
VERTEX
  5
32CE
  8
3
 10
286.5200409179
 20
-41.12137624499996
 30
0.0
  0
VERTEX
  5
32CF
  8
3
 10
287.3989828906
 20
-41.09687656900002
 30
0.0
  0
VERTEX
  5
32D0
  8
3
 10
288.2098787038
 20
-40.94146195569999
 30
0.0
  0
VERTEX
  5
32D1
  8
3
 10
288.8628879322999
 20
-40.66733624879998
 30
0.0
  0
VERTEX
  5
32D2
  8
3
 10
289.284055382
 20
-40.29798987699996
 30
0.0
  0
VERTEX
  5
32D3
  8
3
 10
289.4249114968001
 20
-39.86968778609997
 30
0.0
  0
VERTEX
  5
32D4
  8
3
 10
289.2702138546
 20
-39.42901817379999
 30
0.0
  0
VERTEX
  5
32D5
  8
3
 10
288.8379038744999
 20
-39.02743925839997
 30
0.0
  0
VERTEX
  5
32D6
  8
3
 10
288.1755690118001
 20
-38.7155823471
 30
0.0
  0
VERTEX
  5
32D7
  8
3
 10
287.3575140158999
 20
-38.53599489160001
 30
0.0
  0
VERTEX
  5
32D8
  8
3
 10
286.8000000000001
 20
-38.5031238963
 30
0.0
  0
SEQEND
  5
374C
  8
3
  0
POLYLINE
  5
D49
  8
3
 66
     1
 10
0.0
 20
0.0
 30
0.0
  0
VERTEX
  5
32D9
  8
3
 10
286.8000000000001
 20
41.1281238963
 30
0.0
  0
VERTEX
  5
32DA
  8
3
 10
285.9319102512001
 20
41.06137380709998
 30
0.0
  0
VERTEX
  5
32DB
  8
3
 10
285.1617010266001
 20
40.86639517690003
 30
0.0
  0
VERTEX
  5
32DC
  8
3
 10
284.5753100630001
 20
40.55887768790001
 30
0.0
  0
VERTEX
  5
32DD
  8
3
 10
284.2394093546001
 20
40.16629298240002
 30
0.0
  0
VERTEX
  5
32DE
  8
3
 10
284.1924176450999
 20
39.72866644390001
 30
0.0
  0
VERTEX
  5
32DF
  8
3
 10
284.4387017675
 20
39.29475933449999
 30
0.0
  0
VERTEX
  5
32E0
  8
3
 10
284.9505642488999
 20
38.91640042770001
 30
0.0
  0
VERTEX
  5
32E1
  8
3
 10
285.6715514444
 20
38.64258077250003
 30
0.0
  0
VERTEX
  5
32E2
  8
3
 10
285.7175370205999
 20
38.6354683463
 30
0.0
  0
SEQEND
  5
374B
  8
3
  0
POLYLINE
  5
D4A
  8
3
 66
     1
 10
0.0
 20
0.0
 30
0.0
  0
VERTEX
  5
32E3
  8
3
 10
288.0116937104
 20
38.68173901
 30
0.0
  0
VERTEX
  5
32E4
  8
3
 10
288.2098787038
 20
38.72722008980003
 30
0.0
  0
VERTEX
  5
32E5
  8
3
 10
288.8628879322999
 20
39.04403147800002
 30
0.0
  0
VERTEX
  5
32E6
  8
3
 10
289.284055382
 20
39.44940643429999
 30
0.0
  0
VERTEX
  5
32E7
  8
3
 10
289.4249114968001
 20
39.89124316440001
 30
0.0
  0
VERTEX
  5
32E8
  8
3
 10
289.2702138546
 20
40.31708827950001
 30
0.0
  0
VERTEX
  5
32E9
  8
3
 10
288.8379038744999
 20
40.68200046869998
 30
0.0
  0
VERTEX
  5
32EA
  8
3
 10
288.1755690118001
 20
40.9513003289
 30
0.0
  0
VERTEX
  5
32EB
  8
3
 10
287.3575140158999
 20
41.10110758349998
 30
0.0
  0
VERTEX
  5
32EC
  8
3
 10
286.8000000000001
 20
41.1281238963
 30
0.0
  0
SEQEND
  5
374A
  8
3
  0
CIRCLE
  5
D4B
  8
3
 10
286.8000000000001
 20
0.0
 30
0.0
 40
2.100000000000136
  0
LINE
  5
D4D
  8
3
 10
286.4
 20
-2.061552812800016
 30
0.0
 11
286.4
 21
-2.5
 31
0.0
  0
LINE
  5
D4E
  8
3
 10
286.4
 20
2.5
 30
0.0
 11
286.4
 21
2.061552812800016
 31
0.0
  0
POLYLINE
  5
D62
  8
3
 66
     1
 10
0.0
 20
0.0
 30
0.0
  0
VERTEX
  5
32ED
  8
3
 10
286.8000000000001
 20
-6.289519393099965
 30
0.0
  0
VERTEX
  5
32EE
  8
3
 10
287.4836275223
 20
-6.370553140799984
 30
0.0
  0
VERTEX
  5
32EF
  8
3
 10
288.0899821285999
 20
-6.595509683199964
 30
0.0
  0
VERTEX
  5
32F0
  8
3
 10
288.5634566776999
 20
-6.926588517200003
 30
0.0
  0
VERTEX
  5
32F1
  8
3
 10
288.8431502273
 20
-7.307133325099983
 30
0.0
  0
VERTEX
  5
32F2
  8
3
 10
288.8890324257001
 20
-7.666377669399992
 30
0.0
  0
VERTEX
  5
32F3
  8
3
 10
288.7086125756001
 20
-7.961289317299986
 30
0.0
  0
VERTEX
  5
32F4
  8
3
 10
288.3225929486999
 20
-8.1801650699
 30
0.0
  0
VERTEX
  5
32F5
  8
3
 10
287.7576078879
 20
-8.320700715499981
 30
0.0
  0
VERTEX
  5
32F6
  8
3
 10
287.0786985691001
 20
-8.384199031200012
 30
0.0
  0
VERTEX
  5
32F7
  8
3
 10
286.383540312
 20
-8.377521035499967
 30
0.0
  0
VERTEX
  5
32F8
  8
3
 10
285.7448975405999
 20
-8.304028753900013
 30
0.0
  0
VERTEX
  5
32F9
  8
3
 10
285.2112524979999
 20
-8.154008264799984
 30
0.0
  0
VERTEX
  5
32FA
  8
3
 10
284.8444397401
 20
-7.915059897800006
 30
0.0
  0
VERTEX
  5
32FB
  8
3
 10
284.7012374041
 20
-7.597266773199976
 30
0.0
  0
VERTEX
  5
32FC
  8
3
 10
284.7913604378001
 20
-7.236509536899973
 30
0.0
  0
VERTEX
  5
32FD
  8
3
 10
285.0953095010001
 20
-6.873328137899989
 30
0.0
  0
VERTEX
  5
32FE
  8
3
 10
285.5917888718001
 20
-6.554917776100012
 30
0.0
  0
VERTEX
  5
32FF
  8
3
 10
286.2350433762
 20
-6.344519781200006
 30
0.0
  0
VERTEX
  5
3300
  8
3
 10
286.8000000000001
 20
-6.289519393099965
 30
0.0
  0
SEQEND
  5
3749
  8
3
  0
POLYLINE
  5
D63
  8
3
 66
     1
 10
0.0
 20
0.0
 30
0.0
  0
VERTEX
  5
3301
  8
3
 10
286.8000000000001
 20
8.389519393099988
 30
0.0
  0
VERTEX
  5
3302
  8
3
 10
287.4836275223
 20
8.356164737000029
 30
0.0
  0
VERTEX
  5
3303
  8
3
 10
288.0899821285999
 20
8.25259933320001
 30
0.0
  0
VERTEX
  5
3304
  8
3
 10
288.5634566776999
 20
8.066860653999981
 30
0.0
  0
VERTEX
  5
3305
  8
3
 10
288.8431502273
 20
7.792455021600006
 30
0.0
  0
VERTEX
  5
3306
  8
3
 10
288.8890324257001
 20
7.452033262700013
 30
0.0
  0
VERTEX
  5
3307
  8
3
 10
288.7086125756001
 20
7.085390900600032
 30
0.0
  0
VERTEX
  5
3308
  8
3
 10
288.3225929486999
 20
6.733890299099983
 30
0.0
  0
VERTEX
  5
3309
  8
3
 10
287.7576078879
 20
6.451747229500029
 30
0.0
  0
VERTEX
  5
330A
  8
3
 10
287.0786985691001
 20
6.302774733399986
 30
0.0
  0
VERTEX
  5
330B
  8
3
 10
286.383540312
 20
6.319230160000018
 30
0.0
  0
VERTEX
  5
330C
  8
3
 10
285.7448975405999
 20
6.488330871500011
 30
0.0
  0
VERTEX
  5
330D
  8
3
 10
285.2112524979999
 20
6.780734302899987
 30
0.0
  0
VERTEX
  5
330E
  8
3
 10
284.8444397401
 20
7.149694580100004
 30
0.0
  0
VERTEX
  5
330F
  8
3
 10
284.7012374041
 20
7.525186499699998
 30
0.0
  0
VERTEX
  5
3310
  8
3
 10
284.7913604378001
 20
7.849181642500014
 30
0.0
  0
VERTEX
  5
3311
  8
3
 10
285.0953095010001
 20
8.09971726980001
 30
0.0
  0
VERTEX
  5
3312
  8
3
 10
285.5917888718001
 20
8.272539931799997
 30
0.0
  0
VERTEX
  5
3313
  8
3
 10
286.2350433762
 20
8.367098336699996
 30
0.0
  0
VERTEX
  5
3314
  8
3
 10
286.8000000000001
 20
8.389519393099988
 30
0.0
  0
SEQEND
  5
3748
  8
3
  0
LINE
  5
D64
  8
3
 10
286.8000000000001
 20
41.27474999999998
 30
0.0
 11
286.8000000000001
 21
25.40525000000002
 31
0.0
  0
LINE
  5
D65
  8
3
 10
286.8000000000001
 20
-25.40524999999997
 30
0.0
 11
286.8000000000001
 21
-41.27474999999998
 31
0.0
  0
POLYLINE
  5
D6A
  8
3
 66
     1
 10
0.0
 20
0.0
 30
0.0
  0
VERTEX
  5
3315
  8
3
 10
286.8000000000001
 20
39.60978110349998
 30
0.0
  0
VERTEX
  5
3316
  8
3
 10
287.6036352079999
 20
39.52985461270003
 30
0.0
  0
VERTEX
  5
3317
  8
3
 10
288.2849242405001
 20
39.30224322380002
 30
0.0
  0
VERTEX
  5
3318
  8
3
 10
288.7401470183
 20
38.9615987075
 30
0.0
  0
VERTEX
  5
3319
  8
3
 10
288.9
 20
38.55978110350003
 30
0.0
  0
VERTEX
  5
331A
  8
3
 10
288.7401470183
 20
38.1579634995
 30
0.0
  0
VERTEX
  5
331B
  8
3
 10
288.2849242405001
 20
37.81731898330003
 30
0.0
  0
VERTEX
  5
331C
  8
3
 10
287.6036352079999
 20
37.58970759440001
 30
0.0
  0
VERTEX
  5
331D
  8
3
 10
286.8000000000001
 20
37.50978110350002
 30
0.0
  0
VERTEX
  5
331E
  8
3
 10
285.9963647921
 20
37.58970759440001
 30
0.0
  0
VERTEX
  5
331F
  8
3
 10
285.3150757596001
 20
37.81731898330003
 30
0.0
  0
VERTEX
  5
3320
  8
3
 10
284.8598529817999
 20
38.1579634995
 30
0.0
  0
VERTEX
  5
3321
  8
3
 10
284.6999999999999
 20
38.55978110350003
 30
0.0
  0
VERTEX
  5
3322
  8
3
 10
284.8598529817999
 20
38.9615987075
 30
0.0
  0
VERTEX
  5
3323
  8
3
 10
285.3150757596001
 20
39.30224322380002
 30
0.0
  0
VERTEX
  5
3324
  8
3
 10
285.9963647921
 20
39.52985461270003
 30
0.0
  0
VERTEX
  5
3325
  8
3
 10
286.8000000000001
 20
39.60978110349998
 30
0.0
  0
SEQEND
  5
3747
  8
3
  0
POLYLINE
  5
D6B
  8
3
 66
     1
 10
0.0
 20
0.0
 30
0.0
  0
VERTEX
  5
3326
  8
3
 10
286.4
 20
9.868834375199981
 30
0.0
  0
VERTEX
  5
3327
  8
3
 10
286.8473563579998
 20
9.899172978299987
 30
0.0
  0
VERTEX
  5
3328
  8
3
 10
287.2888445098
 20
9.854510541699995
 30
0.0
  0
VERTEX
  5
3329
  8
3
 10
287.8401532598001
 20
9.731853179200016
 30
0.0
  0
VERTEX
  5
332A
  8
3
 10
288.4437874582001
 20
9.625232230800009
 30
0.0
  0
VERTEX
  5
332B
  8
3
 10
288.7590104003001
 20
9.682547507700008
 30
0.0
  0
VERTEX
  5
332C
  8
3
 10
288.8895538257999
 20
9.862285545299983
 30
0.0
  0
VERTEX
  5
332D
  8
3
 10
288.8680938015001
 20
10.16478781640001
 30
0.0
  0
VERTEX
  5
332E
  8
3
 10
288.7116638322001
 20
10.52897887749998
 30
0.0
  0
VERTEX
  5
332F
  8
3
 10
288.3396379611
 20
11.06137566440003
 30
0.0
  0
VERTEX
  5
3330
  8
3
 10
287.8236633758
 20
11.56945416669998
 30
0.0
  0
VERTEX
  5
3331
  8
3
 10
287.3074827834999
 20
11.88898069679999
 30
0.0
  0
VERTEX
  5
3332
  8
3
 10
286.8971279719
 20
11.99549033030002
 30
0.0
  0
VERTEX
  5
3333
  8
3
 10
286.4728359679001
 20
11.9531156548
 30
0.0
  0
VERTEX
  5
3334
  8
3
 10
286.4
 20
11.930387188
 30
0.0
  0
SEQEND
  5
3746
  8
3
  0
ARC
  5
D6C
  8
3
 10
288.7494669217
 20
13.15513205939999
 30
0.0
 40
2.649527281631026
 50
152.467586947801
 51
207.5324130521989
  0
POLYLINE
  5
D6D
  8
3
 66
     1
 10
0.0
 20
0.0
 30
0.0
  0
VERTEX
  5
3335
  8
3
 10
286.4
 20
14.37987693079998
 30
0.0
  0
VERTEX
  5
3336
  8
3
 10
286.8473563579998
 20
14.34953832770003
 30
0.0
  0
VERTEX
  5
3337
  8
3
 10
287.2888445098
 20
14.39420076430002
 30
0.0
  0
VERTEX
  5
3338
  8
3
 10
287.8401532598001
 20
14.5168581268
 30
0.0
  0
VERTEX
  5
3339
  8
3
 10
288.4437874582001
 20
14.62347907520001
 30
0.0
  0
VERTEX
  5
333A
  8
3
 10
288.7590104003001
 20
14.56616379830001
 30
0.0
  0
VERTEX
  5
333B
  8
3
 10
288.8895538257999
 20
14.38642576080002
 30
0.0
  0
VERTEX
  5
333C
  8
3
 10
288.8680938015001
 20
14.08392348960001
 30
0.0
  0
VERTEX
  5
333D
  8
3
 10
288.7116638322001
 20
13.71973242849998
 30
0.0
  0
VERTEX
  5
333E
  8
3
 10
288.3396379611
 20
13.18733564159999
 30
0.0
  0
VERTEX
  5
333F
  8
3
 10
287.8236633758
 20
12.67925713930003
 30
0.0
  0
VERTEX
  5
3340
  8
3
 10
287.3074827834999
 20
12.35973060920003
 30
0.0
  0
VERTEX
  5
3341
  8
3
 10
286.8971279719
 20
12.2532209757
 30
0.0
  0
VERTEX
  5
3342
  8
3
 10
286.4728359679001
 20
12.29559565120002
 30
0.0
  0
VERTEX
  5
3343
  8
3
 10
286.4
 20
12.31832411800002
 30
0.0
  0
SEQEND
  5
3745
  8
3
  0
ARC
  5
D6E
  8
3
 10
288.7494669217
 20
11.09357924660003
 30
0.0
 40
2.649527281631026
 50
152.467586947801
 51
207.5324130521989
  0
POLYLINE
  5
D6F
  8
3
 66
     1
 10
0.0
 20
0.0
 30
0.0
  0
VERTEX
  5
3344
  8
3
 10
286.8000000000001
 20
-37.50978110350002
 30
0.0
  0
VERTEX
  5
3345
  8
3
 10
287.6036352079999
 20
-37.58970759429997
 30
0.0
  0
VERTEX
  5
3346
  8
3
 10
288.2849242405001
 20
-37.81731898319998
 30
0.0
  0
VERTEX
  5
3347
  8
3
 10
288.7401470183
 20
-38.1579634995
 30
0.0
  0
VERTEX
  5
3348
  8
3
 10
288.9
 20
-38.55978110349997
 30
0.0
  0
VERTEX
  5
3349
  8
3
 10
288.7401470183
 20
-38.9615987075
 30
0.0
  0
VERTEX
  5
334A
  8
3
 10
288.2849242405001
 20
-39.30224322369997
 30
0.0
  0
VERTEX
  5
334B
  8
3
 10
287.6036352079999
 20
-39.52985461259999
 30
0.0
  0
VERTEX
  5
334C
  8
3
 10
286.8000000000001
 20
-39.60978110349998
 30
0.0
  0
VERTEX
  5
334D
  8
3
 10
285.9963647921
 20
-39.52985461259999
 30
0.0
  0
VERTEX
  5
334E
  8
3
 10
285.3150757596001
 20
-39.30224322369997
 30
0.0
  0
VERTEX
  5
334F
  8
3
 10
284.8598529817999
 20
-38.9615987075
 30
0.0
  0
VERTEX
  5
3350
  8
3
 10
284.6999999999999
 20
-38.55978110349997
 30
0.0
  0
VERTEX
  5
3351
  8
3
 10
284.8598529817999
 20
-38.1579634995
 30
0.0
  0
VERTEX
  5
3352
  8
3
 10
285.3150757596001
 20
-37.81731898319998
 30
0.0
  0
VERTEX
  5
3353
  8
3
 10
285.9963647921
 20
-37.58970759429997
 30
0.0
  0
VERTEX
  5
3354
  8
3
 10
286.8000000000001
 20
-37.50978110350002
 30
0.0
  0
SEQEND
  5
3744
  8
3
  0
POLYLINE
  5
D70
  8
3
 66
     1
 10
0.0
 20
0.0
 30
0.0
  0
VERTEX
  5
3355
  8
3
 10
286.4
 20
-12.31832411789998
 30
0.0
  0
VERTEX
  5
3356
  8
3
 10
286.8473563579998
 20
-12.25007235379996
 30
0.0
  0
VERTEX
  5
3357
  8
3
 10
287.2888445098
 20
-12.35189054159997
 30
0.0
  0
VERTEX
  5
3358
  8
3
 10
287.8401532598001
 20
-12.69255519239999
 30
0.0
  0
VERTEX
  5
3359
  8
3
 10
288.4437874582001
 20
-13.31658856999996
 30
0.0
  0
VERTEX
  5
335A
  8
3
 10
288.7590104003001
 20
-13.80967305029998
 30
0.0
  0
VERTEX
  5
335B
  8
3
 10
288.8895538257999
 20
-14.17722535619998
 30
0.0
  0
VERTEX
  5
335C
  8
3
 10
288.8680938015001
 20
-14.44859872659998
 30
0.0
  0
VERTEX
  5
335D
  8
3
 10
288.7116638322001
 20
-14.58895126909999
 30
0.0
  0
VERTEX
  5
335E
  8
3
 10
288.3396379611
 20
-14.61545151529998
 30
0.0
  0
VERTEX
  5
335F
  8
3
 10
287.8236633758
 20
-14.51286377459996
 30
0.0
  0
VERTEX
  5
3360
  8
3
 10
287.3074827834999
 20
-14.3974894822
 30
0.0
  0
VERTEX
  5
3361
  8
3
 10
286.8971279719
 20
-14.35097362009998
 30
0.0
  0
VERTEX
  5
3362
  8
3
 10
286.4728359679001
 20
-14.36995427400001
 30
0.0
  0
VERTEX
  5
3363
  8
3
 10
286.4
 20
-14.37987693079998
 30
0.0
  0
SEQEND
  5
3743
  8
3
  0
ARC
  5
D71
  8
3
 10
288.7119647216001
 20
-13.15513205939999
 30
0.0
 40
2.616329656942201
 50
152.0879510019998
 51
207.9120489980002
  0
POLYLINE
  5
D72
  8
3
 66
     1
 10
0.0
 20
0.0
 30
0.0
  0
VERTEX
  5
3364
  8
3
 10
286.4
 20
-11.930387188
 30
0.0
  0
VERTEX
  5
3365
  8
3
 10
286.8473563579998
 20
-11.99863895210001
 30
0.0
  0
VERTEX
  5
3366
  8
3
 10
287.2888445098
 20
-11.8968207643
 30
0.0
  0
VERTEX
  5
3367
  8
3
 10
287.8401532598001
 20
-11.55615611349998
 30
0.0
  0
VERTEX
  5
3368
  8
3
 10
288.4437874582001
 20
-10.93212273590001
 30
0.0
  0
VERTEX
  5
3369
  8
3
 10
288.7590104003001
 20
-10.43903825569998
 30
0.0
  0
VERTEX
  5
336A
  8
3
 10
288.8895538257999
 20
-10.07148594979998
 30
0.0
  0
VERTEX
  5
336B
  8
3
 10
288.8680938015001
 20
-9.800112579399979
 30
0.0
  0
VERTEX
  5
336C
  8
3
 10
288.7116638322001
 20
-9.65976003679998
 30
0.0
  0
VERTEX
  5
336D
  8
3
 10
288.3396379611
 20
-9.63325979069998
 30
0.0
  0
VERTEX
  5
336E
  8
3
 10
287.8236633758
 20
-9.73584753130001
 30
0.0
  0
VERTEX
  5
336F
  8
3
 10
287.3074827834999
 20
-9.851221823699973
 30
0.0
  0
VERTEX
  5
3370
  8
3
 10
286.8971279719
 20
-9.897737685799996
 30
0.0
  0
VERTEX
  5
3371
  8
3
 10
286.4728359679001
 20
-9.878757031899966
 30
0.0
  0
VERTEX
  5
3372
  8
3
 10
286.4
 20
-9.868834375199981
 30
0.0
  0
SEQEND
  5
3742
  8
3
  0
ARC
  5
D73
  8
3
 10
288.7119647216001
 20
-11.09357924659997
 30
0.0
 40
2.616329656942201
 50
152.0879510019998
 51
207.9120489980002
  0
LINE
  5
D74
  8
3
 10
286.4
 20
9.868834375199981
 30
0.0
 11
286.4
 21
11.930387188
 31
0.0
  0
LINE
  5
D75
  8
3
 10
286.4
 20
14.37987693079998
 30
0.0
 11
286.4
 21
11.930387188
 31
0.0
  0
LINE
  5
D76
  8
3
 10
286.4
 20
-11.930387188
 30
0.0
 11
286.4
 21
-9.868834375199981
 31
0.0
  0
LINE
  5
D77
  8
3
 10
286.4
 20
-11.930387188
 30
0.0
 11
286.4
 21
-14.37987693079998
 31
0.0
  0
POLYLINE
  5
D78
  8
3
 66
     1
 10
0.0
 20
0.0
 30
0.0
  0
VERTEX
  5
3373
  8
3
 10
286.8000000000001
 20
40.32694444050003
 30
0.0
  0
VERTEX
  5
3374
  8
3
 10
287.7482593737999
 20
40.23831424159999
 30
0.0
  0
VERTEX
  5
3375
  8
3
 10
288.5684510646
 20
39.98439364440003
 30
0.0
  0
VERTEX
  5
3376
  8
3
 10
289.1498036398001
 20
39.59947603250004
 30
0.0
  0
VERTEX
  5
3377
  8
3
 10
289.4138022128001
 20
39.13554666229999
 30
0.0
  0
VERTEX
  5
3378
  8
3
 10
289.3247923134
 20
38.65526176600002
 30
0.0
  0
VERTEX
  5
3379
  8
3
 10
288.8947952217001
 20
38.22348648029998
 30
0.0
  0
VERTEX
  5
337A
  8
3
 10
288.1818844276
 20
37.89853444990001
 30
0.0
  0
VERTEX
  5
337B
  8
3
 10
287.2823424843001
 20
37.72429224720003
 30
0.0
  0
VERTEX
  5
337C
  8
3
 10
286.3176575158001
 20
37.72429224720003
 30
0.0
  0
VERTEX
  5
337D
  8
3
 10
285.4181155724999
 20
37.89853444990001
 30
0.0
  0
VERTEX
  5
337E
  8
3
 10
284.7052047784001
 20
38.22348648029998
 30
0.0
  0
VERTEX
  5
337F
  8
3
 10
284.2752076866999
 20
38.65526176600002
 30
0.0
  0
VERTEX
  5
3380
  8
3
 10
284.1861977873001
 20
39.13554666229999
 30
0.0
  0
VERTEX
  5
3381
  8
3
 10
284.4501963602
 20
39.59947603250004
 30
0.0
  0
VERTEX
  5
3382
  8
3
 10
285.0315489354999
 20
39.98439364440003
 30
0.0
  0
VERTEX
  5
3383
  8
3
 10
285.8517406262999
 20
40.23831424159999
 30
0.0
  0
VERTEX
  5
3384
  8
3
 10
286.8000000000001
 20
40.32694444050003
 30
0.0
  0
SEQEND
  5
3741
  8
3
  0
POLYLINE
  5
D79
  8
3
 66
     1
 10
0.0
 20
0.0
 30
0.0
  0
VERTEX
  5
3385
  8
3
 10
286.8000000000001
 20
-37.70194444049997
 30
0.0
  0
VERTEX
  5
3386
  8
3
 10
287.7482593737999
 20
-37.79057463940001
 30
0.0
  0
VERTEX
  5
3387
  8
3
 10
288.5684510646
 20
-38.04449523659997
 30
0.0
  0
VERTEX
  5
3388
  8
3
 10
289.1498036398001
 20
-38.42941284849996
 30
0.0
  0
VERTEX
  5
3389
  8
3
 10
289.4138022128001
 20
-38.89334221870001
 30
0.0
  0
VERTEX
  5
338A
  8
3
 10
289.3247923134
 20
-39.37362711489999
 30
0.0
  0
VERTEX
  5
338B
  8
3
 10
288.8947952217001
 20
-39.80540240070002
 30
0.0
  0
VERTEX
  5
338C
  8
3
 10
288.1818844276
 20
-40.13035443109999
 30
0.0
  0
VERTEX
  5
338D
  8
3
 10
287.2823424843001
 20
-40.30459663379997
 30
0.0
  0
VERTEX
  5
338E
  8
3
 10
286.3176575158001
 20
-40.30459663379997
 30
0.0
  0
VERTEX
  5
338F
  8
3
 10
285.4181155724999
 20
-40.13035443109999
 30
0.0
  0
VERTEX
  5
3390
  8
3
 10
284.7052047784001
 20
-39.80540240070002
 30
0.0
  0
VERTEX
  5
3391
  8
3
 10
284.2752076866999
 20
-39.37362711489999
 30
0.0
  0
VERTEX
  5
3392
  8
3
 10
284.1861977873001
 20
-38.89334221870001
 30
0.0
  0
VERTEX
  5
3393
  8
3
 10
284.4501963602
 20
-38.42941284849996
 30
0.0
  0
VERTEX
  5
3394
  8
3
 10
285.0315489354999
 20
-38.04449523659997
 30
0.0
  0
VERTEX
  5
3395
  8
3
 10
285.8517406262999
 20
-37.79057463940001
 30
0.0
  0
VERTEX
  5
3396
  8
3
 10
286.8000000000001
 20
-37.70194444049997
 30
0.0
  0
SEQEND
  5
3740
  8
3
  0
LINE
  5
D7A
  8
3
 10
299.3859900000001
 20
0.0
 30
0.0
 11
299.3859900000001
 21
-9.524999999999977
 31
0.0
  0
LINE
  5
D7B
  8
3
 10
299.3859900000001
 20
9.525000000000034
 30
0.0
 11
299.3859900000001
 21
0.0
 31
0.0
  0
LINE
  5
D7C
  8
3
 10
298.4499999999999
 20
0.0
 30
0.0
 11
298.4499999999999
 21
-8.589009999999973
 31
0.0
  0
LINE
  5
D7D
  8
3
 10
298.4499999999999
 20
8.58901000000003
 30
0.0
 11
298.4499999999999
 21
0.0
 31
0.0
  0
LINE
  5
D87
  8
3
 10
290.3101603050001
 20
-25.39868999999999
 30
0.0
 11
290.3101603050001
 21
-41.28131000000002
 31
0.0
  0
LINE
  5
D88
  8
3
 10
289.6720395107001
 20
-25.40868999999998
 30
0.0
 11
289.6720395107001
 21
-41.27130999999997
 31
0.0
  0
LINE
  5
D89
  8
3
 10
288.7471999999999
 20
-25.65649999999999
 30
0.0
 11
288.7471999999999
 21
-41.02350000000001
 31
0.0
  0
LINE
  5
D8A
  8
3
 10
290.3101603050001
 20
41.28131000000002
 30
0.0
 11
290.3101603050001
 21
25.39868999999999
 31
0.0
  0
LINE
  5
D8B
  8
3
 10
289.6720395107001
 20
41.27131000000003
 30
0.0
 11
289.6720395107001
 21
25.40869000000004
 31
0.0
  0
LINE
  5
D8C
  8
3
 10
288.7471999999999
 20
41.02350000000001
 30
0.0
 11
288.7471999999999
 21
25.65649999999999
 31
0.0
  0
CIRCLE
  5
D8D
  8
3
 10
286.8000000000001
 20
0.0
 30
0.0
 40
2.316732743452121
  0
CIRCLE
  5
D8E
  8
3
 10
286.8000000000001
 20
0.0
 30
0.0
 40
1.749999999999943
  0
POLYLINE
  5
D8F
  8
3
 66
     1
 10
0.0
 20
0.0
 30
0.0
  0
VERTEX
  5
3397
  8
3
 10
286.8000000000001
 20
-35.5593174215
 30
0.0
  0
VERTEX
  5
3398
  8
3
 10
286.1303039933999
 20
-35.49271201249996
 30
0.0
  0
VERTEX
  5
3399
  8
3
 10
285.562563133
 20
-35.30303585510001
 30
0.0
  0
VERTEX
  5
339A
  8
3
 10
285.1832108181001
 20
-35.0191654249
 30
0.0
  0
VERTEX
  5
339B
  8
3
 10
285.0500000000001
 20
-34.6843174215
 30
0.0
  0
VERTEX
  5
339C
  8
3
 10
285.1832108181001
 20
-34.34946941819999
 30
0.0
  0
VERTEX
  5
339D
  8
3
 10
285.562563133
 20
-34.06559898799998
 30
0.0
  0
VERTEX
  5
339E
  8
3
 10
286.1303039933999
 20
-33.87592283060002
 30
0.0
  0
VERTEX
  5
339F
  8
3
 10
286.8000000000001
 20
-33.8093174215
 30
0.0
  0
VERTEX
  5
33A0
  8
3
 10
287.4696960067
 20
-33.87592283060002
 30
0.0
  0
VERTEX
  5
33A1
  8
3
 10
288.0374368670999
 20
-34.06559898799998
 30
0.0
  0
VERTEX
  5
33A2
  8
3
 10
288.4167891819001
 20
-34.34946941819999
 30
0.0
  0
VERTEX
  5
33A3
  8
3
 10
288.5500000000001
 20
-34.6843174215
 30
0.0
  0
VERTEX
  5
33A4
  8
3
 10
288.4167891819001
 20
-35.0191654249
 30
0.0
  0
VERTEX
  5
33A5
  8
3
 10
288.0374368670999
 20
-35.30303585510001
 30
0.0
  0
VERTEX
  5
33A6
  8
3
 10
287.4696960067
 20
-35.49271201249996
 30
0.0
  0
VERTEX
  5
33A7
  8
3
 10
286.8000000000001
 20
-35.5593174215
 30
0.0
  0
SEQEND
  5
373F
  8
3
  0
POLYLINE
  5
D90
  8
3
 66
     1
 10
0.0
 20
0.0
 30
0.0
  0
VERTEX
  5
33A8
  8
3
 10
284.4832672566
 20
-35.17512237450001
 30
0.0
  0
VERTEX
  5
33A9
  8
3
 10
284.6596180360999
 20
-34.73183475550002
 30
0.0
  0
VERTEX
  5
33AA
  8
3
 10
285.1618225669
 20
-34.356033658
 30
0.0
  0
VERTEX
  5
33AB
  8
3
 10
285.9134247619
 20
-34.10493139249996
 30
0.0
  0
VERTEX
  5
33AC
  8
3
 10
286.8000000000001
 20
-34.01675600279998
 30
0.0
  0
VERTEX
  5
33AD
  8
3
 10
287.6865752381999
 20
-34.10493139249996
 30
0.0
  0
VERTEX
  5
33AE
  8
3
 10
288.4381774330999
 20
-34.356033658
 30
0.0
  0
VERTEX
  5
33AF
  8
3
 10
288.940381964
 20
-34.73183475550002
 30
0.0
  0
VERTEX
  5
33B0
  8
3
 10
289.1167327434999
 20
-35.17512237450001
 30
0.0
  0
VERTEX
  5
33B1
  8
3
 10
288.940381964
 20
-35.61840999359998
 30
0.0
  0
VERTEX
  5
33B2
  8
3
 10
288.4381774330999
 20
-35.9942110911
 30
0.0
  0
VERTEX
  5
33B3
  8
3
 10
287.6865752381999
 20
-36.24531335649999
 30
0.0
  0
VERTEX
  5
33B4
  8
3
 10
286.8000000000001
 20
-36.33348874629996
 30
0.0
  0
VERTEX
  5
33B5
  8
3
 10
285.9134247619
 20
-36.24531335649999
 30
0.0
  0
VERTEX
  5
33B6
  8
3
 10
285.1618225669
 20
-35.9942110911
 30
0.0
  0
VERTEX
  5
33B7
  8
3
 10
284.6596180360999
 20
-35.61840999359998
 30
0.0
  0
VERTEX
  5
33B8
  8
3
 10
284.4832672566
 20
-35.17512237450001
 30
0.0
  0
SEQEND
  5
373E
  8
3
  0
POLYLINE
  5
D91
  8
3
 66
     1
 10
0.0
 20
0.0
 30
0.0
  0
VERTEX
  5
33B9
  8
3
 10
288.8549999999999
 20
-35.33383645999999
 30
0.0
  0
VERTEX
  5
33BA
  8
3
 10
288.6985724392999
 20
-35.72704368680002
 30
0.0
  0
VERTEX
  5
33BB
  8
3
 10
288.2531044353999
 20
-36.06038867770002
 30
0.0
  0
VERTEX
  5
33BC
  8
3
 10
287.5864144535
 20
-36.2831226797
 30
0.0
  0
VERTEX
  5
33BD
  8
3
 10
286.8000000000001
 20
-36.36133646000002
 30
0.0
  0
VERTEX
  5
33BE
  8
3
 10
286.0135855464999
 20
-36.2831226797
 30
0.0
  0
VERTEX
  5
33BF
  8
3
 10
285.3468955647
 20
-36.06038867770002
 30
0.0
  0
VERTEX
  5
33C0
  8
3
 10
284.9014275607
 20
-35.72704368680002
 30
0.0
  0
VERTEX
  5
33C1
  8
3
 10
284.745
 20
-35.33383645999999
 30
0.0
  0
VERTEX
  5
33C2
  8
3
 10
284.9014275607
 20
-34.9406292333
 30
0.0
  0
VERTEX
  5
33C3
  8
3
 10
285.3468955647
 20
-34.6072842424
 30
0.0
  0
VERTEX
  5
33C4
  8
3
 10
286.0135855464999
 20
-34.38455024040002
 30
0.0
  0
VERTEX
  5
33C5
  8
3
 10
286.8000000000001
 20
-34.30633646000001
 30
0.0
  0
VERTEX
  5
33C6
  8
3
 10
287.5864144535
 20
-34.38455024040002
 30
0.0
  0
VERTEX
  5
33C7
  8
3
 10
288.2531044353999
 20
-34.6072842424
 30
0.0
  0
VERTEX
  5
33C8
  8
3
 10
288.6985724392999
 20
-34.9406292333
 30
0.0
  0
VERTEX
  5
33C9
  8
3
 10
288.8549999999999
 20
-35.33383645999999
 30
0.0
  0
SEQEND
  5
373D
  8
3
  0
POLYLINE
  5
D92
  8
3
 66
     1
 10
0.0
 20
0.0
 30
0.0
  0
VERTEX
  5
33CA
  8
3
 10
289.3000000000001
 20
-35.60368335459998
 30
0.0
  0
VERTEX
  5
33CB
  8
3
 10
289.1096988313001
 20
-36.0820376451
 30
0.0
  0
VERTEX
  5
33CC
  8
3
 10
288.5677669529999
 20
-36.48756683109997
 30
0.0
  0
VERTEX
  5
33CD
  8
3
 10
287.7567085808999
 20
-36.75853277030001
 30
0.0
  0
VERTEX
  5
33CE
  8
3
 10
286.8000000000001
 20
-36.85368335459998
 30
0.0
  0
VERTEX
  5
33CF
  8
3
 10
285.8432914190998
 20
-36.75853277030001
 30
0.0
  0
VERTEX
  5
33D0
  8
3
 10
285.0322330471
 20
-36.48756683109997
 30
0.0
  0
VERTEX
  5
33D1
  8
3
 10
284.4903011688001
 20
-36.0820376451
 30
0.0
  0
VERTEX
  5
33D2
  8
3
 10
284.3000000000001
 20
-35.60368335459998
 30
0.0
  0
VERTEX
  5
33D3
  8
3
 10
284.4903011688001
 20
-35.1253290642
 30
0.0
  0
VERTEX
  5
33D4
  8
3
 10
285.0322330471
 20
-34.71979987819998
 30
0.0
  0
VERTEX
  5
33D5
  8
3
 10
285.8432914190998
 20
-34.448833939
 30
0.0
  0
VERTEX
  5
33D6
  8
3
 10
286.8000000000001
 20
-34.35368335459998
 30
0.0
  0
VERTEX
  5
33D7
  8
3
 10
287.7567085808999
 20
-34.448833939
 30
0.0
  0
VERTEX
  5
33D8
  8
3
 10
288.5677669529999
 20
-34.71979987819998
 30
0.0
  0
VERTEX
  5
33D9
  8
3
 10
289.1096988313001
 20
-35.1253290642
 30
0.0
  0
VERTEX
  5
33DA
  8
3
 10
289.3000000000001
 20
-35.60368335459998
 30
0.0
  0
SEQEND
  5
373C
  8
3
  0
POLYLINE
  5
D93
  8
3
 66
     1
 10
0.0
 20
0.0
 30
0.0
  0
VERTEX
  5
33DB
  8
3
 10
289.3000000000001
 20
-35.681722906
 30
0.0
  0
VERTEX
  5
33DC
  8
3
 10
289.1096988313001
 20
-36.16007719649997
 30
0.0
  0
VERTEX
  5
33DD
  8
3
 10
288.5677669529999
 20
-36.56560638249999
 30
0.0
  0
VERTEX
  5
33DE
  8
3
 10
287.7567085808999
 20
-36.83657232159999
 30
0.0
  0
VERTEX
  5
33DF
  8
3
 10
286.8000000000001
 20
-36.931722906
 30
0.0
  0
VERTEX
  5
33E0
  8
3
 10
285.8432914190998
 20
-36.83657232159999
 30
0.0
  0
VERTEX
  5
33E1
  8
3
 10
285.0322330471
 20
-36.56560638249999
 30
0.0
  0
VERTEX
  5
33E2
  8
3
 10
284.4903011688001
 20
-36.16007719649997
 30
0.0
  0
VERTEX
  5
33E3
  8
3
 10
284.3000000000001
 20
-35.681722906
 30
0.0
  0
VERTEX
  5
33E4
  8
3
 10
284.4903011688001
 20
-35.20336861549998
 30
0.0
  0
VERTEX
  5
33E5
  8
3
 10
285.0322330471
 20
-34.79783942950002
 30
0.0
  0
VERTEX
  5
33E6
  8
3
 10
285.8432914190998
 20
-34.52687349039996
 30
0.0
  0
VERTEX
  5
33E7
  8
3
 10
286.8000000000001
 20
-34.431722906
 30
0.0
  0
VERTEX
  5
33E8
  8
3
 10
287.7567085808999
 20
-34.52687349039996
 30
0.0
  0
VERTEX
  5
33E9
  8
3
 10
288.5677669529999
 20
-34.79783942950002
 30
0.0
  0
VERTEX
  5
33EA
  8
3
 10
289.1096988313001
 20
-35.20336861549998
 30
0.0
  0
VERTEX
  5
33EB
  8
3
 10
289.3000000000001
 20
-35.681722906
 30
0.0
  0
SEQEND
  5
373B
  8
3
  0
POLYLINE
  5
D94
  8
3
 66
     1
 10
0.0
 20
0.0
 30
0.0
  0
VERTEX
  5
33EC
  8
3
 10
288.8549999999999
 20
-35.9515698006
 30
0.0
  0
VERTEX
  5
33ED
  8
3
 10
288.6985724392999
 20
-36.34477702739997
 30
0.0
  0
VERTEX
  5
33EE
  8
3
 10
288.2531044353999
 20
-36.67812201829997
 30
0.0
  0
VERTEX
  5
33EF
  8
3
 10
287.5864144535
 20
-36.90085602030001
 30
0.0
  0
VERTEX
  5
33F0
  8
3
 10
286.8000000000001
 20
-36.97906980059997
 30
0.0
  0
VERTEX
  5
33F1
  8
3
 10
286.0135855464999
 20
-36.90085602030001
 30
0.0
  0
VERTEX
  5
33F2
  8
3
 10
285.3468955647
 20
-36.67812201829997
 30
0.0
  0
VERTEX
  5
33F3
  8
3
 10
284.9014275607
 20
-36.34477702739997
 30
0.0
  0
VERTEX
  5
33F4
  8
3
 10
284.745
 20
-35.9515698006
 30
0.0
  0
VERTEX
  5
33F5
  8
3
 10
284.9014275607
 20
-35.55836257390001
 30
0.0
  0
VERTEX
  5
33F6
  8
3
 10
285.3468955647
 20
-35.22501758300001
 30
0.0
  0
VERTEX
  5
33F7
  8
3
 10
286.0135855464999
 20
-35.00228358099997
 30
0.0
  0
VERTEX
  5
33F8
  8
3
 10
286.8000000000001
 20
-34.92406980059997
 30
0.0
  0
VERTEX
  5
33F9
  8
3
 10
287.5864144535
 20
-35.00228358099997
 30
0.0
  0
VERTEX
  5
33FA
  8
3
 10
288.2531044353999
 20
-35.22501758300001
 30
0.0
  0
VERTEX
  5
33FB
  8
3
 10
288.6985724392999
 20
-35.55836257390001
 30
0.0
  0
VERTEX
  5
33FC
  8
3
 10
288.8549999999999
 20
-35.9515698006
 30
0.0
  0
SEQEND
  5
373A
  8
3
  0
POLYLINE
  5
D95
  8
3
 66
     1
 10
0.0
 20
0.0
 30
0.0
  0
VERTEX
  5
33FD
  8
3
 10
289.3000000000001
 20
-36.22141669519999
 30
0.0
  0
VERTEX
  5
33FE
  8
3
 10
289.1096988313001
 20
-36.69977098570001
 30
0.0
  0
VERTEX
  5
33FF
  8
3
 10
288.5677669529999
 20
-37.10530017169998
 30
0.0
  0
VERTEX
  5
3400
  8
3
 10
287.7567085808999
 20
-37.37626611090002
 30
0.0
  0
VERTEX
  5
3401
  8
3
 10
286.8000000000001
 20
-37.47141669519999
 30
0.0
  0
VERTEX
  5
3402
  8
3
 10
285.8432914190998
 20
-37.37626611090002
 30
0.0
  0
VERTEX
  5
3403
  8
3
 10
285.0322330471
 20
-37.10530017169998
 30
0.0
  0
VERTEX
  5
3404
  8
3
 10
284.4903011686999
 20
-36.69977098570001
 30
0.0
  0
VERTEX
  5
3405
  8
3
 10
284.3000000000001
 20
-36.22141669519999
 30
0.0
  0
VERTEX
  5
3406
  8
3
 10
284.4903011686999
 20
-35.74306240480001
 30
0.0
  0
VERTEX
  5
3407
  8
3
 10
285.0322330471
 20
-35.33753321879999
 30
0.0
  0
VERTEX
  5
3408
  8
3
 10
285.8432914190998
 20
-35.06656727960001
 30
0.0
  0
VERTEX
  5
3409
  8
3
 10
286.8000000000001
 20
-34.97141669519999
 30
0.0
  0
VERTEX
  5
340A
  8
3
 10
287.7567085808999
 20
-35.06656727960001
 30
0.0
  0
VERTEX
  5
340B
  8
3
 10
288.5677669529999
 20
-35.33753321879999
 30
0.0
  0
VERTEX
  5
340C
  8
3
 10
289.1096988313001
 20
-35.74306240480001
 30
0.0
  0
VERTEX
  5
340D
  8
3
 10
289.3000000000001
 20
-36.22141669519999
 30
0.0
  0
SEQEND
  5
3739
  8
3
  0
POLYLINE
  5
D96
  8
3
 66
     1
 10
0.0
 20
0.0
 30
0.0
  0
VERTEX
  5
340E
  8
3
 10
289.3000000000001
 20
-36.29945624660002
 30
0.0
  0
VERTEX
  5
340F
  8
3
 10
289.1096988313001
 20
-36.77781053709998
 30
0.0
  0
VERTEX
  5
3410
  8
3
 10
288.5677669529999
 20
-37.1833397231
 30
0.0
  0
VERTEX
  5
3411
  8
3
 10
287.7567085808999
 20
-37.4543056622
 30
0.0
  0
VERTEX
  5
3412
  8
3
 10
286.8000000000001
 20
-37.54945624660002
 30
0.0
  0
VERTEX
  5
3413
  8
3
 10
285.8432914190998
 20
-37.4543056622
 30
0.0
  0
VERTEX
  5
3414
  8
3
 10
285.0322330471
 20
-37.1833397231
 30
0.0
  0
VERTEX
  5
3415
  8
3
 10
284.4903011686999
 20
-36.77781053709998
 30
0.0
  0
VERTEX
  5
3416
  8
3
 10
284.3000000000001
 20
-36.29945624660002
 30
0.0
  0
VERTEX
  5
3417
  8
3
 10
284.4903011686999
 20
-35.82110195609999
 30
0.0
  0
VERTEX
  5
3418
  8
3
 10
285.0322330471
 20
-35.41557277009997
 30
0.0
  0
VERTEX
  5
3419
  8
3
 10
285.8432914190998
 20
-35.14460683099998
 30
0.0
  0
VERTEX
  5
341A
  8
3
 10
286.8000000000001
 20
-35.04945624660002
 30
0.0
  0
VERTEX
  5
341B
  8
3
 10
287.7567085808999
 20
-35.14460683099998
 30
0.0
  0
VERTEX
  5
341C
  8
3
 10
288.5677669529999
 20
-35.41557277009997
 30
0.0
  0
VERTEX
  5
341D
  8
3
 10
289.1096988313001
 20
-35.82110195609999
 30
0.0
  0
VERTEX
  5
341E
  8
3
 10
289.3000000000001
 20
-36.29945624660002
 30
0.0
  0
SEQEND
  5
3738
  8
3
  0
POLYLINE
  5
D97
  8
3
 66
     1
 10
0.0
 20
0.0
 30
0.0
  0
VERTEX
  5
341F
  8
3
 10
288.8549999999999
 20
-36.56930314120001
 30
0.0
  0
VERTEX
  5
3420
  8
3
 10
288.6985724392999
 20
-36.96251036799998
 30
0.0
  0
VERTEX
  5
3421
  8
3
 10
288.2531044353999
 20
-37.29585535889998
 30
0.0
  0
VERTEX
  5
3422
  8
3
 10
287.5864144535
 20
-37.51858936089997
 30
0.0
  0
VERTEX
  5
3423
  8
3
 10
286.8000000000001
 20
-37.59680314119998
 30
0.0
  0
VERTEX
  5
3424
  8
3
 10
286.0135855464999
 20
-37.51858936089997
 30
0.0
  0
VERTEX
  5
3425
  8
3
 10
285.3468955647
 20
-37.29585535889998
 30
0.0
  0
VERTEX
  5
3426
  8
3
 10
284.9014275607
 20
-36.96251036799998
 30
0.0
  0
VERTEX
  5
3427
  8
3
 10
284.745
 20
-36.56930314120001
 30
0.0
  0
VERTEX
  5
3428
  8
3
 10
284.9014275607
 20
-36.17609591449997
 30
0.0
  0
VERTEX
  5
3429
  8
3
 10
285.3468955647
 20
-35.84275092359997
 30
0.0
  0
VERTEX
  5
342A
  8
3
 10
286.0135855464999
 20
-35.62001692159998
 30
0.0
  0
VERTEX
  5
342B
  8
3
 10
286.8000000000001
 20
-35.54180314119998
 30
0.0
  0
VERTEX
  5
342C
  8
3
 10
287.5864144535
 20
-35.62001692159998
 30
0.0
  0
VERTEX
  5
342D
  8
3
 10
288.2531044353999
 20
-35.84275092359997
 30
0.0
  0
VERTEX
  5
342E
  8
3
 10
288.6985724392999
 20
-36.17609591449997
 30
0.0
  0
VERTEX
  5
342F
  8
3
 10
288.8549999999999
 20
-36.56930314120001
 30
0.0
  0
SEQEND
  5
3737
  8
3
  0
POLYLINE
  5
D98
  8
3
 66
     1
 10
0.0
 20
0.0
 30
0.0
  0
VERTEX
  5
3430
  8
3
 10
289.3000000000001
 20
-36.83915003589999
 30
0.0
  0
VERTEX
  5
3431
  8
3
 10
289.1096988313001
 20
-37.31750432629997
 30
0.0
  0
VERTEX
  5
3432
  8
3
 10
288.5677669529999
 20
-37.72303351229999
 30
0.0
  0
VERTEX
  5
3433
  8
3
 10
287.7567085808999
 20
-37.99399945149997
 30
0.0
  0
VERTEX
  5
3434
  8
3
 10
286.8000000000001
 20
-38.08915003589999
 30
0.0
  0
VERTEX
  5
3435
  8
3
 10
285.8432914190998
 20
-37.99399945149997
 30
0.0
  0
VERTEX
  5
3436
  8
3
 10
285.0322330471
 20
-37.72303351229999
 30
0.0
  0
VERTEX
  5
3437
  8
3
 10
284.4903011688001
 20
-37.31750432629997
 30
0.0
  0
VERTEX
  5
3438
  8
3
 10
284.3000000000001
 20
-36.83915003589999
 30
0.0
  0
VERTEX
  5
3439
  8
3
 10
284.4903011688001
 20
-36.36079574539997
 30
0.0
  0
VERTEX
  5
343A
  8
3
 10
285.0322330471
 20
-35.9552665594
 30
0.0
  0
VERTEX
  5
343B
  8
3
 10
285.8432914190998
 20
-35.68430062019996
 30
0.0
  0
VERTEX
  5
343C
  8
3
 10
286.8000000000001
 20
-35.58915003589999
 30
0.0
  0
VERTEX
  5
343D
  8
3
 10
287.7567085808999
 20
-35.68430062019996
 30
0.0
  0
VERTEX
  5
343E
  8
3
 10
288.5677669529999
 20
-35.9552665594
 30
0.0
  0
VERTEX
  5
343F
  8
3
 10
289.1096988313001
 20
-36.36079574539997
 30
0.0
  0
VERTEX
  5
3440
  8
3
 10
289.3000000000001
 20
-36.83915003589999
 30
0.0
  0
SEQEND
  5
3736
  8
3
  0
POLYLINE
  5
D99
  8
3
 66
     1
 10
0.0
 20
0.0
 30
0.0
  0
VERTEX
  5
3441
  8
3
 10
289.3000000000001
 20
-36.91718958719997
 30
0.0
  0
VERTEX
  5
3442
  8
3
 10
289.1096988313001
 20
-37.39554387769999
 30
0.0
  0
VERTEX
  5
3443
  8
3
 10
288.5677669529999
 20
-37.80107306370002
 30
0.0
  0
VERTEX
  5
3444
  8
3
 10
287.7567085808999
 20
-38.07203900280001
 30
0.0
  0
VERTEX
  5
3445
  8
3
 10
286.8000000000001
 20
-38.16718958719997
 30
0.0
  0
VERTEX
  5
3446
  8
3
 10
285.8432914190998
 20
-38.07203900280001
 30
0.0
  0
VERTEX
  5
3447
  8
3
 10
285.0322330471
 20
-37.80107306370002
 30
0.0
  0
VERTEX
  5
3448
  8
3
 10
284.4903011688001
 20
-37.39554387769999
 30
0.0
  0
VERTEX
  5
3449
  8
3
 10
284.3000000000001
 20
-36.91718958719997
 30
0.0
  0
VERTEX
  5
344A
  8
3
 10
284.4903011688001
 20
-36.43883529679999
 30
0.0
  0
VERTEX
  5
344B
  8
3
 10
285.0322330471
 20
-36.03330611069998
 30
0.0
  0
VERTEX
  5
344C
  8
3
 10
285.8432914190998
 20
-35.76234017159999
 30
0.0
  0
VERTEX
  5
344D
  8
3
 10
286.8000000000001
 20
-35.66718958719997
 30
0.0
  0
VERTEX
  5
344E
  8
3
 10
287.7567085808999
 20
-35.76234017159999
 30
0.0
  0
VERTEX
  5
344F
  8
3
 10
288.5677669529999
 20
-36.03330611069998
 30
0.0
  0
VERTEX
  5
3450
  8
3
 10
289.1096988313001
 20
-36.43883529679999
 30
0.0
  0
VERTEX
  5
3451
  8
3
 10
289.3000000000001
 20
-36.91718958719997
 30
0.0
  0
SEQEND
  5
3735
  8
3
  0
POLYLINE
  5
D9A
  8
3
 66
     1
 10
0.0
 20
0.0
 30
0.0
  0
VERTEX
  5
3452
  8
3
 10
288.8549999999999
 20
-37.18703648179996
 30
0.0
  0
VERTEX
  5
3453
  8
3
 10
288.6985724392999
 20
-37.58024370859999
 30
0.0
  0
VERTEX
  5
3454
  8
3
 10
288.2531044353999
 20
-37.9135886995
 30
0.0
  0
VERTEX
  5
3455
  8
3
 10
287.5864144535
 20
-38.13632270149998
 30
0.0
  0
VERTEX
  5
3456
  8
3
 10
286.8000000000001
 20
-38.2145364818
 30
0.0
  0
VERTEX
  5
3457
  8
3
 10
286.0135855464999
 20
-38.13632270149998
 30
0.0
  0
VERTEX
  5
3458
  8
3
 10
285.3468955647
 20
-37.9135886995
 30
0.0
  0
VERTEX
  5
3459
  8
3
 10
284.9014275607
 20
-37.58024370859999
 30
0.0
  0
VERTEX
  5
345A
  8
3
 10
284.745
 20
-37.18703648179996
 30
0.0
  0
VERTEX
  5
345B
  8
3
 10
284.9014275607
 20
-36.79382925509998
 30
0.0
  0
VERTEX
  5
345C
  8
3
 10
285.3468955647
 20
-36.46048426419998
 30
0.0
  0
VERTEX
  5
345D
  8
3
 10
286.0135855464999
 20
-36.2377502622
 30
0.0
  0
VERTEX
  5
345E
  8
3
 10
286.8000000000001
 20
-36.15953648179999
 30
0.0
  0
VERTEX
  5
345F
  8
3
 10
287.5864144535
 20
-36.2377502622
 30
0.0
  0
VERTEX
  5
3460
  8
3
 10
288.2531044353999
 20
-36.46048426419998
 30
0.0
  0
VERTEX
  5
3461
  8
3
 10
288.6985724392999
 20
-36.79382925509998
 30
0.0
  0
VERTEX
  5
3462
  8
3
 10
288.8549999999999
 20
-37.18703648179996
 30
0.0
  0
SEQEND
  5
3734
  8
3
  0
POLYLINE
  5
D9B
  8
3
 66
     1
 10
0.0
 20
0.0
 30
0.0
  0
VERTEX
  5
3463
  8
3
 10
289.3000000000001
 20
-37.4568833765
 30
0.0
  0
VERTEX
  5
3464
  8
3
 10
289.1096988313001
 20
-37.93523766689998
 30
0.0
  0
VERTEX
  5
3465
  8
3
 10
288.5677669529999
 20
-38.3407668529
 30
0.0
  0
VERTEX
  5
3466
  8
3
 10
287.7567085808999
 20
-38.61173279209999
 30
0.0
  0
VERTEX
  5
3467
  8
3
 10
286.8000000000001
 20
-38.7068833765
 30
0.0
  0
VERTEX
  5
3468
  8
3
 10
285.8432914190998
 20
-38.61173279209999
 30
0.0
  0
VERTEX
  5
3469
  8
3
 10
285.0322330471
 20
-38.3407668529
 30
0.0
  0
VERTEX
  5
346A
  8
3
 10
284.4903011688001
 20
-37.93523766689998
 30
0.0
  0
VERTEX
  5
346B
  8
3
 10
284.3000000000001
 20
-37.4568833765
 30
0.0
  0
VERTEX
  5
346C
  8
3
 10
284.4903011688001
 20
-36.97852908599998
 30
0.0
  0
VERTEX
  5
346D
  8
3
 10
285.0322330471
 20
-36.57299990000001
 30
0.0
  0
VERTEX
  5
346E
  8
3
 10
285.8432914190998
 20
-36.30203396079997
 30
0.0
  0
VERTEX
  5
346F
  8
3
 10
286.8000000000001
 20
-36.2068833765
 30
0.0
  0
VERTEX
  5
3470
  8
3
 10
287.7567085808999
 20
-36.30203396079997
 30
0.0
  0
VERTEX
  5
3471
  8
3
 10
288.5677669529999
 20
-36.57299990000001
 30
0.0
  0
VERTEX
  5
3472
  8
3
 10
289.1096988313001
 20
-36.97852908599998
 30
0.0
  0
VERTEX
  5
3473
  8
3
 10
289.3000000000001
 20
-37.4568833765
 30
0.0
  0
SEQEND
  5
3733
  8
3
  0
POLYLINE
  5
D9C
  8
3
 66
     1
 10
0.0
 20
0.0
 30
0.0
  0
VERTEX
  5
3474
  8
3
 10
289.3000000000001
 20
-37.53492292779998
 30
0.0
  0
VERTEX
  5
3475
  8
3
 10
289.1096988313001
 20
-38.0132772183
 30
0.0
  0
VERTEX
  5
3476
  8
3
 10
288.5677669529999
 20
-38.41880640429997
 30
0.0
  0
VERTEX
  5
3477
  8
3
 10
287.7567085808999
 20
-38.68977234350001
 30
0.0
  0
VERTEX
  5
3478
  8
3
 10
286.8000000000001
 20
-38.78492292779998
 30
0.0
  0
VERTEX
  5
3479
  8
3
 10
285.8432914190998
 20
-38.68977234350001
 30
0.0
  0
VERTEX
  5
347A
  8
3
 10
285.0322330471
 20
-38.41880640429997
 30
0.0
  0
VERTEX
  5
347B
  8
3
 10
284.4903011688001
 20
-38.0132772183
 30
0.0
  0
VERTEX
  5
347C
  8
3
 10
284.3000000000001
 20
-37.53492292779998
 30
0.0
  0
VERTEX
  5
347D
  8
3
 10
284.4903011688001
 20
-37.05656863740001
 30
0.0
  0
VERTEX
  5
347E
  8
3
 10
285.0322330471
 20
-36.65103945129999
 30
0.0
  0
VERTEX
  5
347F
  8
3
 10
285.8432914190998
 20
-36.3800735122
 30
0.0
  0
VERTEX
  5
3480
  8
3
 10
286.8000000000001
 20
-36.28492292779998
 30
0.0
  0
VERTEX
  5
3481
  8
3
 10
287.7567085808999
 20
-36.3800735122
 30
0.0
  0
VERTEX
  5
3482
  8
3
 10
288.5677669529999
 20
-36.65103945129999
 30
0.0
  0
VERTEX
  5
3483
  8
3
 10
289.1096988313001
 20
-37.05656863740001
 30
0.0
  0
VERTEX
  5
3484
  8
3
 10
289.3000000000001
 20
-37.53492292779998
 30
0.0
  0
SEQEND
  5
3732
  8
3
  0
POLYLINE
  5
D9D
  8
3
 66
     1
 10
0.0
 20
0.0
 30
0.0
  0
VERTEX
  5
3485
  8
3
 10
288.8549999999999
 20
-37.80476982239998
 30
0.0
  0
VERTEX
  5
3486
  8
3
 10
288.6985724392999
 20
-38.19797704920001
 30
0.0
  0
VERTEX
  5
3487
  8
3
 10
288.2531044353999
 20
-38.53132204010001
 30
0.0
  0
VERTEX
  5
3488
  8
3
 10
287.5864144535
 20
-38.75405604209999
 30
0.0
  0
VERTEX
  5
3489
  8
3
 10
286.8000000000001
 20
-38.83226982240001
 30
0.0
  0
VERTEX
  5
348A
  8
3
 10
286.0135855464999
 20
-38.75405604209999
 30
0.0
  0
VERTEX
  5
348B
  8
3
 10
285.3468955647
 20
-38.53132204010001
 30
0.0
  0
VERTEX
  5
348C
  8
3
 10
284.9014275607
 20
-38.19797704920001
 30
0.0
  0
VERTEX
  5
348D
  8
3
 10
284.745
 20
-37.80476982239998
 30
0.0
  0
VERTEX
  5
348E
  8
3
 10
284.9014275607
 20
-37.41156259569999
 30
0.0
  0
VERTEX
  5
348F
  8
3
 10
285.3468955647
 20
-37.07821760479999
 30
0.0
  0
VERTEX
  5
3490
  8
3
 10
286.0135855464999
 20
-36.85548360280001
 30
0.0
  0
VERTEX
  5
3491
  8
3
 10
286.8000000000001
 20
-36.7772698224
 30
0.0
  0
VERTEX
  5
3492
  8
3
 10
287.5864144535
 20
-36.85548360280001
 30
0.0
  0
VERTEX
  5
3493
  8
3
 10
288.2531044353999
 20
-37.07821760479999
 30
0.0
  0
VERTEX
  5
3494
  8
3
 10
288.6985724392999
 20
-37.41156259569999
 30
0.0
  0
VERTEX
  5
3495
  8
3
 10
288.8549999999999
 20
-37.80476982239998
 30
0.0
  0
SEQEND
  5
3731
  8
3
  0
POLYLINE
  5
D9E
  8
3
 66
     1
 10
0.0
 20
0.0
 30
0.0
  0
VERTEX
  5
3496
  8
3
 10
289.3000000000001
 20
-38.07461671710001
 30
0.0
  0
VERTEX
  5
3497
  8
3
 10
289.1096988313001
 20
-38.55297100749999
 30
0.0
  0
VERTEX
  5
3498
  8
3
 10
288.5677669529999
 20
-38.95850019350002
 30
0.0
  0
VERTEX
  5
3499
  8
3
 10
287.7567085808999
 20
-39.2294661327
 30
0.0
  0
VERTEX
  5
349A
  8
3
 10
286.8000000000001
 20
-39.32461671710001
 30
0.0
  0
VERTEX
  5
349B
  8
3
 10
285.8432914190998
 20
-39.2294661327
 30
0.0
  0
VERTEX
  5
349C
  8
3
 10
285.0322330471
 20
-38.95850019350002
 30
0.0
  0
VERTEX
  5
349D
  8
3
 10
284.4903011688001
 20
-38.55297100749999
 30
0.0
  0
VERTEX
  5
349E
  8
3
 10
284.3000000000001
 20
-38.07461671710001
 30
0.0
  0
VERTEX
  5
349F
  8
3
 10
284.4903011688001
 20
-37.59626242659999
 30
0.0
  0
VERTEX
  5
34A0
  8
3
 10
285.0322330471
 20
-37.19073324059997
 30
0.0
  0
VERTEX
  5
34A1
  8
3
 10
285.8432914190998
 20
-36.91976730139999
 30
0.0
  0
VERTEX
  5
34A2
  8
3
 10
286.8000000000001
 20
-36.82461671710001
 30
0.0
  0
VERTEX
  5
34A3
  8
3
 10
287.7567085808999
 20
-36.91976730139999
 30
0.0
  0
VERTEX
  5
34A4
  8
3
 10
288.5677669529999
 20
-37.19073324059997
 30
0.0
  0
VERTEX
  5
34A5
  8
3
 10
289.1096988313001
 20
-37.59626242659999
 30
0.0
  0
VERTEX
  5
34A6
  8
3
 10
289.3000000000001
 20
-38.07461671710001
 30
0.0
  0
SEQEND
  5
3730
  8
3
  0
POLYLINE
  5
D9F
  8
3
 66
     1
 10
0.0
 20
0.0
 30
0.0
  0
VERTEX
  5
34A7
  8
3
 10
289.3000000000001
 20
-38.15265626839999
 30
0.0
  0
VERTEX
  5
34A8
  8
3
 10
289.1096988313001
 20
-38.63101055890002
 30
0.0
  0
VERTEX
  5
34A9
  8
3
 10
288.5677669529999
 20
-39.03653974489998
 30
0.0
  0
VERTEX
  5
34AA
  8
3
 10
287.7567085808999
 20
-39.30750568409997
 30
0.0
  0
VERTEX
  5
34AB
  8
3
 10
286.8000000000001
 20
-39.40265626839999
 30
0.0
  0
VERTEX
  5
34AC
  8
3
 10
285.8432914190998
 20
-39.30750568409997
 30
0.0
  0
VERTEX
  5
34AD
  8
3
 10
285.0322330471
 20
-39.03653974489998
 30
0.0
  0
VERTEX
  5
34AE
  8
3
 10
284.4903011688001
 20
-38.63101055890002
 30
0.0
  0
VERTEX
  5
34AF
  8
3
 10
284.3000000000001
 20
-38.15265626839999
 30
0.0
  0
VERTEX
  5
34B0
  8
3
 10
284.4903011688001
 20
-37.67430197800002
 30
0.0
  0
VERTEX
  5
34B1
  8
3
 10
285.0322330471
 20
-37.26877279190001
 30
0.0
  0
VERTEX
  5
34B2
  8
3
 10
285.8432914190998
 20
-36.99780685280001
 30
0.0
  0
VERTEX
  5
34B3
  8
3
 10
286.8000000000001
 20
-36.90265626839999
 30
0.0
  0
VERTEX
  5
34B4
  8
3
 10
287.7567085808999
 20
-36.99780685280001
 30
0.0
  0
VERTEX
  5
34B5
  8
3
 10
288.5677669529999
 20
-37.26877279190001
 30
0.0
  0
VERTEX
  5
34B6
  8
3
 10
289.1096988313001
 20
-37.67430197800002
 30
0.0
  0
VERTEX
  5
34B7
  8
3
 10
289.3000000000001
 20
-38.15265626839999
 30
0.0
  0
SEQEND
  5
372F
  8
3
  0
POLYLINE
  5
DA0
  8
3
 66
     1
 10
0.0
 20
0.0
 30
0.0
  0
VERTEX
  5
34B8
  8
3
 10
288.8549999999999
 20
-38.42250316299999
 30
0.0
  0
VERTEX
  5
34B9
  8
3
 10
288.6985724392999
 20
-38.81571038980002
 30
0.0
  0
VERTEX
  5
34BA
  8
3
 10
288.2531044353999
 20
-39.14905538069996
 30
0.0
  0
VERTEX
  5
34BB
  8
3
 10
287.5864144535
 20
-39.3717893827
 30
0.0
  0
VERTEX
  5
34BC
  8
3
 10
286.8000000000001
 20
-39.45000316300002
 30
0.0
  0
VERTEX
  5
34BD
  8
3
 10
286.0135855464999
 20
-39.3717893827
 30
0.0
  0
VERTEX
  5
34BE
  8
3
 10
285.3468955647
 20
-39.14905538069996
 30
0.0
  0
VERTEX
  5
34BF
  8
3
 10
284.9014275607
 20
-38.81571038980002
 30
0.0
  0
VERTEX
  5
34C0
  8
3
 10
284.745
 20
-38.42250316299999
 30
0.0
  0
VERTEX
  5
34C1
  8
3
 10
284.9014275607
 20
-38.0292959363
 30
0.0
  0
VERTEX
  5
34C2
  8
3
 10
285.3468955647
 20
-37.6959509454
 30
0.0
  0
VERTEX
  5
34C3
  8
3
 10
286.0135855464999
 20
-37.47321694340002
 30
0.0
  0
VERTEX
  5
34C4
  8
3
 10
286.8000000000001
 20
-37.39500316300001
 30
0.0
  0
VERTEX
  5
34C5
  8
3
 10
287.5864144535
 20
-37.47321694340002
 30
0.0
  0
VERTEX
  5
34C6
  8
3
 10
288.2531044353999
 20
-37.6959509454
 30
0.0
  0
VERTEX
  5
34C7
  8
3
 10
288.6985724392999
 20
-38.0292959363
 30
0.0
  0
VERTEX
  5
34C8
  8
3
 10
288.8549999999999
 20
-38.42250316299999
 30
0.0
  0
SEQEND
  5
372E
  8
3
  0
POLYLINE
  5
DA1
  8
3
 66
     1
 10
0.0
 20
0.0
 30
0.0
  0
VERTEX
  5
34C9
  8
3
 10
289.3000000000001
 20
-38.69235005769997
 30
0.0
  0
VERTEX
  5
34CA
  8
3
 10
289.1096988313001
 20
-39.1707043481
 30
0.0
  0
VERTEX
  5
34CB
  8
3
 10
288.5677669529999
 20
-39.57623353420001
 30
0.0
  0
VERTEX
  5
34CC
  8
3
 10
287.756708581
 20
-39.84719947330001
 30
0.0
  0
VERTEX
  5
34CD
  8
3
 10
286.8000000000001
 20
-39.94235005769997
 30
0.0
  0
VERTEX
  5
34CE
  8
3
 10
285.8432914190998
 20
-39.84719947330001
 30
0.0
  0
VERTEX
  5
34CF
  8
3
 10
285.0322330471
 20
-39.57623353420001
 30
0.0
  0
VERTEX
  5
34D0
  8
3
 10
284.4903011688001
 20
-39.1707043481
 30
0.0
  0
VERTEX
  5
34D1
  8
3
 10
284.3000000000001
 20
-38.69235005769997
 30
0.0
  0
VERTEX
  5
34D2
  8
3
 10
284.4903011688001
 20
-38.2139957672
 30
0.0
  0
VERTEX
  5
34D3
  8
3
 10
285.0322330471
 20
-37.80846658119998
 30
0.0
  0
VERTEX
  5
34D4
  8
3
 10
285.8432914190998
 20
-37.537500642
 30
0.0
  0
VERTEX
  5
34D5
  8
3
 10
286.8000000000001
 20
-37.44235005769997
 30
0.0
  0
VERTEX
  5
34D6
  8
3
 10
287.756708581
 20
-37.537500642
 30
0.0
  0
VERTEX
  5
34D7
  8
3
 10
288.5677669529999
 20
-37.80846658119998
 30
0.0
  0
VERTEX
  5
34D8
  8
3
 10
289.1096988313001
 20
-38.2139957672
 30
0.0
  0
VERTEX
  5
34D9
  8
3
 10
289.3000000000001
 20
-38.69235005769997
 30
0.0
  0
SEQEND
  5
372D
  8
3
  0
POLYLINE
  5
DA2
  8
3
 66
     1
 10
0.0
 20
0.0
 30
0.0
  0
VERTEX
  5
34DA
  8
3
 10
289.3000000000001
 20
-38.77038960900001
 30
0.0
  0
VERTEX
  5
34DB
  8
3
 10
289.1096988313001
 20
-39.24874389949997
 30
0.0
  0
VERTEX
  5
34DC
  8
3
 10
288.5677669529999
 20
-39.65427308549999
 30
0.0
  0
VERTEX
  5
34DD
  8
3
 10
287.756708581
 20
-39.92523902469998
 30
0.0
  0
VERTEX
  5
34DE
  8
3
 10
286.8000000000001
 20
-40.02038960900001
 30
0.0
  0
VERTEX
  5
34DF
  8
3
 10
285.8432914190998
 20
-39.92523902469998
 30
0.0
  0
VERTEX
  5
34E0
  8
3
 10
285.0322330471
 20
-39.65427308549999
 30
0.0
  0
VERTEX
  5
34E1
  8
3
 10
284.4903011688001
 20
-39.24874389949997
 30
0.0
  0
VERTEX
  5
34E2
  8
3
 10
284.3000000000001
 20
-38.77038960900001
 30
0.0
  0
VERTEX
  5
34E3
  8
3
 10
284.4903011688001
 20
-38.29203531859997
 30
0.0
  0
VERTEX
  5
34E4
  8
3
 10
285.0322330471
 20
-37.88650613250002
 30
0.0
  0
VERTEX
  5
34E5
  8
3
 10
285.8432914190998
 20
-37.61554019339997
 30
0.0
  0
VERTEX
  5
34E6
  8
3
 10
286.8000000000001
 20
-37.52038960900001
 30
0.0
  0
VERTEX
  5
34E7
  8
3
 10
287.756708581
 20
-37.61554019339997
 30
0.0
  0
VERTEX
  5
34E8
  8
3
 10
288.5677669529999
 20
-37.88650613250002
 30
0.0
  0
VERTEX
  5
34E9
  8
3
 10
289.1096988313001
 20
-38.29203531859997
 30
0.0
  0
VERTEX
  5
34EA
  8
3
 10
289.3000000000001
 20
-38.77038960900001
 30
0.0
  0
SEQEND
  5
372C
  8
3
  0
POLYLINE
  5
DA3
  8
3
 66
     1
 10
0.0
 20
0.0
 30
0.0
  0
VERTEX
  5
34EB
  8
3
 10
288.8549999999999
 20
-39.0402365036
 30
0.0
  0
VERTEX
  5
34EC
  8
3
 10
288.6985724394
 20
-39.43344373039997
 30
0.0
  0
VERTEX
  5
34ED
  8
3
 10
288.2531044353999
 20
-39.76678872129997
 30
0.0
  0
VERTEX
  5
34EE
  8
3
 10
287.5864144536
 20
-39.98952272330001
 30
0.0
  0
VERTEX
  5
34EF
  8
3
 10
286.8000000000001
 20
-40.06773650359997
 30
0.0
  0
VERTEX
  5
34F0
  8
3
 10
286.0135855464999
 20
-39.98952272330001
 30
0.0
  0
VERTEX
  5
34F1
  8
3
 10
285.3468955647
 20
-39.76678872129997
 30
0.0
  0
VERTEX
  5
34F2
  8
3
 10
284.9014275607
 20
-39.43344373039997
 30
0.0
  0
VERTEX
  5
34F3
  8
3
 10
284.745
 20
-39.0402365036
 30
0.0
  0
VERTEX
  5
34F4
  8
3
 10
284.9014275607
 20
-38.64702927690001
 30
0.0
  0
VERTEX
  5
34F5
  8
3
 10
285.3468955647
 20
-38.31368428600001
 30
0.0
  0
VERTEX
  5
34F6
  8
3
 10
286.0135855464999
 20
-38.09095028399997
 30
0.0
  0
VERTEX
  5
34F7
  8
3
 10
286.8000000000001
 20
-38.01273650359997
 30
0.0
  0
VERTEX
  5
34F8
  8
3
 10
287.5864144536
 20
-38.09095028399997
 30
0.0
  0
VERTEX
  5
34F9
  8
3
 10
288.2531044353999
 20
-38.31368428600001
 30
0.0
  0
VERTEX
  5
34FA
  8
3
 10
288.6985724394
 20
-38.64702927690001
 30
0.0
  0
VERTEX
  5
34FB
  8
3
 10
288.8549999999999
 20
-39.0402365036
 30
0.0
  0
SEQEND
  5
372B
  8
3
  0
POLYLINE
  5
DA4
  8
3
 66
     1
 10
0.0
 20
0.0
 30
0.0
  0
VERTEX
  5
34FC
  8
3
 10
289.3000000000001
 20
-39.31008339829998
 30
0.0
  0
VERTEX
  5
34FD
  8
3
 10
289.1096988313001
 20
-39.78843768870001
 30
0.0
  0
VERTEX
  5
34FE
  8
3
 10
288.5677669529999
 20
-40.19396687479997
 30
0.0
  0
VERTEX
  5
34FF
  8
3
 10
287.756708581
 20
-40.46493281389996
 30
0.0
  0
VERTEX
  5
3500
  8
3
 10
286.8000000000001
 20
-40.56008339829998
 30
0.0
  0
VERTEX
  5
3501
  8
3
 10
285.8432914190998
 20
-40.46493281389996
 30
0.0
  0
VERTEX
  5
3502
  8
3
 10
285.0322330471
 20
-40.19396687479997
 30
0.0
  0
VERTEX
  5
3503
  8
3
 10
284.4903011688001
 20
-39.78843768870001
 30
0.0
  0
VERTEX
  5
3504
  8
3
 10
284.3000000000001
 20
-39.31008339829998
 30
0.0
  0
VERTEX
  5
3505
  8
3
 10
284.4903011688001
 20
-38.83172910780002
 30
0.0
  0
VERTEX
  5
3506
  8
3
 10
285.0322330471
 20
-38.42619992179999
 30
0.0
  0
VERTEX
  5
3507
  8
3
 10
285.8432914190998
 20
-38.15523398260001
 30
0.0
  0
VERTEX
  5
3508
  8
3
 10
286.8000000000001
 20
-38.06008339829998
 30
0.0
  0
VERTEX
  5
3509
  8
3
 10
287.756708581
 20
-38.15523398260001
 30
0.0
  0
VERTEX
  5
350A
  8
3
 10
288.5677669529999
 20
-38.42619992179999
 30
0.0
  0
VERTEX
  5
350B
  8
3
 10
289.1096988313001
 20
-38.83172910780002
 30
0.0
  0
VERTEX
  5
350C
  8
3
 10
289.3000000000001
 20
-39.31008339829998
 30
0.0
  0
SEQEND
  5
372A
  8
3
  0
LINE
  5
DA5
  8
3
 10
288.0500000000001
 20
-37.90304517229998
 30
0.0
 11
286.8000000000001
 21
-38.26388909050002
 31
0.0
  0
LINE
  5
DA6
  8
3
 10
285.5500000000001
 20
-37.90304517229998
 30
0.0
 11
286.8000000000001
 21
-38.26388909050002
 31
0.0
  0
POLYLINE
  5
DA7
  8
3
 66
     1
 10
0.0
 20
0.0
 30
0.0
  0
VERTEX
  5
350D
  8
3
 10
289.3000000000001
 20
-39.38812294960002
 30
0.0
  0
VERTEX
  5
350E
  8
3
 10
289.1096988313001
 20
-39.86647724009998
 30
0.0
  0
VERTEX
  5
350F
  8
3
 10
288.5677669529999
 20
-40.27200642610001
 30
0.0
  0
VERTEX
  5
3510
  8
3
 10
287.756708581
 20
-40.54297236529999
 30
0.0
  0
VERTEX
  5
3511
  8
3
 10
286.8000000000001
 20
-40.63812294960002
 30
0.0
  0
VERTEX
  5
3512
  8
3
 10
285.8432914190998
 20
-40.54297236529999
 30
0.0
  0
VERTEX
  5
3513
  8
3
 10
285.0322330471
 20
-40.27200642610001
 30
0.0
  0
VERTEX
  5
3514
  8
3
 10
284.4903011688001
 20
-39.86647724009998
 30
0.0
  0
VERTEX
  5
3515
  8
3
 10
284.3000000000001
 20
-39.38812294960002
 30
0.0
  0
VERTEX
  5
3516
  8
3
 10
284.4903011688001
 20
-38.90976865919998
 30
0.0
  0
VERTEX
  5
3517
  8
3
 10
285.0322330471
 20
-38.50423947309997
 30
0.0
  0
VERTEX
  5
3518
  8
3
 10
285.8432914190998
 20
-38.23327353399998
 30
0.0
  0
VERTEX
  5
3519
  8
3
 10
286.8000000000001
 20
-38.13812294960002
 30
0.0
  0
VERTEX
  5
351A
  8
3
 10
287.756708581
 20
-38.23327353399998
 30
0.0
  0
VERTEX
  5
351B
  8
3
 10
288.5677669529999
 20
-38.50423947309997
 30
0.0
  0
VERTEX
  5
351C
  8
3
 10
289.1096988313001
 20
-38.90976865919998
 30
0.0
  0
VERTEX
  5
351D
  8
3
 10
289.3000000000001
 20
-39.38812294960002
 30
0.0
  0
SEQEND
  5
3729
  8
3
  0
POLYLINE
  5
DA8
  8
3
 66
     1
 10
0.0
 20
0.0
 30
0.0
  0
VERTEX
  5
351E
  8
3
 10
288.8549999999999
 20
-39.6579698443
 30
0.0
  0
VERTEX
  5
351F
  8
3
 10
288.6985724394
 20
-40.05117707099998
 30
0.0
  0
VERTEX
  5
3520
  8
3
 10
288.2531044353999
 20
-40.38452206189999
 30
0.0
  0
VERTEX
  5
3521
  8
3
 10
287.5864144536
 20
-40.60725606389997
 30
0.0
  0
VERTEX
  5
3522
  8
3
 10
286.8000000000001
 20
-40.68546984429997
 30
0.0
  0
VERTEX
  5
3523
  8
3
 10
286.0135855464999
 20
-40.60725606389997
 30
0.0
  0
VERTEX
  5
3524
  8
3
 10
285.3468955647
 20
-40.38452206189999
 30
0.0
  0
VERTEX
  5
3525
  8
3
 10
284.9014275607
 20
-40.05117707099998
 30
0.0
  0
VERTEX
  5
3526
  8
3
 10
284.745
 20
-39.6579698443
 30
0.0
  0
VERTEX
  5
3527
  8
3
 10
284.9014275607
 20
-39.26476261749997
 30
0.0
  0
VERTEX
  5
3528
  8
3
 10
285.3468955647
 20
-38.93141762659997
 30
0.0
  0
VERTEX
  5
3529
  8
3
 10
286.0135855464999
 20
-38.70868362459998
 30
0.0
  0
VERTEX
  5
352A
  8
3
 10
286.8000000000001
 20
-38.63046984429997
 30
0.0
  0
VERTEX
  5
352B
  8
3
 10
287.5864144536
 20
-38.70868362459998
 30
0.0
  0
VERTEX
  5
352C
  8
3
 10
288.2531044353999
 20
-38.93141762659997
 30
0.0
  0
VERTEX
  5
352D
  8
3
 10
288.6985724394
 20
-39.26476261749997
 30
0.0
  0
VERTEX
  5
352E
  8
3
 10
288.8549999999999
 20
-39.6579698443
 30
0.0
  0
SEQEND
  5
3728
  8
3
  0
POLYLINE
  5
DA9
  8
3
 66
     1
 10
0.0
 20
0.0
 30
0.0
  0
VERTEX
  5
352F
  8
3
 10
289.0561031269
 20
-39.77991828080002
 30
0.0
  0
VERTEX
  5
3530
  8
3
 10
288.8843675022
 20
-39.34823163670001
 30
0.0
  0
VERTEX
  5
3531
  8
3
 10
288.3953058200999
 20
-38.98226537080001
 30
0.0
  0
VERTEX
  5
3532
  8
3
 10
287.6633732884001
 20
-38.73773452979998
 30
0.0
  0
VERTEX
  5
3533
  8
3
 10
286.8000000000001
 20
-38.65186671739997
 30
0.0
  0
VERTEX
  5
3534
  8
3
 10
285.9366267117001
 20
-38.73773452979998
 30
0.0
  0
VERTEX
  5
3535
  8
3
 10
285.20469418
 20
-38.98226537080001
 30
0.0
  0
VERTEX
  5
3536
  8
3
 10
284.7156324978999
 20
-39.34823163670001
 30
0.0
  0
VERTEX
  5
3537
  8
3
 10
284.5438968732
 20
-39.77991828080002
 30
0.0
  0
VERTEX
  5
3538
  8
3
 10
284.7156324978999
 20
-40.21160492500002
 30
0.0
  0
VERTEX
  5
3539
  8
3
 10
285.20469418
 20
-40.57757119090002
 30
0.0
  0
VERTEX
  5
353A
  8
3
 10
285.9366267117001
 20
-40.82210203189999
 30
0.0
  0
VERTEX
  5
353B
  8
3
 10
286.8000000000001
 20
-40.9079698443
 30
0.0
  0
VERTEX
  5
353C
  8
3
 10
287.6633732884001
 20
-40.82210203189999
 30
0.0
  0
VERTEX
  5
353D
  8
3
 10
288.3953058200999
 20
-40.57757119090002
 30
0.0
  0
VERTEX
  5
353E
  8
3
 10
288.8843675022
 20
-40.21160492500002
 30
0.0
  0
VERTEX
  5
353F
  8
3
 10
289.0561031269
 20
-39.77991828080002
 30
0.0
  0
SEQEND
  5
3727
  8
3
  0
LINE
  5
DAA
  8
3
 10
288.0500000000001
 20
-37.90304517229998
 30
0.0
 11
288.0500000000001
 21
-37.18135733579999
 31
0.0
  0
LINE
  5
DAB
  8
3
 10
288.0500000000001
 20
-37.90304517229998
 30
0.0
 11
288.0500000000001
 21
-40.2413137625
 31
0.0
  0
LINE
  5
DAC
  8
3
 10
285.5500000000001
 20
-37.90304517229998
 30
0.0
 11
285.5500000000001
 21
-37.18135733579999
 31
0.0
  0
LINE
  5
DAD
  8
3
 10
285.5500000000001
 20
-37.90304517229998
 30
0.0
 11
285.5500000000001
 21
-40.2413137625
 31
0.0
  0
POLYLINE
  5
DAE
  8
3
 66
     1
 10
0.0
 20
0.0
 30
0.0
  0
VERTEX
  5
3540
  8
3
 10
286.8000000000001
 20
-40.9079698443
 30
0.0
  0
VERTEX
  5
3541
  8
3
 10
286.0135855464999
 20
-40.82975606389999
 30
0.0
  0
VERTEX
  5
3542
  8
3
 10
285.3468955647
 20
-40.60702206190001
 30
0.0
  0
VERTEX
  5
3543
  8
3
 10
284.9014275607
 20
-40.27367707100001
 30
0.0
  0
VERTEX
  5
3544
  8
3
 10
284.745
 20
-39.88046984429997
 30
0.0
  0
VERTEX
  5
3545
  8
3
 10
284.9014275607
 20
-39.48726261749999
 30
0.0
  0
VERTEX
  5
3546
  8
3
 10
285.3468955647
 20
-39.15391762659999
 30
0.0
  0
VERTEX
  5
3547
  8
3
 10
286.0135855464999
 20
-38.93118362460001
 30
0.0
  0
VERTEX
  5
3548
  8
3
 10
286.8000000000001
 20
-38.85296984429999
 30
0.0
  0
VERTEX
  5
3549
  8
3
 10
287.5864144536
 20
-38.93118362460001
 30
0.0
  0
VERTEX
  5
354A
  8
3
 10
288.2531044353999
 20
-39.15391762659999
 30
0.0
  0
VERTEX
  5
354B
  8
3
 10
288.6985724394
 20
-39.48726261749999
 30
0.0
  0
VERTEX
  5
354C
  8
3
 10
288.8549999999999
 20
-39.88046984429997
 30
0.0
  0
VERTEX
  5
354D
  8
3
 10
288.6985724394
 20
-40.27367707100001
 30
0.0
  0
VERTEX
  5
354E
  8
3
 10
288.2531044353999
 20
-40.60702206190001
 30
0.0
  0
VERTEX
  5
354F
  8
3
 10
287.5864144536
 20
-40.82975606389999
 30
0.0
  0
VERTEX
  5
3550
  8
3
 10
286.8000000000001
 20
-40.9079698443
 30
0.0
  0
SEQEND
  5
3726
  8
3
  0
LINE
  5
DAF
  8
3
 10
288.0500000000001
 20
-40.2413137625
 30
0.0
 11
286.8000000000001
 21
-40.60215768069997
 31
0.0
  0
LINE
  5
DB0
  8
3
 10
285.5500000000001
 20
-40.2413137625
 30
0.0
 11
286.8000000000001
 21
-40.60215768069997
 31
0.0
  0
LINE
  5
DB1
  8
3
 10
285.5500000000001
 20
-39.519625926
 30
0.0
 11
286.8000000000001
 21
-39.15878200779997
 31
0.0
  0
LINE
  5
DB2
  8
3
 10
285.5500000000001
 20
-37.18135733579999
 30
0.0
 11
286.8000000000001
 21
-36.82051341749997
 31
0.0
  0
LINE
  5
DB3
  8
3
 10
288.0500000000001
 20
-39.519625926
 30
0.0
 11
286.8000000000001
 21
-39.15878200779997
 31
0.0
  0
LINE
  5
DB4
  8
3
 10
288.0500000000001
 20
-37.18135733579999
 30
0.0
 11
286.8000000000001
 21
-36.82051341749997
 31
0.0
  0
POLYLINE
  5
DB5
  8
3
 66
     1
 10
0.0
 20
0.0
 30
0.0
  0
VERTEX
  5
3551
  8
3
 10
286.8000000000001
 20
33.80931742159999
 30
0.0
  0
VERTEX
  5
3552
  8
3
 10
286.1303039933999
 20
33.87592283060002
 30
0.0
  0
VERTEX
  5
3553
  8
3
 10
285.562563133
 20
34.06559898800003
 30
0.0
  0
VERTEX
  5
3554
  8
3
 10
285.1832108181001
 20
34.34946941830003
 30
0.0
  0
VERTEX
  5
3555
  8
3
 10
285.0500000000001
 20
34.68431742159999
 30
0.0
  0
VERTEX
  5
3556
  8
3
 10
285.1832108181001
 20
35.0191654249
 30
0.0
  0
VERTEX
  5
3557
  8
3
 10
285.562563133
 20
35.30303585510001
 30
0.0
  0
VERTEX
  5
3558
  8
3
 10
286.1303039933999
 20
35.49271201250002
 30
0.0
  0
VERTEX
  5
3559
  8
3
 10
286.8000000000001
 20
35.55931742159999
 30
0.0
  0
VERTEX
  5
355A
  8
3
 10
287.4696960067
 20
35.49271201250002
 30
0.0
  0
VERTEX
  5
355B
  8
3
 10
288.0374368670999
 20
35.30303585510001
 30
0.0
  0
VERTEX
  5
355C
  8
3
 10
288.4167891819001
 20
35.0191654249
 30
0.0
  0
VERTEX
  5
355D
  8
3
 10
288.5500000000001
 20
34.68431742159999
 30
0.0
  0
VERTEX
  5
355E
  8
3
 10
288.4167891819001
 20
34.34946941830003
 30
0.0
  0
VERTEX
  5
355F
  8
3
 10
288.0374368670999
 20
34.06559898800003
 30
0.0
  0
VERTEX
  5
3560
  8
3
 10
287.4696960067
 20
33.87592283060002
 30
0.0
  0
VERTEX
  5
3561
  8
3
 10
286.8000000000001
 20
33.80931742159999
 30
0.0
  0
SEQEND
  5
3725
  8
3
  0
POLYLINE
  5
DB6
  8
3
 66
     1
 10
0.0
 20
0.0
 30
0.0
  0
VERTEX
  5
3562
  8
3
 10
284.4832672566
 20
35.17512237459999
 30
0.0
  0
VERTEX
  5
3563
  8
3
 10
284.6596180360999
 20
35.61840999359998
 30
0.0
  0
VERTEX
  5
3564
  8
3
 10
285.1618225669
 20
35.9942110911
 30
0.0
  0
VERTEX
  5
3565
  8
3
 10
285.9134247619
 20
36.24531335660004
 30
0.0
  0
VERTEX
  5
3566
  8
3
 10
286.8000000000001
 20
36.33348874630002
 30
0.0
  0
VERTEX
  5
3567
  8
3
 10
287.6865752381999
 20
36.24531335660004
 30
0.0
  0
VERTEX
  5
3568
  8
3
 10
288.4381774330999
 20
35.9942110911
 30
0.0
  0
VERTEX
  5
3569
  8
3
 10
288.940381964
 20
35.61840999359998
 30
0.0
  0
VERTEX
  5
356A
  8
3
 10
289.1167327434999
 20
35.17512237459999
 30
0.0
  0
VERTEX
  5
356B
  8
3
 10
288.940381964
 20
34.73183475550002
 30
0.0
  0
VERTEX
  5
356C
  8
3
 10
288.4381774330999
 20
34.356033658
 30
0.0
  0
VERTEX
  5
356D
  8
3
 10
287.6865752381999
 20
34.10493139260001
 30
0.0
  0
VERTEX
  5
356E
  8
3
 10
286.8000000000001
 20
34.01675600280004
 30
0.0
  0
VERTEX
  5
356F
  8
3
 10
285.9134247619
 20
34.10493139260001
 30
0.0
  0
VERTEX
  5
3570
  8
3
 10
285.1618225669
 20
34.356033658
 30
0.0
  0
VERTEX
  5
3571
  8
3
 10
284.6596180360999
 20
34.73183475550002
 30
0.0
  0
VERTEX
  5
3572
  8
3
 10
284.4832672566
 20
35.17512237459999
 30
0.0
  0
SEQEND
  5
3724
  8
3
  0
POLYLINE
  5
DB7
  8
3
 66
     1
 10
0.0
 20
0.0
 30
0.0
  0
VERTEX
  5
3573
  8
3
 10
288.8549999999999
 20
35.33383646010003
 30
0.0
  0
VERTEX
  5
3574
  8
3
 10
288.6985724392999
 20
34.9406292333
 30
0.0
  0
VERTEX
  5
3575
  8
3
 10
288.2531044353999
 20
34.6072842424
 30
0.0
  0
VERTEX
  5
3576
  8
3
 10
287.5864144535
 20
34.38455024040002
 30
0.0
  0
VERTEX
  5
3577
  8
3
 10
286.8000000000001
 20
34.3063364601
 30
0.0
  0
VERTEX
  5
3578
  8
3
 10
286.0135855464999
 20
34.38455024040002
 30
0.0
  0
VERTEX
  5
3579
  8
3
 10
285.3468955647
 20
34.6072842424
 30
0.0
  0
VERTEX
  5
357A
  8
3
 10
284.9014275607
 20
34.9406292333
 30
0.0
  0
VERTEX
  5
357B
  8
3
 10
284.745
 20
35.33383646010003
 30
0.0
  0
VERTEX
  5
357C
  8
3
 10
284.9014275607
 20
35.72704368680002
 30
0.0
  0
VERTEX
  5
357D
  8
3
 10
285.3468955647
 20
36.06038867770002
 30
0.0
  0
VERTEX
  5
357E
  8
3
 10
286.0135855464999
 20
36.2831226797
 30
0.0
  0
VERTEX
  5
357F
  8
3
 10
286.8000000000001
 20
36.36133646010001
 30
0.0
  0
VERTEX
  5
3580
  8
3
 10
287.5864144535
 20
36.2831226797
 30
0.0
  0
VERTEX
  5
3581
  8
3
 10
288.2531044353999
 20
36.06038867770002
 30
0.0
  0
VERTEX
  5
3582
  8
3
 10
288.6985724392999
 20
35.72704368680002
 30
0.0
  0
VERTEX
  5
3583
  8
3
 10
288.8549999999999
 20
35.33383646010003
 30
0.0
  0
SEQEND
  5
3723
  8
3
  0
POLYLINE
  5
DB8
  8
3
 66
     1
 10
0.0
 20
0.0
 30
0.0
  0
VERTEX
  5
3584
  8
3
 10
289.3000000000001
 20
35.60368335470002
 30
0.0
  0
VERTEX
  5
3585
  8
3
 10
289.1096988313001
 20
35.1253290642
 30
0.0
  0
VERTEX
  5
3586
  8
3
 10
288.5677669529999
 20
34.71979987820004
 30
0.0
  0
VERTEX
  5
3587
  8
3
 10
287.7567085808999
 20
34.448833939
 30
0.0
  0
VERTEX
  5
3588
  8
3
 10
286.8000000000001
 20
34.35368335470002
 30
0.0
  0
VERTEX
  5
3589
  8
3
 10
285.8432914190998
 20
34.448833939
 30
0.0
  0
VERTEX
  5
358A
  8
3
 10
285.0322330471
 20
34.71979987820004
 30
0.0
  0
VERTEX
  5
358B
  8
3
 10
284.4903011688001
 20
35.1253290642
 30
0.0
  0
VERTEX
  5
358C
  8
3
 10
284.3000000000001
 20
35.60368335470002
 30
0.0
  0
VERTEX
  5
358D
  8
3
 10
284.4903011688001
 20
36.0820376451
 30
0.0
  0
VERTEX
  5
358E
  8
3
 10
285.0322330471
 20
36.48756683120001
 30
0.0
  0
VERTEX
  5
358F
  8
3
 10
285.8432914190998
 20
36.75853277030001
 30
0.0
  0
VERTEX
  5
3590
  8
3
 10
286.8000000000001
 20
36.85368335470002
 30
0.0
  0
VERTEX
  5
3591
  8
3
 10
287.7567085808999
 20
36.75853277030001
 30
0.0
  0
VERTEX
  5
3592
  8
3
 10
288.5677669529999
 20
36.48756683120001
 30
0.0
  0
VERTEX
  5
3593
  8
3
 10
289.1096988313001
 20
36.0820376451
 30
0.0
  0
VERTEX
  5
3594
  8
3
 10
289.3000000000001
 20
35.60368335470002
 30
0.0
  0
SEQEND
  5
3722
  8
3
  0
POLYLINE
  5
DB9
  8
3
 66
     1
 10
0.0
 20
0.0
 30
0.0
  0
VERTEX
  5
3595
  8
3
 10
289.3000000000001
 20
35.681722906
 30
0.0
  0
VERTEX
  5
3596
  8
3
 10
289.1096988313001
 20
35.20336861560003
 30
0.0
  0
VERTEX
  5
3597
  8
3
 10
288.5677669529999
 20
34.7978394296
 30
0.0
  0
VERTEX
  5
3598
  8
3
 10
287.7567085808999
 20
34.52687349040002
 30
0.0
  0
VERTEX
  5
3599
  8
3
 10
286.8000000000001
 20
34.431722906
 30
0.0
  0
VERTEX
  5
359A
  8
3
 10
285.8432914190998
 20
34.52687349040002
 30
0.0
  0
VERTEX
  5
359B
  8
3
 10
285.0322330471
 20
34.7978394296
 30
0.0
  0
VERTEX
  5
359C
  8
3
 10
284.4903011688001
 20
35.20336861560003
 30
0.0
  0
VERTEX
  5
359D
  8
3
 10
284.3000000000001
 20
35.681722906
 30
0.0
  0
VERTEX
  5
359E
  8
3
 10
284.4903011688001
 20
36.16007719650003
 30
0.0
  0
VERTEX
  5
359F
  8
3
 10
285.0322330471
 20
36.56560638249999
 30
0.0
  0
VERTEX
  5
35A0
  8
3
 10
285.8432914190998
 20
36.83657232170003
 30
0.0
  0
VERTEX
  5
35A1
  8
3
 10
286.8000000000001
 20
36.931722906
 30
0.0
  0
VERTEX
  5
35A2
  8
3
 10
287.7567085808999
 20
36.83657232170003
 30
0.0
  0
VERTEX
  5
35A3
  8
3
 10
288.5677669529999
 20
36.56560638249999
 30
0.0
  0
VERTEX
  5
35A4
  8
3
 10
289.1096988313001
 20
36.16007719650003
 30
0.0
  0
VERTEX
  5
35A5
  8
3
 10
289.3000000000001
 20
35.681722906
 30
0.0
  0
SEQEND
  5
3721
  8
3
  0
POLYLINE
  5
DBA
  8
3
 66
     1
 10
0.0
 20
0.0
 30
0.0
  0
VERTEX
  5
35A6
  8
3
 10
288.8549999999999
 20
35.95156980069999
 30
0.0
  0
VERTEX
  5
35A7
  8
3
 10
288.6985724392999
 20
35.55836257390001
 30
0.0
  0
VERTEX
  5
35A8
  8
3
 10
288.2531044353999
 20
35.22501758300001
 30
0.0
  0
VERTEX
  5
35A9
  8
3
 10
287.5864144535
 20
35.00228358100003
 30
0.0
  0
VERTEX
  5
35AA
  8
3
 10
286.8000000000001
 20
34.92406980070001
 30
0.0
  0
VERTEX
  5
35AB
  8
3
 10
286.0135855464999
 20
35.00228358100003
 30
0.0
  0
VERTEX
  5
35AC
  8
3
 10
285.3468955647
 20
35.22501758300001
 30
0.0
  0
VERTEX
  5
35AD
  8
3
 10
284.9014275607
 20
35.55836257390001
 30
0.0
  0
VERTEX
  5
35AE
  8
3
 10
284.745
 20
35.95156980069999
 30
0.0
  0
VERTEX
  5
35AF
  8
3
 10
284.9014275607
 20
36.34477702740003
 30
0.0
  0
VERTEX
  5
35B0
  8
3
 10
285.3468955647
 20
36.67812201830003
 30
0.0
  0
VERTEX
  5
35B1
  8
3
 10
286.0135855464999
 20
36.90085602030001
 30
0.0
  0
VERTEX
  5
35B2
  8
3
 10
286.8000000000001
 20
36.97906980070002
 30
0.0
  0
VERTEX
  5
35B3
  8
3
 10
287.5864144535
 20
36.90085602030001
 30
0.0
  0
VERTEX
  5
35B4
  8
3
 10
288.2531044353999
 20
36.67812201830003
 30
0.0
  0
VERTEX
  5
35B5
  8
3
 10
288.6985724392999
 20
36.34477702740003
 30
0.0
  0
VERTEX
  5
35B6
  8
3
 10
288.8549999999999
 20
35.95156980069999
 30
0.0
  0
SEQEND
  5
3720
  8
3
  0
POLYLINE
  5
DBB
  8
3
 66
     1
 10
0.0
 20
0.0
 30
0.0
  0
VERTEX
  5
35B7
  8
3
 10
289.3000000000001
 20
36.22141669530004
 30
0.0
  0
VERTEX
  5
35B8
  8
3
 10
289.1096988313001
 20
35.74306240480001
 30
0.0
  0
VERTEX
  5
35B9
  8
3
 10
288.5677669529999
 20
35.33753321879999
 30
0.0
  0
VERTEX
  5
35BA
  8
3
 10
287.7567085808999
 20
35.0665672797
 30
0.0
  0
VERTEX
  5
35BB
  8
3
 10
286.8000000000001
 20
34.97141669530004
 30
0.0
  0
VERTEX
  5
35BC
  8
3
 10
285.8432914190998
 20
35.0665672797
 30
0.0
  0
VERTEX
  5
35BD
  8
3
 10
285.0322330471
 20
35.33753321879999
 30
0.0
  0
VERTEX
  5
35BE
  8
3
 10
284.4903011686999
 20
35.74306240480001
 30
0.0
  0
VERTEX
  5
35BF
  8
3
 10
284.3000000000001
 20
36.22141669530004
 30
0.0
  0
VERTEX
  5
35C0
  8
3
 10
284.4903011686999
 20
36.69977098570001
 30
0.0
  0
VERTEX
  5
35C1
  8
3
 10
285.0322330471
 20
37.10530017180002
 30
0.0
  0
VERTEX
  5
35C2
  8
3
 10
285.8432914190998
 20
37.37626611090002
 30
0.0
  0
VERTEX
  5
35C3
  8
3
 10
286.8000000000001
 20
37.47141669530004
 30
0.0
  0
VERTEX
  5
35C4
  8
3
 10
287.7567085808999
 20
37.37626611090002
 30
0.0
  0
VERTEX
  5
35C5
  8
3
 10
288.5677669529999
 20
37.10530017180002
 30
0.0
  0
VERTEX
  5
35C6
  8
3
 10
289.1096988313001
 20
36.69977098570001
 30
0.0
  0
VERTEX
  5
35C7
  8
3
 10
289.3000000000001
 20
36.22141669530004
 30
0.0
  0
SEQEND
  5
371F
  8
3
  0
POLYLINE
  5
DBC
  8
3
 66
     1
 10
0.0
 20
0.0
 30
0.0
  0
VERTEX
  5
35C8
  8
3
 10
289.3000000000001
 20
36.29945624660002
 30
0.0
  0
VERTEX
  5
35C9
  8
3
 10
289.1096988313001
 20
35.82110195619998
 30
0.0
  0
VERTEX
  5
35CA
  8
3
 10
288.5677669529999
 20
35.41557277020001
 30
0.0
  0
VERTEX
  5
35CB
  8
3
 10
287.7567085808999
 20
35.14460683100003
 30
0.0
  0
VERTEX
  5
35CC
  8
3
 10
286.8000000000001
 20
35.04945624660002
 30
0.0
  0
VERTEX
  5
35CD
  8
3
 10
285.8432914190998
 20
35.14460683100003
 30
0.0
  0
VERTEX
  5
35CE
  8
3
 10
285.0322330471
 20
35.41557277020001
 30
0.0
  0
VERTEX
  5
35CF
  8
3
 10
284.4903011686999
 20
35.82110195619998
 30
0.0
  0
VERTEX
  5
35D0
  8
3
 10
284.3000000000001
 20
36.29945624660002
 30
0.0
  0
VERTEX
  5
35D1
  8
3
 10
284.4903011686999
 20
36.77781053709998
 30
0.0
  0
VERTEX
  5
35D2
  8
3
 10
285.0322330471
 20
37.1833397231
 30
0.0
  0
VERTEX
  5
35D3
  8
3
 10
285.8432914190998
 20
37.45430566229999
 30
0.0
  0
VERTEX
  5
35D4
  8
3
 10
286.8000000000001
 20
37.54945624660002
 30
0.0
  0
VERTEX
  5
35D5
  8
3
 10
287.7567085808999
 20
37.45430566229999
 30
0.0
  0
VERTEX
  5
35D6
  8
3
 10
288.5677669529999
 20
37.1833397231
 30
0.0
  0
VERTEX
  5
35D7
  8
3
 10
289.1096988313001
 20
36.77781053709998
 30
0.0
  0
VERTEX
  5
35D8
  8
3
 10
289.3000000000001
 20
36.29945624660002
 30
0.0
  0
SEQEND
  5
371E
  8
3
  0
POLYLINE
  5
DBD
  8
3
 66
     1
 10
0.0
 20
0.0
 30
0.0
  0
VERTEX
  5
35D9
  8
3
 10
288.8549999999999
 20
36.5693031413
 30
0.0
  0
VERTEX
  5
35DA
  8
3
 10
288.6985724392999
 20
36.17609591450002
 30
0.0
  0
VERTEX
  5
35DB
  8
3
 10
288.2531044353999
 20
35.84275092360002
 30
0.0
  0
VERTEX
  5
35DC
  8
3
 10
287.5864144535
 20
35.62001692159998
 30
0.0
  0
VERTEX
  5
35DD
  8
3
 10
286.8000000000001
 20
35.54180314130002
 30
0.0
  0
VERTEX
  5
35DE
  8
3
 10
286.0135855464999
 20
35.62001692159998
 30
0.0
  0
VERTEX
  5
35DF
  8
3
 10
285.3468955647
 20
35.84275092360002
 30
0.0
  0
VERTEX
  5
35E0
  8
3
 10
284.9014275607
 20
36.17609591450002
 30
0.0
  0
VERTEX
  5
35E1
  8
3
 10
284.745
 20
36.5693031413
 30
0.0
  0
VERTEX
  5
35E2
  8
3
 10
284.9014275607
 20
36.96251036799998
 30
0.0
  0
VERTEX
  5
35E3
  8
3
 10
285.3468955647
 20
37.29585535889998
 30
0.0
  0
VERTEX
  5
35E4
  8
3
 10
286.0135855464999
 20
37.51858936090002
 30
0.0
  0
VERTEX
  5
35E5
  8
3
 10
286.8000000000001
 20
37.59680314130003
 30
0.0
  0
VERTEX
  5
35E6
  8
3
 10
287.5864144535
 20
37.51858936090002
 30
0.0
  0
VERTEX
  5
35E7
  8
3
 10
288.2531044353999
 20
37.29585535889998
 30
0.0
  0
VERTEX
  5
35E8
  8
3
 10
288.6985724392999
 20
36.96251036799998
 30
0.0
  0
VERTEX
  5
35E9
  8
3
 10
288.8549999999999
 20
36.5693031413
 30
0.0
  0
SEQEND
  5
371D
  8
3
  0
POLYLINE
  5
DBE
  8
3
 66
     1
 10
0.0
 20
0.0
 30
0.0
  0
VERTEX
  5
35EA
  8
3
 10
289.3000000000001
 20
36.83915003589999
 30
0.0
  0
VERTEX
  5
35EB
  8
3
 10
289.1096988313001
 20
36.36079574540003
 30
0.0
  0
VERTEX
  5
35EC
  8
3
 10
288.5677669529999
 20
35.9552665594
 30
0.0
  0
VERTEX
  5
35ED
  8
3
 10
287.7567085808999
 20
35.68430062030001
 30
0.0
  0
VERTEX
  5
35EE
  8
3
 10
286.8000000000001
 20
35.58915003589999
 30
0.0
  0
VERTEX
  5
35EF
  8
3
 10
285.8432914190998
 20
35.68430062030001
 30
0.0
  0
VERTEX
  5
35F0
  8
3
 10
285.0322330471
 20
35.9552665594
 30
0.0
  0
VERTEX
  5
35F1
  8
3
 10
284.4903011688001
 20
36.36079574540003
 30
0.0
  0
VERTEX
  5
35F2
  8
3
 10
284.3000000000001
 20
36.83915003589999
 30
0.0
  0
VERTEX
  5
35F3
  8
3
 10
284.4903011688001
 20
37.31750432640001
 30
0.0
  0
VERTEX
  5
35F4
  8
3
 10
285.0322330471
 20
37.72303351240004
 30
0.0
  0
VERTEX
  5
35F5
  8
3
 10
285.8432914190998
 20
37.99399945150003
 30
0.0
  0
VERTEX
  5
35F6
  8
3
 10
286.8000000000001
 20
38.08915003589999
 30
0.0
  0
VERTEX
  5
35F7
  8
3
 10
287.7567085808999
 20
37.99399945150003
 30
0.0
  0
VERTEX
  5
35F8
  8
3
 10
288.5677669529999
 20
37.72303351240004
 30
0.0
  0
VERTEX
  5
35F9
  8
3
 10
289.1096988313001
 20
37.31750432640001
 30
0.0
  0
VERTEX
  5
35FA
  8
3
 10
289.3000000000001
 20
36.83915003589999
 30
0.0
  0
SEQEND
  5
371C
  8
3
  0
POLYLINE
  5
DBF
  8
3
 66
     1
 10
0.0
 20
0.0
 30
0.0
  0
VERTEX
  5
35FB
  8
3
 10
289.3000000000001
 20
36.91718958730002
 30
0.0
  0
VERTEX
  5
35FC
  8
3
 10
289.1096988313001
 20
36.43883529679999
 30
0.0
  0
VERTEX
  5
35FD
  8
3
 10
288.5677669529999
 20
36.03330611080003
 30
0.0
  0
VERTEX
  5
35FE
  8
3
 10
287.7567085808999
 20
35.76234017159999
 30
0.0
  0
VERTEX
  5
35FF
  8
3
 10
286.8000000000001
 20
35.66718958730002
 30
0.0
  0
VERTEX
  5
3600
  8
3
 10
285.8432914190998
 20
35.76234017159999
 30
0.0
  0
VERTEX
  5
3601
  8
3
 10
285.0322330471
 20
36.03330611080003
 30
0.0
  0
VERTEX
  5
3602
  8
3
 10
284.4903011688001
 20
36.43883529679999
 30
0.0
  0
VERTEX
  5
3603
  8
3
 10
284.3000000000001
 20
36.91718958730002
 30
0.0
  0
VERTEX
  5
3604
  8
3
 10
284.4903011688001
 20
37.39554387769999
 30
0.0
  0
VERTEX
  5
3605
  8
3
 10
285.0322330471
 20
37.80107306370002
 30
0.0
  0
VERTEX
  5
3606
  8
3
 10
285.8432914190998
 20
38.0720390029
 30
0.0
  0
VERTEX
  5
3607
  8
3
 10
286.8000000000001
 20
38.16718958730002
 30
0.0
  0
VERTEX
  5
3608
  8
3
 10
287.7567085808999
 20
38.0720390029
 30
0.0
  0
VERTEX
  5
3609
  8
3
 10
288.5677669529999
 20
37.80107306370002
 30
0.0
  0
VERTEX
  5
360A
  8
3
 10
289.1096988313001
 20
37.39554387769999
 30
0.0
  0
VERTEX
  5
360B
  8
3
 10
289.3000000000001
 20
36.91718958730002
 30
0.0
  0
SEQEND
  5
371B
  8
3
  0
POLYLINE
  5
DC0
  8
3
 66
     1
 10
0.0
 20
0.0
 30
0.0
  0
VERTEX
  5
360C
  8
3
 10
288.8549999999999
 20
37.18703648190001
 30
0.0
  0
VERTEX
  5
360D
  8
3
 10
288.6985724392999
 20
36.79382925510004
 30
0.0
  0
VERTEX
  5
360E
  8
3
 10
288.2531044353999
 20
36.46048426420003
 30
0.0
  0
VERTEX
  5
360F
  8
3
 10
287.5864144535
 20
36.2377502622
 30
0.0
  0
VERTEX
  5
3610
  8
3
 10
286.8000000000001
 20
36.15953648190003
 30
0.0
  0
VERTEX
  5
3611
  8
3
 10
286.0135855464999
 20
36.2377502622
 30
0.0
  0
VERTEX
  5
3612
  8
3
 10
285.3468955647
 20
36.46048426420003
 30
0.0
  0
VERTEX
  5
3613
  8
3
 10
284.9014275607
 20
36.79382925510004
 30
0.0
  0
VERTEX
  5
3614
  8
3
 10
284.745
 20
37.18703648190001
 30
0.0
  0
VERTEX
  5
3615
  8
3
 10
284.9014275607
 20
37.58024370859999
 30
0.0
  0
VERTEX
  5
3616
  8
3
 10
285.3468955647
 20
37.9135886995
 30
0.0
  0
VERTEX
  5
3617
  8
3
 10
286.0135855464999
 20
38.13632270150003
 30
0.0
  0
VERTEX
  5
3618
  8
3
 10
286.8000000000001
 20
38.21453648189998
 30
0.0
  0
VERTEX
  5
3619
  8
3
 10
287.5864144535
 20
38.13632270150003
 30
0.0
  0
VERTEX
  5
361A
  8
3
 10
288.2531044353999
 20
37.9135886995
 30
0.0
  0
VERTEX
  5
361B
  8
3
 10
288.6985724392999
 20
37.58024370859999
 30
0.0
  0
VERTEX
  5
361C
  8
3
 10
288.8549999999999
 20
37.18703648190001
 30
0.0
  0
SEQEND
  5
371A
  8
3
  0
POLYLINE
  5
DC1
  8
3
 66
     1
 10
0.0
 20
0.0
 30
0.0
  0
VERTEX
  5
361D
  8
3
 10
289.3000000000001
 20
37.4568833765
 30
0.0
  0
VERTEX
  5
361E
  8
3
 10
289.1096988313001
 20
36.97852908600004
 30
0.0
  0
VERTEX
  5
361F
  8
3
 10
288.5677669529999
 20
36.57299990000001
 30
0.0
  0
VERTEX
  5
3620
  8
3
 10
287.7567085808999
 20
36.30203396090002
 30
0.0
  0
VERTEX
  5
3621
  8
3
 10
286.8000000000001
 20
36.2068833765
 30
0.0
  0
VERTEX
  5
3622
  8
3
 10
285.8432914190998
 20
36.30203396090002
 30
0.0
  0
VERTEX
  5
3623
  8
3
 10
285.0322330471
 20
36.57299990000001
 30
0.0
  0
VERTEX
  5
3624
  8
3
 10
284.4903011688001
 20
36.97852908600004
 30
0.0
  0
VERTEX
  5
3625
  8
3
 10
284.3000000000001
 20
37.4568833765
 30
0.0
  0
VERTEX
  5
3626
  8
3
 10
284.4903011688001
 20
37.93523766700002
 30
0.0
  0
VERTEX
  5
3627
  8
3
 10
285.0322330471
 20
38.34076685299999
 30
0.0
  0
VERTEX
  5
3628
  8
3
 10
285.8432914190998
 20
38.61173279209999
 30
0.0
  0
VERTEX
  5
3629
  8
3
 10
286.8000000000001
 20
38.7068833765
 30
0.0
  0
VERTEX
  5
362A
  8
3
 10
287.7567085808999
 20
38.61173279209999
 30
0.0
  0
VERTEX
  5
362B
  8
3
 10
288.5677669529999
 20
38.34076685299999
 30
0.0
  0
VERTEX
  5
362C
  8
3
 10
289.1096988313001
 20
37.93523766700002
 30
0.0
  0
VERTEX
  5
362D
  8
3
 10
289.3000000000001
 20
37.4568833765
 30
0.0
  0
SEQEND
  5
3719
  8
3
  0
POLYLINE
  5
DC2
  8
3
 66
     1
 10
0.0
 20
0.0
 30
0.0
  0
VERTEX
  5
362E
  8
3
 10
289.3000000000001
 20
37.53492292790003
 30
0.0
  0
VERTEX
  5
362F
  8
3
 10
289.1096988313001
 20
37.05656863740001
 30
0.0
  0
VERTEX
  5
3630
  8
3
 10
288.5677669529999
 20
36.65103945139998
 30
0.0
  0
VERTEX
  5
3631
  8
3
 10
287.7567085808999
 20
36.3800735122
 30
0.0
  0
VERTEX
  5
3632
  8
3
 10
286.8000000000001
 20
36.28492292790003
 30
0.0
  0
VERTEX
  5
3633
  8
3
 10
285.8432914190998
 20
36.3800735122
 30
0.0
  0
VERTEX
  5
3634
  8
3
 10
285.0322330471
 20
36.65103945139998
 30
0.0
  0
VERTEX
  5
3635
  8
3
 10
284.4903011688001
 20
37.05656863740001
 30
0.0
  0
VERTEX
  5
3636
  8
3
 10
284.3000000000001
 20
37.53492292790003
 30
0.0
  0
VERTEX
  5
3637
  8
3
 10
284.4903011688001
 20
38.0132772183
 30
0.0
  0
VERTEX
  5
3638
  8
3
 10
285.0322330471
 20
38.41880640430003
 30
0.0
  0
VERTEX
  5
3639
  8
3
 10
285.8432914190998
 20
38.68977234350001
 30
0.0
  0
VERTEX
  5
363A
  8
3
 10
286.8000000000001
 20
38.78492292790003
 30
0.0
  0
VERTEX
  5
363B
  8
3
 10
287.7567085808999
 20
38.68977234350001
 30
0.0
  0
VERTEX
  5
363C
  8
3
 10
288.5677669529999
 20
38.41880640430003
 30
0.0
  0
VERTEX
  5
363D
  8
3
 10
289.1096988313001
 20
38.0132772183
 30
0.0
  0
VERTEX
  5
363E
  8
3
 10
289.3000000000001
 20
37.53492292790003
 30
0.0
  0
SEQEND
  5
3718
  8
3
  0
POLYLINE
  5
DC3
  8
3
 66
     1
 10
0.0
 20
0.0
 30
0.0
  0
VERTEX
  5
363F
  8
3
 10
288.8549999999999
 20
37.80476982250002
 30
0.0
  0
VERTEX
  5
3640
  8
3
 10
288.6985724392999
 20
37.41156259569999
 30
0.0
  0
VERTEX
  5
3641
  8
3
 10
288.2531044353999
 20
37.07821760479999
 30
0.0
  0
VERTEX
  5
3642
  8
3
 10
287.5864144535
 20
36.85548360280001
 30
0.0
  0
VERTEX
  5
3643
  8
3
 10
286.8000000000001
 20
36.77726982249999
 30
0.0
  0
VERTEX
  5
3644
  8
3
 10
286.0135855464999
 20
36.85548360280001
 30
0.0
  0
VERTEX
  5
3645
  8
3
 10
285.3468955647
 20
37.07821760479999
 30
0.0
  0
VERTEX
  5
3646
  8
3
 10
284.9014275607
 20
37.41156259569999
 30
0.0
  0
VERTEX
  5
3647
  8
3
 10
284.745
 20
37.80476982250002
 30
0.0
  0
VERTEX
  5
3648
  8
3
 10
284.9014275607
 20
38.19797704920001
 30
0.0
  0
VERTEX
  5
3649
  8
3
 10
285.3468955647
 20
38.53132204010001
 30
0.0
  0
VERTEX
  5
364A
  8
3
 10
286.0135855464999
 20
38.75405604209999
 30
0.0
  0
VERTEX
  5
364B
  8
3
 10
286.8000000000001
 20
38.8322698225
 30
0.0
  0
VERTEX
  5
364C
  8
3
 10
287.5864144535
 20
38.75405604209999
 30
0.0
  0
VERTEX
  5
364D
  8
3
 10
288.2531044353999
 20
38.53132204010001
 30
0.0
  0
VERTEX
  5
364E
  8
3
 10
288.6985724392999
 20
38.19797704920001
 30
0.0
  0
VERTEX
  5
364F
  8
3
 10
288.8549999999999
 20
37.80476982250002
 30
0.0
  0
SEQEND
  5
3717
  8
3
  0
POLYLINE
  5
DC4
  8
3
 66
     1
 10
0.0
 20
0.0
 30
0.0
  0
VERTEX
  5
3650
  8
3
 10
289.3000000000001
 20
38.07461671710001
 30
0.0
  0
VERTEX
  5
3651
  8
3
 10
289.1096988313001
 20
37.59626242659999
 30
0.0
  0
VERTEX
  5
3652
  8
3
 10
288.5677669529999
 20
37.19073324060003
 30
0.0
  0
VERTEX
  5
3653
  8
3
 10
287.7567085808999
 20
36.91976730150003
 30
0.0
  0
VERTEX
  5
3654
  8
3
 10
286.8000000000001
 20
36.82461671710001
 30
0.0
  0
VERTEX
  5
3655
  8
3
 10
285.8432914190998
 20
36.91976730150003
 30
0.0
  0
VERTEX
  5
3656
  8
3
 10
285.0322330471
 20
37.19073324060003
 30
0.0
  0
VERTEX
  5
3657
  8
3
 10
284.4903011688001
 20
37.59626242659999
 30
0.0
  0
VERTEX
  5
3658
  8
3
 10
284.3000000000001
 20
38.07461671710001
 30
0.0
  0
VERTEX
  5
3659
  8
3
 10
284.4903011688001
 20
38.55297100760004
 30
0.0
  0
VERTEX
  5
365A
  8
3
 10
285.0322330471
 20
38.9585001936
 30
0.0
  0
VERTEX
  5
365B
  8
3
 10
285.8432914190998
 20
39.2294661327
 30
0.0
  0
VERTEX
  5
365C
  8
3
 10
286.8000000000001
 20
39.32461671710001
 30
0.0
  0
VERTEX
  5
365D
  8
3
 10
287.7567085808999
 20
39.2294661327
 30
0.0
  0
VERTEX
  5
365E
  8
3
 10
288.5677669529999
 20
38.9585001936
 30
0.0
  0
VERTEX
  5
365F
  8
3
 10
289.1096988313001
 20
38.55297100760004
 30
0.0
  0
VERTEX
  5
3660
  8
3
 10
289.3000000000001
 20
38.07461671710001
 30
0.0
  0
SEQEND
  5
3716
  8
3
  0
POLYLINE
  5
DC5
  8
3
 66
     1
 10
0.0
 20
0.0
 30
0.0
  0
VERTEX
  5
3661
  8
3
 10
289.3000000000001
 20
38.15265626849998
 30
0.0
  0
VERTEX
  5
3662
  8
3
 10
289.1096988313001
 20
37.67430197800002
 30
0.0
  0
VERTEX
  5
3663
  8
3
 10
288.5677669529999
 20
37.26877279199999
 30
0.0
  0
VERTEX
  5
3664
  8
3
 10
287.7567085808999
 20
36.99780685280001
 30
0.0
  0
VERTEX
  5
3665
  8
3
 10
286.8000000000001
 20
36.90265626849998
 30
0.0
  0
VERTEX
  5
3666
  8
3
 10
285.8432914190998
 20
36.99780685280001
 30
0.0
  0
VERTEX
  5
3667
  8
3
 10
285.0322330471
 20
37.26877279199999
 30
0.0
  0
VERTEX
  5
3668
  8
3
 10
284.4903011688001
 20
37.67430197800002
 30
0.0
  0
VERTEX
  5
3669
  8
3
 10
284.3000000000001
 20
38.15265626849998
 30
0.0
  0
VERTEX
  5
366A
  8
3
 10
284.4903011688001
 20
38.63101055890002
 30
0.0
  0
VERTEX
  5
366B
  8
3
 10
285.0322330471
 20
39.03653974489998
 30
0.0
  0
VERTEX
  5
366C
  8
3
 10
285.8432914190998
 20
39.30750568410002
 30
0.0
  0
VERTEX
  5
366D
  8
3
 10
286.8000000000001
 20
39.40265626849998
 30
0.0
  0
VERTEX
  5
366E
  8
3
 10
287.7567085808999
 20
39.30750568410002
 30
0.0
  0
VERTEX
  5
366F
  8
3
 10
288.5677669529999
 20
39.03653974489998
 30
0.0
  0
VERTEX
  5
3670
  8
3
 10
289.1096988313001
 20
38.63101055890002
 30
0.0
  0
VERTEX
  5
3671
  8
3
 10
289.3000000000001
 20
38.15265626849998
 30
0.0
  0
SEQEND
  5
3715
  8
3
  0
POLYLINE
  5
DC6
  8
3
 66
     1
 10
0.0
 20
0.0
 30
0.0
  0
VERTEX
  5
3672
  8
3
 10
288.8549999999999
 20
38.42250316310003
 30
0.0
  0
VERTEX
  5
3673
  8
3
 10
288.6985724392999
 20
38.0292959363
 30
0.0
  0
VERTEX
  5
3674
  8
3
 10
288.2531044353999
 20
37.6959509454
 30
0.0
  0
VERTEX
  5
3675
  8
3
 10
287.5864144535
 20
37.47321694340002
 30
0.0
  0
VERTEX
  5
3676
  8
3
 10
286.8000000000001
 20
37.3950031631
 30
0.0
  0
VERTEX
  5
3677
  8
3
 10
286.0135855464999
 20
37.47321694340002
 30
0.0
  0
VERTEX
  5
3678
  8
3
 10
285.3468955647
 20
37.6959509454
 30
0.0
  0
VERTEX
  5
3679
  8
3
 10
284.9014275607
 20
38.0292959363
 30
0.0
  0
VERTEX
  5
367A
  8
3
 10
284.745
 20
38.42250316310003
 30
0.0
  0
VERTEX
  5
367B
  8
3
 10
284.9014275607
 20
38.81571038980002
 30
0.0
  0
VERTEX
  5
367C
  8
3
 10
285.3468955647
 20
39.14905538080001
 30
0.0
  0
VERTEX
  5
367D
  8
3
 10
286.0135855464999
 20
39.3717893827
 30
0.0
  0
VERTEX
  5
367E
  8
3
 10
286.8000000000001
 20
39.45000316310001
 30
0.0
  0
VERTEX
  5
367F
  8
3
 10
287.5864144535
 20
39.3717893827
 30
0.0
  0
VERTEX
  5
3680
  8
3
 10
288.2531044353999
 20
39.14905538080001
 30
0.0
  0
VERTEX
  5
3681
  8
3
 10
288.6985724392999
 20
38.81571038980002
 30
0.0
  0
VERTEX
  5
3682
  8
3
 10
288.8549999999999
 20
38.42250316310003
 30
0.0
  0
SEQEND
  5
3714
  8
3
  0
POLYLINE
  5
DC7
  8
3
 66
     1
 10
0.0
 20
0.0
 30
0.0
  0
VERTEX
  5
3683
  8
3
 10
289.3000000000001
 20
38.69235005770003
 30
0.0
  0
VERTEX
  5
3684
  8
3
 10
289.1096988313001
 20
38.21399576729999
 30
0.0
  0
VERTEX
  5
3685
  8
3
 10
288.5677669529999
 20
37.80846658120004
 30
0.0
  0
VERTEX
  5
3686
  8
3
 10
287.756708581
 20
37.53750064209999
 30
0.0
  0
VERTEX
  5
3687
  8
3
 10
286.8000000000001
 20
37.44235005770003
 30
0.0
  0
VERTEX
  5
3688
  8
3
 10
285.8432914190998
 20
37.53750064209999
 30
0.0
  0
VERTEX
  5
3689
  8
3
 10
285.0322330471
 20
37.80846658120004
 30
0.0
  0
VERTEX
  5
368A
  8
3
 10
284.4903011688001
 20
38.21399576729999
 30
0.0
  0
VERTEX
  5
368B
  8
3
 10
284.3000000000001
 20
38.69235005770003
 30
0.0
  0
VERTEX
  5
368C
  8
3
 10
284.4903011688001
 20
39.17070434819999
 30
0.0
  0
VERTEX
  5
368D
  8
3
 10
285.0322330471
 20
39.57623353420001
 30
0.0
  0
VERTEX
  5
368E
  8
3
 10
285.8432914190998
 20
39.84719947330001
 30
0.0
  0
VERTEX
  5
368F
  8
3
 10
286.8000000000001
 20
39.94235005770003
 30
0.0
  0
VERTEX
  5
3690
  8
3
 10
287.756708581
 20
39.84719947330001
 30
0.0
  0
VERTEX
  5
3691
  8
3
 10
288.5677669529999
 20
39.57623353420001
 30
0.0
  0
VERTEX
  5
3692
  8
3
 10
289.1096988313001
 20
39.17070434819999
 30
0.0
  0
VERTEX
  5
3693
  8
3
 10
289.3000000000001
 20
38.69235005770003
 30
0.0
  0
SEQEND
  5
3713
  8
3
  0
POLYLINE
  5
DC8
  8
3
 66
     1
 10
0.0
 20
0.0
 30
0.0
  0
VERTEX
  5
3694
  8
3
 10
289.3000000000001
 20
38.77038960909999
 30
0.0
  0
VERTEX
  5
3695
  8
3
 10
289.1096988313001
 20
38.29203531860003
 30
0.0
  0
VERTEX
  5
3696
  8
3
 10
288.5677669529999
 20
37.8865061326
 30
0.0
  0
VERTEX
  5
3697
  8
3
 10
287.756708581
 20
37.61554019340002
 30
0.0
  0
VERTEX
  5
3698
  8
3
 10
286.8000000000001
 20
37.52038960909999
 30
0.0
  0
VERTEX
  5
3699
  8
3
 10
285.8432914190998
 20
37.61554019340002
 30
0.0
  0
VERTEX
  5
369A
  8
3
 10
285.0322330471
 20
37.8865061326
 30
0.0
  0
VERTEX
  5
369B
  8
3
 10
284.4903011688001
 20
38.29203531860003
 30
0.0
  0
VERTEX
  5
369C
  8
3
 10
284.3000000000001
 20
38.77038960909999
 30
0.0
  0
VERTEX
  5
369D
  8
3
 10
284.4903011688001
 20
39.24874389950003
 30
0.0
  0
VERTEX
  5
369E
  8
3
 10
285.0322330471
 20
39.65427308549999
 30
0.0
  0
VERTEX
  5
369F
  8
3
 10
285.8432914190998
 20
39.92523902470003
 30
0.0
  0
VERTEX
  5
36A0
  8
3
 10
286.8000000000001
 20
40.02038960909999
 30
0.0
  0
VERTEX
  5
36A1
  8
3
 10
287.756708581
 20
39.92523902470003
 30
0.0
  0
VERTEX
  5
36A2
  8
3
 10
288.5677669529999
 20
39.65427308549999
 30
0.0
  0
VERTEX
  5
36A3
  8
3
 10
289.1096988313001
 20
39.24874389950003
 30
0.0
  0
VERTEX
  5
36A4
  8
3
 10
289.3000000000001
 20
38.77038960909999
 30
0.0
  0
SEQEND
  5
3712
  8
3
  0
POLYLINE
  5
DC9
  8
3
 66
     1
 10
0.0
 20
0.0
 30
0.0
  0
VERTEX
  5
36A5
  8
3
 10
288.8549999999999
 20
39.04023650369999
 30
0.0
  0
VERTEX
  5
36A6
  8
3
 10
288.6985724394
 20
38.64702927690001
 30
0.0
  0
VERTEX
  5
36A7
  8
3
 10
288.2531044353999
 20
38.31368428600001
 30
0.0
  0
VERTEX
  5
36A8
  8
3
 10
287.5864144536
 20
38.09095028400003
 30
0.0
  0
VERTEX
  5
36A9
  8
3
 10
286.8000000000001
 20
38.01273650370001
 30
0.0
  0
VERTEX
  5
36AA
  8
3
 10
286.0135855464999
 20
38.09095028400003
 30
0.0
  0
VERTEX
  5
36AB
  8
3
 10
285.3468955647
 20
38.31368428600001
 30
0.0
  0
VERTEX
  5
36AC
  8
3
 10
284.9014275607
 20
38.64702927690001
 30
0.0
  0
VERTEX
  5
36AD
  8
3
 10
284.745
 20
39.04023650369999
 30
0.0
  0
VERTEX
  5
36AE
  8
3
 10
284.9014275607
 20
39.43344373040003
 30
0.0
  0
VERTEX
  5
36AF
  8
3
 10
285.3468955647
 20
39.76678872140002
 30
0.0
  0
VERTEX
  5
36B0
  8
3
 10
286.0135855464999
 20
39.98952272330001
 30
0.0
  0
VERTEX
  5
36B1
  8
3
 10
286.8000000000001
 20
40.06773650370002
 30
0.0
  0
VERTEX
  5
36B2
  8
3
 10
287.5864144536
 20
39.98952272330001
 30
0.0
  0
VERTEX
  5
36B3
  8
3
 10
288.2531044353999
 20
39.76678872140002
 30
0.0
  0
VERTEX
  5
36B4
  8
3
 10
288.6985724394
 20
39.43344373040003
 30
0.0
  0
VERTEX
  5
36B5
  8
3
 10
288.8549999999999
 20
39.04023650369999
 30
0.0
  0
SEQEND
  5
3711
  8
3
  0
POLYLINE
  5
DCA
  8
3
 66
     1
 10
0.0
 20
0.0
 30
0.0
  0
VERTEX
  5
36B6
  8
3
 10
289.3000000000001
 20
39.31008339830004
 30
0.0
  0
VERTEX
  5
36B7
  8
3
 10
289.1096988313001
 20
38.8317291079
 30
0.0
  0
VERTEX
  5
36B8
  8
3
 10
288.5677669529999
 20
38.42619992179999
 30
0.0
  0
VERTEX
  5
36B9
  8
3
 10
287.756708581
 20
38.1552339827
 30
0.0
  0
VERTEX
  5
36BA
  8
3
 10
286.8000000000001
 20
38.06008339830004
 30
0.0
  0
VERTEX
  5
36BB
  8
3
 10
285.8432914190998
 20
38.1552339827
 30
0.0
  0
VERTEX
  5
36BC
  8
3
 10
285.0322330471
 20
38.42619992179999
 30
0.0
  0
VERTEX
  5
36BD
  8
3
 10
284.4903011688001
 20
38.8317291079
 30
0.0
  0
VERTEX
  5
36BE
  8
3
 10
284.3000000000001
 20
39.31008339830004
 30
0.0
  0
VERTEX
  5
36BF
  8
3
 10
284.4903011688001
 20
39.7884376888
 30
0.0
  0
VERTEX
  5
36C0
  8
3
 10
285.0322330471
 20
40.19396687480003
 30
0.0
  0
VERTEX
  5
36C1
  8
3
 10
285.8432914190998
 20
40.46493281400001
 30
0.0
  0
VERTEX
  5
36C2
  8
3
 10
286.8000000000001
 20
40.56008339830004
 30
0.0
  0
VERTEX
  5
36C3
  8
3
 10
287.756708581
 20
40.46493281400001
 30
0.0
  0
VERTEX
  5
36C4
  8
3
 10
288.5677669529999
 20
40.19396687480003
 30
0.0
  0
VERTEX
  5
36C5
  8
3
 10
289.1096988313001
 20
39.7884376888
 30
0.0
  0
VERTEX
  5
36C6
  8
3
 10
289.3000000000001
 20
39.31008339830004
 30
0.0
  0
SEQEND
  5
3710
  8
3
  0
LINE
  5
DCB
  8
3
 10
288.0500000000001
 20
37.90304517229998
 30
0.0
 11
286.8000000000001
 21
38.2638890906
 31
0.0
  0
LINE
  5
DCC
  8
3
 10
285.5500000000001
 20
37.90304517229998
 30
0.0
 11
286.8000000000001
 21
38.2638890906
 31
0.0
  0
POLYLINE
  5
DCD
  8
3
 66
     1
 10
0.0
 20
0.0
 30
0.0
  0
VERTEX
  5
36C7
  8
3
 10
289.3000000000001
 20
39.3881229497
 30
0.0
  0
VERTEX
  5
36C8
  8
3
 10
289.1096988313001
 20
38.90976865919998
 30
0.0
  0
VERTEX
  5
36C9
  8
3
 10
288.5677669529999
 20
38.50423947320002
 30
0.0
  0
VERTEX
  5
36CA
  8
3
 10
287.756708581
 20
38.23327353400003
 30
0.0
  0
VERTEX
  5
36CB
  8
3
 10
286.8000000000001
 20
38.1381229497
 30
0.0
  0
VERTEX
  5
36CC
  8
3
 10
285.8432914190998
 20
38.23327353400003
 30
0.0
  0
VERTEX
  5
36CD
  8
3
 10
285.0322330471
 20
38.50423947320002
 30
0.0
  0
VERTEX
  5
36CE
  8
3
 10
284.4903011688001
 20
38.90976865919998
 30
0.0
  0
VERTEX
  5
36CF
  8
3
 10
284.3000000000001
 20
39.3881229497
 30
0.0
  0
VERTEX
  5
36D0
  8
3
 10
284.4903011688001
 20
39.86647724009998
 30
0.0
  0
VERTEX
  5
36D1
  8
3
 10
285.0322330471
 20
40.27200642619999
 30
0.0
  0
VERTEX
  5
36D2
  8
3
 10
285.8432914190998
 20
40.54297236529999
 30
0.0
  0
VERTEX
  5
36D3
  8
3
 10
286.8000000000001
 20
40.6381229497
 30
0.0
  0
VERTEX
  5
36D4
  8
3
 10
287.756708581
 20
40.54297236529999
 30
0.0
  0
VERTEX
  5
36D5
  8
3
 10
288.5677669529999
 20
40.27200642619999
 30
0.0
  0
VERTEX
  5
36D6
  8
3
 10
289.1096988313001
 20
39.86647724009998
 30
0.0
  0
VERTEX
  5
36D7
  8
3
 10
289.3000000000001
 20
39.3881229497
 30
0.0
  0
SEQEND
  5
370F
  8
3
  0
POLYLINE
  5
DCE
  8
3
 66
     1
 10
0.0
 20
0.0
 30
0.0
  0
VERTEX
  5
36D8
  8
3
 10
288.8549999999999
 20
39.6579698443
 30
0.0
  0
VERTEX
  5
36D9
  8
3
 10
288.6985724394
 20
39.26476261750003
 30
0.0
  0
VERTEX
  5
36DA
  8
3
 10
288.2531044353999
 20
38.93141762660002
 30
0.0
  0
VERTEX
  5
36DB
  8
3
 10
287.5864144536
 20
38.70868362459998
 30
0.0
  0
VERTEX
  5
36DC
  8
3
 10
286.8000000000001
 20
38.63046984430002
 30
0.0
  0
VERTEX
  5
36DD
  8
3
 10
286.0135855464999
 20
38.70868362459998
 30
0.0
  0
VERTEX
  5
36DE
  8
3
 10
285.3468955647
 20
38.93141762660002
 30
0.0
  0
VERTEX
  5
36DF
  8
3
 10
284.9014275607
 20
39.26476261750003
 30
0.0
  0
VERTEX
  5
36E0
  8
3
 10
284.745
 20
39.6579698443
 30
0.0
  0
VERTEX
  5
36E1
  8
3
 10
284.9014275607
 20
40.05117707099998
 30
0.0
  0
VERTEX
  5
36E2
  8
3
 10
285.3468955647
 20
40.38452206200003
 30
0.0
  0
VERTEX
  5
36E3
  8
3
 10
286.0135855464999
 20
40.60725606390002
 30
0.0
  0
VERTEX
  5
36E4
  8
3
 10
286.8000000000001
 20
40.68546984430003
 30
0.0
  0
VERTEX
  5
36E5
  8
3
 10
287.5864144536
 20
40.60725606390002
 30
0.0
  0
VERTEX
  5
36E6
  8
3
 10
288.2531044353999
 20
40.38452206200003
 30
0.0
  0
VERTEX
  5
36E7
  8
3
 10
288.6985724394
 20
40.05117707099998
 30
0.0
  0
VERTEX
  5
36E8
  8
3
 10
288.8549999999999
 20
39.6579698443
 30
0.0
  0
SEQEND
  5
370E
  8
3
  0
POLYLINE
  5
DCF
  8
3
 66
     1
 10
0.0
 20
0.0
 30
0.0
  0
VERTEX
  5
36E9
  8
3
 10
289.0561031269
 20
39.77991828090001
 30
0.0
  0
VERTEX
  5
36EA
  8
3
 10
288.8843675022
 20
40.21160492500002
 30
0.0
  0
VERTEX
  5
36EB
  8
3
 10
288.3953058200999
 20
40.57757119090002
 30
0.0
  0
VERTEX
  5
36EC
  8
3
 10
287.6633732884001
 20
40.82210203189999
 30
0.0
  0
VERTEX
  5
36ED
  8
3
 10
286.8000000000001
 20
40.9079698443
 30
0.0
  0
VERTEX
  5
36EE
  8
3
 10
285.9366267117001
 20
40.82210203189999
 30
0.0
  0
VERTEX
  5
36EF
  8
3
 10
285.20469418
 20
40.57757119090002
 30
0.0
  0
VERTEX
  5
36F0
  8
3
 10
284.7156324978999
 20
40.21160492500002
 30
0.0
  0
VERTEX
  5
36F1
  8
3
 10
284.5438968732
 20
39.77991828090001
 30
0.0
  0
VERTEX
  5
36F2
  8
3
 10
284.7156324978999
 20
39.34823163670001
 30
0.0
  0
VERTEX
  5
36F3
  8
3
 10
285.20469418
 20
38.9822653709
 30
0.0
  0
VERTEX
  5
36F4
  8
3
 10
285.9366267117001
 20
38.73773452980004
 30
0.0
  0
VERTEX
  5
36F5
  8
3
 10
286.8000000000001
 20
38.65186671750001
 30
0.0
  0
VERTEX
  5
36F6
  8
3
 10
287.6633732884001
 20
38.73773452980004
 30
0.0
  0
VERTEX
  5
36F7
  8
3
 10
288.3953058200999
 20
38.9822653709
 30
0.0
  0
VERTEX
  5
36F8
  8
3
 10
288.8843675022
 20
39.34823163670001
 30
0.0
  0
VERTEX
  5
36F9
  8
3
 10
289.0561031269
 20
39.77991828090001
 30
0.0
  0
SEQEND
  5
370D
  8
3
  0
LINE
  5
DD0
  8
3
 10
288.0500000000001
 20
37.18135733579999
 30
0.0
 11
288.0500000000001
 21
37.90304517229998
 31
0.0
  0
LINE
  5
DD1
  8
3
 10
288.0500000000001
 20
37.90304517229998
 30
0.0
 11
288.0500000000001
 21
40.2413137625
 31
0.0
  0
LINE
  5
DD2
  8
3
 10
285.5500000000001
 20
37.18135733579999
 30
0.0
 11
285.5500000000001
 21
37.90304517229998
 31
0.0
  0
LINE
  5
DD3
  8
3
 10
285.5500000000001
 20
37.90304517229998
 30
0.0
 11
285.5500000000001
 21
40.2413137625
 31
0.0
  0
POLYLINE
  5
DD4
  8
3
 66
     1
 10
0.0
 20
0.0
 30
0.0
  0
VERTEX
  5
36FA
  8
3
 10
286.8000000000001
 20
38.85296984429999
 30
0.0
  0
VERTEX
  5
36FB
  8
3
 10
286.0135855464999
 20
38.93118362460001
 30
0.0
  0
VERTEX
  5
36FC
  8
3
 10
285.3468955647
 20
39.15391762659999
 30
0.0
  0
VERTEX
  5
36FD
  8
3
 10
284.9014275607
 20
39.48726261749999
 30
0.0
  0
VERTEX
  5
36FE
  8
3
 10
284.745
 20
39.88046984430002
 30
0.0
  0
VERTEX
  5
36FF
  8
3
 10
284.9014275607
 20
40.27367707100001
 30
0.0
  0
VERTEX
  5
3700
  8
3
 10
285.3468955647
 20
40.607022062
 30
0.0
  0
VERTEX
  5
3701
  8
3
 10
286.0135855464999
 20
40.82975606389999
 30
0.0
  0
VERTEX
  5
3702
  8
3
 10
286.8000000000001
 20
40.9079698443
 30
0.0
  0
VERTEX
  5
3703
  8
3
 10
287.5864144536
 20
40.82975606389999
 30
0.0
  0
VERTEX
  5
3704
  8
3
 10
288.2531044353999
 20
40.607022062
 30
0.0
  0
VERTEX
  5
3705
  8
3
 10
288.6985724394
 20
40.27367707100001
 30
0.0
  0
VERTEX
  5
3706
  8
3
 10
288.8549999999999
 20
39.88046984430002
 30
0.0
  0
VERTEX
  5
3707
  8
3
 10
288.6985724394
 20
39.48726261749999
 30
0.0
  0
VERTEX
  5
3708
  8
3
 10
288.2531044353999
 20
39.15391762659999
 30
0.0
  0
VERTEX
  5
3709
  8
3
 10
287.5864144536
 20
38.93118362460001
 30
0.0
  0
VERTEX
  5
370A
  8
3
 10
286.8000000000001
 20
38.85296984429999
 30
0.0
  0
SEQEND
  5
370C
  8
3
  0
LINE
  5
DD5
  8
3
 10
288.0500000000001
 20
40.2413137625
 30
0.0
 11
286.8000000000001
 21
40.60215768080002
 31
0.0
  0
LINE
  5
DD6
  8
3
 10
285.5500000000001
 20
40.2413137625
 30
0.0
 11
286.8000000000001
 21
40.60215768080002
 31
0.0
  0
LINE
  5
DD7
  8
3
 10
285.5500000000001
 20
39.51962592609999
 30
0.0
 11
286.8000000000001
 21
39.15878200780003
 31
0.0
  0
LINE
  5
DD8
  8
3
 10
285.5500000000001
 20
37.18135733579999
 30
0.0
 11
286.8000000000001
 21
36.82051341760001
 31
0.0
  0
LINE
  5
DD9
  8
3
 10
288.0500000000001
 20
39.51962592609999
 30
0.0
 11
286.8000000000001
 21
39.15878200780003
 31
0.0
  0
LINE
  5
DDA
  8
3
 10
288.0500000000001
 20
37.18135733579999
 30
0.0
 11
286.8000000000001
 21
36.82051341760001
 31
0.0
  0
LINE
  5
DDD
  8
3
 10
304.8000000000001
 20
20.04907116060002
 30
0.0
 11
304.6136296695
 21
19.35352761810003
 31
0.0
  0
LINE
  5
DDE
  8
3
 10
304.6136296695
 20
-19.35352761799999
 30
0.0
 11
304.8000000000001
 21
-20.04907116049998
 31
0.0
  0
ARC
  5
DDF
  8
3
 10
305.0000000000001
 20
-19.25
 30
0.0
 40
0.3999999999999767
 50
166.875000000004
 51
195.0000000000015
  0
ARC
  5
DE0
  8
3
 10
305.0000000000001
 20
-19.25
 30
0.0
 40
0.3999999999999767
 50
120.0000000000096
 51
166.875000000004
  0
ARC
  5
DE1
  8
3
 10
305.0000000000001
 20
19.25
 30
0.0
 40
0.3999999999999273
 50
165.0000000000012
 51
180.0
  0
ARC
  5
DE2
  8
3
 10
305.0000000000001
 20
19.25
 30
0.0
 40
0.3999999999998828
 50
180.0
 51
239.9999999999851
  0
LINE
  5
DE3
  8
3
 10
304.6
 20
19.25
 30
0.0
 11
304.6
 21
-19.25
 31
0.0
  0
LINE
  5
DE4
  8
3
 10
304.8000000000001
 20
2.5
 30
0.0
 11
286.4
 21
2.5
 31
0.0
  0
LINE
  5
DE5
  8
3
 10
286.4
 20
-2.5
 30
0.0
 11
304.8000000000001
 21
-2.5
 31
0.0
  0
LINE
  5
DE6
  8
3
 10
286.1042683222
 20
-2.007819836199985
 30
0.0
 11
286.4
 21
-2.5
 31
0.0
  0
LINE
  5
DE7
  8
3
 10
286.4
 20
2.5
 30
0.0
 11
286.1042683222
 21
2.007819836199985
 31
0.0
  0
LINE
  5
DF8
  8
3
 10
304.8000000000001
 20
8.731249999999989
 30
0.0
 11
0.0000000000001705
 21
8.731249999999989
 31
0.0
  0
LINE
  5
DF9
  8
3
 10
0.0
 20
-8.731249999999989
 30
0.0
 11
304.8000000000001
 21
-8.731249999999989
 31
0.0
  0
LINE
  5
DFA
  8
3
 10
286.8000000000001
 20
41.27474999999998
 30
0.0
 11
282.0323212032
 21
33.34000000000003
 31
0.0
  0
LINE
  5
DFB
  8
3
 10
282.0323212032
 20
33.34000000000003
 30
0.0
 11
286.8000000000001
 21
25.40525000000002
 31
0.0
  0
LINE
  5
DFC
  8
3
 10
286.8000000000001
 20
-25.40524999999997
 30
0.0
 11
282.0323212032
 21
-33.33999999999997
 31
0.0
  0
LINE
  5
DFD
  8
3
 10
282.0323212032
 20
-33.33999999999997
 30
0.0
 11
286.8000000000001
 21
-41.27474999999998
 31
0.0
  0
LINE
  5
DFE
  8
3
 10
304.8000000000001
 20
-25.40524999999997
 30
0.0
 11
286.8000000000001
 21
-25.40524999999997
 31
0.0
  0
LINE
  5
DFF
  8
3
 10
286.8000000000001
 20
-41.27474999999998
 30
0.0
 11
304.8000000000001
 21
-41.27474999999998
 31
0.0
  0
LINE
  5
E00
  8
3
 10
304.8000000000001
 20
41.27474999999998
 30
0.0
 11
286.8000000000001
 21
41.27474999999998
 31
0.0
  0
LINE
  5
E01
  8
3
 10
286.8000000000001
 20
25.40525000000002
 30
0.0
 11
304.8000000000001
 21
25.40525000000002
 31
0.0
  0
LINE
  5
E08
  8
3
 10
284.6999999999999
 20
38.55978110350003
 30
0.0
 11
284.6999999999999
 21
7.559329003500011
 31
0.0
  0
LINE
  5
E09
  8
3
 10
288.9
 20
14.27617020270003
 30
0.0
 11
288.9
 21
38.55978110350003
 31
0.0
  0
LINE
  5
E0A
  8
3
 10
288.9
 20
7.556344272300009
 30
0.0
 11
288.9
 21
9.972541103299989
 31
0.0
  0
LINE
  5
E0B
  8
3
 10
288.9
 20
-9.972541103200001
 30
0.0
 11
288.9
 21
-7.556344272300009
 31
0.0
  0
LINE
  5
E0C
  8
3
 10
288.9
 20
-38.55978110349997
 30
0.0
 11
288.9
 21
-14.27617020269997
 31
0.0
  0
LINE
  5
E0D
  8
3
 10
284.6999999999999
 20
-7.559329003500011
 30
0.0
 11
284.6999999999999
 21
-38.55978110349997
 31
0.0
  0
LINE
  5
E0E
  8
3
 10
304.8000000000001
 20
14.62435565300001
 30
0.0
 11
288.4780700942
 21
14.62435565300001
 31
0.0
  0
LINE
  5
E0F
  8
3
 10
288.4780700942
 20
9.62435565300001
 30
0.0
 11
304.8000000000001
 21
9.62435565300001
 31
0.0
  0
LINE
  5
E10
  8
3
 10
304.8000000000001
 20
-9.62435565300001
 30
0.0
 11
288.463673502
 21
-9.62435565300001
 31
0.0
  0
LINE
  5
E11
  8
3
 10
288.463673502
 20
-14.62435565300001
 30
0.0
 11
304.8000000000001
 21
-14.62435565300001
 31
0.0
  0
LINE
  5
E12
  8
3
 10
284.6566964750999
 20
38.25667221219999
 30
0.0
 11
285.0853571801
 21
37.9535633209
 31
0.0
  0
LINE
  5
E13
  8
3
 10
288.5146428199999
 20
37.9535633209
 30
0.0
 11
288.943303525
 21
38.25667221219999
 31
0.0
  0
LINE
  5
E14
  8
3
 10
284.1750000000001
 20
39.878833853
 30
0.0
 11
284.1750000000001
 21
39.01444444050003
 31
0.0
  0
LINE
  5
E15
  8
3
 10
289.4250000000001
 20
39.01444444050003
 30
0.0
 11
289.4250000000001
 21
39.88030222230003
 31
0.0
  0
LINE
  5
E16
  8
3
 10
288.943303525
 20
-38.25667221219999
 30
0.0
 11
288.5146428199999
 21
-37.95356332080001
 31
0.0
  0
LINE
  5
E17
  8
3
 10
285.0853571801
 20
-37.95356332080001
 30
0.0
 11
284.6566964750999
 21
-38.25667221219999
 31
0.0
  0
LINE
  5
E18
  8
3
 10
289.4250000000001
 20
-39.88030222229997
 30
0.0
 11
289.4250000000001
 21
-39.01444444049997
 31
0.0
  0
LINE
  5
E19
  8
3
 10
284.1750000000001
 20
-39.01444444049997
 30
0.0
 11
284.1750000000001
 21
-39.878833853
 31
0.0
  0
LINE
  5
E1A
  8
3
 10
304.8000000000001
 20
9.525000000000034
 30
0.0
 11
299.3859900000001
 21
9.525000000000034
 31
0.0
  0
LINE
  5
E1B
  8
3
 10
299.3859900000001
 20
-9.524999999999977
 30
0.0
 11
304.8000000000001
 21
-9.524999999999977
 31
0.0
  0
LINE
  5
E1C
  8
3
 10
299.3859900000001
 20
9.525000000000034
 30
0.0
 11
298.4499999999999
 21
8.58901000000003
 31
0.0
  0
LINE
  5
E1D
  8
3
 10
298.4499999999999
 20
-8.589009999999973
 30
0.0
 11
299.3859900000001
 21
-9.524999999999977
 31
0.0
  0
LINE
  5
E22
  8
3
 10
304.8000000000001
 20
-25.39868999999999
 30
0.0
 11
290.3101603050001
 21
-25.39868999999999
 31
0.0
  0
LINE
  5
E23
  8
3
 10
290.3101603050001
 20
-41.28131000000002
 30
0.0
 11
304.8000000000001
 21
-41.28131000000002
 31
0.0
  0
ARC
  5
E24
  8
3
 10
290.2471999999999
 20
-25.20549
 30
0.0
 40
0.2032000000000833
 50
270.0
 51
288.0498306933181
  0
ARC
  5
E25
  8
3
 10
290.2471999999999
 20
-41.47451000000001
 30
0.0
 40
0.2032000000000833
 50
71.95016930668189
 51
90.0
  0
LINE
  5
E26
  8
3
 10
290.2471999999999
 20
-25.40868999999998
 30
0.0
 11
289.6720395107001
 21
-25.40868999999998
 31
0.0
  0
LINE
  5
E27
  8
3
 10
289.6720395107001
 20
-41.27130999999997
 30
0.0
 11
290.2471999999999
 21
-41.27130999999997
 31
0.0
  0
LINE
  5
E28
  8
3
 10
289.6720395107001
 20
-25.40868999999998
 30
0.0
 11
288.7471999999999
 21
-25.65649999999999
 31
0.0
  0
LINE
  5
E29
  8
3
 10
288.7471999999999
 20
-41.02350000000001
 30
0.0
 11
289.6720395107001
 21
-41.27130999999997
 31
0.0
  0
LINE
  5
E2A
  8
3
 10
304.8000000000001
 20
41.28131000000002
 30
0.0
 11
290.3101603050001
 21
41.28131000000002
 31
0.0
  0
LINE
  5
E2B
  8
3
 10
290.3101603050001
 20
25.39868999999999
 30
0.0
 11
304.8000000000001
 21
25.39868999999999
 31
0.0
  0
ARC
  5
E2C
  8
3
 10
290.2471999999999
 20
41.47451000000001
 30
0.0
 40
0.2032000000000833
 50
270.0
 51
288.0498306933181
  0
ARC
  5
E2D
  8
3
 10
290.2471999999999
 20
25.20549
 30
0.0
 40
0.2032000000000293
 50
71.95016930667691
 51
90.0
  0
LINE
  5
E2E
  8
3
 10
290.2471999999999
 20
41.27131000000003
 30
0.0
 11
289.6720395107001
 21
41.27131000000003
 31
0.0
  0
LINE
  5
E2F
  8
3
 10
289.6720395107001
 20
25.40869000000004
 30
0.0
 11
290.2471999999999
 21
25.40869000000004
 31
0.0
  0
LINE
  5
E30
  8
3
 10
289.6720395107001
 20
41.27131000000003
 30
0.0
 11
288.7471999999999
 21
41.02350000000001
 31
0.0
  0
LINE
  5
E31
  8
3
 10
288.7471999999999
 20
25.65649999999999
 30
0.0
 11
289.6720395107001
 21
25.40869000000004
 31
0.0
  0
LINE
  5
E32
  8
3
 10
288.691604364
 20
-34.50633923800001
 30
0.0
 11
288.2288690166999
 21
-34.17913593599997
 31
0.0
  0
LINE
  5
E33
  8
3
 10
285.3711309834001
 20
-34.17913593599997
 30
0.0
 11
284.9083956360999
 21
-34.50633923800001
 31
0.0
  0
LINE
  5
E34
  8
3
 10
288.2145032041
 20
-34.57300630949999
 30
0.0
 11
287.9627216338
 21
-34.48661992889998
 31
0.0
  0
LINE
  5
E35
  8
3
 10
285.6372783662999
 20
-34.48661992889998
 30
0.0
 11
285.385496796
 21
-34.57300630949999
 31
0.0
  0
LINE
  5
E36
  8
3
 10
285.4891896445999
 20
-36.13024367790001
 30
0.0
 11
285.6372783662999
 21
-36.18105299109999
 31
0.0
  0
LINE
  5
E37
  8
3
 10
287.9627216338
 20
-36.18105299109999
 30
0.0
 11
288.1108103554001
 21
-36.13024367790001
 31
0.0
  0
LINE
  5
E38
  8
3
 10
289.3000000000001
 20
-35.681722906
 30
0.0
 11
289.3000000000001
 21
-35.60368335459998
 31
0.0
  0
LINE
  5
E39
  8
3
 10
284.3000000000001
 20
-35.60368335459998
 30
0.0
 11
284.3000000000001
 21
-35.681722906
 31
0.0
  0
LINE
  5
E3A
  8
3
 10
285.385496796
 20
-36.71239995119998
 30
0.0
 11
285.6372783662999
 21
-36.79878633179999
 31
0.0
  0
LINE
  5
E3B
  8
3
 10
287.9627216338
 20
-36.79878633179999
 30
0.0
 11
288.2145032041
 21
-36.71239995119998
 31
0.0
  0
LINE
  5
E3C
  8
3
 10
288.2145032041
 20
-35.1907396501
 30
0.0
 11
287.9627216337
 21
-35.1043532695
 31
0.0
  0
LINE
  5
E3D
  8
3
 10
285.6372783662999
 20
-35.1043532695
 30
0.0
 11
285.385496796
 21
-35.1907396501
 31
0.0
  0
LINE
  5
E3E
  8
3
 10
289.3000000000001
 20
-36.29945624660002
 30
0.0
 11
289.3000000000001
 21
-36.22141669519999
 31
0.0
  0
LINE
  5
E3F
  8
3
 10
284.3000000000001
 20
-36.22141669519999
 30
0.0
 11
284.3000000000001
 21
-36.29945624660002
 31
0.0
  0
LINE
  5
E40
  8
3
 10
285.385496796
 20
-37.3301332918
 30
0.0
 11
285.6372783662999
 21
-37.4165196724
 31
0.0
  0
LINE
  5
E41
  8
3
 10
287.9627216337
 20
-37.4165196724
 30
0.0
 11
288.2145032041
 21
-37.3301332918
 31
0.0
  0
LINE
  5
E42
  8
3
 10
288.2145032041
 20
-35.80847299070001
 30
0.0
 11
287.9627216338
 21
-35.72208661010001
 31
0.0
  0
LINE
  5
E43
  8
3
 10
285.6372783662999
 20
-35.72208661010001
 30
0.0
 11
285.385496796
 21
-35.80847299070001
 31
0.0
  0
LINE
  5
E44
  8
3
 10
289.3000000000001
 20
-36.91718958719997
 30
0.0
 11
289.3000000000001
 21
-36.83915003589999
 31
0.0
  0
LINE
  5
E45
  8
3
 10
284.3000000000001
 20
-36.83915003589999
 30
0.0
 11
284.3000000000001
 21
-36.91718958719997
 31
0.0
  0
LINE
  5
E46
  8
3
 10
285.385496796
 20
-37.94786663240001
 30
0.0
 11
285.6372783662999
 21
-38.03425301300001
 31
0.0
  0
LINE
  5
E47
  8
3
 10
287.9627216338
 20
-38.03425301300001
 30
0.0
 11
288.2145032041
 21
-37.94786663240001
 31
0.0
  0
LINE
  5
E48
  8
3
 10
288.2145032041
 20
-36.42620633129997
 30
0.0
 11
287.9627216338
 21
-36.33981995070002
 31
0.0
  0
LINE
  5
E49
  8
3
 10
285.6372783662999
 20
-36.33981995070002
 30
0.0
 11
285.385496796
 21
-36.42620633129997
 31
0.0
  0
LINE
  5
E4A
  8
3
 10
289.3000000000001
 20
-37.53492292779998
 30
0.0
 11
289.3000000000001
 21
-37.4568833765
 31
0.0
  0
LINE
  5
E4B
  8
3
 10
284.3000000000001
 20
-37.4568833765
 30
0.0
 11
284.3000000000001
 21
-37.53492292779998
 31
0.0
  0
LINE
  5
E4C
  8
3
 10
285.385496796
 20
-38.56559997300002
 30
0.0
 11
285.6372783662999
 21
-38.65198635359997
 31
0.0
  0
LINE
  5
E4D
  8
3
 10
287.9627216338
 20
-38.65198635359997
 30
0.0
 11
288.2145032041
 21
-38.56559997300002
 31
0.0
  0
LINE
  5
E4E
  8
3
 10
288.2145032041
 20
-37.04393967189998
 30
0.0
 11
287.9627216338
 21
-36.95755329129997
 31
0.0
  0
LINE
  5
E4F
  8
3
 10
285.6372783662999
 20
-36.95755329129997
 30
0.0
 11
285.385496796
 21
-37.04393967189998
 31
0.0
  0
LINE
  5
E50
  8
3
 10
289.3000000000001
 20
-38.15265626839999
 30
0.0
 11
289.3000000000001
 21
-38.07461671710001
 31
0.0
  0
LINE
  5
E51
  8
3
 10
284.3000000000001
 20
-38.07461671710001
 30
0.0
 11
284.3000000000001
 21
-38.15265626839999
 31
0.0
  0
LINE
  5
E52
  8
3
 10
285.385496796
 20
-39.18333331359997
 30
0.0
 11
285.6372783662999
 21
-39.26971969419998
 31
0.0
  0
LINE
  5
E53
  8
3
 10
287.9627216338
 20
-39.26971969419998
 30
0.0
 11
288.2145032041
 21
-39.18333331359997
 31
0.0
  0
LINE
  5
E54
  8
3
 10
288.2145032041
 20
-37.66167301249999
 30
0.0
 11
287.9627216338
 21
-37.57528663189998
 31
0.0
  0
LINE
  5
E55
  8
3
 10
285.6372783662999
 20
-37.57528663189998
 30
0.0
 11
285.385496796
 21
-37.66167301249999
 31
0.0
  0
LINE
  5
E56
  8
3
 10
289.3000000000001
 20
-38.77038960900001
 30
0.0
 11
289.3000000000001
 21
-38.69235005769997
 31
0.0
  0
LINE
  5
E57
  8
3
 10
284.3000000000001
 20
-38.69235005769997
 30
0.0
 11
284.3000000000001
 21
-38.77038960900001
 31
0.0
  0
LINE
  5
E58
  8
3
 10
285.385496796
 20
-39.80106665419999
 30
0.0
 11
285.6372783662999
 21
-39.88745303479999
 31
0.0
  0
LINE
  5
E59
  8
3
 10
287.9627216338
 20
-39.88745303479999
 30
0.0
 11
288.2145032041
 21
-39.80106665419999
 31
0.0
  0
LINE
  5
E5A
  8
3
 10
288.2145032041
 20
-38.2794063531
 30
0.0
 11
287.9627216338
 21
-38.1930199725
 31
0.0
  0
LINE
  5
E5B
  8
3
 10
285.6372783662999
 20
-38.1930199725
 30
0.0
 11
285.385496796
 21
-38.2794063531
 31
0.0
  0
LINE
  5
E5C
  8
3
 10
289.3000000000001
 20
-39.38812294960002
 30
0.0
 11
289.3000000000001
 21
-39.31008339829998
 31
0.0
  0
LINE
  5
E5D
  8
3
 10
284.3000000000001
 20
-39.31008339829998
 30
0.0
 11
284.3000000000001
 21
-39.38812294960002
 31
0.0
  0
LINE
  5
E5E
  8
3
 10
285.385496796
 20
-40.4187999948
 30
0.0
 11
285.6372783662999
 21
-40.5051863754
 31
0.0
  0
LINE
  5
E5F
  8
3
 10
287.9627216338
 20
-40.5051863754
 30
0.0
 11
288.2145032041
 21
-40.4187999948
 31
0.0
  0
LINE
  5
E60
  8
3
 10
288.0765060407001
 20
-38.84979279909999
 30
0.0
 11
287.9627216338
 21
-38.81075331310001
 31
0.0
  0
LINE
  5
E61
  8
3
 10
285.6372783662999
 20
-38.81075331310001
 30
0.0
 11
285.5234939594001
 21
-38.84979279909999
 31
0.0
  0
LINE
  5
E62
  8
3
 10
284.9083956360999
 20
34.50633923800001
 30
0.0
 11
285.3711309834001
 21
34.17913593600002
 31
0.0
  0
LINE
  5
E63
  8
3
 10
288.2288690166999
 20
34.17913593600002
 30
0.0
 11
288.691604364
 21
34.50633923800001
 31
0.0
  0
LINE
  5
E64
  8
3
 10
285.385496796
 20
34.57300630949999
 30
0.0
 11
285.6372783662999
 21
34.48661992889998
 31
0.0
  0
LINE
  5
E65
  8
3
 10
287.9627216338
 20
34.48661992889998
 30
0.0
 11
288.2145032041
 21
34.57300630949999
 31
0.0
  0
LINE
  5
E66
  8
3
 10
288.1108103554001
 20
36.130243678
 30
0.0
 11
287.9627216338
 21
36.18105299120003
 31
0.0
  0
LINE
  5
E67
  8
3
 10
285.6372783662999
 20
36.18105299120003
 30
0.0
 11
285.4891896445999
 21
36.130243678
 31
0.0
  0
LINE
  5
E68
  8
3
 10
284.3000000000001
 20
35.681722906
 30
0.0
 11
284.3000000000001
 21
35.60368335470002
 31
0.0
  0
LINE
  5
E69
  8
3
 10
289.3000000000001
 20
35.60368335470002
 30
0.0
 11
289.3000000000001
 21
35.681722906
 31
0.0
  0
LINE
  5
E6A
  8
3
 10
288.2145032041
 20
36.71239995119998
 30
0.0
 11
287.9627216338
 21
36.79878633179999
 31
0.0
  0
LINE
  5
E6B
  8
3
 10
285.6372783662999
 20
36.79878633179999
 30
0.0
 11
285.385496796
 21
36.71239995119998
 31
0.0
  0
LINE
  5
E6C
  8
3
 10
285.385496796
 20
35.1907396501
 30
0.0
 11
285.6372783662999
 21
35.1043532695
 31
0.0
  0
LINE
  5
E6D
  8
3
 10
287.9627216337
 20
35.1043532695
 30
0.0
 11
288.2145032041
 21
35.1907396501
 31
0.0
  0
LINE
  5
E6E
  8
3
 10
284.3000000000001
 20
36.29945624660002
 30
0.0
 11
284.3000000000001
 21
36.22141669530004
 31
0.0
  0
LINE
  5
E6F
  8
3
 10
289.3000000000001
 20
36.22141669530004
 30
0.0
 11
289.3000000000001
 21
36.29945624660002
 31
0.0
  0
LINE
  5
E70
  8
3
 10
288.2145032041
 20
37.3301332918
 30
0.0
 11
287.9627216337
 21
37.4165196724
 31
0.0
  0
LINE
  5
E71
  8
3
 10
285.6372783662999
 20
37.4165196724
 30
0.0
 11
285.385496796
 21
37.3301332918
 31
0.0
  0
LINE
  5
E72
  8
3
 10
285.385496796
 20
35.80847299070001
 30
0.0
 11
285.6372783662999
 21
35.72208661010001
 31
0.0
  0
LINE
  5
E73
  8
3
 10
287.9627216338
 20
35.72208661010001
 30
0.0
 11
288.2145032041
 21
35.80847299070001
 31
0.0
  0
LINE
  5
E74
  8
3
 10
284.3000000000001
 20
36.91718958730002
 30
0.0
 11
284.3000000000001
 21
36.83915003589999
 31
0.0
  0
LINE
  5
E75
  8
3
 10
289.3000000000001
 20
36.83915003589999
 30
0.0
 11
289.3000000000001
 21
36.91718958730002
 31
0.0
  0
LINE
  5
E76
  8
3
 10
288.2145032041
 20
37.94786663240001
 30
0.0
 11
287.9627216338
 21
38.03425301300001
 31
0.0
  0
LINE
  5
E77
  8
3
 10
285.6372783662999
 20
38.03425301300001
 30
0.0
 11
285.385496796
 21
37.94786663240001
 31
0.0
  0
LINE
  5
E78
  8
3
 10
285.385496796
 20
36.42620633130002
 30
0.0
 11
285.6372783662999
 21
36.33981995070002
 31
0.0
  0
LINE
  5
E79
  8
3
 10
287.9627216338
 20
36.33981995070002
 30
0.0
 11
288.2145032041
 21
36.42620633130002
 31
0.0
  0
LINE
  5
E7A
  8
3
 10
284.3000000000001
 20
37.53492292790003
 30
0.0
 11
284.3000000000001
 21
37.4568833765
 31
0.0
  0
LINE
  5
E7B
  8
3
 10
289.3000000000001
 20
37.4568833765
 30
0.0
 11
289.3000000000001
 21
37.53492292790003
 31
0.0
  0
LINE
  5
E7C
  8
3
 10
288.2145032041
 20
38.56559997300002
 30
0.0
 11
287.9627216338
 21
38.65198635360002
 31
0.0
  0
LINE
  5
E7D
  8
3
 10
285.6372783662999
 20
38.65198635360002
 30
0.0
 11
285.385496796
 21
38.56559997300002
 31
0.0
  0
LINE
  5
E7E
  8
3
 10
285.385496796
 20
37.04393967190003
 30
0.0
 11
285.6372783662999
 21
36.95755329140002
 31
0.0
  0
LINE
  5
E7F
  8
3
 10
287.9627216338
 20
36.95755329140002
 30
0.0
 11
288.2145032041
 21
37.04393967190003
 31
0.0
  0
LINE
  5
E80
  8
3
 10
284.3000000000001
 20
38.15265626849998
 30
0.0
 11
284.3000000000001
 21
38.07461671710001
 31
0.0
  0
LINE
  5
E81
  8
3
 10
289.3000000000001
 20
38.07461671710001
 30
0.0
 11
289.3000000000001
 21
38.15265626849998
 31
0.0
  0
LINE
  5
E82
  8
3
 10
288.2145032041
 20
39.18333331360003
 30
0.0
 11
287.9627216338
 21
39.26971969420003
 31
0.0
  0
LINE
  5
E83
  8
3
 10
285.6372783662999
 20
39.26971969420003
 30
0.0
 11
285.385496796
 21
39.18333331360003
 31
0.0
  0
LINE
  5
E84
  8
3
 10
285.385496796
 20
37.66167301249999
 30
0.0
 11
285.6372783662999
 21
37.57528663200003
 31
0.0
  0
LINE
  5
E85
  8
3
 10
287.9627216338
 20
37.57528663200003
 30
0.0
 11
288.2145032041
 21
37.66167301249999
 31
0.0
  0
LINE
  5
E86
  8
3
 10
284.3000000000001
 20
38.77038960909999
 30
0.0
 11
284.3000000000001
 21
38.69235005770003
 31
0.0
  0
LINE
  5
E87
  8
3
 10
289.3000000000001
 20
38.69235005770003
 30
0.0
 11
289.3000000000001
 21
38.77038960909999
 31
0.0
  0
LINE
  5
E88
  8
3
 10
288.2145032041
 20
39.80106665419999
 30
0.0
 11
287.9627216338
 21
39.88745303479999
 31
0.0
  0
LINE
  5
E89
  8
3
 10
285.6372783662999
 20
39.88745303479999
 30
0.0
 11
285.385496796
 21
39.80106665419999
 31
0.0
  0
LINE
  5
E8A
  8
3
 10
285.385496796
 20
38.2794063531
 30
0.0
 11
285.6372783662999
 21
38.19301997259998
 31
0.0
  0
LINE
  5
E8B
  8
3
 10
287.9627216338
 20
38.19301997259998
 30
0.0
 11
288.2145032041
 21
38.2794063531
 31
0.0
  0
LINE
  5
E8C
  8
3
 10
284.3000000000001
 20
39.3881229497
 30
0.0
 11
284.3000000000001
 21
39.31008339830004
 31
0.0
  0
LINE
  5
E8D
  8
3
 10
289.3000000000001
 20
39.31008339830004
 30
0.0
 11
289.3000000000001
 21
39.3881229497
 31
0.0
  0
LINE
  5
E8E
  8
3
 10
288.2145032041
 20
40.4187999948
 30
0.0
 11
287.9627216338
 21
40.5051863754
 31
0.0
  0
LINE
  5
E8F
  8
3
 10
285.6372783662999
 20
40.5051863754
 30
0.0
 11
285.385496796
 21
40.4187999948
 31
0.0
  0
LINE
  5
E90
  8
3
 10
285.5234939594001
 20
38.84979279909999
 30
0.0
 11
285.6372783662999
 21
38.8107533132
 31
0.0
  0
LINE
  5
E91
  8
3
 10
287.9627216338
 20
38.8107533132
 30
0.0
 11
288.0765060407001
 21
38.84979279909999
 31
0.0
  0
ARC
  5
EAA
  8
SK1
 10
305.0000000000001
 20
-19.25
 30
0.0
 40
0.3999999999999675
 50
75.00000000000429
 51
120.0000000000101
  0
ARC
  5
EAB
  8
SK1
 10
305.0000000000001
 20
19.25
 30
0.0
 40
0.3999999999999675
 50
239.9999999999899
 51
284.9999999999957
  0
LINE
  5
EAC
  8
SK1
 10
305.7990711606
 20
19.05000000000001
 30
0.0
 11
305.1035276181
 21
18.86362966950003
 31
0.0
  0
LINE
  5
EAD
  8
SK1
 10
305.1035276181
 20
-18.86362966949997
 30
0.0
 11
305.7990711606
 21
-19.05000000000001
 31
0.0
  0
LINE
  5
EAE
  8
SK1
 10
305.7990711606
 20
-19.05000000000001
 30
0.0
 11
326.4
 21
-19.05000000000001
 31
0.0
  0
LINE
  5
EAF
  8
SK1
 10
326.4
 20
19.05000000000001
 30
0.0
 11
305.7990711606
 21
19.05000000000001
 31
0.0
  0
ARC
  5
EB0
  8
SK1
 10
326.4
 20
-17.05000000000001
 30
0.0
 40
2.0
 50
270.0
 51
0.0
  0
ARC
  5
EB1
  8
SK1
 10
326.4
 20
17.05000000000001
 30
0.0
 40
2.0
 50
0.0
 51
90.0
  0
LINE
  5
EB2
  8
SK1
 10
342.138
 20
23.8125
 30
0.0
 11
330.9620000000001
 21
23.8125
 31
0.0
  0
LINE
  5
EB3
  8
SK1
 10
330.9620000000001
 20
-23.8125
 30
0.0
 11
342.138
 21
-23.8125
 31
0.0
  0
LINE
  5
EB4
  8
SK1
 10
330.9620000000001
 20
23.8125
 30
0.0
 11
330.1999999999999
 21
23.0505
 31
0.0
  0
LINE
  5
EB5
  8
SK1
 10
330.1999999999999
 20
-23.0505
 30
0.0
 11
330.9620000000001
 21
-23.8125
 31
0.0
  0
LINE
  5
EB6
  8
SK1
 10
342.138
 20
-23.8125
 30
0.0
 11
342.9
 21
-23.0505
 31
0.0
  0
LINE
  5
EB7
  8
SK1
 10
342.9
 20
23.0505
 30
0.0
 11
342.138
 21
23.8125
 31
0.0
  0
ARC
  5
EB8
  8
SK1
 10
329.4126
 20
10.31240000000003
 30
0.0
 40
0.787399999999991
 50
270.0
 51
0.0
  0
ARC
  5
EB9
  8
SK1
 10
329.4126
 20
-10.31239999999997
 30
0.0
 40
0.787399999999991
 50
0.0
 51
90.0
  0
LINE
  5
EBA
  8
SK1
 10
329.4126
 20
9.525000000000034
 30
0.0
 11
328.4
 21
9.525000000000034
 31
0.0
  0
LINE
  5
EBB
  8
SK1
 10
328.4
 20
-9.524999999999977
 30
0.0
 11
329.4126
 21
-9.524999999999977
 31
0.0
  0
LINE
  5
EBC
  8
SK1
 10
304.8285674555001
 20
-25.39868999999999
 30
0.0
 11
304.8000000000001
 21
-25.39868999999999
 31
0.0
  0
LINE
  5
EBF
  8
SK1
 10
304.8000000000001
 20
25.39868999999999
 30
0.0
 11
304.8285674555001
 21
25.39868999999999
 31
0.0
  0
LINE
  5
EE7
  8
SK1
 10
305.7990711606
 20
0.0
 30
0.0
 11
305.7990711606
 21
19.05000000000001
 31
0.0
  0
LINE
  5
EE8
  8
SK1
 10
305.7990711606
 20
-19.05000000000001
 30
0.0
 11
305.7990711606
 21
0.0
 31
0.0
  0
LINE
  5
EE9
  8
SK1
 10
328.4
 20
0.0
 30
0.0
 11
328.4
 21
17.05000000000001
 31
0.0
  0
LINE
  5
EEA
  8
SK1
 10
328.4
 20
-17.05000000000001
 30
0.0
 11
328.4
 21
0.0
 31
0.0
  0
LINE
  5
EEB
  8
SK1
 10
342.138
 20
0.0
 30
0.0
 11
342.138
 21
-23.8125
 31
0.0
  0
LINE
  5
EEC
  8
SK1
 10
342.138
 20
23.8125
 30
0.0
 11
342.138
 21
0.0
 31
0.0
  0
LINE
  5
EED
  8
SK1
 10
330.9620000000001
 20
0.0
 30
0.0
 11
330.9620000000001
 21
-23.8125
 31
0.0
  0
LINE
  5
EEE
  8
SK1
 10
330.9620000000001
 20
23.8125
 30
0.0
 11
330.9620000000001
 21
0.0
 31
0.0
  0
LINE
  5
EEF
  8
SK1
 10
330.1999999999999
 20
0.0
 30
0.0
 11
330.1999999999999
 21
-23.0505
 31
0.0
  0
LINE
  5
EF0
  8
SK1
 10
330.1999999999999
 20
23.0505
 30
0.0
 11
330.1999999999999
 21
0.0
 31
0.0
  0
LINE
  5
EF1
  8
SK1
 10
342.9
 20
0.0
 30
0.0
 11
342.9
 21
-23.0505
 31
0.0
  0
LINE
  5
EF2
  8
SK1
 10
342.9
 20
23.0505
 30
0.0
 11
342.9
 21
0.0
 31
0.0
  0
LINE
  5
EF3
  8
SK1
 10
312.8772
 20
-25.40249999999997
 30
0.0
 11
304.8000000000001
 21
-25.40249999999997
 31
0.0
  0
LINE
  5
EF4
  8
SK1
 10
312.8772
 20
-25.40249999999997
 30
0.0
 11
312.8772
 21
-41.27749999999997
 31
0.0
  0
LINE
  5
EF5
  8
SK1
 10
312.8772
 20
-41.27749999999997
 30
0.0
 11
304.8000000000001
 21
-41.27749999999997
 31
0.0
  0
LINE
  5
EF6
  8
SK1
 10
312.8772
 20
41.27750000000003
 30
0.0
 11
304.8000000000001
 21
41.27750000000003
 31
0.0
  0
LINE
  5
EF7
  8
SK1
 10
312.8772
 20
41.27750000000003
 30
0.0
 11
312.8772
 21
25.40250000000003
 31
0.0
  0
LINE
  5
EF8
  8
SK1
 10
312.8772
 20
25.40250000000003
 30
0.0
 11
304.8000000000001
 21
25.40250000000003
 31
0.0
  0
LINE
  5
F17
  8
SK3
 10
-5.25
 20
0.0
 30
0.0
 11
-5.25
 21
11.09979999999999
 31
0.0
  0
LINE
  5
F18
  8
SK3
 10
-5.25
 20
-11.09980000000002
 30
0.0
 11
-5.25
 21
0.0
 31
0.0
  0
LINE
  5
F19
  8
SK3
 10
-4.761656058700055
 20
0.0
 30
0.0
 11
-4.761656058700055
 21
-8.731249999999989
 31
0.0
  0
LINE
  5
F1A
  8
SK3
 10
-4.761656058700055
 20
8.731249999999989
 30
0.0
 11
-4.761656058700055
 21
0.0
 31
0.0
  0
LINE
  5
F1B
  8
SK3
 10
327.5339746742001
 20
-10.0
 30
0.0
 11
327.5339746742001
 21
10.0
 31
0.0
  0
LINE
  5
F1C
  8
SK3
 10
325.4
 20
10.0
 30
0.0
 11
325.4
 21
-10.0
 31
0.0
  0
LINE
  5
F1D
  8
SK3
 10
325.3364352120999
 20
8.731249999999989
 30
0.0
 11
325.3364352120999
 21
-8.731249999999989
 31
0.0
  0
LINE
  5
F3A
  8
SK3
 10
333.3750000000001
 20
0.0
 30
0.0
 11
342.9
 21
0.0
 31
0.0
  0
LINE
  5
F3B
  8
SK3
 10
333.3750000000001
 20
2.400300000000016
 30
0.0
 11
333.3750000000001
 21
0.0
 31
0.0
  0
LINE
  5
F3C
  8
SK3
 10
333.3750000000001
 20
0.0
 30
0.0
 11
333.3750000000001
 21
-2.400300000000016
 31
0.0
  0
LINE
  5
F3D
  8
SK3
 10
332.7399999999999
 20
0.0
 30
0.0
 11
332.7399999999999
 21
-4.800599999999974
 31
0.0
  0
LINE
  5
F3E
  8
SK3
 10
332.7399999999999
 20
4.800600000000031
 30
0.0
 11
332.7399999999999
 21
0.0
 31
0.0
  0
LINE
  5
F3F
  8
SK3
 10
333.3750000000001
 20
4.800600000000031
 30
0.0
 11
333.3750000000001
 21
2.400300000000016
 31
0.0
  0
LINE
  5
F40
  8
SK3
 10
333.3750000000001
 20
-2.400300000000016
 30
0.0
 11
333.3750000000001
 21
-4.800599999999974
 31
0.0
  0
LINE
  5
F41
  8
SK3
 10
333.3750000000001
 20
4.800600000000031
 30
0.0
 11
342.9
 21
4.800600000000031
 31
0.0
  0
LINE
  5
F42
  8
SK3
 10
333.3750000000001
 20
-4.800599999999974
 30
0.0
 11
342.9
 21
-4.800599999999974
 31
0.0
  0
LINE
  5
FA0
  8
SK3
 10
328.4
 20
2.5
 30
0.0
 11
304.8000000000001
 21
2.5
 31
0.0
  0
LINE
  5
FA1
  8
SK3
 10
304.8000000000001
 20
-2.5
 30
0.0
 11
328.4
 21
-2.5
 31
0.0
  0
LINE
  5
FAC
  8
SK3
 10
-5.25
 20
-10.84649999999999
 30
0.0
 11
-4.761656058700055
 21
-8.731249999999989
 31
0.0
  0
LINE
  5
FAD
  8
SK3
 10
-4.761656058700055
 20
8.731249999999989
 30
0.0
 11
-5.25
 21
10.84649999999999
 31
0.0
  0
LINE
  5
FAE
  8
SK3
 10
328.4
 20
10.49999995500002
 30
0.0
 11
327.5339746742001
 21
10.0
 31
0.0
  0
LINE
  5
FAF
  8
SK3
 10
327.5339746742001
 20
-10.0
 30
0.0
 11
328.4
 21
-10.49999995499996
 31
0.0
  0
LINE
  5
FB0
  8
SK3
 10
327.5339746742001
 20
10.0
 30
0.0
 11
325.4
 21
10.0
 31
0.0
  0
LINE
  5
FB1
  8
SK3
 10
325.4
 20
-10.0
 30
0.0
 11
327.5339746742001
 21
-10.0
 31
0.0
  0
LINE
  5
FB2
  8
SK3
 10
325.4
 20
8.767949147500019
 30
0.0
 11
325.3364352120999
 21
8.731249999999989
 31
0.0
  0
LINE
  5
FB3
  8
SK3
 10
325.3364352120999
 20
-8.731249999999989
 30
0.0
 11
325.4
 21
-8.767949147399975
 31
0.0
  0
LINE
  5
FB4
  8
SK3
 10
325.3364352120999
 20
8.731249999999989
 30
0.0
 11
304.8000000000001
 21
8.731249999999989
 31
0.0
  0
LINE
  5
FB5
  8
SK3
 10
304.8000000000001
 20
-8.731249999999989
 30
0.0
 11
325.3364352120999
 21
-8.731249999999989
 31
0.0
  0
LINE
  5
FCA
  8
SK3
 10
328.4
 20
14.62435565300001
 30
0.0
 11
304.8000000000001
 21
14.62435565300001
 31
0.0
  0
LINE
  5
FCB
  8
SK3
 10
304.8000000000001
 20
9.62435565300001
 30
0.0
 11
328.4
 21
9.62435565300001
 31
0.0
  0
LINE
  5
FCC
  8
SK3
 10
328.4
 20
-9.62435565300001
 30
0.0
 11
304.8000000000001
 21
-9.62435565300001
 31
0.0
  0
LINE
  5
FCD
  8
SK3
 10
304.8000000000001
 20
-14.62435565300001
 30
0.0
 11
328.4
 21
-14.62435565300001
 31
0.0
  0
LINE
  5
FD6
  8
SK3
 10
328.4
 20
9.525000000000034
 30
0.0
 11
304.8000000000001
 21
9.525000000000034
 31
0.0
  0
LINE
  5
FD7
  8
SK3
 10
304.8000000000001
 20
-9.524999999999977
 30
0.0
 11
328.4
 21
-9.524999999999977
 31
0.0
  0
LINE
  5
FDA
  8
SK3
 10
333.3750000000001
 20
4.800600000000031
 30
0.0
 11
332.7399999999999
 21
4.800600000000031
 31
0.0
  0
LINE
  5
FDB
  8
SK3
 10
332.7399999999999
 20
-4.800599999999974
 30
0.0
 11
333.3750000000001
 21
-4.800599999999974
 31
0.0
  0
LINE
  5
FDC
  8
SK3
 10
332.7399999999999
 20
4.800600000000031
 30
0.0
 11
329.8555085122999
 21
0.0
 31
0.0
  0
LINE
  5
FDD
  8
SK3
 10
329.8555085122999
 20
0.0
 30
0.0
 11
332.7399999999999
 21
-4.800599999999974
 31
0.0
  0
LINE
  5
1053
  8
SK3
 10
-4.761656058700055
 20
8.731249999999989
 30
0.0
 11
0.0000000000000284
 21
8.731249999999989
 31
0.0
  0
LINE
  5
1054
  8
SK3
 10
-4.761656058700055
 20
-8.731249999999989
 30
0.0
 11
0.0
 21
-8.731249999999989
 31
0.0
  0
ARC
  5
1055
  8
1
 10
39.17157287529994
 20
36.92500000000001
 30
0.0
 40
2.000000000000177
 50
270.0
 51
315.0000000000022
  0
LINE
  5
1058
  8
NOCUT
 10
51.125
 20
46.05000000000001
 30
0.0
 11
40.58578643769988
 21
35.51078643760002
 31
0.0
  0
LINE
  5
1059
  8
NOCUT
 10
303.8000000000001
 20
46.05000000000001
 30
0.0
 11
51.12500000000003
 21
46.05000000000001
 31
0.0
  0
ARC
  5
105A
  8
NOCUT
 10
39.17157287529994
 20
36.92500000000001
 30
0.0
 40
2.000000000000177
 50
270.0
 51
315.0000000000022
  0
ARC
  5
105B
  8
NOCUT
 10
303.8000000000001
 20
45.05000000000001
 30
0.0
 40
1.000000000000227
 50
0.0
 51
90.0
  0
LINE
  5
105C
  8
NOCUT
 10
304.8000000000001
 20
0.0
 30
0.0
 11
304.8000000000001
 21
45.05000000000001
 31
0.0
  0
LINE
  5
1A17
  8
SK4
 10
304.8000000000001
 20
0.0
 30
0.0
 11
342.9
 21
0.0
 31
0.0
  0
DIMENSION
  5
1A19
  8
SK2
  2
*D4
 10
384.4220315449539
 20
-46.05000000000002
 30
0.0
 11
382.5470315449539
 21
-0.0000000000000071
 31
0.0
 70
    32
  3
ISO-25
 13
303.8000000000001
 23
46.05000000000001
 33
0.0
 14
303.8000000000001
 24
-46.05000000000001
 34
0.0
 50
90.0
1001
ACAD
1000
DSTYLE
1002
{
1070
   287
1070
     5
1070
   271
1070
     3
1070
   272
1070
     3
1070
   279
1070
     2
1002
}
  0
DIMENSION
  5
1A28
  8
SK2
  2
*D5
 10
362.2885181504587
 20
-19.05000000000001
 30
0.0
 11
360.4135181504587
 21
-0.0000000000000036
 31
0.0
 70
    32
  3
ISO-25
 13
326.4
 23
19.05000000000001
 33
0.0
 14
326.4
 24
-19.05000000000001
 34
0.0
 50
90.0
1001
ACAD
1000
DSTYLE
1002
{
1070
   287
1070
     5
1070
   271
1070
     3
1070
   272
1070
     3
1070
   279
1070
     2
1002
}
  0
ENDSEC
  0
EOF
