  0
SECTION
  2
HEADER
  9
$ACADVER
  1
AC1009
  9
$DWGCODEPAGE
  3
ansi_1251
  9
$INSBASE
 10
0.0
 20
0.0
 30
0.0
  9
$EXTMIN
 10
-68.25000000000001
 20
-30.5409271246
 30
0.0
  9
$EXTMAX
 10
88.90000000000003
 20
30.50275418977125
 30
0.0
  9
$LIMMIN
 10
0.0
 20
0.0
  9
$LIMMAX
 10
420.0
 20
297.0
  9
$ORTHOMODE
 70
     1
  9
$REGENMODE
 70
     1
  9
$FILLMODE
 70
     1
  9
$QTEXTMODE
 70
     0
  9
$MIRRTEXT
 70
     0
  9
$DRAGMODE
 70
     2
  9
$LTSCALE
 40
1.0
  9
$OSMODE
 70
   279
  9
$ATTMODE
 70
     1
  9
$TEXTSIZE
 40
2.5
  9
$TRACEWID
 40
1.0
  9
$TEXTSTYLE
  7
STANDARD
  9
$CLAYER
  8
0
  9
$CELTYPE
  6
BYLAYER
  9
$CECOLOR
 62
   256
  9
$DIMSCALE
 40
1.0
  9
$DIMASZ
 40
2.5
  9
$DIMEXO
 40
0.625
  9
$DIMDLI
 40
3.75
  9
$DIMRND
 40
0.0
  9
$DIMDLE
 40
0.0
  9
$DIMEXE
 40
1.25
  9
$DIMTP
 40
0.0
  9
$DIMTM
 40
0.0
  9
$DIMTXT
 40
2.5
  9
$DIMCEN
 40
2.5
  9
$DIMTSZ
 40
0.0
  9
$DIMTOL
 70
     0
  9
$DIMLIM
 70
     0
  9
$DIMTIH
 70
     0
  9
$DIMTOH
 70
     0
  9
$DIMSE1
 70
     0
  9
$DIMSE2
 70
     0
  9
$DIMTAD
 70
     1
  9
$DIMZIN
 70
     8
  9
$DIMBLK
  1

  9
$DIMASO
 70
     1
  9
$DIMSHO
 70
     1
  9
$DIMPOST
  1

  9
$DIMAPOST
  1

  9
$DIMALT
 70
     0
  9
$DIMALTD
 70
     3
  9
$DIMALTF
 40
0.03937007874016
  9
$DIMLFAC
 40
1.0
  9
$DIMTOFL
 70
     1
  9
$DIMTVP
 40
0.0
  9
$DIMTIX
 70
     0
  9
$DIMSOXD
 70
     0
  9
$DIMSAH
 70
     0
  9
$DIMBLK1
  1

  9
$DIMBLK2
  1

  9
$DIMSTYLE
  2
ISO-25
  9
$DIMCLRD
 70
     0
  9
$DIMCLRE
 70
     0
  9
$DIMCLRT
 70
     0
  9
$DIMTFAC
 40
1.0
  9
$DIMGAP
 40
0.625
  9
$LUNITS
 70
     2
  9
$LUPREC
 70
     3
  9
$SKETCHINC
 40
1.0
  9
$FILLETRAD
 40
10.0
  9
$AUNITS
 70
     0
  9
$AUPREC
 70
     0
  9
$MENU
  1
.
  9
$ELEVATION
 40
0.0
  9
$PELEVATION
 40
0.0
  9
$THICKNESS
 40
0.0
  9
$LIMCHECK
 70
     0
  9
$CHAMFERA
 40
10.0
  9
$CHAMFERB
 40
10.0
  9
$SKPOLY
 70
     0
  9
$TDCREATE
 40
2455022.429026158
  9
$TDUPDATE
 40
2458659.538982558
  9
$TDINDWG
 40
0.1506771181
  9
$TDUSRTIMER
 40
2458702.699084028
  9
$USRTIMER
 70
     1
  9
$ANGBASE
 50
0.0
  9
$ANGDIR
 70
     0
  9
$PDMODE
 70
     0
  9
$PDSIZE
 40
0.0
  9
$PLINEWID
 40
0.0
  9
$COORDS
 70
     1
  9
$SPLFRAME
 70
     0
  9
$SPLINETYPE
 70
     6
  9
$SPLINESEGS
 70
     8
  9
$ATTDIA
 70
     0
  9
$ATTREQ
 70
     1
  9
$HANDLING
 70
     1
  9
$HANDSEED
  5
2D63
  9
$SURFTAB1
 70
     6
  9
$SURFTAB2
 70
     6
  9
$SURFTYPE
 70
     6
  9
$SURFU
 70
     6
  9
$SURFV
 70
     6
  9
$UCSNAME
  2

  9
$UCSORG
 10
0.0
 20
0.0
 30
0.0
  9
$UCSXDIR
 10
1.0
 20
0.0
 30
0.0
  9
$UCSYDIR
 10
0.0
 20
1.0
 30
0.0
  9
$PUCSNAME
  2

  9
$PUCSORG
 10
0.0
 20
0.0
 30
0.0
  9
$PUCSXDIR
 10
1.0
 20
0.0
 30
0.0
  9
$PUCSYDIR
 10
0.0
 20
1.0
 30
0.0
  9
$USERI1
 70
     0
  9
$USERI2
 70
     0
  9
$USERI3
 70
     0
  9
$USERI4
 70
     0
  9
$USERI5
 70
     0
  9
$USERR1
 40
0.0
  9
$USERR2
 40
0.0
  9
$USERR3
 40
0.0
  9
$USERR4
 40
0.0
  9
$USERR5
 40
0.0
  9
$WORLDVIEW
 70
     1
  9
$SHADEDGE
 70
     3
  9
$SHADEDIF
 70
    70
  9
$TILEMODE
 70
     1
  9
$MAXACTVP
 70
    64
  9
$PLIMCHECK
 70
     0
  9
$PEXTMIN
 10
1.000000000000000E+20
 20
1.000000000000000E+20
 30
1.000000000000000E+20
  9
$PEXTMAX
 10
-1.000000000000000E+20
 20
-1.000000000000000E+20
 30
-1.000000000000000E+20
  9
$PLIMMIN
 10
0.0
 20
0.0
  9
$PLIMMAX
 10
420.0
 20
297.0
  9
$UNITMODE
 70
     0
  9
$VISRETAIN
 70
     1
  9
$PLINEGEN
 70
     0
  9
$PSLTSCALE
 70
     1
  0
ENDSEC
  0
SECTION
  2
TABLES
  0
TABLE
  2
VPORT
 70
     1
  0
VPORT
  2
*ACTIVE
 70
     0
 10
0.0
 20
0.0
 11
1.0
 21
1.0
 12
116.636015772477
 22
-2.020325411445
 13
0.0
 23
0.0
 14
10.0
 24
10.0
 15
10.0
 25
10.0
 16
0.0
 26
0.0
 36
1.0
 17
0.0
 27
0.0
 37
0.0
 40
334.0145601645544
 41
1.332880434782609
 42
50.0
 43
0.0
 44
0.0
 50
0.0
 51
0.0
 71
    16
 72
  1000
 73
     1
 74
     3
 75
     0
 76
     0
 77
     0
 78
     0
  0
ENDTAB
  0
TABLE
  2
LTYPE
 70
     6
  0
LTYPE
  2
CONTINUOUS
 70
     0
  3
Solid line
 72
    65
 73
     0
 40
0.0
  0
LTYPE
  2
CENTER
 70
     0
  3
 Center _____  _  _____  _  _____  _  _____  _ 
 72
    65
 73
     4
 40
50.8
 49
31.75
 49
-6.35
 49
6.35
 49
-6.35
  0
LTYPE
  2
DASHED
 70
     0
  3
Dashed __  __  __  __  __  __  __  __  __  __  
 72
    65
 73
     2
 40
19.05
 49
12.7
 49
-6.35
  0
LTYPE
  2
HIDDEN
 70
     0
  3
Hidden __ __ __ __ __ __ __ __ __ __ __ __ __ __
 72
    65
 73
     2
 40
1.905
 49
1.27
 49
-0.635
  0
LTYPE
  2
CENTERX2
 70
     0
  3
Center (2x) ________  __  ________  __  _____
 72
    65
 73
     4
 40
20.32
 49
12.7
 49
-2.54
 49
2.54
 49
-2.54
  0
LTYPE
  2
PHANTOM
 70
     0
  3
Phantom ______  __  __  ______  __  __  ______
 72
    65
 73
     6
 40
12.7
 49
6.35
 49
-1.27
 49
1.27
 49
-1.27
 49
1.27
 49
-1.27
  0
ENDTAB
  0
TABLE
  2
LAYER
 70
    26
  0
LAYER
  2
0
 70
     0
 62
     7
  6
CONTINUOUS
  0
LAYER
  2
1
 70
     0
 62
     4
  6
CONTINUOUS
  0
LAYER
  2
2
 70
     0
 62
     7
  6
CONTINUOUS
  0
LAYER
  2
3
 70
     0
 62
     1
  6
DASHED
  0
LAYER
  2
4
 70
     0
 62
     2
  6
CENTER
  0
LAYER
  2
6
 70
     0
 62
     5
  6
CONTINUOUS
  0
LAYER
  2
7
 70
     0
 62
     5
  6
CONTINUOUS
  0
LAYER
  2
11
 70
     0
 62
     4
  6
CONTINUOUS
  0
LAYER
  2
SK1
 70
     0
 62
     4
  6
CONTINUOUS
  0
LAYER
  2
SK2
 70
     0
 62
     7
  6
CONTINUOUS
  0
LAYER
  2
SK3
 70
     0
 62
     1
  6
DASHED
  0
LAYER
  2
SK4
 70
     0
 62
     2
  6
CENTER
  0
LAYER
  2
SK6
 70
     0
 62
     5
  6
CONTINUOUS
  0
LAYER
  2
SK7
 70
     0
 62
     5
  6
CONTINUOUS
  0
LAYER
  2
SK11
 70
     0
 62
     4
  6
CONTINUOUS
  0
LAYER
  2
CUT
 70
     0
 62
     1
  6
CONTINUOUS
  0
LAYER
  2
NOCUT
 70
     0
 62
    -7
  6
CONTINUOUS
  0
LAYER
  2
SKVIEW1
 70
     0
 62
     4
  6
CONTINUOUS
  0
LAYER
  2
SKVIEW2
 70
     0
 62
     7
  6
CONTINUOUS
  0
LAYER
  2
SKVIEW3
 70
     0
 62
     1
  6
DASHED
  0
LAYER
  2
SKVIEW4
 70
     0
 62
     2
  6
CENTER
  0
LAYER
  2
SKVIEW6
 70
     0
 62
     5
  6
CONTINUOUS
  0
LAYER
  2
SKVIEW7
 70
     0
 62
     5
  6
CONTINUOUS
  0
LAYER
  2
SKVIEW11
 70
     0
 62
     4
  6
CONTINUOUS
  0
LAYER
  2
INFTOTAL
 70
     0
 62
     9
  6
CONTINUOUS
  0
LAYER
  2
DEFPOINTS
 70
     0
 62
     7
  6
CONTINUOUS
  0
ENDTAB
  0
TABLE
  2
STYLE
 70
     1
  0
STYLE
  2
STANDARD
 70
     0
 40
0.0
 41
1.0
 50
0.0
 71
     0
 42
2.5
  3
txt
  4

  0
ENDTAB
  0
TABLE
  2
VIEW
 70
     0
  0
ENDTAB
  0
TABLE
  2
UCS
 70
     0
  0
ENDTAB
  0
TABLE
  2
APPID
 70
     2
  0
APPID
  2
ACAD
 70
     0
  0
APPID
  2
ACAECLAYERSTANDARD
 70
     0
  0
ENDTAB
  0
TABLE
  2
DIMSTYLE
 70
     1
  0
DIMSTYLE
  2
ISO-25
 70
     0
  3

  4

  5

  6

  7

 40
1.0
 41
2.5
 42
0.625
 43
3.75
 44
1.25
 45
0.0
 46
0.0
 47
0.0
 48
0.0
140
2.5
141
2.5
142
0.0
143
0.03937007874016
144
1.0
145
0.0
146
1.0
147
0.625
 71
     0
 72
     0
 73
     0
 74
     0
 75
     0
 76
     0
 77
     1
 78
     8
170
     0
171
     3
172
     1
173
     0
174
     0
175
     0
176
     0
177
     0
178
     0
  0
ENDTAB
  0
ENDSEC
  0
SECTION
  2
BLOCKS
  0
BLOCK
  8
0
  2
$MODEL_SPACE
 70
     0
 10
0.0
 20
0.0
 30
0.0
  3
$MODEL_SPACE
  1

  0
ENDBLK
  5
21
  8
0
  0
BLOCK
 67
     1
  8
0
  2
$PAPER_SPACE
 70
     0
 10
0.0
 20
0.0
 30
0.0
  3
$PAPER_SPACE
  1

  0
ENDBLK
  5
1D
 67
     1
  8
0
  0
BLOCK
  8
0
  2
*U2
 70
     1
 10
0.0
 20
0.0
 30
0.0
  3
*U2
  1

  0
TEXT
  5
77E
  8
SK6
 10
-50.0
 20
78.25
 30
0.0
 40
3.5
  1
BIG KAISER
 41
0.85
  0
TEXT
  5
781
  8
SK6
 10
-50.0
 20
73.0
 30
0.0
 40
3.5
  1
BCV50-SMC1.500-10
 41
0.85
  0
ENDBLK
  5
782
  8
0
  0
BLOCK
  8
0
  2
_FILLED
 70
     0
 10
0.0
 20
0.0
 30
0.0
  3
_FILLED
  1

  0
SOLID
  5
789
  8
0
  6
BYBLOCK
 62
     0
 10
0.0
 20
0.0
 30
0.0
 11
-1.0
 21
0.2142857143
 31
0.0
 12
-1.0
 22
-0.2142857143
 32
0.0
 13
-1.0
 23
-0.2142857143
 33
0.0
  0
ENDBLK
  5
78A
  8
0
  6
BYBLOCK
 62
     0
  0
BLOCK
  8
0
  2
*U5
 70
     1
 10
0.0
 20
0.0
 30
0.0
  3
*U5
  1

  0
TEXT
  5
790
  8
SK6
 10
-85.96178542556666
 20
-67.06748653279999
 30
0.0
 40
3.5
  1
BCV50
 41
0.85
  0
ENDBLK
  5
791
  8
0
  0
BLOCK
  8
0
  2
*D8
 70
     1
 10
0.0
 20
0.0
 30
0.0
  3
*D8
  1

  0
LINE
  5
808
  8
SK2
 62
     0
 10
0.0
 20
35.54999999999998
 30
0.0
 11
0.0
 21
63.71215670356074
 31
0.0
  0
LINE
  5
809
  8
SK2
 62
     0
 10
254.0000000000001
 20
45.67500000000001
 30
0.0
 11
254.0000000000001
 21
63.71215670356074
 31
0.0
  0
LINE
  5
80A
  8
SK2
 62
     0
 10
2.5
 20
62.46215670356074
 30
0.0
 11
251.5000000000001
 21
62.46215670356074
 31
0.0
  0
SOLID
  5
80B
  8
SK2
 62
     0
 10
2.5
 20
62.8788233702274
 30
0.0
 11
2.5
 21
62.04549003689407
 31
0.0
 12
0.0
 22
62.46215670356074
 32
0.0
 13
0.0
 23
62.46215670356074
 33
0.0
  0
SOLID
  5
80C
  8
SK2
 62
     0
 10
251.5000000000001
 20
62.04549003689407
 30
0.0
 11
251.5000000000001
 21
62.8788233702274
 31
0.0
 12
254.0000000000001
 22
62.46215670356074
 32
0.0
 13
254.0000000000001
 23
62.46215670356074
 33
0.0
  0
TEXT
  5
80D
  8
SK2
  6
CONTINUOUS
 62
     0
 10
123.6666666666667
 20
63.08715670356074
 30
0.0
 40
2.5
  1
254
  0
POINT
  5
80E
  8
DEFPOINTS
 62
     0
 10
0.0
 20
34.92499999999998
 30
0.0
  0
POINT
  5
80F
  8
DEFPOINTS
 62
     0
 10
254.0000000000001
 20
45.05000000000001
 30
0.0
  0
POINT
  5
810
  8
DEFPOINTS
 62
     0
 10
254.0000000000001
 20
62.46215670356074
 30
0.0
  0
ENDBLK
  5
812
  8
0
  0
BLOCK
  8
0
  2
*D10
 70
     1
 10
0.0
 20
0.0
 30
0.0
  3
*D10
  1

  0
LINE
  5
1A1D
  8
SK2
 62
     0
 10
253.6250000000001
 20
46.05000000000001
 30
0.0
 11
334.872031544954
 21
46.05
 31
0.0
  0
LINE
  5
1A1E
  8
SK2
 62
     0
 10
253.6250000000001
 20
-46.05000000000001
 30
0.0
 11
334.872031544954
 21
-46.05000000000002
 31
0.0
  0
LINE
  5
1A1F
  8
SK2
 62
     0
 10
333.622031544954
 20
43.55
 30
0.0
 11
333.622031544954
 21
-43.55000000000002
 31
0.0
  0
SOLID
  5
1A20
  8
SK2
 62
     0
 10
334.0386982116207
 20
43.55
 30
0.0
 11
333.2053648782874
 21
43.55
 31
0.0
 12
333.622031544954
 22
46.05
 32
0.0
 13
333.622031544954
 23
46.05
 33
0.0
  0
SOLID
  5
1A21
  8
SK2
 62
     0
 10
333.2053648782874
 20
-43.55000000000002
 30
0.0
 11
334.0386982116207
 21
-43.55000000000002
 31
0.0
 12
333.622031544954
 22
-46.05000000000002
 32
0.0
 13
333.622031544954
 23
-46.05000000000002
 33
0.0
  0
TEXT
  5
1A22
  8
SK2
  6
CONTINUOUS
 62
     0
 10
332.997031544954
 20
-3.333333333333314
 30
0.0
 40
2.5
  1
92.1
 50
90.0
  0
POINT
  5
1A23
  8
DEFPOINTS
 62
     0
 10
253.0000000000001
 20
46.05000000000001
 30
0.0
  0
POINT
  5
1A24
  8
DEFPOINTS
 62
     0
 10
253.0000000000001
 20
-46.05000000000001
 30
0.0
  0
POINT
  5
1A25
  8
DEFPOINTS
 62
     0
 10
333.622031544954
 20
-46.05000000000002
 30
0.0
  0
ENDBLK
  5
1A27
  8
0
  0
BLOCK
  8
0
  2
*D11
 70
     1
 10
0.0
 20
0.0
 30
0.0
  3
*D11
  1

  0
LINE
  5
1A2C
  8
SK2
 62
     0
 10
276.225
 20
19.05000000000001
 30
0.0
 11
312.7385181504587
 21
19.05000000000001
 31
0.0
  0
LINE
  5
1A2D
  8
SK2
 62
     0
 10
276.225
 20
-19.05000000000001
 30
0.0
 11
312.7385181504587
 21
-19.05000000000001
 31
0.0
  0
LINE
  5
1A2E
  8
SK2
 62
     0
 10
311.4885181504587
 20
16.55000000000001
 30
0.0
 11
311.4885181504587
 21
-16.55000000000001
 31
0.0
  0
SOLID
  5
1A2F
  8
SK2
 62
     0
 10
311.9051848171254
 20
16.55000000000001
 30
0.0
 11
311.071851483792
 21
16.55000000000001
 31
0.0
 12
311.4885181504587
 22
19.05000000000001
 32
0.0
 13
311.4885181504587
 23
19.05000000000001
 33
0.0
  0
SOLID
  5
1A30
  8
SK2
 62
     0
 10
311.071851483792
 20
-16.55000000000001
 30
0.0
 11
311.9051848171254
 21
-16.55000000000001
 31
0.0
 12
311.4885181504587
 22
-19.05000000000001
 32
0.0
 13
311.4885181504587
 23
-19.05000000000001
 33
0.0
  0
TEXT
  5
1A31
  8
SK2
  6
CONTINUOUS
 62
     0
 10
310.8635181504587
 20
-3.333333333333314
 30
0.0
 40
2.5
  1
38.1
 50
90.0
  0
POINT
  5
1A32
  8
DEFPOINTS
 62
     0
 10
275.6
 20
19.05000000000001
 30
0.0
  0
POINT
  5
1A33
  8
DEFPOINTS
 62
     0
 10
275.6
 20
-19.05000000000001
 30
0.0
  0
POINT
  5
1A34
  8
DEFPOINTS
 62
     0
 10
311.4885181504587
 20
-19.05000000000001
 30
0.0
  0
ENDBLK
  5
1A36
  8
0
  0
ENDSEC
  0
SECTION
  2
ENTITIES
  0
LINE
  5
685
  8
SK1
 10
0.0
 20
34.92499999999998
 30
0.0
 11
-99.6319088344
 21
20.3952133832
 31
0.0
  0
LINE
  5
686
  8
SK1
 10
-99.6319088344
 20
-20.3952133832
 30
0.0
 11
0.0
 21
-34.92500000000001
 31
0.0
  0
ARC
  5
68D
  8
SK1
 10
-99.3
 20
18.1192879614
 30
0.0
 40
2.299999999999995
 50
98.29722000000018
 51
180.0
  0
ARC
  5
68E
  8
SK1
 10
-99.3
 20
-18.1192879614
 30
0.0
 40
2.299999999999995
 50
180.0
 51
261.7027799999998
  0
LINE
  5
6F6
  8
SK1
 10
-101.6
 20
0.0
 30
0.0
 11
-101.6
 21
-18.1192879614
 31
0.0
  0
LINE
  5
6F7
  8
SK1
 10
-101.6
 20
18.1192879614
 30
0.0
 11
-101.6
 21
0.0
 31
0.0
  0
LINE
  5
71A
  8
SK3
 10
-99.5215390309
 20
-13.10000000000002
 30
0.0
 11
-99.5215390309
 21
13.09999999999999
 31
0.0
  0
LINE
  5
71B
  8
SK3
 10
-95.25
 20
-13.10000000000002
 30
0.0
 11
-95.25
 21
13.09999999999999
 31
0.0
  0
LINE
  5
72A
  8
SK3
 10
-101.6
 20
-14.30000000000001
 30
0.0
 11
-99.5215390309
 21
-13.10000000000002
 31
0.0
  0
LINE
  5
72B
  8
SK3
 10
-99.5215390309
 20
13.09999999999999
 30
0.0
 11
-101.6
 21
14.3
 31
0.0
  0
LINE
  5
72C
  8
SK3
 10
-99.5215390309
 20
-13.10000000000002
 30
0.0
 11
-95.25
 21
-13.10000000000002
 31
0.0
  0
LINE
  5
72D
  8
SK3
 10
-95.25
 20
13.09999999999999
 30
0.0
 11
-99.5215390309
 21
13.09999999999999
 31
0.0
  0
LINE
  5
72E
  8
SK3
 10
-95.25
 20
-11.09980000000002
 30
0.0
 11
-5.249999999999986
 21
-11.09980000000002
 31
0.0
  0
LINE
  5
72F
  8
SK3
 10
-5.250000000000001
 20
11.09979999999999
 30
0.0
 11
-95.25
 21
11.09979999999999
 31
0.0
  0
LINE
  5
760
  8
SK3
 10
-57.1
 20
12.69999999999999
 30
0.0
 11
-95.25
 21
12.69999999999999
 31
0.0
  0
LINE
  5
761
  8
SK3
 10
-95.25
 20
-12.69999999999999
 30
0.0
 11
-57.1
 21
-12.69999999999999
 31
0.0
  0
LINE
  5
774
  8
SK3
 10
-57.1
 20
12.69999999999999
 30
0.0
 11
-57.1
 21
-12.69999999999999
 31
0.0
  0
LINE
  5
777
  8
SK4
 10
0.0
 20
0.0
 30
0.0
 11
-101.6
 21
0.0
 31
0.0
  0
LINE
  5
779
  8
4
 10
-0.0000000000000071
 20
0.0
 30
0.0
 11
253.9999999999999
 21
0.0
 31
0.0
  0
INSERT
  5
77B
  8
SK6
  2
*U2
 10
-44.10380399683656
 20
-23.39313954296377
 30
0.0
  0
INSERT
  5
78D
  8
SK6
  2
*U5
 10
17.55665382414153
 20
-2.560320993650734
 30
0.0
  0
LINE
  5
793
  8
0
 10
3.0
 20
3.0
 30
0.0
 11
-3.0
 21
-3.0
 31
0.0
  0
LINE
  5
794
  8
0
 10
-3.0
 20
3.0
 30
0.0
 11
3.0
 21
-3.0
 31
0.0
  0
CIRCLE
  5
795
  8
0
 10
0.0
 20
0.0
 30
0.0
 40
2.5
  0
LINE
  5
796
  8
0
 10
257.0000000000001
 20
-3.0
 30
0.0
 11
251.0000000000001
 21
3.0
 31
0.0
  0
CIRCLE
  5
797
  8
0
 10
254.0000000000001
 20
0.0
 30
0.0
 40
2.5
  0
LINE
  5
798
  8
0
 10
251.0000000000001
 20
-3.0
 30
0.0
 11
257.0000000000001
 21
3.0
 31
0.0
  0
LINE
  5
799
  8
NOCUT
 10
0.7999999999999972
 20
34.62500000000001
 30
0.0
 11
0.2999999999999972
 21
34.62500000000001
 31
0.0
  0
LINE
  5
79C
  8
NOCUT
 10
0.2999999999999972
 20
34.62500000000001
 30
0.0
 11
0.0
 21
34.92499999999999
 31
0.0
  0
LINE
  5
79D
  8
NOCUT
 10
39.17157287529994
 20
34.92499999999999
 30
0.0
 11
20.05
 21
34.92499999999999
 31
0.0
  0
ARC
  5
79E
  8
NOCUT
 10
0.7999999999999972
 20
35.62500000000001
 30
0.0
 40
1.0
 50
270.0
 51
314.4270040008
  0
ARC
  5
79F
  8
NOCUT
 10
20.05
 20
35.92499999999999
 30
0.0
 40
1.0
 50
180.0
 51
270.0
  0
LINE
  5
7A0
  8
NOCUT
 10
12.55499999999999
 20
45.64499999999999
 30
0.0
 11
9.704999999999998
 21
45.64499999999999
 31
0.0
  0
ARC
  5
7A1
  8
NOCUT
 10
12.55499999999999
 20
46.14499999999999
 30
0.0
 40
0.5
 50
270.0
 51
0.0
  0
ARC
  5
7A2
  8
NOCUT
 10
9.704999999999998
 20
46.14499999999999
 30
0.0
 40
0.5
 50
180.0
 51
270.0
  0
ARC
  5
7A3
  8
NOCUT
 10
2.299999999999997
 20
48.4125
 30
0.0
 40
0.7999999999999972
 50
90.0
 51
180.0
  0
ARC
  5
7A4
  8
NOCUT
 10
18.24999999999999
 20
48.4125
 30
0.0
 40
0.799999999999983
 50
0.0
 51
90.0
  0
LINE
  5
7A5
  8
NOCUT
 10
9.204999999999998
 20
46.43919780459999
 30
0.0
 11
7.603833230999996
 21
49.21250000000001
 31
0.0
  0
LINE
  5
7A6
  8
NOCUT
 10
14.65616676910001
 20
49.21250000000001
 30
0.0
 11
13.05499999999999
 21
46.43919780459999
 31
0.0
  0
LINE
  5
7A7
  8
NOCUT
 10
18.24999999999999
 20
49.21250000000001
 30
0.0
 11
14.65616676910001
 21
49.21250000000001
 31
0.0
  0
LINE
  5
7A8
  8
NOCUT
 10
7.603833230999996
 20
49.21250000000001
 30
0.0
 11
2.299999999999997
 21
49.21250000000001
 31
0.0
  0
LINE
  5
7AC
  8
NOCUT
 10
1.5
 20
48.4125
 30
0.0
 11
1.499999999999929
 21
34.91085715714565
 31
0.0
  0
LINE
  5
7AD
  8
NOCUT
 10
19.04999999999997
 20
48.4125
 30
0.0
 11
19.05
 21
35.92499999999999
 31
0.0
  0
LINE
  5
7AE
  8
NOCUT
 10
9.204999999999998
 20
46.43919780459999
 30
0.0
 11
9.204999999999998
 21
46.14499999999999
 31
0.0
  0
LINE
  5
7AF
  8
NOCUT
 10
13.05499999999999
 20
46.43919780459999
 30
0.0
 11
13.05499999999999
 21
46.14499999999999
 31
0.0
  0
DIMENSION
  5
804
  8
SK2
  2
*D8
 10
254.0000000000001
 20
62.46215670356074
 30
0.0
 11
127.0
 21
64.33715670356074
 31
0.0
 70
    32
  3
ISO-25
 13
0.0
 23
34.92499999999998
 33
0.0
 14
254.0000000000001
 24
45.05000000000001
 34
0.0
1001
ACAD
1000
DSTYLE
1002
{
1070
   287
1070
     5
1070
   271
1070
     3
1070
   272
1070
     3
1070
   279
1070
     2
1002
}
  0
LINE
  5
8BF
  8
NOCUT
 10
0.0
 20
34.92499999999999
 30
0.0
 11
0.0
 21
0.0
 31
0.0
  0
LINE
  5
8C0
  8
NOCUT
 10
-0.0000000000000071
 20
0.0
 30
0.0
 11
253.9999999999999
 21
0.0
 31
0.0
  0
INSERT
  5
A17
  8
SK6
  2
_FILLED
 10
-20.78186483605847
 20
-31.89428358495073
 30
0.0
 41
3.5
 42
3.5
 43
3.5
 50
52.86965044919886
  0
POLYLINE
  5
A18
  8
SK6
 66
     1
 10
0.0
 20
0.0
 30
0.0
  0
VERTEX
  5
28CE
  8
SK6
 10
-22.89457117648658
 20
-34.68470862768434
 30
0.0
  0
VERTEX
  5
28CF
  8
SK6
 10
-48.02596493475846
 20
-67.87780752645074
 30
0.0
  0
VERTEX
  5
28D0
  8
SK6
 10
-49.90096493475846
 20
-66.12780752645074
 30
0.0
  0
VERTEX
  5
28D1
  8
SK6
 10
-53.40096493475846
 20
-66.12780752645074
 30
0.0
  0
SEQEND
  5
2D62
  8
SK6
  0
ARC
  5
AC7
  8
1
 10
20.04999999999998
 20
35.92499999999998
 30
0.0
 40
1.0
 50
180.0
 51
270.0
  0
ARC
  5
AC9
  8
1
 10
20.04999999999998
 20
-35.92500000000001
 30
0.0
 40
1.0
 50
90.0
 51
180.0
  0
ARC
  5
ACA
  8
1
 10
1.299999999999983
 20
35.125
 30
0.0
 40
0.5
 50
270.0
 51
293.5781784781994
  0
ARC
  5
ACB
  8
1
 10
1.299999999999983
 20
-35.125
 30
0.0
 40
0.500000000000009
 50
66.42182152180017
 51
90.0
  0
LINE
  5
ACC
  8
1
 10
39.17157287529994
 20
34.92499999999998
 30
0.0
 11
20.04999999999998
 21
34.92499999999998
 31
0.0
  0
LINE
  5
ACE
  8
1
 10
20.04999999999998
 20
-34.92500000000001
 30
0.0
 11
39.17157287529994
 21
-34.92499999999983
 31
0.0
  0
LINE
  5
ACF
  8
1
 10
0.0
 20
-34.92500000000001
 30
0.0
 11
0.2999999999999829
 21
-34.625
 31
0.0
  0
LINE
  5
AD0
  8
1
 10
0.2999999999999829
 20
34.625
 30
0.0
 11
0.0
 21
34.92499999999998
 31
0.0
  0
LINE
  5
AD5
  8
1
 10
1.299999999999983
 20
34.625
 30
0.0
 11
0.2999999999999829
 21
34.625
 31
0.0
  0
LINE
  5
AD6
  8
1
 10
0.2999999999999829
 20
-34.625
 30
0.0
 11
1.299999999999983
 21
-34.625
 31
0.0
  0
LINE
  5
ADB
  8
1
 10
14.65616694409999
 20
-47.282880439
 30
0.0
 11
14.68806954659999
 21
-47.29184187660002
 31
0.0
  0
LINE
  5
ADC
  8
1
 10
14.6561667691
 20
47.30816788690001
 30
0.0
 11
14.6561667691
 21
-47.2826327523
 31
0.0
  0
LINE
  5
ADD
  8
1
 10
14.7615962207
 20
47.3314147463
 30
0.0
 11
14.6561668942
 21
47.30816788690001
 31
0.0
  0
LINE
  5
ADE
  8
1
 10
18.25
 20
47.3314147463
 30
0.0
 11
14.7615962207
 21
47.3314147463
 31
0.0
  0
LINE
  5
ADF
  8
1
 10
14.68806954659999
 20
-47.29184187660002
 30
0.0
 11
18.25
 21
-47.29184187660002
 31
0.0
  0
LINE
  5
AE0
  8
1
 10
7.498403779400007
 20
47.3314147463
 30
0.0
 11
4.006414746699988
 21
47.3314147463
 31
0.0
  0
LINE
  5
AE1
  8
1
 10
7.603833105900009
 20
47.30816788690001
 30
0.0
 11
7.498403779400007
 21
47.3314147463
 31
0.0
  0
LINE
  5
AE2
  8
1
 10
7.603833230899994
 20
47.30844201400001
 30
0.0
 11
7.603833230899994
 21
-47.28288044160001
 31
0.0
  0
LINE
  5
AE3
  8
1
 10
7.571930453299984
 20
-47.29184187660002
 30
0.0
 11
7.603833055899997
 21
-47.282880439
 31
0.0
  0
LINE
  5
AE4
  8
1
 10
4.040356993800003
 20
-47.29184187660002
 30
0.0
 11
7.571930453299984
 21
-47.29184187660002
 31
0.0
  0
LINE
  5
AE5
  8
1
 10
2.300001405499984
 20
-46.74795901499999
 30
0.0
 11
4.040356993800003
 21
-47.29184189310001
 31
0.0
  0
LINE
  5
AE6
  8
1
 10
4.006414746699988
 20
47.33141476029999
 30
0.0
 11
2.299999765199999
 21
46.80267569
 31
0.0
  0
ARC
  5
AE7
  8
1
 10
2.557435939599998
 20
-45.59355264690001
 30
0.0
 40
1.184053137363273
 50
207.7147598986998
 51
257.3157095984005
  0
LINE
  5
AE8
  8
1
 10
1.50922466130001
 20
-46.14422037630001
 30
0.0
 11
1.5
 21
-46.01377680920001
 31
0.0
  0
LINE
  5
AE9
  8
1
 10
1.5
 20
-46.01377680920001
 30
0.0
 11
1.5
 21
46.01377680919998
 31
0.0
  0
ARC
  5
AEA
  8
1
 10
2.572884962100005
 20
45.72649004249999
 30
0.0
 40
1.111555736593689
 50
104.3436511600003
 51
164.8417645594994
  0
LINE
  5
AEB
  8
1
 10
9.204999995999998
 20
44.41431970880001
 30
0.0
 11
7.60383322749999
 21
47.3081678945
 31
0.0
  0
LINE
  5
AEC
  8
1
 10
9.204999999999984
 20
44.4143196734
 30
0.0
 11
9.204999999999984
 21
-44.387299867
 31
0.0
  0
LINE
  5
AED
  8
1
 10
7.603833226399985
 20
-47.28288044990001
 30
0.0
 11
9.2049999921
 21
-44.38762367050001
 31
0.0
  0
LINE
  5
AEE
  8
1
 10
14.65616677259999
 20
47.3081678945
 30
0.0
 11
13.05500000399999
 21
44.41431970880001
 31
0.0
  0
LINE
  5
AEF
  8
1
 10
13.05500000800001
 20
-44.38762367050001
 30
0.0
 11
14.65616677360001
 21
-47.28288044990001
 31
0.0
  0
LINE
  5
AF0
  8
1
 10
13.05500000000001
 20
44.41459195280001
 30
0.0
 11
13.05500000000001
 21
-44.38762365650001
 31
0.0
  0
ARC
  5
AF1
  8
1
 10
17.92302328310001
 20
46.41895288640001
 30
0.0
 40
1.127359624435328
 50
1.493363825500091
 51
43.53750291790048
  0
LINE
  5
AF2
  8
1
 10
19.04999999999998
 20
46.44833319130001
 30
0.0
 11
19.04999999999998
 21
-46.44833319130001
 31
0.0
  0
ARC
  5
AF3
  8
1
 10
17.91824827779999
 20
-46.4157978575
 30
0.0
 40
1.1322192847622
 50
319.2464850235001
 51
358.3533278529993
  0
ARC
  5
AF4
  8
1
 10
18.2616113983
 20
-46.25791326929999
 30
0.0
 40
1.033993805426882
 50
269.3565743835002
 51
299.8289453780985
  0
ARC
  5
AF5
  8
1
 10
18.2610591033
 20
46.41902767409999
 30
0.0
 40
0.9124540938653742
 50
58.31881226410037
 51
90.69445187719943
  0
ARC
  5
AF6
  8
1
 10
12.5158206966
 20
-44.1073442162
 30
0.0
 40
0.5397579791454132
 50
357.3466499737992
 51
85.83742202690154
  0
ARC
  5
AF7
  8
1
 10
12.54139279200001
 20
44.09944295630001
 30
0.0
 40
0.4858431210597904
 50
271.6049163143007
 51
333.441972537701
  0
POLYLINE
  5
AF8
  8
1
 66
     1
 10
0.0
 20
0.0
 30
0.0
  0
VERTEX
  5
28D2
  8
1
 10
13.05500000000001
 20
44.14662312639999
 30
0.0
  0
VERTEX
  5
28D3
  8
1
 10
13.03542892280001
 20
44.01594229719998
 30
0.0
  0
VERTEX
  5
28D4
  8
1
 10
12.97787844319998
 20
43.88571451269999
 30
0.0
  0
SEQEND
  5
2D61
  8
1
  0
ARC
  5
AF9
  8
1
 10
9.744214343399989
 20
-44.10737531749999
 30
0.0
 40
0.5397915428070933
 50
94.16604783349855
 51
182.6498801657025
  0
POLYLINE
  5
AFA
  8
1
 66
     1
 10
0.0
 20
0.0
 30
0.0
  0
VERTEX
  5
28D5
  8
1
 10
9.280099379399985
 20
43.88913247470001
 30
0.0
  0
VERTEX
  5
28D6
  8
1
 10
9.224055884099982
 20
44.0177026321
 30
0.0
  0
VERTEX
  5
28D7
  8
1
 10
9.204999999999984
 20
44.14662312639999
 30
0.0
  0
SEQEND
  5
2D60
  8
1
  0
ARC
  5
AFB
  8
1
 10
9.721350266000002
 20
44.10422581969999
 30
0.0
 40
0.4907078648052702
 50
206.0244317763009
 51
268.0905652222996
  0
LINE
  5
AFC
  8
1
 10
12.55500000000001
 20
43.613790424
 30
0.0
 11
9.704999999999984
 21
43.613790424
 31
0.0
  0
LINE
  5
AFD
  8
1
 10
9.704999999999984
 20
-43.5690100651
 30
0.0
 11
12.55500000000001
 21
-43.5690100651
 31
0.0
  0
LINE
  5
B00
  8
1
 10
0.2999999999999829
 20
34.625
 30
0.0
 11
0.2999999999999829
 21
-34.625
 31
0.0
  0
LINE
  5
B01
  8
1
 10
0.0
 20
34.92499999999998
 30
0.0
 11
0.0
 21
-34.92500000000001
 31
0.0
  0
LINE
  5
B04
  8
1
 10
14.68806954670001
 20
-47.29184187660002
 30
0.0
 11
14.65616694420001
 21
-47.282880439
 31
0.0
  0
LINE
  5
B1A
  8
3
 10
1.500000000000004
 20
37.72
 30
0.0
 11
19.04999999999998
 21
37.72
 31
0.0
  0
LINE
  5
B3B
  8
3
 10
1.5
 20
-35.30000000000001
 30
0.0
 11
19.26937525020018
 21
-35.30000000000001
 31
0.0
  0
LINE
  5
B42
  8
3
 10
26.97499999999999
 20
28.32499999999999
 30
0.0
 11
33.32499999999999
 21
28.32499999999999
 31
0.0
  0
LINE
  5
B43
  8
3
 10
20.625
 20
28.32499999999999
 30
0.0
 11
26.97499999999999
 21
28.32499999999999
 31
0.0
  0
LINE
  5
B44
  8
3
 10
11.375
 20
37.31999999999999
 30
0.0
 11
16.125
 21
37.31999999999999
 31
0.0
  0
LINE
  5
B45
  8
3
 10
6.625
 20
37.31999999999999
 30
0.0
 11
11.375
 21
37.31999999999999
 31
0.0
  0
LINE
  5
B55
  8
3
 10
20.625
 20
28.32499999999999
 30
0.0
 11
26.97499999999999
 21
24.50953506919998
 31
0.0
  0
LINE
  5
B56
  8
3
 10
26.97499999999999
 20
24.50953506919998
 30
0.0
 11
33.32499999999999
 21
28.32499999999999
 31
0.0
  0
LINE
  5
B57
  8
3
 10
20.625
 20
34.92499999999998
 30
0.0
 11
20.625
 21
28.32499999999999
 31
0.0
  0
LINE
  5
B58
  8
3
 10
33.32499999999999
 20
28.32499999999999
 30
0.0
 11
33.32499999999999
 21
34.92499999999998
 31
0.0
  0
LINE
  5
B59
  8
3
 10
6.625
 20
37.72
 30
0.0
 11
6.625
 21
37.31999999999999
 31
0.0
  0
LINE
  5
B5A
  8
3
 10
16.125
 20
37.31999999999999
 30
0.0
 11
16.125
 21
37.72
 31
0.0
  0
LINE
  5
B5B
  8
1
 10
20.04999999999998
 20
-34.92500000000001
 30
0.0
 11
20.04999999999998
 21
34.92499999999998
 31
0.0
  0
LINE
  5
B5C
  8
1
 10
1.299999999999983
 20
-34.625
 30
0.0
 11
1.299999999999983
 21
34.625
 31
0.0
  0
LINE
  5
B5F
  8
1
 10
12.55500000000001
 20
-43.00413183130001
 30
0.0
 11
12.55500000000001
 21
42.79577481850001
 31
0.0
  0
LINE
  5
B60
  8
1
 10
9.704999999999984
 20
-43.00421493109999
 30
0.0
 11
9.704999999999984
 21
42.7957705776
 31
0.0
  0
LINE
  5
B62
  8
1
 10
18.25
 20
47.3314147463
 30
0.0
 11
18.25
 21
-47.29184187660002
 31
0.0
  0
LINE
  5
B64
  8
1
 10
2.299999999999983
 20
-46.74795854910002
 30
0.0
 11
2.299999999999983
 21
46.80267576719999
 31
0.0
  0
LINE
  5
CD6
  8
1
 10
51.12499999999999
 20
-46.05000000000001
 30
0.0
 11
253.0000000000001
 21
-46.05000000000001
 31
0.0
  0
LINE
  5
CD8
  8
1
 10
253.0000000000001
 20
46.05000000000001
 30
0.0
 11
51.12499999999997
 21
46.05000000000001
 31
0.0
  0
ARC
  5
CD9
  8
1
 10
253.0000000000001
 20
-45.05000000000001
 30
0.0
 40
1.000000000000227
 50
270.0
 51
0.0
  0
ARC
  5
CDA
  8
1
 10
253.0000000000001
 20
45.05000000000001
 30
0.0
 40
1.000000000000227
 50
0.0
 51
90.0
  0
LINE
  5
CDB
  8
1
 10
51.125
 20
46.05000000000001
 30
0.0
 11
40.58578643769988
 21
35.51078643760002
 31
0.0
  0
LINE
  5
CDC
  8
1
 10
40.58578643769988
 20
-35.51078643760002
 30
0.0
 11
51.125
 21
-46.05000000000001
 31
0.0
  0
ARC
  5
CE1
  8
1
 10
39.17157287529994
 20
-36.92500000000001
 30
0.0
 40
2.000000000000177
 50
44.9999999999977
 51
90.0
  0
LINE
  5
D01
  8
1
 10
254.0000000000001
 20
-41.28131000000002
 30
0.0
 11
254.0285674555001
 21
-41.28131000000002
 31
0.0
  0
LINE
  5
D02
  8
1
 10
254.0285674555001
 20
41.28131000000002
 30
0.0
 11
254.0000000000001
 21
41.28131000000002
 31
0.0
  0
LINE
  5
D20
  8
1
 10
51.125
 20
0.0
 30
0.0
 11
51.125
 21
46.05000000000001
 31
0.0
  0
LINE
  5
D21
  8
1
 10
51.125
 20
-46.05000000000001
 30
0.0
 11
51.125
 21
0.0
 31
0.0
  0
CIRCLE
  5
D22
  8
1
 10
236.0000000000001
 20
0.0
 30
0.0
 40
2.624999999999545
  0
LINE
  5
D23
  8
1
 10
254.0000000000001
 20
0.0
 30
0.0
 11
254.0000000000001
 21
45.05000000000001
 31
0.0
  0
LINE
  5
D24
  8
1
 10
254.0000000000001
 20
-45.05000000000001
 30
0.0
 11
254.0000000000001
 21
0.0
 31
0.0
  0
LINE
  5
D3D
  8
1
 10
234.7500000000001
 20
-0.7216878364999957
 30
0.0
 11
236.0000000000001
 21
-1.443375672999991
 31
0.0
  0
LINE
  5
D3E
  8
1
 10
237.2500000000001
 20
-0.7216878364999957
 30
0.0
 11
236.0000000000001
 21
-1.443375672999991
 31
0.0
  0
LINE
  5
D3F
  8
1
 10
237.2500000000001
 20
0.7216878364999957
 30
0.0
 11
237.2500000000001
 21
-0.7216878364999957
 31
0.0
  0
LINE
  5
D40
  8
1
 10
237.2500000000001
 20
0.7216878364999957
 30
0.0
 11
236.0000000000001
 21
1.443375672999991
 31
0.0
  0
LINE
  5
D41
  8
1
 10
234.7500000000001
 20
0.7216878364999957
 30
0.0
 11
236.0000000000001
 21
1.443375672999991
 31
0.0
  0
LINE
  5
D42
  8
1
 10
234.7500000000001
 20
0.7216878364999957
 30
0.0
 11
234.7500000000001
 21
-0.7216878364999957
 31
0.0
  0
CIRCLE
  5
D43
  8
1
 10
236.0000000000001
 20
0.0
 30
0.0
 40
2.055000000000007
  0
CIRCLE
  5
D44
  8
1
 10
236.0000000000001
 20
0.0
 30
0.0
 40
2.256103126842163
  0
CIRCLE
  5
D45
  8
1
 10
236.0000000000001
 20
0.0
 30
0.0
 40
2.5
  0
POLYLINE
  5
D46
  8
3
 66
     1
 10
0.0
 20
0.0
 30
0.0
  0
VERTEX
  5
28D8
  8
3
 10
236.0000000000001
 20
-38.5031238963
 30
0.0
  0
VERTEX
  5
28D9
  8
3
 10
235.1319102512001
 20
-38.5840677727
 30
0.0
  0
VERTEX
  5
28DA
  8
3
 10
234.3617010266001
 20
-38.81539506140001
 30
0.0
  0
VERTEX
  5
28DB
  8
3
 10
233.7753100630001
 20
-39.16554367060002
 30
0.0
  0
VERTEX
  5
28DC
  8
3
 10
233.4394093546001
 20
-39.5883651785
 30
0.0
  0
VERTEX
  5
28DD
  8
3
 10
233.3924176450999
 20
-40.0305592432
 30
0.0
  0
VERTEX
  5
28DE
  8
3
 10
233.6387017675
 20
-40.44144833199999
 30
0.0
  0
VERTEX
  5
28DF
  8
3
 10
234.1505642488999
 20
-40.77925103960001
 30
0.0
  0
VERTEX
  5
28E0
  8
3
 10
234.8715514444
 20
-41.01265015069998
 30
0.0
  0
VERTEX
  5
28E1
  8
3
 10
235.7200409179
 20
-41.12137624499996
 30
0.0
  0
VERTEX
  5
28E2
  8
3
 10
236.5989828906
 20
-41.09687656900002
 30
0.0
  0
VERTEX
  5
28E3
  8
3
 10
237.4098787038
 20
-40.94146195569999
 30
0.0
  0
VERTEX
  5
28E4
  8
3
 10
238.0628879322999
 20
-40.66733624879998
 30
0.0
  0
VERTEX
  5
28E5
  8
3
 10
238.484055382
 20
-40.29798987699996
 30
0.0
  0
VERTEX
  5
28E6
  8
3
 10
238.6249114968001
 20
-39.86968778609997
 30
0.0
  0
VERTEX
  5
28E7
  8
3
 10
238.4702138546
 20
-39.42901817379999
 30
0.0
  0
VERTEX
  5
28E8
  8
3
 10
238.0379038745
 20
-39.02743925839997
 30
0.0
  0
VERTEX
  5
28E9
  8
3
 10
237.3755690118001
 20
-38.7155823471
 30
0.0
  0
VERTEX
  5
28EA
  8
3
 10
236.5575140158999
 20
-38.53599489160001
 30
0.0
  0
VERTEX
  5
28EB
  8
3
 10
236.0000000000001
 20
-38.5031238963
 30
0.0
  0
SEQEND
  5
2D5F
  8
3
  0
POLYLINE
  5
D49
  8
3
 66
     1
 10
0.0
 20
0.0
 30
0.0
  0
VERTEX
  5
28EC
  8
3
 10
236.0000000000001
 20
41.1281238963
 30
0.0
  0
VERTEX
  5
28ED
  8
3
 10
235.1319102512001
 20
41.06137380709998
 30
0.0
  0
VERTEX
  5
28EE
  8
3
 10
234.3617010266001
 20
40.86639517690003
 30
0.0
  0
VERTEX
  5
28EF
  8
3
 10
233.7753100630001
 20
40.55887768790001
 30
0.0
  0
VERTEX
  5
28F0
  8
3
 10
233.4394093546001
 20
40.16629298240002
 30
0.0
  0
VERTEX
  5
28F1
  8
3
 10
233.3924176450999
 20
39.72866644390001
 30
0.0
  0
VERTEX
  5
28F2
  8
3
 10
233.6387017675
 20
39.29475933449999
 30
0.0
  0
VERTEX
  5
28F3
  8
3
 10
234.1505642488999
 20
38.91640042770001
 30
0.0
  0
VERTEX
  5
28F4
  8
3
 10
234.8715514444
 20
38.64258077250003
 30
0.0
  0
VERTEX
  5
28F5
  8
3
 10
234.9175370205999
 20
38.6354683463
 30
0.0
  0
SEQEND
  5
2D5E
  8
3
  0
POLYLINE
  5
D4A
  8
3
 66
     1
 10
0.0
 20
0.0
 30
0.0
  0
VERTEX
  5
28F6
  8
3
 10
237.2116937104
 20
38.68173901
 30
0.0
  0
VERTEX
  5
28F7
  8
3
 10
237.4098787038
 20
38.72722008980003
 30
0.0
  0
VERTEX
  5
28F8
  8
3
 10
238.0628879322999
 20
39.04403147800002
 30
0.0
  0
VERTEX
  5
28F9
  8
3
 10
238.484055382
 20
39.44940643429999
 30
0.0
  0
VERTEX
  5
28FA
  8
3
 10
238.6249114968001
 20
39.89124316440001
 30
0.0
  0
VERTEX
  5
28FB
  8
3
 10
238.4702138546
 20
40.31708827950001
 30
0.0
  0
VERTEX
  5
28FC
  8
3
 10
238.0379038745
 20
40.68200046869998
 30
0.0
  0
VERTEX
  5
28FD
  8
3
 10
237.3755690118001
 20
40.9513003289
 30
0.0
  0
VERTEX
  5
28FE
  8
3
 10
236.5575140158999
 20
41.10110758349998
 30
0.0
  0
VERTEX
  5
28FF
  8
3
 10
236.0000000000001
 20
41.1281238963
 30
0.0
  0
SEQEND
  5
2D5D
  8
3
  0
CIRCLE
  5
D4B
  8
3
 10
236.0000000000001
 20
0.0
 30
0.0
 40
2.100000000000136
  0
LINE
  5
D4D
  8
3
 10
235.6
 20
-2.061552812800016
 30
0.0
 11
235.6
 21
-2.5
 31
0.0
  0
LINE
  5
D4E
  8
3
 10
235.6
 20
2.5
 30
0.0
 11
235.6
 21
2.061552812800016
 31
0.0
  0
POLYLINE
  5
D62
  8
3
 66
     1
 10
0.0
 20
0.0
 30
0.0
  0
VERTEX
  5
2900
  8
3
 10
236.0000000000001
 20
-6.289519393099965
 30
0.0
  0
VERTEX
  5
2901
  8
3
 10
236.6836275223
 20
-6.370553140799984
 30
0.0
  0
VERTEX
  5
2902
  8
3
 10
237.2899821285999
 20
-6.595509683199964
 30
0.0
  0
VERTEX
  5
2903
  8
3
 10
237.7634566776999
 20
-6.926588517200003
 30
0.0
  0
VERTEX
  5
2904
  8
3
 10
238.0431502273
 20
-7.307133325099983
 30
0.0
  0
VERTEX
  5
2905
  8
3
 10
238.0890324257001
 20
-7.666377669399992
 30
0.0
  0
VERTEX
  5
2906
  8
3
 10
237.9086125756001
 20
-7.961289317299986
 30
0.0
  0
VERTEX
  5
2907
  8
3
 10
237.5225929486999
 20
-8.1801650699
 30
0.0
  0
VERTEX
  5
2908
  8
3
 10
236.9576078879
 20
-8.320700715499981
 30
0.0
  0
VERTEX
  5
2909
  8
3
 10
236.2786985691001
 20
-8.384199031200012
 30
0.0
  0
VERTEX
  5
290A
  8
3
 10
235.583540312
 20
-8.377521035499967
 30
0.0
  0
VERTEX
  5
290B
  8
3
 10
234.9448975405999
 20
-8.304028753900013
 30
0.0
  0
VERTEX
  5
290C
  8
3
 10
234.4112524979999
 20
-8.154008264799984
 30
0.0
  0
VERTEX
  5
290D
  8
3
 10
234.0444397401
 20
-7.915059897800006
 30
0.0
  0
VERTEX
  5
290E
  8
3
 10
233.9012374041
 20
-7.597266773199976
 30
0.0
  0
VERTEX
  5
290F
  8
3
 10
233.9913604378001
 20
-7.236509536899973
 30
0.0
  0
VERTEX
  5
2910
  8
3
 10
234.2953095010001
 20
-6.873328137899989
 30
0.0
  0
VERTEX
  5
2911
  8
3
 10
234.7917888718001
 20
-6.554917776100012
 30
0.0
  0
VERTEX
  5
2912
  8
3
 10
235.4350433762
 20
-6.344519781200006
 30
0.0
  0
VERTEX
  5
2913
  8
3
 10
236.0000000000001
 20
-6.289519393099965
 30
0.0
  0
SEQEND
  5
2D5C
  8
3
  0
POLYLINE
  5
D63
  8
3
 66
     1
 10
0.0
 20
0.0
 30
0.0
  0
VERTEX
  5
2914
  8
3
 10
236.0000000000001
 20
8.389519393099988
 30
0.0
  0
VERTEX
  5
2915
  8
3
 10
236.6836275223
 20
8.356164737000029
 30
0.0
  0
VERTEX
  5
2916
  8
3
 10
237.2899821285999
 20
8.25259933320001
 30
0.0
  0
VERTEX
  5
2917
  8
3
 10
237.7634566776999
 20
8.066860653999981
 30
0.0
  0
VERTEX
  5
2918
  8
3
 10
238.0431502273
 20
7.792455021600006
 30
0.0
  0
VERTEX
  5
2919
  8
3
 10
238.0890324257001
 20
7.452033262700013
 30
0.0
  0
VERTEX
  5
291A
  8
3
 10
237.9086125756001
 20
7.085390900600032
 30
0.0
  0
VERTEX
  5
291B
  8
3
 10
237.5225929486999
 20
6.733890299099983
 30
0.0
  0
VERTEX
  5
291C
  8
3
 10
236.9576078879
 20
6.451747229500029
 30
0.0
  0
VERTEX
  5
291D
  8
3
 10
236.2786985691001
 20
6.302774733399986
 30
0.0
  0
VERTEX
  5
291E
  8
3
 10
235.583540312
 20
6.319230160000018
 30
0.0
  0
VERTEX
  5
291F
  8
3
 10
234.9448975405999
 20
6.488330871500011
 30
0.0
  0
VERTEX
  5
2920
  8
3
 10
234.4112524979999
 20
6.780734302899987
 30
0.0
  0
VERTEX
  5
2921
  8
3
 10
234.0444397401
 20
7.149694580100004
 30
0.0
  0
VERTEX
  5
2922
  8
3
 10
233.9012374041
 20
7.525186499699998
 30
0.0
  0
VERTEX
  5
2923
  8
3
 10
233.9913604378001
 20
7.849181642500014
 30
0.0
  0
VERTEX
  5
2924
  8
3
 10
234.2953095010001
 20
8.09971726980001
 30
0.0
  0
VERTEX
  5
2925
  8
3
 10
234.7917888718001
 20
8.272539931799997
 30
0.0
  0
VERTEX
  5
2926
  8
3
 10
235.4350433762
 20
8.367098336699996
 30
0.0
  0
VERTEX
  5
2927
  8
3
 10
236.0000000000001
 20
8.389519393099988
 30
0.0
  0
SEQEND
  5
2D5B
  8
3
  0
LINE
  5
D64
  8
3
 10
236.0000000000001
 20
41.27474999999998
 30
0.0
 11
236.0000000000001
 21
25.40525000000002
 31
0.0
  0
LINE
  5
D65
  8
3
 10
236.0000000000001
 20
-25.40524999999997
 30
0.0
 11
236.0000000000001
 21
-41.27474999999998
 31
0.0
  0
POLYLINE
  5
D6A
  8
3
 66
     1
 10
0.0
 20
0.0
 30
0.0
  0
VERTEX
  5
2928
  8
3
 10
236.0000000000001
 20
39.60978110349998
 30
0.0
  0
VERTEX
  5
2929
  8
3
 10
236.8036352079999
 20
39.52985461270003
 30
0.0
  0
VERTEX
  5
292A
  8
3
 10
237.4849242405001
 20
39.30224322380002
 30
0.0
  0
VERTEX
  5
292B
  8
3
 10
237.9401470183
 20
38.9615987075
 30
0.0
  0
VERTEX
  5
292C
  8
3
 10
238.1
 20
38.55978110350003
 30
0.0
  0
VERTEX
  5
292D
  8
3
 10
237.9401470183
 20
38.1579634995
 30
0.0
  0
VERTEX
  5
292E
  8
3
 10
237.4849242405001
 20
37.81731898330003
 30
0.0
  0
VERTEX
  5
292F
  8
3
 10
236.8036352079999
 20
37.58970759440001
 30
0.0
  0
VERTEX
  5
2930
  8
3
 10
236.0000000000001
 20
37.50978110350002
 30
0.0
  0
VERTEX
  5
2931
  8
3
 10
235.1963647921
 20
37.58970759440001
 30
0.0
  0
VERTEX
  5
2932
  8
3
 10
234.5150757596001
 20
37.81731898330003
 30
0.0
  0
VERTEX
  5
2933
  8
3
 10
234.0598529817999
 20
38.1579634995
 30
0.0
  0
VERTEX
  5
2934
  8
3
 10
233.8999999999999
 20
38.55978110350003
 30
0.0
  0
VERTEX
  5
2935
  8
3
 10
234.0598529817999
 20
38.9615987075
 30
0.0
  0
VERTEX
  5
2936
  8
3
 10
234.5150757596001
 20
39.30224322380002
 30
0.0
  0
VERTEX
  5
2937
  8
3
 10
235.1963647921
 20
39.52985461270003
 30
0.0
  0
VERTEX
  5
2938
  8
3
 10
236.0000000000001
 20
39.60978110349998
 30
0.0
  0
SEQEND
  5
2D5A
  8
3
  0
POLYLINE
  5
D6B
  8
3
 66
     1
 10
0.0
 20
0.0
 30
0.0
  0
VERTEX
  5
2939
  8
3
 10
235.6
 20
9.868834375199981
 30
0.0
  0
VERTEX
  5
293A
  8
3
 10
236.0473563579999
 20
9.899172978299987
 30
0.0
  0
VERTEX
  5
293B
  8
3
 10
236.4888445098
 20
9.854510541699995
 30
0.0
  0
VERTEX
  5
293C
  8
3
 10
237.0401532598001
 20
9.731853179200016
 30
0.0
  0
VERTEX
  5
293D
  8
3
 10
237.6437874582001
 20
9.625232230800009
 30
0.0
  0
VERTEX
  5
293E
  8
3
 10
237.9590104003001
 20
9.682547507700008
 30
0.0
  0
VERTEX
  5
293F
  8
3
 10
238.0895538257999
 20
9.862285545299983
 30
0.0
  0
VERTEX
  5
2940
  8
3
 10
238.0680938015001
 20
10.16478781640001
 30
0.0
  0
VERTEX
  5
2941
  8
3
 10
237.9116638322001
 20
10.52897887749998
 30
0.0
  0
VERTEX
  5
2942
  8
3
 10
237.5396379611
 20
11.06137566440003
 30
0.0
  0
VERTEX
  5
2943
  8
3
 10
237.0236633758
 20
11.56945416669998
 30
0.0
  0
VERTEX
  5
2944
  8
3
 10
236.5074827834999
 20
11.88898069679999
 30
0.0
  0
VERTEX
  5
2945
  8
3
 10
236.0971279719
 20
11.99549033030002
 30
0.0
  0
VERTEX
  5
2946
  8
3
 10
235.6728359679001
 20
11.9531156548
 30
0.0
  0
VERTEX
  5
2947
  8
3
 10
235.6
 20
11.930387188
 30
0.0
  0
SEQEND
  5
2D59
  8
3
  0
ARC
  5
D6C
  8
3
 10
237.9494669217
 20
13.15513205939999
 30
0.0
 40
2.649527281631026
 50
152.467586947801
 51
207.532413052199
  0
POLYLINE
  5
D6D
  8
3
 66
     1
 10
0.0
 20
0.0
 30
0.0
  0
VERTEX
  5
2948
  8
3
 10
235.6
 20
14.37987693079998
 30
0.0
  0
VERTEX
  5
2949
  8
3
 10
236.0473563579999
 20
14.34953832770003
 30
0.0
  0
VERTEX
  5
294A
  8
3
 10
236.4888445098
 20
14.39420076430002
 30
0.0
  0
VERTEX
  5
294B
  8
3
 10
237.0401532598001
 20
14.5168581268
 30
0.0
  0
VERTEX
  5
294C
  8
3
 10
237.6437874582001
 20
14.62347907520001
 30
0.0
  0
VERTEX
  5
294D
  8
3
 10
237.9590104003001
 20
14.56616379830001
 30
0.0
  0
VERTEX
  5
294E
  8
3
 10
238.0895538257999
 20
14.38642576080002
 30
0.0
  0
VERTEX
  5
294F
  8
3
 10
238.0680938015001
 20
14.08392348960001
 30
0.0
  0
VERTEX
  5
2950
  8
3
 10
237.9116638322001
 20
13.71973242849998
 30
0.0
  0
VERTEX
  5
2951
  8
3
 10
237.5396379611
 20
13.18733564159999
 30
0.0
  0
VERTEX
  5
2952
  8
3
 10
237.0236633758
 20
12.67925713930003
 30
0.0
  0
VERTEX
  5
2953
  8
3
 10
236.5074827834999
 20
12.35973060920003
 30
0.0
  0
VERTEX
  5
2954
  8
3
 10
236.0971279719
 20
12.2532209757
 30
0.0
  0
VERTEX
  5
2955
  8
3
 10
235.6728359679001
 20
12.29559565120002
 30
0.0
  0
VERTEX
  5
2956
  8
3
 10
235.6
 20
12.31832411800002
 30
0.0
  0
SEQEND
  5
2D58
  8
3
  0
ARC
  5
D6E
  8
3
 10
237.9494669217
 20
11.09357924660003
 30
0.0
 40
2.649527281631026
 50
152.467586947801
 51
207.532413052199
  0
POLYLINE
  5
D6F
  8
3
 66
     1
 10
0.0
 20
0.0
 30
0.0
  0
VERTEX
  5
2957
  8
3
 10
236.0000000000001
 20
-37.50978110350002
 30
0.0
  0
VERTEX
  5
2958
  8
3
 10
236.8036352079999
 20
-37.58970759429997
 30
0.0
  0
VERTEX
  5
2959
  8
3
 10
237.4849242405001
 20
-37.81731898319998
 30
0.0
  0
VERTEX
  5
295A
  8
3
 10
237.9401470183
 20
-38.1579634995
 30
0.0
  0
VERTEX
  5
295B
  8
3
 10
238.1
 20
-38.55978110349997
 30
0.0
  0
VERTEX
  5
295C
  8
3
 10
237.9401470183
 20
-38.9615987075
 30
0.0
  0
VERTEX
  5
295D
  8
3
 10
237.4849242405001
 20
-39.30224322369997
 30
0.0
  0
VERTEX
  5
295E
  8
3
 10
236.8036352079999
 20
-39.52985461259999
 30
0.0
  0
VERTEX
  5
295F
  8
3
 10
236.0000000000001
 20
-39.60978110349998
 30
0.0
  0
VERTEX
  5
2960
  8
3
 10
235.1963647921
 20
-39.52985461259999
 30
0.0
  0
VERTEX
  5
2961
  8
3
 10
234.5150757596001
 20
-39.30224322369997
 30
0.0
  0
VERTEX
  5
2962
  8
3
 10
234.0598529817999
 20
-38.9615987075
 30
0.0
  0
VERTEX
  5
2963
  8
3
 10
233.8999999999999
 20
-38.55978110349997
 30
0.0
  0
VERTEX
  5
2964
  8
3
 10
234.0598529817999
 20
-38.1579634995
 30
0.0
  0
VERTEX
  5
2965
  8
3
 10
234.5150757596001
 20
-37.81731898319998
 30
0.0
  0
VERTEX
  5
2966
  8
3
 10
235.1963647921
 20
-37.58970759429997
 30
0.0
  0
VERTEX
  5
2967
  8
3
 10
236.0000000000001
 20
-37.50978110350002
 30
0.0
  0
SEQEND
  5
2D57
  8
3
  0
POLYLINE
  5
D70
  8
3
 66
     1
 10
0.0
 20
0.0
 30
0.0
  0
VERTEX
  5
2968
  8
3
 10
235.6
 20
-12.31832411789998
 30
0.0
  0
VERTEX
  5
2969
  8
3
 10
236.0473563579999
 20
-12.25007235379996
 30
0.0
  0
VERTEX
  5
296A
  8
3
 10
236.4888445098
 20
-12.35189054159997
 30
0.0
  0
VERTEX
  5
296B
  8
3
 10
237.0401532598001
 20
-12.69255519239999
 30
0.0
  0
VERTEX
  5
296C
  8
3
 10
237.6437874582001
 20
-13.31658856999996
 30
0.0
  0
VERTEX
  5
296D
  8
3
 10
237.9590104003001
 20
-13.80967305029998
 30
0.0
  0
VERTEX
  5
296E
  8
3
 10
238.0895538257999
 20
-14.17722535619998
 30
0.0
  0
VERTEX
  5
296F
  8
3
 10
238.0680938015001
 20
-14.44859872659998
 30
0.0
  0
VERTEX
  5
2970
  8
3
 10
237.9116638322001
 20
-14.58895126909999
 30
0.0
  0
VERTEX
  5
2971
  8
3
 10
237.5396379611
 20
-14.61545151529998
 30
0.0
  0
VERTEX
  5
2972
  8
3
 10
237.0236633758
 20
-14.51286377459996
 30
0.0
  0
VERTEX
  5
2973
  8
3
 10
236.5074827834999
 20
-14.3974894822
 30
0.0
  0
VERTEX
  5
2974
  8
3
 10
236.0971279719
 20
-14.35097362009998
 30
0.0
  0
VERTEX
  5
2975
  8
3
 10
235.6728359679001
 20
-14.36995427400001
 30
0.0
  0
VERTEX
  5
2976
  8
3
 10
235.6
 20
-14.37987693079998
 30
0.0
  0
SEQEND
  5
2D56
  8
3
  0
ARC
  5
D71
  8
3
 10
237.9119647216001
 20
-13.15513205939999
 30
0.0
 40
2.616329656942201
 50
152.0879510019999
 51
207.9120489980001
  0
POLYLINE
  5
D72
  8
3
 66
     1
 10
0.0
 20
0.0
 30
0.0
  0
VERTEX
  5
2977
  8
3
 10
235.6
 20
-11.930387188
 30
0.0
  0
VERTEX
  5
2978
  8
3
 10
236.0473563579999
 20
-11.99863895210001
 30
0.0
  0
VERTEX
  5
2979
  8
3
 10
236.4888445098
 20
-11.8968207643
 30
0.0
  0
VERTEX
  5
297A
  8
3
 10
237.0401532598001
 20
-11.55615611349998
 30
0.0
  0
VERTEX
  5
297B
  8
3
 10
237.6437874582001
 20
-10.93212273590001
 30
0.0
  0
VERTEX
  5
297C
  8
3
 10
237.9590104003001
 20
-10.43903825569998
 30
0.0
  0
VERTEX
  5
297D
  8
3
 10
238.0895538257999
 20
-10.07148594979998
 30
0.0
  0
VERTEX
  5
297E
  8
3
 10
238.0680938015001
 20
-9.800112579399979
 30
0.0
  0
VERTEX
  5
297F
  8
3
 10
237.9116638322001
 20
-9.65976003679998
 30
0.0
  0
VERTEX
  5
2980
  8
3
 10
237.5396379611
 20
-9.63325979069998
 30
0.0
  0
VERTEX
  5
2981
  8
3
 10
237.0236633758
 20
-9.73584753130001
 30
0.0
  0
VERTEX
  5
2982
  8
3
 10
236.5074827834999
 20
-9.851221823699973
 30
0.0
  0
VERTEX
  5
2983
  8
3
 10
236.0971279719
 20
-9.897737685799996
 30
0.0
  0
VERTEX
  5
2984
  8
3
 10
235.6728359679001
 20
-9.878757031899966
 30
0.0
  0
VERTEX
  5
2985
  8
3
 10
235.6
 20
-9.868834375199981
 30
0.0
  0
SEQEND
  5
2D55
  8
3
  0
ARC
  5
D73
  8
3
 10
237.9119647216001
 20
-11.09357924659997
 30
0.0
 40
2.616329656942201
 50
152.0879510019999
 51
207.9120489980001
  0
LINE
  5
D74
  8
3
 10
235.6
 20
9.868834375199981
 30
0.0
 11
235.6
 21
11.930387188
 31
0.0
  0
LINE
  5
D75
  8
3
 10
235.6
 20
14.37987693079998
 30
0.0
 11
235.6
 21
11.930387188
 31
0.0
  0
LINE
  5
D76
  8
3
 10
235.6
 20
-11.930387188
 30
0.0
 11
235.6
 21
-9.868834375199981
 31
0.0
  0
LINE
  5
D77
  8
3
 10
235.6
 20
-11.930387188
 30
0.0
 11
235.6
 21
-14.37987693079998
 31
0.0
  0
POLYLINE
  5
D78
  8
3
 66
     1
 10
0.0
 20
0.0
 30
0.0
  0
VERTEX
  5
2986
  8
3
 10
236.0000000000001
 20
40.32694444050003
 30
0.0
  0
VERTEX
  5
2987
  8
3
 10
236.9482593737999
 20
40.23831424159999
 30
0.0
  0
VERTEX
  5
2988
  8
3
 10
237.7684510646
 20
39.98439364440003
 30
0.0
  0
VERTEX
  5
2989
  8
3
 10
238.3498036398001
 20
39.59947603250004
 30
0.0
  0
VERTEX
  5
298A
  8
3
 10
238.6138022128001
 20
39.13554666229999
 30
0.0
  0
VERTEX
  5
298B
  8
3
 10
238.5247923134
 20
38.65526176600002
 30
0.0
  0
VERTEX
  5
298C
  8
3
 10
238.0947952217001
 20
38.22348648029998
 30
0.0
  0
VERTEX
  5
298D
  8
3
 10
237.3818844276
 20
37.89853444990001
 30
0.0
  0
VERTEX
  5
298E
  8
3
 10
236.4823424843001
 20
37.72429224720003
 30
0.0
  0
VERTEX
  5
298F
  8
3
 10
235.5176575158001
 20
37.72429224720003
 30
0.0
  0
VERTEX
  5
2990
  8
3
 10
234.6181155724999
 20
37.89853444990001
 30
0.0
  0
VERTEX
  5
2991
  8
3
 10
233.9052047784001
 20
38.22348648029998
 30
0.0
  0
VERTEX
  5
2992
  8
3
 10
233.4752076866999
 20
38.65526176600002
 30
0.0
  0
VERTEX
  5
2993
  8
3
 10
233.3861977873001
 20
39.13554666229999
 30
0.0
  0
VERTEX
  5
2994
  8
3
 10
233.6501963602
 20
39.59947603250004
 30
0.0
  0
VERTEX
  5
2995
  8
3
 10
234.2315489354999
 20
39.98439364440003
 30
0.0
  0
VERTEX
  5
2996
  8
3
 10
235.0517406263
 20
40.23831424159999
 30
0.0
  0
VERTEX
  5
2997
  8
3
 10
236.0000000000001
 20
40.32694444050003
 30
0.0
  0
SEQEND
  5
2D54
  8
3
  0
POLYLINE
  5
D79
  8
3
 66
     1
 10
0.0
 20
0.0
 30
0.0
  0
VERTEX
  5
2998
  8
3
 10
236.0000000000001
 20
-37.70194444049997
 30
0.0
  0
VERTEX
  5
2999
  8
3
 10
236.9482593737999
 20
-37.79057463940001
 30
0.0
  0
VERTEX
  5
299A
  8
3
 10
237.7684510646
 20
-38.04449523659997
 30
0.0
  0
VERTEX
  5
299B
  8
3
 10
238.3498036398001
 20
-38.42941284849996
 30
0.0
  0
VERTEX
  5
299C
  8
3
 10
238.6138022128001
 20
-38.89334221870001
 30
0.0
  0
VERTEX
  5
299D
  8
3
 10
238.5247923134
 20
-39.37362711489999
 30
0.0
  0
VERTEX
  5
299E
  8
3
 10
238.0947952217001
 20
-39.80540240070002
 30
0.0
  0
VERTEX
  5
299F
  8
3
 10
237.3818844276
 20
-40.13035443109999
 30
0.0
  0
VERTEX
  5
29A0
  8
3
 10
236.4823424843001
 20
-40.30459663379997
 30
0.0
  0
VERTEX
  5
29A1
  8
3
 10
235.5176575158001
 20
-40.30459663379997
 30
0.0
  0
VERTEX
  5
29A2
  8
3
 10
234.6181155724999
 20
-40.13035443109999
 30
0.0
  0
VERTEX
  5
29A3
  8
3
 10
233.9052047784001
 20
-39.80540240070002
 30
0.0
  0
VERTEX
  5
29A4
  8
3
 10
233.4752076866999
 20
-39.37362711489999
 30
0.0
  0
VERTEX
  5
29A5
  8
3
 10
233.3861977873001
 20
-38.89334221870001
 30
0.0
  0
VERTEX
  5
29A6
  8
3
 10
233.6501963602
 20
-38.42941284849996
 30
0.0
  0
VERTEX
  5
29A7
  8
3
 10
234.2315489354999
 20
-38.04449523659997
 30
0.0
  0
VERTEX
  5
29A8
  8
3
 10
235.0517406263
 20
-37.79057463940001
 30
0.0
  0
VERTEX
  5
29A9
  8
3
 10
236.0000000000001
 20
-37.70194444049997
 30
0.0
  0
SEQEND
  5
2D53
  8
3
  0
LINE
  5
D7A
  8
3
 10
248.5859900000001
 20
0.0
 30
0.0
 11
248.5859900000001
 21
-9.524999999999977
 31
0.0
  0
LINE
  5
D7B
  8
3
 10
248.5859900000001
 20
9.525000000000034
 30
0.0
 11
248.5859900000001
 21
0.0
 31
0.0
  0
LINE
  5
D7C
  8
3
 10
247.6499999999999
 20
0.0
 30
0.0
 11
247.6499999999999
 21
-8.589009999999973
 31
0.0
  0
LINE
  5
D7D
  8
3
 10
247.6499999999999
 20
8.58901000000003
 30
0.0
 11
247.6499999999999
 21
0.0
 31
0.0
  0
LINE
  5
D87
  8
3
 10
239.5101603050001
 20
-25.39868999999999
 30
0.0
 11
239.5101603050001
 21
-41.28131000000002
 31
0.0
  0
LINE
  5
D88
  8
3
 10
238.8720395107001
 20
-25.40868999999998
 30
0.0
 11
238.8720395107001
 21
-41.27130999999997
 31
0.0
  0
LINE
  5
D89
  8
3
 10
237.9471999999999
 20
-25.65649999999999
 30
0.0
 11
237.9471999999999
 21
-41.02350000000001
 31
0.0
  0
LINE
  5
D8A
  8
3
 10
239.5101603050001
 20
41.28131000000002
 30
0.0
 11
239.5101603050001
 21
25.39868999999999
 31
0.0
  0
LINE
  5
D8B
  8
3
 10
238.8720395107001
 20
41.27131000000003
 30
0.0
 11
238.8720395107001
 21
25.40869000000004
 31
0.0
  0
LINE
  5
D8C
  8
3
 10
237.9471999999999
 20
41.02350000000001
 30
0.0
 11
237.9471999999999
 21
25.65649999999999
 31
0.0
  0
CIRCLE
  5
D8D
  8
3
 10
236.0000000000001
 20
0.0
 30
0.0
 40
2.316732743452121
  0
CIRCLE
  5
D8E
  8
3
 10
236.0000000000001
 20
0.0
 30
0.0
 40
1.749999999999943
  0
POLYLINE
  5
D8F
  8
3
 66
     1
 10
0.0
 20
0.0
 30
0.0
  0
VERTEX
  5
29AA
  8
3
 10
236.0000000000001
 20
-35.5593174215
 30
0.0
  0
VERTEX
  5
29AB
  8
3
 10
235.3303039933999
 20
-35.49271201249996
 30
0.0
  0
VERTEX
  5
29AC
  8
3
 10
234.762563133
 20
-35.30303585510001
 30
0.0
  0
VERTEX
  5
29AD
  8
3
 10
234.3832108181001
 20
-35.0191654249
 30
0.0
  0
VERTEX
  5
29AE
  8
3
 10
234.2500000000001
 20
-34.6843174215
 30
0.0
  0
VERTEX
  5
29AF
  8
3
 10
234.3832108181001
 20
-34.34946941819999
 30
0.0
  0
VERTEX
  5
29B0
  8
3
 10
234.762563133
 20
-34.06559898799998
 30
0.0
  0
VERTEX
  5
29B1
  8
3
 10
235.3303039933999
 20
-33.87592283060002
 30
0.0
  0
VERTEX
  5
29B2
  8
3
 10
236.0000000000001
 20
-33.8093174215
 30
0.0
  0
VERTEX
  5
29B3
  8
3
 10
236.6696960067
 20
-33.87592283060002
 30
0.0
  0
VERTEX
  5
29B4
  8
3
 10
237.2374368670999
 20
-34.06559898799998
 30
0.0
  0
VERTEX
  5
29B5
  8
3
 10
237.6167891819001
 20
-34.34946941819999
 30
0.0
  0
VERTEX
  5
29B6
  8
3
 10
237.7500000000001
 20
-34.6843174215
 30
0.0
  0
VERTEX
  5
29B7
  8
3
 10
237.6167891819001
 20
-35.0191654249
 30
0.0
  0
VERTEX
  5
29B8
  8
3
 10
237.2374368670999
 20
-35.30303585510001
 30
0.0
  0
VERTEX
  5
29B9
  8
3
 10
236.6696960067
 20
-35.49271201249996
 30
0.0
  0
VERTEX
  5
29BA
  8
3
 10
236.0000000000001
 20
-35.5593174215
 30
0.0
  0
SEQEND
  5
2D52
  8
3
  0
POLYLINE
  5
D90
  8
3
 66
     1
 10
0.0
 20
0.0
 30
0.0
  0
VERTEX
  5
29BB
  8
3
 10
233.6832672566
 20
-35.17512237450001
 30
0.0
  0
VERTEX
  5
29BC
  8
3
 10
233.8596180360999
 20
-34.73183475550002
 30
0.0
  0
VERTEX
  5
29BD
  8
3
 10
234.3618225669
 20
-34.356033658
 30
0.0
  0
VERTEX
  5
29BE
  8
3
 10
235.1134247619
 20
-34.10493139249996
 30
0.0
  0
VERTEX
  5
29BF
  8
3
 10
236.0000000000001
 20
-34.01675600279998
 30
0.0
  0
VERTEX
  5
29C0
  8
3
 10
236.8865752381999
 20
-34.10493139249996
 30
0.0
  0
VERTEX
  5
29C1
  8
3
 10
237.6381774330999
 20
-34.356033658
 30
0.0
  0
VERTEX
  5
29C2
  8
3
 10
238.140381964
 20
-34.73183475550002
 30
0.0
  0
VERTEX
  5
29C3
  8
3
 10
238.3167327434999
 20
-35.17512237450001
 30
0.0
  0
VERTEX
  5
29C4
  8
3
 10
238.140381964
 20
-35.61840999359998
 30
0.0
  0
VERTEX
  5
29C5
  8
3
 10
237.6381774330999
 20
-35.9942110911
 30
0.0
  0
VERTEX
  5
29C6
  8
3
 10
236.8865752381999
 20
-36.24531335649999
 30
0.0
  0
VERTEX
  5
29C7
  8
3
 10
236.0000000000001
 20
-36.33348874629996
 30
0.0
  0
VERTEX
  5
29C8
  8
3
 10
235.1134247619
 20
-36.24531335649999
 30
0.0
  0
VERTEX
  5
29C9
  8
3
 10
234.3618225669
 20
-35.9942110911
 30
0.0
  0
VERTEX
  5
29CA
  8
3
 10
233.8596180360999
 20
-35.61840999359998
 30
0.0
  0
VERTEX
  5
29CB
  8
3
 10
233.6832672566
 20
-35.17512237450001
 30
0.0
  0
SEQEND
  5
2D51
  8
3
  0
POLYLINE
  5
D91
  8
3
 66
     1
 10
0.0
 20
0.0
 30
0.0
  0
VERTEX
  5
29CC
  8
3
 10
238.0549999999999
 20
-35.33383645999999
 30
0.0
  0
VERTEX
  5
29CD
  8
3
 10
237.8985724392999
 20
-35.72704368680002
 30
0.0
  0
VERTEX
  5
29CE
  8
3
 10
237.4531044353999
 20
-36.06038867770002
 30
0.0
  0
VERTEX
  5
29CF
  8
3
 10
236.7864144535
 20
-36.2831226797
 30
0.0
  0
VERTEX
  5
29D0
  8
3
 10
236.0000000000001
 20
-36.36133646000002
 30
0.0
  0
VERTEX
  5
29D1
  8
3
 10
235.2135855464999
 20
-36.2831226797
 30
0.0
  0
VERTEX
  5
29D2
  8
3
 10
234.5468955647
 20
-36.06038867770002
 30
0.0
  0
VERTEX
  5
29D3
  8
3
 10
234.1014275607
 20
-35.72704368680002
 30
0.0
  0
VERTEX
  5
29D4
  8
3
 10
233.945
 20
-35.33383645999999
 30
0.0
  0
VERTEX
  5
29D5
  8
3
 10
234.1014275607
 20
-34.9406292333
 30
0.0
  0
VERTEX
  5
29D6
  8
3
 10
234.5468955647
 20
-34.6072842424
 30
0.0
  0
VERTEX
  5
29D7
  8
3
 10
235.2135855464999
 20
-34.38455024040002
 30
0.0
  0
VERTEX
  5
29D8
  8
3
 10
236.0000000000001
 20
-34.30633646000001
 30
0.0
  0
VERTEX
  5
29D9
  8
3
 10
236.7864144535
 20
-34.38455024040002
 30
0.0
  0
VERTEX
  5
29DA
  8
3
 10
237.4531044353999
 20
-34.6072842424
 30
0.0
  0
VERTEX
  5
29DB
  8
3
 10
237.8985724392999
 20
-34.9406292333
 30
0.0
  0
VERTEX
  5
29DC
  8
3
 10
238.0549999999999
 20
-35.33383645999999
 30
0.0
  0
SEQEND
  5
2D50
  8
3
  0
POLYLINE
  5
D92
  8
3
 66
     1
 10
0.0
 20
0.0
 30
0.0
  0
VERTEX
  5
29DD
  8
3
 10
238.5000000000001
 20
-35.60368335459998
 30
0.0
  0
VERTEX
  5
29DE
  8
3
 10
238.3096988313001
 20
-36.0820376451
 30
0.0
  0
VERTEX
  5
29DF
  8
3
 10
237.7677669529999
 20
-36.48756683109997
 30
0.0
  0
VERTEX
  5
29E0
  8
3
 10
236.9567085808999
 20
-36.75853277030001
 30
0.0
  0
VERTEX
  5
29E1
  8
3
 10
236.0000000000001
 20
-36.85368335459998
 30
0.0
  0
VERTEX
  5
29E2
  8
3
 10
235.0432914190999
 20
-36.75853277030001
 30
0.0
  0
VERTEX
  5
29E3
  8
3
 10
234.2322330471
 20
-36.48756683109997
 30
0.0
  0
VERTEX
  5
29E4
  8
3
 10
233.6903011688001
 20
-36.0820376451
 30
0.0
  0
VERTEX
  5
29E5
  8
3
 10
233.5000000000001
 20
-35.60368335459998
 30
0.0
  0
VERTEX
  5
29E6
  8
3
 10
233.6903011688001
 20
-35.1253290642
 30
0.0
  0
VERTEX
  5
29E7
  8
3
 10
234.2322330471
 20
-34.71979987819998
 30
0.0
  0
VERTEX
  5
29E8
  8
3
 10
235.0432914190999
 20
-34.448833939
 30
0.0
  0
VERTEX
  5
29E9
  8
3
 10
236.0000000000001
 20
-34.35368335459998
 30
0.0
  0
VERTEX
  5
29EA
  8
3
 10
236.9567085808999
 20
-34.448833939
 30
0.0
  0
VERTEX
  5
29EB
  8
3
 10
237.7677669529999
 20
-34.71979987819998
 30
0.0
  0
VERTEX
  5
29EC
  8
3
 10
238.3096988313001
 20
-35.1253290642
 30
0.0
  0
VERTEX
  5
29ED
  8
3
 10
238.5000000000001
 20
-35.60368335459998
 30
0.0
  0
SEQEND
  5
2D4F
  8
3
  0
POLYLINE
  5
D93
  8
3
 66
     1
 10
0.0
 20
0.0
 30
0.0
  0
VERTEX
  5
29EE
  8
3
 10
238.5000000000001
 20
-35.681722906
 30
0.0
  0
VERTEX
  5
29EF
  8
3
 10
238.3096988313001
 20
-36.16007719649997
 30
0.0
  0
VERTEX
  5
29F0
  8
3
 10
237.7677669529999
 20
-36.56560638249999
 30
0.0
  0
VERTEX
  5
29F1
  8
3
 10
236.9567085808999
 20
-36.83657232159999
 30
0.0
  0
VERTEX
  5
29F2
  8
3
 10
236.0000000000001
 20
-36.931722906
 30
0.0
  0
VERTEX
  5
29F3
  8
3
 10
235.0432914190999
 20
-36.83657232159999
 30
0.0
  0
VERTEX
  5
29F4
  8
3
 10
234.2322330471
 20
-36.56560638249999
 30
0.0
  0
VERTEX
  5
29F5
  8
3
 10
233.6903011688001
 20
-36.16007719649997
 30
0.0
  0
VERTEX
  5
29F6
  8
3
 10
233.5000000000001
 20
-35.681722906
 30
0.0
  0
VERTEX
  5
29F7
  8
3
 10
233.6903011688001
 20
-35.20336861549998
 30
0.0
  0
VERTEX
  5
29F8
  8
3
 10
234.2322330471
 20
-34.79783942950002
 30
0.0
  0
VERTEX
  5
29F9
  8
3
 10
235.0432914190999
 20
-34.52687349039996
 30
0.0
  0
VERTEX
  5
29FA
  8
3
 10
236.0000000000001
 20
-34.431722906
 30
0.0
  0
VERTEX
  5
29FB
  8
3
 10
236.9567085808999
 20
-34.52687349039996
 30
0.0
  0
VERTEX
  5
29FC
  8
3
 10
237.7677669529999
 20
-34.79783942950002
 30
0.0
  0
VERTEX
  5
29FD
  8
3
 10
238.3096988313001
 20
-35.20336861549998
 30
0.0
  0
VERTEX
  5
29FE
  8
3
 10
238.5000000000001
 20
-35.681722906
 30
0.0
  0
SEQEND
  5
2D4E
  8
3
  0
POLYLINE
  5
D94
  8
3
 66
     1
 10
0.0
 20
0.0
 30
0.0
  0
VERTEX
  5
29FF
  8
3
 10
238.0549999999999
 20
-35.9515698006
 30
0.0
  0
VERTEX
  5
2A00
  8
3
 10
237.8985724392999
 20
-36.34477702739997
 30
0.0
  0
VERTEX
  5
2A01
  8
3
 10
237.4531044353999
 20
-36.67812201829997
 30
0.0
  0
VERTEX
  5
2A02
  8
3
 10
236.7864144535
 20
-36.90085602030001
 30
0.0
  0
VERTEX
  5
2A03
  8
3
 10
236.0000000000001
 20
-36.97906980059997
 30
0.0
  0
VERTEX
  5
2A04
  8
3
 10
235.2135855464999
 20
-36.90085602030001
 30
0.0
  0
VERTEX
  5
2A05
  8
3
 10
234.5468955647
 20
-36.67812201829997
 30
0.0
  0
VERTEX
  5
2A06
  8
3
 10
234.1014275607
 20
-36.34477702739997
 30
0.0
  0
VERTEX
  5
2A07
  8
3
 10
233.945
 20
-35.9515698006
 30
0.0
  0
VERTEX
  5
2A08
  8
3
 10
234.1014275607
 20
-35.55836257390001
 30
0.0
  0
VERTEX
  5
2A09
  8
3
 10
234.5468955647
 20
-35.22501758300001
 30
0.0
  0
VERTEX
  5
2A0A
  8
3
 10
235.2135855464999
 20
-35.00228358099997
 30
0.0
  0
VERTEX
  5
2A0B
  8
3
 10
236.0000000000001
 20
-34.92406980059997
 30
0.0
  0
VERTEX
  5
2A0C
  8
3
 10
236.7864144535
 20
-35.00228358099997
 30
0.0
  0
VERTEX
  5
2A0D
  8
3
 10
237.4531044353999
 20
-35.22501758300001
 30
0.0
  0
VERTEX
  5
2A0E
  8
3
 10
237.8985724392999
 20
-35.55836257390001
 30
0.0
  0
VERTEX
  5
2A0F
  8
3
 10
238.0549999999999
 20
-35.9515698006
 30
0.0
  0
SEQEND
  5
2D4D
  8
3
  0
POLYLINE
  5
D95
  8
3
 66
     1
 10
0.0
 20
0.0
 30
0.0
  0
VERTEX
  5
2A10
  8
3
 10
238.5000000000001
 20
-36.22141669519999
 30
0.0
  0
VERTEX
  5
2A11
  8
3
 10
238.3096988313001
 20
-36.69977098570001
 30
0.0
  0
VERTEX
  5
2A12
  8
3
 10
237.7677669529999
 20
-37.10530017169998
 30
0.0
  0
VERTEX
  5
2A13
  8
3
 10
236.9567085808999
 20
-37.37626611090002
 30
0.0
  0
VERTEX
  5
2A14
  8
3
 10
236.0000000000001
 20
-37.47141669519999
 30
0.0
  0
VERTEX
  5
2A15
  8
3
 10
235.0432914190999
 20
-37.37626611090002
 30
0.0
  0
VERTEX
  5
2A16
  8
3
 10
234.2322330471
 20
-37.10530017169998
 30
0.0
  0
VERTEX
  5
2A17
  8
3
 10
233.6903011687
 20
-36.69977098570001
 30
0.0
  0
VERTEX
  5
2A18
  8
3
 10
233.5000000000001
 20
-36.22141669519999
 30
0.0
  0
VERTEX
  5
2A19
  8
3
 10
233.6903011687
 20
-35.74306240480001
 30
0.0
  0
VERTEX
  5
2A1A
  8
3
 10
234.2322330471
 20
-35.33753321879999
 30
0.0
  0
VERTEX
  5
2A1B
  8
3
 10
235.0432914190999
 20
-35.06656727960001
 30
0.0
  0
VERTEX
  5
2A1C
  8
3
 10
236.0000000000001
 20
-34.97141669519999
 30
0.0
  0
VERTEX
  5
2A1D
  8
3
 10
236.9567085808999
 20
-35.06656727960001
 30
0.0
  0
VERTEX
  5
2A1E
  8
3
 10
237.7677669529999
 20
-35.33753321879999
 30
0.0
  0
VERTEX
  5
2A1F
  8
3
 10
238.3096988313001
 20
-35.74306240480001
 30
0.0
  0
VERTEX
  5
2A20
  8
3
 10
238.5000000000001
 20
-36.22141669519999
 30
0.0
  0
SEQEND
  5
2D4C
  8
3
  0
POLYLINE
  5
D96
  8
3
 66
     1
 10
0.0
 20
0.0
 30
0.0
  0
VERTEX
  5
2A21
  8
3
 10
238.5000000000001
 20
-36.29945624660002
 30
0.0
  0
VERTEX
  5
2A22
  8
3
 10
238.3096988313001
 20
-36.77781053709998
 30
0.0
  0
VERTEX
  5
2A23
  8
3
 10
237.7677669529999
 20
-37.1833397231
 30
0.0
  0
VERTEX
  5
2A24
  8
3
 10
236.9567085808999
 20
-37.4543056622
 30
0.0
  0
VERTEX
  5
2A25
  8
3
 10
236.0000000000001
 20
-37.54945624660002
 30
0.0
  0
VERTEX
  5
2A26
  8
3
 10
235.0432914190999
 20
-37.4543056622
 30
0.0
  0
VERTEX
  5
2A27
  8
3
 10
234.2322330471
 20
-37.1833397231
 30
0.0
  0
VERTEX
  5
2A28
  8
3
 10
233.6903011687
 20
-36.77781053709998
 30
0.0
  0
VERTEX
  5
2A29
  8
3
 10
233.5000000000001
 20
-36.29945624660002
 30
0.0
  0
VERTEX
  5
2A2A
  8
3
 10
233.6903011687
 20
-35.82110195609999
 30
0.0
  0
VERTEX
  5
2A2B
  8
3
 10
234.2322330471
 20
-35.41557277009997
 30
0.0
  0
VERTEX
  5
2A2C
  8
3
 10
235.0432914190999
 20
-35.14460683099998
 30
0.0
  0
VERTEX
  5
2A2D
  8
3
 10
236.0000000000001
 20
-35.04945624660002
 30
0.0
  0
VERTEX
  5
2A2E
  8
3
 10
236.9567085808999
 20
-35.14460683099998
 30
0.0
  0
VERTEX
  5
2A2F
  8
3
 10
237.7677669529999
 20
-35.41557277009997
 30
0.0
  0
VERTEX
  5
2A30
  8
3
 10
238.3096988313001
 20
-35.82110195609999
 30
0.0
  0
VERTEX
  5
2A31
  8
3
 10
238.5000000000001
 20
-36.29945624660002
 30
0.0
  0
SEQEND
  5
2D4B
  8
3
  0
POLYLINE
  5
D97
  8
3
 66
     1
 10
0.0
 20
0.0
 30
0.0
  0
VERTEX
  5
2A32
  8
3
 10
238.0549999999999
 20
-36.56930314120001
 30
0.0
  0
VERTEX
  5
2A33
  8
3
 10
237.8985724392999
 20
-36.96251036799998
 30
0.0
  0
VERTEX
  5
2A34
  8
3
 10
237.4531044353999
 20
-37.29585535889998
 30
0.0
  0
VERTEX
  5
2A35
  8
3
 10
236.7864144535
 20
-37.51858936089997
 30
0.0
  0
VERTEX
  5
2A36
  8
3
 10
236.0000000000001
 20
-37.59680314119998
 30
0.0
  0
VERTEX
  5
2A37
  8
3
 10
235.2135855464999
 20
-37.51858936089997
 30
0.0
  0
VERTEX
  5
2A38
  8
3
 10
234.5468955647
 20
-37.29585535889998
 30
0.0
  0
VERTEX
  5
2A39
  8
3
 10
234.1014275607
 20
-36.96251036799998
 30
0.0
  0
VERTEX
  5
2A3A
  8
3
 10
233.945
 20
-36.56930314120001
 30
0.0
  0
VERTEX
  5
2A3B
  8
3
 10
234.1014275607
 20
-36.17609591449997
 30
0.0
  0
VERTEX
  5
2A3C
  8
3
 10
234.5468955647
 20
-35.84275092359997
 30
0.0
  0
VERTEX
  5
2A3D
  8
3
 10
235.2135855464999
 20
-35.62001692159998
 30
0.0
  0
VERTEX
  5
2A3E
  8
3
 10
236.0000000000001
 20
-35.54180314119998
 30
0.0
  0
VERTEX
  5
2A3F
  8
3
 10
236.7864144535
 20
-35.62001692159998
 30
0.0
  0
VERTEX
  5
2A40
  8
3
 10
237.4531044353999
 20
-35.84275092359997
 30
0.0
  0
VERTEX
  5
2A41
  8
3
 10
237.8985724392999
 20
-36.17609591449997
 30
0.0
  0
VERTEX
  5
2A42
  8
3
 10
238.0549999999999
 20
-36.56930314120001
 30
0.0
  0
SEQEND
  5
2D4A
  8
3
  0
POLYLINE
  5
D98
  8
3
 66
     1
 10
0.0
 20
0.0
 30
0.0
  0
VERTEX
  5
2A43
  8
3
 10
238.5000000000001
 20
-36.83915003589999
 30
0.0
  0
VERTEX
  5
2A44
  8
3
 10
238.3096988313001
 20
-37.31750432629997
 30
0.0
  0
VERTEX
  5
2A45
  8
3
 10
237.7677669529999
 20
-37.72303351229999
 30
0.0
  0
VERTEX
  5
2A46
  8
3
 10
236.9567085808999
 20
-37.99399945149997
 30
0.0
  0
VERTEX
  5
2A47
  8
3
 10
236.0000000000001
 20
-38.08915003589999
 30
0.0
  0
VERTEX
  5
2A48
  8
3
 10
235.0432914190999
 20
-37.99399945149997
 30
0.0
  0
VERTEX
  5
2A49
  8
3
 10
234.2322330471
 20
-37.72303351229999
 30
0.0
  0
VERTEX
  5
2A4A
  8
3
 10
233.6903011688001
 20
-37.31750432629997
 30
0.0
  0
VERTEX
  5
2A4B
  8
3
 10
233.5000000000001
 20
-36.83915003589999
 30
0.0
  0
VERTEX
  5
2A4C
  8
3
 10
233.6903011688001
 20
-36.36079574539997
 30
0.0
  0
VERTEX
  5
2A4D
  8
3
 10
234.2322330471
 20
-35.9552665594
 30
0.0
  0
VERTEX
  5
2A4E
  8
3
 10
235.0432914190999
 20
-35.68430062019996
 30
0.0
  0
VERTEX
  5
2A4F
  8
3
 10
236.0000000000001
 20
-35.58915003589999
 30
0.0
  0
VERTEX
  5
2A50
  8
3
 10
236.9567085808999
 20
-35.68430062019996
 30
0.0
  0
VERTEX
  5
2A51
  8
3
 10
237.7677669529999
 20
-35.9552665594
 30
0.0
  0
VERTEX
  5
2A52
  8
3
 10
238.3096988313001
 20
-36.36079574539997
 30
0.0
  0
VERTEX
  5
2A53
  8
3
 10
238.5000000000001
 20
-36.83915003589999
 30
0.0
  0
SEQEND
  5
2D49
  8
3
  0
POLYLINE
  5
D99
  8
3
 66
     1
 10
0.0
 20
0.0
 30
0.0
  0
VERTEX
  5
2A54
  8
3
 10
238.5000000000001
 20
-36.91718958719997
 30
0.0
  0
VERTEX
  5
2A55
  8
3
 10
238.3096988313001
 20
-37.39554387769999
 30
0.0
  0
VERTEX
  5
2A56
  8
3
 10
237.7677669529999
 20
-37.80107306370002
 30
0.0
  0
VERTEX
  5
2A57
  8
3
 10
236.9567085808999
 20
-38.07203900280001
 30
0.0
  0
VERTEX
  5
2A58
  8
3
 10
236.0000000000001
 20
-38.16718958719997
 30
0.0
  0
VERTEX
  5
2A59
  8
3
 10
235.0432914190999
 20
-38.07203900280001
 30
0.0
  0
VERTEX
  5
2A5A
  8
3
 10
234.2322330471
 20
-37.80107306370002
 30
0.0
  0
VERTEX
  5
2A5B
  8
3
 10
233.6903011688001
 20
-37.39554387769999
 30
0.0
  0
VERTEX
  5
2A5C
  8
3
 10
233.5000000000001
 20
-36.91718958719997
 30
0.0
  0
VERTEX
  5
2A5D
  8
3
 10
233.6903011688001
 20
-36.43883529679999
 30
0.0
  0
VERTEX
  5
2A5E
  8
3
 10
234.2322330471
 20
-36.03330611069998
 30
0.0
  0
VERTEX
  5
2A5F
  8
3
 10
235.0432914190999
 20
-35.76234017159999
 30
0.0
  0
VERTEX
  5
2A60
  8
3
 10
236.0000000000001
 20
-35.66718958719997
 30
0.0
  0
VERTEX
  5
2A61
  8
3
 10
236.9567085808999
 20
-35.76234017159999
 30
0.0
  0
VERTEX
  5
2A62
  8
3
 10
237.7677669529999
 20
-36.03330611069998
 30
0.0
  0
VERTEX
  5
2A63
  8
3
 10
238.3096988313001
 20
-36.43883529679999
 30
0.0
  0
VERTEX
  5
2A64
  8
3
 10
238.5000000000001
 20
-36.91718958719997
 30
0.0
  0
SEQEND
  5
2D48
  8
3
  0
POLYLINE
  5
D9A
  8
3
 66
     1
 10
0.0
 20
0.0
 30
0.0
  0
VERTEX
  5
2A65
  8
3
 10
238.0549999999999
 20
-37.18703648179996
 30
0.0
  0
VERTEX
  5
2A66
  8
3
 10
237.8985724392999
 20
-37.58024370859999
 30
0.0
  0
VERTEX
  5
2A67
  8
3
 10
237.4531044353999
 20
-37.9135886995
 30
0.0
  0
VERTEX
  5
2A68
  8
3
 10
236.7864144535
 20
-38.13632270149998
 30
0.0
  0
VERTEX
  5
2A69
  8
3
 10
236.0000000000001
 20
-38.2145364818
 30
0.0
  0
VERTEX
  5
2A6A
  8
3
 10
235.2135855464999
 20
-38.13632270149998
 30
0.0
  0
VERTEX
  5
2A6B
  8
3
 10
234.5468955647
 20
-37.9135886995
 30
0.0
  0
VERTEX
  5
2A6C
  8
3
 10
234.1014275607
 20
-37.58024370859999
 30
0.0
  0
VERTEX
  5
2A6D
  8
3
 10
233.945
 20
-37.18703648179996
 30
0.0
  0
VERTEX
  5
2A6E
  8
3
 10
234.1014275607
 20
-36.79382925509998
 30
0.0
  0
VERTEX
  5
2A6F
  8
3
 10
234.5468955647
 20
-36.46048426419998
 30
0.0
  0
VERTEX
  5
2A70
  8
3
 10
235.2135855464999
 20
-36.2377502622
 30
0.0
  0
VERTEX
  5
2A71
  8
3
 10
236.0000000000001
 20
-36.15953648179999
 30
0.0
  0
VERTEX
  5
2A72
  8
3
 10
236.7864144535
 20
-36.2377502622
 30
0.0
  0
VERTEX
  5
2A73
  8
3
 10
237.4531044353999
 20
-36.46048426419998
 30
0.0
  0
VERTEX
  5
2A74
  8
3
 10
237.8985724392999
 20
-36.79382925509998
 30
0.0
  0
VERTEX
  5
2A75
  8
3
 10
238.0549999999999
 20
-37.18703648179996
 30
0.0
  0
SEQEND
  5
2D47
  8
3
  0
POLYLINE
  5
D9B
  8
3
 66
     1
 10
0.0
 20
0.0
 30
0.0
  0
VERTEX
  5
2A76
  8
3
 10
238.5000000000001
 20
-37.4568833765
 30
0.0
  0
VERTEX
  5
2A77
  8
3
 10
238.3096988313001
 20
-37.93523766689998
 30
0.0
  0
VERTEX
  5
2A78
  8
3
 10
237.7677669529999
 20
-38.3407668529
 30
0.0
  0
VERTEX
  5
2A79
  8
3
 10
236.9567085808999
 20
-38.61173279209999
 30
0.0
  0
VERTEX
  5
2A7A
  8
3
 10
236.0000000000001
 20
-38.7068833765
 30
0.0
  0
VERTEX
  5
2A7B
  8
3
 10
235.0432914190999
 20
-38.61173279209999
 30
0.0
  0
VERTEX
  5
2A7C
  8
3
 10
234.2322330471
 20
-38.3407668529
 30
0.0
  0
VERTEX
  5
2A7D
  8
3
 10
233.6903011688001
 20
-37.93523766689998
 30
0.0
  0
VERTEX
  5
2A7E
  8
3
 10
233.5000000000001
 20
-37.4568833765
 30
0.0
  0
VERTEX
  5
2A7F
  8
3
 10
233.6903011688001
 20
-36.97852908599998
 30
0.0
  0
VERTEX
  5
2A80
  8
3
 10
234.2322330471
 20
-36.57299990000001
 30
0.0
  0
VERTEX
  5
2A81
  8
3
 10
235.0432914190999
 20
-36.30203396079997
 30
0.0
  0
VERTEX
  5
2A82
  8
3
 10
236.0000000000001
 20
-36.2068833765
 30
0.0
  0
VERTEX
  5
2A83
  8
3
 10
236.9567085808999
 20
-36.30203396079997
 30
0.0
  0
VERTEX
  5
2A84
  8
3
 10
237.7677669529999
 20
-36.57299990000001
 30
0.0
  0
VERTEX
  5
2A85
  8
3
 10
238.3096988313001
 20
-36.97852908599998
 30
0.0
  0
VERTEX
  5
2A86
  8
3
 10
238.5000000000001
 20
-37.4568833765
 30
0.0
  0
SEQEND
  5
2D46
  8
3
  0
POLYLINE
  5
D9C
  8
3
 66
     1
 10
0.0
 20
0.0
 30
0.0
  0
VERTEX
  5
2A87
  8
3
 10
238.5000000000001
 20
-37.53492292779998
 30
0.0
  0
VERTEX
  5
2A88
  8
3
 10
238.3096988313001
 20
-38.0132772183
 30
0.0
  0
VERTEX
  5
2A89
  8
3
 10
237.7677669529999
 20
-38.41880640429997
 30
0.0
  0
VERTEX
  5
2A8A
  8
3
 10
236.9567085808999
 20
-38.68977234350001
 30
0.0
  0
VERTEX
  5
2A8B
  8
3
 10
236.0000000000001
 20
-38.78492292779998
 30
0.0
  0
VERTEX
  5
2A8C
  8
3
 10
235.0432914190999
 20
-38.68977234350001
 30
0.0
  0
VERTEX
  5
2A8D
  8
3
 10
234.2322330471
 20
-38.41880640429997
 30
0.0
  0
VERTEX
  5
2A8E
  8
3
 10
233.6903011688001
 20
-38.0132772183
 30
0.0
  0
VERTEX
  5
2A8F
  8
3
 10
233.5000000000001
 20
-37.53492292779998
 30
0.0
  0
VERTEX
  5
2A90
  8
3
 10
233.6903011688001
 20
-37.05656863740001
 30
0.0
  0
VERTEX
  5
2A91
  8
3
 10
234.2322330471
 20
-36.65103945129999
 30
0.0
  0
VERTEX
  5
2A92
  8
3
 10
235.0432914190999
 20
-36.3800735122
 30
0.0
  0
VERTEX
  5
2A93
  8
3
 10
236.0000000000001
 20
-36.28492292779998
 30
0.0
  0
VERTEX
  5
2A94
  8
3
 10
236.9567085808999
 20
-36.3800735122
 30
0.0
  0
VERTEX
  5
2A95
  8
3
 10
237.7677669529999
 20
-36.65103945129999
 30
0.0
  0
VERTEX
  5
2A96
  8
3
 10
238.3096988313001
 20
-37.05656863740001
 30
0.0
  0
VERTEX
  5
2A97
  8
3
 10
238.5000000000001
 20
-37.53492292779998
 30
0.0
  0
SEQEND
  5
2D45
  8
3
  0
POLYLINE
  5
D9D
  8
3
 66
     1
 10
0.0
 20
0.0
 30
0.0
  0
VERTEX
  5
2A98
  8
3
 10
238.0549999999999
 20
-37.80476982239998
 30
0.0
  0
VERTEX
  5
2A99
  8
3
 10
237.8985724392999
 20
-38.19797704920001
 30
0.0
  0
VERTEX
  5
2A9A
  8
3
 10
237.4531044353999
 20
-38.53132204010001
 30
0.0
  0
VERTEX
  5
2A9B
  8
3
 10
236.7864144535
 20
-38.75405604209999
 30
0.0
  0
VERTEX
  5
2A9C
  8
3
 10
236.0000000000001
 20
-38.83226982240001
 30
0.0
  0
VERTEX
  5
2A9D
  8
3
 10
235.2135855464999
 20
-38.75405604209999
 30
0.0
  0
VERTEX
  5
2A9E
  8
3
 10
234.5468955647
 20
-38.53132204010001
 30
0.0
  0
VERTEX
  5
2A9F
  8
3
 10
234.1014275607
 20
-38.19797704920001
 30
0.0
  0
VERTEX
  5
2AA0
  8
3
 10
233.945
 20
-37.80476982239998
 30
0.0
  0
VERTEX
  5
2AA1
  8
3
 10
234.1014275607
 20
-37.41156259569999
 30
0.0
  0
VERTEX
  5
2AA2
  8
3
 10
234.5468955647
 20
-37.07821760479999
 30
0.0
  0
VERTEX
  5
2AA3
  8
3
 10
235.2135855464999
 20
-36.85548360280001
 30
0.0
  0
VERTEX
  5
2AA4
  8
3
 10
236.0000000000001
 20
-36.7772698224
 30
0.0
  0
VERTEX
  5
2AA5
  8
3
 10
236.7864144535
 20
-36.85548360280001
 30
0.0
  0
VERTEX
  5
2AA6
  8
3
 10
237.4531044353999
 20
-37.07821760479999
 30
0.0
  0
VERTEX
  5
2AA7
  8
3
 10
237.8985724392999
 20
-37.41156259569999
 30
0.0
  0
VERTEX
  5
2AA8
  8
3
 10
238.0549999999999
 20
-37.80476982239998
 30
0.0
  0
SEQEND
  5
2D44
  8
3
  0
POLYLINE
  5
D9E
  8
3
 66
     1
 10
0.0
 20
0.0
 30
0.0
  0
VERTEX
  5
2AA9
  8
3
 10
238.5000000000001
 20
-38.07461671710001
 30
0.0
  0
VERTEX
  5
2AAA
  8
3
 10
238.3096988313001
 20
-38.55297100749999
 30
0.0
  0
VERTEX
  5
2AAB
  8
3
 10
237.7677669529999
 20
-38.95850019350002
 30
0.0
  0
VERTEX
  5
2AAC
  8
3
 10
236.9567085808999
 20
-39.2294661327
 30
0.0
  0
VERTEX
  5
2AAD
  8
3
 10
236.0000000000001
 20
-39.32461671710001
 30
0.0
  0
VERTEX
  5
2AAE
  8
3
 10
235.0432914190999
 20
-39.2294661327
 30
0.0
  0
VERTEX
  5
2AAF
  8
3
 10
234.2322330471
 20
-38.95850019350002
 30
0.0
  0
VERTEX
  5
2AB0
  8
3
 10
233.6903011688001
 20
-38.55297100749999
 30
0.0
  0
VERTEX
  5
2AB1
  8
3
 10
233.5000000000001
 20
-38.07461671710001
 30
0.0
  0
VERTEX
  5
2AB2
  8
3
 10
233.6903011688001
 20
-37.59626242659999
 30
0.0
  0
VERTEX
  5
2AB3
  8
3
 10
234.2322330471
 20
-37.19073324059997
 30
0.0
  0
VERTEX
  5
2AB4
  8
3
 10
235.0432914190999
 20
-36.91976730139999
 30
0.0
  0
VERTEX
  5
2AB5
  8
3
 10
236.0000000000001
 20
-36.82461671710001
 30
0.0
  0
VERTEX
  5
2AB6
  8
3
 10
236.9567085808999
 20
-36.91976730139999
 30
0.0
  0
VERTEX
  5
2AB7
  8
3
 10
237.7677669529999
 20
-37.19073324059997
 30
0.0
  0
VERTEX
  5
2AB8
  8
3
 10
238.3096988313001
 20
-37.59626242659999
 30
0.0
  0
VERTEX
  5
2AB9
  8
3
 10
238.5000000000001
 20
-38.07461671710001
 30
0.0
  0
SEQEND
  5
2D43
  8
3
  0
POLYLINE
  5
D9F
  8
3
 66
     1
 10
0.0
 20
0.0
 30
0.0
  0
VERTEX
  5
2ABA
  8
3
 10
238.5000000000001
 20
-38.15265626839999
 30
0.0
  0
VERTEX
  5
2ABB
  8
3
 10
238.3096988313001
 20
-38.63101055890002
 30
0.0
  0
VERTEX
  5
2ABC
  8
3
 10
237.7677669529999
 20
-39.03653974489998
 30
0.0
  0
VERTEX
  5
2ABD
  8
3
 10
236.9567085808999
 20
-39.30750568409997
 30
0.0
  0
VERTEX
  5
2ABE
  8
3
 10
236.0000000000001
 20
-39.40265626839999
 30
0.0
  0
VERTEX
  5
2ABF
  8
3
 10
235.0432914190999
 20
-39.30750568409997
 30
0.0
  0
VERTEX
  5
2AC0
  8
3
 10
234.2322330471
 20
-39.03653974489998
 30
0.0
  0
VERTEX
  5
2AC1
  8
3
 10
233.6903011688001
 20
-38.63101055890002
 30
0.0
  0
VERTEX
  5
2AC2
  8
3
 10
233.5000000000001
 20
-38.15265626839999
 30
0.0
  0
VERTEX
  5
2AC3
  8
3
 10
233.6903011688001
 20
-37.67430197800002
 30
0.0
  0
VERTEX
  5
2AC4
  8
3
 10
234.2322330471
 20
-37.26877279190001
 30
0.0
  0
VERTEX
  5
2AC5
  8
3
 10
235.0432914190999
 20
-36.99780685280001
 30
0.0
  0
VERTEX
  5
2AC6
  8
3
 10
236.0000000000001
 20
-36.90265626839999
 30
0.0
  0
VERTEX
  5
2AC7
  8
3
 10
236.9567085808999
 20
-36.99780685280001
 30
0.0
  0
VERTEX
  5
2AC8
  8
3
 10
237.7677669529999
 20
-37.26877279190001
 30
0.0
  0
VERTEX
  5
2AC9
  8
3
 10
238.3096988313001
 20
-37.67430197800002
 30
0.0
  0
VERTEX
  5
2ACA
  8
3
 10
238.5000000000001
 20
-38.15265626839999
 30
0.0
  0
SEQEND
  5
2D42
  8
3
  0
POLYLINE
  5
DA0
  8
3
 66
     1
 10
0.0
 20
0.0
 30
0.0
  0
VERTEX
  5
2ACB
  8
3
 10
238.0549999999999
 20
-38.42250316299999
 30
0.0
  0
VERTEX
  5
2ACC
  8
3
 10
237.8985724392999
 20
-38.81571038980002
 30
0.0
  0
VERTEX
  5
2ACD
  8
3
 10
237.4531044353999
 20
-39.14905538069996
 30
0.0
  0
VERTEX
  5
2ACE
  8
3
 10
236.7864144535
 20
-39.3717893827
 30
0.0
  0
VERTEX
  5
2ACF
  8
3
 10
236.0000000000001
 20
-39.45000316300002
 30
0.0
  0
VERTEX
  5
2AD0
  8
3
 10
235.2135855464999
 20
-39.3717893827
 30
0.0
  0
VERTEX
  5
2AD1
  8
3
 10
234.5468955647
 20
-39.14905538069996
 30
0.0
  0
VERTEX
  5
2AD2
  8
3
 10
234.1014275607
 20
-38.81571038980002
 30
0.0
  0
VERTEX
  5
2AD3
  8
3
 10
233.945
 20
-38.42250316299999
 30
0.0
  0
VERTEX
  5
2AD4
  8
3
 10
234.1014275607
 20
-38.0292959363
 30
0.0
  0
VERTEX
  5
2AD5
  8
3
 10
234.5468955647
 20
-37.6959509454
 30
0.0
  0
VERTEX
  5
2AD6
  8
3
 10
235.2135855464999
 20
-37.47321694340002
 30
0.0
  0
VERTEX
  5
2AD7
  8
3
 10
236.0000000000001
 20
-37.39500316300001
 30
0.0
  0
VERTEX
  5
2AD8
  8
3
 10
236.7864144535
 20
-37.47321694340002
 30
0.0
  0
VERTEX
  5
2AD9
  8
3
 10
237.4531044353999
 20
-37.6959509454
 30
0.0
  0
VERTEX
  5
2ADA
  8
3
 10
237.8985724392999
 20
-38.0292959363
 30
0.0
  0
VERTEX
  5
2ADB
  8
3
 10
238.0549999999999
 20
-38.42250316299999
 30
0.0
  0
SEQEND
  5
2D41
  8
3
  0
POLYLINE
  5
DA1
  8
3
 66
     1
 10
0.0
 20
0.0
 30
0.0
  0
VERTEX
  5
2ADC
  8
3
 10
238.5000000000001
 20
-38.69235005769997
 30
0.0
  0
VERTEX
  5
2ADD
  8
3
 10
238.3096988313001
 20
-39.1707043481
 30
0.0
  0
VERTEX
  5
2ADE
  8
3
 10
237.7677669529999
 20
-39.57623353420001
 30
0.0
  0
VERTEX
  5
2ADF
  8
3
 10
236.956708581
 20
-39.84719947330001
 30
0.0
  0
VERTEX
  5
2AE0
  8
3
 10
236.0000000000001
 20
-39.94235005769997
 30
0.0
  0
VERTEX
  5
2AE1
  8
3
 10
235.0432914190999
 20
-39.84719947330001
 30
0.0
  0
VERTEX
  5
2AE2
  8
3
 10
234.2322330471
 20
-39.57623353420001
 30
0.0
  0
VERTEX
  5
2AE3
  8
3
 10
233.6903011688001
 20
-39.1707043481
 30
0.0
  0
VERTEX
  5
2AE4
  8
3
 10
233.5000000000001
 20
-38.69235005769997
 30
0.0
  0
VERTEX
  5
2AE5
  8
3
 10
233.6903011688001
 20
-38.2139957672
 30
0.0
  0
VERTEX
  5
2AE6
  8
3
 10
234.2322330471
 20
-37.80846658119998
 30
0.0
  0
VERTEX
  5
2AE7
  8
3
 10
235.0432914190999
 20
-37.537500642
 30
0.0
  0
VERTEX
  5
2AE8
  8
3
 10
236.0000000000001
 20
-37.44235005769997
 30
0.0
  0
VERTEX
  5
2AE9
  8
3
 10
236.956708581
 20
-37.537500642
 30
0.0
  0
VERTEX
  5
2AEA
  8
3
 10
237.7677669529999
 20
-37.80846658119998
 30
0.0
  0
VERTEX
  5
2AEB
  8
3
 10
238.3096988313001
 20
-38.2139957672
 30
0.0
  0
VERTEX
  5
2AEC
  8
3
 10
238.5000000000001
 20
-38.69235005769997
 30
0.0
  0
SEQEND
  5
2D40
  8
3
  0
POLYLINE
  5
DA2
  8
3
 66
     1
 10
0.0
 20
0.0
 30
0.0
  0
VERTEX
  5
2AED
  8
3
 10
238.5000000000001
 20
-38.77038960900001
 30
0.0
  0
VERTEX
  5
2AEE
  8
3
 10
238.3096988313001
 20
-39.24874389949997
 30
0.0
  0
VERTEX
  5
2AEF
  8
3
 10
237.7677669529999
 20
-39.65427308549999
 30
0.0
  0
VERTEX
  5
2AF0
  8
3
 10
236.956708581
 20
-39.92523902469998
 30
0.0
  0
VERTEX
  5
2AF1
  8
3
 10
236.0000000000001
 20
-40.02038960900001
 30
0.0
  0
VERTEX
  5
2AF2
  8
3
 10
235.0432914190999
 20
-39.92523902469998
 30
0.0
  0
VERTEX
  5
2AF3
  8
3
 10
234.2322330471
 20
-39.65427308549999
 30
0.0
  0
VERTEX
  5
2AF4
  8
3
 10
233.6903011688001
 20
-39.24874389949997
 30
0.0
  0
VERTEX
  5
2AF5
  8
3
 10
233.5000000000001
 20
-38.77038960900001
 30
0.0
  0
VERTEX
  5
2AF6
  8
3
 10
233.6903011688001
 20
-38.29203531859997
 30
0.0
  0
VERTEX
  5
2AF7
  8
3
 10
234.2322330471
 20
-37.88650613250002
 30
0.0
  0
VERTEX
  5
2AF8
  8
3
 10
235.0432914190999
 20
-37.61554019339997
 30
0.0
  0
VERTEX
  5
2AF9
  8
3
 10
236.0000000000001
 20
-37.52038960900001
 30
0.0
  0
VERTEX
  5
2AFA
  8
3
 10
236.956708581
 20
-37.61554019339997
 30
0.0
  0
VERTEX
  5
2AFB
  8
3
 10
237.7677669529999
 20
-37.88650613250002
 30
0.0
  0
VERTEX
  5
2AFC
  8
3
 10
238.3096988313001
 20
-38.29203531859997
 30
0.0
  0
VERTEX
  5
2AFD
  8
3
 10
238.5000000000001
 20
-38.77038960900001
 30
0.0
  0
SEQEND
  5
2D3F
  8
3
  0
POLYLINE
  5
DA3
  8
3
 66
     1
 10
0.0
 20
0.0
 30
0.0
  0
VERTEX
  5
2AFE
  8
3
 10
238.0549999999999
 20
-39.0402365036
 30
0.0
  0
VERTEX
  5
2AFF
  8
3
 10
237.8985724394
 20
-39.43344373039997
 30
0.0
  0
VERTEX
  5
2B00
  8
3
 10
237.4531044353999
 20
-39.76678872129997
 30
0.0
  0
VERTEX
  5
2B01
  8
3
 10
236.7864144536
 20
-39.98952272330001
 30
0.0
  0
VERTEX
  5
2B02
  8
3
 10
236.0000000000001
 20
-40.06773650359997
 30
0.0
  0
VERTEX
  5
2B03
  8
3
 10
235.2135855464999
 20
-39.98952272330001
 30
0.0
  0
VERTEX
  5
2B04
  8
3
 10
234.5468955647
 20
-39.76678872129997
 30
0.0
  0
VERTEX
  5
2B05
  8
3
 10
234.1014275607
 20
-39.43344373039997
 30
0.0
  0
VERTEX
  5
2B06
  8
3
 10
233.945
 20
-39.0402365036
 30
0.0
  0
VERTEX
  5
2B07
  8
3
 10
234.1014275607
 20
-38.64702927690001
 30
0.0
  0
VERTEX
  5
2B08
  8
3
 10
234.5468955647
 20
-38.31368428600001
 30
0.0
  0
VERTEX
  5
2B09
  8
3
 10
235.2135855464999
 20
-38.09095028399997
 30
0.0
  0
VERTEX
  5
2B0A
  8
3
 10
236.0000000000001
 20
-38.01273650359997
 30
0.0
  0
VERTEX
  5
2B0B
  8
3
 10
236.7864144536
 20
-38.09095028399997
 30
0.0
  0
VERTEX
  5
2B0C
  8
3
 10
237.4531044353999
 20
-38.31368428600001
 30
0.0
  0
VERTEX
  5
2B0D
  8
3
 10
237.8985724394
 20
-38.64702927690001
 30
0.0
  0
VERTEX
  5
2B0E
  8
3
 10
238.0549999999999
 20
-39.0402365036
 30
0.0
  0
SEQEND
  5
2D3E
  8
3
  0
POLYLINE
  5
DA4
  8
3
 66
     1
 10
0.0
 20
0.0
 30
0.0
  0
VERTEX
  5
2B0F
  8
3
 10
238.5000000000001
 20
-39.31008339829998
 30
0.0
  0
VERTEX
  5
2B10
  8
3
 10
238.3096988313001
 20
-39.78843768870001
 30
0.0
  0
VERTEX
  5
2B11
  8
3
 10
237.7677669529999
 20
-40.19396687479997
 30
0.0
  0
VERTEX
  5
2B12
  8
3
 10
236.956708581
 20
-40.46493281389996
 30
0.0
  0
VERTEX
  5
2B13
  8
3
 10
236.0000000000001
 20
-40.56008339829998
 30
0.0
  0
VERTEX
  5
2B14
  8
3
 10
235.0432914190999
 20
-40.46493281389996
 30
0.0
  0
VERTEX
  5
2B15
  8
3
 10
234.2322330471
 20
-40.19396687479997
 30
0.0
  0
VERTEX
  5
2B16
  8
3
 10
233.6903011688001
 20
-39.78843768870001
 30
0.0
  0
VERTEX
  5
2B17
  8
3
 10
233.5000000000001
 20
-39.31008339829998
 30
0.0
  0
VERTEX
  5
2B18
  8
3
 10
233.6903011688001
 20
-38.83172910780002
 30
0.0
  0
VERTEX
  5
2B19
  8
3
 10
234.2322330471
 20
-38.42619992179999
 30
0.0
  0
VERTEX
  5
2B1A
  8
3
 10
235.0432914190999
 20
-38.15523398260001
 30
0.0
  0
VERTEX
  5
2B1B
  8
3
 10
236.0000000000001
 20
-38.06008339829998
 30
0.0
  0
VERTEX
  5
2B1C
  8
3
 10
236.956708581
 20
-38.15523398260001
 30
0.0
  0
VERTEX
  5
2B1D
  8
3
 10
237.7677669529999
 20
-38.42619992179999
 30
0.0
  0
VERTEX
  5
2B1E
  8
3
 10
238.3096988313001
 20
-38.83172910780002
 30
0.0
  0
VERTEX
  5
2B1F
  8
3
 10
238.5000000000001
 20
-39.31008339829998
 30
0.0
  0
SEQEND
  5
2D3D
  8
3
  0
LINE
  5
DA5
  8
3
 10
237.2500000000001
 20
-37.90304517229998
 30
0.0
 11
236.0000000000001
 21
-38.26388909050002
 31
0.0
  0
LINE
  5
DA6
  8
3
 10
234.7500000000001
 20
-37.90304517229998
 30
0.0
 11
236.0000000000001
 21
-38.26388909050002
 31
0.0
  0
POLYLINE
  5
DA7
  8
3
 66
     1
 10
0.0
 20
0.0
 30
0.0
  0
VERTEX
  5
2B20
  8
3
 10
238.5000000000001
 20
-39.38812294960002
 30
0.0
  0
VERTEX
  5
2B21
  8
3
 10
238.3096988313001
 20
-39.86647724009998
 30
0.0
  0
VERTEX
  5
2B22
  8
3
 10
237.7677669529999
 20
-40.27200642610001
 30
0.0
  0
VERTEX
  5
2B23
  8
3
 10
236.956708581
 20
-40.54297236529999
 30
0.0
  0
VERTEX
  5
2B24
  8
3
 10
236.0000000000001
 20
-40.63812294960002
 30
0.0
  0
VERTEX
  5
2B25
  8
3
 10
235.0432914190999
 20
-40.54297236529999
 30
0.0
  0
VERTEX
  5
2B26
  8
3
 10
234.2322330471
 20
-40.27200642610001
 30
0.0
  0
VERTEX
  5
2B27
  8
3
 10
233.6903011688001
 20
-39.86647724009998
 30
0.0
  0
VERTEX
  5
2B28
  8
3
 10
233.5000000000001
 20
-39.38812294960002
 30
0.0
  0
VERTEX
  5
2B29
  8
3
 10
233.6903011688001
 20
-38.90976865919998
 30
0.0
  0
VERTEX
  5
2B2A
  8
3
 10
234.2322330471
 20
-38.50423947309997
 30
0.0
  0
VERTEX
  5
2B2B
  8
3
 10
235.0432914190999
 20
-38.23327353399998
 30
0.0
  0
VERTEX
  5
2B2C
  8
3
 10
236.0000000000001
 20
-38.13812294960002
 30
0.0
  0
VERTEX
  5
2B2D
  8
3
 10
236.956708581
 20
-38.23327353399998
 30
0.0
  0
VERTEX
  5
2B2E
  8
3
 10
237.7677669529999
 20
-38.50423947309997
 30
0.0
  0
VERTEX
  5
2B2F
  8
3
 10
238.3096988313001
 20
-38.90976865919998
 30
0.0
  0
VERTEX
  5
2B30
  8
3
 10
238.5000000000001
 20
-39.38812294960002
 30
0.0
  0
SEQEND
  5
2D3C
  8
3
  0
POLYLINE
  5
DA8
  8
3
 66
     1
 10
0.0
 20
0.0
 30
0.0
  0
VERTEX
  5
2B31
  8
3
 10
238.0549999999999
 20
-39.6579698443
 30
0.0
  0
VERTEX
  5
2B32
  8
3
 10
237.8985724394
 20
-40.05117707099998
 30
0.0
  0
VERTEX
  5
2B33
  8
3
 10
237.4531044353999
 20
-40.38452206189999
 30
0.0
  0
VERTEX
  5
2B34
  8
3
 10
236.7864144536
 20
-40.60725606389997
 30
0.0
  0
VERTEX
  5
2B35
  8
3
 10
236.0000000000001
 20
-40.68546984429997
 30
0.0
  0
VERTEX
  5
2B36
  8
3
 10
235.2135855464999
 20
-40.60725606389997
 30
0.0
  0
VERTEX
  5
2B37
  8
3
 10
234.5468955647
 20
-40.38452206189999
 30
0.0
  0
VERTEX
  5
2B38
  8
3
 10
234.1014275607
 20
-40.05117707099998
 30
0.0
  0
VERTEX
  5
2B39
  8
3
 10
233.945
 20
-39.6579698443
 30
0.0
  0
VERTEX
  5
2B3A
  8
3
 10
234.1014275607
 20
-39.26476261749997
 30
0.0
  0
VERTEX
  5
2B3B
  8
3
 10
234.5468955647
 20
-38.93141762659997
 30
0.0
  0
VERTEX
  5
2B3C
  8
3
 10
235.2135855464999
 20
-38.70868362459998
 30
0.0
  0
VERTEX
  5
2B3D
  8
3
 10
236.0000000000001
 20
-38.63046984429997
 30
0.0
  0
VERTEX
  5
2B3E
  8
3
 10
236.7864144536
 20
-38.70868362459998
 30
0.0
  0
VERTEX
  5
2B3F
  8
3
 10
237.4531044353999
 20
-38.93141762659997
 30
0.0
  0
VERTEX
  5
2B40
  8
3
 10
237.8985724394
 20
-39.26476261749997
 30
0.0
  0
VERTEX
  5
2B41
  8
3
 10
238.0549999999999
 20
-39.6579698443
 30
0.0
  0
SEQEND
  5
2D3B
  8
3
  0
POLYLINE
  5
DA9
  8
3
 66
     1
 10
0.0
 20
0.0
 30
0.0
  0
VERTEX
  5
2B42
  8
3
 10
238.2561031269
 20
-39.77991828080002
 30
0.0
  0
VERTEX
  5
2B43
  8
3
 10
238.0843675022
 20
-39.34823163670001
 30
0.0
  0
VERTEX
  5
2B44
  8
3
 10
237.5953058200999
 20
-38.98226537080001
 30
0.0
  0
VERTEX
  5
2B45
  8
3
 10
236.8633732884001
 20
-38.73773452979998
 30
0.0
  0
VERTEX
  5
2B46
  8
3
 10
236.0000000000001
 20
-38.65186671739997
 30
0.0
  0
VERTEX
  5
2B47
  8
3
 10
235.1366267117001
 20
-38.73773452979998
 30
0.0
  0
VERTEX
  5
2B48
  8
3
 10
234.40469418
 20
-38.98226537080001
 30
0.0
  0
VERTEX
  5
2B49
  8
3
 10
233.9156324978999
 20
-39.34823163670001
 30
0.0
  0
VERTEX
  5
2B4A
  8
3
 10
233.7438968732
 20
-39.77991828080002
 30
0.0
  0
VERTEX
  5
2B4B
  8
3
 10
233.9156324978999
 20
-40.21160492500002
 30
0.0
  0
VERTEX
  5
2B4C
  8
3
 10
234.40469418
 20
-40.57757119090002
 30
0.0
  0
VERTEX
  5
2B4D
  8
3
 10
235.1366267117001
 20
-40.82210203189999
 30
0.0
  0
VERTEX
  5
2B4E
  8
3
 10
236.0000000000001
 20
-40.9079698443
 30
0.0
  0
VERTEX
  5
2B4F
  8
3
 10
236.8633732884001
 20
-40.82210203189999
 30
0.0
  0
VERTEX
  5
2B50
  8
3
 10
237.5953058200999
 20
-40.57757119090002
 30
0.0
  0
VERTEX
  5
2B51
  8
3
 10
238.0843675022
 20
-40.21160492500002
 30
0.0
  0
VERTEX
  5
2B52
  8
3
 10
238.2561031269
 20
-39.77991828080002
 30
0.0
  0
SEQEND
  5
2D3A
  8
3
  0
LINE
  5
DAA
  8
3
 10
237.2500000000001
 20
-37.90304517229998
 30
0.0
 11
237.2500000000001
 21
-37.18135733579999
 31
0.0
  0
LINE
  5
DAB
  8
3
 10
237.2500000000001
 20
-37.90304517229998
 30
0.0
 11
237.2500000000001
 21
-40.2413137625
 31
0.0
  0
LINE
  5
DAC
  8
3
 10
234.7500000000001
 20
-37.90304517229998
 30
0.0
 11
234.7500000000001
 21
-37.18135733579999
 31
0.0
  0
LINE
  5
DAD
  8
3
 10
234.7500000000001
 20
-37.90304517229998
 30
0.0
 11
234.7500000000001
 21
-40.2413137625
 31
0.0
  0
POLYLINE
  5
DAE
  8
3
 66
     1
 10
0.0
 20
0.0
 30
0.0
  0
VERTEX
  5
2B53
  8
3
 10
236.0000000000001
 20
-40.9079698443
 30
0.0
  0
VERTEX
  5
2B54
  8
3
 10
235.2135855464999
 20
-40.82975606389999
 30
0.0
  0
VERTEX
  5
2B55
  8
3
 10
234.5468955647
 20
-40.60702206190001
 30
0.0
  0
VERTEX
  5
2B56
  8
3
 10
234.1014275607
 20
-40.27367707100001
 30
0.0
  0
VERTEX
  5
2B57
  8
3
 10
233.945
 20
-39.88046984429997
 30
0.0
  0
VERTEX
  5
2B58
  8
3
 10
234.1014275607
 20
-39.48726261749999
 30
0.0
  0
VERTEX
  5
2B59
  8
3
 10
234.5468955647
 20
-39.15391762659999
 30
0.0
  0
VERTEX
  5
2B5A
  8
3
 10
235.2135855464999
 20
-38.93118362460001
 30
0.0
  0
VERTEX
  5
2B5B
  8
3
 10
236.0000000000001
 20
-38.85296984429999
 30
0.0
  0
VERTEX
  5
2B5C
  8
3
 10
236.7864144536
 20
-38.93118362460001
 30
0.0
  0
VERTEX
  5
2B5D
  8
3
 10
237.4531044353999
 20
-39.15391762659999
 30
0.0
  0
VERTEX
  5
2B5E
  8
3
 10
237.8985724394
 20
-39.48726261749999
 30
0.0
  0
VERTEX
  5
2B5F
  8
3
 10
238.0549999999999
 20
-39.88046984429997
 30
0.0
  0
VERTEX
  5
2B60
  8
3
 10
237.8985724394
 20
-40.27367707100001
 30
0.0
  0
VERTEX
  5
2B61
  8
3
 10
237.4531044353999
 20
-40.60702206190001
 30
0.0
  0
VERTEX
  5
2B62
  8
3
 10
236.7864144536
 20
-40.82975606389999
 30
0.0
  0
VERTEX
  5
2B63
  8
3
 10
236.0000000000001
 20
-40.9079698443
 30
0.0
  0
SEQEND
  5
2D39
  8
3
  0
LINE
  5
DAF
  8
3
 10
237.2500000000001
 20
-40.2413137625
 30
0.0
 11
236.0000000000001
 21
-40.60215768069997
 31
0.0
  0
LINE
  5
DB0
  8
3
 10
234.7500000000001
 20
-40.2413137625
 30
0.0
 11
236.0000000000001
 21
-40.60215768069997
 31
0.0
  0
LINE
  5
DB1
  8
3
 10
234.7500000000001
 20
-39.519625926
 30
0.0
 11
236.0000000000001
 21
-39.15878200779997
 31
0.0
  0
LINE
  5
DB2
  8
3
 10
234.7500000000001
 20
-37.18135733579999
 30
0.0
 11
236.0000000000001
 21
-36.82051341749997
 31
0.0
  0
LINE
  5
DB3
  8
3
 10
237.2500000000001
 20
-39.519625926
 30
0.0
 11
236.0000000000001
 21
-39.15878200779997
 31
0.0
  0
LINE
  5
DB4
  8
3
 10
237.2500000000001
 20
-37.18135733579999
 30
0.0
 11
236.0000000000001
 21
-36.82051341749997
 31
0.0
  0
POLYLINE
  5
DB5
  8
3
 66
     1
 10
0.0
 20
0.0
 30
0.0
  0
VERTEX
  5
2B64
  8
3
 10
236.0000000000001
 20
33.80931742159999
 30
0.0
  0
VERTEX
  5
2B65
  8
3
 10
235.3303039933999
 20
33.87592283060002
 30
0.0
  0
VERTEX
  5
2B66
  8
3
 10
234.762563133
 20
34.06559898800003
 30
0.0
  0
VERTEX
  5
2B67
  8
3
 10
234.3832108181001
 20
34.34946941830003
 30
0.0
  0
VERTEX
  5
2B68
  8
3
 10
234.2500000000001
 20
34.68431742159999
 30
0.0
  0
VERTEX
  5
2B69
  8
3
 10
234.3832108181001
 20
35.0191654249
 30
0.0
  0
VERTEX
  5
2B6A
  8
3
 10
234.762563133
 20
35.30303585510001
 30
0.0
  0
VERTEX
  5
2B6B
  8
3
 10
235.3303039933999
 20
35.49271201250002
 30
0.0
  0
VERTEX
  5
2B6C
  8
3
 10
236.0000000000001
 20
35.55931742159999
 30
0.0
  0
VERTEX
  5
2B6D
  8
3
 10
236.6696960067
 20
35.49271201250002
 30
0.0
  0
VERTEX
  5
2B6E
  8
3
 10
237.2374368670999
 20
35.30303585510001
 30
0.0
  0
VERTEX
  5
2B6F
  8
3
 10
237.6167891819001
 20
35.0191654249
 30
0.0
  0
VERTEX
  5
2B70
  8
3
 10
237.7500000000001
 20
34.68431742159999
 30
0.0
  0
VERTEX
  5
2B71
  8
3
 10
237.6167891819001
 20
34.34946941830003
 30
0.0
  0
VERTEX
  5
2B72
  8
3
 10
237.2374368670999
 20
34.06559898800003
 30
0.0
  0
VERTEX
  5
2B73
  8
3
 10
236.6696960067
 20
33.87592283060002
 30
0.0
  0
VERTEX
  5
2B74
  8
3
 10
236.0000000000001
 20
33.80931742159999
 30
0.0
  0
SEQEND
  5
2D38
  8
3
  0
POLYLINE
  5
DB6
  8
3
 66
     1
 10
0.0
 20
0.0
 30
0.0
  0
VERTEX
  5
2B75
  8
3
 10
233.6832672566
 20
35.17512237459999
 30
0.0
  0
VERTEX
  5
2B76
  8
3
 10
233.8596180360999
 20
35.61840999359998
 30
0.0
  0
VERTEX
  5
2B77
  8
3
 10
234.3618225669
 20
35.9942110911
 30
0.0
  0
VERTEX
  5
2B78
  8
3
 10
235.1134247619
 20
36.24531335660004
 30
0.0
  0
VERTEX
  5
2B79
  8
3
 10
236.0000000000001
 20
36.33348874630002
 30
0.0
  0
VERTEX
  5
2B7A
  8
3
 10
236.8865752381999
 20
36.24531335660004
 30
0.0
  0
VERTEX
  5
2B7B
  8
3
 10
237.6381774330999
 20
35.9942110911
 30
0.0
  0
VERTEX
  5
2B7C
  8
3
 10
238.140381964
 20
35.61840999359998
 30
0.0
  0
VERTEX
  5
2B7D
  8
3
 10
238.3167327434999
 20
35.17512237459999
 30
0.0
  0
VERTEX
  5
2B7E
  8
3
 10
238.140381964
 20
34.73183475550002
 30
0.0
  0
VERTEX
  5
2B7F
  8
3
 10
237.6381774330999
 20
34.356033658
 30
0.0
  0
VERTEX
  5
2B80
  8
3
 10
236.8865752381999
 20
34.10493139260001
 30
0.0
  0
VERTEX
  5
2B81
  8
3
 10
236.0000000000001
 20
34.01675600280004
 30
0.0
  0
VERTEX
  5
2B82
  8
3
 10
235.1134247619
 20
34.10493139260001
 30
0.0
  0
VERTEX
  5
2B83
  8
3
 10
234.3618225669
 20
34.356033658
 30
0.0
  0
VERTEX
  5
2B84
  8
3
 10
233.8596180360999
 20
34.73183475550002
 30
0.0
  0
VERTEX
  5
2B85
  8
3
 10
233.6832672566
 20
35.17512237459999
 30
0.0
  0
SEQEND
  5
2D37
  8
3
  0
POLYLINE
  5
DB7
  8
3
 66
     1
 10
0.0
 20
0.0
 30
0.0
  0
VERTEX
  5
2B86
  8
3
 10
238.0549999999999
 20
35.33383646010003
 30
0.0
  0
VERTEX
  5
2B87
  8
3
 10
237.8985724392999
 20
34.9406292333
 30
0.0
  0
VERTEX
  5
2B88
  8
3
 10
237.4531044353999
 20
34.6072842424
 30
0.0
  0
VERTEX
  5
2B89
  8
3
 10
236.7864144535
 20
34.38455024040002
 30
0.0
  0
VERTEX
  5
2B8A
  8
3
 10
236.0000000000001
 20
34.3063364601
 30
0.0
  0
VERTEX
  5
2B8B
  8
3
 10
235.2135855464999
 20
34.38455024040002
 30
0.0
  0
VERTEX
  5
2B8C
  8
3
 10
234.5468955647
 20
34.6072842424
 30
0.0
  0
VERTEX
  5
2B8D
  8
3
 10
234.1014275607
 20
34.9406292333
 30
0.0
  0
VERTEX
  5
2B8E
  8
3
 10
233.945
 20
35.33383646010003
 30
0.0
  0
VERTEX
  5
2B8F
  8
3
 10
234.1014275607
 20
35.72704368680002
 30
0.0
  0
VERTEX
  5
2B90
  8
3
 10
234.5468955647
 20
36.06038867770002
 30
0.0
  0
VERTEX
  5
2B91
  8
3
 10
235.2135855464999
 20
36.2831226797
 30
0.0
  0
VERTEX
  5
2B92
  8
3
 10
236.0000000000001
 20
36.36133646010001
 30
0.0
  0
VERTEX
  5
2B93
  8
3
 10
236.7864144535
 20
36.2831226797
 30
0.0
  0
VERTEX
  5
2B94
  8
3
 10
237.4531044353999
 20
36.06038867770002
 30
0.0
  0
VERTEX
  5
2B95
  8
3
 10
237.8985724392999
 20
35.72704368680002
 30
0.0
  0
VERTEX
  5
2B96
  8
3
 10
238.0549999999999
 20
35.33383646010003
 30
0.0
  0
SEQEND
  5
2D36
  8
3
  0
POLYLINE
  5
DB8
  8
3
 66
     1
 10
0.0
 20
0.0
 30
0.0
  0
VERTEX
  5
2B97
  8
3
 10
238.5000000000001
 20
35.60368335470002
 30
0.0
  0
VERTEX
  5
2B98
  8
3
 10
238.3096988313001
 20
35.1253290642
 30
0.0
  0
VERTEX
  5
2B99
  8
3
 10
237.7677669529999
 20
34.71979987820004
 30
0.0
  0
VERTEX
  5
2B9A
  8
3
 10
236.9567085808999
 20
34.448833939
 30
0.0
  0
VERTEX
  5
2B9B
  8
3
 10
236.0000000000001
 20
34.35368335470002
 30
0.0
  0
VERTEX
  5
2B9C
  8
3
 10
235.0432914190999
 20
34.448833939
 30
0.0
  0
VERTEX
  5
2B9D
  8
3
 10
234.2322330471
 20
34.71979987820004
 30
0.0
  0
VERTEX
  5
2B9E
  8
3
 10
233.6903011688001
 20
35.1253290642
 30
0.0
  0
VERTEX
  5
2B9F
  8
3
 10
233.5000000000001
 20
35.60368335470002
 30
0.0
  0
VERTEX
  5
2BA0
  8
3
 10
233.6903011688001
 20
36.0820376451
 30
0.0
  0
VERTEX
  5
2BA1
  8
3
 10
234.2322330471
 20
36.48756683120001
 30
0.0
  0
VERTEX
  5
2BA2
  8
3
 10
235.0432914190999
 20
36.75853277030001
 30
0.0
  0
VERTEX
  5
2BA3
  8
3
 10
236.0000000000001
 20
36.85368335470002
 30
0.0
  0
VERTEX
  5
2BA4
  8
3
 10
236.9567085808999
 20
36.75853277030001
 30
0.0
  0
VERTEX
  5
2BA5
  8
3
 10
237.7677669529999
 20
36.48756683120001
 30
0.0
  0
VERTEX
  5
2BA6
  8
3
 10
238.3096988313001
 20
36.0820376451
 30
0.0
  0
VERTEX
  5
2BA7
  8
3
 10
238.5000000000001
 20
35.60368335470002
 30
0.0
  0
SEQEND
  5
2D35
  8
3
  0
POLYLINE
  5
DB9
  8
3
 66
     1
 10
0.0
 20
0.0
 30
0.0
  0
VERTEX
  5
2BA8
  8
3
 10
238.5000000000001
 20
35.681722906
 30
0.0
  0
VERTEX
  5
2BA9
  8
3
 10
238.3096988313001
 20
35.20336861560003
 30
0.0
  0
VERTEX
  5
2BAA
  8
3
 10
237.7677669529999
 20
34.7978394296
 30
0.0
  0
VERTEX
  5
2BAB
  8
3
 10
236.9567085808999
 20
34.52687349040002
 30
0.0
  0
VERTEX
  5
2BAC
  8
3
 10
236.0000000000001
 20
34.431722906
 30
0.0
  0
VERTEX
  5
2BAD
  8
3
 10
235.0432914190999
 20
34.52687349040002
 30
0.0
  0
VERTEX
  5
2BAE
  8
3
 10
234.2322330471
 20
34.7978394296
 30
0.0
  0
VERTEX
  5
2BAF
  8
3
 10
233.6903011688001
 20
35.20336861560003
 30
0.0
  0
VERTEX
  5
2BB0
  8
3
 10
233.5000000000001
 20
35.681722906
 30
0.0
  0
VERTEX
  5
2BB1
  8
3
 10
233.6903011688001
 20
36.16007719650003
 30
0.0
  0
VERTEX
  5
2BB2
  8
3
 10
234.2322330471
 20
36.56560638249999
 30
0.0
  0
VERTEX
  5
2BB3
  8
3
 10
235.0432914190999
 20
36.83657232170003
 30
0.0
  0
VERTEX
  5
2BB4
  8
3
 10
236.0000000000001
 20
36.931722906
 30
0.0
  0
VERTEX
  5
2BB5
  8
3
 10
236.9567085808999
 20
36.83657232170003
 30
0.0
  0
VERTEX
  5
2BB6
  8
3
 10
237.7677669529999
 20
36.56560638249999
 30
0.0
  0
VERTEX
  5
2BB7
  8
3
 10
238.3096988313001
 20
36.16007719650003
 30
0.0
  0
VERTEX
  5
2BB8
  8
3
 10
238.5000000000001
 20
35.681722906
 30
0.0
  0
SEQEND
  5
2D34
  8
3
  0
POLYLINE
  5
DBA
  8
3
 66
     1
 10
0.0
 20
0.0
 30
0.0
  0
VERTEX
  5
2BB9
  8
3
 10
238.0549999999999
 20
35.95156980069999
 30
0.0
  0
VERTEX
  5
2BBA
  8
3
 10
237.8985724392999
 20
35.55836257390001
 30
0.0
  0
VERTEX
  5
2BBB
  8
3
 10
237.4531044353999
 20
35.22501758300001
 30
0.0
  0
VERTEX
  5
2BBC
  8
3
 10
236.7864144535
 20
35.00228358100003
 30
0.0
  0
VERTEX
  5
2BBD
  8
3
 10
236.0000000000001
 20
34.92406980070001
 30
0.0
  0
VERTEX
  5
2BBE
  8
3
 10
235.2135855464999
 20
35.00228358100003
 30
0.0
  0
VERTEX
  5
2BBF
  8
3
 10
234.5468955647
 20
35.22501758300001
 30
0.0
  0
VERTEX
  5
2BC0
  8
3
 10
234.1014275607
 20
35.55836257390001
 30
0.0
  0
VERTEX
  5
2BC1
  8
3
 10
233.945
 20
35.95156980069999
 30
0.0
  0
VERTEX
  5
2BC2
  8
3
 10
234.1014275607
 20
36.34477702740003
 30
0.0
  0
VERTEX
  5
2BC3
  8
3
 10
234.5468955647
 20
36.67812201830003
 30
0.0
  0
VERTEX
  5
2BC4
  8
3
 10
235.2135855464999
 20
36.90085602030001
 30
0.0
  0
VERTEX
  5
2BC5
  8
3
 10
236.0000000000001
 20
36.97906980070002
 30
0.0
  0
VERTEX
  5
2BC6
  8
3
 10
236.7864144535
 20
36.90085602030001
 30
0.0
  0
VERTEX
  5
2BC7
  8
3
 10
237.4531044353999
 20
36.67812201830003
 30
0.0
  0
VERTEX
  5
2BC8
  8
3
 10
237.8985724392999
 20
36.34477702740003
 30
0.0
  0
VERTEX
  5
2BC9
  8
3
 10
238.0549999999999
 20
35.95156980069999
 30
0.0
  0
SEQEND
  5
2D33
  8
3
  0
POLYLINE
  5
DBB
  8
3
 66
     1
 10
0.0
 20
0.0
 30
0.0
  0
VERTEX
  5
2BCA
  8
3
 10
238.5000000000001
 20
36.22141669530004
 30
0.0
  0
VERTEX
  5
2BCB
  8
3
 10
238.3096988313001
 20
35.74306240480001
 30
0.0
  0
VERTEX
  5
2BCC
  8
3
 10
237.7677669529999
 20
35.33753321879999
 30
0.0
  0
VERTEX
  5
2BCD
  8
3
 10
236.9567085808999
 20
35.0665672797
 30
0.0
  0
VERTEX
  5
2BCE
  8
3
 10
236.0000000000001
 20
34.97141669530004
 30
0.0
  0
VERTEX
  5
2BCF
  8
3
 10
235.0432914190999
 20
35.0665672797
 30
0.0
  0
VERTEX
  5
2BD0
  8
3
 10
234.2322330471
 20
35.33753321879999
 30
0.0
  0
VERTEX
  5
2BD1
  8
3
 10
233.6903011687
 20
35.74306240480001
 30
0.0
  0
VERTEX
  5
2BD2
  8
3
 10
233.5000000000001
 20
36.22141669530004
 30
0.0
  0
VERTEX
  5
2BD3
  8
3
 10
233.6903011687
 20
36.69977098570001
 30
0.0
  0
VERTEX
  5
2BD4
  8
3
 10
234.2322330471
 20
37.10530017180002
 30
0.0
  0
VERTEX
  5
2BD5
  8
3
 10
235.0432914190999
 20
37.37626611090002
 30
0.0
  0
VERTEX
  5
2BD6
  8
3
 10
236.0000000000001
 20
37.47141669530004
 30
0.0
  0
VERTEX
  5
2BD7
  8
3
 10
236.9567085808999
 20
37.37626611090002
 30
0.0
  0
VERTEX
  5
2BD8
  8
3
 10
237.7677669529999
 20
37.10530017180002
 30
0.0
  0
VERTEX
  5
2BD9
  8
3
 10
238.3096988313001
 20
36.69977098570001
 30
0.0
  0
VERTEX
  5
2BDA
  8
3
 10
238.5000000000001
 20
36.22141669530004
 30
0.0
  0
SEQEND
  5
2D32
  8
3
  0
POLYLINE
  5
DBC
  8
3
 66
     1
 10
0.0
 20
0.0
 30
0.0
  0
VERTEX
  5
2BDB
  8
3
 10
238.5000000000001
 20
36.29945624660002
 30
0.0
  0
VERTEX
  5
2BDC
  8
3
 10
238.3096988313001
 20
35.82110195619998
 30
0.0
  0
VERTEX
  5
2BDD
  8
3
 10
237.7677669529999
 20
35.41557277020001
 30
0.0
  0
VERTEX
  5
2BDE
  8
3
 10
236.9567085808999
 20
35.14460683100003
 30
0.0
  0
VERTEX
  5
2BDF
  8
3
 10
236.0000000000001
 20
35.04945624660002
 30
0.0
  0
VERTEX
  5
2BE0
  8
3
 10
235.0432914190999
 20
35.14460683100003
 30
0.0
  0
VERTEX
  5
2BE1
  8
3
 10
234.2322330471
 20
35.41557277020001
 30
0.0
  0
VERTEX
  5
2BE2
  8
3
 10
233.6903011687
 20
35.82110195619998
 30
0.0
  0
VERTEX
  5
2BE3
  8
3
 10
233.5000000000001
 20
36.29945624660002
 30
0.0
  0
VERTEX
  5
2BE4
  8
3
 10
233.6903011687
 20
36.77781053709998
 30
0.0
  0
VERTEX
  5
2BE5
  8
3
 10
234.2322330471
 20
37.1833397231
 30
0.0
  0
VERTEX
  5
2BE6
  8
3
 10
235.0432914190999
 20
37.45430566229999
 30
0.0
  0
VERTEX
  5
2BE7
  8
3
 10
236.0000000000001
 20
37.54945624660002
 30
0.0
  0
VERTEX
  5
2BE8
  8
3
 10
236.9567085808999
 20
37.45430566229999
 30
0.0
  0
VERTEX
  5
2BE9
  8
3
 10
237.7677669529999
 20
37.1833397231
 30
0.0
  0
VERTEX
  5
2BEA
  8
3
 10
238.3096988313001
 20
36.77781053709998
 30
0.0
  0
VERTEX
  5
2BEB
  8
3
 10
238.5000000000001
 20
36.29945624660002
 30
0.0
  0
SEQEND
  5
2D31
  8
3
  0
POLYLINE
  5
DBD
  8
3
 66
     1
 10
0.0
 20
0.0
 30
0.0
  0
VERTEX
  5
2BEC
  8
3
 10
238.0549999999999
 20
36.5693031413
 30
0.0
  0
VERTEX
  5
2BED
  8
3
 10
237.8985724392999
 20
36.17609591450002
 30
0.0
  0
VERTEX
  5
2BEE
  8
3
 10
237.4531044353999
 20
35.84275092360002
 30
0.0
  0
VERTEX
  5
2BEF
  8
3
 10
236.7864144535
 20
35.62001692159998
 30
0.0
  0
VERTEX
  5
2BF0
  8
3
 10
236.0000000000001
 20
35.54180314130002
 30
0.0
  0
VERTEX
  5
2BF1
  8
3
 10
235.2135855464999
 20
35.62001692159998
 30
0.0
  0
VERTEX
  5
2BF2
  8
3
 10
234.5468955647
 20
35.84275092360002
 30
0.0
  0
VERTEX
  5
2BF3
  8
3
 10
234.1014275607
 20
36.17609591450002
 30
0.0
  0
VERTEX
  5
2BF4
  8
3
 10
233.945
 20
36.5693031413
 30
0.0
  0
VERTEX
  5
2BF5
  8
3
 10
234.1014275607
 20
36.96251036799998
 30
0.0
  0
VERTEX
  5
2BF6
  8
3
 10
234.5468955647
 20
37.29585535889998
 30
0.0
  0
VERTEX
  5
2BF7
  8
3
 10
235.2135855464999
 20
37.51858936090002
 30
0.0
  0
VERTEX
  5
2BF8
  8
3
 10
236.0000000000001
 20
37.59680314130003
 30
0.0
  0
VERTEX
  5
2BF9
  8
3
 10
236.7864144535
 20
37.51858936090002
 30
0.0
  0
VERTEX
  5
2BFA
  8
3
 10
237.4531044353999
 20
37.29585535889998
 30
0.0
  0
VERTEX
  5
2BFB
  8
3
 10
237.8985724392999
 20
36.96251036799998
 30
0.0
  0
VERTEX
  5
2BFC
  8
3
 10
238.0549999999999
 20
36.5693031413
 30
0.0
  0
SEQEND
  5
2D30
  8
3
  0
POLYLINE
  5
DBE
  8
3
 66
     1
 10
0.0
 20
0.0
 30
0.0
  0
VERTEX
  5
2BFD
  8
3
 10
238.5000000000001
 20
36.83915003589999
 30
0.0
  0
VERTEX
  5
2BFE
  8
3
 10
238.3096988313001
 20
36.36079574540003
 30
0.0
  0
VERTEX
  5
2BFF
  8
3
 10
237.7677669529999
 20
35.9552665594
 30
0.0
  0
VERTEX
  5
2C00
  8
3
 10
236.9567085808999
 20
35.68430062030001
 30
0.0
  0
VERTEX
  5
2C01
  8
3
 10
236.0000000000001
 20
35.58915003589999
 30
0.0
  0
VERTEX
  5
2C02
  8
3
 10
235.0432914190999
 20
35.68430062030001
 30
0.0
  0
VERTEX
  5
2C03
  8
3
 10
234.2322330471
 20
35.9552665594
 30
0.0
  0
VERTEX
  5
2C04
  8
3
 10
233.6903011688001
 20
36.36079574540003
 30
0.0
  0
VERTEX
  5
2C05
  8
3
 10
233.5000000000001
 20
36.83915003589999
 30
0.0
  0
VERTEX
  5
2C06
  8
3
 10
233.6903011688001
 20
37.31750432640001
 30
0.0
  0
VERTEX
  5
2C07
  8
3
 10
234.2322330471
 20
37.72303351240004
 30
0.0
  0
VERTEX
  5
2C08
  8
3
 10
235.0432914190999
 20
37.99399945150003
 30
0.0
  0
VERTEX
  5
2C09
  8
3
 10
236.0000000000001
 20
38.08915003589999
 30
0.0
  0
VERTEX
  5
2C0A
  8
3
 10
236.9567085808999
 20
37.99399945150003
 30
0.0
  0
VERTEX
  5
2C0B
  8
3
 10
237.7677669529999
 20
37.72303351240004
 30
0.0
  0
VERTEX
  5
2C0C
  8
3
 10
238.3096988313001
 20
37.31750432640001
 30
0.0
  0
VERTEX
  5
2C0D
  8
3
 10
238.5000000000001
 20
36.83915003589999
 30
0.0
  0
SEQEND
  5
2D2F
  8
3
  0
POLYLINE
  5
DBF
  8
3
 66
     1
 10
0.0
 20
0.0
 30
0.0
  0
VERTEX
  5
2C0E
  8
3
 10
238.5000000000001
 20
36.91718958730002
 30
0.0
  0
VERTEX
  5
2C0F
  8
3
 10
238.3096988313001
 20
36.43883529679999
 30
0.0
  0
VERTEX
  5
2C10
  8
3
 10
237.7677669529999
 20
36.03330611080003
 30
0.0
  0
VERTEX
  5
2C11
  8
3
 10
236.9567085808999
 20
35.76234017159999
 30
0.0
  0
VERTEX
  5
2C12
  8
3
 10
236.0000000000001
 20
35.66718958730002
 30
0.0
  0
VERTEX
  5
2C13
  8
3
 10
235.0432914190999
 20
35.76234017159999
 30
0.0
  0
VERTEX
  5
2C14
  8
3
 10
234.2322330471
 20
36.03330611080003
 30
0.0
  0
VERTEX
  5
2C15
  8
3
 10
233.6903011688001
 20
36.43883529679999
 30
0.0
  0
VERTEX
  5
2C16
  8
3
 10
233.5000000000001
 20
36.91718958730002
 30
0.0
  0
VERTEX
  5
2C17
  8
3
 10
233.6903011688001
 20
37.39554387769999
 30
0.0
  0
VERTEX
  5
2C18
  8
3
 10
234.2322330471
 20
37.80107306370002
 30
0.0
  0
VERTEX
  5
2C19
  8
3
 10
235.0432914190999
 20
38.0720390029
 30
0.0
  0
VERTEX
  5
2C1A
  8
3
 10
236.0000000000001
 20
38.16718958730002
 30
0.0
  0
VERTEX
  5
2C1B
  8
3
 10
236.9567085808999
 20
38.0720390029
 30
0.0
  0
VERTEX
  5
2C1C
  8
3
 10
237.7677669529999
 20
37.80107306370002
 30
0.0
  0
VERTEX
  5
2C1D
  8
3
 10
238.3096988313001
 20
37.39554387769999
 30
0.0
  0
VERTEX
  5
2C1E
  8
3
 10
238.5000000000001
 20
36.91718958730002
 30
0.0
  0
SEQEND
  5
2D2E
  8
3
  0
POLYLINE
  5
DC0
  8
3
 66
     1
 10
0.0
 20
0.0
 30
0.0
  0
VERTEX
  5
2C1F
  8
3
 10
238.0549999999999
 20
37.18703648190001
 30
0.0
  0
VERTEX
  5
2C20
  8
3
 10
237.8985724392999
 20
36.79382925510004
 30
0.0
  0
VERTEX
  5
2C21
  8
3
 10
237.4531044353999
 20
36.46048426420003
 30
0.0
  0
VERTEX
  5
2C22
  8
3
 10
236.7864144535
 20
36.2377502622
 30
0.0
  0
VERTEX
  5
2C23
  8
3
 10
236.0000000000001
 20
36.15953648190003
 30
0.0
  0
VERTEX
  5
2C24
  8
3
 10
235.2135855464999
 20
36.2377502622
 30
0.0
  0
VERTEX
  5
2C25
  8
3
 10
234.5468955647
 20
36.46048426420003
 30
0.0
  0
VERTEX
  5
2C26
  8
3
 10
234.1014275607
 20
36.79382925510004
 30
0.0
  0
VERTEX
  5
2C27
  8
3
 10
233.945
 20
37.18703648190001
 30
0.0
  0
VERTEX
  5
2C28
  8
3
 10
234.1014275607
 20
37.58024370859999
 30
0.0
  0
VERTEX
  5
2C29
  8
3
 10
234.5468955647
 20
37.9135886995
 30
0.0
  0
VERTEX
  5
2C2A
  8
3
 10
235.2135855464999
 20
38.13632270150003
 30
0.0
  0
VERTEX
  5
2C2B
  8
3
 10
236.0000000000001
 20
38.21453648189998
 30
0.0
  0
VERTEX
  5
2C2C
  8
3
 10
236.7864144535
 20
38.13632270150003
 30
0.0
  0
VERTEX
  5
2C2D
  8
3
 10
237.4531044353999
 20
37.9135886995
 30
0.0
  0
VERTEX
  5
2C2E
  8
3
 10
237.8985724392999
 20
37.58024370859999
 30
0.0
  0
VERTEX
  5
2C2F
  8
3
 10
238.0549999999999
 20
37.18703648190001
 30
0.0
  0
SEQEND
  5
2D2D
  8
3
  0
POLYLINE
  5
DC1
  8
3
 66
     1
 10
0.0
 20
0.0
 30
0.0
  0
VERTEX
  5
2C30
  8
3
 10
238.5000000000001
 20
37.4568833765
 30
0.0
  0
VERTEX
  5
2C31
  8
3
 10
238.3096988313001
 20
36.97852908600004
 30
0.0
  0
VERTEX
  5
2C32
  8
3
 10
237.7677669529999
 20
36.57299990000001
 30
0.0
  0
VERTEX
  5
2C33
  8
3
 10
236.9567085808999
 20
36.30203396090002
 30
0.0
  0
VERTEX
  5
2C34
  8
3
 10
236.0000000000001
 20
36.2068833765
 30
0.0
  0
VERTEX
  5
2C35
  8
3
 10
235.0432914190999
 20
36.30203396090002
 30
0.0
  0
VERTEX
  5
2C36
  8
3
 10
234.2322330471
 20
36.57299990000001
 30
0.0
  0
VERTEX
  5
2C37
  8
3
 10
233.6903011688001
 20
36.97852908600004
 30
0.0
  0
VERTEX
  5
2C38
  8
3
 10
233.5000000000001
 20
37.4568833765
 30
0.0
  0
VERTEX
  5
2C39
  8
3
 10
233.6903011688001
 20
37.93523766700002
 30
0.0
  0
VERTEX
  5
2C3A
  8
3
 10
234.2322330471
 20
38.34076685299999
 30
0.0
  0
VERTEX
  5
2C3B
  8
3
 10
235.0432914190999
 20
38.61173279209999
 30
0.0
  0
VERTEX
  5
2C3C
  8
3
 10
236.0000000000001
 20
38.7068833765
 30
0.0
  0
VERTEX
  5
2C3D
  8
3
 10
236.9567085808999
 20
38.61173279209999
 30
0.0
  0
VERTEX
  5
2C3E
  8
3
 10
237.7677669529999
 20
38.34076685299999
 30
0.0
  0
VERTEX
  5
2C3F
  8
3
 10
238.3096988313001
 20
37.93523766700002
 30
0.0
  0
VERTEX
  5
2C40
  8
3
 10
238.5000000000001
 20
37.4568833765
 30
0.0
  0
SEQEND
  5
2D2C
  8
3
  0
POLYLINE
  5
DC2
  8
3
 66
     1
 10
0.0
 20
0.0
 30
0.0
  0
VERTEX
  5
2C41
  8
3
 10
238.5000000000001
 20
37.53492292790003
 30
0.0
  0
VERTEX
  5
2C42
  8
3
 10
238.3096988313001
 20
37.05656863740001
 30
0.0
  0
VERTEX
  5
2C43
  8
3
 10
237.7677669529999
 20
36.65103945139998
 30
0.0
  0
VERTEX
  5
2C44
  8
3
 10
236.9567085808999
 20
36.3800735122
 30
0.0
  0
VERTEX
  5
2C45
  8
3
 10
236.0000000000001
 20
36.28492292790003
 30
0.0
  0
VERTEX
  5
2C46
  8
3
 10
235.0432914190999
 20
36.3800735122
 30
0.0
  0
VERTEX
  5
2C47
  8
3
 10
234.2322330471
 20
36.65103945139998
 30
0.0
  0
VERTEX
  5
2C48
  8
3
 10
233.6903011688001
 20
37.05656863740001
 30
0.0
  0
VERTEX
  5
2C49
  8
3
 10
233.5000000000001
 20
37.53492292790003
 30
0.0
  0
VERTEX
  5
2C4A
  8
3
 10
233.6903011688001
 20
38.0132772183
 30
0.0
  0
VERTEX
  5
2C4B
  8
3
 10
234.2322330471
 20
38.41880640430003
 30
0.0
  0
VERTEX
  5
2C4C
  8
3
 10
235.0432914190999
 20
38.68977234350001
 30
0.0
  0
VERTEX
  5
2C4D
  8
3
 10
236.0000000000001
 20
38.78492292790003
 30
0.0
  0
VERTEX
  5
2C4E
  8
3
 10
236.9567085808999
 20
38.68977234350001
 30
0.0
  0
VERTEX
  5
2C4F
  8
3
 10
237.7677669529999
 20
38.41880640430003
 30
0.0
  0
VERTEX
  5
2C50
  8
3
 10
238.3096988313001
 20
38.0132772183
 30
0.0
  0
VERTEX
  5
2C51
  8
3
 10
238.5000000000001
 20
37.53492292790003
 30
0.0
  0
SEQEND
  5
2D2B
  8
3
  0
POLYLINE
  5
DC3
  8
3
 66
     1
 10
0.0
 20
0.0
 30
0.0
  0
VERTEX
  5
2C52
  8
3
 10
238.0549999999999
 20
37.80476982250002
 30
0.0
  0
VERTEX
  5
2C53
  8
3
 10
237.8985724392999
 20
37.41156259569999
 30
0.0
  0
VERTEX
  5
2C54
  8
3
 10
237.4531044353999
 20
37.07821760479999
 30
0.0
  0
VERTEX
  5
2C55
  8
3
 10
236.7864144535
 20
36.85548360280001
 30
0.0
  0
VERTEX
  5
2C56
  8
3
 10
236.0000000000001
 20
36.77726982249999
 30
0.0
  0
VERTEX
  5
2C57
  8
3
 10
235.2135855464999
 20
36.85548360280001
 30
0.0
  0
VERTEX
  5
2C58
  8
3
 10
234.5468955647
 20
37.07821760479999
 30
0.0
  0
VERTEX
  5
2C59
  8
3
 10
234.1014275607
 20
37.41156259569999
 30
0.0
  0
VERTEX
  5
2C5A
  8
3
 10
233.945
 20
37.80476982250002
 30
0.0
  0
VERTEX
  5
2C5B
  8
3
 10
234.1014275607
 20
38.19797704920001
 30
0.0
  0
VERTEX
  5
2C5C
  8
3
 10
234.5468955647
 20
38.53132204010001
 30
0.0
  0
VERTEX
  5
2C5D
  8
3
 10
235.2135855464999
 20
38.75405604209999
 30
0.0
  0
VERTEX
  5
2C5E
  8
3
 10
236.0000000000001
 20
38.8322698225
 30
0.0
  0
VERTEX
  5
2C5F
  8
3
 10
236.7864144535
 20
38.75405604209999
 30
0.0
  0
VERTEX
  5
2C60
  8
3
 10
237.4531044353999
 20
38.53132204010001
 30
0.0
  0
VERTEX
  5
2C61
  8
3
 10
237.8985724392999
 20
38.19797704920001
 30
0.0
  0
VERTEX
  5
2C62
  8
3
 10
238.0549999999999
 20
37.80476982250002
 30
0.0
  0
SEQEND
  5
2D2A
  8
3
  0
POLYLINE
  5
DC4
  8
3
 66
     1
 10
0.0
 20
0.0
 30
0.0
  0
VERTEX
  5
2C63
  8
3
 10
238.5000000000001
 20
38.07461671710001
 30
0.0
  0
VERTEX
  5
2C64
  8
3
 10
238.3096988313001
 20
37.59626242659999
 30
0.0
  0
VERTEX
  5
2C65
  8
3
 10
237.7677669529999
 20
37.19073324060003
 30
0.0
  0
VERTEX
  5
2C66
  8
3
 10
236.9567085808999
 20
36.91976730150003
 30
0.0
  0
VERTEX
  5
2C67
  8
3
 10
236.0000000000001
 20
36.82461671710001
 30
0.0
  0
VERTEX
  5
2C68
  8
3
 10
235.0432914190999
 20
36.91976730150003
 30
0.0
  0
VERTEX
  5
2C69
  8
3
 10
234.2322330471
 20
37.19073324060003
 30
0.0
  0
VERTEX
  5
2C6A
  8
3
 10
233.6903011688001
 20
37.59626242659999
 30
0.0
  0
VERTEX
  5
2C6B
  8
3
 10
233.5000000000001
 20
38.07461671710001
 30
0.0
  0
VERTEX
  5
2C6C
  8
3
 10
233.6903011688001
 20
38.55297100760004
 30
0.0
  0
VERTEX
  5
2C6D
  8
3
 10
234.2322330471
 20
38.9585001936
 30
0.0
  0
VERTEX
  5
2C6E
  8
3
 10
235.0432914190999
 20
39.2294661327
 30
0.0
  0
VERTEX
  5
2C6F
  8
3
 10
236.0000000000001
 20
39.32461671710001
 30
0.0
  0
VERTEX
  5
2C70
  8
3
 10
236.9567085808999
 20
39.2294661327
 30
0.0
  0
VERTEX
  5
2C71
  8
3
 10
237.7677669529999
 20
38.9585001936
 30
0.0
  0
VERTEX
  5
2C72
  8
3
 10
238.3096988313001
 20
38.55297100760004
 30
0.0
  0
VERTEX
  5
2C73
  8
3
 10
238.5000000000001
 20
38.07461671710001
 30
0.0
  0
SEQEND
  5
2D29
  8
3
  0
POLYLINE
  5
DC5
  8
3
 66
     1
 10
0.0
 20
0.0
 30
0.0
  0
VERTEX
  5
2C74
  8
3
 10
238.5000000000001
 20
38.15265626849998
 30
0.0
  0
VERTEX
  5
2C75
  8
3
 10
238.3096988313001
 20
37.67430197800002
 30
0.0
  0
VERTEX
  5
2C76
  8
3
 10
237.7677669529999
 20
37.26877279199999
 30
0.0
  0
VERTEX
  5
2C77
  8
3
 10
236.9567085808999
 20
36.99780685280001
 30
0.0
  0
VERTEX
  5
2C78
  8
3
 10
236.0000000000001
 20
36.90265626849998
 30
0.0
  0
VERTEX
  5
2C79
  8
3
 10
235.0432914190999
 20
36.99780685280001
 30
0.0
  0
VERTEX
  5
2C7A
  8
3
 10
234.2322330471
 20
37.26877279199999
 30
0.0
  0
VERTEX
  5
2C7B
  8
3
 10
233.6903011688001
 20
37.67430197800002
 30
0.0
  0
VERTEX
  5
2C7C
  8
3
 10
233.5000000000001
 20
38.15265626849998
 30
0.0
  0
VERTEX
  5
2C7D
  8
3
 10
233.6903011688001
 20
38.63101055890002
 30
0.0
  0
VERTEX
  5
2C7E
  8
3
 10
234.2322330471
 20
39.03653974489998
 30
0.0
  0
VERTEX
  5
2C7F
  8
3
 10
235.0432914190999
 20
39.30750568410002
 30
0.0
  0
VERTEX
  5
2C80
  8
3
 10
236.0000000000001
 20
39.40265626849998
 30
0.0
  0
VERTEX
  5
2C81
  8
3
 10
236.9567085808999
 20
39.30750568410002
 30
0.0
  0
VERTEX
  5
2C82
  8
3
 10
237.7677669529999
 20
39.03653974489998
 30
0.0
  0
VERTEX
  5
2C83
  8
3
 10
238.3096988313001
 20
38.63101055890002
 30
0.0
  0
VERTEX
  5
2C84
  8
3
 10
238.5000000000001
 20
38.15265626849998
 30
0.0
  0
SEQEND
  5
2D28
  8
3
  0
POLYLINE
  5
DC6
  8
3
 66
     1
 10
0.0
 20
0.0
 30
0.0
  0
VERTEX
  5
2C85
  8
3
 10
238.0549999999999
 20
38.42250316310003
 30
0.0
  0
VERTEX
  5
2C86
  8
3
 10
237.8985724392999
 20
38.0292959363
 30
0.0
  0
VERTEX
  5
2C87
  8
3
 10
237.4531044353999
 20
37.6959509454
 30
0.0
  0
VERTEX
  5
2C88
  8
3
 10
236.7864144535
 20
37.47321694340002
 30
0.0
  0
VERTEX
  5
2C89
  8
3
 10
236.0000000000001
 20
37.3950031631
 30
0.0
  0
VERTEX
  5
2C8A
  8
3
 10
235.2135855464999
 20
37.47321694340002
 30
0.0
  0
VERTEX
  5
2C8B
  8
3
 10
234.5468955647
 20
37.6959509454
 30
0.0
  0
VERTEX
  5
2C8C
  8
3
 10
234.1014275607
 20
38.0292959363
 30
0.0
  0
VERTEX
  5
2C8D
  8
3
 10
233.945
 20
38.42250316310003
 30
0.0
  0
VERTEX
  5
2C8E
  8
3
 10
234.1014275607
 20
38.81571038980002
 30
0.0
  0
VERTEX
  5
2C8F
  8
3
 10
234.5468955647
 20
39.14905538080001
 30
0.0
  0
VERTEX
  5
2C90
  8
3
 10
235.2135855464999
 20
39.3717893827
 30
0.0
  0
VERTEX
  5
2C91
  8
3
 10
236.0000000000001
 20
39.45000316310001
 30
0.0
  0
VERTEX
  5
2C92
  8
3
 10
236.7864144535
 20
39.3717893827
 30
0.0
  0
VERTEX
  5
2C93
  8
3
 10
237.4531044353999
 20
39.14905538080001
 30
0.0
  0
VERTEX
  5
2C94
  8
3
 10
237.8985724392999
 20
38.81571038980002
 30
0.0
  0
VERTEX
  5
2C95
  8
3
 10
238.0549999999999
 20
38.42250316310003
 30
0.0
  0
SEQEND
  5
2D27
  8
3
  0
POLYLINE
  5
DC7
  8
3
 66
     1
 10
0.0
 20
0.0
 30
0.0
  0
VERTEX
  5
2C96
  8
3
 10
238.5000000000001
 20
38.69235005770003
 30
0.0
  0
VERTEX
  5
2C97
  8
3
 10
238.3096988313001
 20
38.21399576729999
 30
0.0
  0
VERTEX
  5
2C98
  8
3
 10
237.7677669529999
 20
37.80846658120004
 30
0.0
  0
VERTEX
  5
2C99
  8
3
 10
236.956708581
 20
37.53750064209999
 30
0.0
  0
VERTEX
  5
2C9A
  8
3
 10
236.0000000000001
 20
37.44235005770003
 30
0.0
  0
VERTEX
  5
2C9B
  8
3
 10
235.0432914190999
 20
37.53750064209999
 30
0.0
  0
VERTEX
  5
2C9C
  8
3
 10
234.2322330471
 20
37.80846658120004
 30
0.0
  0
VERTEX
  5
2C9D
  8
3
 10
233.6903011688001
 20
38.21399576729999
 30
0.0
  0
VERTEX
  5
2C9E
  8
3
 10
233.5000000000001
 20
38.69235005770003
 30
0.0
  0
VERTEX
  5
2C9F
  8
3
 10
233.6903011688001
 20
39.17070434819999
 30
0.0
  0
VERTEX
  5
2CA0
  8
3
 10
234.2322330471
 20
39.57623353420001
 30
0.0
  0
VERTEX
  5
2CA1
  8
3
 10
235.0432914190999
 20
39.84719947330001
 30
0.0
  0
VERTEX
  5
2CA2
  8
3
 10
236.0000000000001
 20
39.94235005770003
 30
0.0
  0
VERTEX
  5
2CA3
  8
3
 10
236.956708581
 20
39.84719947330001
 30
0.0
  0
VERTEX
  5
2CA4
  8
3
 10
237.7677669529999
 20
39.57623353420001
 30
0.0
  0
VERTEX
  5
2CA5
  8
3
 10
238.3096988313001
 20
39.17070434819999
 30
0.0
  0
VERTEX
  5
2CA6
  8
3
 10
238.5000000000001
 20
38.69235005770003
 30
0.0
  0
SEQEND
  5
2D26
  8
3
  0
POLYLINE
  5
DC8
  8
3
 66
     1
 10
0.0
 20
0.0
 30
0.0
  0
VERTEX
  5
2CA7
  8
3
 10
238.5000000000001
 20
38.77038960909999
 30
0.0
  0
VERTEX
  5
2CA8
  8
3
 10
238.3096988313001
 20
38.29203531860003
 30
0.0
  0
VERTEX
  5
2CA9
  8
3
 10
237.7677669529999
 20
37.8865061326
 30
0.0
  0
VERTEX
  5
2CAA
  8
3
 10
236.956708581
 20
37.61554019340002
 30
0.0
  0
VERTEX
  5
2CAB
  8
3
 10
236.0000000000001
 20
37.52038960909999
 30
0.0
  0
VERTEX
  5
2CAC
  8
3
 10
235.0432914190999
 20
37.61554019340002
 30
0.0
  0
VERTEX
  5
2CAD
  8
3
 10
234.2322330471
 20
37.8865061326
 30
0.0
  0
VERTEX
  5
2CAE
  8
3
 10
233.6903011688001
 20
38.29203531860003
 30
0.0
  0
VERTEX
  5
2CAF
  8
3
 10
233.5000000000001
 20
38.77038960909999
 30
0.0
  0
VERTEX
  5
2CB0
  8
3
 10
233.6903011688001
 20
39.24874389950003
 30
0.0
  0
VERTEX
  5
2CB1
  8
3
 10
234.2322330471
 20
39.65427308549999
 30
0.0
  0
VERTEX
  5
2CB2
  8
3
 10
235.0432914190999
 20
39.92523902470003
 30
0.0
  0
VERTEX
  5
2CB3
  8
3
 10
236.0000000000001
 20
40.02038960909999
 30
0.0
  0
VERTEX
  5
2CB4
  8
3
 10
236.956708581
 20
39.92523902470003
 30
0.0
  0
VERTEX
  5
2CB5
  8
3
 10
237.7677669529999
 20
39.65427308549999
 30
0.0
  0
VERTEX
  5
2CB6
  8
3
 10
238.3096988313001
 20
39.24874389950003
 30
0.0
  0
VERTEX
  5
2CB7
  8
3
 10
238.5000000000001
 20
38.77038960909999
 30
0.0
  0
SEQEND
  5
2D25
  8
3
  0
POLYLINE
  5
DC9
  8
3
 66
     1
 10
0.0
 20
0.0
 30
0.0
  0
VERTEX
  5
2CB8
  8
3
 10
238.0549999999999
 20
39.04023650369999
 30
0.0
  0
VERTEX
  5
2CB9
  8
3
 10
237.8985724394
 20
38.64702927690001
 30
0.0
  0
VERTEX
  5
2CBA
  8
3
 10
237.4531044353999
 20
38.31368428600001
 30
0.0
  0
VERTEX
  5
2CBB
  8
3
 10
236.7864144536
 20
38.09095028400003
 30
0.0
  0
VERTEX
  5
2CBC
  8
3
 10
236.0000000000001
 20
38.01273650370001
 30
0.0
  0
VERTEX
  5
2CBD
  8
3
 10
235.2135855464999
 20
38.09095028400003
 30
0.0
  0
VERTEX
  5
2CBE
  8
3
 10
234.5468955647
 20
38.31368428600001
 30
0.0
  0
VERTEX
  5
2CBF
  8
3
 10
234.1014275607
 20
38.64702927690001
 30
0.0
  0
VERTEX
  5
2CC0
  8
3
 10
233.945
 20
39.04023650369999
 30
0.0
  0
VERTEX
  5
2CC1
  8
3
 10
234.1014275607
 20
39.43344373040003
 30
0.0
  0
VERTEX
  5
2CC2
  8
3
 10
234.5468955647
 20
39.76678872140002
 30
0.0
  0
VERTEX
  5
2CC3
  8
3
 10
235.2135855464999
 20
39.98952272330001
 30
0.0
  0
VERTEX
  5
2CC4
  8
3
 10
236.0000000000001
 20
40.06773650370002
 30
0.0
  0
VERTEX
  5
2CC5
  8
3
 10
236.7864144536
 20
39.98952272330001
 30
0.0
  0
VERTEX
  5
2CC6
  8
3
 10
237.4531044353999
 20
39.76678872140002
 30
0.0
  0
VERTEX
  5
2CC7
  8
3
 10
237.8985724394
 20
39.43344373040003
 30
0.0
  0
VERTEX
  5
2CC8
  8
3
 10
238.0549999999999
 20
39.04023650369999
 30
0.0
  0
SEQEND
  5
2D24
  8
3
  0
POLYLINE
  5
DCA
  8
3
 66
     1
 10
0.0
 20
0.0
 30
0.0
  0
VERTEX
  5
2CC9
  8
3
 10
238.5000000000001
 20
39.31008339830004
 30
0.0
  0
VERTEX
  5
2CCA
  8
3
 10
238.3096988313001
 20
38.8317291079
 30
0.0
  0
VERTEX
  5
2CCB
  8
3
 10
237.7677669529999
 20
38.42619992179999
 30
0.0
  0
VERTEX
  5
2CCC
  8
3
 10
236.956708581
 20
38.1552339827
 30
0.0
  0
VERTEX
  5
2CCD
  8
3
 10
236.0000000000001
 20
38.06008339830004
 30
0.0
  0
VERTEX
  5
2CCE
  8
3
 10
235.0432914190999
 20
38.1552339827
 30
0.0
  0
VERTEX
  5
2CCF
  8
3
 10
234.2322330471
 20
38.42619992179999
 30
0.0
  0
VERTEX
  5
2CD0
  8
3
 10
233.6903011688001
 20
38.8317291079
 30
0.0
  0
VERTEX
  5
2CD1
  8
3
 10
233.5000000000001
 20
39.31008339830004
 30
0.0
  0
VERTEX
  5
2CD2
  8
3
 10
233.6903011688001
 20
39.7884376888
 30
0.0
  0
VERTEX
  5
2CD3
  8
3
 10
234.2322330471
 20
40.19396687480003
 30
0.0
  0
VERTEX
  5
2CD4
  8
3
 10
235.0432914190999
 20
40.46493281400001
 30
0.0
  0
VERTEX
  5
2CD5
  8
3
 10
236.0000000000001
 20
40.56008339830004
 30
0.0
  0
VERTEX
  5
2CD6
  8
3
 10
236.956708581
 20
40.46493281400001
 30
0.0
  0
VERTEX
  5
2CD7
  8
3
 10
237.7677669529999
 20
40.19396687480003
 30
0.0
  0
VERTEX
  5
2CD8
  8
3
 10
238.3096988313001
 20
39.7884376888
 30
0.0
  0
VERTEX
  5
2CD9
  8
3
 10
238.5000000000001
 20
39.31008339830004
 30
0.0
  0
SEQEND
  5
2D23
  8
3
  0
LINE
  5
DCB
  8
3
 10
237.2500000000001
 20
37.90304517229998
 30
0.0
 11
236.0000000000001
 21
38.2638890906
 31
0.0
  0
LINE
  5
DCC
  8
3
 10
234.7500000000001
 20
37.90304517229998
 30
0.0
 11
236.0000000000001
 21
38.2638890906
 31
0.0
  0
POLYLINE
  5
DCD
  8
3
 66
     1
 10
0.0
 20
0.0
 30
0.0
  0
VERTEX
  5
2CDA
  8
3
 10
238.5000000000001
 20
39.3881229497
 30
0.0
  0
VERTEX
  5
2CDB
  8
3
 10
238.3096988313001
 20
38.90976865919998
 30
0.0
  0
VERTEX
  5
2CDC
  8
3
 10
237.7677669529999
 20
38.50423947320002
 30
0.0
  0
VERTEX
  5
2CDD
  8
3
 10
236.956708581
 20
38.23327353400003
 30
0.0
  0
VERTEX
  5
2CDE
  8
3
 10
236.0000000000001
 20
38.1381229497
 30
0.0
  0
VERTEX
  5
2CDF
  8
3
 10
235.0432914190999
 20
38.23327353400003
 30
0.0
  0
VERTEX
  5
2CE0
  8
3
 10
234.2322330471
 20
38.50423947320002
 30
0.0
  0
VERTEX
  5
2CE1
  8
3
 10
233.6903011688001
 20
38.90976865919998
 30
0.0
  0
VERTEX
  5
2CE2
  8
3
 10
233.5000000000001
 20
39.3881229497
 30
0.0
  0
VERTEX
  5
2CE3
  8
3
 10
233.6903011688001
 20
39.86647724009998
 30
0.0
  0
VERTEX
  5
2CE4
  8
3
 10
234.2322330471
 20
40.27200642619999
 30
0.0
  0
VERTEX
  5
2CE5
  8
3
 10
235.0432914190999
 20
40.54297236529999
 30
0.0
  0
VERTEX
  5
2CE6
  8
3
 10
236.0000000000001
 20
40.6381229497
 30
0.0
  0
VERTEX
  5
2CE7
  8
3
 10
236.956708581
 20
40.54297236529999
 30
0.0
  0
VERTEX
  5
2CE8
  8
3
 10
237.7677669529999
 20
40.27200642619999
 30
0.0
  0
VERTEX
  5
2CE9
  8
3
 10
238.3096988313001
 20
39.86647724009998
 30
0.0
  0
VERTEX
  5
2CEA
  8
3
 10
238.5000000000001
 20
39.3881229497
 30
0.0
  0
SEQEND
  5
2D22
  8
3
  0
POLYLINE
  5
DCE
  8
3
 66
     1
 10
0.0
 20
0.0
 30
0.0
  0
VERTEX
  5
2CEB
  8
3
 10
238.0549999999999
 20
39.6579698443
 30
0.0
  0
VERTEX
  5
2CEC
  8
3
 10
237.8985724394
 20
39.26476261750003
 30
0.0
  0
VERTEX
  5
2CED
  8
3
 10
237.4531044353999
 20
38.93141762660002
 30
0.0
  0
VERTEX
  5
2CEE
  8
3
 10
236.7864144536
 20
38.70868362459998
 30
0.0
  0
VERTEX
  5
2CEF
  8
3
 10
236.0000000000001
 20
38.63046984430002
 30
0.0
  0
VERTEX
  5
2CF0
  8
3
 10
235.2135855464999
 20
38.70868362459998
 30
0.0
  0
VERTEX
  5
2CF1
  8
3
 10
234.5468955647
 20
38.93141762660002
 30
0.0
  0
VERTEX
  5
2CF2
  8
3
 10
234.1014275607
 20
39.26476261750003
 30
0.0
  0
VERTEX
  5
2CF3
  8
3
 10
233.945
 20
39.6579698443
 30
0.0
  0
VERTEX
  5
2CF4
  8
3
 10
234.1014275607
 20
40.05117707099998
 30
0.0
  0
VERTEX
  5
2CF5
  8
3
 10
234.5468955647
 20
40.38452206200003
 30
0.0
  0
VERTEX
  5
2CF6
  8
3
 10
235.2135855464999
 20
40.60725606390002
 30
0.0
  0
VERTEX
  5
2CF7
  8
3
 10
236.0000000000001
 20
40.68546984430003
 30
0.0
  0
VERTEX
  5
2CF8
  8
3
 10
236.7864144536
 20
40.60725606390002
 30
0.0
  0
VERTEX
  5
2CF9
  8
3
 10
237.4531044353999
 20
40.38452206200003
 30
0.0
  0
VERTEX
  5
2CFA
  8
3
 10
237.8985724394
 20
40.05117707099998
 30
0.0
  0
VERTEX
  5
2CFB
  8
3
 10
238.0549999999999
 20
39.6579698443
 30
0.0
  0
SEQEND
  5
2D21
  8
3
  0
POLYLINE
  5
DCF
  8
3
 66
     1
 10
0.0
 20
0.0
 30
0.0
  0
VERTEX
  5
2CFC
  8
3
 10
238.2561031269
 20
39.77991828090001
 30
0.0
  0
VERTEX
  5
2CFD
  8
3
 10
238.0843675022
 20
40.21160492500002
 30
0.0
  0
VERTEX
  5
2CFE
  8
3
 10
237.5953058200999
 20
40.57757119090002
 30
0.0
  0
VERTEX
  5
2CFF
  8
3
 10
236.8633732884001
 20
40.82210203189999
 30
0.0
  0
VERTEX
  5
2D00
  8
3
 10
236.0000000000001
 20
40.9079698443
 30
0.0
  0
VERTEX
  5
2D01
  8
3
 10
235.1366267117001
 20
40.82210203189999
 30
0.0
  0
VERTEX
  5
2D02
  8
3
 10
234.40469418
 20
40.57757119090002
 30
0.0
  0
VERTEX
  5
2D03
  8
3
 10
233.9156324978999
 20
40.21160492500002
 30
0.0
  0
VERTEX
  5
2D04
  8
3
 10
233.7438968732
 20
39.77991828090001
 30
0.0
  0
VERTEX
  5
2D05
  8
3
 10
233.9156324978999
 20
39.34823163670001
 30
0.0
  0
VERTEX
  5
2D06
  8
3
 10
234.40469418
 20
38.9822653709
 30
0.0
  0
VERTEX
  5
2D07
  8
3
 10
235.1366267117001
 20
38.73773452980004
 30
0.0
  0
VERTEX
  5
2D08
  8
3
 10
236.0000000000001
 20
38.65186671750001
 30
0.0
  0
VERTEX
  5
2D09
  8
3
 10
236.8633732884001
 20
38.73773452980004
 30
0.0
  0
VERTEX
  5
2D0A
  8
3
 10
237.5953058200999
 20
38.9822653709
 30
0.0
  0
VERTEX
  5
2D0B
  8
3
 10
238.0843675022
 20
39.34823163670001
 30
0.0
  0
VERTEX
  5
2D0C
  8
3
 10
238.2561031269
 20
39.77991828090001
 30
0.0
  0
SEQEND
  5
2D20
  8
3
  0
LINE
  5
DD0
  8
3
 10
237.2500000000001
 20
37.18135733579999
 30
0.0
 11
237.2500000000001
 21
37.90304517229998
 31
0.0
  0
LINE
  5
DD1
  8
3
 10
237.2500000000001
 20
37.90304517229998
 30
0.0
 11
237.2500000000001
 21
40.2413137625
 31
0.0
  0
LINE
  5
DD2
  8
3
 10
234.7500000000001
 20
37.18135733579999
 30
0.0
 11
234.7500000000001
 21
37.90304517229998
 31
0.0
  0
LINE
  5
DD3
  8
3
 10
234.7500000000001
 20
37.90304517229998
 30
0.0
 11
234.7500000000001
 21
40.2413137625
 31
0.0
  0
POLYLINE
  5
DD4
  8
3
 66
     1
 10
0.0
 20
0.0
 30
0.0
  0
VERTEX
  5
2D0D
  8
3
 10
236.0000000000001
 20
38.85296984429999
 30
0.0
  0
VERTEX
  5
2D0E
  8
3
 10
235.2135855464999
 20
38.93118362460001
 30
0.0
  0
VERTEX
  5
2D0F
  8
3
 10
234.5468955647
 20
39.15391762659999
 30
0.0
  0
VERTEX
  5
2D10
  8
3
 10
234.1014275607
 20
39.48726261749999
 30
0.0
  0
VERTEX
  5
2D11
  8
3
 10
233.945
 20
39.88046984430002
 30
0.0
  0
VERTEX
  5
2D12
  8
3
 10
234.1014275607
 20
40.27367707100001
 30
0.0
  0
VERTEX
  5
2D13
  8
3
 10
234.5468955647
 20
40.607022062
 30
0.0
  0
VERTEX
  5
2D14
  8
3
 10
235.2135855464999
 20
40.82975606389999
 30
0.0
  0
VERTEX
  5
2D15
  8
3
 10
236.0000000000001
 20
40.9079698443
 30
0.0
  0
VERTEX
  5
2D16
  8
3
 10
236.7864144536
 20
40.82975606389999
 30
0.0
  0
VERTEX
  5
2D17
  8
3
 10
237.4531044353999
 20
40.607022062
 30
0.0
  0
VERTEX
  5
2D18
  8
3
 10
237.8985724394
 20
40.27367707100001
 30
0.0
  0
VERTEX
  5
2D19
  8
3
 10
238.0549999999999
 20
39.88046984430002
 30
0.0
  0
VERTEX
  5
2D1A
  8
3
 10
237.8985724394
 20
39.48726261749999
 30
0.0
  0
VERTEX
  5
2D1B
  8
3
 10
237.4531044353999
 20
39.15391762659999
 30
0.0
  0
VERTEX
  5
2D1C
  8
3
 10
236.7864144536
 20
38.93118362460001
 30
0.0
  0
VERTEX
  5
2D1D
  8
3
 10
236.0000000000001
 20
38.85296984429999
 30
0.0
  0
SEQEND
  5
2D1F
  8
3
  0
LINE
  5
DD5
  8
3
 10
237.2500000000001
 20
40.2413137625
 30
0.0
 11
236.0000000000001
 21
40.60215768080002
 31
0.0
  0
LINE
  5
DD6
  8
3
 10
234.7500000000001
 20
40.2413137625
 30
0.0
 11
236.0000000000001
 21
40.60215768080002
 31
0.0
  0
LINE
  5
DD7
  8
3
 10
234.7500000000001
 20
39.51962592609999
 30
0.0
 11
236.0000000000001
 21
39.15878200780003
 31
0.0
  0
LINE
  5
DD8
  8
3
 10
234.7500000000001
 20
37.18135733579999
 30
0.0
 11
236.0000000000001
 21
36.82051341760001
 31
0.0
  0
LINE
  5
DD9
  8
3
 10
237.2500000000001
 20
39.51962592609999
 30
0.0
 11
236.0000000000001
 21
39.15878200780003
 31
0.0
  0
LINE
  5
DDA
  8
3
 10
237.2500000000001
 20
37.18135733579999
 30
0.0
 11
236.0000000000001
 21
36.82051341760001
 31
0.0
  0
LINE
  5
DDD
  8
3
 10
254.0000000000001
 20
20.04907116060002
 30
0.0
 11
253.8136296695
 21
19.35352761810003
 31
0.0
  0
LINE
  5
DDE
  8
3
 10
253.8136296695
 20
-19.35352761799999
 30
0.0
 11
254.0000000000001
 21
-20.04907116049998
 31
0.0
  0
ARC
  5
DDF
  8
3
 10
254.2000000000001
 20
-19.25
 30
0.0
 40
0.3999999999999767
 50
166.875000000004
 51
195.0000000000036
  0
ARC
  5
DE0
  8
3
 10
254.2000000000001
 20
-19.25
 30
0.0
 40
0.3999999999999767
 50
120.0000000000096
 51
166.875000000004
  0
ARC
  5
DE1
  8
3
 10
254.2000000000001
 20
19.25
 30
0.0
 40
0.3999999999999273
 50
165.0000000000017
 51
180.0
  0
ARC
  5
DE2
  8
3
 10
254.2000000000001
 20
19.25
 30
0.0
 40
0.3999999999998828
 50
180.0
 51
239.9999999999918
  0
LINE
  5
DE3
  8
3
 10
253.8
 20
19.25
 30
0.0
 11
253.8
 21
-19.25
 31
0.0
  0
LINE
  5
DE4
  8
3
 10
254.0000000000001
 20
2.5
 30
0.0
 11
235.6
 21
2.5
 31
0.0
  0
LINE
  5
DE5
  8
3
 10
235.6
 20
-2.5
 30
0.0
 11
254.0000000000001
 21
-2.5
 31
0.0
  0
LINE
  5
DE6
  8
3
 10
235.3042683222
 20
-2.007819836199985
 30
0.0
 11
235.6
 21
-2.5
 31
0.0
  0
LINE
  5
DE7
  8
3
 10
235.6
 20
2.5
 30
0.0
 11
235.3042683222
 21
2.007819836199985
 31
0.0
  0
LINE
  5
DF8
  8
3
 10
254.0000000000001
 20
8.731249999999989
 30
0.0
 11
0.0
 21
8.731249999999989
 31
0.0
  0
LINE
  5
DF9
  8
3
 10
0.0
 20
-8.731249999999989
 30
0.0
 11
254.0000000000001
 21
-8.731249999999989
 31
0.0
  0
LINE
  5
DFA
  8
3
 10
236.0000000000001
 20
41.27474999999998
 30
0.0
 11
231.2323212032
 21
33.34000000000003
 31
0.0
  0
LINE
  5
DFB
  8
3
 10
231.2323212032
 20
33.34000000000003
 30
0.0
 11
236.0000000000001
 21
25.40525000000002
 31
0.0
  0
LINE
  5
DFC
  8
3
 10
236.0000000000001
 20
-25.40524999999997
 30
0.0
 11
231.2323212032
 21
-33.33999999999997
 31
0.0
  0
LINE
  5
DFD
  8
3
 10
231.2323212032
 20
-33.33999999999997
 30
0.0
 11
236.0000000000001
 21
-41.27474999999998
 31
0.0
  0
LINE
  5
DFE
  8
3
 10
254.0000000000001
 20
-25.40524999999997
 30
0.0
 11
236.0000000000001
 21
-25.40524999999997
 31
0.0
  0
LINE
  5
DFF
  8
3
 10
236.0000000000001
 20
-41.27474999999998
 30
0.0
 11
254.0000000000001
 21
-41.27474999999998
 31
0.0
  0
LINE
  5
E00
  8
3
 10
254.0000000000001
 20
41.27474999999998
 30
0.0
 11
236.0000000000001
 21
41.27474999999998
 31
0.0
  0
LINE
  5
E01
  8
3
 10
236.0000000000001
 20
25.40525000000002
 30
0.0
 11
254.0000000000001
 21
25.40525000000002
 31
0.0
  0
LINE
  5
E08
  8
3
 10
233.8999999999999
 20
38.55978110350003
 30
0.0
 11
233.8999999999999
 21
7.559329003500011
 31
0.0
  0
LINE
  5
E09
  8
3
 10
238.1
 20
14.27617020270003
 30
0.0
 11
238.1
 21
38.55978110350003
 31
0.0
  0
LINE
  5
E0A
  8
3
 10
238.1
 20
7.556344272300009
 30
0.0
 11
238.1
 21
9.972541103299989
 31
0.0
  0
LINE
  5
E0B
  8
3
 10
238.1
 20
-9.972541103200001
 30
0.0
 11
238.1
 21
-7.556344272300009
 31
0.0
  0
LINE
  5
E0C
  8
3
 10
238.1
 20
-38.55978110349997
 30
0.0
 11
238.1
 21
-14.27617020269997
 31
0.0
  0
LINE
  5
E0D
  8
3
 10
233.8999999999999
 20
-7.559329003500011
 30
0.0
 11
233.8999999999999
 21
-38.55978110349997
 31
0.0
  0
LINE
  5
E0E
  8
3
 10
254.0000000000001
 20
14.62435565300001
 30
0.0
 11
237.6780700942
 21
14.62435565300001
 31
0.0
  0
LINE
  5
E0F
  8
3
 10
237.6780700942
 20
9.62435565300001
 30
0.0
 11
254.0000000000001
 21
9.62435565300001
 31
0.0
  0
LINE
  5
E10
  8
3
 10
254.0000000000001
 20
-9.62435565300001
 30
0.0
 11
237.663673502
 21
-9.62435565300001
 31
0.0
  0
LINE
  5
E11
  8
3
 10
237.663673502
 20
-14.62435565300001
 30
0.0
 11
254.0000000000001
 21
-14.62435565300001
 31
0.0
  0
LINE
  5
E12
  8
3
 10
233.8566964750999
 20
38.25667221219999
 30
0.0
 11
234.2853571801
 21
37.9535633209
 31
0.0
  0
LINE
  5
E13
  8
3
 10
237.7146428199999
 20
37.9535633209
 30
0.0
 11
238.143303525
 21
38.25667221219999
 31
0.0
  0
LINE
  5
E14
  8
3
 10
233.3750000000001
 20
39.878833853
 30
0.0
 11
233.3750000000001
 21
39.01444444050003
 31
0.0
  0
LINE
  5
E15
  8
3
 10
238.6250000000001
 20
39.01444444050003
 30
0.0
 11
238.6250000000001
 21
39.88030222230003
 31
0.0
  0
LINE
  5
E16
  8
3
 10
238.143303525
 20
-38.25667221219999
 30
0.0
 11
237.7146428199999
 21
-37.95356332080001
 31
0.0
  0
LINE
  5
E17
  8
3
 10
234.2853571801
 20
-37.95356332080001
 30
0.0
 11
233.8566964750999
 21
-38.25667221219999
 31
0.0
  0
LINE
  5
E18
  8
3
 10
238.6250000000001
 20
-39.88030222229997
 30
0.0
 11
238.6250000000001
 21
-39.01444444049997
 31
0.0
  0
LINE
  5
E19
  8
3
 10
233.3750000000001
 20
-39.01444444049997
 30
0.0
 11
233.3750000000001
 21
-39.878833853
 31
0.0
  0
LINE
  5
E1A
  8
3
 10
254.0000000000001
 20
9.525000000000034
 30
0.0
 11
248.5859900000001
 21
9.525000000000034
 31
0.0
  0
LINE
  5
E1B
  8
3
 10
248.5859900000001
 20
-9.524999999999977
 30
0.0
 11
254.0000000000001
 21
-9.524999999999977
 31
0.0
  0
LINE
  5
E1C
  8
3
 10
248.5859900000001
 20
9.525000000000034
 30
0.0
 11
247.6499999999999
 21
8.58901000000003
 31
0.0
  0
LINE
  5
E1D
  8
3
 10
247.6499999999999
 20
-8.589009999999973
 30
0.0
 11
248.5859900000001
 21
-9.524999999999977
 31
0.0
  0
LINE
  5
E22
  8
3
 10
254.0000000000001
 20
-25.39868999999999
 30
0.0
 11
239.5101603050001
 21
-25.39868999999999
 31
0.0
  0
LINE
  5
E23
  8
3
 10
239.5101603050001
 20
-41.28131000000002
 30
0.0
 11
254.0000000000001
 21
-41.28131000000002
 31
0.0
  0
ARC
  5
E24
  8
3
 10
239.4471999999999
 20
-25.20549
 30
0.0
 40
0.2032000000000833
 50
270.0
 51
288.0498306933181
  0
ARC
  5
E25
  8
3
 10
239.4471999999999
 20
-41.47451000000001
 30
0.0
 40
0.2032000000000833
 50
71.95016930668189
 51
90.0
  0
LINE
  5
E26
  8
3
 10
239.4471999999999
 20
-25.40868999999998
 30
0.0
 11
238.8720395107001
 21
-25.40868999999998
 31
0.0
  0
LINE
  5
E27
  8
3
 10
238.8720395107001
 20
-41.27130999999997
 30
0.0
 11
239.4471999999999
 21
-41.27130999999997
 31
0.0
  0
LINE
  5
E28
  8
3
 10
238.8720395107001
 20
-25.40868999999998
 30
0.0
 11
237.9471999999999
 21
-25.65649999999999
 31
0.0
  0
LINE
  5
E29
  8
3
 10
237.9471999999999
 20
-41.02350000000001
 30
0.0
 11
238.8720395107001
 21
-41.27130999999997
 31
0.0
  0
LINE
  5
E2A
  8
3
 10
254.0000000000001
 20
41.28131000000002
 30
0.0
 11
239.5101603050001
 21
41.28131000000002
 31
0.0
  0
LINE
  5
E2B
  8
3
 10
239.5101603050001
 20
25.39868999999999
 30
0.0
 11
254.0000000000001
 21
25.39868999999999
 31
0.0
  0
ARC
  5
E2C
  8
3
 10
239.4471999999999
 20
41.47451000000001
 30
0.0
 40
0.2032000000000833
 50
270.0
 51
288.0498306933181
  0
ARC
  5
E2D
  8
3
 10
239.4471999999999
 20
25.20549
 30
0.0
 40
0.2032000000000293
 50
71.95016930667691
 51
90.0
  0
LINE
  5
E2E
  8
3
 10
239.4471999999999
 20
41.27131000000003
 30
0.0
 11
238.8720395107001
 21
41.27131000000003
 31
0.0
  0
LINE
  5
E2F
  8
3
 10
238.8720395107001
 20
25.40869000000004
 30
0.0
 11
239.4471999999999
 21
25.40869000000004
 31
0.0
  0
LINE
  5
E30
  8
3
 10
238.8720395107001
 20
41.27131000000003
 30
0.0
 11
237.9471999999999
 21
41.02350000000001
 31
0.0
  0
LINE
  5
E31
  8
3
 10
237.9471999999999
 20
25.65649999999999
 30
0.0
 11
238.8720395107001
 21
25.40869000000004
 31
0.0
  0
LINE
  5
E32
  8
3
 10
237.891604364
 20
-34.50633923800001
 30
0.0
 11
237.4288690167
 21
-34.17913593599997
 31
0.0
  0
LINE
  5
E33
  8
3
 10
234.5711309834001
 20
-34.17913593599997
 30
0.0
 11
234.1083956360999
 21
-34.50633923800001
 31
0.0
  0
LINE
  5
E34
  8
3
 10
237.4145032041
 20
-34.57300630949999
 30
0.0
 11
237.1627216338
 21
-34.48661992889998
 31
0.0
  0
LINE
  5
E35
  8
3
 10
234.8372783662999
 20
-34.48661992889998
 30
0.0
 11
234.585496796
 21
-34.57300630949999
 31
0.0
  0
LINE
  5
E36
  8
3
 10
234.6891896446
 20
-36.13024367790001
 30
0.0
 11
234.8372783662999
 21
-36.18105299109999
 31
0.0
  0
LINE
  5
E37
  8
3
 10
237.1627216338
 20
-36.18105299109999
 30
0.0
 11
237.3108103554001
 21
-36.13024367790001
 31
0.0
  0
LINE
  5
E38
  8
3
 10
238.5000000000001
 20
-35.681722906
 30
0.0
 11
238.5000000000001
 21
-35.60368335459998
 31
0.0
  0
LINE
  5
E39
  8
3
 10
233.5000000000001
 20
-35.60368335459998
 30
0.0
 11
233.5000000000001
 21
-35.681722906
 31
0.0
  0
LINE
  5
E3A
  8
3
 10
234.585496796
 20
-36.71239995119998
 30
0.0
 11
234.8372783662999
 21
-36.79878633179999
 31
0.0
  0
LINE
  5
E3B
  8
3
 10
237.1627216338
 20
-36.79878633179999
 30
0.0
 11
237.4145032041
 21
-36.71239995119998
 31
0.0
  0
LINE
  5
E3C
  8
3
 10
237.4145032041
 20
-35.1907396501
 30
0.0
 11
237.1627216337
 21
-35.1043532695
 31
0.0
  0
LINE
  5
E3D
  8
3
 10
234.8372783662999
 20
-35.1043532695
 30
0.0
 11
234.585496796
 21
-35.1907396501
 31
0.0
  0
LINE
  5
E3E
  8
3
 10
238.5000000000001
 20
-36.29945624660002
 30
0.0
 11
238.5000000000001
 21
-36.22141669519999
 31
0.0
  0
LINE
  5
E3F
  8
3
 10
233.5000000000001
 20
-36.22141669519999
 30
0.0
 11
233.5000000000001
 21
-36.29945624660002
 31
0.0
  0
LINE
  5
E40
  8
3
 10
234.585496796
 20
-37.3301332918
 30
0.0
 11
234.8372783662999
 21
-37.4165196724
 31
0.0
  0
LINE
  5
E41
  8
3
 10
237.1627216337
 20
-37.4165196724
 30
0.0
 11
237.4145032041
 21
-37.3301332918
 31
0.0
  0
LINE
  5
E42
  8
3
 10
237.4145032041
 20
-35.80847299070001
 30
0.0
 11
237.1627216338
 21
-35.72208661010001
 31
0.0
  0
LINE
  5
E43
  8
3
 10
234.8372783662999
 20
-35.72208661010001
 30
0.0
 11
234.585496796
 21
-35.80847299070001
 31
0.0
  0
LINE
  5
E44
  8
3
 10
238.5000000000001
 20
-36.91718958719997
 30
0.0
 11
238.5000000000001
 21
-36.83915003589999
 31
0.0
  0
LINE
  5
E45
  8
3
 10
233.5000000000001
 20
-36.83915003589999
 30
0.0
 11
233.5000000000001
 21
-36.91718958719997
 31
0.0
  0
LINE
  5
E46
  8
3
 10
234.585496796
 20
-37.94786663240001
 30
0.0
 11
234.8372783662999
 21
-38.03425301300001
 31
0.0
  0
LINE
  5
E47
  8
3
 10
237.1627216338
 20
-38.03425301300001
 30
0.0
 11
237.4145032041
 21
-37.94786663240001
 31
0.0
  0
LINE
  5
E48
  8
3
 10
237.4145032041
 20
-36.42620633129997
 30
0.0
 11
237.1627216338
 21
-36.33981995070002
 31
0.0
  0
LINE
  5
E49
  8
3
 10
234.8372783662999
 20
-36.33981995070002
 30
0.0
 11
234.585496796
 21
-36.42620633129997
 31
0.0
  0
LINE
  5
E4A
  8
3
 10
238.5000000000001
 20
-37.53492292779998
 30
0.0
 11
238.5000000000001
 21
-37.4568833765
 31
0.0
  0
LINE
  5
E4B
  8
3
 10
233.5000000000001
 20
-37.4568833765
 30
0.0
 11
233.5000000000001
 21
-37.53492292779998
 31
0.0
  0
LINE
  5
E4C
  8
3
 10
234.585496796
 20
-38.56559997300002
 30
0.0
 11
234.8372783662999
 21
-38.65198635359997
 31
0.0
  0
LINE
  5
E4D
  8
3
 10
237.1627216338
 20
-38.65198635359997
 30
0.0
 11
237.4145032041
 21
-38.56559997300002
 31
0.0
  0
LINE
  5
E4E
  8
3
 10
237.4145032041
 20
-37.04393967189998
 30
0.0
 11
237.1627216338
 21
-36.95755329129997
 31
0.0
  0
LINE
  5
E4F
  8
3
 10
234.8372783662999
 20
-36.95755329129997
 30
0.0
 11
234.585496796
 21
-37.04393967189998
 31
0.0
  0
LINE
  5
E50
  8
3
 10
238.5000000000001
 20
-38.15265626839999
 30
0.0
 11
238.5000000000001
 21
-38.07461671710001
 31
0.0
  0
LINE
  5
E51
  8
3
 10
233.5000000000001
 20
-38.07461671710001
 30
0.0
 11
233.5000000000001
 21
-38.15265626839999
 31
0.0
  0
LINE
  5
E52
  8
3
 10
234.585496796
 20
-39.18333331359997
 30
0.0
 11
234.8372783662999
 21
-39.26971969419998
 31
0.0
  0
LINE
  5
E53
  8
3
 10
237.1627216338
 20
-39.26971969419998
 30
0.0
 11
237.4145032041
 21
-39.18333331359997
 31
0.0
  0
LINE
  5
E54
  8
3
 10
237.4145032041
 20
-37.66167301249999
 30
0.0
 11
237.1627216338
 21
-37.57528663189998
 31
0.0
  0
LINE
  5
E55
  8
3
 10
234.8372783662999
 20
-37.57528663189998
 30
0.0
 11
234.585496796
 21
-37.66167301249999
 31
0.0
  0
LINE
  5
E56
  8
3
 10
238.5000000000001
 20
-38.77038960900001
 30
0.0
 11
238.5000000000001
 21
-38.69235005769997
 31
0.0
  0
LINE
  5
E57
  8
3
 10
233.5000000000001
 20
-38.69235005769997
 30
0.0
 11
233.5000000000001
 21
-38.77038960900001
 31
0.0
  0
LINE
  5
E58
  8
3
 10
234.585496796
 20
-39.80106665419999
 30
0.0
 11
234.8372783662999
 21
-39.88745303479999
 31
0.0
  0
LINE
  5
E59
  8
3
 10
237.1627216338
 20
-39.88745303479999
 30
0.0
 11
237.4145032041
 21
-39.80106665419999
 31
0.0
  0
LINE
  5
E5A
  8
3
 10
237.4145032041
 20
-38.2794063531
 30
0.0
 11
237.1627216338
 21
-38.1930199725
 31
0.0
  0
LINE
  5
E5B
  8
3
 10
234.8372783662999
 20
-38.1930199725
 30
0.0
 11
234.585496796
 21
-38.2794063531
 31
0.0
  0
LINE
  5
E5C
  8
3
 10
238.5000000000001
 20
-39.38812294960002
 30
0.0
 11
238.5000000000001
 21
-39.31008339829998
 31
0.0
  0
LINE
  5
E5D
  8
3
 10
233.5000000000001
 20
-39.31008339829998
 30
0.0
 11
233.5000000000001
 21
-39.38812294960002
 31
0.0
  0
LINE
  5
E5E
  8
3
 10
234.585496796
 20
-40.4187999948
 30
0.0
 11
234.8372783662999
 21
-40.5051863754
 31
0.0
  0
LINE
  5
E5F
  8
3
 10
237.1627216338
 20
-40.5051863754
 30
0.0
 11
237.4145032041
 21
-40.4187999948
 31
0.0
  0
LINE
  5
E60
  8
3
 10
237.2765060407001
 20
-38.84979279909999
 30
0.0
 11
237.1627216338
 21
-38.81075331310001
 31
0.0
  0
LINE
  5
E61
  8
3
 10
234.8372783662999
 20
-38.81075331310001
 30
0.0
 11
234.7234939594001
 21
-38.84979279909999
 31
0.0
  0
LINE
  5
E62
  8
3
 10
234.1083956360999
 20
34.50633923800001
 30
0.0
 11
234.5711309834001
 21
34.17913593600002
 31
0.0
  0
LINE
  5
E63
  8
3
 10
237.4288690167
 20
34.17913593600002
 30
0.0
 11
237.891604364
 21
34.50633923800001
 31
0.0
  0
LINE
  5
E64
  8
3
 10
234.585496796
 20
34.57300630949999
 30
0.0
 11
234.8372783662999
 21
34.48661992889998
 31
0.0
  0
LINE
  5
E65
  8
3
 10
237.1627216338
 20
34.48661992889998
 30
0.0
 11
237.4145032041
 21
34.57300630949999
 31
0.0
  0
LINE
  5
E66
  8
3
 10
237.3108103554001
 20
36.130243678
 30
0.0
 11
237.1627216338
 21
36.18105299120003
 31
0.0
  0
LINE
  5
E67
  8
3
 10
234.8372783662999
 20
36.18105299120003
 30
0.0
 11
234.6891896446
 21
36.130243678
 31
0.0
  0
LINE
  5
E68
  8
3
 10
233.5000000000001
 20
35.681722906
 30
0.0
 11
233.5000000000001
 21
35.60368335470002
 31
0.0
  0
LINE
  5
E69
  8
3
 10
238.5000000000001
 20
35.60368335470002
 30
0.0
 11
238.5000000000001
 21
35.681722906
 31
0.0
  0
LINE
  5
E6A
  8
3
 10
237.4145032041
 20
36.71239995119998
 30
0.0
 11
237.1627216338
 21
36.79878633179999
 31
0.0
  0
LINE
  5
E6B
  8
3
 10
234.8372783662999
 20
36.79878633179999
 30
0.0
 11
234.585496796
 21
36.71239995119998
 31
0.0
  0
LINE
  5
E6C
  8
3
 10
234.585496796
 20
35.1907396501
 30
0.0
 11
234.8372783662999
 21
35.1043532695
 31
0.0
  0
LINE
  5
E6D
  8
3
 10
237.1627216337
 20
35.1043532695
 30
0.0
 11
237.4145032041
 21
35.1907396501
 31
0.0
  0
LINE
  5
E6E
  8
3
 10
233.5000000000001
 20
36.29945624660002
 30
0.0
 11
233.5000000000001
 21
36.22141669530004
 31
0.0
  0
LINE
  5
E6F
  8
3
 10
238.5000000000001
 20
36.22141669530004
 30
0.0
 11
238.5000000000001
 21
36.29945624660002
 31
0.0
  0
LINE
  5
E70
  8
3
 10
237.4145032041
 20
37.3301332918
 30
0.0
 11
237.1627216337
 21
37.4165196724
 31
0.0
  0
LINE
  5
E71
  8
3
 10
234.8372783662999
 20
37.4165196724
 30
0.0
 11
234.585496796
 21
37.3301332918
 31
0.0
  0
LINE
  5
E72
  8
3
 10
234.585496796
 20
35.80847299070001
 30
0.0
 11
234.8372783662999
 21
35.72208661010001
 31
0.0
  0
LINE
  5
E73
  8
3
 10
237.1627216338
 20
35.72208661010001
 30
0.0
 11
237.4145032041
 21
35.80847299070001
 31
0.0
  0
LINE
  5
E74
  8
3
 10
233.5000000000001
 20
36.91718958730002
 30
0.0
 11
233.5000000000001
 21
36.83915003589999
 31
0.0
  0
LINE
  5
E75
  8
3
 10
238.5000000000001
 20
36.83915003589999
 30
0.0
 11
238.5000000000001
 21
36.91718958730002
 31
0.0
  0
LINE
  5
E76
  8
3
 10
237.4145032041
 20
37.94786663240001
 30
0.0
 11
237.1627216338
 21
38.03425301300001
 31
0.0
  0
LINE
  5
E77
  8
3
 10
234.8372783662999
 20
38.03425301300001
 30
0.0
 11
234.585496796
 21
37.94786663240001
 31
0.0
  0
LINE
  5
E78
  8
3
 10
234.585496796
 20
36.42620633130002
 30
0.0
 11
234.8372783662999
 21
36.33981995070002
 31
0.0
  0
LINE
  5
E79
  8
3
 10
237.1627216338
 20
36.33981995070002
 30
0.0
 11
237.4145032041
 21
36.42620633130002
 31
0.0
  0
LINE
  5
E7A
  8
3
 10
233.5000000000001
 20
37.53492292790003
 30
0.0
 11
233.5000000000001
 21
37.4568833765
 31
0.0
  0
LINE
  5
E7B
  8
3
 10
238.5000000000001
 20
37.4568833765
 30
0.0
 11
238.5000000000001
 21
37.53492292790003
 31
0.0
  0
LINE
  5
E7C
  8
3
 10
237.4145032041
 20
38.56559997300002
 30
0.0
 11
237.1627216338
 21
38.65198635360002
 31
0.0
  0
LINE
  5
E7D
  8
3
 10
234.8372783662999
 20
38.65198635360002
 30
0.0
 11
234.585496796
 21
38.56559997300002
 31
0.0
  0
LINE
  5
E7E
  8
3
 10
234.585496796
 20
37.04393967190003
 30
0.0
 11
234.8372783662999
 21
36.95755329140002
 31
0.0
  0
LINE
  5
E7F
  8
3
 10
237.1627216338
 20
36.95755329140002
 30
0.0
 11
237.4145032041
 21
37.04393967190003
 31
0.0
  0
LINE
  5
E80
  8
3
 10
233.5000000000001
 20
38.15265626849998
 30
0.0
 11
233.5000000000001
 21
38.07461671710001
 31
0.0
  0
LINE
  5
E81
  8
3
 10
238.5000000000001
 20
38.07461671710001
 30
0.0
 11
238.5000000000001
 21
38.15265626849998
 31
0.0
  0
LINE
  5
E82
  8
3
 10
237.4145032041
 20
39.18333331360003
 30
0.0
 11
237.1627216338
 21
39.26971969420003
 31
0.0
  0
LINE
  5
E83
  8
3
 10
234.8372783662999
 20
39.26971969420003
 30
0.0
 11
234.585496796
 21
39.18333331360003
 31
0.0
  0
LINE
  5
E84
  8
3
 10
234.585496796
 20
37.66167301249999
 30
0.0
 11
234.8372783662999
 21
37.57528663200003
 31
0.0
  0
LINE
  5
E85
  8
3
 10
237.1627216338
 20
37.57528663200003
 30
0.0
 11
237.4145032041
 21
37.66167301249999
 31
0.0
  0
LINE
  5
E86
  8
3
 10
233.5000000000001
 20
38.77038960909999
 30
0.0
 11
233.5000000000001
 21
38.69235005770003
 31
0.0
  0
LINE
  5
E87
  8
3
 10
238.5000000000001
 20
38.69235005770003
 30
0.0
 11
238.5000000000001
 21
38.77038960909999
 31
0.0
  0
LINE
  5
E88
  8
3
 10
237.4145032041
 20
39.80106665419999
 30
0.0
 11
237.1627216338
 21
39.88745303479999
 31
0.0
  0
LINE
  5
E89
  8
3
 10
234.8372783662999
 20
39.88745303479999
 30
0.0
 11
234.585496796
 21
39.80106665419999
 31
0.0
  0
LINE
  5
E8A
  8
3
 10
234.585496796
 20
38.2794063531
 30
0.0
 11
234.8372783662999
 21
38.19301997259998
 31
0.0
  0
LINE
  5
E8B
  8
3
 10
237.1627216338
 20
38.19301997259998
 30
0.0
 11
237.4145032041
 21
38.2794063531
 31
0.0
  0
LINE
  5
E8C
  8
3
 10
233.5000000000001
 20
39.3881229497
 30
0.0
 11
233.5000000000001
 21
39.31008339830004
 31
0.0
  0
LINE
  5
E8D
  8
3
 10
238.5000000000001
 20
39.31008339830004
 30
0.0
 11
238.5000000000001
 21
39.3881229497
 31
0.0
  0
LINE
  5
E8E
  8
3
 10
237.4145032041
 20
40.4187999948
 30
0.0
 11
237.1627216338
 21
40.5051863754
 31
0.0
  0
LINE
  5
E8F
  8
3
 10
234.8372783662999
 20
40.5051863754
 30
0.0
 11
234.585496796
 21
40.4187999948
 31
0.0
  0
LINE
  5
E90
  8
3
 10
234.7234939594001
 20
38.84979279909999
 30
0.0
 11
234.8372783662999
 21
38.8107533132
 31
0.0
  0
LINE
  5
E91
  8
3
 10
237.1627216338
 20
38.8107533132
 30
0.0
 11
237.2765060407001
 21
38.84979279909999
 31
0.0
  0
ARC
  5
EAA
  8
SK1
 10
254.2000000000001
 20
-19.25
 30
0.0
 40
0.3999999999999675
 50
75.00000000000429
 51
120.0000000000096
  0
ARC
  5
EAB
  8
SK1
 10
254.2000000000001
 20
19.25
 30
0.0
 40
0.3999999999999675
 50
239.9999999999904
 51
284.9999999999957
  0
LINE
  5
EAC
  8
SK1
 10
254.9990711606
 20
19.05000000000001
 30
0.0
 11
254.3035276181
 21
18.86362966950003
 31
0.0
  0
LINE
  5
EAD
  8
SK1
 10
254.3035276181
 20
-18.86362966949997
 30
0.0
 11
254.9990711606
 21
-19.05000000000001
 31
0.0
  0
LINE
  5
EAE
  8
SK1
 10
254.9990711606
 20
-19.05000000000001
 30
0.0
 11
275.6
 21
-19.05000000000001
 31
0.0
  0
LINE
  5
EAF
  8
SK1
 10
275.6
 20
19.05000000000001
 30
0.0
 11
254.9990711606
 21
19.05000000000001
 31
0.0
  0
ARC
  5
EB0
  8
SK1
 10
275.6
 20
-17.05000000000001
 30
0.0
 40
2.0
 50
270.0
 51
0.0
  0
ARC
  5
EB1
  8
SK1
 10
275.6
 20
17.05000000000001
 30
0.0
 40
2.0
 50
0.0
 51
90.0
  0
LINE
  5
EB2
  8
SK1
 10
291.338
 20
23.8125
 30
0.0
 11
280.1620000000001
 21
23.8125
 31
0.0
  0
LINE
  5
EB3
  8
SK1
 10
280.1620000000001
 20
-23.8125
 30
0.0
 11
291.338
 21
-23.8125
 31
0.0
  0
LINE
  5
EB4
  8
SK1
 10
280.1620000000001
 20
23.8125
 30
0.0
 11
279.3999999999999
 21
23.0505
 31
0.0
  0
LINE
  5
EB5
  8
SK1
 10
279.3999999999999
 20
-23.0505
 30
0.0
 11
280.1620000000001
 21
-23.8125
 31
0.0
  0
LINE
  5
EB6
  8
SK1
 10
291.338
 20
-23.8125
 30
0.0
 11
292.1
 21
-23.0505
 31
0.0
  0
LINE
  5
EB7
  8
SK1
 10
292.1
 20
23.0505
 30
0.0
 11
291.338
 21
23.8125
 31
0.0
  0
ARC
  5
EB8
  8
SK1
 10
278.6126
 20
10.31240000000003
 30
0.0
 40
0.787399999999991
 50
270.0
 51
0.0
  0
ARC
  5
EB9
  8
SK1
 10
278.6126
 20
-10.31239999999997
 30
0.0
 40
0.787399999999991
 50
0.0
 51
90.0
  0
LINE
  5
EBA
  8
SK1
 10
278.6126
 20
9.525000000000034
 30
0.0
 11
277.6
 21
9.525000000000034
 31
0.0
  0
LINE
  5
EBB
  8
SK1
 10
277.6
 20
-9.524999999999977
 30
0.0
 11
278.6126
 21
-9.524999999999977
 31
0.0
  0
LINE
  5
EBC
  8
SK1
 10
254.0285674555001
 20
-25.39868999999999
 30
0.0
 11
254.0000000000001
 21
-25.39868999999999
 31
0.0
  0
LINE
  5
EBF
  8
SK1
 10
254.0000000000001
 20
25.39868999999999
 30
0.0
 11
254.0285674555001
 21
25.39868999999999
 31
0.0
  0
LINE
  5
EE7
  8
SK1
 10
254.9990711606
 20
0.0
 30
0.0
 11
254.9990711606
 21
19.05000000000001
 31
0.0
  0
LINE
  5
EE8
  8
SK1
 10
254.9990711606
 20
-19.05000000000001
 30
0.0
 11
254.9990711606
 21
0.0
 31
0.0
  0
LINE
  5
EE9
  8
SK1
 10
277.6
 20
0.0
 30
0.0
 11
277.6
 21
17.05000000000001
 31
0.0
  0
LINE
  5
EEA
  8
SK1
 10
277.6
 20
-17.05000000000001
 30
0.0
 11
277.6
 21
0.0
 31
0.0
  0
LINE
  5
EEB
  8
SK1
 10
291.338
 20
0.0
 30
0.0
 11
291.338
 21
-23.8125
 31
0.0
  0
LINE
  5
EEC
  8
SK1
 10
291.338
 20
23.8125
 30
0.0
 11
291.338
 21
0.0
 31
0.0
  0
LINE
  5
EED
  8
SK1
 10
280.1620000000001
 20
0.0
 30
0.0
 11
280.1620000000001
 21
-23.8125
 31
0.0
  0
LINE
  5
EEE
  8
SK1
 10
280.1620000000001
 20
23.8125
 30
0.0
 11
280.1620000000001
 21
0.0
 31
0.0
  0
LINE
  5
EEF
  8
SK1
 10
279.3999999999999
 20
0.0
 30
0.0
 11
279.3999999999999
 21
-23.0505
 31
0.0
  0
LINE
  5
EF0
  8
SK1
 10
279.3999999999999
 20
23.0505
 30
0.0
 11
279.3999999999999
 21
0.0
 31
0.0
  0
LINE
  5
EF1
  8
SK1
 10
292.1
 20
0.0
 30
0.0
 11
292.1
 21
-23.0505
 31
0.0
  0
LINE
  5
EF2
  8
SK1
 10
292.1
 20
23.0505
 30
0.0
 11
292.1
 21
0.0
 31
0.0
  0
LINE
  5
EF3
  8
SK1
 10
262.0772
 20
-25.40249999999997
 30
0.0
 11
254.0000000000001
 21
-25.40249999999997
 31
0.0
  0
LINE
  5
EF4
  8
SK1
 10
262.0772
 20
-25.40249999999997
 30
0.0
 11
262.0772
 21
-41.27749999999997
 31
0.0
  0
LINE
  5
EF5
  8
SK1
 10
262.0772
 20
-41.27749999999997
 30
0.0
 11
254.0000000000001
 21
-41.27749999999997
 31
0.0
  0
LINE
  5
EF6
  8
SK1
 10
262.0772
 20
41.27750000000003
 30
0.0
 11
254.0000000000001
 21
41.27750000000003
 31
0.0
  0
LINE
  5
EF7
  8
SK1
 10
262.0772
 20
41.27750000000003
 30
0.0
 11
262.0772
 21
25.40250000000003
 31
0.0
  0
LINE
  5
EF8
  8
SK1
 10
262.0772
 20
25.40250000000003
 30
0.0
 11
254.0000000000001
 21
25.40250000000003
 31
0.0
  0
LINE
  5
F17
  8
SK3
 10
-5.25
 20
0.0
 30
0.0
 11
-5.25
 21
11.09979999999999
 31
0.0
  0
LINE
  5
F18
  8
SK3
 10
-5.25
 20
-11.09980000000002
 30
0.0
 11
-5.25
 21
0.0
 31
0.0
  0
LINE
  5
F19
  8
SK3
 10
-4.761656058700055
 20
0.0
 30
0.0
 11
-4.761656058700055
 21
-8.731249999999989
 31
0.0
  0
LINE
  5
F1A
  8
SK3
 10
-4.761656058700055
 20
8.731249999999989
 30
0.0
 11
-4.761656058700055
 21
0.0
 31
0.0
  0
LINE
  5
F1B
  8
SK3
 10
276.7339746742001
 20
-10.0
 30
0.0
 11
276.7339746742001
 21
10.0
 31
0.0
  0
LINE
  5
F1C
  8
SK3
 10
274.6
 20
10.0
 30
0.0
 11
274.6
 21
-10.0
 31
0.0
  0
LINE
  5
F1D
  8
SK3
 10
274.5364352120999
 20
8.731249999999989
 30
0.0
 11
274.5364352120999
 21
-8.731249999999989
 31
0.0
  0
LINE
  5
F3A
  8
SK3
 10
282.5750000000001
 20
0.0
 30
0.0
 11
292.1
 21
0.0
 31
0.0
  0
LINE
  5
F3B
  8
SK3
 10
282.5750000000001
 20
2.400300000000016
 30
0.0
 11
282.5750000000001
 21
0.0
 31
0.0
  0
LINE
  5
F3C
  8
SK3
 10
282.5750000000001
 20
0.0
 30
0.0
 11
282.5750000000001
 21
-2.400300000000016
 31
0.0
  0
LINE
  5
F3D
  8
SK3
 10
281.9399999999999
 20
0.0
 30
0.0
 11
281.9399999999999
 21
-4.800599999999974
 31
0.0
  0
LINE
  5
F3E
  8
SK3
 10
281.9399999999999
 20
4.800600000000031
 30
0.0
 11
281.9399999999999
 21
0.0
 31
0.0
  0
LINE
  5
F3F
  8
SK3
 10
282.5750000000001
 20
4.800600000000031
 30
0.0
 11
282.5750000000001
 21
2.400300000000016
 31
0.0
  0
LINE
  5
F40
  8
SK3
 10
282.5750000000001
 20
-2.400300000000016
 30
0.0
 11
282.5750000000001
 21
-4.800599999999974
 31
0.0
  0
LINE
  5
F41
  8
SK3
 10
282.5750000000001
 20
4.800600000000031
 30
0.0
 11
292.1
 21
4.800600000000031
 31
0.0
  0
LINE
  5
F42
  8
SK3
 10
282.5750000000001
 20
-4.800599999999974
 30
0.0
 11
292.1
 21
-4.800599999999974
 31
0.0
  0
LINE
  5
FA0
  8
SK3
 10
277.6
 20
2.5
 30
0.0
 11
254.0000000000001
 21
2.5
 31
0.0
  0
LINE
  5
FA1
  8
SK3
 10
254.0000000000001
 20
-2.5
 30
0.0
 11
277.6
 21
-2.5
 31
0.0
  0
LINE
  5
FAC
  8
SK3
 10
-5.25
 20
-10.84649999999999
 30
0.0
 11
-4.761656058700055
 21
-8.731249999999989
 31
0.0
  0
LINE
  5
FAD
  8
SK3
 10
-4.761656058700055
 20
8.731249999999989
 30
0.0
 11
-5.25
 21
10.84649999999999
 31
0.0
  0
LINE
  5
FAE
  8
SK3
 10
277.6
 20
10.49999995500002
 30
0.0
 11
276.7339746742001
 21
10.0
 31
0.0
  0
LINE
  5
FAF
  8
SK3
 10
276.7339746742001
 20
-10.0
 30
0.0
 11
277.6
 21
-10.49999995499996
 31
0.0
  0
LINE
  5
FB0
  8
SK3
 10
276.7339746742001
 20
10.0
 30
0.0
 11
274.6
 21
10.0
 31
0.0
  0
LINE
  5
FB1
  8
SK3
 10
274.6
 20
-10.0
 30
0.0
 11
276.7339746742001
 21
-10.0
 31
0.0
  0
LINE
  5
FB2
  8
SK3
 10
274.6
 20
8.767949147500019
 30
0.0
 11
274.5364352120999
 21
8.731249999999989
 31
0.0
  0
LINE
  5
FB3
  8
SK3
 10
274.5364352120999
 20
-8.731249999999989
 30
0.0
 11
274.6
 21
-8.767949147399975
 31
0.0
  0
LINE
  5
FB4
  8
SK3
 10
274.5364352120999
 20
8.731249999999989
 30
0.0
 11
254.0000000000001
 21
8.731249999999989
 31
0.0
  0
LINE
  5
FB5
  8
SK3
 10
254.0000000000001
 20
-8.731249999999989
 30
0.0
 11
274.5364352120999
 21
-8.731249999999989
 31
0.0
  0
LINE
  5
FCA
  8
SK3
 10
277.6
 20
14.62435565300001
 30
0.0
 11
254.0000000000001
 21
14.62435565300001
 31
0.0
  0
LINE
  5
FCB
  8
SK3
 10
254.0000000000001
 20
9.62435565300001
 30
0.0
 11
277.6
 21
9.62435565300001
 31
0.0
  0
LINE
  5
FCC
  8
SK3
 10
277.6
 20
-9.62435565300001
 30
0.0
 11
254.0000000000001
 21
-9.62435565300001
 31
0.0
  0
LINE
  5
FCD
  8
SK3
 10
254.0000000000001
 20
-14.62435565300001
 30
0.0
 11
277.6
 21
-14.62435565300001
 31
0.0
  0
LINE
  5
FD6
  8
SK3
 10
277.6
 20
9.525000000000034
 30
0.0
 11
254.0000000000001
 21
9.525000000000034
 31
0.0
  0
LINE
  5
FD7
  8
SK3
 10
254.0000000000001
 20
-9.524999999999977
 30
0.0
 11
277.6
 21
-9.524999999999977
 31
0.0
  0
LINE
  5
FDA
  8
SK3
 10
282.5750000000001
 20
4.800600000000031
 30
0.0
 11
281.9399999999999
 21
4.800600000000031
 31
0.0
  0
LINE
  5
FDB
  8
SK3
 10
281.9399999999999
 20
-4.800599999999974
 30
0.0
 11
282.5750000000001
 21
-4.800599999999974
 31
0.0
  0
LINE
  5
FDC
  8
SK3
 10
281.9399999999999
 20
4.800600000000031
 30
0.0
 11
279.0555085122999
 21
0.0
 31
0.0
  0
LINE
  5
FDD
  8
SK3
 10
279.0555085122999
 20
0.0
 30
0.0
 11
281.9399999999999
 21
-4.800599999999974
 31
0.0
  0
LINE
  5
1053
  8
SK3
 10
-4.761656058700055
 20
8.731249999999989
 30
0.0
 11
0.0000000000000284
 21
8.731249999999989
 31
0.0
  0
LINE
  5
1054
  8
SK3
 10
-4.761656058700055
 20
-8.731249999999989
 30
0.0
 11
0.0
 21
-8.731249999999989
 31
0.0
  0
ARC
  5
1055
  8
1
 10
39.17157287529994
 20
36.92500000000001
 30
0.0
 40
2.000000000000177
 50
270.0
 51
315.0000000000023
  0
LINE
  5
1058
  8
NOCUT
 10
51.125
 20
46.05000000000001
 30
0.0
 11
40.58578643769988
 21
35.51078643760002
 31
0.0
  0
LINE
  5
1059
  8
NOCUT
 10
253.0000000000001
 20
46.05000000000001
 30
0.0
 11
51.12499999999997
 21
46.05000000000001
 31
0.0
  0
ARC
  5
105A
  8
NOCUT
 10
39.17157287529994
 20
36.92500000000001
 30
0.0
 40
2.000000000000177
 50
270.0
 51
315.0000000000023
  0
ARC
  5
105B
  8
NOCUT
 10
253.0000000000001
 20
45.05000000000001
 30
0.0
 40
1.000000000000227
 50
0.0
 51
90.0
  0
LINE
  5
105C
  8
NOCUT
 10
254.0000000000001
 20
0.0
 30
0.0
 11
254.0000000000001
 21
45.05000000000001
 31
0.0
  0
LINE
  5
1A17
  8
SK4
 10
254.0000000000001
 20
0.0
 30
0.0
 11
292.1
 21
0.0
 31
0.0
  0
DIMENSION
  5
1A19
  8
SK2
  2
*D10
 10
333.622031544954
 20
-46.05000000000002
 30
0.0
 11
331.747031544954
 21
-0.0000000000000071
 31
0.0
 70
    32
  3
ISO-25
 13
253.0000000000001
 23
46.05000000000001
 33
0.0
 14
253.0000000000001
 24
-46.05000000000001
 34
0.0
 50
90.0
1001
ACAD
1000
DSTYLE
1002
{
1070
   287
1070
     5
1070
   271
1070
     3
1070
   272
1070
     3
1070
   279
1070
     2
1002
}
  0
DIMENSION
  5
1A28
  8
SK2
  2
*D11
 10
311.4885181504587
 20
-19.05000000000001
 30
0.0
 11
309.6135181504587
 21
-0.0000000000000036
 31
0.0
 70
    32
  3
ISO-25
 13
275.6
 23
19.05000000000001
 33
0.0
 14
275.6
 24
-19.05000000000001
 34
0.0
 50
90.0
1001
ACAD
1000
DSTYLE
1002
{
1070
   287
1070
     5
1070
   271
1070
     3
1070
   272
1070
     3
1070
   279
1070
     2
1002
}
  0
ENDSEC
  0
EOF
