  0
SECTION
  2
HEADER
  9
$ACADVER
  1
AC1009
  9
$DWGCODEPAGE
  3
ansi_1251
  9
$INSBASE
 10
0.0
 20
0.0
 30
0.0
  9
$EXTMIN
 10
-68.25000000000001
 20
-30.5409271246
 30
0.0
  9
$EXTMAX
 10
88.90000000000003
 20
30.50275418977125
 30
0.0
  9
$LIMMIN
 10
0.0
 20
0.0
  9
$LIMMAX
 10
420.0
 20
297.0
  9
$ORTHOMODE
 70
     1
  9
$REGENMODE
 70
     1
  9
$FILLMODE
 70
     1
  9
$QTEXTMODE
 70
     0
  9
$MIRRTEXT
 70
     0
  9
$DRAGMODE
 70
     2
  9
$LTSCALE
 40
1.0
  9
$OSMODE
 70
   279
  9
$ATTMODE
 70
     1
  9
$TEXTSIZE
 40
2.5
  9
$TRACEWID
 40
1.0
  9
$TEXTSTYLE
  7
STANDARD
  9
$CLAYER
  8
0
  9
$CELTYPE
  6
BYLAYER
  9
$CECOLOR
 62
   256
  9
$DIMSCALE
 40
1.0
  9
$DIMASZ
 40
2.5
  9
$DIMEXO
 40
0.625
  9
$DIMDLI
 40
3.75
  9
$DIMRND
 40
0.0
  9
$DIMDLE
 40
0.0
  9
$DIMEXE
 40
1.25
  9
$DIMTP
 40
0.0
  9
$DIMTM
 40
0.0
  9
$DIMTXT
 40
2.5
  9
$DIMCEN
 40
2.5
  9
$DIMTSZ
 40
0.0
  9
$DIMTOL
 70
     0
  9
$DIMLIM
 70
     0
  9
$DIMTIH
 70
     0
  9
$DIMTOH
 70
     0
  9
$DIMSE1
 70
     0
  9
$DIMSE2
 70
     0
  9
$DIMTAD
 70
     1
  9
$DIMZIN
 70
     8
  9
$DIMBLK
  1

  9
$DIMASO
 70
     1
  9
$DIMSHO
 70
     1
  9
$DIMPOST
  1

  9
$DIMAPOST
  1

  9
$DIMALT
 70
     0
  9
$DIMALTD
 70
     3
  9
$DIMALTF
 40
0.03937007874016
  9
$DIMLFAC
 40
1.0
  9
$DIMTOFL
 70
     1
  9
$DIMTVP
 40
0.0
  9
$DIMTIX
 70
     0
  9
$DIMSOXD
 70
     0
  9
$DIMSAH
 70
     0
  9
$DIMBLK1
  1

  9
$DIMBLK2
  1

  9
$DIMSTYLE
  2
ISO-25
  9
$DIMCLRD
 70
     0
  9
$DIMCLRE
 70
     0
  9
$DIMCLRT
 70
     0
  9
$DIMTFAC
 40
1.0
  9
$DIMGAP
 40
0.625
  9
$LUNITS
 70
     2
  9
$LUPREC
 70
     3
  9
$SKETCHINC
 40
1.0
  9
$FILLETRAD
 40
10.0
  9
$AUNITS
 70
     0
  9
$AUPREC
 70
     0
  9
$MENU
  1
.
  9
$ELEVATION
 40
0.0
  9
$PELEVATION
 40
0.0
  9
$THICKNESS
 40
0.0
  9
$LIMCHECK
 70
     0
  9
$CHAMFERA
 40
10.0
  9
$CHAMFERB
 40
10.0
  9
$SKPOLY
 70
     0
  9
$TDCREATE
 40
2455022.429026158
  9
$TDUPDATE
 40
2458659.538982558
  9
$TDINDWG
 40
0.1506771181
  9
$TDUSRTIMER
 40
2458702.67764213
  9
$USRTIMER
 70
     1
  9
$ANGBASE
 50
0.0
  9
$ANGDIR
 70
     0
  9
$PDMODE
 70
     0
  9
$PDSIZE
 40
0.0
  9
$PLINEWID
 40
0.0
  9
$COORDS
 70
     1
  9
$SPLFRAME
 70
     0
  9
$SPLINETYPE
 70
     6
  9
$SPLINESEGS
 70
     8
  9
$ATTDIA
 70
     0
  9
$ATTREQ
 70
     1
  9
$HANDLING
 70
     1
  9
$HANDSEED
  5
37EC
  9
$SURFTAB1
 70
     6
  9
$SURFTAB2
 70
     6
  9
$SURFTYPE
 70
     6
  9
$SURFU
 70
     6
  9
$SURFV
 70
     6
  9
$UCSNAME
  2

  9
$UCSORG
 10
0.0
 20
0.0
 30
0.0
  9
$UCSXDIR
 10
1.0
 20
0.0
 30
0.0
  9
$UCSYDIR
 10
0.0
 20
1.0
 30
0.0
  9
$PUCSNAME
  2

  9
$PUCSORG
 10
0.0
 20
0.0
 30
0.0
  9
$PUCSXDIR
 10
1.0
 20
0.0
 30
0.0
  9
$PUCSYDIR
 10
0.0
 20
1.0
 30
0.0
  9
$USERI1
 70
     0
  9
$USERI2
 70
     0
  9
$USERI3
 70
     0
  9
$USERI4
 70
     0
  9
$USERI5
 70
     0
  9
$USERR1
 40
0.0
  9
$USERR2
 40
0.0
  9
$USERR3
 40
0.0
  9
$USERR4
 40
0.0
  9
$USERR5
 40
0.0
  9
$WORLDVIEW
 70
     1
  9
$SHADEDGE
 70
     3
  9
$SHADEDIF
 70
    70
  9
$TILEMODE
 70
     1
  9
$MAXACTVP
 70
    64
  9
$PLIMCHECK
 70
     0
  9
$PEXTMIN
 10
1.000000000000000E+20
 20
1.000000000000000E+20
 30
1.000000000000000E+20
  9
$PEXTMAX
 10
-1.000000000000000E+20
 20
-1.000000000000000E+20
 30
-1.000000000000000E+20
  9
$PLIMMIN
 10
0.0
 20
0.0
  9
$PLIMMAX
 10
420.0
 20
297.0
  9
$UNITMODE
 70
     0
  9
$VISRETAIN
 70
     1
  9
$PLINEGEN
 70
     0
  9
$PSLTSCALE
 70
     1
  0
ENDSEC
  0
SECTION
  2
TABLES
  0
TABLE
  2
VPORT
 70
     1
  0
VPORT
  2
*ACTIVE
 70
     0
 10
0.0
 20
0.0
 11
1.0
 21
1.0
 12
83.99891580261763
 22
-2.020325411445
 13
0.0
 23
0.0
 14
10.0
 24
10.0
 15
10.0
 25
10.0
 16
0.0
 26
0.0
 36
1.0
 17
0.0
 27
0.0
 37
0.0
 40
284.0628299109911
 41
1.332880434782609
 42
50.0
 43
0.0
 44
0.0
 50
0.0
 51
0.0
 71
    16
 72
  1000
 73
     1
 74
     3
 75
     0
 76
     0
 77
     0
 78
     0
  0
ENDTAB
  0
TABLE
  2
LTYPE
 70
     6
  0
LTYPE
  2
CONTINUOUS
 70
     0
  3
Solid line
 72
    65
 73
     0
 40
0.0
  0
LTYPE
  2
CENTER
 70
     0
  3
 Center _____  _  _____  _  _____  _  _____  _ 
 72
    65
 73
     4
 40
50.8
 49
31.75
 49
-6.35
 49
6.35
 49
-6.35
  0
LTYPE
  2
DASHED
 70
     0
  3
Dashed __  __  __  __  __  __  __  __  __  __  
 72
    65
 73
     2
 40
19.05
 49
12.7
 49
-6.35
  0
LTYPE
  2
HIDDEN
 70
     0
  3
Hidden __ __ __ __ __ __ __ __ __ __ __ __ __ __
 72
    65
 73
     2
 40
1.905
 49
1.27
 49
-0.635
  0
LTYPE
  2
CENTERX2
 70
     0
  3
Center (2x) ________  __  ________  __  _____
 72
    65
 73
     4
 40
20.32
 49
12.7
 49
-2.54
 49
2.54
 49
-2.54
  0
LTYPE
  2
PHANTOM
 70
     0
  3
Phantom ______  __  __  ______  __  __  ______
 72
    65
 73
     6
 40
12.7
 49
6.35
 49
-1.27
 49
1.27
 49
-1.27
 49
1.27
 49
-1.27
  0
ENDTAB
  0
TABLE
  2
LAYER
 70
    26
  0
LAYER
  2
0
 70
     0
 62
     7
  6
CONTINUOUS
  0
LAYER
  2
1
 70
     0
 62
     4
  6
CONTINUOUS
  0
LAYER
  2
2
 70
     0
 62
     7
  6
CONTINUOUS
  0
LAYER
  2
3
 70
     0
 62
     1
  6
DASHED
  0
LAYER
  2
4
 70
     0
 62
     2
  6
CENTER
  0
LAYER
  2
6
 70
     0
 62
     5
  6
CONTINUOUS
  0
LAYER
  2
7
 70
     0
 62
     5
  6
CONTINUOUS
  0
LAYER
  2
11
 70
     0
 62
     4
  6
CONTINUOUS
  0
LAYER
  2
SK1
 70
     0
 62
     4
  6
CONTINUOUS
  0
LAYER
  2
SK2
 70
     0
 62
     7
  6
CONTINUOUS
  0
LAYER
  2
SK3
 70
     0
 62
     1
  6
DASHED
  0
LAYER
  2
SK4
 70
     0
 62
     2
  6
CENTER
  0
LAYER
  2
SK6
 70
     0
 62
     5
  6
CONTINUOUS
  0
LAYER
  2
SK7
 70
     0
 62
     5
  6
CONTINUOUS
  0
LAYER
  2
SK11
 70
     0
 62
     4
  6
CONTINUOUS
  0
LAYER
  2
CUT
 70
     0
 62
     1
  6
CONTINUOUS
  0
LAYER
  2
NOCUT
 70
     0
 62
    -7
  6
CONTINUOUS
  0
LAYER
  2
SKVIEW1
 70
     0
 62
     4
  6
CONTINUOUS
  0
LAYER
  2
SKVIEW2
 70
     0
 62
     7
  6
CONTINUOUS
  0
LAYER
  2
SKVIEW3
 70
     0
 62
     1
  6
DASHED
  0
LAYER
  2
SKVIEW4
 70
     0
 62
     2
  6
CENTER
  0
LAYER
  2
SKVIEW6
 70
     0
 62
     5
  6
CONTINUOUS
  0
LAYER
  2
SKVIEW7
 70
     0
 62
     5
  6
CONTINUOUS
  0
LAYER
  2
SKVIEW11
 70
     0
 62
     4
  6
CONTINUOUS
  0
LAYER
  2
INFTOTAL
 70
     0
 62
     9
  6
CONTINUOUS
  0
LAYER
  2
DEFPOINTS
 70
     0
 62
     7
  6
CONTINUOUS
  0
ENDTAB
  0
TABLE
  2
STYLE
 70
     1
  0
STYLE
  2
STANDARD
 70
     0
 40
0.0
 41
1.0
 50
0.0
 71
     0
 42
2.5
  3
txt
  4

  0
ENDTAB
  0
TABLE
  2
VIEW
 70
     0
  0
ENDTAB
  0
TABLE
  2
UCS
 70
     0
  0
ENDTAB
  0
TABLE
  2
APPID
 70
     2
  0
APPID
  2
ACAD
 70
     0
  0
APPID
  2
ACAECLAYERSTANDARD
 70
     0
  0
ENDTAB
  0
TABLE
  2
DIMSTYLE
 70
     1
  0
DIMSTYLE
  2
ISO-25
 70
     0
  3

  4

  5

  6

  7

 40
1.0
 41
2.5
 42
0.625
 43
3.75
 44
1.25
 45
0.0
 46
0.0
 47
0.0
 48
0.0
140
2.5
141
2.5
142
0.0
143
0.03937007874016
144
1.0
145
0.0
146
1.0
147
0.625
 71
     0
 72
     0
 73
     0
 74
     0
 75
     0
 76
     0
 77
     1
 78
     8
170
     0
171
     3
172
     1
173
     0
174
     0
175
     0
176
     0
177
     0
178
     0
  0
ENDTAB
  0
ENDSEC
  0
SECTION
  2
BLOCKS
  0
BLOCK
  8
0
  2
$MODEL_SPACE
 70
     0
 10
0.0
 20
0.0
 30
0.0
  3
$MODEL_SPACE
  1

  0
ENDBLK
  5
21
  8
0
  0
BLOCK
 67
     1
  8
0
  2
$PAPER_SPACE
 70
     0
 10
0.0
 20
0.0
 30
0.0
  3
$PAPER_SPACE
  1

  0
ENDBLK
  5
1D
 67
     1
  8
0
  0
BLOCK
  8
0
  2
*U2
 70
     1
 10
0.0
 20
0.0
 30
0.0
  3
*U2
  1

  0
TEXT
  5
77E
  8
SK6
 10
-50.0
 20
78.25
 30
0.0
 40
3.5
  1
BIG KAISER
 41
0.85
  0
TEXT
  5
781
  8
SK6
 10
-50.0
 20
73.0
 30
0.0
 40
3.5
  1
BCV50-SMC1.250-8
 41
0.85
  0
ENDBLK
  5
782
  8
0
  0
BLOCK
  8
0
  2
_FILLED
 70
     0
 10
0.0
 20
0.0
 30
0.0
  3
_FILLED
  1

  0
SOLID
  5
789
  8
0
  6
BYBLOCK
 62
     0
 10
0.0
 20
0.0
 30
0.0
 11
-1.0
 21
0.2142857143
 31
0.0
 12
-1.0
 22
-0.2142857143
 32
0.0
 13
-1.0
 23
-0.2142857143
 33
0.0
  0
ENDBLK
  5
78A
  8
0
  6
BYBLOCK
 62
     0
  0
BLOCK
  8
0
  2
*U5
 70
     1
 10
0.0
 20
0.0
 30
0.0
  3
*U5
  1

  0
TEXT
  5
790
  8
SK6
 10
-85.96178542556666
 20
-67.06748653279999
 30
0.0
 40
3.5
  1
BCV50
 41
0.85
  0
ENDBLK
  5
791
  8
0
  0
BLOCK
  8
0
  2
*D8
 70
     1
 10
0.0
 20
0.0
 30
0.0
  3
*D8
  1

  0
LINE
  5
808
  8
SK2
 62
     0
 10
0.0
 20
35.54999999999998
 30
0.0
 11
0.0
 21
63.71215670356074
 31
0.0
  0
LINE
  5
809
  8
SK2
 62
     0
 10
203.2
 20
34.55000000000007
 30
0.0
 11
203.2
 21
63.71215670356074
 31
0.0
  0
LINE
  5
80A
  8
SK2
 62
     0
 10
2.5
 20
62.46215670356074
 30
0.0
 11
200.7
 21
62.46215670356074
 31
0.0
  0
SOLID
  5
80B
  8
SK2
 62
     0
 10
2.5
 20
62.8788233702274
 30
0.0
 11
2.5
 21
62.04549003689407
 31
0.0
 12
0.0
 22
62.46215670356074
 32
0.0
 13
0.0
 23
62.46215670356074
 33
0.0
  0
SOLID
  5
80C
  8
SK2
 62
     0
 10
200.7
 20
62.04549003689407
 30
0.0
 11
200.7
 21
62.8788233702274
 31
0.0
 12
203.2
 22
62.46215670356074
 32
0.0
 13
203.2
 23
62.46215670356074
 33
0.0
  0
TEXT
  5
80D
  8
SK2
  6
CONTINUOUS
 62
     0
 10
96.80833333333332
 20
63.08715670356074
 30
0.0
 40
2.5
  1
203.2
  0
POINT
  5
80E
  8
DEFPOINTS
 62
     0
 10
0.0
 20
34.92499999999998
 30
0.0
  0
POINT
  5
80F
  8
DEFPOINTS
 62
     0
 10
203.2
 20
33.92500000000007
 30
0.0
  0
POINT
  5
810
  8
DEFPOINTS
 62
     0
 10
203.2
 20
62.46215670356074
 30
0.0
  0
ENDBLK
  5
812
  8
0
  0
BLOCK
  8
0
  2
*D10
 70
     1
 10
0.0
 20
0.0
 30
0.0
  3
*D10
  1

  0
LINE
  5
1040
  8
SK2
 62
     0
 10
219.825
 20
15.87500000000011
 30
0.0
 11
252.8029545597058
 21
15.87500000000011
 31
0.0
  0
LINE
  5
1041
  8
SK2
 62
     0
 10
219.825
 20
-15.87499999999989
 30
0.0
 11
252.8029545597058
 21
-15.87499999999989
 31
0.0
  0
LINE
  5
1042
  8
SK2
 62
     0
 10
251.5529545597058
 20
13.37500000000011
 30
0.0
 11
251.5529545597058
 21
-13.37499999999989
 31
0.0
  0
SOLID
  5
1043
  8
SK2
 62
     0
 10
251.9696212263724
 20
13.37500000000011
 30
0.0
 11
251.1362878930391
 21
13.37500000000011
 31
0.0
 12
251.5529545597058
 22
15.87500000000011
 32
0.0
 13
251.5529545597058
 23
15.87500000000011
 33
0.0
  0
SOLID
  5
1044
  8
SK2
 62
     0
 10
251.1362878930391
 20
-13.37499999999989
 30
0.0
 11
251.9696212263724
 21
-13.37499999999989
 31
0.0
 12
251.5529545597058
 22
-15.87499999999989
 32
0.0
 13
251.5529545597058
 23
-15.87499999999989
 33
0.0
  0
TEXT
  5
1045
  8
SK2
  6
CONTINUOUS
 62
     0
 10
250.9279545597058
 20
-4.583333333333229
 30
0.0
 40
2.5
  1
31.75
 50
90.0
  0
POINT
  5
1046
  8
DEFPOINTS
 62
     0
 10
219.2
 20
15.87500000000011
 30
0.0
  0
POINT
  5
1047
  8
DEFPOINTS
 62
     0
 10
219.2
 20
-15.87499999999989
 30
0.0
  0
POINT
  5
1048
  8
DEFPOINTS
 62
     0
 10
251.5529545597058
 20
-15.87499999999989
 30
0.0
  0
ENDBLK
  5
104A
  8
0
  0
BLOCK
  8
0
  2
*D11
 70
     1
 10
0.0
 20
0.0
 30
0.0
  3
*D11
  1

  0
LINE
  5
104F
  8
SK2
 62
     0
 10
202.825
 20
34.92500000000007
 30
0.0
 11
269.5978316052353
 21
34.92500000000006
 31
0.0
  0
LINE
  5
1050
  8
SK2
 62
     0
 10
202.825
 20
-34.9250000000003
 30
0.0
 11
269.5978316052353
 21
-34.9250000000003
 31
0.0
  0
LINE
  5
1051
  8
SK2
 62
     0
 10
268.3478316052353
 20
32.42500000000006
 30
0.0
 11
268.3478316052353
 21
-32.4250000000003
 31
0.0
  0
SOLID
  5
1052
  8
SK2
 62
     0
 10
268.764498271902
 20
32.42500000000006
 30
0.0
 11
267.9311649385686
 21
32.42500000000006
 31
0.0
 12
268.3478316052353
 22
34.92500000000006
 32
0.0
 13
268.3478316052353
 23
34.92500000000006
 33
0.0
  0
SOLID
  5
1053
  8
SK2
 62
     0
 10
267.9311649385686
 20
-32.4250000000003
 30
0.0
 11
268.764498271902
 21
-32.4250000000003
 31
0.0
 12
268.3478316052353
 22
-34.9250000000003
 32
0.0
 13
268.3478316052353
 23
-34.9250000000003
 33
0.0
  0
TEXT
  5
1054
  8
SK2
  6
CONTINUOUS
 62
     0
 10
267.7228316052353
 20
-5.000000000000114
 30
0.0
 40
2.5
  1
69.85
 50
90.0
  0
POINT
  5
1055
  8
DEFPOINTS
 62
     0
 10
202.2
 20
34.92500000000007
 30
0.0
  0
POINT
  5
1056
  8
DEFPOINTS
 62
     0
 10
202.2
 20
-34.9250000000003
 30
0.0
  0
POINT
  5
1057
  8
DEFPOINTS
 62
     0
 10
268.3478316052353
 20
-34.9250000000003
 30
0.0
  0
ENDBLK
  5
1059
  8
0
  0
ENDSEC
  0
SECTION
  2
ENTITIES
  0
LINE
  5
685
  8
SK1
 10
0.0
 20
34.92499999999998
 30
0.0
 11
-99.6319088344
 21
20.3952133832
 31
0.0
  0
LINE
  5
686
  8
SK1
 10
-99.6319088344
 20
-20.3952133832
 30
0.0
 11
0.0
 21
-34.92500000000001
 31
0.0
  0
ARC
  5
68D
  8
SK1
 10
-99.3
 20
18.1192879614
 30
0.0
 40
2.299999999999995
 50
98.29722000000018
 51
180.0
  0
ARC
  5
68E
  8
SK1
 10
-99.3
 20
-18.1192879614
 30
0.0
 40
2.299999999999995
 50
180.0
 51
261.7027799999998
  0
LINE
  5
6F6
  8
SK1
 10
-101.6
 20
0.0
 30
0.0
 11
-101.6
 21
-18.1192879614
 31
0.0
  0
LINE
  5
6F7
  8
SK1
 10
-101.6
 20
18.1192879614
 30
0.0
 11
-101.6
 21
0.0
 31
0.0
  0
LINE
  5
71A
  8
SK3
 10
-99.5215390309
 20
-13.10000000000002
 30
0.0
 11
-99.5215390309
 21
13.09999999999999
 31
0.0
  0
LINE
  5
71B
  8
SK3
 10
-95.25
 20
-13.10000000000002
 30
0.0
 11
-95.25
 21
13.09999999999999
 31
0.0
  0
LINE
  5
72A
  8
SK3
 10
-101.6
 20
-14.30000000000001
 30
0.0
 11
-99.5215390309
 21
-13.10000000000002
 31
0.0
  0
LINE
  5
72B
  8
SK3
 10
-99.5215390309
 20
13.09999999999999
 30
0.0
 11
-101.6
 21
14.3
 31
0.0
  0
LINE
  5
72C
  8
SK3
 10
-99.5215390309
 20
-13.10000000000002
 30
0.0
 11
-95.25
 21
-13.10000000000002
 31
0.0
  0
LINE
  5
72D
  8
SK3
 10
-95.25
 20
13.09999999999999
 30
0.0
 11
-99.5215390309
 21
13.09999999999999
 31
0.0
  0
LINE
  5
72E
  8
SK3
 10
-95.25
 20
-11.09980000000002
 30
0.0
 11
-40.09999999999999
 21
-11.09980000000002
 31
0.0
  0
LINE
  5
72F
  8
SK3
 10
-40.09999999999999
 20
11.09979999999999
 30
0.0
 11
-95.25
 21
11.09979999999999
 31
0.0
  0
LINE
  5
760
  8
SK3
 10
-57.1
 20
12.69999999999999
 30
0.0
 11
-95.25
 21
12.69999999999999
 31
0.0
  0
LINE
  5
761
  8
SK3
 10
-95.25
 20
-12.69999999999999
 30
0.0
 11
-57.1
 21
-12.69999999999999
 31
0.0
  0
LINE
  5
774
  8
SK3
 10
-57.1
 20
12.69999999999999
 30
0.0
 11
-57.1
 21
-12.69999999999999
 31
0.0
  0
LINE
  5
777
  8
SK4
 10
0.0
 20
0.0
 30
0.0
 11
-101.6
 21
0.0
 31
0.0
  0
LINE
  5
779
  8
4
 10
0.0
 20
0.0
 30
0.0
 11
203.2
 21
0.0
 31
0.0
  0
INSERT
  5
77B
  8
SK6
  2
*U2
 10
-44.10380399683656
 20
-23.39313954296377
 30
0.0
  0
INSERT
  5
78D
  8
SK6
  2
*U5
 10
17.55665382414153
 20
-2.560320993650734
 30
0.0
  0
LINE
  5
793
  8
0
 10
3.0
 20
3.0
 30
0.0
 11
-3.0
 21
-3.0
 31
0.0
  0
LINE
  5
794
  8
0
 10
-3.0
 20
3.0
 30
0.0
 11
3.0
 21
-3.0
 31
0.0
  0
CIRCLE
  5
795
  8
0
 10
0.0
 20
0.0
 30
0.0
 40
2.5
  0
LINE
  5
796
  8
0
 10
206.2
 20
-3.0
 30
0.0
 11
200.2
 21
3.0
 31
0.0
  0
CIRCLE
  5
797
  8
0
 10
203.2
 20
0.0
 30
0.0
 40
2.5
  0
LINE
  5
798
  8
0
 10
200.2
 20
-3.0
 30
0.0
 11
206.2
 21
3.0
 31
0.0
  0
LINE
  5
799
  8
NOCUT
 10
0.7999999999999972
 20
34.62500000000001
 30
0.0
 11
0.2999999999999972
 21
34.62500000000001
 31
0.0
  0
LINE
  5
79C
  8
NOCUT
 10
0.2999999999999972
 20
34.62500000000001
 30
0.0
 11
0.0
 21
34.92499999999999
 31
0.0
  0
LINE
  5
79D
  8
NOCUT
 10
202.2
 20
34.92500000000007
 30
0.0
 11
20.04999999999998
 21
34.92499999999989
 31
0.0
  0
ARC
  5
79E
  8
NOCUT
 10
0.7999999999999972
 20
35.62500000000001
 30
0.0
 40
1.0
 50
270.0
 51
314.4270040008
  0
ARC
  5
79F
  8
NOCUT
 10
20.05
 20
35.92499999999999
 30
0.0
 40
1.0
 50
180.0
 51
270.0
  0
LINE
  5
7A0
  8
NOCUT
 10
12.55499999999999
 20
45.64499999999999
 30
0.0
 11
9.704999999999998
 21
45.64499999999999
 31
0.0
  0
ARC
  5
7A1
  8
NOCUT
 10
12.55499999999999
 20
46.14499999999999
 30
0.0
 40
0.5
 50
270.0
 51
0.0
  0
ARC
  5
7A2
  8
NOCUT
 10
9.704999999999998
 20
46.14499999999999
 30
0.0
 40
0.5
 50
180.0
 51
270.0
  0
ARC
  5
7A3
  8
NOCUT
 10
2.299999999999997
 20
48.4125
 30
0.0
 40
0.7999999999999972
 50
90.0
 51
180.0
  0
ARC
  5
7A4
  8
NOCUT
 10
18.24999999999999
 20
48.4125
 30
0.0
 40
0.799999999999983
 50
0.0
 51
90.0
  0
LINE
  5
7A5
  8
NOCUT
 10
9.204999999999998
 20
46.43919780459999
 30
0.0
 11
7.603833230999996
 21
49.21250000000001
 31
0.0
  0
LINE
  5
7A6
  8
NOCUT
 10
14.65616676910001
 20
49.21250000000001
 30
0.0
 11
13.05499999999999
 21
46.43919780459999
 31
0.0
  0
LINE
  5
7A7
  8
NOCUT
 10
18.24999999999999
 20
49.21250000000001
 30
0.0
 11
14.65616676910001
 21
49.21250000000001
 31
0.0
  0
LINE
  5
7A8
  8
NOCUT
 10
7.603833230999996
 20
49.21250000000001
 30
0.0
 11
2.299999999999997
 21
49.21250000000001
 31
0.0
  0
LINE
  5
7AC
  8
NOCUT
 10
1.5
 20
48.4125
 30
0.0
 11
1.499999999999929
 21
34.91085715714565
 31
0.0
  0
LINE
  5
7AD
  8
NOCUT
 10
19.04999999999997
 20
48.4125
 30
0.0
 11
19.05
 21
35.92499999999999
 31
0.0
  0
LINE
  5
7AE
  8
NOCUT
 10
9.204999999999998
 20
46.43919780459999
 30
0.0
 11
9.204999999999998
 21
46.14499999999999
 31
0.0
  0
LINE
  5
7AF
  8
NOCUT
 10
13.05499999999999
 20
46.43919780459999
 30
0.0
 11
13.05499999999999
 21
46.14499999999999
 31
0.0
  0
DIMENSION
  5
804
  8
SK2
  2
*D8
 10
203.2
 20
62.46215670356074
 30
0.0
 11
101.6
 21
64.33715670356074
 31
0.0
 70
    32
  3
ISO-25
 13
0.0
 23
34.92499999999998
 33
0.0
 14
203.2
 24
33.92500000000007
 34
0.0
1001
ACAD
1000
DSTYLE
1002
{
1070
   287
1070
     5
1070
   271
1070
     3
1070
   272
1070
     3
1070
   279
1070
     2
1002
}
  0
LINE
  5
8BF
  8
NOCUT
 10
0.0
 20
34.92499999999999
 30
0.0
 11
0.0
 21
0.0
 31
0.0
  0
LINE
  5
8C0
  8
NOCUT
 10
0.0
 20
0.0
 30
0.0
 11
203.2
 21
0.0
 31
0.0
  0
INSERT
  5
A17
  8
SK6
  2
_FILLED
 10
-20.78186483605847
 20
-31.89428358495073
 30
0.0
 41
3.5
 42
3.5
 43
3.5
 50
52.86965044919886
  0
POLYLINE
  5
A18
  8
SK6
 66
     1
 10
0.0
 20
0.0
 30
0.0
  0
VERTEX
  5
3285
  8
SK6
 10
-22.89457117648658
 20
-34.68470862768434
 30
0.0
  0
VERTEX
  5
3286
  8
SK6
 10
-48.02596493475846
 20
-67.87780752645074
 30
0.0
  0
VERTEX
  5
3287
  8
SK6
 10
-49.90096493475846
 20
-66.12780752645074
 30
0.0
  0
VERTEX
  5
3288
  8
SK6
 10
-53.40096493475846
 20
-66.12780752645074
 30
0.0
  0
SEQEND
  5
37EB
  8
SK6
  0
ARC
  5
AC7
  8
1
 10
20.04999999999998
 20
35.92499999999998
 30
0.0
 40
1.0
 50
180.0
 51
270.0
  0
ARC
  5
AC9
  8
1
 10
20.04999999999998
 20
-35.92500000000001
 30
0.0
 40
1.0
 50
90.0
 51
180.0
  0
ARC
  5
ACA
  8
1
 10
1.299999999999983
 20
35.125
 30
0.0
 40
0.5
 50
270.0
 51
293.5781784781994
  0
ARC
  5
ACB
  8
1
 10
1.299999999999983
 20
-35.125
 30
0.0
 40
0.500000000000009
 50
66.42182152180017
 51
90.0
  0
LINE
  5
ACF
  8
1
 10
0.0
 20
-34.92500000000001
 30
0.0
 11
0.2999999999999829
 21
-34.625
 31
0.0
  0
LINE
  5
AD0
  8
1
 10
0.2999999999999829
 20
34.625
 30
0.0
 11
0.0
 21
34.92499999999998
 31
0.0
  0
LINE
  5
AD5
  8
1
 10
1.299999999999983
 20
34.625
 30
0.0
 11
0.2999999999999829
 21
34.625
 31
0.0
  0
LINE
  5
AD6
  8
1
 10
0.2999999999999829
 20
-34.625
 30
0.0
 11
1.299999999999983
 21
-34.625
 31
0.0
  0
LINE
  5
ADB
  8
1
 10
14.65616694409999
 20
-47.282880439
 30
0.0
 11
14.68806954659999
 21
-47.29184187660002
 31
0.0
  0
LINE
  5
ADC
  8
1
 10
14.6561667691
 20
47.30816788690001
 30
0.0
 11
14.6561667691
 21
-47.2826327523
 31
0.0
  0
LINE
  5
ADD
  8
1
 10
14.7615962207
 20
47.3314147463
 30
0.0
 11
14.6561668942
 21
47.30816788690001
 31
0.0
  0
LINE
  5
ADE
  8
1
 10
18.25
 20
47.3314147463
 30
0.0
 11
14.7615962207
 21
47.3314147463
 31
0.0
  0
LINE
  5
ADF
  8
1
 10
14.68806954659999
 20
-47.29184187660002
 30
0.0
 11
18.25
 21
-47.29184187660002
 31
0.0
  0
LINE
  5
AE0
  8
1
 10
7.498403779400007
 20
47.3314147463
 30
0.0
 11
4.006414746699988
 21
47.3314147463
 31
0.0
  0
LINE
  5
AE1
  8
1
 10
7.603833105900009
 20
47.30816788690001
 30
0.0
 11
7.498403779400007
 21
47.3314147463
 31
0.0
  0
LINE
  5
AE2
  8
1
 10
7.603833230899994
 20
47.30844201400001
 30
0.0
 11
7.603833230899994
 21
-47.28288044160001
 31
0.0
  0
LINE
  5
AE3
  8
1
 10
7.571930453299984
 20
-47.29184187660002
 30
0.0
 11
7.603833055899997
 21
-47.282880439
 31
0.0
  0
LINE
  5
AE4
  8
1
 10
4.040356993800003
 20
-47.29184187660002
 30
0.0
 11
7.571930453299984
 21
-47.29184187660002
 31
0.0
  0
LINE
  5
AE5
  8
1
 10
2.300001405499984
 20
-46.74795901499999
 30
0.0
 11
4.040356993800003
 21
-47.29184189310001
 31
0.0
  0
LINE
  5
AE6
  8
1
 10
4.006414746699988
 20
47.33141476029999
 30
0.0
 11
2.299999765199999
 21
46.80267569
 31
0.0
  0
ARC
  5
AE7
  8
1
 10
2.557435939599998
 20
-45.59355264690001
 30
0.0
 40
1.184053137363273
 50
207.7147598986998
 51
257.3157095984005
  0
LINE
  5
AE8
  8
1
 10
1.50922466130001
 20
-46.14422037630001
 30
0.0
 11
1.5
 21
-46.01377680920001
 31
0.0
  0
LINE
  5
AE9
  8
1
 10
1.5
 20
-46.01377680920001
 30
0.0
 11
1.5
 21
46.01377680919998
 31
0.0
  0
ARC
  5
AEA
  8
1
 10
2.572884962100005
 20
45.72649004249999
 30
0.0
 40
1.111555736593689
 50
104.3436511600003
 51
164.8417645594994
  0
LINE
  5
AEB
  8
1
 10
9.204999995999998
 20
44.41431970880001
 30
0.0
 11
7.60383322749999
 21
47.3081678945
 31
0.0
  0
LINE
  5
AEC
  8
1
 10
9.204999999999984
 20
44.4143196734
 30
0.0
 11
9.204999999999984
 21
-44.387299867
 31
0.0
  0
LINE
  5
AED
  8
1
 10
7.603833226399985
 20
-47.28288044990001
 30
0.0
 11
9.2049999921
 21
-44.38762367050001
 31
0.0
  0
LINE
  5
AEE
  8
1
 10
14.65616677259999
 20
47.3081678945
 30
0.0
 11
13.05500000399999
 21
44.41431970880001
 31
0.0
  0
LINE
  5
AEF
  8
1
 10
13.05500000800001
 20
-44.38762367050001
 30
0.0
 11
14.65616677360001
 21
-47.28288044990001
 31
0.0
  0
LINE
  5
AF0
  8
1
 10
13.05500000000001
 20
44.41459195280001
 30
0.0
 11
13.05500000000001
 21
-44.38762365650001
 31
0.0
  0
ARC
  5
AF1
  8
1
 10
17.92302328310001
 20
46.41895288640001
 30
0.0
 40
1.127359624435328
 50
1.493363825500091
 51
43.53750291790048
  0
LINE
  5
AF2
  8
1
 10
19.04999999999998
 20
46.44833319130001
 30
0.0
 11
19.04999999999998
 21
-46.44833319130001
 31
0.0
  0
ARC
  5
AF3
  8
1
 10
17.91824827779999
 20
-46.4157978575
 30
0.0
 40
1.1322192847622
 50
319.2464850235001
 51
358.3533278529993
  0
ARC
  5
AF4
  8
1
 10
18.2616113983
 20
-46.25791326929999
 30
0.0
 40
1.033993805426882
 50
269.3565743835002
 51
299.8289453780985
  0
ARC
  5
AF5
  8
1
 10
18.2610591033
 20
46.41902767409999
 30
0.0
 40
0.9124540938653742
 50
58.31881226410037
 51
90.69445187719943
  0
ARC
  5
AF6
  8
1
 10
12.5158206966
 20
-44.1073442162
 30
0.0
 40
0.5397579791454132
 50
357.3466499737992
 51
85.83742202690154
  0
ARC
  5
AF7
  8
1
 10
12.54139279200001
 20
44.09944295630001
 30
0.0
 40
0.4858431210597904
 50
271.6049163143007
 51
333.441972537701
  0
POLYLINE
  5
AF8
  8
1
 66
     1
 10
0.0
 20
0.0
 30
0.0
  0
VERTEX
  5
3289
  8
1
 10
13.05500000000001
 20
44.14662312639999
 30
0.0
  0
VERTEX
  5
328A
  8
1
 10
13.03542892280001
 20
44.01594229719998
 30
0.0
  0
VERTEX
  5
328B
  8
1
 10
12.97787844319998
 20
43.88571451269999
 30
0.0
  0
SEQEND
  5
37EA
  8
1
  0
ARC
  5
AF9
  8
1
 10
9.744214343399989
 20
-44.10737531749999
 30
0.0
 40
0.5397915428070933
 50
94.16604783349855
 51
182.6498801657025
  0
POLYLINE
  5
AFA
  8
1
 66
     1
 10
0.0
 20
0.0
 30
0.0
  0
VERTEX
  5
328C
  8
1
 10
9.280099379399985
 20
43.88913247470001
 30
0.0
  0
VERTEX
  5
328D
  8
1
 10
9.224055884099982
 20
44.0177026321
 30
0.0
  0
VERTEX
  5
328E
  8
1
 10
9.204999999999984
 20
44.14662312639999
 30
0.0
  0
SEQEND
  5
37E9
  8
1
  0
ARC
  5
AFB
  8
1
 10
9.721350266000002
 20
44.10422581969999
 30
0.0
 40
0.4907078648052702
 50
206.0244317763009
 51
268.0905652222996
  0
LINE
  5
AFC
  8
1
 10
12.55500000000001
 20
43.613790424
 30
0.0
 11
9.704999999999984
 21
43.613790424
 31
0.0
  0
LINE
  5
AFD
  8
1
 10
9.704999999999984
 20
-43.5690100651
 30
0.0
 11
12.55500000000001
 21
-43.5690100651
 31
0.0
  0
LINE
  5
B00
  8
1
 10
0.2999999999999829
 20
34.625
 30
0.0
 11
0.2999999999999829
 21
-34.625
 31
0.0
  0
LINE
  5
B01
  8
1
 10
0.0
 20
34.92499999999998
 30
0.0
 11
0.0
 21
-34.92500000000001
 31
0.0
  0
LINE
  5
B04
  8
1
 10
14.68806954670001
 20
-47.29184187660002
 30
0.0
 11
14.65616694420001
 21
-47.282880439
 31
0.0
  0
LINE
  5
B1A
  8
3
 10
1.500000000000004
 20
37.72
 30
0.0
 11
19.04999999999998
 21
37.72
 31
0.0
  0
LINE
  5
B3B
  8
3
 10
1.5
 20
-35.30000000000001
 30
0.0
 11
19.26937525020018
 21
-35.30000000000001
 31
0.0
  0
LINE
  5
B42
  8
3
 10
26.97499999999999
 20
28.32499999999999
 30
0.0
 11
33.32499999999999
 21
28.32499999999999
 31
0.0
  0
LINE
  5
B43
  8
3
 10
20.625
 20
28.32499999999999
 30
0.0
 11
26.97499999999999
 21
28.32499999999999
 31
0.0
  0
LINE
  5
B44
  8
3
 10
11.375
 20
37.31999999999999
 30
0.0
 11
16.125
 21
37.31999999999999
 31
0.0
  0
LINE
  5
B45
  8
3
 10
6.625
 20
37.31999999999999
 30
0.0
 11
11.375
 21
37.31999999999999
 31
0.0
  0
LINE
  5
B55
  8
3
 10
20.625
 20
28.32499999999999
 30
0.0
 11
26.97499999999999
 21
24.50953506919998
 31
0.0
  0
LINE
  5
B56
  8
3
 10
26.97499999999999
 20
24.50953506919998
 30
0.0
 11
33.32499999999999
 21
28.32499999999999
 31
0.0
  0
LINE
  5
B57
  8
3
 10
20.625
 20
34.92499999999998
 30
0.0
 11
20.625
 21
28.32499999999999
 31
0.0
  0
LINE
  5
B58
  8
3
 10
33.32499999999999
 20
28.32499999999999
 30
0.0
 11
33.32499999999999
 21
34.92499999999998
 31
0.0
  0
LINE
  5
B59
  8
3
 10
6.625
 20
37.72
 30
0.0
 11
6.625
 21
37.31999999999999
 31
0.0
  0
LINE
  5
B5A
  8
3
 10
16.125
 20
37.31999999999999
 30
0.0
 11
16.125
 21
37.72
 31
0.0
  0
LINE
  5
B5B
  8
1
 10
20.04999999999998
 20
-34.92500000000001
 30
0.0
 11
20.04999999999998
 21
34.92499999999998
 31
0.0
  0
LINE
  5
B5C
  8
1
 10
1.299999999999983
 20
-34.625
 30
0.0
 11
1.299999999999983
 21
34.625
 31
0.0
  0
LINE
  5
B5F
  8
1
 10
12.55500000000001
 20
-43.00413183130001
 30
0.0
 11
12.55500000000001
 21
42.79577481850001
 31
0.0
  0
LINE
  5
B60
  8
1
 10
9.704999999999984
 20
-43.00421493109999
 30
0.0
 11
9.704999999999984
 21
42.7957705776
 31
0.0
  0
LINE
  5
B62
  8
1
 10
18.25
 20
47.3314147463
 30
0.0
 11
18.25
 21
-47.29184187660002
 31
0.0
  0
LINE
  5
B64
  8
1
 10
2.299999999999983
 20
-46.74795854910002
 30
0.0
 11
2.299999999999983
 21
46.80267576719999
 31
0.0
  0
LINE
  5
CE0
  8
1
 10
202.2
 20
34.92500000000007
 30
0.0
 11
20.05000000000004
 21
34.92500000000007
 31
0.0
  0
ARC
  5
CE2
  8
1
 10
202.2
 20
-33.92500000000007
 30
0.0
 40
1.000000000000227
 50
270.0
 51
0.0
  0
ARC
  5
CE3
  8
1
 10
202.2
 20
33.92500000000007
 30
0.0
 40
1.0
 50
0.0
 51
90.0
  0
LINE
  5
CFB
  8
1
 10
203.2
 20
-31.75381000000004
 30
0.0
 11
203.2283378126
 21
-31.75381000000004
 31
0.0
  0
CIRCLE
  5
D1F
  8
1
 10
185.2
 20
0.0000000000001137
 30
0.0
 40
2.624999999999545
  0
LINE
  5
D20
  8
1
 10
203.2
 20
0.0000000000001137
 30
0.0
 11
203.2
 21
33.92500000000007
 31
0.0
  0
LINE
  5
D21
  8
1
 10
203.2
 20
-33.92500000000007
 30
0.0
 11
203.2
 21
0.0000000000001137
 31
0.0
  0
CIRCLE
  5
D22
  8
1
 10
185.2
 20
0.0000000000001137
 30
0.0
 40
2.525000000000006
  0
LINE
  5
D28
  8
1
 10
183.95
 20
-0.721687836499882
 30
0.0
 11
185.2
 21
-1.443375672999878
 31
0.0
  0
LINE
  5
D29
  8
1
 10
186.45
 20
-0.721687836499882
 30
0.0
 11
185.2
 21
-1.443375672999878
 31
0.0
  0
LINE
  5
D2A
  8
1
 10
186.45
 20
0.7216878365001094
 30
0.0
 11
186.45
 21
-0.721687836499882
 31
0.0
  0
LINE
  5
D2B
  8
1
 10
186.45
 20
0.7216878365001094
 30
0.0
 11
185.2
 21
1.443375673000105
 31
0.0
  0
LINE
  5
D2C
  8
1
 10
183.95
 20
0.7216878365001094
 30
0.0
 11
185.2
 21
1.443375673000105
 31
0.0
  0
LINE
  5
D2D
  8
1
 10
183.95
 20
0.7216878365001094
 30
0.0
 11
183.95
 21
-0.721687836499882
 31
0.0
  0
CIRCLE
  5
D2E
  8
1
 10
185.2
 20
0.0000000000001137
 30
0.0
 40
2.054999999999836
  0
CIRCLE
  5
D2F
  8
1
 10
185.2
 20
0.0000000000001137
 30
0.0
 40
2.256103126842049
  0
CIRCLE
  5
D30
  8
1
 10
185.2
 20
0.0000000000001137
 30
0.0
 40
2.500000000000085
  0
POLYLINE
  5
D3E
  8
3
 66
     1
 10
0.0
 20
0.0
 30
0.0
  0
VERTEX
  5
328F
  8
3
 10
185.2
 20
-28.84788378399992
 30
0.0
  0
VERTEX
  5
3290
  8
3
 10
186.0674984817
 20
-28.93098265750007
 30
0.0
  0
VERTEX
  5
3291
  8
3
 10
186.8371754239
 20
-29.16774297809991
 30
0.0
  0
VERTEX
  5
3292
  8
3
 10
187.4238158074
 20
-29.52444509919985
 30
0.0
  0
VERTEX
  5
3293
  8
3
 10
187.760307759
 20
-29.9521880481999
 30
0.0
  0
VERTEX
  5
3294
  8
3
 10
187.8077571143
 20
-30.39500826999995
 30
0.0
  0
VERTEX
  5
3295
  8
3
 10
187.5624298798
 20
-30.80187446539992
 30
0.0
  0
VERTEX
  5
3296
  8
3
 10
187.0518724712
 20
-31.13320775749992
 30
0.0
  0
VERTEX
  5
3297
  8
3
 10
186.3314689166
 20
-31.3606117354999
 30
0.0
  0
VERTEX
  5
3298
  8
3
 10
185.4830058601
 20
-31.46622946299988
 30
0.0
  0
VERTEX
  5
3299
  8
3
 10
184.6045645979
 20
-31.44307976840003
 30
0.0
  0
VERTEX
  5
329A
  8
3
 10
183.79416225
 20
-31.29335200349999
 30
0.0
  0
VERTEX
  5
329B
  8
3
 10
183.140409202
 20
-31.02682272200002
 30
0.0
  0
VERTEX
  5
329C
  8
3
 10
182.7175743299
 20
-30.66357714589992
 30
0.0
  0
VERTEX
  5
329D
  8
3
 10
182.5750524153
 20
-30.23763957640006
 30
0.0
  0
VERTEX
  5
329E
  8
3
 10
182.7278161119
 20
-29.79499263650007
 30
0.0
  0
VERTEX
  5
329F
  8
3
 10
183.1577583493
 20
-29.38759440029992
 30
0.0
  0
VERTEX
  5
32A0
  8
3
 10
183.8183925845
 20
-29.06811232050006
 30
0.0
  0
VERTEX
  5
32A1
  8
3
 10
184.6359086638
 20
-28.88250270679998
 30
0.0
  0
VERTEX
  5
32A2
  8
3
 10
185.2
 20
-28.84788378399992
 30
0.0
  0
SEQEND
  5
37E8
  8
3
  0
POLYLINE
  5
D3F
  8
3
 66
     1
 10
0.0
 20
0.0
 30
0.0
  0
VERTEX
  5
32A3
  8
3
 10
185.2
 20
31.47288378400015
 30
0.0
  0
VERTEX
  5
32A4
  8
3
 10
186.0674984817
 20
31.40849580259999
 30
0.0
  0
VERTEX
  5
32A5
  8
3
 10
186.8371754239
 20
31.21964005920006
 30
0.0
  0
VERTEX
  5
32A6
  8
3
 10
187.4238158074
 20
30.91917383800012
 30
0.0
  0
VERTEX
  5
32A7
  8
3
 10
187.760307759
 20
30.53136779520003
 30
0.0
  0
VERTEX
  5
32A8
  8
3
 10
187.8077571143
 20
30.09462878880015
 30
0.0
  0
VERTEX
  5
32A9
  8
3
 10
187.5624298798
 20
29.65751872390013
 30
0.0
  0
VERTEX
  5
32AA
  8
3
 10
187.0518724712
 20
29.27277948669996
 30
0.0
  0
VERTEX
  5
32AB
  8
3
 10
186.3314689166
 20
28.99198278799997
 30
0.0
  0
VERTEX
  5
32AC
  8
3
 10
186.1708600341
 20
28.96634235060003
 30
0.0
  0
SEQEND
  5
37E7
  8
3
  0
POLYLINE
  5
D40
  8
3
 66
     1
 10
0.0
 20
0.0
 30
0.0
  0
VERTEX
  5
32AD
  8
3
 10
184.2444933061
 20
28.97094003550012
 30
0.0
  0
VERTEX
  5
32AE
  8
3
 10
183.79416225
 20
29.07654230929995
 30
0.0
  0
VERTEX
  5
32AF
  8
3
 10
183.140409202
 20
29.3993367022
 30
0.0
  0
VERTEX
  5
32B0
  8
3
 10
182.7175743299
 20
29.81023794479995
 30
0.0
  0
VERTEX
  5
32B1
  8
3
 10
182.5750524153
 20
30.2542280545
 30
0.0
  0
VERTEX
  5
32B2
  8
3
 10
182.7278161119
 20
30.67756377989997
 30
0.0
  0
VERTEX
  5
32B3
  8
3
 10
183.1577583493
 20
31.03679846279999
 30
0.0
  0
VERTEX
  5
32B4
  8
3
 10
183.8183925845
 20
31.30010379650014
 30
0.0
  0
VERTEX
  5
32B5
  8
3
 10
184.6359086638
 20
31.44617701610002
 30
0.0
  0
VERTEX
  5
32B6
  8
3
 10
185.2
 20
31.47288378400015
 30
0.0
  0
SEQEND
  5
37E6
  8
3
  0
CIRCLE
  5
D41
  8
3
 10
185.2
 20
0.0000000000001137
 30
0.0
 40
2.099999999999994
  0
LINE
  5
D4D
  8
SK3
 10
-40.09999999999999
 20
0.0000000000001137
 30
0.0
 11
-40.09999999999999
 21
11.11250000000007
 31
0.0
  0
LINE
  5
D4E
  8
SK3
 10
-40.09999999999999
 20
-11.11250000000007
 30
0.0
 11
-40.09999999999999
 21
0.0000000000001137
 31
0.0
  0
LINE
  5
D4F
  8
SK3
 10
-37.834376924
 20
0.0000000000001137
 30
0.0
 11
-37.834376924
 21
-7.341869999999858
 31
0.0
  0
LINE
  5
D50
  8
SK3
 10
-37.834376924
 20
7.341870000000085
 30
0.0
 11
-37.834376924
 21
0.0000000000001137
 31
0.0
  0
POLYLINE
  5
D53
  8
3
 66
     1
 10
0.0
 20
0.0
 30
0.0
  0
VERTEX
  5
32B7
  8
3
 10
185.2
 20
7.142601359200057
 30
0.0
  0
VERTEX
  5
32B8
  8
3
 10
185.8788114707
 20
7.11452859489998
 30
0.0
  0
VERTEX
  5
32B9
  8
3
 10
186.4807739407
 20
7.024852442100041
 30
0.0
  0
VERTEX
  5
32BA
  8
3
 10
186.9560423335
 20
6.855363423699941
 30
0.0
  0
VERTEX
  5
32BB
  8
3
 10
187.2406959173
 20
6.591516763100003
 30
0.0
  0
VERTEX
  5
32BC
  8
3
 10
187.29019915
 20
6.254497762500137
 30
0.0
  0
VERTEX
  5
32BD
  8
3
 10
187.1165702344
 20
5.885470292800051
 30
0.0
  0
VERTEX
  5
32BE
  8
3
 10
186.7406196151
 20
5.523451856700035
 30
0.0
  0
VERTEX
  5
32BF
  8
3
 10
186.1815982434
 20
5.223388291400056
 30
0.0
  0
VERTEX
  5
32C0
  8
3
 10
185.5023388719
 20
5.059163961699937
 30
0.0
  0
VERTEX
  5
32C1
  8
3
 10
184.8098814051
 20
5.070238859900087
 30
0.0
  0
VERTEX
  5
32C2
  8
3
 10
184.1762875327
 20
5.23997753569995
 30
0.0
  0
VERTEX
  5
32C3
  8
3
 10
183.6392323398
 20
5.538239863000058
 30
0.0
  0
VERTEX
  5
32C4
  8
3
 10
183.2597170241
 20
5.918418927000062
 30
0.0
  0
VERTEX
  5
32C5
  8
3
 10
183.1029203487
 20
6.30216747040015
 30
0.0
  0
VERTEX
  5
32C6
  8
3
 10
183.179171346
 20
6.624567060700087
 30
0.0
  0
VERTEX
  5
32C7
  8
3
 10
183.4656411802
 20
6.867043579300002
 30
0.0
  0
VERTEX
  5
32C8
  8
3
 10
183.9461186494
 20
7.030900774799989
 30
0.0
  0
VERTEX
  5
32C9
  8
3
 10
184.5831681338
 20
7.119658210600051
 30
0.0
  0
VERTEX
  5
32CA
  8
3
 10
185.2
 20
7.142601359200057
 30
0.0
  0
SEQEND
  5
37E5
  8
3
  0
POLYLINE
  5
D54
  8
3
 66
     1
 10
0.0
 20
0.0
 30
0.0
  0
VERTEX
  5
32CB
  8
3
 10
185.2
 20
-5.042601359299965
 30
0.0
  0
VERTEX
  5
32CC
  8
3
 10
185.8788114707
 20
-5.12726540469987
 30
0.0
  0
VERTEX
  5
32CD
  8
3
 10
186.4807739407
 20
-5.360635475300001
 30
0.0
  0
VERTEX
  5
32CE
  8
3
 10
186.9560423335
 20
-5.703705782300062
 30
0.0
  0
VERTEX
  5
32CF
  8
3
 10
187.2406959173
 20
-6.095976479099932
 30
0.0
  0
VERTEX
  5
32D0
  8
3
 10
187.29019915
 20
-6.457148973899962
 30
0.0
  0
VERTEX
  5
32D1
  8
3
 10
187.1165702344
 20
-6.743816689500022
 30
0.0
  0
VERTEX
  5
32D2
  8
3
 10
186.7406196151
 20
-6.950508688600053
 30
0.0
  0
VERTEX
  5
32D3
  8
3
 10
186.1815982434
 20
-7.079853989599883
 30
0.0
  0
VERTEX
  5
32D4
  8
3
 10
185.5023388719
 20
-7.137286000100062
 30
0.0
  0
VERTEX
  5
32D5
  8
3
 10
184.8098814051
 20
-7.133684396399872
 30
0.0
  0
VERTEX
  5
32D6
  8
3
 10
184.1762875327
 20
-7.073556763500051
 30
0.0
  0
VERTEX
  5
32D7
  8
3
 10
183.6392323398
 20
-6.943232500399859
 30
0.0
  0
VERTEX
  5
32D8
  8
3
 10
183.2597170241
 20
-6.721725825699991
 30
0.0
  0
VERTEX
  5
32D9
  8
3
 10
183.1029203487
 20
-6.412878517799868
 30
0.0
  0
VERTEX
  5
32DA
  8
3
 10
183.179171346
 20
-6.053382719900014
 30
0.0
  0
VERTEX
  5
32DB
  8
3
 10
183.4656411802
 20
-5.682982987999935
 30
0.0
  0
VERTEX
  5
32DC
  8
3
 10
183.9461186494
 20
-5.346329150199949
 30
0.0
  0
VERTEX
  5
32DD
  8
3
 10
184.5831681338
 20
-5.112292163100051
 30
0.0
  0
VERTEX
  5
32DE
  8
3
 10
185.2
 20
-5.042601359299965
 30
0.0
  0
SEQEND
  5
37E4
  8
3
  0
LINE
  5
D55
  8
3
 10
188.2
 20
31.75049999999999
 30
0.0
 11
188.2
 21
19.04949999999997
 31
0.0
  0
LINE
  5
D56
  8
3
 10
188.2
 20
-19.04949999999997
 30
0.0
 11
188.2
 21
-31.75049999999999
 31
0.0
  0
POLYLINE
  5
D5B
  8
3
 66
     1
 10
0.0
 20
0.0
 30
0.0
  0
VERTEX
  5
32DF
  8
3
 10
185.2
 20
30.06185102680013
 30
0.0
  0
VERTEX
  5
32E0
  8
3
 10
185.918242301
 20
29.99852827860002
 30
0.0
  0
VERTEX
  5
32E1
  8
3
 10
186.5498539804
 20
29.81619769199995
 30
0.0
  0
VERTEX
  5
32E2
  8
3
 10
187.018653348
 20
29.53685102680004
 30
0.0
  0
VERTEX
  5
32E3
  8
3
 10
187.2680962814
 20
29.19418161329997
 30
0.0
  0
VERTEX
  5
32E4
  8
3
 10
187.2680962814
 20
28.8295204402001
 30
0.0
  0
VERTEX
  5
32E5
  8
3
 10
187.018653348
 20
28.48685102680008
 30
0.0
  0
VERTEX
  5
32E6
  8
3
 10
186.5498539804
 20
28.20750436150013
 30
0.0
  0
VERTEX
  5
32E7
  8
3
 10
185.918242301
 20
28.02517377490005
 30
0.0
  0
VERTEX
  5
32E8
  8
3
 10
185.2
 20
27.96185102679999
 30
0.0
  0
VERTEX
  5
32E9
  8
3
 10
184.481757699
 20
28.02517377490005
 30
0.0
  0
VERTEX
  5
32EA
  8
3
 10
183.8501460197
 20
28.20750436150013
 30
0.0
  0
VERTEX
  5
32EB
  8
3
 10
183.3813466521
 20
28.48685102680008
 30
0.0
  0
VERTEX
  5
32EC
  8
3
 10
183.1319037187
 20
28.8295204402001
 30
0.0
  0
VERTEX
  5
32ED
  8
3
 10
183.1319037187
 20
29.19418161329997
 30
0.0
  0
VERTEX
  5
32EE
  8
3
 10
183.3813466521
 20
29.53685102680004
 30
0.0
  0
VERTEX
  5
32EF
  8
3
 10
183.8501460197
 20
29.81619769199995
 30
0.0
  0
VERTEX
  5
32F0
  8
3
 10
184.481757699
 20
29.99852827860002
 30
0.0
  0
VERTEX
  5
32F1
  8
3
 10
185.2
 20
30.06185102680013
 30
0.0
  0
SEQEND
  5
37E3
  8
3
  0
POLYLINE
  5
D5C
  8
3
 66
     1
 10
0.0
 20
0.0
 30
0.0
  0
VERTEX
  5
32F2
  8
3
 10
186.3874342087
 20
10.1757984945001
 30
0.0
  0
VERTEX
  5
32F3
  8
3
 10
186.0307135081
 20
9.66977149310003
 30
0.0
  0
VERTEX
  5
32F4
  8
3
 10
185.8930665581
 20
9.414316763800002
 30
0.0
  0
VERTEX
  5
32F5
  8
3
 10
185.841457207
 20
9.209155885299992
 30
0.0
  0
VERTEX
  5
32F6
  8
3
 10
185.8692654754
 20
9.011915962300122
 30
0.0
  0
VERTEX
  5
32F7
  8
3
 10
186.0124097565
 20
8.774532872500117
 30
0.0
  0
VERTEX
  5
32F8
  8
3
 10
186.4612023873
 20
8.395253660000094
 30
0.0
  0
VERTEX
  5
32F9
  8
3
 10
186.962449691
 20
8.182853683999951
 30
0.0
  0
VERTEX
  5
32FA
  8
3
 10
187.1967185942
 20
8.212678140000094
 30
0.0
  0
VERTEX
  5
32FB
  8
3
 10
187.2989640743
 20
8.41171314159999
 30
0.0
  0
VERTEX
  5
32FC
  8
3
 10
187.2524341615
 20
8.709264812000015
 30
0.0
  0
VERTEX
  5
32FD
  8
3
 10
187.1027405741
 20
9.068375611500073
 30
0.0
  0
VERTEX
  5
32FE
  8
3
 10
186.7654809665
 20
9.638514827300128
 30
0.0
  0
VERTEX
  5
32FF
  8
3
 10
186.2087797991
 20
10.42164103419998
 30
0.0
  0
VERTEX
  5
3300
  8
3
 10
185.9826480156
 20
10.76040447870002
 30
0.0
  0
VERTEX
  5
3301
  8
3
 10
185.8623756697
 20
11.02537921250007
 30
0.0
  0
VERTEX
  5
3302
  8
3
 10
185.8419854699
 20
11.21564272800003
 30
0.0
  0
VERTEX
  5
3303
  8
3
 10
185.8899948735
 20
11.39014499200005
 30
0.0
  0
VERTEX
  5
3304
  8
3
 10
186.0867697775
 20
11.65888278659997
 30
0.0
  0
VERTEX
  5
3305
  8
3
 10
186.6437809255
 20
12.05893686470006
 30
0.0
  0
VERTEX
  5
3306
  8
3
 10
187.0302357267
 20
12.17550193290015
 30
0.0
  0
VERTEX
  5
3307
  8
3
 10
187.2315862227
 20
12.11135876740002
 30
0.0
  0
VERTEX
  5
3308
  8
3
 10
187.2995856547
 20
11.88661539700013
 30
0.0
  0
VERTEX
  5
3309
  8
3
 10
187.2310524638
 20
11.57819859829999
 30
0.0
  0
VERTEX
  5
330A
  8
3
 10
187.0618425502
 20
11.20416659449995
 30
0.0
  0
VERTEX
  5
330B
  8
3
 10
186.6897946255
 20
10.60073280660015
 30
0.0
  0
VERTEX
  5
330C
  8
3
 10
186.3874342087
 20
10.1757984945001
 30
0.0
  0
SEQEND
  5
37E2
  8
3
  0
POLYLINE
  5
D5D
  8
3
 66
     1
 10
0.0
 20
0.0
 30
0.0
  0
VERTEX
  5
330D
  8
3
 10
185.2
 20
-27.96185102679999
 30
0.0
  0
VERTEX
  5
330E
  8
3
 10
185.918242301
 20
-28.02517377499987
 30
0.0
  0
VERTEX
  5
330F
  8
3
 10
186.5498539804
 20
-28.2075043614999
 30
0.0
  0
VERTEX
  5
3310
  8
3
 10
187.018653348
 20
-28.48685102679985
 30
0.0
  0
VERTEX
  5
3311
  8
3
 10
187.2680962814
 20
-28.82952044019987
 30
0.0
  0
VERTEX
  5
3312
  8
3
 10
187.2680962814
 20
-29.19418161329997
 30
0.0
  0
VERTEX
  5
3313
  8
3
 10
187.018653348
 20
-29.53685102680004
 30
0.0
  0
VERTEX
  5
3314
  8
3
 10
186.5498539804
 20
-29.81619769209999
 30
0.0
  0
VERTEX
  5
3315
  8
3
 10
185.918242301
 20
-29.99852827860002
 30
0.0
  0
VERTEX
  5
3316
  8
3
 10
185.2
 20
-30.0618510267999
 30
0.0
  0
VERTEX
  5
3317
  8
3
 10
184.481757699
 20
-29.99852827860002
 30
0.0
  0
VERTEX
  5
3318
  8
3
 10
183.8501460197
 20
-29.81619769209999
 30
0.0
  0
VERTEX
  5
3319
  8
3
 10
183.3813466521
 20
-29.53685102680004
 30
0.0
  0
VERTEX
  5
331A
  8
3
 10
183.1319037187
 20
-29.19418161329997
 30
0.0
  0
VERTEX
  5
331B
  8
3
 10
183.1319037187
 20
-28.82952044019987
 30
0.0
  0
VERTEX
  5
331C
  8
3
 10
183.3813466521
 20
-28.48685102679985
 30
0.0
  0
VERTEX
  5
331D
  8
3
 10
183.8501460197
 20
-28.2075043614999
 30
0.0
  0
VERTEX
  5
331E
  8
3
 10
184.481757699
 20
-28.02517377499987
 30
0.0
  0
VERTEX
  5
331F
  8
3
 10
185.2
 20
-27.96185102679999
 30
0.0
  0
SEQEND
  5
37E1
  8
3
  0
POLYLINE
  5
D5E
  8
3
 66
     1
 10
0.0
 20
0.0
 30
0.0
  0
VERTEX
  5
3320
  8
3
 10
186.3874342087
 20
-10.17579849449987
 30
0.0
  0
VERTEX
  5
3321
  8
3
 10
186.9489098361
 20
-11.00400580190001
 30
0.0
  0
VERTEX
  5
3322
  8
3
 10
187.1893771506
 20
-11.47067319020005
 30
0.0
  0
VERTEX
  5
3323
  8
3
 10
187.2982281394
 20
-11.86311415459988
 30
0.0
  0
VERTEX
  5
3324
  8
3
 10
187.2559499552
 20
-12.08168261339995
 30
0.0
  0
VERTEX
  5
3325
  8
3
 10
187.1097723244
 20
-12.17066122909989
 30
0.0
  0
VERTEX
  5
3326
  8
3
 10
186.7787290787
 20
-12.11790390530007
 30
0.0
  0
VERTEX
  5
3327
  8
3
 10
186.2272776947
 20
-11.78727340240005
 30
0.0
  0
VERTEX
  5
3328
  8
3
 10
185.9942035719
 20
-11.55471426139991
 30
0.0
  0
VERTEX
  5
3329
  8
3
 10
185.8649965005
 20
-11.32721459859988
 30
0.0
  0
VERTEX
  5
332A
  8
3
 10
185.8413892584
 20
-11.14345243449986
 30
0.0
  0
VERTEX
  5
332B
  8
3
 10
185.8873066879
 20
-10.95165245479996
 30
0.0
  0
VERTEX
  5
332C
  8
3
 10
186.0771154607
 20
-10.6106926926999
 30
0.0
  0
VERTEX
  5
332D
  8
3
 10
186.6265238451
 20
-9.84239505289986
 30
0.0
  0
VERTEX
  5
332E
  8
3
 10
187.0214913441
 20
-9.22155508670005
 30
0.0
  0
VERTEX
  5
332F
  8
3
 10
187.2274313366
 20
-8.783500904499874
 30
0.0
  0
VERTEX
  5
3330
  8
3
 10
187.2998083939
 20
-8.42973822149986
 30
0.0
  0
VERTEX
  5
3331
  8
3
 10
187.2339491164
 20
-8.242638408299968
 30
0.0
  0
VERTEX
  5
3332
  8
3
 10
187.0672328854
 20
-8.176300128200069
 30
0.0
  0
VERTEX
  5
3333
  8
3
 10
186.6996433485
 20
-8.266377161599962
 30
0.0
  0
VERTEX
  5
3334
  8
3
 10
186.1235376401
 20
-8.65642717849994
 30
0.0
  0
VERTEX
  5
3335
  8
3
 10
185.9331917126
 20
-8.88255606209998
 30
0.0
  0
VERTEX
  5
3336
  8
3
 10
185.8500050133
 20
-9.0805132111999
 30
0.0
  0
VERTEX
  5
3337
  8
3
 10
185.8483785218
 20
-9.265393811799981
 30
0.0
  0
VERTEX
  5
3338
  8
3
 10
185.9332199998
 20
-9.50124742419996
 30
0.0
  0
VERTEX
  5
3339
  8
3
 10
186.3145471951
 20
-10.07592391669994
 30
0.0
  0
VERTEX
  5
333A
  8
3
 10
186.3874342087
 20
-10.17579849449987
 30
0.0
  0
SEQEND
  5
37E0
  8
3
  0
POLYLINE
  5
D5F
  8
3
 66
     1
 10
0.0
 20
0.0
 30
0.0
  0
VERTEX
  5
333B
  8
3
 10
187.825
 20
29.37991182339999
 30
0.0
  0
VERTEX
  5
333C
  8
3
 10
187.7083786152
 20
28.99304565700015
 30
0.0
  0
VERTEX
  5
333D
  8
3
 10
187.3688767826
 20
28.64055424719993
 30
0.0
  0
VERTEX
  5
333E
  8
3
 10
186.8366607299
 20
28.3537580026001
 30
0.0
  0
VERTEX
  5
333F
  8
3
 10
186.159020189
 20
28.15814002829995
 30
0.0
  0
VERTEX
  5
3340
  8
3
 10
185.3961664957
 20
28.07108183959997
 30
0.0
  0
VERTEX
  5
3341
  8
3
 10
184.6158825484
 20
28.10031893860003
 30
0.0
  0
VERTEX
  5
3342
  8
3
 10
183.8875
 20
28.24325348090008
 30
0.0
  0
VERTEX
  5
3343
  8
3
 10
183.2757388365
 20
28.48718510500009
 30
0.0
  0
VERTEX
  5
3344
  8
3
 10
182.8349567218
 20
28.81043941580003
 30
0.0
  0
VERTEX
  5
3345
  8
3
 10
182.6043190812
 20
29.18429384900003
 30
0.0
  0
VERTEX
  5
3346
  8
3
 10
182.6043190812
 20
29.57552979770014
 30
0.0
  0
VERTEX
  5
3347
  8
3
 10
182.8349567218
 20
29.94938423099995
 30
0.0
  0
VERTEX
  5
3348
  8
3
 10
183.2757388365
 20
30.27263854170008
 30
0.0
  0
VERTEX
  5
3349
  8
3
 10
183.8875
 20
30.51657016580009
 30
0.0
  0
VERTEX
  5
334A
  8
3
 10
184.6158825484
 20
30.65950470810014
 30
0.0
  0
VERTEX
  5
334B
  8
3
 10
185.3961664957
 20
30.68874180720002
 30
0.0
  0
VERTEX
  5
334C
  8
3
 10
186.159020189
 20
30.60168361850003
 30
0.0
  0
VERTEX
  5
334D
  8
3
 10
186.8366607299
 20
30.40606564410007
 30
0.0
  0
VERTEX
  5
334E
  8
3
 10
187.3688767826
 20
30.11926939960006
 30
0.0
  0
VERTEX
  5
334F
  8
3
 10
187.7083786152
 20
29.76677798980006
 30
0.0
  0
VERTEX
  5
3350
  8
3
 10
187.825
 20
29.37991182339999
 30
0.0
  0
SEQEND
  5
37DF
  8
3
  0
POLYLINE
  5
D60
  8
3
 66
     1
 10
0.0
 20
0.0
 30
0.0
  0
VERTEX
  5
3351
  8
3
 10
187.825
 20
-29.37991182339999
 30
0.0
  0
VERTEX
  5
3352
  8
3
 10
187.7083786152
 20
-29.76677798980006
 30
0.0
  0
VERTEX
  5
3353
  8
3
 10
187.3688767826
 20
-30.11926939960006
 30
0.0
  0
VERTEX
  5
3354
  8
3
 10
186.8366607299
 20
-30.40606564410007
 30
0.0
  0
VERTEX
  5
3355
  8
3
 10
186.159020189
 20
-30.60168361850003
 30
0.0
  0
VERTEX
  5
3356
  8
3
 10
185.3961664957
 20
-30.68874180720002
 30
0.0
  0
VERTEX
  5
3357
  8
3
 10
184.6158825484
 20
-30.65950470809992
 30
0.0
  0
VERTEX
  5
3358
  8
3
 10
183.8875
 20
-30.51657016589991
 30
0.0
  0
VERTEX
  5
3359
  8
3
 10
183.2757388365
 20
-30.27263854169985
 30
0.0
  0
VERTEX
  5
335A
  8
3
 10
182.8349567218
 20
-29.94938423099995
 30
0.0
  0
VERTEX
  5
335B
  8
3
 10
182.6043190812
 20
-29.57552979779996
 30
0.0
  0
VERTEX
  5
335C
  8
3
 10
182.6043190812
 20
-29.18429384900003
 30
0.0
  0
VERTEX
  5
335D
  8
3
 10
182.8349567218
 20
-28.81043941580003
 30
0.0
  0
VERTEX
  5
335E
  8
3
 10
183.2757388365
 20
-28.48718510509991
 30
0.0
  0
VERTEX
  5
335F
  8
3
 10
183.8875
 20
-28.24325348089985
 30
0.0
  0
VERTEX
  5
3360
  8
3
 10
184.6158825484
 20
-28.10031893870007
 30
0.0
  0
VERTEX
  5
3361
  8
3
 10
185.3961664957
 20
-28.07108183959997
 30
0.0
  0
VERTEX
  5
3362
  8
3
 10
186.159020189
 20
-28.15814002829995
 30
0.0
  0
VERTEX
  5
3363
  8
3
 10
186.8366607299
 20
-28.35375800269992
 30
0.0
  0
VERTEX
  5
3364
  8
3
 10
187.3688767826
 20
-28.64055424719993
 30
0.0
  0
VERTEX
  5
3365
  8
3
 10
187.7083786152
 20
-28.99304565699993
 30
0.0
  0
VERTEX
  5
3366
  8
3
 10
187.825
 20
-29.37991182339999
 30
0.0
  0
SEQEND
  5
37DE
  8
3
  0
POLYLINE
  5
D61
  8
3
 66
     1
 10
0.0
 20
0.0
 30
0.0
  0
VERTEX
  5
3367
  8
3
 10
185.2
 20
30.64241182340004
 30
0.0
  0
VERTEX
  5
3368
  8
3
 10
185.9802679108
 20
30.58062067520007
 30
0.0
  0
VERTEX
  5
3369
  8
3
 10
186.6841577621
 20
30.40129577880009
 30
0.0
  0
VERTEX
  5
336A
  8
3
 10
187.2427679108
 20
30.12199070439999
 30
0.0
  0
VERTEX
  5
336B
  8
3
 10
187.6014177037
 20
29.77004577879995
 30
0.0
  0
VERTEX
  5
336C
  8
3
 10
187.725
 20
29.37991182339999
 30
0.0
  0
VERTEX
  5
336D
  8
3
 10
187.6014177037
 20
28.98977786800003
 30
0.0
  0
VERTEX
  5
336E
  8
3
 10
187.2427679108
 20
28.6378329424
 30
0.0
  0
VERTEX
  5
336F
  8
3
 10
186.6841577621
 20
28.35852786800012
 30
0.0
  0
VERTEX
  5
3370
  8
3
 10
185.9802679108
 20
28.17920297160015
 30
0.0
  0
VERTEX
  5
3371
  8
3
 10
185.2
 20
28.11741182339995
 30
0.0
  0
VERTEX
  5
3372
  8
3
 10
184.4197320892
 20
28.17920297160015
 30
0.0
  0
VERTEX
  5
3373
  8
3
 10
183.715842238
 20
28.35852786800012
 30
0.0
  0
VERTEX
  5
3374
  8
3
 10
183.1572320892
 20
28.6378329424
 30
0.0
  0
VERTEX
  5
3375
  8
3
 10
182.7985822964
 20
28.98977786800003
 30
0.0
  0
VERTEX
  5
3376
  8
3
 10
182.675
 20
29.37991182339999
 30
0.0
  0
VERTEX
  5
3377
  8
3
 10
182.7985822964
 20
29.77004577879995
 30
0.0
  0
VERTEX
  5
3378
  8
3
 10
183.1572320892
 20
30.12199070439999
 30
0.0
  0
VERTEX
  5
3379
  8
3
 10
183.715842238
 20
30.40129577880009
 30
0.0
  0
VERTEX
  5
337A
  8
3
 10
184.4197320892
 20
30.58062067520007
 30
0.0
  0
VERTEX
  5
337B
  8
3
 10
185.2
 20
30.64241182340004
 30
0.0
  0
SEQEND
  5
37DD
  8
3
  0
POLYLINE
  5
D62
  8
3
 66
     1
 10
0.0
 20
0.0
 30
0.0
  0
VERTEX
  5
337C
  8
3
 10
185.2
 20
-28.11741182339995
 30
0.0
  0
VERTEX
  5
337D
  8
3
 10
185.9802679108
 20
-28.17920297159992
 30
0.0
  0
VERTEX
  5
337E
  8
3
 10
186.6841577621
 20
-28.3585278679999
 30
0.0
  0
VERTEX
  5
337F
  8
3
 10
187.2427679108
 20
-28.6378329424
 30
0.0
  0
VERTEX
  5
3380
  8
3
 10
187.6014177037
 20
-28.98977786800003
 30
0.0
  0
VERTEX
  5
3381
  8
3
 10
187.725
 20
-29.37991182339999
 30
0.0
  0
VERTEX
  5
3382
  8
3
 10
187.6014177037
 20
-29.77004577879995
 30
0.0
  0
VERTEX
  5
3383
  8
3
 10
187.2427679108
 20
-30.12199070439999
 30
0.0
  0
VERTEX
  5
3384
  8
3
 10
186.6841577621
 20
-30.40129577879986
 30
0.0
  0
VERTEX
  5
3385
  8
3
 10
185.9802679108
 20
-30.58062067520007
 30
0.0
  0
VERTEX
  5
3386
  8
3
 10
185.2
 20
-30.64241182340004
 30
0.0
  0
VERTEX
  5
3387
  8
3
 10
184.4197320892
 20
-30.58062067520007
 30
0.0
  0
VERTEX
  5
3388
  8
3
 10
183.715842238
 20
-30.40129577879986
 30
0.0
  0
VERTEX
  5
3389
  8
3
 10
183.1572320892
 20
-30.12199070439999
 30
0.0
  0
VERTEX
  5
338A
  8
3
 10
182.7985822964
 20
-29.77004577879995
 30
0.0
  0
VERTEX
  5
338B
  8
3
 10
182.675
 20
-29.37991182339999
 30
0.0
  0
VERTEX
  5
338C
  8
3
 10
182.7985822964
 20
-28.98977786800003
 30
0.0
  0
VERTEX
  5
338D
  8
3
 10
183.1572320892
 20
-28.6378329424
 30
0.0
  0
VERTEX
  5
338E
  8
3
 10
183.715842238
 20
-28.3585278679999
 30
0.0
  0
VERTEX
  5
338F
  8
3
 10
184.4197320892
 20
-28.17920297159992
 30
0.0
  0
VERTEX
  5
3390
  8
3
 10
185.2
 20
-28.11741182339995
 30
0.0
  0
SEQEND
  5
37DC
  8
3
  0
CIRCLE
  5
D63
  8
3
 10
185.2
 20
0.0000000000001137
 30
0.0
 40
2.31673274345232
  0
CIRCLE
  5
D64
  8
3
 10
185.2
 20
0.0000000000001137
 30
0.0
 40
1.75
  0
POLYLINE
  5
D65
  8
3
 66
     1
 10
0.0
 20
0.0
 30
0.0
  0
VERTEX
  5
3391
  8
3
 10
185.2
 20
25.92478480450006
 30
0.0
  0
VERTEX
  5
3392
  8
3
 10
185.8321729159
 20
25.86569800519999
 30
0.0
  0
VERTEX
  5
3393
  8
3
 10
186.3789673764
 20
25.69641760699994
 30
0.0
  0
VERTEX
  5
3394
  8
3
 10
186.7665357599
 20
25.43980586579994
 30
0.0
  0
VERTEX
  5
3395
  8
3
 10
186.9425348086
 20
25.13051961899998
 30
0.0
  0
VERTEX
  5
3396
  8
3
 10
186.8831948756
 20
24.81032968810007
 30
0.0
  0
VERTEX
  5
3397
  8
3
 10
186.5965301478
 20
24.5224794976001
 30
0.0
  0
VERTEX
  5
3398
  8
3
 10
186.1212562851
 20
24.30584481070002
 30
0.0
  0
VERTEX
  5
3399
  8
3
 10
185.5215616562
 20
24.18968334220006
 30
0.0
  0
VERTEX
  5
339A
  8
3
 10
184.8784383439
 20
24.18968334220006
 30
0.0
  0
VERTEX
  5
339B
  8
3
 10
184.278743715
 20
24.30584481070002
 30
0.0
  0
VERTEX
  5
339C
  8
3
 10
183.8034698523
 20
24.5224794976001
 30
0.0
  0
VERTEX
  5
339D
  8
3
 10
183.5168051245
 20
24.81032968810007
 30
0.0
  0
VERTEX
  5
339E
  8
3
 10
183.4574651915
 20
25.13051961899998
 30
0.0
  0
VERTEX
  5
339F
  8
3
 10
183.6334642402
 20
25.43980586579994
 30
0.0
  0
VERTEX
  5
33A0
  8
3
 10
184.0210326237
 20
25.69641760699994
 30
0.0
  0
VERTEX
  5
33A1
  8
3
 10
184.5678270842
 20
25.86569800519999
 30
0.0
  0
VERTEX
  5
33A2
  8
3
 10
185.2
 20
25.92478480450006
 30
0.0
  0
SEQEND
  5
37DB
  8
3
  0
POLYLINE
  5
D66
  8
3
 66
     1
 10
0.0
 20
0.0
 30
0.0
  0
VERTEX
  5
33A3
  8
3
 10
187.5167327435
 20
25.54058975739997
 30
0.0
  0
VERTEX
  5
33A4
  8
3
 10
187.3912057732
 20
25.16446881140007
 30
0.0
  0
VERTEX
  5
33A5
  8
3
 10
187.0282276573
 20
24.82910640600005
 30
0.0
  0
VERTEX
  5
33A6
  8
3
 10
186.4671327069
 20
24.57084426150016
 30
0.0
  0
VERTEX
  5
33A7
  8
3
 10
185.7687242661
 20
24.41766908860006
 30
0.0
  0
VERTEX
  5
33A8
  8
3
 10
185.0086857265
 20
24.38617979420007
 30
0.0
  0
VERTEX
  5
33A9
  8
3
 10
184.2693790569
 20
24.47978873170007
 30
0.0
  0
VERTEX
  5
33AA
  8
3
 10
183.6309196065
 20
24.68835192040012
 30
0.0
  0
VERTEX
  5
33AB
  8
3
 10
183.1624943636
 20
24.98926830259995
 30
0.0
  0
VERTEX
  5
33AC
  8
3
 10
182.9148644716
 20
25.34992891910008
 30
0.0
  0
VERTEX
  5
33AD
  8
3
 10
182.9148644716
 20
25.73125059580013
 30
0.0
  0
VERTEX
  5
33AE
  8
3
 10
183.1624943636
 20
26.09191121219999
 30
0.0
  0
VERTEX
  5
33AF
  8
3
 10
183.6309196065
 20
26.39282759440005
 30
0.0
  0
VERTEX
  5
33B0
  8
3
 10
184.2693790569
 20
26.60139078320015
 30
0.0
  0
VERTEX
  5
33B1
  8
3
 10
185.0086857265
 20
26.69499972070014
 30
0.0
  0
VERTEX
  5
33B2
  8
3
 10
185.7687242661
 20
26.66351042620011
 30
0.0
  0
VERTEX
  5
33B3
  8
3
 10
186.4671327069
 20
26.51033525340006
 30
0.0
  0
VERTEX
  5
33B4
  8
3
 10
187.0282276573
 20
26.25207310889994
 30
0.0
  0
VERTEX
  5
33B5
  8
3
 10
187.3912057732
 20
25.91671070350014
 30
0.0
  0
VERTEX
  5
33B6
  8
3
 10
187.5167327435
 20
25.54058975739997
 30
0.0
  0
SEQEND
  5
37DA
  8
3
  0
POLYLINE
  5
D67
  8
3
 66
     1
 10
0.0
 20
0.0
 30
0.0
  0
VERTEX
  5
33B7
  8
3
 10
183.145
 20
25.69930384290012
 30
0.0
  0
VERTEX
  5
33B8
  8
3
 10
183.2689316643
 20
26.0507295402
 30
0.0
  0
VERTEX
  5
33B9
  8
3
 10
183.6257786694
 20
26.35976811190005
 30
0.0
  0
VERTEX
  5
33BA
  8
3
 10
184.1725
 20
26.58914494530006
 30
0.0
  0
VERTEX
  5
33BB
  8
3
 10
184.8431529949
 20
26.71119380910011
 30
0.0
  0
VERTEX
  5
33BC
  8
3
 10
185.5568470051
 20
26.71119380910011
 30
0.0
  0
VERTEX
  5
33BD
  8
3
 10
186.2275
 20
26.58914494530006
 30
0.0
  0
VERTEX
  5
33BE
  8
3
 10
186.7742213307
 20
26.35976811190005
 30
0.0
  0
VERTEX
  5
33BF
  8
3
 10
187.1310683358
 20
26.0507295402
 30
0.0
  0
VERTEX
  5
33C0
  8
3
 10
187.255
 20
25.69930384290012
 30
0.0
  0
VERTEX
  5
33C1
  8
3
 10
187.1310683358
 20
25.34787814570007
 30
0.0
  0
VERTEX
  5
33C2
  8
3
 10
186.7742213307
 20
25.03883957400001
 30
0.0
  0
VERTEX
  5
33C3
  8
3
 10
186.2275
 20
24.80946274049995
 30
0.0
  0
VERTEX
  5
33C4
  8
3
 10
185.5568470051
 20
24.68741387670013
 30
0.0
  0
VERTEX
  5
33C5
  8
3
 10
184.8431529949
 20
24.68741387670013
 30
0.0
  0
VERTEX
  5
33C6
  8
3
 10
184.1725
 20
24.80946274049995
 30
0.0
  0
VERTEX
  5
33C7
  8
3
 10
183.6257786694
 20
25.03883957400001
 30
0.0
  0
VERTEX
  5
33C8
  8
3
 10
183.2689316643
 20
25.34787814570007
 30
0.0
  0
VERTEX
  5
33C9
  8
3
 10
183.145
 20
25.69930384290012
 30
0.0
  0
SEQEND
  5
37D9
  8
3
  0
POLYLINE
  5
D68
  8
3
 66
     1
 10
0.0
 20
0.0
 30
0.0
  0
VERTEX
  5
33CA
  8
3
 10
182.7
 20
25.96915073759999
 30
0.0
  0
VERTEX
  5
33CB
  8
3
 10
182.8223587093
 20
26.35542198049995
 30
0.0
  0
VERTEX
  5
33CC
  8
3
 10
183.1774575141
 20
26.70388230290007
 30
0.0
  0
VERTEX
  5
33CD
  8
3
 10
183.7305368693
 20
26.98042198049995
 30
0.0
  0
VERTEX
  5
33CE
  8
3
 10
184.4274575141
 20
27.15797138289997
 30
0.0
  0
VERTEX
  5
33CF
  8
3
 10
185.2
 20
27.21915073759999
 30
0.0
  0
VERTEX
  5
33D0
  8
3
 10
185.972542486
 20
27.15797138289997
 30
0.0
  0
VERTEX
  5
33D1
  8
3
 10
186.6694631308
 20
26.98042198049995
 30
0.0
  0
VERTEX
  5
33D2
  8
3
 10
187.222542486
 20
26.70388230290007
 30
0.0
  0
VERTEX
  5
33D3
  8
3
 10
187.5776412908
 20
26.35542198049995
 30
0.0
  0
VERTEX
  5
33D4
  8
3
 10
187.7
 20
25.96915073759999
 30
0.0
  0
VERTEX
  5
33D5
  8
3
 10
187.5776412908
 20
25.58287949459998
 30
0.0
  0
VERTEX
  5
33D6
  8
3
 10
187.222542486
 20
25.23441917220009
 30
0.0
  0
VERTEX
  5
33D7
  8
3
 10
186.6694631308
 20
24.95787949459998
 30
0.0
  0
VERTEX
  5
33D8
  8
3
 10
185.972542486
 20
24.78033009219996
 30
0.0
  0
VERTEX
  5
33D9
  8
3
 10
185.2
 20
24.71915073759999
 30
0.0
  0
VERTEX
  5
33DA
  8
3
 10
184.4274575141
 20
24.78033009219996
 30
0.0
  0
VERTEX
  5
33DB
  8
3
 10
183.7305368693
 20
24.95787949459998
 30
0.0
  0
VERTEX
  5
33DC
  8
3
 10
183.1774575141
 20
25.23441917220009
 30
0.0
  0
VERTEX
  5
33DD
  8
3
 10
182.8223587093
 20
25.58287949459998
 30
0.0
  0
VERTEX
  5
33DE
  8
3
 10
182.7
 20
25.96915073759999
 30
0.0
  0
SEQEND
  5
37D8
  8
3
  0
POLYLINE
  5
D69
  8
3
 66
     1
 10
0.0
 20
0.0
 30
0.0
  0
VERTEX
  5
33DF
  8
3
 10
182.7
 20
26.04719028889997
 30
0.0
  0
VERTEX
  5
33E0
  8
3
 10
182.8223587093
 20
26.43346153189998
 30
0.0
  0
VERTEX
  5
33E1
  8
3
 10
183.1774575141
 20
26.78192185430009
 30
0.0
  0
VERTEX
  5
33E2
  8
3
 10
183.7305368693
 20
27.05846153189998
 30
0.0
  0
VERTEX
  5
33E3
  8
3
 10
184.4274575141
 20
27.2360109343
 30
0.0
  0
VERTEX
  5
33E4
  8
3
 10
185.2
 20
27.29719028889997
 30
0.0
  0
VERTEX
  5
33E5
  8
3
 10
185.972542486
 20
27.2360109343
 30
0.0
  0
VERTEX
  5
33E6
  8
3
 10
186.6694631308
 20
27.05846153189998
 30
0.0
  0
VERTEX
  5
33E7
  8
3
 10
187.222542486
 20
26.78192185430009
 30
0.0
  0
VERTEX
  5
33E8
  8
3
 10
187.5776412908
 20
26.43346153189998
 30
0.0
  0
VERTEX
  5
33E9
  8
3
 10
187.7
 20
26.04719028889997
 30
0.0
  0
VERTEX
  5
33EA
  8
3
 10
187.5776412908
 20
25.66091904589996
 30
0.0
  0
VERTEX
  5
33EB
  8
3
 10
187.222542486
 20
25.31245872350007
 30
0.0
  0
VERTEX
  5
33EC
  8
3
 10
186.6694631308
 20
25.03591904589996
 30
0.0
  0
VERTEX
  5
33ED
  8
3
 10
185.972542486
 20
24.85836964349994
 30
0.0
  0
VERTEX
  5
33EE
  8
3
 10
185.2
 20
24.79719028889997
 30
0.0
  0
VERTEX
  5
33EF
  8
3
 10
184.4274575141
 20
24.85836964349994
 30
0.0
  0
VERTEX
  5
33F0
  8
3
 10
183.7305368693
 20
25.03591904589996
 30
0.0
  0
VERTEX
  5
33F1
  8
3
 10
183.1774575141
 20
25.31245872350007
 30
0.0
  0
VERTEX
  5
33F2
  8
3
 10
182.8223587093
 20
25.66091904589996
 30
0.0
  0
VERTEX
  5
33F3
  8
3
 10
182.7
 20
26.04719028889997
 30
0.0
  0
SEQEND
  5
37D7
  8
3
  0
POLYLINE
  5
D6A
  8
3
 66
     1
 10
0.0
 20
0.0
 30
0.0
  0
VERTEX
  5
33F4
  8
3
 10
183.1450000001
 20
26.31703718350002
 30
0.0
  0
VERTEX
  5
33F5
  8
3
 10
183.2689316643
 20
26.66846288080012
 30
0.0
  0
VERTEX
  5
33F6
  8
3
 10
183.6257786694
 20
26.97750145249995
 30
0.0
  0
VERTEX
  5
33F7
  8
3
 10
184.1725000001
 20
27.20687828589996
 30
0.0
  0
VERTEX
  5
33F8
  8
3
 10
184.8431529949
 20
27.32892714980005
 30
0.0
  0
VERTEX
  5
33F9
  8
3
 10
185.5568470052
 20
27.32892714980005
 30
0.0
  0
VERTEX
  5
33FA
  8
3
 10
186.2275000001
 20
27.20687828589996
 30
0.0
  0
VERTEX
  5
33FB
  8
3
 10
186.7742213307
 20
26.97750145249995
 30
0.0
  0
VERTEX
  5
33FC
  8
3
 10
187.1310683358
 20
26.66846288080012
 30
0.0
  0
VERTEX
  5
33FD
  8
3
 10
187.2550000001
 20
26.31703718350002
 30
0.0
  0
VERTEX
  5
33FE
  8
3
 10
187.1310683358
 20
25.96561148629996
 30
0.0
  0
VERTEX
  5
33FF
  8
3
 10
186.7742213307
 20
25.65657291460013
 30
0.0
  0
VERTEX
  5
3400
  8
3
 10
186.2275000001
 20
25.42719608110008
 30
0.0
  0
VERTEX
  5
3401
  8
3
 10
185.5568470052
 20
25.30514721730003
 30
0.0
  0
VERTEX
  5
3402
  8
3
 10
184.8431529949
 20
25.30514721730003
 30
0.0
  0
VERTEX
  5
3403
  8
3
 10
184.1725000001
 20
25.42719608110008
 30
0.0
  0
VERTEX
  5
3404
  8
3
 10
183.6257786694
 20
25.65657291460013
 30
0.0
  0
VERTEX
  5
3405
  8
3
 10
183.2689316643
 20
25.96561148629996
 30
0.0
  0
VERTEX
  5
3406
  8
3
 10
183.1450000001
 20
26.31703718350002
 30
0.0
  0
SEQEND
  5
37D6
  8
3
  0
POLYLINE
  5
D6B
  8
3
 66
     1
 10
0.0
 20
0.0
 30
0.0
  0
VERTEX
  5
3407
  8
3
 10
182.7
 20
26.58688407820011
 30
0.0
  0
VERTEX
  5
3408
  8
3
 10
182.8223587093
 20
26.97315532110008
 30
0.0
  0
VERTEX
  5
3409
  8
3
 10
183.1774575141
 20
27.32161564349997
 30
0.0
  0
VERTEX
  5
340A
  8
3
 10
183.7305368693
 20
27.59815532110008
 30
0.0
  0
VERTEX
  5
340B
  8
3
 10
184.4274575141
 20
27.7757047235001
 30
0.0
  0
VERTEX
  5
340C
  8
3
 10
185.2
 20
27.83688407820011
 30
0.0
  0
VERTEX
  5
340D
  8
3
 10
185.972542486
 20
27.7757047235001
 30
0.0
  0
VERTEX
  5
340E
  8
3
 10
186.6694631308
 20
27.59815532110008
 30
0.0
  0
VERTEX
  5
340F
  8
3
 10
187.222542486
 20
27.32161564349997
 30
0.0
  0
VERTEX
  5
3410
  8
3
 10
187.5776412908
 20
26.97315532110008
 30
0.0
  0
VERTEX
  5
3411
  8
3
 10
187.7
 20
26.58688407820011
 30
0.0
  0
VERTEX
  5
3412
  8
3
 10
187.5776412908
 20
26.2006128352001
 30
0.0
  0
VERTEX
  5
3413
  8
3
 10
187.222542486
 20
25.85215251279999
 30
0.0
  0
VERTEX
  5
3414
  8
3
 10
186.6694631308
 20
25.5756128352001
 30
0.0
  0
VERTEX
  5
3415
  8
3
 10
185.972542486
 20
25.39806343280009
 30
0.0
  0
VERTEX
  5
3416
  8
3
 10
185.2
 20
25.33688407820011
 30
0.0
  0
VERTEX
  5
3417
  8
3
 10
184.4274575141
 20
25.39806343280009
 30
0.0
  0
VERTEX
  5
3418
  8
3
 10
183.7305368693
 20
25.5756128352001
 30
0.0
  0
VERTEX
  5
3419
  8
3
 10
183.1774575141
 20
25.85215251279999
 30
0.0
  0
VERTEX
  5
341A
  8
3
 10
182.8223587093
 20
26.2006128352001
 30
0.0
  0
VERTEX
  5
341B
  8
3
 10
182.7
 20
26.58688407820011
 30
0.0
  0
SEQEND
  5
37D5
  8
3
  0
POLYLINE
  5
D6C
  8
3
 66
     1
 10
0.0
 20
0.0
 30
0.0
  0
VERTEX
  5
341C
  8
3
 10
182.7
 20
26.66492362950009
 30
0.0
  0
VERTEX
  5
341D
  8
3
 10
182.8223587093
 20
27.0511948725001
 30
0.0
  0
VERTEX
  5
341E
  8
3
 10
183.1774575141
 20
27.39965519489999
 30
0.0
  0
VERTEX
  5
341F
  8
3
 10
183.7305368693
 20
27.6761948725001
 30
0.0
  0
VERTEX
  5
3420
  8
3
 10
184.4274575141
 20
27.85374427490012
 30
0.0
  0
VERTEX
  5
3421
  8
3
 10
185.2
 20
27.91492362950009
 30
0.0
  0
VERTEX
  5
3422
  8
3
 10
185.972542486
 20
27.85374427490012
 30
0.0
  0
VERTEX
  5
3423
  8
3
 10
186.6694631308
 20
27.6761948725001
 30
0.0
  0
VERTEX
  5
3424
  8
3
 10
187.222542486
 20
27.39965519489999
 30
0.0
  0
VERTEX
  5
3425
  8
3
 10
187.5776412908
 20
27.0511948725001
 30
0.0
  0
VERTEX
  5
3426
  8
3
 10
187.7
 20
26.66492362950009
 30
0.0
  0
VERTEX
  5
3427
  8
3
 10
187.5776412908
 20
26.27865238650008
 30
0.0
  0
VERTEX
  5
3428
  8
3
 10
187.222542486
 20
25.93019206409997
 30
0.0
  0
VERTEX
  5
3429
  8
3
 10
186.6694631308
 20
25.65365238650008
 30
0.0
  0
VERTEX
  5
342A
  8
3
 10
185.972542486
 20
25.47610298410007
 30
0.0
  0
VERTEX
  5
342B
  8
3
 10
185.2
 20
25.41492362950009
 30
0.0
  0
VERTEX
  5
342C
  8
3
 10
184.4274575141
 20
25.47610298410007
 30
0.0
  0
VERTEX
  5
342D
  8
3
 10
183.7305368693
 20
25.65365238650008
 30
0.0
  0
VERTEX
  5
342E
  8
3
 10
183.1774575141
 20
25.93019206409997
 30
0.0
  0
VERTEX
  5
342F
  8
3
 10
182.8223587093
 20
26.27865238650008
 30
0.0
  0
VERTEX
  5
3430
  8
3
 10
182.7
 20
26.66492362950009
 30
0.0
  0
SEQEND
  5
37D4
  8
3
  0
POLYLINE
  5
D6D
  8
3
 66
     1
 10
0.0
 20
0.0
 30
0.0
  0
VERTEX
  5
3431
  8
3
 10
183.145
 20
26.93477052410014
 30
0.0
  0
VERTEX
  5
3432
  8
3
 10
183.2689316643
 20
27.28619622140002
 30
0.0
  0
VERTEX
  5
3433
  8
3
 10
183.6257786694
 20
27.59523479310008
 30
0.0
  0
VERTEX
  5
3434
  8
3
 10
184.1725
 20
27.82461162650009
 30
0.0
  0
VERTEX
  5
3435
  8
3
 10
184.8431529949
 20
27.94666049039995
 30
0.0
  0
VERTEX
  5
3436
  8
3
 10
185.5568470052
 20
27.94666049039995
 30
0.0
  0
VERTEX
  5
3437
  8
3
 10
186.2275
 20
27.82461162650009
 30
0.0
  0
VERTEX
  5
3438
  8
3
 10
186.7742213307
 20
27.59523479310008
 30
0.0
  0
VERTEX
  5
3439
  8
3
 10
187.1310683358
 20
27.28619622140002
 30
0.0
  0
VERTEX
  5
343A
  8
3
 10
187.255
 20
26.93477052410014
 30
0.0
  0
VERTEX
  5
343B
  8
3
 10
187.1310683358
 20
26.58334482690009
 30
0.0
  0
VERTEX
  5
343C
  8
3
 10
186.7742213307
 20
26.27430625520003
 30
0.0
  0
VERTEX
  5
343D
  8
3
 10
186.2275
 20
26.04492942169998
 30
0.0
  0
VERTEX
  5
343E
  8
3
 10
185.5568470052
 20
25.92288055789993
 30
0.0
  0
VERTEX
  5
343F
  8
3
 10
184.8431529949
 20
25.92288055789993
 30
0.0
  0
VERTEX
  5
3440
  8
3
 10
184.1725
 20
26.04492942169998
 30
0.0
  0
VERTEX
  5
3441
  8
3
 10
183.6257786694
 20
26.27430625520003
 30
0.0
  0
VERTEX
  5
3442
  8
3
 10
183.2689316643
 20
26.58334482690009
 30
0.0
  0
VERTEX
  5
3443
  8
3
 10
183.145
 20
26.93477052410014
 30
0.0
  0
SEQEND
  5
37D3
  8
3
  0
POLYLINE
  5
D6E
  8
3
 66
     1
 10
0.0
 20
0.0
 30
0.0
  0
VERTEX
  5
3444
  8
3
 10
182.7
 20
27.20461741880001
 30
0.0
  0
VERTEX
  5
3445
  8
3
 10
182.8223587093
 20
27.59088866169998
 30
0.0
  0
VERTEX
  5
3446
  8
3
 10
183.1774575141
 20
27.93934898410009
 30
0.0
  0
VERTEX
  5
3447
  8
3
 10
183.7305368693
 20
28.21588866169998
 30
0.0
  0
VERTEX
  5
3448
  8
3
 10
184.4274575141
 20
28.3934380641
 30
0.0
  0
VERTEX
  5
3449
  8
3
 10
185.2
 20
28.45461741880001
 30
0.0
  0
VERTEX
  5
344A
  8
3
 10
185.972542486
 20
28.3934380641
 30
0.0
  0
VERTEX
  5
344B
  8
3
 10
186.6694631308
 20
28.21588866169998
 30
0.0
  0
VERTEX
  5
344C
  8
3
 10
187.222542486
 20
27.93934898410009
 30
0.0
  0
VERTEX
  5
344D
  8
3
 10
187.5776412908
 20
27.59088866169998
 30
0.0
  0
VERTEX
  5
344E
  8
3
 10
187.7
 20
27.20461741880001
 30
0.0
  0
VERTEX
  5
344F
  8
3
 10
187.5776412908
 20
26.8183461758
 30
0.0
  0
VERTEX
  5
3450
  8
3
 10
187.222542486
 20
26.46988585340011
 30
0.0
  0
VERTEX
  5
3451
  8
3
 10
186.6694631308
 20
26.1933461758
 30
0.0
  0
VERTEX
  5
3452
  8
3
 10
185.972542486
 20
26.01579677339998
 30
0.0
  0
VERTEX
  5
3453
  8
3
 10
185.2
 20
25.95461741880001
 30
0.0
  0
VERTEX
  5
3454
  8
3
 10
184.4274575141
 20
26.01579677339998
 30
0.0
  0
VERTEX
  5
3455
  8
3
 10
183.7305368693
 20
26.1933461758
 30
0.0
  0
VERTEX
  5
3456
  8
3
 10
183.1774575141
 20
26.46988585340011
 30
0.0
  0
VERTEX
  5
3457
  8
3
 10
182.8223587093
 20
26.8183461758
 30
0.0
  0
VERTEX
  5
3458
  8
3
 10
182.7
 20
27.20461741880001
 30
0.0
  0
SEQEND
  5
37D2
  8
3
  0
POLYLINE
  5
D6F
  8
3
 66
     1
 10
0.0
 20
0.0
 30
0.0
  0
VERTEX
  5
3459
  8
3
 10
182.7
 20
27.28265697009999
 30
0.0
  0
VERTEX
  5
345A
  8
3
 10
182.8223587093
 20
27.6689282131
 30
0.0
  0
VERTEX
  5
345B
  8
3
 10
183.1774575141
 20
28.01738853550012
 30
0.0
  0
VERTEX
  5
345C
  8
3
 10
183.7305368693
 20
28.2939282131
 30
0.0
  0
VERTEX
  5
345D
  8
3
 10
184.4274575141
 20
28.47147761550002
 30
0.0
  0
VERTEX
  5
345E
  8
3
 10
185.2
 20
28.53265697009999
 30
0.0
  0
VERTEX
  5
345F
  8
3
 10
185.972542486
 20
28.47147761550002
 30
0.0
  0
VERTEX
  5
3460
  8
3
 10
186.6694631308
 20
28.2939282131
 30
0.0
  0
VERTEX
  5
3461
  8
3
 10
187.222542486
 20
28.01738853550012
 30
0.0
  0
VERTEX
  5
3462
  8
3
 10
187.5776412908
 20
27.6689282131
 30
0.0
  0
VERTEX
  5
3463
  8
3
 10
187.7
 20
27.28265697009999
 30
0.0
  0
VERTEX
  5
3464
  8
3
 10
187.5776412908
 20
26.89638572709998
 30
0.0
  0
VERTEX
  5
3465
  8
3
 10
187.222542486
 20
26.54792540470009
 30
0.0
  0
VERTEX
  5
3466
  8
3
 10
186.6694631308
 20
26.27138572709998
 30
0.0
  0
VERTEX
  5
3467
  8
3
 10
185.972542486
 20
26.09383632469996
 30
0.0
  0
VERTEX
  5
3468
  8
3
 10
185.2
 20
26.03265697009999
 30
0.0
  0
VERTEX
  5
3469
  8
3
 10
184.4274575141
 20
26.09383632469996
 30
0.0
  0
VERTEX
  5
346A
  8
3
 10
183.7305368693
 20
26.27138572709998
 30
0.0
  0
VERTEX
  5
346B
  8
3
 10
183.1774575141
 20
26.54792540470009
 30
0.0
  0
VERTEX
  5
346C
  8
3
 10
182.8223587093
 20
26.89638572709998
 30
0.0
  0
VERTEX
  5
346D
  8
3
 10
182.7
 20
27.28265697009999
 30
0.0
  0
SEQEND
  5
37D1
  8
3
  0
POLYLINE
  5
D70
  8
3
 66
     1
 10
0.0
 20
0.0
 30
0.0
  0
VERTEX
  5
346E
  8
3
 10
183.145
 20
27.55250386470004
 30
0.0
  0
VERTEX
  5
346F
  8
3
 10
183.2689316643
 20
27.90392956200014
 30
0.0
  0
VERTEX
  5
3470
  8
3
 10
183.6257786694
 20
28.21296813369997
 30
0.0
  0
VERTEX
  5
3471
  8
3
 10
184.1725
 20
28.44234496709998
 30
0.0
  0
VERTEX
  5
3472
  8
3
 10
184.8431529949
 20
28.56439383100007
 30
0.0
  0
VERTEX
  5
3473
  8
3
 10
185.5568470051
 20
28.56439383100007
 30
0.0
  0
VERTEX
  5
3474
  8
3
 10
186.2275
 20
28.44234496709998
 30
0.0
  0
VERTEX
  5
3475
  8
3
 10
186.7742213307
 20
28.21296813369997
 30
0.0
  0
VERTEX
  5
3476
  8
3
 10
187.1310683358
 20
27.90392956200014
 30
0.0
  0
VERTEX
  5
3477
  8
3
 10
187.255
 20
27.55250386470004
 30
0.0
  0
VERTEX
  5
3478
  8
3
 10
187.1310683358
 20
27.20107816749999
 30
0.0
  0
VERTEX
  5
3479
  8
3
 10
186.7742213307
 20
26.89203959579993
 30
0.0
  0
VERTEX
  5
347A
  8
3
 10
186.2275
 20
26.66266276240015
 30
0.0
  0
VERTEX
  5
347B
  8
3
 10
185.5568470051
 20
26.54061389850006
 30
0.0
  0
VERTEX
  5
347C
  8
3
 10
184.8431529949
 20
26.54061389850006
 30
0.0
  0
VERTEX
  5
347D
  8
3
 10
184.1725
 20
26.66266276240015
 30
0.0
  0
VERTEX
  5
347E
  8
3
 10
183.6257786694
 20
26.89203959579993
 30
0.0
  0
VERTEX
  5
347F
  8
3
 10
183.2689316643
 20
27.20107816749999
 30
0.0
  0
VERTEX
  5
3480
  8
3
 10
183.145
 20
27.55250386470004
 30
0.0
  0
SEQEND
  5
37D0
  8
3
  0
POLYLINE
  5
D71
  8
3
 66
     1
 10
0.0
 20
0.0
 30
0.0
  0
VERTEX
  5
3481
  8
3
 10
182.7
 20
27.82235075940014
 30
0.0
  0
VERTEX
  5
3482
  8
3
 10
182.8223587093
 20
28.2086220023001
 30
0.0
  0
VERTEX
  5
3483
  8
3
 10
183.1774575141
 20
28.55708232469999
 30
0.0
  0
VERTEX
  5
3484
  8
3
 10
183.7305368693
 20
28.8336220023001
 30
0.0
  0
VERTEX
  5
3485
  8
3
 10
184.4274575141
 20
29.01117140470012
 30
0.0
  0
VERTEX
  5
3486
  8
3
 10
185.2
 20
29.07235075940014
 30
0.0
  0
VERTEX
  5
3487
  8
3
 10
185.972542486
 20
29.01117140470012
 30
0.0
  0
VERTEX
  5
3488
  8
3
 10
186.6694631308
 20
28.8336220023001
 30
0.0
  0
VERTEX
  5
3489
  8
3
 10
187.222542486
 20
28.55708232469999
 30
0.0
  0
VERTEX
  5
348A
  8
3
 10
187.5776412908
 20
28.2086220023001
 30
0.0
  0
VERTEX
  5
348B
  8
3
 10
187.7
 20
27.82235075940014
 30
0.0
  0
VERTEX
  5
348C
  8
3
 10
187.5776412908
 20
27.43607951640013
 30
0.0
  0
VERTEX
  5
348D
  8
3
 10
187.222542486
 20
27.08761919400001
 30
0.0
  0
VERTEX
  5
348E
  8
3
 10
186.6694631308
 20
26.81107951640013
 30
0.0
  0
VERTEX
  5
348F
  8
3
 10
185.972542486
 20
26.63353011400011
 30
0.0
  0
VERTEX
  5
3490
  8
3
 10
185.2
 20
26.57235075940014
 30
0.0
  0
VERTEX
  5
3491
  8
3
 10
184.4274575141
 20
26.63353011400011
 30
0.0
  0
VERTEX
  5
3492
  8
3
 10
183.7305368693
 20
26.81107951640013
 30
0.0
  0
VERTEX
  5
3493
  8
3
 10
183.1774575141
 20
27.08761919400001
 30
0.0
  0
VERTEX
  5
3494
  8
3
 10
182.8223587093
 20
27.43607951640013
 30
0.0
  0
VERTEX
  5
3495
  8
3
 10
182.7
 20
27.82235075940014
 30
0.0
  0
SEQEND
  5
37CF
  8
3
  0
POLYLINE
  5
D72
  8
3
 66
     1
 10
0.0
 20
0.0
 30
0.0
  0
VERTEX
  5
3496
  8
3
 10
182.7
 20
27.90039031070012
 30
0.0
  0
VERTEX
  5
3497
  8
3
 10
182.8223587093
 20
28.28666155370013
 30
0.0
  0
VERTEX
  5
3498
  8
3
 10
183.1774575141
 20
28.63512187610002
 30
0.0
  0
VERTEX
  5
3499
  8
3
 10
183.7305368693
 20
28.91166155370013
 30
0.0
  0
VERTEX
  5
349A
  8
3
 10
184.4274575141
 20
29.08921095610015
 30
0.0
  0
VERTEX
  5
349B
  8
3
 10
185.2
 20
29.15039031070012
 30
0.0
  0
VERTEX
  5
349C
  8
3
 10
185.972542486
 20
29.08921095610015
 30
0.0
  0
VERTEX
  5
349D
  8
3
 10
186.6694631308
 20
28.91166155370013
 30
0.0
  0
VERTEX
  5
349E
  8
3
 10
187.222542486
 20
28.63512187610002
 30
0.0
  0
VERTEX
  5
349F
  8
3
 10
187.5776412908
 20
28.28666155370013
 30
0.0
  0
VERTEX
  5
34A0
  8
3
 10
187.7
 20
27.90039031070012
 30
0.0
  0
VERTEX
  5
34A1
  8
3
 10
187.5776412908
 20
27.51411906780015
 30
0.0
  0
VERTEX
  5
34A2
  8
3
 10
187.222542486
 20
27.16565874540004
 30
0.0
  0
VERTEX
  5
34A3
  8
3
 10
186.6694631308
 20
26.88911906780015
 30
0.0
  0
VERTEX
  5
34A4
  8
3
 10
185.972542486
 20
26.71156966540013
 30
0.0
  0
VERTEX
  5
34A5
  8
3
 10
185.2
 20
26.65039031070012
 30
0.0
  0
VERTEX
  5
34A6
  8
3
 10
184.4274575141
 20
26.71156966540013
 30
0.0
  0
VERTEX
  5
34A7
  8
3
 10
183.7305368693
 20
26.88911906780015
 30
0.0
  0
VERTEX
  5
34A8
  8
3
 10
183.1774575141
 20
27.16565874540004
 30
0.0
  0
VERTEX
  5
34A9
  8
3
 10
182.8223587093
 20
27.51411906780015
 30
0.0
  0
VERTEX
  5
34AA
  8
3
 10
182.7
 20
27.90039031070012
 30
0.0
  0
SEQEND
  5
37CE
  8
3
  0
POLYLINE
  5
D73
  8
3
 66
     1
 10
0.0
 20
0.0
 30
0.0
  0
VERTEX
  5
34AB
  8
3
 10
183.145
 20
28.17023720529994
 30
0.0
  0
VERTEX
  5
34AC
  8
3
 10
183.2689316643
 20
28.52166290260004
 30
0.0
  0
VERTEX
  5
34AD
  8
3
 10
183.6257786694
 20
28.8307014743001
 30
0.0
  0
VERTEX
  5
34AE
  8
3
 10
184.1725
 20
29.06007830770011
 30
0.0
  0
VERTEX
  5
34AF
  8
3
 10
184.8431529949
 20
29.18212717159997
 30
0.0
  0
VERTEX
  5
34B0
  8
3
 10
185.5568470051
 20
29.18212717159997
 30
0.0
  0
VERTEX
  5
34B1
  8
3
 10
186.2275
 20
29.06007830770011
 30
0.0
  0
VERTEX
  5
34B2
  8
3
 10
186.7742213306
 20
28.8307014743001
 30
0.0
  0
VERTEX
  5
34B3
  8
3
 10
187.1310683358
 20
28.52166290260004
 30
0.0
  0
VERTEX
  5
34B4
  8
3
 10
187.255
 20
28.17023720529994
 30
0.0
  0
VERTEX
  5
34B5
  8
3
 10
187.1310683358
 20
27.81881150810011
 30
0.0
  0
VERTEX
  5
34B6
  8
3
 10
186.7742213306
 20
27.50977293640005
 30
0.0
  0
VERTEX
  5
34B7
  8
3
 10
186.2275
 20
27.28039610300004
 30
0.0
  0
VERTEX
  5
34B8
  8
3
 10
185.5568470051
 20
27.15834723909995
 30
0.0
  0
VERTEX
  5
34B9
  8
3
 10
184.8431529949
 20
27.15834723909995
 30
0.0
  0
VERTEX
  5
34BA
  8
3
 10
184.1725
 20
27.28039610300004
 30
0.0
  0
VERTEX
  5
34BB
  8
3
 10
183.6257786694
 20
27.50977293640005
 30
0.0
  0
VERTEX
  5
34BC
  8
3
 10
183.2689316643
 20
27.81881150810011
 30
0.0
  0
VERTEX
  5
34BD
  8
3
 10
183.145
 20
28.17023720529994
 30
0.0
  0
SEQEND
  5
37CD
  8
3
  0
POLYLINE
  5
D74
  8
3
 66
     1
 10
0.0
 20
0.0
 30
0.0
  0
VERTEX
  5
34BE
  8
3
 10
182.7
 20
28.44008410000004
 30
0.0
  0
VERTEX
  5
34BF
  8
3
 10
182.8223587093
 20
28.8263553429
 30
0.0
  0
VERTEX
  5
34C0
  8
3
 10
183.1774575141
 20
29.17481566530012
 30
0.0
  0
VERTEX
  5
34C1
  8
3
 10
183.7305368693
 20
29.4513553429
 30
0.0
  0
VERTEX
  5
34C2
  8
3
 10
184.4274575141
 20
29.62890474530002
 30
0.0
  0
VERTEX
  5
34C3
  8
3
 10
185.2
 20
29.69008410000004
 30
0.0
  0
VERTEX
  5
34C4
  8
3
 10
185.972542486
 20
29.62890474530002
 30
0.0
  0
VERTEX
  5
34C5
  8
3
 10
186.6694631308
 20
29.4513553429
 30
0.0
  0
VERTEX
  5
34C6
  8
3
 10
187.222542486
 20
29.17481566530012
 30
0.0
  0
VERTEX
  5
34C7
  8
3
 10
187.5776412908
 20
28.8263553429
 30
0.0
  0
VERTEX
  5
34C8
  8
3
 10
187.7
 20
28.44008410000004
 30
0.0
  0
VERTEX
  5
34C9
  8
3
 10
187.5776412908
 20
28.05381285700003
 30
0.0
  0
VERTEX
  5
34CA
  8
3
 10
187.222542486
 20
27.70535253460014
 30
0.0
  0
VERTEX
  5
34CB
  8
3
 10
186.6694631308
 20
27.42881285700003
 30
0.0
  0
VERTEX
  5
34CC
  8
3
 10
185.972542486
 20
27.25126345460001
 30
0.0
  0
VERTEX
  5
34CD
  8
3
 10
185.2
 20
27.19008410000004
 30
0.0
  0
VERTEX
  5
34CE
  8
3
 10
184.4274575141
 20
27.25126345460001
 30
0.0
  0
VERTEX
  5
34CF
  8
3
 10
183.7305368693
 20
27.42881285700003
 30
0.0
  0
VERTEX
  5
34D0
  8
3
 10
183.1774575141
 20
27.70535253460014
 30
0.0
  0
VERTEX
  5
34D1
  8
3
 10
182.8223587093
 20
28.05381285700003
 30
0.0
  0
VERTEX
  5
34D2
  8
3
 10
182.7
 20
28.44008410000004
 30
0.0
  0
SEQEND
  5
37CC
  8
3
  0
POLYLINE
  5
D75
  8
3
 66
     1
 10
0.0
 20
0.0
 30
0.0
  0
VERTEX
  5
34D3
  8
3
 10
182.7
 20
28.51812365130002
 30
0.0
  0
VERTEX
  5
34D4
  8
3
 10
182.8223587093
 20
28.90439489430003
 30
0.0
  0
VERTEX
  5
34D5
  8
3
 10
183.1774575141
 20
29.25285521670014
 30
0.0
  0
VERTEX
  5
34D6
  8
3
 10
183.7305368693
 20
29.52939489430003
 30
0.0
  0
VERTEX
  5
34D7
  8
3
 10
184.4274575141
 20
29.70694429670004
 30
0.0
  0
VERTEX
  5
34D8
  8
3
 10
185.2
 20
29.76812365130002
 30
0.0
  0
VERTEX
  5
34D9
  8
3
 10
185.972542486
 20
29.70694429670004
 30
0.0
  0
VERTEX
  5
34DA
  8
3
 10
186.6694631308
 20
29.52939489430003
 30
0.0
  0
VERTEX
  5
34DB
  8
3
 10
187.222542486
 20
29.25285521670014
 30
0.0
  0
VERTEX
  5
34DC
  8
3
 10
187.5776412908
 20
28.90439489430003
 30
0.0
  0
VERTEX
  5
34DD
  8
3
 10
187.7
 20
28.51812365130002
 30
0.0
  0
VERTEX
  5
34DE
  8
3
 10
187.5776412908
 20
28.13185240840005
 30
0.0
  0
VERTEX
  5
34DF
  8
3
 10
187.222542486
 20
27.78339208599994
 30
0.0
  0
VERTEX
  5
34E0
  8
3
 10
186.6694631308
 20
27.50685240840005
 30
0.0
  0
VERTEX
  5
34E1
  8
3
 10
185.972542486
 20
27.32930300600003
 30
0.0
  0
VERTEX
  5
34E2
  8
3
 10
185.2
 20
27.26812365130002
 30
0.0
  0
VERTEX
  5
34E3
  8
3
 10
184.4274575141
 20
27.32930300600003
 30
0.0
  0
VERTEX
  5
34E4
  8
3
 10
183.7305368693
 20
27.50685240840005
 30
0.0
  0
VERTEX
  5
34E5
  8
3
 10
183.1774575141
 20
27.78339208599994
 30
0.0
  0
VERTEX
  5
34E6
  8
3
 10
182.8223587093
 20
28.13185240840005
 30
0.0
  0
VERTEX
  5
34E7
  8
3
 10
182.7
 20
28.51812365130002
 30
0.0
  0
SEQEND
  5
37CB
  8
3
  0
POLYLINE
  5
D76
  8
3
 66
     1
 10
0.0
 20
0.0
 30
0.0
  0
VERTEX
  5
34E8
  8
3
 10
183.145
 20
28.78797054590007
 30
0.0
  0
VERTEX
  5
34E9
  8
3
 10
183.2689316643
 20
29.13939624319994
 30
0.0
  0
VERTEX
  5
34EA
  8
3
 10
183.6257786694
 20
29.4484348149
 30
0.0
  0
VERTEX
  5
34EB
  8
3
 10
184.1725
 20
29.67781164830001
 30
0.0
  0
VERTEX
  5
34EC
  8
3
 10
184.8431529949
 20
29.7998605122001
 30
0.0
  0
VERTEX
  5
34ED
  8
3
 10
185.5568470051
 20
29.7998605122001
 30
0.0
  0
VERTEX
  5
34EE
  8
3
 10
186.2275
 20
29.67781164830001
 30
0.0
  0
VERTEX
  5
34EF
  8
3
 10
186.7742213306
 20
29.4484348149
 30
0.0
  0
VERTEX
  5
34F0
  8
3
 10
187.1310683358
 20
29.13939624319994
 30
0.0
  0
VERTEX
  5
34F1
  8
3
 10
187.255
 20
28.78797054590007
 30
0.0
  0
VERTEX
  5
34F2
  8
3
 10
187.1310683358
 20
28.43654484870001
 30
0.0
  0
VERTEX
  5
34F3
  8
3
 10
186.7742213306
 20
28.12750627699995
 30
0.0
  0
VERTEX
  5
34F4
  8
3
 10
186.2275
 20
27.89812944359994
 30
0.0
  0
VERTEX
  5
34F5
  8
3
 10
185.5568470051
 20
27.77608057970008
 30
0.0
  0
VERTEX
  5
34F6
  8
3
 10
184.8431529949
 20
27.77608057970008
 30
0.0
  0
VERTEX
  5
34F7
  8
3
 10
184.1725
 20
27.89812944359994
 30
0.0
  0
VERTEX
  5
34F8
  8
3
 10
183.6257786694
 20
28.12750627699995
 30
0.0
  0
VERTEX
  5
34F9
  8
3
 10
183.2689316643
 20
28.43654484870001
 30
0.0
  0
VERTEX
  5
34FA
  8
3
 10
183.145
 20
28.78797054590007
 30
0.0
  0
SEQEND
  5
37CA
  8
3
  0
POLYLINE
  5
D77
  8
3
 66
     1
 10
0.0
 20
0.0
 30
0.0
  0
VERTEX
  5
34FB
  8
3
 10
182.7
 20
29.05781744059993
 30
0.0
  0
VERTEX
  5
34FC
  8
3
 10
182.8223587093
 20
29.44408868350013
 30
0.0
  0
VERTEX
  5
34FD
  8
3
 10
183.1774575141
 20
29.79254900590001
 30
0.0
  0
VERTEX
  5
34FE
  8
3
 10
183.7305368693
 20
30.06908868350013
 30
0.0
  0
VERTEX
  5
34FF
  8
3
 10
184.4274575141
 20
30.24663808590014
 30
0.0
  0
VERTEX
  5
3500
  8
3
 10
185.2
 20
30.30781744059993
 30
0.0
  0
VERTEX
  5
3501
  8
3
 10
185.972542486
 20
30.24663808590014
 30
0.0
  0
VERTEX
  5
3502
  8
3
 10
186.6694631308
 20
30.06908868350013
 30
0.0
  0
VERTEX
  5
3503
  8
3
 10
187.222542486
 20
29.79254900590001
 30
0.0
  0
VERTEX
  5
3504
  8
3
 10
187.5776412908
 20
29.44408868350013
 30
0.0
  0
VERTEX
  5
3505
  8
3
 10
187.7
 20
29.05781744059993
 30
0.0
  0
VERTEX
  5
3506
  8
3
 10
187.5776412908
 20
28.67154619760015
 30
0.0
  0
VERTEX
  5
3507
  8
3
 10
187.222542486
 20
28.32308587520004
 30
0.0
  0
VERTEX
  5
3508
  8
3
 10
186.6694631308
 20
28.04654619760015
 30
0.0
  0
VERTEX
  5
3509
  8
3
 10
185.972542486
 20
27.86899679520013
 30
0.0
  0
VERTEX
  5
350A
  8
3
 10
185.2
 20
27.80781744059993
 30
0.0
  0
VERTEX
  5
350B
  8
3
 10
184.4274575141
 20
27.86899679520013
 30
0.0
  0
VERTEX
  5
350C
  8
3
 10
183.7305368693
 20
28.04654619760015
 30
0.0
  0
VERTEX
  5
350D
  8
3
 10
183.1774575141
 20
28.32308587520004
 30
0.0
  0
VERTEX
  5
350E
  8
3
 10
182.8223587093
 20
28.67154619760015
 30
0.0
  0
VERTEX
  5
350F
  8
3
 10
182.7
 20
29.05781744059993
 30
0.0
  0
SEQEND
  5
37C9
  8
3
  0
POLYLINE
  5
D78
  8
3
 66
     1
 10
0.0
 20
0.0
 30
0.0
  0
VERTEX
  5
3510
  8
3
 10
182.7
 20
29.13585699190014
 30
0.0
  0
VERTEX
  5
3511
  8
3
 10
182.8223587093
 20
29.52212823490015
 30
0.0
  0
VERTEX
  5
3512
  8
3
 10
183.1774575141
 20
29.87058855730004
 30
0.0
  0
VERTEX
  5
3513
  8
3
 10
183.7305368693
 20
30.14712823490015
 30
0.0
  0
VERTEX
  5
3514
  8
3
 10
184.4274575141
 20
30.32467763729994
 30
0.0
  0
VERTEX
  5
3515
  8
3
 10
185.2
 20
30.38585699190014
 30
0.0
  0
VERTEX
  5
3516
  8
3
 10
185.972542486
 20
30.32467763729994
 30
0.0
  0
VERTEX
  5
3517
  8
3
 10
186.6694631308
 20
30.14712823490015
 30
0.0
  0
VERTEX
  5
3518
  8
3
 10
187.222542486
 20
29.87058855730004
 30
0.0
  0
VERTEX
  5
3519
  8
3
 10
187.5776412908
 20
29.52212823490015
 30
0.0
  0
VERTEX
  5
351A
  8
3
 10
187.7
 20
29.13585699190014
 30
0.0
  0
VERTEX
  5
351B
  8
3
 10
187.5776412908
 20
28.74958574899995
 30
0.0
  0
VERTEX
  5
351C
  8
3
 10
187.222542486
 20
28.40112542660006
 30
0.0
  0
VERTEX
  5
351D
  8
3
 10
186.6694631308
 20
28.12458574899995
 30
0.0
  0
VERTEX
  5
351E
  8
3
 10
185.972542486
 20
27.94703634659993
 30
0.0
  0
VERTEX
  5
351F
  8
3
 10
185.2
 20
27.88585699190014
 30
0.0
  0
VERTEX
  5
3520
  8
3
 10
184.4274575141
 20
27.94703634659993
 30
0.0
  0
VERTEX
  5
3521
  8
3
 10
183.7305368693
 20
28.12458574899995
 30
0.0
  0
VERTEX
  5
3522
  8
3
 10
183.1774575141
 20
28.40112542660006
 30
0.0
  0
VERTEX
  5
3523
  8
3
 10
182.8223587093
 20
28.74958574899995
 30
0.0
  0
VERTEX
  5
3524
  8
3
 10
182.7
 20
29.13585699190014
 30
0.0
  0
SEQEND
  5
37C8
  8
3
  0
POLYLINE
  5
D79
  8
3
 66
     1
 10
0.0
 20
0.0
 30
0.0
  0
VERTEX
  5
3525
  8
3
 10
183.145
 20
29.40570388660001
 30
0.0
  0
VERTEX
  5
3526
  8
3
 10
183.2689316643
 20
29.75712958380007
 30
0.0
  0
VERTEX
  5
3527
  8
3
 10
183.6257786694
 20
30.06616815550012
 30
0.0
  0
VERTEX
  5
3528
  8
3
 10
184.1725
 20
30.29554498890013
 30
0.0
  0
VERTEX
  5
3529
  8
3
 10
184.8431529949
 20
30.4175938528
 30
0.0
  0
VERTEX
  5
352A
  8
3
 10
185.5568470051
 20
30.4175938528
 30
0.0
  0
VERTEX
  5
352B
  8
3
 10
186.2275
 20
30.29554498890013
 30
0.0
  0
VERTEX
  5
352C
  8
3
 10
186.7742213306
 20
30.06616815550012
 30
0.0
  0
VERTEX
  5
352D
  8
3
 10
187.1310683357
 20
29.75712958380007
 30
0.0
  0
VERTEX
  5
352E
  8
3
 10
187.255
 20
29.40570388660001
 30
0.0
  0
VERTEX
  5
352F
  8
3
 10
187.1310683357
 20
29.05427818930013
 30
0.0
  0
VERTEX
  5
3530
  8
3
 10
186.7742213306
 20
28.74523961760008
 30
0.0
  0
VERTEX
  5
3531
  8
3
 10
186.2275
 20
28.51586278420007
 30
0.0
  0
VERTEX
  5
3532
  8
3
 10
185.5568470051
 20
28.39381392029998
 30
0.0
  0
VERTEX
  5
3533
  8
3
 10
184.8431529949
 20
28.39381392029998
 30
0.0
  0
VERTEX
  5
3534
  8
3
 10
184.1725
 20
28.51586278420007
 30
0.0
  0
VERTEX
  5
3535
  8
3
 10
183.6257786694
 20
28.74523961760008
 30
0.0
  0
VERTEX
  5
3536
  8
3
 10
183.2689316643
 20
29.05427818930013
 30
0.0
  0
VERTEX
  5
3537
  8
3
 10
183.145
 20
29.40570388660001
 30
0.0
  0
SEQEND
  5
37C7
  8
3
  0
POLYLINE
  5
D7A
  8
3
 66
     1
 10
0.0
 20
0.0
 30
0.0
  0
VERTEX
  5
3538
  8
3
 10
182.7
 20
29.67555078120006
 30
0.0
  0
VERTEX
  5
3539
  8
3
 10
182.8223587093
 20
30.06182202410002
 30
0.0
  0
VERTEX
  5
353A
  8
3
 10
183.1774575141
 20
30.41028234650014
 30
0.0
  0
VERTEX
  5
353B
  8
3
 10
183.7305368693
 20
30.68682202410002
 30
0.0
  0
VERTEX
  5
353C
  8
3
 10
184.4274575141
 20
30.86437142650004
 30
0.0
  0
VERTEX
  5
353D
  8
3
 10
185.2
 20
30.92555078120006
 30
0.0
  0
VERTEX
  5
353E
  8
3
 10
185.972542486
 20
30.86437142650004
 30
0.0
  0
VERTEX
  5
353F
  8
3
 10
186.6694631308
 20
30.68682202410002
 30
0.0
  0
VERTEX
  5
3540
  8
3
 10
187.222542486
 20
30.41028234650014
 30
0.0
  0
VERTEX
  5
3541
  8
3
 10
187.5776412908
 20
30.06182202410002
 30
0.0
  0
VERTEX
  5
3542
  8
3
 10
187.7
 20
29.67555078120006
 30
0.0
  0
VERTEX
  5
3543
  8
3
 10
187.5776412908
 20
29.28927953820005
 30
0.0
  0
VERTEX
  5
3544
  8
3
 10
187.222542486
 20
28.94081921579993
 30
0.0
  0
VERTEX
  5
3545
  8
3
 10
186.6694631308
 20
28.66427953820005
 30
0.0
  0
VERTEX
  5
3546
  8
3
 10
185.972542486
 20
28.48673013580003
 30
0.0
  0
VERTEX
  5
3547
  8
3
 10
185.2
 20
28.42555078120006
 30
0.0
  0
VERTEX
  5
3548
  8
3
 10
184.4274575141
 20
28.48673013580003
 30
0.0
  0
VERTEX
  5
3549
  8
3
 10
183.7305368693
 20
28.66427953820005
 30
0.0
  0
VERTEX
  5
354A
  8
3
 10
183.1774575141
 20
28.94081921579993
 30
0.0
  0
VERTEX
  5
354B
  8
3
 10
182.8223587093
 20
29.28927953820005
 30
0.0
  0
VERTEX
  5
354C
  8
3
 10
182.7
 20
29.67555078120006
 30
0.0
  0
SEQEND
  5
37C6
  8
3
  0
LINE
  5
D7B
  8
3
 10
185.2
 20
28.62935647339998
 30
0.0
 11
185.2
 21
30.96762506359994
 31
0.0
  0
LINE
  5
D7C
  8
3
 10
183.95
 20
28.26851255520012
 30
0.0
 11
185.2
 21
28.62935647339998
 31
0.0
  0
LINE
  5
D7D
  8
3
 10
186.45
 20
28.26851255520012
 30
0.0
 11
185.2
 21
28.62935647339998
 31
0.0
  0
POLYLINE
  5
D7E
  8
3
 66
     1
 10
0.0
 20
0.0
 30
0.0
  0
VERTEX
  5
354D
  8
3
 10
182.7
 20
29.75359033250004
 30
0.0
  0
VERTEX
  5
354E
  8
3
 10
182.8223587093
 20
30.13986157550005
 30
0.0
  0
VERTEX
  5
354F
  8
3
 10
183.1774575141
 20
30.48832189789994
 30
0.0
  0
VERTEX
  5
3550
  8
3
 10
183.7305368693
 20
30.76486157550005
 30
0.0
  0
VERTEX
  5
3551
  8
3
 10
184.4274575141
 20
30.94241097790007
 30
0.0
  0
VERTEX
  5
3552
  8
3
 10
185.2
 20
31.00359033250004
 30
0.0
  0
VERTEX
  5
3553
  8
3
 10
185.972542486
 20
30.94241097790007
 30
0.0
  0
VERTEX
  5
3554
  8
3
 10
186.6694631308
 20
30.76486157550005
 30
0.0
  0
VERTEX
  5
3555
  8
3
 10
187.222542486
 20
30.48832189789994
 30
0.0
  0
VERTEX
  5
3556
  8
3
 10
187.5776412908
 20
30.13986157550005
 30
0.0
  0
VERTEX
  5
3557
  8
3
 10
187.7
 20
29.75359033250004
 30
0.0
  0
VERTEX
  5
3558
  8
3
 10
187.5776412908
 20
29.36731908960007
 30
0.0
  0
VERTEX
  5
3559
  8
3
 10
187.222542486
 20
29.01885876719996
 30
0.0
  0
VERTEX
  5
355A
  8
3
 10
186.6694631308
 20
28.74231908960007
 30
0.0
  0
VERTEX
  5
355B
  8
3
 10
185.972542486
 20
28.56476968720006
 30
0.0
  0
VERTEX
  5
355C
  8
3
 10
185.2
 20
28.50359033250004
 30
0.0
  0
VERTEX
  5
355D
  8
3
 10
184.4274575141
 20
28.56476968720006
 30
0.0
  0
VERTEX
  5
355E
  8
3
 10
183.7305368693
 20
28.74231908960007
 30
0.0
  0
VERTEX
  5
355F
  8
3
 10
183.1774575141
 20
29.01885876719996
 30
0.0
  0
VERTEX
  5
3560
  8
3
 10
182.8223587093
 20
29.36731908960007
 30
0.0
  0
VERTEX
  5
3561
  8
3
 10
182.7
 20
29.75359033250004
 30
0.0
  0
SEQEND
  5
37C5
  8
3
  0
POLYLINE
  5
D7F
  8
3
 66
     1
 10
0.0
 20
0.0
 30
0.0
  0
VERTEX
  5
3562
  8
3
 10
183.145
 20
30.02343722720013
 30
0.0
  0
VERTEX
  5
3563
  8
3
 10
183.2689316643
 20
30.37486292439996
 30
0.0
  0
VERTEX
  5
3564
  8
3
 10
183.6257786694
 20
30.68390149610002
 30
0.0
  0
VERTEX
  5
3565
  8
3
 10
184.1725
 20
30.91327832950003
 30
0.0
  0
VERTEX
  5
3566
  8
3
 10
184.8431529949
 20
31.03532719340012
 30
0.0
  0
VERTEX
  5
3567
  8
3
 10
185.5568470051
 20
31.03532719340012
 30
0.0
  0
VERTEX
  5
3568
  8
3
 10
186.2275
 20
30.91327832950003
 30
0.0
  0
VERTEX
  5
3569
  8
3
 10
186.7742213306
 20
30.68390149610002
 30
0.0
  0
VERTEX
  5
356A
  8
3
 10
187.1310683357
 20
30.37486292439996
 30
0.0
  0
VERTEX
  5
356B
  8
3
 10
187.255
 20
30.02343722720013
 30
0.0
  0
VERTEX
  5
356C
  8
3
 10
187.1310683357
 20
29.67201152990003
 30
0.0
  0
VERTEX
  5
356D
  8
3
 10
186.7742213306
 20
29.36297295819998
 30
0.0
  0
VERTEX
  5
356E
  8
3
 10
186.2275
 20
29.13359612479996
 30
0.0
  0
VERTEX
  5
356F
  8
3
 10
185.5568470051
 20
29.0115472609001
 30
0.0
  0
VERTEX
  5
3570
  8
3
 10
184.8431529949
 20
29.0115472609001
 30
0.0
  0
VERTEX
  5
3571
  8
3
 10
184.1725
 20
29.13359612479996
 30
0.0
  0
VERTEX
  5
3572
  8
3
 10
183.6257786694
 20
29.36297295819998
 30
0.0
  0
VERTEX
  5
3573
  8
3
 10
183.2689316643
 20
29.67201152990003
 30
0.0
  0
VERTEX
  5
3574
  8
3
 10
183.145
 20
30.02343722720013
 30
0.0
  0
SEQEND
  5
37C4
  8
3
  0
POLYLINE
  5
D80
  8
3
 66
     1
 10
0.0
 20
0.0
 30
0.0
  0
VERTEX
  5
3575
  8
3
 10
182.9438968732
 20
30.14538566370004
 30
0.0
  0
VERTEX
  5
3576
  8
3
 10
183.0661387636
 20
29.77910791989996
 30
0.0
  0
VERTEX
  5
3577
  8
3
 10
183.4196176293
 20
29.45252205290001
 30
0.0
  0
VERTEX
  5
3578
  8
3
 10
183.9660285503
 20
29.20101870910014
 30
0.0
  0
VERTEX
  5
3579
  8
3
 10
184.6461594249
 20
29.05185217819997
 30
0.0
  0
VERTEX
  5
357A
  8
3
 10
185.3863075196
 20
29.02118696829996
 30
0.0
  0
VERTEX
  5
357B
  8
3
 10
186.1062663036
 20
29.11234613089994
 30
0.0
  0
VERTEX
  5
357C
  8
3
 10
186.7280170715
 20
29.31545115610004
 30
0.0
  0
VERTEX
  5
357D
  8
3
 10
187.1841834801
 20
29.60849246290002
 30
0.0
  0
VERTEX
  5
357E
  8
3
 10
187.4253328208
 20
29.95971447880004
 30
0.0
  0
VERTEX
  5
357F
  8
3
 10
187.4253328208
 20
30.33105684860004
 30
0.0
  0
VERTEX
  5
3580
  8
3
 10
187.1841834801
 20
30.68227886460011
 30
0.0
  0
VERTEX
  5
3581
  8
3
 10
186.7280170715
 20
30.97532017140009
 30
0.0
  0
VERTEX
  5
3582
  8
3
 10
186.1062663036
 20
31.17842519659996
 30
0.0
  0
VERTEX
  5
3583
  8
3
 10
185.3863075196
 20
31.26958435919994
 30
0.0
  0
VERTEX
  5
3584
  8
3
 10
184.6461594249
 20
31.23891914929993
 30
0.0
  0
VERTEX
  5
3585
  8
3
 10
183.9660285503
 20
31.08975261839998
 30
0.0
  0
VERTEX
  5
3586
  8
3
 10
183.4196176293
 20
30.83824927460012
 30
0.0
  0
VERTEX
  5
3587
  8
3
 10
183.0661387636
 20
30.51166340759994
 30
0.0
  0
VERTEX
  5
3588
  8
3
 10
182.9438968732
 20
30.14538566370004
 30
0.0
  0
SEQEND
  5
37C3
  8
3
  0
LINE
  5
D81
  8
3
 10
183.95
 20
28.26851255520012
 30
0.0
 11
183.95
 21
27.54682471870012
 31
0.0
  0
LINE
  5
D82
  8
3
 10
183.95
 20
28.26851255520012
 30
0.0
 11
183.95
 21
30.60678114540008
 31
0.0
  0
LINE
  5
D83
  8
3
 10
186.45
 20
28.26851255520012
 30
0.0
 11
186.45
 21
27.54682471870012
 31
0.0
  0
LINE
  5
D84
  8
3
 10
186.45
 20
28.26851255520012
 30
0.0
 11
186.45
 21
30.60678114540008
 31
0.0
  0
POLYLINE
  5
D85
  8
3
 66
     1
 10
0.0
 20
0.0
 30
0.0
  0
VERTEX
  5
3589
  8
3
 10
185.2
 20
31.27343722720013
 30
0.0
  0
VERTEX
  5
358A
  8
3
 10
185.9028513946
 20
31.2114713950001
 30
0.0
  0
VERTEX
  5
358B
  8
3
 10
186.5209285379
 20
31.03304789250012
 30
0.0
  0
VERTEX
  5
358C
  8
3
 10
186.9796822048
 20
30.75968722720006
 30
0.0
  0
VERTEX
  5
358D
  8
3
 10
187.2237799325
 20
30.42436072969997
 30
0.0
  0
VERTEX
  5
358E
  8
3
 10
187.2237799325
 20
30.06751372459996
 30
0.0
  0
VERTEX
  5
358F
  8
3
 10
186.9796822048
 20
29.73218722720014
 30
0.0
  0
VERTEX
  5
3590
  8
3
 10
186.5209285379
 20
29.45882656190008
 30
0.0
  0
VERTEX
  5
3591
  8
3
 10
185.9028513946
 20
29.28040305930006
 30
0.0
  0
VERTEX
  5
3592
  8
3
 10
185.2
 20
29.21843722720007
 30
0.0
  0
VERTEX
  5
3593
  8
3
 10
184.4971486055
 20
29.28040305930006
 30
0.0
  0
VERTEX
  5
3594
  8
3
 10
183.8790714621
 20
29.45882656190008
 30
0.0
  0
VERTEX
  5
3595
  8
3
 10
183.4203177953
 20
29.73218722720014
 30
0.0
  0
VERTEX
  5
3596
  8
3
 10
183.1762200676
 20
30.06751372459996
 30
0.0
  0
VERTEX
  5
3597
  8
3
 10
183.1762200676
 20
30.42436072969997
 30
0.0
  0
VERTEX
  5
3598
  8
3
 10
183.4203177953
 20
30.75968722720006
 30
0.0
  0
VERTEX
  5
3599
  8
3
 10
183.8790714621
 20
31.03304789250012
 30
0.0
  0
VERTEX
  5
359A
  8
3
 10
184.4971486055
 20
31.2114713950001
 30
0.0
  0
VERTEX
  5
359B
  8
3
 10
185.2
 20
31.27343722720013
 30
0.0
  0
SEQEND
  5
37C2
  8
3
  0
LINE
  5
D86
  8
3
 10
183.95
 20
30.60678114540008
 30
0.0
 11
185.2
 21
30.96762506359994
 31
0.0
  0
LINE
  5
D87
  8
3
 10
186.45
 20
30.60678114540008
 30
0.0
 11
185.2
 21
30.96762506359994
 31
0.0
  0
LINE
  5
D88
  8
3
 10
185.2
 20
27.18598080050003
 30
0.0
 11
185.2
 21
28.62935647339998
 31
0.0
  0
LINE
  5
D89
  8
3
 10
186.45
 20
29.88509330890008
 30
0.0
 11
185.2
 21
29.52424939069999
 31
0.0
  0
LINE
  5
D8A
  8
3
 10
186.45
 20
27.54682471870012
 30
0.0
 11
185.2
 21
27.18598080050003
 31
0.0
  0
LINE
  5
D8B
  8
3
 10
183.95
 20
29.88509330890008
 30
0.0
 11
185.2
 21
29.52424939069999
 31
0.0
  0
LINE
  5
D8C
  8
3
 10
183.95
 20
27.54682471870012
 30
0.0
 11
185.2
 21
27.18598080050003
 31
0.0
  0
POLYLINE
  5
D8D
  8
3
 66
     1
 10
0.0
 20
0.0
 30
0.0
  0
VERTEX
  5
359C
  8
3
 10
185.2
 20
-25.92478480450006
 30
0.0
  0
VERTEX
  5
359D
  8
3
 10
184.5678270842
 20
-25.86569800519999
 30
0.0
  0
VERTEX
  5
359E
  8
3
 10
184.0210326236
 20
-25.69641760699994
 30
0.0
  0
VERTEX
  5
359F
  8
3
 10
183.6334642402
 20
-25.43980586579994
 30
0.0
  0
VERTEX
  5
35A0
  8
3
 10
183.4574651915
 20
-25.13051961899998
 30
0.0
  0
VERTEX
  5
35A1
  8
3
 10
183.5168051245
 20
-24.81032968819989
 30
0.0
  0
VERTEX
  5
35A2
  8
3
 10
183.8034698523
 20
-24.52247949759987
 30
0.0
  0
VERTEX
  5
35A3
  8
3
 10
184.278743715
 20
-24.30584481070002
 30
0.0
  0
VERTEX
  5
35A4
  8
3
 10
184.8784383438
 20
-24.18968334229987
 30
0.0
  0
VERTEX
  5
35A5
  8
3
 10
185.5215616562
 20
-24.18968334229987
 30
0.0
  0
VERTEX
  5
35A6
  8
3
 10
186.1212562851
 20
-24.30584481070002
 30
0.0
  0
VERTEX
  5
35A7
  8
3
 10
186.5965301478
 20
-24.52247949759987
 30
0.0
  0
VERTEX
  5
35A8
  8
3
 10
186.8831948756
 20
-24.81032968819989
 30
0.0
  0
VERTEX
  5
35A9
  8
3
 10
186.9425348085
 20
-25.13051961899998
 30
0.0
  0
VERTEX
  5
35AA
  8
3
 10
186.7665357599
 20
-25.43980586579994
 30
0.0
  0
VERTEX
  5
35AB
  8
3
 10
186.3789673764
 20
-25.69641760699994
 30
0.0
  0
VERTEX
  5
35AC
  8
3
 10
185.8321729159
 20
-25.86569800519999
 30
0.0
  0
VERTEX
  5
35AD
  8
3
 10
185.2
 20
-25.92478480450006
 30
0.0
  0
SEQEND
  5
37C1
  8
3
  0
POLYLINE
  5
D8E
  8
3
 66
     1
 10
0.0
 20
0.0
 30
0.0
  0
VERTEX
  5
35AE
  8
3
 10
182.8832672566
 20
-25.54058975750002
 30
0.0
  0
VERTEX
  5
35AF
  8
3
 10
183.0087942269
 20
-25.16446881140007
 30
0.0
  0
VERTEX
  5
35B0
  8
3
 10
183.3717723427
 20
-24.82910640600005
 30
0.0
  0
VERTEX
  5
35B1
  8
3
 10
183.9328672931
 20
-24.57084426149993
 30
0.0
  0
VERTEX
  5
35B2
  8
3
 10
184.6312757339
 20
-24.41766908869988
 30
0.0
  0
VERTEX
  5
35B3
  8
3
 10
185.3913142736
 20
-24.38617979419985
 30
0.0
  0
VERTEX
  5
35B4
  8
3
 10
186.1306209432
 20
-24.47978873170007
 30
0.0
  0
VERTEX
  5
35B5
  8
3
 10
186.7690803935
 20
-24.68835192049994
 30
0.0
  0
VERTEX
  5
35B6
  8
3
 10
187.2375056365
 20
-24.9892683027
 30
0.0
  0
VERTEX
  5
35B7
  8
3
 10
187.4851355285
 20
-25.34992891909985
 30
0.0
  0
VERTEX
  5
35B8
  8
3
 10
187.4851355285
 20
-25.73125059579991
 30
0.0
  0
VERTEX
  5
35B9
  8
3
 10
187.2375056365
 20
-26.09191121230003
 30
0.0
  0
VERTEX
  5
35BA
  8
3
 10
186.7690803935
 20
-26.39282759449986
 30
0.0
  0
VERTEX
  5
35BB
  8
3
 10
186.1306209432
 20
-26.60139078319992
 30
0.0
  0
VERTEX
  5
35BC
  8
3
 10
185.3913142736
 20
-26.69499972069991
 30
0.0
  0
VERTEX
  5
35BD
  8
3
 10
184.6312757339
 20
-26.66351042629992
 30
0.0
  0
VERTEX
  5
35BE
  8
3
 10
183.9328672931
 20
-26.51033525340006
 30
0.0
  0
VERTEX
  5
35BF
  8
3
 10
183.3717723427
 20
-26.25207310889994
 30
0.0
  0
VERTEX
  5
35C0
  8
3
 10
183.0087942269
 20
-25.91671070349992
 30
0.0
  0
VERTEX
  5
35C1
  8
3
 10
182.8832672566
 20
-25.54058975750002
 30
0.0
  0
SEQEND
  5
37C0
  8
3
  0
POLYLINE
  5
D8F
  8
3
 66
     1
 10
0.0
 20
0.0
 30
0.0
  0
VERTEX
  5
35C2
  8
3
 10
187.255
 20
-25.69930384299994
 30
0.0
  0
VERTEX
  5
35C3
  8
3
 10
187.1310683357
 20
-26.0507295402
 30
0.0
  0
VERTEX
  5
35C4
  8
3
 10
186.7742213306
 20
-26.35976811190005
 30
0.0
  0
VERTEX
  5
35C5
  8
3
 10
186.2275
 20
-26.58914494530006
 30
0.0
  0
VERTEX
  5
35C6
  8
3
 10
185.5568470051
 20
-26.71119380919993
 30
0.0
  0
VERTEX
  5
35C7
  8
3
 10
184.8431529949
 20
-26.71119380919993
 30
0.0
  0
VERTEX
  5
35C8
  8
3
 10
184.1725
 20
-26.58914494530006
 30
0.0
  0
VERTEX
  5
35C9
  8
3
 10
183.6257786694
 20
-26.35976811190005
 30
0.0
  0
VERTEX
  5
35CA
  8
3
 10
183.2689316643
 20
-26.0507295402
 30
0.0
  0
VERTEX
  5
35CB
  8
3
 10
183.145
 20
-25.69930384299994
 30
0.0
  0
VERTEX
  5
35CC
  8
3
 10
183.2689316643
 20
-25.34787814570007
 30
0.0
  0
VERTEX
  5
35CD
  8
3
 10
183.6257786694
 20
-25.03883957400001
 30
0.0
  0
VERTEX
  5
35CE
  8
3
 10
184.1725
 20
-24.8094627406
 30
0.0
  0
VERTEX
  5
35CF
  8
3
 10
184.8431529949
 20
-24.68741387669991
 30
0.0
  0
VERTEX
  5
35D0
  8
3
 10
185.5568470051
 20
-24.68741387669991
 30
0.0
  0
VERTEX
  5
35D1
  8
3
 10
186.2275
 20
-24.8094627406
 30
0.0
  0
VERTEX
  5
35D2
  8
3
 10
186.7742213306
 20
-25.03883957400001
 30
0.0
  0
VERTEX
  5
35D3
  8
3
 10
187.1310683357
 20
-25.34787814570007
 30
0.0
  0
VERTEX
  5
35D4
  8
3
 10
187.255
 20
-25.69930384299994
 30
0.0
  0
SEQEND
  5
37BF
  8
3
  0
POLYLINE
  5
D90
  8
3
 66
     1
 10
0.0
 20
0.0
 30
0.0
  0
VERTEX
  5
35D5
  8
3
 10
187.7
 20
-25.96915073759999
 30
0.0
  0
VERTEX
  5
35D6
  8
3
 10
187.5776412908
 20
-26.35542198049995
 30
0.0
  0
VERTEX
  5
35D7
  8
3
 10
187.222542486
 20
-26.70388230290007
 30
0.0
  0
VERTEX
  5
35D8
  8
3
 10
186.6694631308
 20
-26.98042198049995
 30
0.0
  0
VERTEX
  5
35D9
  8
3
 10
185.972542486
 20
-27.15797138289997
 30
0.0
  0
VERTEX
  5
35DA
  8
3
 10
185.2
 20
-27.21915073759999
 30
0.0
  0
VERTEX
  5
35DB
  8
3
 10
184.4274575141
 20
-27.15797138289997
 30
0.0
  0
VERTEX
  5
35DC
  8
3
 10
183.7305368693
 20
-26.98042198049995
 30
0.0
  0
VERTEX
  5
35DD
  8
3
 10
183.1774575141
 20
-26.70388230290007
 30
0.0
  0
VERTEX
  5
35DE
  8
3
 10
182.8223587093
 20
-26.35542198049995
 30
0.0
  0
VERTEX
  5
35DF
  8
3
 10
182.7
 20
-25.96915073759999
 30
0.0
  0
VERTEX
  5
35E0
  8
3
 10
182.8223587093
 20
-25.58287949459998
 30
0.0
  0
VERTEX
  5
35E1
  8
3
 10
183.1774575141
 20
-25.23441917219986
 30
0.0
  0
VERTEX
  5
35E2
  8
3
 10
183.7305368693
 20
-24.95787949459998
 30
0.0
  0
VERTEX
  5
35E3
  8
3
 10
184.4274575141
 20
-24.78033009219996
 30
0.0
  0
VERTEX
  5
35E4
  8
3
 10
185.2
 20
-24.71915073759999
 30
0.0
  0
VERTEX
  5
35E5
  8
3
 10
185.972542486
 20
-24.78033009219996
 30
0.0
  0
VERTEX
  5
35E6
  8
3
 10
186.6694631308
 20
-24.95787949459998
 30
0.0
  0
VERTEX
  5
35E7
  8
3
 10
187.222542486
 20
-25.23441917219986
 30
0.0
  0
VERTEX
  5
35E8
  8
3
 10
187.5776412908
 20
-25.58287949459998
 30
0.0
  0
VERTEX
  5
35E9
  8
3
 10
187.7
 20
-25.96915073759999
 30
0.0
  0
SEQEND
  5
37BE
  8
3
  0
POLYLINE
  5
D91
  8
3
 66
     1
 10
0.0
 20
0.0
 30
0.0
  0
VERTEX
  5
35EA
  8
3
 10
187.7
 20
-26.04719028889997
 30
0.0
  0
VERTEX
  5
35EB
  8
3
 10
187.5776412908
 20
-26.43346153189998
 30
0.0
  0
VERTEX
  5
35EC
  8
3
 10
187.222542486
 20
-26.78192185429987
 30
0.0
  0
VERTEX
  5
35ED
  8
3
 10
186.6694631308
 20
-27.05846153189998
 30
0.0
  0
VERTEX
  5
35EE
  8
3
 10
185.972542486
 20
-27.2360109343
 30
0.0
  0
VERTEX
  5
35EF
  8
3
 10
185.2
 20
-27.29719028889997
 30
0.0
  0
VERTEX
  5
35F0
  8
3
 10
184.4274575141
 20
-27.2360109343
 30
0.0
  0
VERTEX
  5
35F1
  8
3
 10
183.7305368693
 20
-27.05846153189998
 30
0.0
  0
VERTEX
  5
35F2
  8
3
 10
183.1774575141
 20
-26.78192185429987
 30
0.0
  0
VERTEX
  5
35F3
  8
3
 10
182.8223587093
 20
-26.43346153189998
 30
0.0
  0
VERTEX
  5
35F4
  8
3
 10
182.7
 20
-26.04719028889997
 30
0.0
  0
VERTEX
  5
35F5
  8
3
 10
182.8223587093
 20
-25.660919046
 30
0.0
  0
VERTEX
  5
35F6
  8
3
 10
183.1774575141
 20
-25.31245872359989
 30
0.0
  0
VERTEX
  5
35F7
  8
3
 10
183.7305368693
 20
-25.035919046
 30
0.0
  0
VERTEX
  5
35F8
  8
3
 10
184.4274575141
 20
-24.85836964359999
 30
0.0
  0
VERTEX
  5
35F9
  8
3
 10
185.2
 20
-24.79719028889997
 30
0.0
  0
VERTEX
  5
35FA
  8
3
 10
185.972542486
 20
-24.85836964359999
 30
0.0
  0
VERTEX
  5
35FB
  8
3
 10
186.6694631308
 20
-25.035919046
 30
0.0
  0
VERTEX
  5
35FC
  8
3
 10
187.222542486
 20
-25.31245872359989
 30
0.0
  0
VERTEX
  5
35FD
  8
3
 10
187.5776412908
 20
-25.660919046
 30
0.0
  0
VERTEX
  5
35FE
  8
3
 10
187.7
 20
-26.04719028889997
 30
0.0
  0
SEQEND
  5
37BD
  8
3
  0
POLYLINE
  5
D92
  8
3
 66
     1
 10
0.0
 20
0.0
 30
0.0
  0
VERTEX
  5
35FF
  8
3
 10
187.255
 20
-26.31703718360006
 30
0.0
  0
VERTEX
  5
3600
  8
3
 10
187.1310683357
 20
-26.66846288079989
 30
0.0
  0
VERTEX
  5
3601
  8
3
 10
186.7742213306
 20
-26.97750145249995
 30
0.0
  0
VERTEX
  5
3602
  8
3
 10
186.2275
 20
-27.20687828589996
 30
0.0
  0
VERTEX
  5
3603
  8
3
 10
185.5568470051
 20
-27.32892714980005
 30
0.0
  0
VERTEX
  5
3604
  8
3
 10
184.8431529949
 20
-27.32892714980005
 30
0.0
  0
VERTEX
  5
3605
  8
3
 10
184.1725
 20
-27.20687828589996
 30
0.0
  0
VERTEX
  5
3606
  8
3
 10
183.6257786694
 20
-26.97750145249995
 30
0.0
  0
VERTEX
  5
3607
  8
3
 10
183.2689316643
 20
-26.66846288079989
 30
0.0
  0
VERTEX
  5
3608
  8
3
 10
183.145
 20
-26.31703718360006
 30
0.0
  0
VERTEX
  5
3609
  8
3
 10
183.2689316643
 20
-25.96561148629996
 30
0.0
  0
VERTEX
  5
360A
  8
3
 10
183.6257786694
 20
-25.65657291459991
 30
0.0
  0
VERTEX
  5
360B
  8
3
 10
184.1725
 20
-25.4271960811999
 30
0.0
  0
VERTEX
  5
360C
  8
3
 10
184.8431529949
 20
-25.30514721730003
 30
0.0
  0
VERTEX
  5
360D
  8
3
 10
185.5568470051
 20
-25.30514721730003
 30
0.0
  0
VERTEX
  5
360E
  8
3
 10
186.2275
 20
-25.4271960811999
 30
0.0
  0
VERTEX
  5
360F
  8
3
 10
186.7742213306
 20
-25.65657291459991
 30
0.0
  0
VERTEX
  5
3610
  8
3
 10
187.1310683357
 20
-25.96561148629996
 30
0.0
  0
VERTEX
  5
3611
  8
3
 10
187.255
 20
-26.31703718360006
 30
0.0
  0
SEQEND
  5
37BC
  8
3
  0
POLYLINE
  5
D93
  8
3
 66
     1
 10
0.0
 20
0.0
 30
0.0
  0
VERTEX
  5
3612
  8
3
 10
187.7
 20
-26.58688407819989
 30
0.0
  0
VERTEX
  5
3613
  8
3
 10
187.5776412908
 20
-26.97315532109985
 30
0.0
  0
VERTEX
  5
3614
  8
3
 10
187.222542486
 20
-27.32161564349997
 30
0.0
  0
VERTEX
  5
3615
  8
3
 10
186.6694631307
 20
-27.59815532109985
 30
0.0
  0
VERTEX
  5
3616
  8
3
 10
185.972542486
 20
-27.77570472359992
 30
0.0
  0
VERTEX
  5
3617
  8
3
 10
185.2
 20
-27.83688407819989
 30
0.0
  0
VERTEX
  5
3618
  8
3
 10
184.4274575141
 20
-27.77570472359992
 30
0.0
  0
VERTEX
  5
3619
  8
3
 10
183.7305368693
 20
-27.59815532109985
 30
0.0
  0
VERTEX
  5
361A
  8
3
 10
183.1774575141
 20
-27.32161564349997
 30
0.0
  0
VERTEX
  5
361B
  8
3
 10
182.8223587093
 20
-26.97315532109985
 30
0.0
  0
VERTEX
  5
361C
  8
3
 10
182.7
 20
-26.58688407819989
 30
0.0
  0
VERTEX
  5
361D
  8
3
 10
182.8223587093
 20
-26.20061283519988
 30
0.0
  0
VERTEX
  5
361E
  8
3
 10
183.1774575141
 20
-25.85215251279999
 30
0.0
  0
VERTEX
  5
361F
  8
3
 10
183.7305368693
 20
-25.57561283519988
 30
0.0
  0
VERTEX
  5
3620
  8
3
 10
184.4274575141
 20
-25.39806343279986
 30
0.0
  0
VERTEX
  5
3621
  8
3
 10
185.2
 20
-25.33688407819989
 30
0.0
  0
VERTEX
  5
3622
  8
3
 10
185.972542486
 20
-25.39806343279986
 30
0.0
  0
VERTEX
  5
3623
  8
3
 10
186.6694631307
 20
-25.57561283519988
 30
0.0
  0
VERTEX
  5
3624
  8
3
 10
187.222542486
 20
-25.85215251279999
 30
0.0
  0
VERTEX
  5
3625
  8
3
 10
187.5776412908
 20
-26.20061283519988
 30
0.0
  0
VERTEX
  5
3626
  8
3
 10
187.7
 20
-26.58688407819989
 30
0.0
  0
SEQEND
  5
37BB
  8
3
  0
POLYLINE
  5
D94
  8
3
 66
     1
 10
0.0
 20
0.0
 30
0.0
  0
VERTEX
  5
3627
  8
3
 10
187.7
 20
-26.66492362949987
 30
0.0
  0
VERTEX
  5
3628
  8
3
 10
187.5776412908
 20
-27.05119487249988
 30
0.0
  0
VERTEX
  5
3629
  8
3
 10
187.222542486
 20
-27.39965519489999
 30
0.0
  0
VERTEX
  5
362A
  8
3
 10
186.6694631307
 20
-27.67619487249988
 30
0.0
  0
VERTEX
  5
362B
  8
3
 10
185.972542486
 20
-27.8537442748999
 30
0.0
  0
VERTEX
  5
362C
  8
3
 10
185.2
 20
-27.91492362949987
 30
0.0
  0
VERTEX
  5
362D
  8
3
 10
184.4274575141
 20
-27.8537442748999
 30
0.0
  0
VERTEX
  5
362E
  8
3
 10
183.7305368693
 20
-27.67619487249988
 30
0.0
  0
VERTEX
  5
362F
  8
3
 10
183.1774575141
 20
-27.39965519489999
 30
0.0
  0
VERTEX
  5
3630
  8
3
 10
182.8223587093
 20
-27.05119487249988
 30
0.0
  0
VERTEX
  5
3631
  8
3
 10
182.7
 20
-26.66492362949987
 30
0.0
  0
VERTEX
  5
3632
  8
3
 10
182.8223587093
 20
-26.2786523865999
 30
0.0
  0
VERTEX
  5
3633
  8
3
 10
183.1774575141
 20
-25.93019206420001
 30
0.0
  0
VERTEX
  5
3634
  8
3
 10
183.7305368693
 20
-25.6536523865999
 30
0.0
  0
VERTEX
  5
3635
  8
3
 10
184.4274575141
 20
-25.47610298419988
 30
0.0
  0
VERTEX
  5
3636
  8
3
 10
185.2
 20
-25.41492362949987
 30
0.0
  0
VERTEX
  5
3637
  8
3
 10
185.972542486
 20
-25.47610298419988
 30
0.0
  0
VERTEX
  5
3638
  8
3
 10
186.6694631307
 20
-25.6536523865999
 30
0.0
  0
VERTEX
  5
3639
  8
3
 10
187.222542486
 20
-25.93019206420001
 30
0.0
  0
VERTEX
  5
363A
  8
3
 10
187.5776412908
 20
-26.2786523865999
 30
0.0
  0
VERTEX
  5
363B
  8
3
 10
187.7
 20
-26.66492362949987
 30
0.0
  0
SEQEND
  5
37BA
  8
3
  0
POLYLINE
  5
D95
  8
3
 66
     1
 10
0.0
 20
0.0
 30
0.0
  0
VERTEX
  5
363C
  8
3
 10
187.255
 20
-26.93477052419996
 30
0.0
  0
VERTEX
  5
363D
  8
3
 10
187.1310683357
 20
-27.28619622140002
 30
0.0
  0
VERTEX
  5
363E
  8
3
 10
186.7742213306
 20
-27.59523479309985
 30
0.0
  0
VERTEX
  5
363F
  8
3
 10
186.2275
 20
-27.82461162649986
 30
0.0
  0
VERTEX
  5
3640
  8
3
 10
185.5568470051
 20
-27.94666049039995
 30
0.0
  0
VERTEX
  5
3641
  8
3
 10
184.8431529949
 20
-27.94666049039995
 30
0.0
  0
VERTEX
  5
3642
  8
3
 10
184.1725
 20
-27.82461162649986
 30
0.0
  0
VERTEX
  5
3643
  8
3
 10
183.6257786694
 20
-27.59523479309985
 30
0.0
  0
VERTEX
  5
3644
  8
3
 10
183.2689316643
 20
-27.28619622140002
 30
0.0
  0
VERTEX
  5
3645
  8
3
 10
183.145
 20
-26.93477052419996
 30
0.0
  0
VERTEX
  5
3646
  8
3
 10
183.2689316643
 20
-26.58334482689986
 30
0.0
  0
VERTEX
  5
3647
  8
3
 10
183.6257786694
 20
-26.27430625520003
 30
0.0
  0
VERTEX
  5
3648
  8
3
 10
184.1725
 20
-26.04492942180002
 30
0.0
  0
VERTEX
  5
3649
  8
3
 10
184.8431529949
 20
-25.92288055789993
 30
0.0
  0
VERTEX
  5
364A
  8
3
 10
185.5568470051
 20
-25.92288055789993
 30
0.0
  0
VERTEX
  5
364B
  8
3
 10
186.2275
 20
-26.04492942180002
 30
0.0
  0
VERTEX
  5
364C
  8
3
 10
186.7742213306
 20
-26.27430625520003
 30
0.0
  0
VERTEX
  5
364D
  8
3
 10
187.1310683357
 20
-26.58334482689986
 30
0.0
  0
VERTEX
  5
364E
  8
3
 10
187.255
 20
-26.93477052419996
 30
0.0
  0
SEQEND
  5
37B9
  8
3
  0
POLYLINE
  5
D96
  8
3
 66
     1
 10
0.0
 20
0.0
 30
0.0
  0
VERTEX
  5
364F
  8
3
 10
187.7
 20
-27.20461741880001
 30
0.0
  0
VERTEX
  5
3650
  8
3
 10
187.5776412908
 20
-27.59088866180002
 30
0.0
  0
VERTEX
  5
3651
  8
3
 10
187.222542486
 20
-27.93934898419991
 30
0.0
  0
VERTEX
  5
3652
  8
3
 10
186.6694631308
 20
-28.21588866180002
 30
0.0
  0
VERTEX
  5
3653
  8
3
 10
185.972542486
 20
-28.39343806420004
 30
0.0
  0
VERTEX
  5
3654
  8
3
 10
185.2
 20
-28.45461741880001
 30
0.0
  0
VERTEX
  5
3655
  8
3
 10
184.4274575141
 20
-28.39343806420004
 30
0.0
  0
VERTEX
  5
3656
  8
3
 10
183.7305368693
 20
-28.21588866180002
 30
0.0
  0
VERTEX
  5
3657
  8
3
 10
183.1774575141
 20
-27.93934898419991
 30
0.0
  0
VERTEX
  5
3658
  8
3
 10
182.8223587093
 20
-27.59088866180002
 30
0.0
  0
VERTEX
  5
3659
  8
3
 10
182.7
 20
-27.20461741880001
 30
0.0
  0
VERTEX
  5
365A
  8
3
 10
182.8223587093
 20
-26.8183461758
 30
0.0
  0
VERTEX
  5
365B
  8
3
 10
183.1774575141
 20
-26.46988585339989
 30
0.0
  0
VERTEX
  5
365C
  8
3
 10
183.7305368693
 20
-26.1933461758
 30
0.0
  0
VERTEX
  5
365D
  8
3
 10
184.4274575141
 20
-26.01579677339998
 30
0.0
  0
VERTEX
  5
365E
  8
3
 10
185.2
 20
-25.95461741880001
 30
0.0
  0
VERTEX
  5
365F
  8
3
 10
185.972542486
 20
-26.01579677339998
 30
0.0
  0
VERTEX
  5
3660
  8
3
 10
186.6694631308
 20
-26.1933461758
 30
0.0
  0
VERTEX
  5
3661
  8
3
 10
187.222542486
 20
-26.46988585339989
 30
0.0
  0
VERTEX
  5
3662
  8
3
 10
187.5776412908
 20
-26.8183461758
 30
0.0
  0
VERTEX
  5
3663
  8
3
 10
187.7
 20
-27.20461741880001
 30
0.0
  0
SEQEND
  5
37B8
  8
3
  0
POLYLINE
  5
D97
  8
3
 66
     1
 10
0.0
 20
0.0
 30
0.0
  0
VERTEX
  5
3664
  8
3
 10
187.7
 20
-27.28265697009999
 30
0.0
  0
VERTEX
  5
3665
  8
3
 10
187.5776412908
 20
-27.6689282131
 30
0.0
  0
VERTEX
  5
3666
  8
3
 10
187.222542486
 20
-28.01738853549989
 30
0.0
  0
VERTEX
  5
3667
  8
3
 10
186.6694631308
 20
-28.2939282131
 30
0.0
  0
VERTEX
  5
3668
  8
3
 10
185.972542486
 20
-28.47147761550002
 30
0.0
  0
VERTEX
  5
3669
  8
3
 10
185.2
 20
-28.53265697009999
 30
0.0
  0
VERTEX
  5
366A
  8
3
 10
184.4274575141
 20
-28.47147761550002
 30
0.0
  0
VERTEX
  5
366B
  8
3
 10
183.7305368693
 20
-28.2939282131
 30
0.0
  0
VERTEX
  5
366C
  8
3
 10
183.1774575141
 20
-28.01738853549989
 30
0.0
  0
VERTEX
  5
366D
  8
3
 10
182.8223587093
 20
-27.6689282131
 30
0.0
  0
VERTEX
  5
366E
  8
3
 10
182.7
 20
-27.28265697009999
 30
0.0
  0
VERTEX
  5
366F
  8
3
 10
182.8223587093
 20
-26.89638572720003
 30
0.0
  0
VERTEX
  5
3670
  8
3
 10
183.1774575141
 20
-26.54792540479991
 30
0.0
  0
VERTEX
  5
3671
  8
3
 10
183.7305368693
 20
-26.27138572720003
 30
0.0
  0
VERTEX
  5
3672
  8
3
 10
184.4274575141
 20
-26.09383632480001
 30
0.0
  0
VERTEX
  5
3673
  8
3
 10
185.2
 20
-26.03265697009999
 30
0.0
  0
VERTEX
  5
3674
  8
3
 10
185.972542486
 20
-26.09383632480001
 30
0.0
  0
VERTEX
  5
3675
  8
3
 10
186.6694631308
 20
-26.27138572720003
 30
0.0
  0
VERTEX
  5
3676
  8
3
 10
187.222542486
 20
-26.54792540479991
 30
0.0
  0
VERTEX
  5
3677
  8
3
 10
187.5776412908
 20
-26.89638572720003
 30
0.0
  0
VERTEX
  5
3678
  8
3
 10
187.7
 20
-27.28265697009999
 30
0.0
  0
SEQEND
  5
37B7
  8
3
  0
POLYLINE
  5
D98
  8
3
 66
     1
 10
0.0
 20
0.0
 30
0.0
  0
VERTEX
  5
3679
  8
3
 10
187.255
 20
-27.55250386479986
 30
0.0
  0
VERTEX
  5
367A
  8
3
 10
187.1310683357
 20
-27.90392956199992
 30
0.0
  0
VERTEX
  5
367B
  8
3
 10
186.7742213306
 20
-28.21296813369997
 30
0.0
  0
VERTEX
  5
367C
  8
3
 10
186.2275
 20
-28.44234496720003
 30
0.0
  0
VERTEX
  5
367D
  8
3
 10
185.5568470051
 20
-28.56439383099985
 30
0.0
  0
VERTEX
  5
367E
  8
3
 10
184.8431529949
 20
-28.56439383099985
 30
0.0
  0
VERTEX
  5
367F
  8
3
 10
184.1725
 20
-28.44234496720003
 30
0.0
  0
VERTEX
  5
3680
  8
3
 10
183.6257786694
 20
-28.21296813369997
 30
0.0
  0
VERTEX
  5
3681
  8
3
 10
183.2689316643
 20
-27.90392956199992
 30
0.0
  0
VERTEX
  5
3682
  8
3
 10
183.145
 20
-27.55250386479986
 30
0.0
  0
VERTEX
  5
3683
  8
3
 10
183.2689316643
 20
-27.20107816749999
 30
0.0
  0
VERTEX
  5
3684
  8
3
 10
183.6257786694
 20
-26.89203959579993
 30
0.0
  0
VERTEX
  5
3685
  8
3
 10
184.1725
 20
-26.66266276239992
 30
0.0
  0
VERTEX
  5
3686
  8
3
 10
184.8431529949
 20
-26.54061389850006
 30
0.0
  0
VERTEX
  5
3687
  8
3
 10
185.5568470051
 20
-26.54061389850006
 30
0.0
  0
VERTEX
  5
3688
  8
3
 10
186.2275
 20
-26.66266276239992
 30
0.0
  0
VERTEX
  5
3689
  8
3
 10
186.7742213306
 20
-26.89203959579993
 30
0.0
  0
VERTEX
  5
368A
  8
3
 10
187.1310683357
 20
-27.20107816749999
 30
0.0
  0
VERTEX
  5
368B
  8
3
 10
187.255
 20
-27.55250386479986
 30
0.0
  0
SEQEND
  5
37B6
  8
3
  0
POLYLINE
  5
D99
  8
3
 66
     1
 10
0.0
 20
0.0
 30
0.0
  0
VERTEX
  5
368C
  8
3
 10
187.7
 20
-27.82235075939991
 30
0.0
  0
VERTEX
  5
368D
  8
3
 10
187.5776412908
 20
-28.20862200239992
 30
0.0
  0
VERTEX
  5
368E
  8
3
 10
187.222542486
 20
-28.55708232480004
 30
0.0
  0
VERTEX
  5
368F
  8
3
 10
186.6694631308
 20
-28.83362200239992
 30
0.0
  0
VERTEX
  5
3690
  8
3
 10
185.972542486
 20
-29.01117140479994
 30
0.0
  0
VERTEX
  5
3691
  8
3
 10
185.2
 20
-29.07235075939991
 30
0.0
  0
VERTEX
  5
3692
  8
3
 10
184.4274575141
 20
-29.01117140479994
 30
0.0
  0
VERTEX
  5
3693
  8
3
 10
183.7305368693
 20
-28.83362200239992
 30
0.0
  0
VERTEX
  5
3694
  8
3
 10
183.1774575141
 20
-28.55708232480004
 30
0.0
  0
VERTEX
  5
3695
  8
3
 10
182.8223587093
 20
-28.20862200239992
 30
0.0
  0
VERTEX
  5
3696
  8
3
 10
182.7
 20
-27.82235075939991
 30
0.0
  0
VERTEX
  5
3697
  8
3
 10
182.8223587093
 20
-27.4360795163999
 30
0.0
  0
VERTEX
  5
3698
  8
3
 10
183.1774575141
 20
-27.08761919400001
 30
0.0
  0
VERTEX
  5
3699
  8
3
 10
183.7305368693
 20
-26.8110795163999
 30
0.0
  0
VERTEX
  5
369A
  8
3
 10
184.4274575141
 20
-26.63353011399988
 30
0.0
  0
VERTEX
  5
369B
  8
3
 10
185.2
 20
-26.57235075939991
 30
0.0
  0
VERTEX
  5
369C
  8
3
 10
185.972542486
 20
-26.63353011399988
 30
0.0
  0
VERTEX
  5
369D
  8
3
 10
186.6694631308
 20
-26.8110795163999
 30
0.0
  0
VERTEX
  5
369E
  8
3
 10
187.222542486
 20
-27.08761919400001
 30
0.0
  0
VERTEX
  5
369F
  8
3
 10
187.5776412908
 20
-27.4360795163999
 30
0.0
  0
VERTEX
  5
36A0
  8
3
 10
187.7
 20
-27.82235075939991
 30
0.0
  0
SEQEND
  5
37B5
  8
3
  0
POLYLINE
  5
D9A
  8
3
 66
     1
 10
0.0
 20
0.0
 30
0.0
  0
VERTEX
  5
36A1
  8
3
 10
187.7
 20
-27.90039031069989
 30
0.0
  0
VERTEX
  5
36A2
  8
3
 10
187.5776412908
 20
-28.2866615536999
 30
0.0
  0
VERTEX
  5
36A3
  8
3
 10
187.222542486
 20
-28.63512187610002
 30
0.0
  0
VERTEX
  5
36A4
  8
3
 10
186.6694631308
 20
-28.9116615536999
 30
0.0
  0
VERTEX
  5
36A5
  8
3
 10
185.972542486
 20
-29.08921095609992
 30
0.0
  0
VERTEX
  5
36A6
  8
3
 10
185.2
 20
-29.15039031069989
 30
0.0
  0
VERTEX
  5
36A7
  8
3
 10
184.4274575141
 20
-29.08921095609992
 30
0.0
  0
VERTEX
  5
36A8
  8
3
 10
183.7305368693
 20
-28.9116615536999
 30
0.0
  0
VERTEX
  5
36A9
  8
3
 10
183.1774575141
 20
-28.63512187610002
 30
0.0
  0
VERTEX
  5
36AA
  8
3
 10
182.8223587093
 20
-28.2866615536999
 30
0.0
  0
VERTEX
  5
36AB
  8
3
 10
182.7
 20
-27.90039031069989
 30
0.0
  0
VERTEX
  5
36AC
  8
3
 10
182.8223587093
 20
-27.51411906779992
 30
0.0
  0
VERTEX
  5
36AD
  8
3
 10
183.1774575141
 20
-27.16565874540004
 30
0.0
  0
VERTEX
  5
36AE
  8
3
 10
183.7305368693
 20
-26.88911906779992
 30
0.0
  0
VERTEX
  5
36AF
  8
3
 10
184.4274575141
 20
-26.71156966539991
 30
0.0
  0
VERTEX
  5
36B0
  8
3
 10
185.2
 20
-26.65039031069989
 30
0.0
  0
VERTEX
  5
36B1
  8
3
 10
185.972542486
 20
-26.71156966539991
 30
0.0
  0
VERTEX
  5
36B2
  8
3
 10
186.6694631308
 20
-26.88911906779992
 30
0.0
  0
VERTEX
  5
36B3
  8
3
 10
187.222542486
 20
-27.16565874540004
 30
0.0
  0
VERTEX
  5
36B4
  8
3
 10
187.5776412908
 20
-27.51411906779992
 30
0.0
  0
VERTEX
  5
36B5
  8
3
 10
187.7
 20
-27.90039031069989
 30
0.0
  0
SEQEND
  5
37B4
  8
3
  0
POLYLINE
  5
D9B
  8
3
 66
     1
 10
0.0
 20
0.0
 30
0.0
  0
VERTEX
  5
36B6
  8
3
 10
187.255
 20
-28.17023720539999
 30
0.0
  0
VERTEX
  5
36B7
  8
3
 10
187.1310683357
 20
-28.52166290260004
 30
0.0
  0
VERTEX
  5
36B8
  8
3
 10
186.7742213306
 20
-28.83070147429987
 30
0.0
  0
VERTEX
  5
36B9
  8
3
 10
186.2275
 20
-29.06007830779993
 30
0.0
  0
VERTEX
  5
36BA
  8
3
 10
185.5568470051
 20
-29.18212717159997
 30
0.0
  0
VERTEX
  5
36BB
  8
3
 10
184.8431529949
 20
-29.18212717159997
 30
0.0
  0
VERTEX
  5
36BC
  8
3
 10
184.1725
 20
-29.06007830779993
 30
0.0
  0
VERTEX
  5
36BD
  8
3
 10
183.6257786694
 20
-28.83070147429987
 30
0.0
  0
VERTEX
  5
36BE
  8
3
 10
183.2689316643
 20
-28.52166290260004
 30
0.0
  0
VERTEX
  5
36BF
  8
3
 10
183.145
 20
-28.17023720539999
 30
0.0
  0
VERTEX
  5
36C0
  8
3
 10
183.2689316643
 20
-27.81881150809988
 30
0.0
  0
VERTEX
  5
36C1
  8
3
 10
183.6257786694
 20
-27.50977293640005
 30
0.0
  0
VERTEX
  5
36C2
  8
3
 10
184.1725
 20
-27.28039610300004
 30
0.0
  0
VERTEX
  5
36C3
  8
3
 10
184.8431529949
 20
-27.1583472392
 30
0.0
  0
VERTEX
  5
36C4
  8
3
 10
185.5568470051
 20
-27.1583472392
 30
0.0
  0
VERTEX
  5
36C5
  8
3
 10
186.2275
 20
-27.28039610300004
 30
0.0
  0
VERTEX
  5
36C6
  8
3
 10
186.7742213306
 20
-27.50977293640005
 30
0.0
  0
VERTEX
  5
36C7
  8
3
 10
187.1310683357
 20
-27.81881150809988
 30
0.0
  0
VERTEX
  5
36C8
  8
3
 10
187.255
 20
-28.17023720539999
 30
0.0
  0
SEQEND
  5
37B3
  8
3
  0
POLYLINE
  5
D9C
  8
3
 66
     1
 10
0.0
 20
0.0
 30
0.0
  0
VERTEX
  5
36C9
  8
3
 10
187.7
 20
-28.44008410000004
 30
0.0
  0
VERTEX
  5
36CA
  8
3
 10
187.5776412908
 20
-28.82635534300005
 30
0.0
  0
VERTEX
  5
36CB
  8
3
 10
187.222542486
 20
-29.17481566539993
 30
0.0
  0
VERTEX
  5
36CC
  8
3
 10
186.6694631308
 20
-29.45135534300005
 30
0.0
  0
VERTEX
  5
36CD
  8
3
 10
185.972542486
 20
-29.62890474540006
 30
0.0
  0
VERTEX
  5
36CE
  8
3
 10
185.2
 20
-29.69008410000004
 30
0.0
  0
VERTEX
  5
36CF
  8
3
 10
184.4274575141
 20
-29.62890474540006
 30
0.0
  0
VERTEX
  5
36D0
  8
3
 10
183.7305368693
 20
-29.45135534300005
 30
0.0
  0
VERTEX
  5
36D1
  8
3
 10
183.1774575141
 20
-29.17481566539993
 30
0.0
  0
VERTEX
  5
36D2
  8
3
 10
182.8223587093
 20
-28.82635534300005
 30
0.0
  0
VERTEX
  5
36D3
  8
3
 10
182.7
 20
-28.44008410000004
 30
0.0
  0
VERTEX
  5
36D4
  8
3
 10
182.8223587093
 20
-28.05381285700003
 30
0.0
  0
VERTEX
  5
36D5
  8
3
 10
183.1774575141
 20
-27.70535253459991
 30
0.0
  0
VERTEX
  5
36D6
  8
3
 10
183.7305368693
 20
-27.42881285700003
 30
0.0
  0
VERTEX
  5
36D7
  8
3
 10
184.4274575141
 20
-27.25126345460001
 30
0.0
  0
VERTEX
  5
36D8
  8
3
 10
185.2
 20
-27.19008410000004
 30
0.0
  0
VERTEX
  5
36D9
  8
3
 10
185.972542486
 20
-27.25126345460001
 30
0.0
  0
VERTEX
  5
36DA
  8
3
 10
186.6694631308
 20
-27.42881285700003
 30
0.0
  0
VERTEX
  5
36DB
  8
3
 10
187.222542486
 20
-27.70535253459991
 30
0.0
  0
VERTEX
  5
36DC
  8
3
 10
187.5776412908
 20
-28.05381285700003
 30
0.0
  0
VERTEX
  5
36DD
  8
3
 10
187.7
 20
-28.44008410000004
 30
0.0
  0
SEQEND
  5
37B2
  8
3
  0
POLYLINE
  5
D9D
  8
3
 66
     1
 10
0.0
 20
0.0
 30
0.0
  0
VERTEX
  5
36DE
  8
3
 10
187.7
 20
-28.51812365130002
 30
0.0
  0
VERTEX
  5
36DF
  8
3
 10
187.5776412908
 20
-28.90439489430003
 30
0.0
  0
VERTEX
  5
36E0
  8
3
 10
187.222542486
 20
-29.25285521669991
 30
0.0
  0
VERTEX
  5
36E1
  8
3
 10
186.6694631308
 20
-29.52939489430003
 30
0.0
  0
VERTEX
  5
36E2
  8
3
 10
185.972542486
 20
-29.70694429670004
 30
0.0
  0
VERTEX
  5
36E3
  8
3
 10
185.2
 20
-29.76812365140006
 30
0.0
  0
VERTEX
  5
36E4
  8
3
 10
184.4274575141
 20
-29.70694429670004
 30
0.0
  0
VERTEX
  5
36E5
  8
3
 10
183.7305368693
 20
-29.52939489430003
 30
0.0
  0
VERTEX
  5
36E6
  8
3
 10
183.1774575141
 20
-29.25285521669991
 30
0.0
  0
VERTEX
  5
36E7
  8
3
 10
182.8223587093
 20
-28.90439489430003
 30
0.0
  0
VERTEX
  5
36E8
  8
3
 10
182.7
 20
-28.51812365130002
 30
0.0
  0
VERTEX
  5
36E9
  8
3
 10
182.8223587093
 20
-28.13185240840005
 30
0.0
  0
VERTEX
  5
36EA
  8
3
 10
183.1774575141
 20
-27.78339208599994
 30
0.0
  0
VERTEX
  5
36EB
  8
3
 10
183.7305368693
 20
-27.50685240840005
 30
0.0
  0
VERTEX
  5
36EC
  8
3
 10
184.4274575141
 20
-27.32930300600003
 30
0.0
  0
VERTEX
  5
36ED
  8
3
 10
185.2
 20
-27.26812365130002
 30
0.0
  0
VERTEX
  5
36EE
  8
3
 10
185.972542486
 20
-27.32930300600003
 30
0.0
  0
VERTEX
  5
36EF
  8
3
 10
186.6694631308
 20
-27.50685240840005
 30
0.0
  0
VERTEX
  5
36F0
  8
3
 10
187.222542486
 20
-27.78339208599994
 30
0.0
  0
VERTEX
  5
36F1
  8
3
 10
187.5776412908
 20
-28.13185240840005
 30
0.0
  0
VERTEX
  5
36F2
  8
3
 10
187.7
 20
-28.51812365130002
 30
0.0
  0
SEQEND
  5
37B1
  8
3
  0
POLYLINE
  5
D9E
  8
3
 66
     1
 10
0.0
 20
0.0
 30
0.0
  0
VERTEX
  5
36F3
  8
3
 10
187.255
 20
-28.78797054599988
 30
0.0
  0
VERTEX
  5
36F4
  8
3
 10
187.1310683357
 20
-29.13939624319994
 30
0.0
  0
VERTEX
  5
36F5
  8
3
 10
186.7742213306
 20
-29.4484348149
 30
0.0
  0
VERTEX
  5
36F6
  8
3
 10
186.2275
 20
-29.67781164840005
 30
0.0
  0
VERTEX
  5
36F7
  8
3
 10
185.5568470051
 20
-29.79986051219987
 30
0.0
  0
VERTEX
  5
36F8
  8
3
 10
184.8431529949
 20
-29.79986051219987
 30
0.0
  0
VERTEX
  5
36F9
  8
3
 10
184.1725
 20
-29.67781164840005
 30
0.0
  0
VERTEX
  5
36FA
  8
3
 10
183.6257786694
 20
-29.4484348149
 30
0.0
  0
VERTEX
  5
36FB
  8
3
 10
183.2689316643
 20
-29.13939624319994
 30
0.0
  0
VERTEX
  5
36FC
  8
3
 10
183.145
 20
-28.78797054599988
 30
0.0
  0
VERTEX
  5
36FD
  8
3
 10
183.2689316643
 20
-28.43654484870001
 30
0.0
  0
VERTEX
  5
36FE
  8
3
 10
183.6257786694
 20
-28.12750627699995
 30
0.0
  0
VERTEX
  5
36FF
  8
3
 10
184.1725
 20
-27.89812944359994
 30
0.0
  0
VERTEX
  5
3700
  8
3
 10
184.8431529949
 20
-27.7760805797999
 30
0.0
  0
VERTEX
  5
3701
  8
3
 10
185.5568470051
 20
-27.7760805797999
 30
0.0
  0
VERTEX
  5
3702
  8
3
 10
186.2275
 20
-27.89812944359994
 30
0.0
  0
VERTEX
  5
3703
  8
3
 10
186.7742213306
 20
-28.12750627699995
 30
0.0
  0
VERTEX
  5
3704
  8
3
 10
187.1310683357
 20
-28.43654484870001
 30
0.0
  0
VERTEX
  5
3705
  8
3
 10
187.255
 20
-28.78797054599988
 30
0.0
  0
SEQEND
  5
37B0
  8
3
  0
POLYLINE
  5
D9F
  8
3
 66
     1
 10
0.0
 20
0.0
 30
0.0
  0
VERTEX
  5
3706
  8
3
 10
187.7
 20
-29.05781744059993
 30
0.0
  0
VERTEX
  5
3707
  8
3
 10
187.5776412908
 20
-29.44408868359994
 30
0.0
  0
VERTEX
  5
3708
  8
3
 10
187.222542486
 20
-29.79254900600006
 30
0.0
  0
VERTEX
  5
3709
  8
3
 10
186.6694631308
 20
-30.06908868359994
 30
0.0
  0
VERTEX
  5
370A
  8
3
 10
185.972542486
 20
-30.24663808599996
 30
0.0
  0
VERTEX
  5
370B
  8
3
 10
185.2
 20
-30.30781744059993
 30
0.0
  0
VERTEX
  5
370C
  8
3
 10
184.4274575141
 20
-30.24663808599996
 30
0.0
  0
VERTEX
  5
370D
  8
3
 10
183.7305368693
 20
-30.06908868359994
 30
0.0
  0
VERTEX
  5
370E
  8
3
 10
183.1774575141
 20
-29.79254900600006
 30
0.0
  0
VERTEX
  5
370F
  8
3
 10
182.8223587093
 20
-29.44408868359994
 30
0.0
  0
VERTEX
  5
3710
  8
3
 10
182.7
 20
-29.05781744059993
 30
0.0
  0
VERTEX
  5
3711
  8
3
 10
182.8223587093
 20
-28.67154619759992
 30
0.0
  0
VERTEX
  5
3712
  8
3
 10
183.1774575141
 20
-28.32308587520004
 30
0.0
  0
VERTEX
  5
3713
  8
3
 10
183.7305368693
 20
-28.04654619759992
 30
0.0
  0
VERTEX
  5
3714
  8
3
 10
184.4274575141
 20
-27.86899679519991
 30
0.0
  0
VERTEX
  5
3715
  8
3
 10
185.2
 20
-27.80781744059993
 30
0.0
  0
VERTEX
  5
3716
  8
3
 10
185.972542486
 20
-27.86899679519991
 30
0.0
  0
VERTEX
  5
3717
  8
3
 10
186.6694631308
 20
-28.04654619759992
 30
0.0
  0
VERTEX
  5
3718
  8
3
 10
187.222542486
 20
-28.32308587520004
 30
0.0
  0
VERTEX
  5
3719
  8
3
 10
187.5776412908
 20
-28.67154619759992
 30
0.0
  0
VERTEX
  5
371A
  8
3
 10
187.7
 20
-29.05781744059993
 30
0.0
  0
SEQEND
  5
37AF
  8
3
  0
POLYLINE
  5
DA0
  8
3
 66
     1
 10
0.0
 20
0.0
 30
0.0
  0
VERTEX
  5
371B
  8
3
 10
187.7
 20
-29.13585699199996
 30
0.0
  0
VERTEX
  5
371C
  8
3
 10
187.5776412908
 20
-29.52212823489992
 30
0.0
  0
VERTEX
  5
371D
  8
3
 10
187.222542486
 20
-29.87058855730004
 30
0.0
  0
VERTEX
  5
371E
  8
3
 10
186.6694631308
 20
-30.14712823489992
 30
0.0
  0
VERTEX
  5
371F
  8
3
 10
185.972542486
 20
-30.32467763729994
 30
0.0
  0
VERTEX
  5
3720
  8
3
 10
185.2
 20
-30.38585699199996
 30
0.0
  0
VERTEX
  5
3721
  8
3
 10
184.4274575141
 20
-30.32467763729994
 30
0.0
  0
VERTEX
  5
3722
  8
3
 10
183.7305368693
 20
-30.14712823489992
 30
0.0
  0
VERTEX
  5
3723
  8
3
 10
183.1774575141
 20
-29.87058855730004
 30
0.0
  0
VERTEX
  5
3724
  8
3
 10
182.8223587093
 20
-29.52212823489992
 30
0.0
  0
VERTEX
  5
3725
  8
3
 10
182.7
 20
-29.13585699199996
 30
0.0
  0
VERTEX
  5
3726
  8
3
 10
182.8223587093
 20
-28.74958574899995
 30
0.0
  0
VERTEX
  5
3727
  8
3
 10
183.1774575141
 20
-28.40112542660006
 30
0.0
  0
VERTEX
  5
3728
  8
3
 10
183.7305368693
 20
-28.12458574899995
 30
0.0
  0
VERTEX
  5
3729
  8
3
 10
184.4274575141
 20
-27.94703634659993
 30
0.0
  0
VERTEX
  5
372A
  8
3
 10
185.2
 20
-27.88585699199996
 30
0.0
  0
VERTEX
  5
372B
  8
3
 10
185.972542486
 20
-27.94703634659993
 30
0.0
  0
VERTEX
  5
372C
  8
3
 10
186.6694631308
 20
-28.12458574899995
 30
0.0
  0
VERTEX
  5
372D
  8
3
 10
187.222542486
 20
-28.40112542660006
 30
0.0
  0
VERTEX
  5
372E
  8
3
 10
187.5776412908
 20
-28.74958574899995
 30
0.0
  0
VERTEX
  5
372F
  8
3
 10
187.7
 20
-29.13585699199996
 30
0.0
  0
SEQEND
  5
37AE
  8
3
  0
POLYLINE
  5
DA1
  8
3
 66
     1
 10
0.0
 20
0.0
 30
0.0
  0
VERTEX
  5
3730
  8
3
 10
187.255
 20
-29.40570388660001
 30
0.0
  0
VERTEX
  5
3731
  8
3
 10
187.1310683357
 20
-29.75712958380007
 30
0.0
  0
VERTEX
  5
3732
  8
3
 10
186.7742213306
 20
-30.06616815549989
 30
0.0
  0
VERTEX
  5
3733
  8
3
 10
186.2275
 20
-30.29554498899995
 30
0.0
  0
VERTEX
  5
3734
  8
3
 10
185.5568470051
 20
-30.4175938528
 30
0.0
  0
VERTEX
  5
3735
  8
3
 10
184.8431529949
 20
-30.4175938528
 30
0.0
  0
VERTEX
  5
3736
  8
3
 10
184.1725
 20
-30.29554498899995
 30
0.0
  0
VERTEX
  5
3737
  8
3
 10
183.6257786694
 20
-30.06616815549989
 30
0.0
  0
VERTEX
  5
3738
  8
3
 10
183.2689316643
 20
-29.75712958380007
 30
0.0
  0
VERTEX
  5
3739
  8
3
 10
183.145
 20
-29.40570388660001
 30
0.0
  0
VERTEX
  5
373A
  8
3
 10
183.2689316643
 20
-29.05427818929991
 30
0.0
  0
VERTEX
  5
373B
  8
3
 10
183.6257786694
 20
-28.74523961759985
 30
0.0
  0
VERTEX
  5
373C
  8
3
 10
184.1725
 20
-28.51586278420007
 30
0.0
  0
VERTEX
  5
373D
  8
3
 10
184.8431529949
 20
-28.39381392040002
 30
0.0
  0
VERTEX
  5
373E
  8
3
 10
185.5568470051
 20
-28.39381392040002
 30
0.0
  0
VERTEX
  5
373F
  8
3
 10
186.2275
 20
-28.51586278420007
 30
0.0
  0
VERTEX
  5
3740
  8
3
 10
186.7742213306
 20
-28.74523961759985
 30
0.0
  0
VERTEX
  5
3741
  8
3
 10
187.1310683357
 20
-29.05427818929991
 30
0.0
  0
VERTEX
  5
3742
  8
3
 10
187.255
 20
-29.40570388660001
 30
0.0
  0
SEQEND
  5
37AD
  8
3
  0
POLYLINE
  5
DA2
  8
3
 66
     1
 10
0.0
 20
0.0
 30
0.0
  0
VERTEX
  5
3743
  8
3
 10
187.7
 20
-29.67555078120006
 30
0.0
  0
VERTEX
  5
3744
  8
3
 10
187.5776412908
 20
-30.06182202420007
 30
0.0
  0
VERTEX
  5
3745
  8
3
 10
187.222542486
 20
-30.41028234659996
 30
0.0
  0
VERTEX
  5
3746
  8
3
 10
186.6694631308
 20
-30.68682202420007
 30
0.0
  0
VERTEX
  5
3747
  8
3
 10
185.972542486
 20
-30.86437142659986
 30
0.0
  0
VERTEX
  5
3748
  8
3
 10
185.2
 20
-30.92555078120006
 30
0.0
  0
VERTEX
  5
3749
  8
3
 10
184.4274575141
 20
-30.86437142659986
 30
0.0
  0
VERTEX
  5
374A
  8
3
 10
183.7305368693
 20
-30.68682202420007
 30
0.0
  0
VERTEX
  5
374B
  8
3
 10
183.1774575141
 20
-30.41028234659996
 30
0.0
  0
VERTEX
  5
374C
  8
3
 10
182.8223587093
 20
-30.06182202420007
 30
0.0
  0
VERTEX
  5
374D
  8
3
 10
182.7
 20
-29.67555078120006
 30
0.0
  0
VERTEX
  5
374E
  8
3
 10
182.8223587093
 20
-29.28927953820005
 30
0.0
  0
VERTEX
  5
374F
  8
3
 10
183.1774575141
 20
-28.94081921579993
 30
0.0
  0
VERTEX
  5
3750
  8
3
 10
183.7305368693
 20
-28.66427953820005
 30
0.0
  0
VERTEX
  5
3751
  8
3
 10
184.4274575141
 20
-28.48673013580003
 30
0.0
  0
VERTEX
  5
3752
  8
3
 10
185.2
 20
-28.42555078120006
 30
0.0
  0
VERTEX
  5
3753
  8
3
 10
185.972542486
 20
-28.48673013580003
 30
0.0
  0
VERTEX
  5
3754
  8
3
 10
186.6694631308
 20
-28.66427953820005
 30
0.0
  0
VERTEX
  5
3755
  8
3
 10
187.222542486
 20
-28.94081921579993
 30
0.0
  0
VERTEX
  5
3756
  8
3
 10
187.5776412908
 20
-29.28927953820005
 30
0.0
  0
VERTEX
  5
3757
  8
3
 10
187.7
 20
-29.67555078120006
 30
0.0
  0
SEQEND
  5
37AC
  8
3
  0
LINE
  5
DA3
  8
3
 10
185.2
 20
-28.62935647350002
 30
0.0
 11
185.2
 21
-30.96762506369998
 31
0.0
  0
LINE
  5
DA4
  8
3
 10
186.45
 20
-28.26851255519989
 30
0.0
 11
185.2
 21
-28.62935647350002
 31
0.0
  0
LINE
  5
DA5
  8
3
 10
183.95
 20
-28.26851255519989
 30
0.0
 11
185.2
 21
-28.62935647350002
 31
0.0
  0
POLYLINE
  5
DA6
  8
3
 66
     1
 10
0.0
 20
0.0
 30
0.0
  0
VERTEX
  5
3758
  8
3
 10
187.7
 20
-29.75359033259986
 30
0.0
  0
VERTEX
  5
3759
  8
3
 10
187.5776412908
 20
-30.13986157550005
 30
0.0
  0
VERTEX
  5
375A
  8
3
 10
187.222542486
 20
-30.48832189789994
 30
0.0
  0
VERTEX
  5
375B
  8
3
 10
186.6694631308
 20
-30.76486157550005
 30
0.0
  0
VERTEX
  5
375C
  8
3
 10
185.972542486
 20
-30.94241097790007
 30
0.0
  0
VERTEX
  5
375D
  8
3
 10
185.2
 20
-31.00359033259986
 30
0.0
  0
VERTEX
  5
375E
  8
3
 10
184.4274575141
 20
-30.94241097790007
 30
0.0
  0
VERTEX
  5
375F
  8
3
 10
183.7305368693
 20
-30.76486157550005
 30
0.0
  0
VERTEX
  5
3760
  8
3
 10
183.1774575141
 20
-30.48832189789994
 30
0.0
  0
VERTEX
  5
3761
  8
3
 10
182.8223587093
 20
-30.13986157550005
 30
0.0
  0
VERTEX
  5
3762
  8
3
 10
182.7
 20
-29.75359033259986
 30
0.0
  0
VERTEX
  5
3763
  8
3
 10
182.8223587093
 20
-29.36731908959985
 30
0.0
  0
VERTEX
  5
3764
  8
3
 10
183.1774575141
 20
-29.01885876719996
 30
0.0
  0
VERTEX
  5
3765
  8
3
 10
183.7305368693
 20
-28.74231908959985
 30
0.0
  0
VERTEX
  5
3766
  8
3
 10
184.4274575141
 20
-28.56476968720006
 30
0.0
  0
VERTEX
  5
3767
  8
3
 10
185.2
 20
-28.50359033259986
 30
0.0
  0
VERTEX
  5
3768
  8
3
 10
185.972542486
 20
-28.56476968720006
 30
0.0
  0
VERTEX
  5
3769
  8
3
 10
186.6694631308
 20
-28.74231908959985
 30
0.0
  0
VERTEX
  5
376A
  8
3
 10
187.222542486
 20
-29.01885876719996
 30
0.0
  0
VERTEX
  5
376B
  8
3
 10
187.5776412908
 20
-29.36731908959985
 30
0.0
  0
VERTEX
  5
376C
  8
3
 10
187.7
 20
-29.75359033259986
 30
0.0
  0
SEQEND
  5
37AB
  8
3
  0
POLYLINE
  5
DA7
  8
3
 66
     1
 10
0.0
 20
0.0
 30
0.0
  0
VERTEX
  5
376D
  8
3
 10
187.255
 20
-30.02343722719991
 30
0.0
  0
VERTEX
  5
376E
  8
3
 10
187.1310683357
 20
-30.37486292450001
 30
0.0
  0
VERTEX
  5
376F
  8
3
 10
186.7742213306
 20
-30.68390149610002
 30
0.0
  0
VERTEX
  5
3770
  8
3
 10
186.2275
 20
-30.91327832959985
 30
0.0
  0
VERTEX
  5
3771
  8
3
 10
185.5568470051
 20
-31.03532719339989
 30
0.0
  0
VERTEX
  5
3772
  8
3
 10
184.8431529949
 20
-31.03532719339989
 30
0.0
  0
VERTEX
  5
3773
  8
3
 10
184.1725
 20
-30.91327832959985
 30
0.0
  0
VERTEX
  5
3774
  8
3
 10
183.6257786694
 20
-30.68390149610002
 30
0.0
  0
VERTEX
  5
3775
  8
3
 10
183.2689316643
 20
-30.37486292450001
 30
0.0
  0
VERTEX
  5
3776
  8
3
 10
183.145
 20
-30.02343722719991
 30
0.0
  0
VERTEX
  5
3777
  8
3
 10
183.2689316643
 20
-29.67201152990003
 30
0.0
  0
VERTEX
  5
3778
  8
3
 10
183.6257786694
 20
-29.36297295819998
 30
0.0
  0
VERTEX
  5
3779
  8
3
 10
184.1725
 20
-29.13359612479996
 30
0.0
  0
VERTEX
  5
377A
  8
3
 10
184.8431529949
 20
-29.01154726099992
 30
0.0
  0
VERTEX
  5
377B
  8
3
 10
185.5568470051
 20
-29.01154726099992
 30
0.0
  0
VERTEX
  5
377C
  8
3
 10
186.2275
 20
-29.13359612479996
 30
0.0
  0
VERTEX
  5
377D
  8
3
 10
186.7742213306
 20
-29.36297295819998
 30
0.0
  0
VERTEX
  5
377E
  8
3
 10
187.1310683357
 20
-29.67201152990003
 30
0.0
  0
VERTEX
  5
377F
  8
3
 10
187.255
 20
-30.02343722719991
 30
0.0
  0
SEQEND
  5
37AA
  8
3
  0
POLYLINE
  5
DA8
  8
3
 66
     1
 10
0.0
 20
0.0
 30
0.0
  0
VERTEX
  5
3780
  8
3
 10
187.4561031269
 20
-30.14538566379986
 30
0.0
  0
VERTEX
  5
3781
  8
3
 10
187.3338612365
 20
-29.77910791989996
 30
0.0
  0
VERTEX
  5
3782
  8
3
 10
186.9803823708
 20
-29.45252205290001
 30
0.0
  0
VERTEX
  5
3783
  8
3
 10
186.4339714498
 20
-29.20101870909991
 30
0.0
  0
VERTEX
  5
3784
  8
3
 10
185.7538405752
 20
-29.05185217819997
 30
0.0
  0
VERTEX
  5
3785
  8
3
 10
185.0136924805
 20
-29.02118696829996
 30
0.0
  0
VERTEX
  5
3786
  8
3
 10
184.2937336964
 20
-29.11234613089994
 30
0.0
  0
VERTEX
  5
3787
  8
3
 10
183.6719829285
 20
-29.31545115610004
 30
0.0
  0
VERTEX
  5
3788
  8
3
 10
183.21581652
 20
-29.60849246290002
 30
0.0
  0
VERTEX
  5
3789
  8
3
 10
182.9746671792
 20
-29.95971447889985
 30
0.0
  0
VERTEX
  5
378A
  8
3
 10
182.9746671792
 20
-30.33105684869986
 30
0.0
  0
VERTEX
  5
378B
  8
3
 10
183.21581652
 20
-30.68227886459988
 30
0.0
  0
VERTEX
  5
378C
  8
3
 10
183.6719829285
 20
-30.97532017139986
 30
0.0
  0
VERTEX
  5
378D
  8
3
 10
184.2937336964
 20
-31.17842519659996
 30
0.0
  0
VERTEX
  5
378E
  8
3
 10
185.0136924805
 20
-31.26958435919994
 30
0.0
  0
VERTEX
  5
378F
  8
3
 10
185.7538405752
 20
-31.23891914929993
 30
0.0
  0
VERTEX
  5
3790
  8
3
 10
186.4339714498
 20
-31.08975261839998
 30
0.0
  0
VERTEX
  5
3791
  8
3
 10
186.9803823708
 20
-30.83824927459989
 30
0.0
  0
VERTEX
  5
3792
  8
3
 10
187.3338612365
 20
-30.51166340759994
 30
0.0
  0
VERTEX
  5
3793
  8
3
 10
187.4561031269
 20
-30.14538566379986
 30
0.0
  0
SEQEND
  5
37A9
  8
3
  0
LINE
  5
DA9
  8
3
 10
186.45
 20
-28.26851255519989
 30
0.0
 11
186.45
 21
-27.5468247186999
 31
0.0
  0
LINE
  5
DAA
  8
3
 10
186.45
 20
-28.26851255519989
 30
0.0
 11
186.45
 21
-30.60678114539985
 31
0.0
  0
LINE
  5
DAB
  8
3
 10
183.95
 20
-28.26851255519989
 30
0.0
 11
183.95
 21
-27.5468247186999
 31
0.0
  0
LINE
  5
DAC
  8
3
 10
183.95
 20
-28.26851255519989
 30
0.0
 11
183.95
 21
-30.60678114539985
 31
0.0
  0
POLYLINE
  5
DAD
  8
3
 66
     1
 10
0.0
 20
0.0
 30
0.0
  0
VERTEX
  5
3794
  8
3
 10
185.2
 20
-31.27343722719991
 30
0.0
  0
VERTEX
  5
3795
  8
3
 10
184.4971486055
 20
-31.21147139499988
 30
0.0
  0
VERTEX
  5
3796
  8
3
 10
183.8790714621
 20
-31.03304789249989
 30
0.0
  0
VERTEX
  5
3797
  8
3
 10
183.4203177953
 20
-30.75968722720006
 30
0.0
  0
VERTEX
  5
3798
  8
3
 10
183.1762200676
 20
-30.42436072969997
 30
0.0
  0
VERTEX
  5
3799
  8
3
 10
183.1762200676
 20
-30.06751372459996
 30
0.0
  0
VERTEX
  5
379A
  8
3
 10
183.4203177953
 20
-29.73218722719992
 30
0.0
  0
VERTEX
  5
379B
  8
3
 10
183.8790714621
 20
-29.45882656189985
 30
0.0
  0
VERTEX
  5
379C
  8
3
 10
184.4971486055
 20
-29.28040305930006
 30
0.0
  0
VERTEX
  5
379D
  8
3
 10
185.2
 20
-29.21843722720007
 30
0.0
  0
VERTEX
  5
379E
  8
3
 10
185.9028513946
 20
-29.28040305930006
 30
0.0
  0
VERTEX
  5
379F
  8
3
 10
186.5209285379
 20
-29.45882656189985
 30
0.0
  0
VERTEX
  5
37A0
  8
3
 10
186.9796822048
 20
-29.73218722719992
 30
0.0
  0
VERTEX
  5
37A1
  8
3
 10
187.2237799325
 20
-30.06751372459996
 30
0.0
  0
VERTEX
  5
37A2
  8
3
 10
187.2237799325
 20
-30.42436072969997
 30
0.0
  0
VERTEX
  5
37A3
  8
3
 10
186.9796822048
 20
-30.75968722720006
 30
0.0
  0
VERTEX
  5
37A4
  8
3
 10
186.5209285379
 20
-31.03304789249989
 30
0.0
  0
VERTEX
  5
37A5
  8
3
 10
185.9028513946
 20
-31.21147139499988
 30
0.0
  0
VERTEX
  5
37A6
  8
3
 10
185.2
 20
-31.27343722719991
 30
0.0
  0
SEQEND
  5
37A8
  8
3
  0
LINE
  5
DAE
  8
3
 10
186.45
 20
-30.60678114539985
 30
0.0
 11
185.2
 21
-30.96762506369998
 31
0.0
  0
LINE
  5
DAF
  8
3
 10
183.95
 20
-30.60678114539985
 30
0.0
 11
185.2
 21
-30.96762506369998
 31
0.0
  0
LINE
  5
DB0
  8
3
 10
185.2
 20
-27.18598080050003
 30
0.0
 11
185.2
 21
-28.62935647350002
 31
0.0
  0
LINE
  5
DB1
  8
3
 10
183.95
 20
-29.88509330889985
 30
0.0
 11
185.2
 21
-29.52424939069999
 31
0.0
  0
LINE
  5
DB2
  8
3
 10
183.95
 20
-27.5468247186999
 30
0.0
 11
185.2
 21
-27.18598080050003
 31
0.0
  0
LINE
  5
DB3
  8
3
 10
186.45
 20
-29.88509330889985
 30
0.0
 11
185.2
 21
-29.52424939069999
 31
0.0
  0
LINE
  5
DB4
  8
3
 10
186.45
 20
-27.5468247186999
 30
0.0
 11
185.2
 21
-27.18598080050003
 31
0.0
  0
LINE
  5
DB6
  8
3
 10
203.00019979
 20
7.098029999999994
 30
0.0
 11
203.00019979
 21
-7.098029999999994
 31
0.0
  0
LINE
  5
DBF
  8
3
 10
191.597760305
 20
-19.04618999999991
 30
0.0
 11
191.597760305
 21
-31.75381000000004
 31
0.0
  0
LINE
  5
DC0
  8
3
 10
189.5348
 20
-19.30399999999997
 30
0.0
 11
189.5348
 21
-31.49599999999998
 31
0.0
  0
LINE
  5
DC1
  8
3
 10
190.4596395107
 20
-19.0561899999999
 30
0.0
 11
190.4596395107
 21
-31.74381000000005
 31
0.0
  0
LINE
  5
DC2
  8
3
 10
191.597760305
 20
31.75381000000004
 30
0.0
 11
191.597760305
 21
19.04619000000014
 31
0.0
  0
LINE
  5
DC3
  8
3
 10
189.5348
 20
31.49599999999998
 30
0.0
 11
189.5348
 21
19.30399999999997
 31
0.0
  0
LINE
  5
DC4
  8
3
 10
190.4596395107
 20
31.74381000000005
 30
0.0
 11
190.4596395107
 21
19.05619000000013
 31
0.0
  0
LINE
  5
DC8
  8
3
 10
203.2
 20
16.87407116049997
 30
0.0
 11
203.0136296695
 21
16.17852761799998
 31
0.0
  0
LINE
  5
DC9
  8
3
 10
203.0136296695
 20
-16.17852761810002
 30
0.0
 11
203.2
 21
-16.87407116060001
 31
0.0
  0
ARC
  5
DCA
  8
3
 10
203.4
 20
-16.07499999999993
 30
0.0
 40
0.4000000000000283
 50
166.8750000000059
 51
194.9999999999931
  0
ARC
  5
DCB
  8
3
 10
203.4
 20
-16.07499999999993
 30
0.0
 40
0.4000000000000807
 50
120.0000000000007
 51
166.875000000008
  0
ARC
  5
DCC
  8
3
 10
203.4
 20
16.07499999999993
 30
0.0
 40
0.4000000000000263
 50
165.0000000000069
 51
180.0
  0
ARC
  5
DCD
  8
3
 10
203.4
 20
16.07499999999993
 30
0.0
 40
0.3999999999999773
 50
180.0
 51
240.0000000000186
  0
LINE
  5
DCE
  8
3
 10
203.0
 20
16.07499999999993
 30
0.0
 11
203.0
 21
-16.07499999999993
 31
0.0
  0
LINE
  5
DD1
  8
3
 10
203.2
 20
2.000000000000114
 30
0.0
 11
185.8468979737
 21
2.000000000000114
 31
0.0
  0
LINE
  5
DD2
  8
3
 10
185.8501266855
 20
-1.999999999999886
 30
0.0
 11
203.2
 21
-1.999999999999886
 31
0.0
  0
LINE
  5
DD9
  8
SK3
 10
-40.09999999999999
 20
-11.11250000000007
 30
0.0
 11
-37.834376924
 21
-7.341869999999858
 31
0.0
  0
LINE
  5
DDA
  8
SK3
 10
-37.834376924
 20
7.341870000000085
 30
0.0
 11
-40.09999999999999
 21
11.11250000000007
 31
0.0
  0
LINE
  5
DDF
  8
3
 10
203.24403979
 20
7.341870000000085
 30
0.0
 11
0.0
 21
7.341870000000085
 31
0.0
  0
LINE
  5
DE0
  8
3
 10
0.0000000000000071
 20
-7.341869999999858
 30
0.0
 11
203.2440397899999
 21
-7.341869999999858
 31
0.0
  0
LINE
  5
DE1
  8
3
 10
203.2
 20
31.75049999999999
 30
0.0
 11
188.2
 21
31.75049999999999
 31
0.0
  0
LINE
  5
DE2
  8
3
 10
188.2
 20
19.04949999999997
 30
0.0
 11
203.2
 21
19.04949999999997
 31
0.0
  0
LINE
  5
DE3
  8
3
 10
203.2
 20
-19.04949999999997
 30
0.0
 11
188.2
 21
-19.04949999999997
 31
0.0
  0
LINE
  5
DE4
  8
3
 10
188.2
 20
-31.75049999999999
 30
0.0
 11
203.2
 21
-31.75049999999999
 31
0.0
  0
LINE
  5
DE5
  8
3
 10
188.2
 20
-19.04949999999997
 30
0.0
 11
184.3842346389
 21
-25.39999999999998
 31
0.0
  0
LINE
  5
DE6
  8
3
 10
184.3842346389
 20
-25.39999999999998
 30
0.0
 11
188.2
 21
-31.75049999999999
 31
0.0
  0
LINE
  5
DE7
  8
3
 10
188.2
 20
31.75049999999999
 30
0.0
 11
184.3842346389
 21
25.39999999999998
 31
0.0
  0
LINE
  5
DE8
  8
3
 10
184.3842346389
 20
25.39999999999998
 30
0.0
 11
188.2
 21
19.04949999999997
 31
0.0
  0
LINE
  5
DEF
  8
3
 10
183.1
 20
29.01185102679995
 30
0.0
 11
183.1
 21
6.354557527900056
 31
0.0
  0
LINE
  5
DF0
  8
3
 10
187.3
 20
11.90303384810011
 30
0.0
 11
187.3
 21
29.01185102679995
 31
0.0
  0
LINE
  5
DF1
  8
3
 10
187.3
 20
6.35234756579996
 30
0.0
 11
187.3
 21
8.450111038200134
 31
0.0
  0
LINE
  5
DF2
  8
3
 10
187.3
 20
-8.447117866799886
 30
0.0
 11
187.3
 21
-6.352347565900004
 31
0.0
  0
LINE
  5
DF3
  8
3
 10
187.3
 20
-29.01185102679995
 30
0.0
 11
187.3
 21
-11.89983538059994
 31
0.0
  0
LINE
  5
DF4
  8
3
 10
183.1
 20
-6.354557527900056
 30
0.0
 11
183.1
 21
-29.01185102679995
 31
0.0
  0
LINE
  5
DF5
  8
3
 10
203.2
 20
12.1757984945001
 30
0.0
 11
187.0429309105
 21
12.1757984945001
 31
0.0
  0
LINE
  5
DF6
  8
3
 10
187.0335497759
 20
8.1757984945001
 30
0.0
 11
203.2
 21
8.1757984945001
 31
0.0
  0
LINE
  5
DF7
  8
3
 10
203.2
 20
-8.175798494499873
 30
0.0
 11
187.0420407841
 21
-8.175798494499873
 31
0.0
  0
LINE
  5
DF8
  8
3
 10
187.0341813471
 20
-12.17579849449987
 30
0.0
 11
203.2
 21
-12.17579849449987
 31
0.0
  0
LINE
  5
DF9
  8
3
 10
182.575
 20
30.24576628110015
 30
0.0
 11
182.575
 21
29.37991182339999
 31
0.0
  0
LINE
  5
DFA
  8
3
 10
187.825
 20
29.37991182339999
 30
0.0
 11
187.825
 21
30.24378634679999
 31
0.0
  0
LINE
  5
DFB
  8
3
 10
187.825
 20
-30.24378634690004
 30
0.0
 11
187.825
 21
-29.37991182339999
 31
0.0
  0
LINE
  5
DFC
  8
3
 10
182.575
 20
-29.37991182339999
 30
0.0
 11
182.575
 21
-30.24576628119996
 31
0.0
  0
LINE
  5
DFD
  8
3
 10
183.1383461332
 20
28.65100710850004
 30
0.0
 11
183.4853571801
 21
28.40563324409993
 31
0.0
  0
LINE
  5
DFE
  8
3
 10
186.91464282
 20
28.40563324409993
 30
0.0
 11
187.2616538669
 21
28.65100710850004
 31
0.0
  0
LINE
  5
DFF
  8
3
 10
187.2616538669
 20
-28.65100710850004
 30
0.0
 11
186.91464282
 21
-28.40563324409993
 31
0.0
  0
LINE
  5
E00
  8
3
 10
183.4853571801
 20
-28.40563324409993
 30
0.0
 11
183.1383461332
 21
-28.65100710850004
 31
0.0
  0
LINE
  5
E01
  8
3
 10
183.3083956361
 20
24.87180662089997
 30
0.0
 11
183.7711309834
 21
24.54460331889993
 31
0.0
  0
LINE
  5
E02
  8
3
 10
186.6288690167
 20
24.54460331889993
 30
0.0
 11
187.091604364
 21
24.87180662089997
 31
0.0
  0
LINE
  5
E03
  8
3
 10
183.785496796
 20
24.93847369239995
 30
0.0
 11
184.0372783663
 21
24.85208731180012
 31
0.0
  0
LINE
  5
E04
  8
3
 10
186.3627216338
 20
24.85208731180012
 30
0.0
 11
186.6145032041
 21
24.93847369239995
 31
0.0
  0
LINE
  5
E05
  8
3
 10
186.5108103555
 20
26.49571106080009
 30
0.0
 11
186.3627216338
 21
26.54652037409994
 31
0.0
  0
LINE
  5
E06
  8
3
 10
184.0372783663
 20
26.54652037409994
 30
0.0
 11
183.8891896446
 21
26.49571106080009
 31
0.0
  0
LINE
  5
E07
  8
3
 10
182.7
 20
26.04719028889997
 30
0.0
 11
182.7
 21
25.96915073759999
 31
0.0
  0
LINE
  5
E08
  8
3
 10
187.7
 20
25.96915073759999
 30
0.0
 11
187.7
 21
26.04719028889997
 31
0.0
  0
LINE
  5
E09
  8
3
 10
186.6145032041
 20
27.07786733410001
 30
0.0
 11
186.3627216338
 21
27.16425371470007
 31
0.0
  0
LINE
  5
E0A
  8
3
 10
184.0372783663
 20
27.16425371470007
 30
0.0
 11
183.785496796
 21
27.07786733410001
 31
0.0
  0
LINE
  5
E0B
  8
3
 10
183.785496796
 20
25.55620703300008
 30
0.0
 11
184.0372783663
 21
25.46982065240002
 31
0.0
  0
LINE
  5
E0C
  8
3
 10
186.3627216338
 20
25.46982065240002
 30
0.0
 11
186.6145032041
 21
25.55620703300008
 31
0.0
  0
LINE
  5
E0D
  8
3
 10
182.7
 20
26.66492362950009
 30
0.0
 11
182.7
 21
26.58688407820011
 31
0.0
  0
LINE
  5
E0E
  8
3
 10
187.7
 20
26.58688407820011
 30
0.0
 11
187.7
 21
26.66492362950009
 31
0.0
  0
LINE
  5
E0F
  8
3
 10
186.6145032041
 20
27.69560067470013
 30
0.0
 11
186.3627216338
 21
27.78198705529996
 31
0.0
  0
LINE
  5
E10
  8
3
 10
184.0372783663
 20
27.78198705529996
 30
0.0
 11
183.785496796
 21
27.69560067470013
 31
0.0
  0
LINE
  5
E11
  8
3
 10
183.785496796
 20
26.17394037359998
 30
0.0
 11
184.0372783663
 21
26.08755399300014
 31
0.0
  0
LINE
  5
E12
  8
3
 10
186.3627216338
 20
26.08755399300014
 30
0.0
 11
186.6145032041
 21
26.17394037359998
 31
0.0
  0
LINE
  5
E13
  8
3
 10
182.7
 20
27.28265697009999
 30
0.0
 11
182.7
 21
27.20461741880001
 31
0.0
  0
LINE
  5
E14
  8
3
 10
187.7
 20
27.20461741880001
 30
0.0
 11
187.7
 21
27.28265697009999
 31
0.0
  0
LINE
  5
E15
  8
3
 10
186.6145032041
 20
28.31333401530003
 30
0.0
 11
186.3627216338
 21
28.39972039590009
 31
0.0
  0
LINE
  5
E16
  8
3
 10
184.0372783663
 20
28.39972039590009
 30
0.0
 11
183.785496796
 21
28.31333401530003
 31
0.0
  0
LINE
  5
E17
  8
3
 10
183.785496796
 20
26.7916737142001
 30
0.0
 11
184.0372783663
 21
26.70528733360004
 31
0.0
  0
LINE
  5
E18
  8
3
 10
186.3627216338
 20
26.70528733360004
 30
0.0
 11
186.6145032041
 21
26.7916737142001
 31
0.0
  0
LINE
  5
E19
  8
3
 10
182.7
 20
27.90039031070012
 30
0.0
 11
182.7
 21
27.82235075940014
 31
0.0
  0
LINE
  5
E1A
  8
3
 10
187.7
 20
27.82235075940014
 30
0.0
 11
187.7
 21
27.90039031070012
 31
0.0
  0
LINE
  5
E1B
  8
3
 10
186.6145032041
 20
28.93106735590015
 30
0.0
 11
186.3627216338
 21
29.01745373649999
 31
0.0
  0
LINE
  5
E1C
  8
3
 10
184.0372783663
 20
29.01745373649999
 30
0.0
 11
183.785496796
 21
28.93106735590015
 31
0.0
  0
LINE
  5
E1D
  8
3
 10
183.785496796
 20
27.4094070548
 30
0.0
 11
184.0372783663
 21
27.32302067419994
 31
0.0
  0
LINE
  5
E1E
  8
3
 10
186.3627216338
 20
27.32302067419994
 30
0.0
 11
186.6145032041
 21
27.4094070548
 31
0.0
  0
LINE
  5
E1F
  8
3
 10
182.7
 20
28.51812365130002
 30
0.0
 11
182.7
 21
28.44008410000004
 31
0.0
  0
LINE
  5
E20
  8
3
 10
187.7
 20
28.44008410000004
 30
0.0
 11
187.7
 21
28.51812365130002
 31
0.0
  0
LINE
  5
E21
  8
3
 10
186.6145032041
 20
29.54880069650005
 30
0.0
 11
186.3627216338
 21
29.63518707710011
 31
0.0
  0
LINE
  5
E22
  8
3
 10
184.0372783663
 20
29.63518707710011
 30
0.0
 11
183.785496796
 21
29.54880069650005
 31
0.0
  0
LINE
  5
E23
  8
3
 10
183.785496796
 20
28.02714039540012
 30
0.0
 11
184.0372783663
 21
27.94075401480006
 31
0.0
  0
LINE
  5
E24
  8
3
 10
186.3627216338
 20
27.94075401480006
 30
0.0
 11
186.6145032041
 21
28.02714039540012
 31
0.0
  0
LINE
  5
E25
  8
3
 10
182.7
 20
29.13585699190014
 30
0.0
 11
182.7
 21
29.05781744059993
 31
0.0
  0
LINE
  5
E26
  8
3
 10
187.7
 20
29.05781744059993
 30
0.0
 11
187.7
 21
29.13585699190014
 31
0.0
  0
LINE
  5
E27
  8
3
 10
186.6145032041
 20
30.16653403709995
 30
0.0
 11
186.3627216338
 21
30.25292041770001
 31
0.0
  0
LINE
  5
E28
  8
3
 10
184.0372783663
 20
30.25292041770001
 30
0.0
 11
183.785496796
 21
30.16653403709995
 31
0.0
  0
LINE
  5
E29
  8
3
 10
183.785496796
 20
28.64487373600002
 30
0.0
 11
184.0372783663
 21
28.55848735539996
 31
0.0
  0
LINE
  5
E2A
  8
3
 10
186.3627216338
 20
28.55848735539996
 30
0.0
 11
186.6145032041
 21
28.64487373600002
 31
0.0
  0
LINE
  5
E2B
  8
3
 10
182.7
 20
29.75359033250004
 30
0.0
 11
182.7
 21
29.67555078120006
 31
0.0
  0
LINE
  5
E2C
  8
3
 10
187.7
 20
29.67555078120006
 30
0.0
 11
187.7
 21
29.75359033250004
 31
0.0
  0
LINE
  5
E2D
  8
3
 10
186.6145032041
 20
30.78426737770008
 30
0.0
 11
186.3627216338
 21
30.87065375830014
 31
0.0
  0
LINE
  5
E2E
  8
3
 10
184.0372783663
 20
30.87065375830014
 30
0.0
 11
183.785496796
 21
30.78426737770008
 31
0.0
  0
LINE
  5
E2F
  8
3
 10
183.9234939594
 20
29.21526018199995
 30
0.0
 11
184.0372783663
 21
29.17622069600009
 31
0.0
  0
LINE
  5
E30
  8
3
 10
186.3627216338
 20
29.17622069600009
 30
0.0
 11
186.4765060407
 21
29.21526018199995
 31
0.0
  0
LINE
  5
E31
  8
3
 10
187.091604364
 20
-24.87180662089997
 30
0.0
 11
186.6288690166
 21
-24.54460331889993
 31
0.0
  0
LINE
  5
E32
  8
3
 10
183.7711309834
 20
-24.54460331889993
 30
0.0
 11
183.3083956361
 21
-24.87180662089997
 31
0.0
  0
LINE
  5
E33
  8
3
 10
186.6145032041
 20
-24.93847369239995
 30
0.0
 11
186.3627216337
 21
-24.85208731179989
 31
0.0
  0
LINE
  5
E34
  8
3
 10
184.0372783663
 20
-24.85208731179989
 30
0.0
 11
183.785496796
 21
-24.93847369239995
 31
0.0
  0
LINE
  5
E35
  8
3
 10
183.8891896446
 20
-26.49571106089991
 30
0.0
 11
184.0372783663
 21
-26.54652037409994
 31
0.0
  0
LINE
  5
E36
  8
3
 10
186.3627216337
 20
-26.54652037409994
 30
0.0
 11
186.5108103554
 21
-26.49571106089991
 31
0.0
  0
LINE
  5
E37
  8
3
 10
187.7
 20
-26.04719028889997
 30
0.0
 11
187.7
 21
-25.96915073759999
 31
0.0
  0
LINE
  5
E38
  8
3
 10
182.7
 20
-25.96915073759999
 30
0.0
 11
182.7
 21
-26.04719028889997
 31
0.0
  0
LINE
  5
E39
  8
3
 10
183.785496796
 20
-27.07786733410001
 30
0.0
 11
184.0372783663
 21
-27.16425371470007
 31
0.0
  0
LINE
  5
E3A
  8
3
 10
186.3627216337
 20
-27.16425371470007
 30
0.0
 11
186.6145032041
 21
-27.07786733410001
 31
0.0
  0
LINE
  5
E3B
  8
3
 10
186.6145032041
 20
-25.55620703299985
 30
0.0
 11
186.3627216337
 21
-25.46982065240002
 31
0.0
  0
LINE
  5
E3C
  8
3
 10
184.0372783663
 20
-25.46982065240002
 30
0.0
 11
183.785496796
 21
-25.55620703299985
 31
0.0
  0
LINE
  5
E3D
  8
3
 10
187.7
 20
-26.66492362949987
 30
0.0
 11
187.7
 21
-26.58688407819989
 31
0.0
  0
LINE
  5
E3E
  8
3
 10
182.7
 20
-26.58688407819989
 30
0.0
 11
182.7
 21
-26.66492362949987
 31
0.0
  0
LINE
  5
E3F
  8
3
 10
183.785496796
 20
-27.6956006746999
 30
0.0
 11
184.0372783663
 21
-27.78198705529996
 31
0.0
  0
LINE
  5
E40
  8
3
 10
186.3627216337
 20
-27.78198705529996
 30
0.0
 11
186.6145032041
 21
-27.6956006746999
 31
0.0
  0
LINE
  5
E41
  8
3
 10
186.6145032041
 20
-26.17394037359998
 30
0.0
 11
186.3627216337
 21
-26.08755399299991
 31
0.0
  0
LINE
  5
E42
  8
3
 10
184.0372783663
 20
-26.08755399299991
 30
0.0
 11
183.785496796
 21
-26.17394037359998
 31
0.0
  0
LINE
  5
E43
  8
3
 10
187.7
 20
-27.28265697009999
 30
0.0
 11
187.7
 21
-27.20461741880001
 31
0.0
  0
LINE
  5
E44
  8
3
 10
182.7
 20
-27.20461741880001
 30
0.0
 11
182.7
 21
-27.28265697009999
 31
0.0
  0
LINE
  5
E45
  8
3
 10
183.785496796
 20
-28.31333401530003
 30
0.0
 11
184.0372783663
 21
-28.39972039589986
 31
0.0
  0
LINE
  5
E46
  8
3
 10
186.3627216337
 20
-28.39972039589986
 30
0.0
 11
186.6145032041
 21
-28.31333401530003
 31
0.0
  0
LINE
  5
E47
  8
3
 10
186.6145032041
 20
-26.79167371419987
 30
0.0
 11
186.3627216337
 21
-26.70528733360004
 31
0.0
  0
LINE
  5
E48
  8
3
 10
184.0372783663
 20
-26.70528733360004
 30
0.0
 11
183.785496796
 21
-26.79167371419987
 31
0.0
  0
LINE
  5
E49
  8
3
 10
187.7
 20
-27.90039031069989
 30
0.0
 11
187.7
 21
-27.82235075939991
 31
0.0
  0
LINE
  5
E4A
  8
3
 10
182.7
 20
-27.82235075939991
 30
0.0
 11
182.7
 21
-27.90039031069989
 31
0.0
  0
LINE
  5
E4B
  8
3
 10
183.785496796
 20
-28.93106735589993
 30
0.0
 11
184.0372783663
 21
-29.01745373649999
 31
0.0
  0
LINE
  5
E4C
  8
3
 10
186.3627216337
 20
-29.01745373649999
 30
0.0
 11
186.6145032041
 21
-28.93106735589993
 31
0.0
  0
LINE
  5
E4D
  8
3
 10
186.6145032041
 20
-27.4094070548
 30
0.0
 11
186.3627216338
 21
-27.32302067419994
 31
0.0
  0
LINE
  5
E4E
  8
3
 10
184.0372783663
 20
-27.32302067419994
 30
0.0
 11
183.785496796
 21
-27.4094070548
 31
0.0
  0
LINE
  5
E4F
  8
3
 10
187.7
 20
-28.51812365140006
 30
0.0
 11
187.7
 21
-28.44008410000004
 31
0.0
  0
LINE
  5
E50
  8
3
 10
182.7
 20
-28.44008410000004
 30
0.0
 11
182.7
 21
-28.51812365140006
 31
0.0
  0
LINE
  5
E51
  8
3
 10
183.785496796
 20
-29.54880069650005
 30
0.0
 11
184.0372783663
 21
-29.63518707709989
 31
0.0
  0
LINE
  5
E52
  8
3
 10
186.3627216338
 20
-29.63518707709989
 30
0.0
 11
186.6145032041
 21
-29.54880069650005
 31
0.0
  0
LINE
  5
E53
  8
3
 10
186.6145032041
 20
-28.0271403953999
 30
0.0
 11
186.3627216338
 21
-27.94075401480006
 31
0.0
  0
LINE
  5
E54
  8
3
 10
184.0372783663
 20
-27.94075401480006
 30
0.0
 11
183.785496796
 21
-28.0271403953999
 31
0.0
  0
LINE
  5
E55
  8
3
 10
187.7
 20
-29.13585699199996
 30
0.0
 11
187.7
 21
-29.05781744059993
 31
0.0
  0
LINE
  5
E56
  8
3
 10
182.7
 20
-29.05781744059993
 30
0.0
 11
182.7
 21
-29.13585699199996
 31
0.0
  0
LINE
  5
E57
  8
3
 10
183.785496796
 20
-30.16653403709995
 30
0.0
 11
184.0372783663
 21
-30.25292041770001
 31
0.0
  0
LINE
  5
E58
  8
3
 10
186.3627216338
 20
-30.25292041770001
 30
0.0
 11
186.6145032041
 21
-30.16653403709995
 31
0.0
  0
LINE
  5
E59
  8
3
 10
186.6145032041
 20
-28.64487373600002
 30
0.0
 11
186.3627216338
 21
-28.55848735550001
 31
0.0
  0
LINE
  5
E5A
  8
3
 10
184.0372783663
 20
-28.55848735550001
 30
0.0
 11
183.785496796
 21
-28.64487373600002
 31
0.0
  0
LINE
  5
E5B
  8
3
 10
187.7
 20
-29.75359033259986
 30
0.0
 11
187.7
 21
-29.67555078120006
 31
0.0
  0
LINE
  5
E5C
  8
3
 10
182.7
 20
-29.67555078120006
 30
0.0
 11
182.7
 21
-29.75359033259986
 31
0.0
  0
LINE
  5
E5D
  8
3
 10
183.785496796
 20
-30.78426737769985
 30
0.0
 11
184.0372783663
 21
-30.87065375829991
 31
0.0
  0
LINE
  5
E5E
  8
3
 10
186.3627216338
 20
-30.87065375829991
 30
0.0
 11
186.6145032041
 21
-30.78426737769985
 31
0.0
  0
LINE
  5
E5F
  8
3
 10
186.4765060407
 20
-29.21526018199995
 30
0.0
 11
186.3627216338
 21
-29.1762206960999
 31
0.0
  0
LINE
  5
E60
  8
3
 10
184.0372783663
 20
-29.1762206960999
 30
0.0
 11
183.9234939594
 21
-29.21526018199995
 31
0.0
  0
LINE
  5
E63
  8
3
 10
203.2
 20
7.297830210000001
 30
0.0
 11
203.00019979
 21
7.098029999999994
 31
0.0
  0
LINE
  5
E64
  8
3
 10
203.00019979
 20
-7.098029999999994
 30
0.0
 11
203.2
 21
-7.297830209999944
 31
0.0
  0
LINE
  5
E69
  8
3
 10
203.2
 20
-19.04618999999991
 30
0.0
 11
191.597760305
 21
-19.04618999999991
 31
0.0
  0
LINE
  5
E6A
  8
3
 10
191.597760305
 20
-31.75381000000004
 30
0.0
 11
203.2
 21
-31.75381000000004
 31
0.0
  0
ARC
  5
E6B
  8
3
 10
191.5348
 20
-18.85298999999998
 30
0.0
 40
0.2031999999999312
 50
270.0
 51
288.0498306932985
  0
ARC
  5
E6C
  8
3
 10
191.5348
 20
-31.94700999999998
 30
0.0
 40
0.2032000000001517
 50
71.9501693067052
 51
90.0
  0
LINE
  5
E6D
  8
3
 10
190.4596395107
 20
-19.0561899999999
 30
0.0
 11
189.5348
 21
-19.30399999999997
 31
0.0
  0
LINE
  5
E6E
  8
3
 10
189.5348
 20
-31.49599999999998
 30
0.0
 11
190.4596395107
 21
-31.74381000000005
 31
0.0
  0
LINE
  5
E6F
  8
3
 10
191.5348
 20
-19.0561899999999
 30
0.0
 11
190.4596395107
 21
-19.0561899999999
 31
0.0
  0
LINE
  5
E70
  8
3
 10
190.4596395107
 20
-31.74381000000005
 30
0.0
 11
191.5348
 21
-31.74381000000005
 31
0.0
  0
LINE
  5
E71
  8
3
 10
203.2
 20
31.75381000000004
 30
0.0
 11
191.597760305
 21
31.75381000000004
 31
0.0
  0
LINE
  5
E72
  8
3
 10
191.597760305
 20
19.04619000000014
 30
0.0
 11
203.2
 21
19.04619000000014
 31
0.0
  0
ARC
  5
E73
  8
3
 10
191.5348
 20
31.94700999999998
 30
0.0
 40
0.2031999999999312
 50
270.0
 51
288.0498306932985
  0
ARC
  5
E74
  8
3
 10
191.5348
 20
18.85298999999998
 30
0.0
 40
0.2031999999999243
 50
71.95016930670089
 51
90.0
  0
LINE
  5
E75
  8
3
 10
190.4596395107
 20
31.74381000000005
 30
0.0
 11
189.5348
 21
31.49599999999998
 31
0.0
  0
LINE
  5
E76
  8
3
 10
189.5348
 20
19.30399999999997
 30
0.0
 11
190.4596395107
 21
19.05619000000013
 31
0.0
  0
LINE
  5
E77
  8
3
 10
191.5348
 20
31.74381000000005
 30
0.0
 11
190.4596395107
 21
31.74381000000005
 31
0.0
  0
LINE
  5
E78
  8
3
 10
190.4596395107
 20
19.05619000000013
 30
0.0
 11
191.5348
 21
19.05619000000013
 31
0.0
  0
ARC
  5
E8B
  8
SK1
 10
203.4
 20
-16.07499999999993
 30
0.0
 40
0.4000000000000807
 50
74.99999999999179
 51
120.0000000000007
  0
ARC
  5
E8C
  8
SK1
 10
203.4
 20
16.07499999999993
 30
0.0
 40
0.3999999999999199
 50
239.9999999999951
 51
285.000000000006
  0
LINE
  5
E8D
  8
SK1
 10
204.1990711606
 20
-15.87499999999989
 30
0.0
 11
219.2
 21
-15.87499999999989
 31
0.0
  0
LINE
  5
E8E
  8
SK1
 10
219.2
 20
15.87500000000011
 30
0.0
 11
204.1990711606
 21
15.87500000000011
 31
0.0
  0
LINE
  5
E8F
  8
SK1
 10
204.1990711606
 20
15.87500000000011
 30
0.0
 11
203.5035276181
 21
15.68862966950007
 31
0.0
  0
LINE
  5
E90
  8
SK1
 10
203.5035276181
 20
-15.68862966949985
 30
0.0
 11
204.1990711606
 21
-15.87499999999989
 31
0.0
  0
ARC
  5
E91
  8
SK1
 10
219.2
 20
-14.37499999999989
 30
0.0
 40
1.5
 50
270.0
 51
0.0
  0
ARC
  5
E92
  8
SK1
 10
219.2
 20
14.37500000000011
 30
0.0
 40
1.5
 50
0.0
 51
90.0
  0
LINE
  5
E93
  8
SK1
 10
238.73799979
 20
19.05000000000007
 30
0.0
 11
227.56199979
 21
19.05000000000007
 31
0.0
  0
LINE
  5
E94
  8
SK1
 10
227.56199979
 20
-19.05000000000007
 30
0.0
 11
238.73799979
 21
-19.05000000000007
 31
0.0
  0
LINE
  5
E95
  8
SK1
 10
227.56199979
 20
19.05000000000007
 30
0.0
 11
226.79999979
 21
18.28800000000012
 31
0.0
  0
LINE
  5
E96
  8
SK1
 10
226.79999979
 20
-18.2879999999999
 30
0.0
 11
227.56199979
 21
-19.05000000000007
 31
0.0
  0
LINE
  5
E97
  8
SK1
 10
238.73799979
 20
-19.05000000000007
 30
0.0
 11
239.49999979
 21
-18.2879999999999
 31
0.0
  0
LINE
  5
E98
  8
SK1
 10
239.49999979
 20
18.28800000000012
 30
0.0
 11
238.73799979
 21
19.05000000000007
 31
0.0
  0
ARC
  5
E99
  8
SK1
 10
225.98719979
 20
-8.750300000000038
 30
0.0
 40
0.81280000000001
 50
0.0
 51
90.0
  0
ARC
  5
E9A
  8
SK1
 10
225.98719979
 20
8.750300000000038
 30
0.0
 40
0.81280000000001
 50
270.0
 51
359.9999999999038
  0
LINE
  5
E9B
  8
SK1
 10
225.98719979
 20
7.937500000000114
 30
0.0
 11
220.7
 21
7.937500000000114
 31
0.0
  0
LINE
  5
E9C
  8
SK1
 10
220.7
 20
-7.937499999999886
 30
0.0
 11
225.98719979
 21
-7.937499999999886
 31
0.0
  0
LINE
  5
E9D
  8
SK1
 10
203.2283378126
 20
-19.04618999999991
 30
0.0
 11
203.2
 21
-19.04618999999991
 31
0.0
  0
LINE
  5
EA0
  8
SK1
 10
203.2
 20
19.04619000000014
 30
0.0
 11
203.2283378126
 21
19.04619000000014
 31
0.0
  0
LINE
  5
EC7
  8
SK1
 10
204.1990711606
 20
0.0000000000001137
 30
0.0
 11
204.1990711606
 21
15.87500000000011
 31
0.0
  0
LINE
  5
EC8
  8
SK1
 10
204.1990711606
 20
-15.87499999999989
 30
0.0
 11
204.1990711606
 21
0.0000000000001137
 31
0.0
  0
LINE
  5
EC9
  8
SK1
 10
220.7
 20
0.0000000000001137
 30
0.0
 11
220.7
 21
14.37500000000011
 31
0.0
  0
LINE
  5
ECA
  8
SK1
 10
220.7
 20
-14.37499999999989
 30
0.0
 11
220.7
 21
0.0000000000001137
 31
0.0
  0
LINE
  5
ED4
  8
SK1
 10
238.73799979
 20
19.05000000000007
 30
0.0
 11
238.73799979
 21
-19.05000000000007
 31
0.0
  0
LINE
  5
ED5
  8
SK1
 10
227.56199979
 20
19.05000000000007
 30
0.0
 11
227.56199979
 21
-19.05000000000007
 31
0.0
  0
LINE
  5
ED6
  8
SK1
 10
226.79999979
 20
18.28800000000012
 30
0.0
 11
226.79999979
 21
-18.2879999999999
 31
0.0
  0
LINE
  5
ED7
  8
SK1
 10
239.49999979
 20
18.28800000000012
 30
0.0
 11
239.49999979
 21
-18.2879999999999
 31
0.0
  0
LINE
  5
ED8
  8
SK1
 10
209.6008
 20
-19.05000000000007
 30
0.0
 11
203.2
 21
-19.05000000000007
 31
0.0
  0
LINE
  5
ED9
  8
SK1
 10
209.6008
 20
-19.05000000000007
 30
0.0
 11
209.6008
 21
-31.74999999999989
 31
0.0
  0
LINE
  5
EDA
  8
SK1
 10
209.6008
 20
-31.74999999999989
 30
0.0
 11
203.2
 21
-31.74999999999989
 31
0.0
  0
LINE
  5
EDB
  8
SK1
 10
209.6008
 20
31.75000000000011
 30
0.0
 11
203.2
 21
31.75000000000011
 31
0.0
  0
LINE
  5
EDC
  8
SK1
 10
209.6008
 20
31.75000000000011
 30
0.0
 11
209.6008
 21
19.05000000000007
 31
0.0
  0
LINE
  5
EDD
  8
SK1
 10
209.6008
 20
19.05000000000007
 30
0.0
 11
203.2
 21
19.05000000000007
 31
0.0
  0
LINE
  5
EF4
  8
SK3
 10
219.8339745374
 20
-8.499999999999886
 30
0.0
 11
219.8339745374
 21
8.500000000000114
 31
0.0
  0
LINE
  5
EF5
  8
SK3
 10
217.7
 20
8.500000000000114
 30
0.0
 11
217.7
 21
-8.499999999999886
 31
0.0
  0
LINE
  5
F58
  8
SK3
 10
203.83966979
 20
7.937500000000114
 30
0.0
 11
203.83966979
 21
-7.937499999999886
 31
0.0
  0
LINE
  5
F59
  8
SK3
 10
203.00019979
 20
7.098029999999994
 30
0.0
 11
203.00019979
 21
-7.098029999999994
 31
0.0
  0
LINE
  5
F5A
  8
SK3
 10
231.56249979
 20
0.0000000000001137
 30
0.0
 11
239.49999979
 21
0.0000000000001137
 31
0.0
  0
LINE
  5
F5B
  8
SK3
 10
231.56249979
 20
0.0000000000001137
 30
0.0
 11
231.56249979
 21
-2.006600000000049
 31
0.0
  0
LINE
  5
F5C
  8
SK3
 10
231.56249979
 20
2.006600000000049
 30
0.0
 11
231.56249979
 21
0.0000000000001137
 31
0.0
  0
LINE
  5
F5D
  8
SK3
 10
230.60999979
 20
4.013199999999983
 30
0.0
 11
230.60999979
 21
-4.013199999999983
 31
0.0
  0
LINE
  5
F5E
  8
SK3
 10
231.56249979
 20
4.013199999999983
 30
0.0
 11
231.56249979
 21
2.006600000000049
 31
0.0
  0
LINE
  5
F5F
  8
SK3
 10
231.56249979
 20
-2.006600000000049
 30
0.0
 11
231.56249979
 21
-4.013199999999983
 31
0.0
  0
LINE
  5
F60
  8
SK3
 10
231.56249979
 20
4.013199999999983
 30
0.0
 11
239.49999979
 21
4.013199999999983
 31
0.0
  0
LINE
  5
F61
  8
SK3
 10
231.56249979
 20
-4.013199999999983
 30
0.0
 11
239.49999979
 21
-4.013199999999983
 31
0.0
  0
LINE
  5
F74
  8
SK3
 10
220.7
 20
2.000000000000114
 30
0.0
 11
203.2
 21
2.000000000000114
 31
0.0
  0
LINE
  5
F75
  8
SK3
 10
203.2
 20
-1.999999999999886
 30
0.0
 11
220.7
 21
-1.999999999999886
 31
0.0
  0
LINE
  5
F7E
  8
SK3
 10
220.7
 20
9.000000033999981
 30
0.0
 11
219.8339745374
 21
8.500000000000114
 31
0.0
  0
LINE
  5
F7F
  8
SK3
 10
219.8339745374
 20
-8.499999999999886
 30
0.0
 11
220.7
 21
-9.000000033999981
 31
0.0
  0
LINE
  5
F80
  8
SK3
 10
219.8339745374
 20
8.500000000000114
 30
0.0
 11
217.7
 21
8.500000000000114
 31
0.0
  0
LINE
  5
F81
  8
SK3
 10
217.7
 20
-8.499999999999886
 30
0.0
 11
219.8339745374
 21
-8.499999999999886
 31
0.0
  0
LINE
  5
F82
  8
SK3
 10
217.7
 20
7.341870000000085
 30
0.0
 11
203.2
 21
7.341870000000085
 31
0.0
  0
LINE
  5
F83
  8
SK3
 10
203.2
 20
-7.341869999999858
 30
0.0
 11
217.7
 21
-7.341869999999858
 31
0.0
  0
LINE
  5
F98
  8
SK3
 10
220.7
 20
12.1757984945001
 30
0.0
 11
203.2
 21
12.1757984945001
 31
0.0
  0
LINE
  5
F99
  8
SK3
 10
203.2
 20
8.1757984945001
 30
0.0
 11
220.7
 21
8.1757984945001
 31
0.0
  0
LINE
  5
F9A
  8
SK3
 10
220.7
 20
-8.175798494499873
 30
0.0
 11
203.2
 21
-8.175798494499873
 31
0.0
  0
LINE
  5
F9B
  8
SK3
 10
203.2
 20
-12.17579849449987
 30
0.0
 11
220.7
 21
-12.17579849449987
 31
0.0
  0
LINE
  5
1004
  8
SK3
 10
220.7
 20
7.937500000000114
 30
0.0
 11
203.83966979
 21
7.937500000000114
 31
0.0
  0
LINE
  5
1005
  8
SK3
 10
203.83966979
 20
-7.937499999999886
 30
0.0
 11
220.7
 21
-7.937499999999886
 31
0.0
  0
LINE
  5
1006
  8
SK3
 10
203.83966979
 20
7.937500000000114
 30
0.0
 11
203.00019979
 21
7.098029999999994
 31
0.0
  0
LINE
  5
1007
  8
SK3
 10
203.00019979
 20
-7.098029999999994
 30
0.0
 11
203.83966979
 21
-7.937499999999886
 31
0.0
  0
LINE
  5
1008
  8
SK3
 10
231.56249979
 20
4.013199999999983
 30
0.0
 11
230.60999979
 21
4.013199999999983
 31
0.0
  0
LINE
  5
1009
  8
SK3
 10
230.60999979
 20
-4.013199999999983
 30
0.0
 11
231.56249979
 21
-4.013199999999983
 31
0.0
  0
LINE
  5
100A
  8
SK3
 10
230.60999979
 20
4.013199999999983
 30
0.0
 11
228.1986259538
 21
0.0000000000001137
 31
0.0
  0
LINE
  5
100B
  8
SK3
 10
228.1986259538
 20
0.0000000000001137
 30
0.0
 11
230.60999979
 21
-4.013199999999983
 31
0.0
  0
LINE
  5
1022
  8
SK3
 10
-37.834376924
 20
7.341870000000085
 30
0.0
 11
-0.0000000000000071
 21
7.341870000000085
 31
0.0
  0
LINE
  5
1023
  8
SK3
 10
-37.834376924
 20
-7.341869999999858
 30
0.0
 11
0.0
 21
-7.341869999999858
 31
0.0
  0
LINE
  5
1029
  8
1
 10
202.2
 20
-34.9250000000003
 30
0.0
 11
20.05000000000004
 21
-34.92499999999966
 31
0.0
  0
LINE
  5
102A
  8
NOCUT
 10
203.2
 20
0.0000000000001137
 30
0.0
 11
203.2
 21
33.92500000000007
 31
0.0
  0
ARC
  5
102C
  8
NOCUT
 10
202.2
 20
33.92500000000007
 30
0.0
 40
1.0
 50
0.0
 51
90.0
  0
LINE
  5
103A
  8
SK4
 10
203.2
 20
0.0000000000001137
 30
0.0
 11
239.49999979
 21
0.0000000000001137
 31
0.0
  0
DIMENSION
  5
103C
  8
SK2
  2
*D10
 10
251.5529545597058
 20
-15.87499999999989
 30
0.0
 11
249.6779545597058
 21
0.0000000000001119
 31
0.0
 70
    32
  3
ISO-25
 13
219.2
 23
15.87500000000011
 33
0.0
 14
219.2
 24
-15.87499999999989
 34
0.0
 50
90.0
1001
ACAD
1000
DSTYLE
1002
{
1070
   287
1070
     5
1070
   271
1070
     3
1070
   272
1070
     3
1070
   279
1070
     2
1002
}
  0
DIMENSION
  5
104B
  8
SK2
  2
*D11
 10
268.3478316052353
 20
-34.9250000000003
 30
0.0
 11
266.4728316052353
 21
-0.0000000000001208
 31
0.0
 70
    32
  3
ISO-25
 13
202.2
 23
34.92500000000007
 33
0.0
 14
202.2
 24
-34.9250000000003
 34
0.0
 50
90.0
1001
ACAD
1000
DSTYLE
1002
{
1070
   287
1070
     5
1070
   271
1070
     3
1070
   272
1070
     3
1070
   279
1070
     2
1002
}
  0
ENDSEC
  0
EOF
