  0
SECTION
  2
HEADER
  9
$ACADVER
  1
AC1009
  9
$DWGCODEPAGE
  3
ansi_1251
  9
$INSBASE
 10
0.0
 20
0.0
 30
0.0
  9
$EXTMIN
 10
-68.25000000000001
 20
-30.5409271246
 30
0.0
  9
$EXTMAX
 10
88.90000000000003
 20
30.50275418977125
 30
0.0
  9
$LIMMIN
 10
0.0
 20
0.0
  9
$LIMMAX
 10
420.0
 20
297.0
  9
$ORTHOMODE
 70
     1
  9
$REGENMODE
 70
     1
  9
$FILLMODE
 70
     1
  9
$QTEXTMODE
 70
     0
  9
$MIRRTEXT
 70
     0
  9
$DRAGMODE
 70
     2
  9
$LTSCALE
 40
1.0
  9
$OSMODE
 70
   279
  9
$ATTMODE
 70
     1
  9
$TEXTSIZE
 40
2.5
  9
$TRACEWID
 40
1.0
  9
$TEXTSTYLE
  7
STANDARD
  9
$CLAYER
  8
0
  9
$CELTYPE
  6
BYLAYER
  9
$CECOLOR
 62
   256
  9
$DIMSCALE
 40
1.0
  9
$DIMASZ
 40
2.5
  9
$DIMEXO
 40
0.625
  9
$DIMDLI
 40
3.75
  9
$DIMRND
 40
0.0
  9
$DIMDLE
 40
0.0
  9
$DIMEXE
 40
1.25
  9
$DIMTP
 40
0.0
  9
$DIMTM
 40
0.0
  9
$DIMTXT
 40
2.5
  9
$DIMCEN
 40
2.5
  9
$DIMTSZ
 40
0.0
  9
$DIMTOL
 70
     0
  9
$DIMLIM
 70
     0
  9
$DIMTIH
 70
     0
  9
$DIMTOH
 70
     0
  9
$DIMSE1
 70
     0
  9
$DIMSE2
 70
     0
  9
$DIMTAD
 70
     1
  9
$DIMZIN
 70
     8
  9
$DIMBLK
  1

  9
$DIMASO
 70
     1
  9
$DIMSHO
 70
     1
  9
$DIMPOST
  1

  9
$DIMAPOST
  1

  9
$DIMALT
 70
     0
  9
$DIMALTD
 70
     3
  9
$DIMALTF
 40
0.03937007874016
  9
$DIMLFAC
 40
1.0
  9
$DIMTOFL
 70
     1
  9
$DIMTVP
 40
0.0
  9
$DIMTIX
 70
     0
  9
$DIMSOXD
 70
     0
  9
$DIMSAH
 70
     0
  9
$DIMBLK1
  1

  9
$DIMBLK2
  1

  9
$DIMSTYLE
  2
ISO-25
  9
$DIMCLRD
 70
     0
  9
$DIMCLRE
 70
     0
  9
$DIMCLRT
 70
     0
  9
$DIMTFAC
 40
1.0
  9
$DIMGAP
 40
0.625
  9
$LUNITS
 70
     2
  9
$LUPREC
 70
     3
  9
$SKETCHINC
 40
1.0
  9
$FILLETRAD
 40
10.0
  9
$AUNITS
 70
     0
  9
$AUPREC
 70
     0
  9
$MENU
  1
.
  9
$ELEVATION
 40
0.0
  9
$PELEVATION
 40
0.0
  9
$THICKNESS
 40
0.0
  9
$LIMCHECK
 70
     0
  9
$CHAMFERA
 40
10.0
  9
$CHAMFERB
 40
10.0
  9
$SKPOLY
 70
     0
  9
$TDCREATE
 40
2455022.429026158
  9
$TDUPDATE
 40
2458659.538982558
  9
$TDINDWG
 40
0.1506771181
  9
$TDUSRTIMER
 40
2458702.67764213
  9
$USRTIMER
 70
     1
  9
$ANGBASE
 50
0.0
  9
$ANGDIR
 70
     0
  9
$PDMODE
 70
     0
  9
$PDSIZE
 40
0.0
  9
$PLINEWID
 40
0.0
  9
$COORDS
 70
     1
  9
$SPLFRAME
 70
     0
  9
$SPLINETYPE
 70
     6
  9
$SPLINESEGS
 70
     8
  9
$ATTDIA
 70
     0
  9
$ATTREQ
 70
     1
  9
$HANDLING
 70
     1
  9
$HANDSEED
  5
2C90
  9
$SURFTAB1
 70
     6
  9
$SURFTAB2
 70
     6
  9
$SURFTYPE
 70
     6
  9
$SURFU
 70
     6
  9
$SURFV
 70
     6
  9
$UCSNAME
  2

  9
$UCSORG
 10
0.0
 20
0.0
 30
0.0
  9
$UCSXDIR
 10
1.0
 20
0.0
 30
0.0
  9
$UCSYDIR
 10
0.0
 20
1.0
 30
0.0
  9
$PUCSNAME
  2

  9
$PUCSORG
 10
0.0
 20
0.0
 30
0.0
  9
$PUCSXDIR
 10
1.0
 20
0.0
 30
0.0
  9
$PUCSYDIR
 10
0.0
 20
1.0
 30
0.0
  9
$USERI1
 70
     0
  9
$USERI2
 70
     0
  9
$USERI3
 70
     0
  9
$USERI4
 70
     0
  9
$USERI5
 70
     0
  9
$USERR1
 40
0.0
  9
$USERR2
 40
0.0
  9
$USERR3
 40
0.0
  9
$USERR4
 40
0.0
  9
$USERR5
 40
0.0
  9
$WORLDVIEW
 70
     1
  9
$SHADEDGE
 70
     3
  9
$SHADEDIF
 70
    70
  9
$TILEMODE
 70
     1
  9
$MAXACTVP
 70
    64
  9
$PLIMCHECK
 70
     0
  9
$PEXTMIN
 10
1.000000000000000E+20
 20
1.000000000000000E+20
 30
1.000000000000000E+20
  9
$PEXTMAX
 10
-1.000000000000000E+20
 20
-1.000000000000000E+20
 30
-1.000000000000000E+20
  9
$PLIMMIN
 10
0.0
 20
0.0
  9
$PLIMMAX
 10
420.0
 20
297.0
  9
$UNITMODE
 70
     0
  9
$VISRETAIN
 70
     1
  9
$PLINEGEN
 70
     0
  9
$PSLTSCALE
 70
     1
  0
ENDSEC
  0
SECTION
  2
TABLES
  0
TABLE
  2
VPORT
 70
     1
  0
VPORT
  2
*ACTIVE
 70
     0
 10
0.0
 20
0.0
 11
1.0
 21
1.0
 12
63.29782356203083
 22
-2.580956987871758
 13
0.0
 23
0.0
 14
10.0
 24
10.0
 15
10.0
 25
10.0
 16
0.0
 26
0.0
 36
1.0
 17
0.0
 27
0.0
 37
0.0
 40
257.8905251563229
 41
1.332880434782609
 42
50.0
 43
0.0
 44
0.0
 50
0.0
 51
0.0
 71
    16
 72
  1000
 73
     1
 74
     3
 75
     0
 76
     0
 77
     0
 78
     0
  0
ENDTAB
  0
TABLE
  2
LTYPE
 70
     6
  0
LTYPE
  2
CONTINUOUS
 70
     0
  3
Solid line
 72
    65
 73
     0
 40
0.0
  0
LTYPE
  2
CENTER
 70
     0
  3
 Center _____  _  _____  _  _____  _  _____  _ 
 72
    65
 73
     4
 40
50.8
 49
31.75
 49
-6.35
 49
6.35
 49
-6.35
  0
LTYPE
  2
DASHED
 70
     0
  3
Dashed __  __  __  __  __  __  __  __  __  __  
 72
    65
 73
     2
 40
19.05
 49
12.7
 49
-6.35
  0
LTYPE
  2
HIDDEN
 70
     0
  3
Hidden __ __ __ __ __ __ __ __ __ __ __ __ __ __
 72
    65
 73
     2
 40
1.905
 49
1.27
 49
-0.635
  0
LTYPE
  2
CENTERX2
 70
     0
  3
Center (2x) ________  __  ________  __  _____
 72
    65
 73
     4
 40
20.32
 49
12.7
 49
-2.54
 49
2.54
 49
-2.54
  0
LTYPE
  2
PHANTOM
 70
     0
  3
Phantom ______  __  __  ______  __  __  ______
 72
    65
 73
     6
 40
12.7
 49
6.35
 49
-1.27
 49
1.27
 49
-1.27
 49
1.27
 49
-1.27
  0
ENDTAB
  0
TABLE
  2
LAYER
 70
    26
  0
LAYER
  2
0
 70
     0
 62
     7
  6
CONTINUOUS
  0
LAYER
  2
1
 70
     0
 62
     4
  6
CONTINUOUS
  0
LAYER
  2
2
 70
     0
 62
     7
  6
CONTINUOUS
  0
LAYER
  2
3
 70
     0
 62
     1
  6
DASHED
  0
LAYER
  2
4
 70
     0
 62
     2
  6
CENTER
  0
LAYER
  2
6
 70
     0
 62
     5
  6
CONTINUOUS
  0
LAYER
  2
7
 70
     0
 62
     5
  6
CONTINUOUS
  0
LAYER
  2
11
 70
     0
 62
     4
  6
CONTINUOUS
  0
LAYER
  2
SK1
 70
     0
 62
     4
  6
CONTINUOUS
  0
LAYER
  2
SK2
 70
     0
 62
     7
  6
CONTINUOUS
  0
LAYER
  2
SK3
 70
     0
 62
     1
  6
DASHED
  0
LAYER
  2
SK4
 70
     0
 62
     2
  6
CENTER
  0
LAYER
  2
SK6
 70
     0
 62
     5
  6
CONTINUOUS
  0
LAYER
  2
SK7
 70
     0
 62
     5
  6
CONTINUOUS
  0
LAYER
  2
SK11
 70
     0
 62
     4
  6
CONTINUOUS
  0
LAYER
  2
CUT
 70
     0
 62
     1
  6
CONTINUOUS
  0
LAYER
  2
NOCUT
 70
     0
 62
    -7
  6
CONTINUOUS
  0
LAYER
  2
SKVIEW1
 70
     0
 62
     4
  6
CONTINUOUS
  0
LAYER
  2
SKVIEW2
 70
     0
 62
     7
  6
CONTINUOUS
  0
LAYER
  2
SKVIEW3
 70
     0
 62
     1
  6
DASHED
  0
LAYER
  2
SKVIEW4
 70
     0
 62
     2
  6
CENTER
  0
LAYER
  2
SKVIEW6
 70
     0
 62
     5
  6
CONTINUOUS
  0
LAYER
  2
SKVIEW7
 70
     0
 62
     5
  6
CONTINUOUS
  0
LAYER
  2
SKVIEW11
 70
     0
 62
     4
  6
CONTINUOUS
  0
LAYER
  2
INFTOTAL
 70
     0
 62
     9
  6
CONTINUOUS
  0
LAYER
  2
DEFPOINTS
 70
     0
 62
     7
  6
CONTINUOUS
  0
ENDTAB
  0
TABLE
  2
STYLE
 70
     1
  0
STYLE
  2
STANDARD
 70
     0
 40
0.0
 41
1.0
 50
0.0
 71
     0
 42
2.5
  3
txt
  4

  0
ENDTAB
  0
TABLE
  2
VIEW
 70
     0
  0
ENDTAB
  0
TABLE
  2
UCS
 70
     0
  0
ENDTAB
  0
TABLE
  2
APPID
 70
     2
  0
APPID
  2
ACAD
 70
     0
  0
APPID
  2
ACAECLAYERSTANDARD
 70
     0
  0
ENDTAB
  0
TABLE
  2
DIMSTYLE
 70
     1
  0
DIMSTYLE
  2
ISO-25
 70
     0
  3

  4

  5

  6

  7

 40
1.0
 41
2.5
 42
0.625
 43
3.75
 44
1.25
 45
0.0
 46
0.0
 47
0.0
 48
0.0
140
2.5
141
2.5
142
0.0
143
0.03937007874016
144
1.0
145
0.0
146
1.0
147
0.625
 71
     0
 72
     0
 73
     0
 74
     0
 75
     0
 76
     0
 77
     1
 78
     8
170
     0
171
     3
172
     1
173
     0
174
     0
175
     0
176
     0
177
     0
178
     0
  0
ENDTAB
  0
ENDSEC
  0
SECTION
  2
BLOCKS
  0
BLOCK
  8
0
  2
$MODEL_SPACE
 70
     0
 10
0.0
 20
0.0
 30
0.0
  3
$MODEL_SPACE
  1

  0
ENDBLK
  5
21
  8
0
  0
BLOCK
 67
     1
  8
0
  2
$PAPER_SPACE
 70
     0
 10
0.0
 20
0.0
 30
0.0
  3
$PAPER_SPACE
  1

  0
ENDBLK
  5
1D
 67
     1
  8
0
  0
BLOCK
  8
0
  2
*U2
 70
     1
 10
0.0
 20
0.0
 30
0.0
  3
*U2
  1

  0
TEXT
  5
77E
  8
SK6
 10
-50.0
 20
78.25
 30
0.0
 40
3.5
  1
BIG KAISER
 41
0.85
  0
TEXT
  5
781
  8
SK6
 10
-50.0
 20
73.0
 30
0.0
 40
3.5
  1
BCV50-SMC1.250-6
 41
0.85
  0
ENDBLK
  5
782
  8
0
  0
BLOCK
  8
0
  2
_FILLED
 70
     0
 10
0.0
 20
0.0
 30
0.0
  3
_FILLED
  1

  0
SOLID
  5
789
  8
0
  6
BYBLOCK
 62
     0
 10
0.0
 20
0.0
 30
0.0
 11
-1.0
 21
0.2142857143
 31
0.0
 12
-1.0
 22
-0.2142857143
 32
0.0
 13
-1.0
 23
-0.2142857143
 33
0.0
  0
ENDBLK
  5
78A
  8
0
  6
BYBLOCK
 62
     0
  0
BLOCK
  8
0
  2
*U5
 70
     1
 10
0.0
 20
0.0
 30
0.0
  3
*U5
  1

  0
TEXT
  5
790
  8
SK6
 10
-85.96178542556666
 20
-67.06748653279999
 30
0.0
 40
3.5
  1
BCV50
 41
0.85
  0
ENDBLK
  5
791
  8
0
  0
BLOCK
  8
0
  2
*D8
 70
     1
 10
0.0
 20
0.0
 30
0.0
  3
*D8
  1

  0
LINE
  5
808
  8
SK2
 62
     0
 10
0.0
 20
35.54999999999998
 30
0.0
 11
0.0
 21
63.71215670356074
 31
0.0
  0
LINE
  5
809
  8
SK2
 62
     0
 10
152.4
 20
34.55000000000007
 30
0.0
 11
152.4
 21
63.71215670356074
 31
0.0
  0
LINE
  5
80A
  8
SK2
 62
     0
 10
2.5
 20
62.46215670356074
 30
0.0
 11
149.9
 21
62.46215670356074
 31
0.0
  0
SOLID
  5
80B
  8
SK2
 62
     0
 10
2.5
 20
62.8788233702274
 30
0.0
 11
2.5
 21
62.04549003689407
 31
0.0
 12
0.0
 22
62.46215670356074
 32
0.0
 13
0.0
 23
62.46215670356074
 33
0.0
  0
SOLID
  5
80C
  8
SK2
 62
     0
 10
149.9
 20
62.04549003689407
 30
0.0
 11
149.9
 21
62.8788233702274
 31
0.0
 12
152.4
 22
62.46215670356074
 32
0.0
 13
152.4
 23
62.46215670356074
 33
0.0
  0
TEXT
  5
80D
  8
SK2
  6
CONTINUOUS
 62
     0
 10
71.61666666666666
 20
63.08715670356074
 30
0.0
 40
2.5
  1
152.4
  0
POINT
  5
80E
  8
DEFPOINTS
 62
     0
 10
0.0
 20
34.92499999999998
 30
0.0
  0
POINT
  5
80F
  8
DEFPOINTS
 62
     0
 10
152.4
 20
33.92500000000007
 30
0.0
  0
POINT
  5
810
  8
DEFPOINTS
 62
     0
 10
152.4
 20
62.46215670356074
 30
0.0
  0
ENDBLK
  5
812
  8
0
  0
BLOCK
  8
0
  2
*D10
 70
     1
 10
0.0
 20
0.0
 30
0.0
  3
*D10
  1

  0
LINE
  5
1040
  8
SK2
 62
     0
 10
169.025
 20
15.87500000000011
 30
0.0
 11
202.0029545597058
 21
15.87500000000011
 31
0.0
  0
LINE
  5
1041
  8
SK2
 62
     0
 10
169.025
 20
-15.87499999999989
 30
0.0
 11
202.0029545597058
 21
-15.87499999999989
 31
0.0
  0
LINE
  5
1042
  8
SK2
 62
     0
 10
200.7529545597058
 20
13.37500000000011
 30
0.0
 11
200.7529545597058
 21
-13.37499999999989
 31
0.0
  0
SOLID
  5
1043
  8
SK2
 62
     0
 10
201.1696212263724
 20
13.37500000000011
 30
0.0
 11
200.3362878930391
 21
13.37500000000011
 31
0.0
 12
200.7529545597058
 22
15.87500000000011
 32
0.0
 13
200.7529545597058
 23
15.87500000000011
 33
0.0
  0
SOLID
  5
1044
  8
SK2
 62
     0
 10
200.3362878930391
 20
-13.37499999999989
 30
0.0
 11
201.1696212263724
 21
-13.37499999999989
 31
0.0
 12
200.7529545597058
 22
-15.87499999999989
 32
0.0
 13
200.7529545597058
 23
-15.87499999999989
 33
0.0
  0
TEXT
  5
1045
  8
SK2
  6
CONTINUOUS
 62
     0
 10
200.1279545597058
 20
-4.583333333333229
 30
0.0
 40
2.5
  1
31.75
 50
90.0
  0
POINT
  5
1046
  8
DEFPOINTS
 62
     0
 10
168.4
 20
15.87500000000011
 30
0.0
  0
POINT
  5
1047
  8
DEFPOINTS
 62
     0
 10
168.4
 20
-15.87499999999989
 30
0.0
  0
POINT
  5
1048
  8
DEFPOINTS
 62
     0
 10
200.7529545597058
 20
-15.87499999999989
 30
0.0
  0
ENDBLK
  5
104A
  8
0
  0
BLOCK
  8
0
  2
*D11
 70
     1
 10
0.0
 20
0.0
 30
0.0
  3
*D11
  1

  0
LINE
  5
104F
  8
SK2
 62
     0
 10
152.025
 20
34.92500000000007
 30
0.0
 11
218.7978316052353
 21
34.92500000000006
 31
0.0
  0
LINE
  5
1050
  8
SK2
 62
     0
 10
152.025
 20
-34.9250000000003
 30
0.0
 11
218.7978316052353
 21
-34.9250000000003
 31
0.0
  0
LINE
  5
1051
  8
SK2
 62
     0
 10
217.5478316052353
 20
32.42500000000006
 30
0.0
 11
217.5478316052353
 21
-32.4250000000003
 31
0.0
  0
SOLID
  5
1052
  8
SK2
 62
     0
 10
217.9644982719019
 20
32.42500000000006
 30
0.0
 11
217.1311649385686
 21
32.42500000000006
 31
0.0
 12
217.5478316052353
 22
34.92500000000006
 32
0.0
 13
217.5478316052353
 23
34.92500000000006
 33
0.0
  0
SOLID
  5
1053
  8
SK2
 62
     0
 10
217.1311649385686
 20
-32.4250000000003
 30
0.0
 11
217.9644982719019
 21
-32.4250000000003
 31
0.0
 12
217.5478316052353
 22
-34.9250000000003
 32
0.0
 13
217.5478316052353
 23
-34.9250000000003
 33
0.0
  0
TEXT
  5
1054
  8
SK2
  6
CONTINUOUS
 62
     0
 10
216.9228316052353
 20
-5.000000000000114
 30
0.0
 40
2.5
  1
69.85
 50
90.0
  0
POINT
  5
1055
  8
DEFPOINTS
 62
     0
 10
151.4
 20
34.92500000000007
 30
0.0
  0
POINT
  5
1056
  8
DEFPOINTS
 62
     0
 10
151.4
 20
-34.9250000000003
 30
0.0
  0
POINT
  5
1057
  8
DEFPOINTS
 62
     0
 10
217.5478316052353
 20
-34.9250000000003
 30
0.0
  0
ENDBLK
  5
1059
  8
0
  0
ENDSEC
  0
SECTION
  2
ENTITIES
  0
LINE
  5
685
  8
SK1
 10
0.0
 20
34.92499999999998
 30
0.0
 11
-99.6319088344
 21
20.3952133832
 31
0.0
  0
LINE
  5
686
  8
SK1
 10
-99.6319088344
 20
-20.3952133832
 30
0.0
 11
0.0
 21
-34.92500000000001
 31
0.0
  0
ARC
  5
68D
  8
SK1
 10
-99.3
 20
18.1192879614
 30
0.0
 40
2.299999999999995
 50
98.29722000000018
 51
180.0
  0
ARC
  5
68E
  8
SK1
 10
-99.3
 20
-18.1192879614
 30
0.0
 40
2.299999999999995
 50
180.0
 51
261.7027799999998
  0
LINE
  5
6F6
  8
SK1
 10
-101.6
 20
0.0
 30
0.0
 11
-101.6
 21
-18.1192879614
 31
0.0
  0
LINE
  5
6F7
  8
SK1
 10
-101.6
 20
18.1192879614
 30
0.0
 11
-101.6
 21
0.0
 31
0.0
  0
LINE
  5
71A
  8
SK3
 10
-99.5215390309
 20
-13.10000000000002
 30
0.0
 11
-99.5215390309
 21
13.09999999999999
 31
0.0
  0
LINE
  5
71B
  8
SK3
 10
-95.25
 20
-13.10000000000002
 30
0.0
 11
-95.25
 21
13.09999999999999
 31
0.0
  0
LINE
  5
72A
  8
SK3
 10
-101.6
 20
-14.30000000000001
 30
0.0
 11
-99.5215390309
 21
-13.10000000000002
 31
0.0
  0
LINE
  5
72B
  8
SK3
 10
-99.5215390309
 20
13.09999999999999
 30
0.0
 11
-101.6
 21
14.3
 31
0.0
  0
LINE
  5
72C
  8
SK3
 10
-99.5215390309
 20
-13.10000000000002
 30
0.0
 11
-95.25
 21
-13.10000000000002
 31
0.0
  0
LINE
  5
72D
  8
SK3
 10
-95.25
 20
13.09999999999999
 30
0.0
 11
-99.5215390309
 21
13.09999999999999
 31
0.0
  0
LINE
  5
72E
  8
SK3
 10
-95.25
 20
-11.09980000000002
 30
0.0
 11
-40.09999999999999
 21
-11.09980000000002
 31
0.0
  0
LINE
  5
72F
  8
SK3
 10
-40.09999999999999
 20
11.09979999999999
 30
0.0
 11
-95.25
 21
11.09979999999999
 31
0.0
  0
LINE
  5
760
  8
SK3
 10
-57.1
 20
12.69999999999999
 30
0.0
 11
-95.25
 21
12.69999999999999
 31
0.0
  0
LINE
  5
761
  8
SK3
 10
-95.25
 20
-12.69999999999999
 30
0.0
 11
-57.1
 21
-12.69999999999999
 31
0.0
  0
LINE
  5
774
  8
SK3
 10
-57.1
 20
12.69999999999999
 30
0.0
 11
-57.1
 21
-12.69999999999999
 31
0.0
  0
LINE
  5
777
  8
SK4
 10
0.0
 20
0.0
 30
0.0
 11
-101.6
 21
0.0
 31
0.0
  0
LINE
  5
779
  8
4
 10
0.0
 20
0.0
 30
0.0
 11
152.4
 21
0.0
 31
0.0
  0
INSERT
  5
77B
  8
SK6
  2
*U2
 10
-44.10380399683656
 20
-23.39313954296377
 30
0.0
  0
INSERT
  5
78D
  8
SK6
  2
*U5
 10
17.55665382414153
 20
-2.560320993650734
 30
0.0
  0
LINE
  5
793
  8
0
 10
3.0
 20
3.0
 30
0.0
 11
-3.0
 21
-3.0
 31
0.0
  0
LINE
  5
794
  8
0
 10
-3.0
 20
3.0
 30
0.0
 11
3.0
 21
-3.0
 31
0.0
  0
CIRCLE
  5
795
  8
0
 10
0.0
 20
0.0
 30
0.0
 40
2.5
  0
LINE
  5
796
  8
0
 10
155.4
 20
-3.0
 30
0.0
 11
149.4
 21
3.0
 31
0.0
  0
CIRCLE
  5
797
  8
0
 10
152.4
 20
0.0
 30
0.0
 40
2.5
  0
LINE
  5
798
  8
0
 10
149.4
 20
-3.0
 30
0.0
 11
155.4
 21
3.0
 31
0.0
  0
LINE
  5
799
  8
NOCUT
 10
0.7999999999999972
 20
34.62500000000001
 30
0.0
 11
0.2999999999999972
 21
34.62500000000001
 31
0.0
  0
LINE
  5
79C
  8
NOCUT
 10
0.2999999999999972
 20
34.62500000000001
 30
0.0
 11
0.0
 21
34.92499999999999
 31
0.0
  0
LINE
  5
79D
  8
NOCUT
 10
151.4
 20
34.92500000000007
 30
0.0
 11
20.04999999999998
 21
34.92499999999994
 31
0.0
  0
ARC
  5
79E
  8
NOCUT
 10
0.7999999999999972
 20
35.62500000000001
 30
0.0
 40
1.0
 50
270.0
 51
314.4270040008
  0
ARC
  5
79F
  8
NOCUT
 10
20.05
 20
35.92499999999999
 30
0.0
 40
1.0
 50
180.0
 51
270.0
  0
LINE
  5
7A0
  8
NOCUT
 10
12.55499999999999
 20
45.64499999999999
 30
0.0
 11
9.704999999999998
 21
45.64499999999999
 31
0.0
  0
ARC
  5
7A1
  8
NOCUT
 10
12.55499999999999
 20
46.14499999999999
 30
0.0
 40
0.5
 50
270.0
 51
0.0
  0
ARC
  5
7A2
  8
NOCUT
 10
9.704999999999998
 20
46.14499999999999
 30
0.0
 40
0.5
 50
180.0
 51
270.0
  0
ARC
  5
7A3
  8
NOCUT
 10
2.299999999999997
 20
48.4125
 30
0.0
 40
0.7999999999999972
 50
90.0
 51
180.0
  0
ARC
  5
7A4
  8
NOCUT
 10
18.24999999999999
 20
48.4125
 30
0.0
 40
0.799999999999983
 50
0.0
 51
90.0
  0
LINE
  5
7A5
  8
NOCUT
 10
9.204999999999998
 20
46.43919780459999
 30
0.0
 11
7.603833230999996
 21
49.21250000000001
 31
0.0
  0
LINE
  5
7A6
  8
NOCUT
 10
14.65616676910001
 20
49.21250000000001
 30
0.0
 11
13.05499999999999
 21
46.43919780459999
 31
0.0
  0
LINE
  5
7A7
  8
NOCUT
 10
18.24999999999999
 20
49.21250000000001
 30
0.0
 11
14.65616676910001
 21
49.21250000000001
 31
0.0
  0
LINE
  5
7A8
  8
NOCUT
 10
7.603833230999996
 20
49.21250000000001
 30
0.0
 11
2.299999999999997
 21
49.21250000000001
 31
0.0
  0
LINE
  5
7AC
  8
NOCUT
 10
1.5
 20
48.4125
 30
0.0
 11
1.499999999999929
 21
34.91085715714565
 31
0.0
  0
LINE
  5
7AD
  8
NOCUT
 10
19.04999999999997
 20
48.4125
 30
0.0
 11
19.05
 21
35.92499999999999
 31
0.0
  0
LINE
  5
7AE
  8
NOCUT
 10
9.204999999999998
 20
46.43919780459999
 30
0.0
 11
9.204999999999998
 21
46.14499999999999
 31
0.0
  0
LINE
  5
7AF
  8
NOCUT
 10
13.05499999999999
 20
46.43919780459999
 30
0.0
 11
13.05499999999999
 21
46.14499999999999
 31
0.0
  0
DIMENSION
  5
804
  8
SK2
  2
*D8
 10
152.4
 20
62.46215670356074
 30
0.0
 11
76.19999999999999
 21
64.33715670356074
 31
0.0
 70
    32
  3
ISO-25
 13
0.0
 23
34.92499999999998
 33
0.0
 14
152.4
 24
33.92500000000007
 34
0.0
1001
ACAD
1000
DSTYLE
1002
{
1070
   287
1070
     5
1070
   271
1070
     3
1070
   272
1070
     3
1070
   279
1070
     2
1002
}
  0
LINE
  5
8BF
  8
NOCUT
 10
0.0
 20
34.92499999999999
 30
0.0
 11
0.0
 21
0.0
 31
0.0
  0
LINE
  5
8C0
  8
NOCUT
 10
0.0
 20
0.0
 30
0.0
 11
152.4
 21
0.0
 31
0.0
  0
INSERT
  5
A17
  8
SK6
  2
_FILLED
 10
-20.78186483605847
 20
-31.89428358495073
 30
0.0
 41
3.5
 42
3.5
 43
3.5
 50
52.86965044919886
  0
POLYLINE
  5
A18
  8
SK6
 66
     1
 10
0.0
 20
0.0
 30
0.0
  0
VERTEX
  5
2729
  8
SK6
 10
-22.89457117648658
 20
-34.68470862768434
 30
0.0
  0
VERTEX
  5
272A
  8
SK6
 10
-48.02596493475846
 20
-67.87780752645074
 30
0.0
  0
VERTEX
  5
272B
  8
SK6
 10
-49.90096493475846
 20
-66.12780752645074
 30
0.0
  0
VERTEX
  5
272C
  8
SK6
 10
-53.40096493475846
 20
-66.12780752645074
 30
0.0
  0
SEQEND
  5
2C8F
  8
SK6
  0
ARC
  5
AC7
  8
1
 10
20.04999999999998
 20
35.92499999999998
 30
0.0
 40
1.0
 50
180.0
 51
270.0
  0
ARC
  5
AC9
  8
1
 10
20.04999999999998
 20
-35.92500000000001
 30
0.0
 40
1.0
 50
90.0
 51
180.0
  0
ARC
  5
ACA
  8
1
 10
1.299999999999983
 20
35.125
 30
0.0
 40
0.5
 50
270.0
 51
293.5781784781994
  0
ARC
  5
ACB
  8
1
 10
1.299999999999983
 20
-35.125
 30
0.0
 40
0.500000000000009
 50
66.42182152180017
 51
90.0
  0
LINE
  5
ACF
  8
1
 10
0.0
 20
-34.92500000000001
 30
0.0
 11
0.2999999999999829
 21
-34.625
 31
0.0
  0
LINE
  5
AD0
  8
1
 10
0.2999999999999829
 20
34.625
 30
0.0
 11
0.0
 21
34.92499999999998
 31
0.0
  0
LINE
  5
AD5
  8
1
 10
1.299999999999983
 20
34.625
 30
0.0
 11
0.2999999999999829
 21
34.625
 31
0.0
  0
LINE
  5
AD6
  8
1
 10
0.2999999999999829
 20
-34.625
 30
0.0
 11
1.299999999999983
 21
-34.625
 31
0.0
  0
LINE
  5
ADB
  8
1
 10
14.65616694409999
 20
-47.282880439
 30
0.0
 11
14.68806954659999
 21
-47.29184187660002
 31
0.0
  0
LINE
  5
ADC
  8
1
 10
14.6561667691
 20
47.30816788690001
 30
0.0
 11
14.6561667691
 21
-47.2826327523
 31
0.0
  0
LINE
  5
ADD
  8
1
 10
14.7615962207
 20
47.3314147463
 30
0.0
 11
14.6561668942
 21
47.30816788690001
 31
0.0
  0
LINE
  5
ADE
  8
1
 10
18.25
 20
47.3314147463
 30
0.0
 11
14.7615962207
 21
47.3314147463
 31
0.0
  0
LINE
  5
ADF
  8
1
 10
14.68806954659999
 20
-47.29184187660002
 30
0.0
 11
18.25
 21
-47.29184187660002
 31
0.0
  0
LINE
  5
AE0
  8
1
 10
7.498403779400007
 20
47.3314147463
 30
0.0
 11
4.006414746699988
 21
47.3314147463
 31
0.0
  0
LINE
  5
AE1
  8
1
 10
7.603833105900009
 20
47.30816788690001
 30
0.0
 11
7.498403779400007
 21
47.3314147463
 31
0.0
  0
LINE
  5
AE2
  8
1
 10
7.603833230899994
 20
47.30844201400001
 30
0.0
 11
7.603833230899994
 21
-47.28288044160001
 31
0.0
  0
LINE
  5
AE3
  8
1
 10
7.571930453299984
 20
-47.29184187660002
 30
0.0
 11
7.603833055899997
 21
-47.282880439
 31
0.0
  0
LINE
  5
AE4
  8
1
 10
4.040356993800003
 20
-47.29184187660002
 30
0.0
 11
7.571930453299984
 21
-47.29184187660002
 31
0.0
  0
LINE
  5
AE5
  8
1
 10
2.300001405499984
 20
-46.74795901499999
 30
0.0
 11
4.040356993800003
 21
-47.29184189310001
 31
0.0
  0
LINE
  5
AE6
  8
1
 10
4.006414746699988
 20
47.33141476029999
 30
0.0
 11
2.299999765199999
 21
46.80267569
 31
0.0
  0
ARC
  5
AE7
  8
1
 10
2.557435939599998
 20
-45.59355264690001
 30
0.0
 40
1.184053137363273
 50
207.7147598986998
 51
257.3157095984005
  0
LINE
  5
AE8
  8
1
 10
1.50922466130001
 20
-46.14422037630001
 30
0.0
 11
1.5
 21
-46.01377680920001
 31
0.0
  0
LINE
  5
AE9
  8
1
 10
1.5
 20
-46.01377680920001
 30
0.0
 11
1.5
 21
46.01377680919998
 31
0.0
  0
ARC
  5
AEA
  8
1
 10
2.572884962100005
 20
45.72649004249999
 30
0.0
 40
1.111555736593689
 50
104.3436511600003
 51
164.8417645594994
  0
LINE
  5
AEB
  8
1
 10
9.204999995999998
 20
44.41431970880001
 30
0.0
 11
7.60383322749999
 21
47.3081678945
 31
0.0
  0
LINE
  5
AEC
  8
1
 10
9.204999999999984
 20
44.4143196734
 30
0.0
 11
9.204999999999984
 21
-44.387299867
 31
0.0
  0
LINE
  5
AED
  8
1
 10
7.603833226399985
 20
-47.28288044990001
 30
0.0
 11
9.2049999921
 21
-44.38762367050001
 31
0.0
  0
LINE
  5
AEE
  8
1
 10
14.65616677259999
 20
47.3081678945
 30
0.0
 11
13.05500000399999
 21
44.41431970880001
 31
0.0
  0
LINE
  5
AEF
  8
1
 10
13.05500000800001
 20
-44.38762367050001
 30
0.0
 11
14.65616677360001
 21
-47.28288044990001
 31
0.0
  0
LINE
  5
AF0
  8
1
 10
13.05500000000001
 20
44.41459195280001
 30
0.0
 11
13.05500000000001
 21
-44.38762365650001
 31
0.0
  0
ARC
  5
AF1
  8
1
 10
17.92302328310001
 20
46.41895288640001
 30
0.0
 40
1.127359624435328
 50
1.493363825500091
 51
43.53750291790048
  0
LINE
  5
AF2
  8
1
 10
19.04999999999998
 20
46.44833319130001
 30
0.0
 11
19.04999999999998
 21
-46.44833319130001
 31
0.0
  0
ARC
  5
AF3
  8
1
 10
17.91824827779999
 20
-46.4157978575
 30
0.0
 40
1.1322192847622
 50
319.2464850235001
 51
358.3533278529993
  0
ARC
  5
AF4
  8
1
 10
18.2616113983
 20
-46.25791326929999
 30
0.0
 40
1.033993805426882
 50
269.3565743835002
 51
299.8289453780985
  0
ARC
  5
AF5
  8
1
 10
18.2610591033
 20
46.41902767409999
 30
0.0
 40
0.9124540938653742
 50
58.31881226410037
 51
90.69445187719943
  0
ARC
  5
AF6
  8
1
 10
12.5158206966
 20
-44.1073442162
 30
0.0
 40
0.5397579791454132
 50
357.3466499737992
 51
85.83742202690154
  0
ARC
  5
AF7
  8
1
 10
12.54139279200001
 20
44.09944295630001
 30
0.0
 40
0.4858431210597904
 50
271.6049163143007
 51
333.441972537701
  0
POLYLINE
  5
AF8
  8
1
 66
     1
 10
0.0
 20
0.0
 30
0.0
  0
VERTEX
  5
272D
  8
1
 10
13.05500000000001
 20
44.14662312639999
 30
0.0
  0
VERTEX
  5
272E
  8
1
 10
13.03542892280001
 20
44.01594229719998
 30
0.0
  0
VERTEX
  5
272F
  8
1
 10
12.97787844319998
 20
43.88571451269999
 30
0.0
  0
SEQEND
  5
2C8E
  8
1
  0
ARC
  5
AF9
  8
1
 10
9.744214343399989
 20
-44.10737531749999
 30
0.0
 40
0.5397915428070933
 50
94.16604783349855
 51
182.6498801657025
  0
POLYLINE
  5
AFA
  8
1
 66
     1
 10
0.0
 20
0.0
 30
0.0
  0
VERTEX
  5
2730
  8
1
 10
9.280099379399985
 20
43.88913247470001
 30
0.0
  0
VERTEX
  5
2731
  8
1
 10
9.224055884099982
 20
44.0177026321
 30
0.0
  0
VERTEX
  5
2732
  8
1
 10
9.204999999999984
 20
44.14662312639999
 30
0.0
  0
SEQEND
  5
2C8D
  8
1
  0
ARC
  5
AFB
  8
1
 10
9.721350266000002
 20
44.10422581969999
 30
0.0
 40
0.4907078648052702
 50
206.0244317763009
 51
268.0905652222996
  0
LINE
  5
AFC
  8
1
 10
12.55500000000001
 20
43.613790424
 30
0.0
 11
9.704999999999984
 21
43.613790424
 31
0.0
  0
LINE
  5
AFD
  8
1
 10
9.704999999999984
 20
-43.5690100651
 30
0.0
 11
12.55500000000001
 21
-43.5690100651
 31
0.0
  0
LINE
  5
B00
  8
1
 10
0.2999999999999829
 20
34.625
 30
0.0
 11
0.2999999999999829
 21
-34.625
 31
0.0
  0
LINE
  5
B01
  8
1
 10
0.0
 20
34.92499999999998
 30
0.0
 11
0.0
 21
-34.92500000000001
 31
0.0
  0
LINE
  5
B04
  8
1
 10
14.68806954670001
 20
-47.29184187660002
 30
0.0
 11
14.65616694420001
 21
-47.282880439
 31
0.0
  0
LINE
  5
B1A
  8
3
 10
1.500000000000004
 20
37.72
 30
0.0
 11
19.04999999999998
 21
37.72
 31
0.0
  0
LINE
  5
B3B
  8
3
 10
1.5
 20
-35.30000000000001
 30
0.0
 11
19.26937525020018
 21
-35.30000000000001
 31
0.0
  0
LINE
  5
B42
  8
3
 10
26.97499999999999
 20
28.32499999999999
 30
0.0
 11
33.32499999999999
 21
28.32499999999999
 31
0.0
  0
LINE
  5
B43
  8
3
 10
20.625
 20
28.32499999999999
 30
0.0
 11
26.97499999999999
 21
28.32499999999999
 31
0.0
  0
LINE
  5
B44
  8
3
 10
11.375
 20
37.31999999999999
 30
0.0
 11
16.125
 21
37.31999999999999
 31
0.0
  0
LINE
  5
B45
  8
3
 10
6.625
 20
37.31999999999999
 30
0.0
 11
11.375
 21
37.31999999999999
 31
0.0
  0
LINE
  5
B55
  8
3
 10
20.625
 20
28.32499999999999
 30
0.0
 11
26.97499999999999
 21
24.50953506919998
 31
0.0
  0
LINE
  5
B56
  8
3
 10
26.97499999999999
 20
24.50953506919998
 30
0.0
 11
33.32499999999999
 21
28.32499999999999
 31
0.0
  0
LINE
  5
B57
  8
3
 10
20.625
 20
34.92499999999998
 30
0.0
 11
20.625
 21
28.32499999999999
 31
0.0
  0
LINE
  5
B58
  8
3
 10
33.32499999999999
 20
28.32499999999999
 30
0.0
 11
33.32499999999999
 21
34.92499999999998
 31
0.0
  0
LINE
  5
B59
  8
3
 10
6.625
 20
37.72
 30
0.0
 11
6.625
 21
37.31999999999999
 31
0.0
  0
LINE
  5
B5A
  8
3
 10
16.125
 20
37.31999999999999
 30
0.0
 11
16.125
 21
37.72
 31
0.0
  0
LINE
  5
B5B
  8
1
 10
20.04999999999998
 20
-34.92500000000001
 30
0.0
 11
20.04999999999998
 21
34.92499999999998
 31
0.0
  0
LINE
  5
B5C
  8
1
 10
1.299999999999983
 20
-34.625
 30
0.0
 11
1.299999999999983
 21
34.625
 31
0.0
  0
LINE
  5
B5F
  8
1
 10
12.55500000000001
 20
-43.00413183130001
 30
0.0
 11
12.55500000000001
 21
42.79577481850001
 31
0.0
  0
LINE
  5
B60
  8
1
 10
9.704999999999984
 20
-43.00421493109999
 30
0.0
 11
9.704999999999984
 21
42.7957705776
 31
0.0
  0
LINE
  5
B62
  8
1
 10
18.25
 20
47.3314147463
 30
0.0
 11
18.25
 21
-47.29184187660002
 31
0.0
  0
LINE
  5
B64
  8
1
 10
2.299999999999983
 20
-46.74795854910002
 30
0.0
 11
2.299999999999983
 21
46.80267576719999
 31
0.0
  0
LINE
  5
CE0
  8
1
 10
151.4
 20
34.92500000000007
 30
0.0
 11
20.05000000000001
 21
34.92500000000007
 31
0.0
  0
ARC
  5
CE2
  8
1
 10
151.4
 20
-33.92500000000007
 30
0.0
 40
1.000000000000227
 50
270.0
 51
0.0
  0
ARC
  5
CE3
  8
1
 10
151.4
 20
33.92500000000007
 30
0.0
 40
1.0
 50
0.0
 51
90.0
  0
LINE
  5
CFB
  8
1
 10
152.4
 20
-31.75381000000004
 30
0.0
 11
152.4283378126
 21
-31.75381000000004
 31
0.0
  0
CIRCLE
  5
D1F
  8
1
 10
134.4
 20
0.0000000000001137
 30
0.0
 40
2.624999999999545
  0
LINE
  5
D20
  8
1
 10
152.4
 20
0.0000000000001137
 30
0.0
 11
152.4
 21
33.92500000000007
 31
0.0
  0
LINE
  5
D21
  8
1
 10
152.4
 20
-33.92500000000007
 30
0.0
 11
152.4
 21
0.0000000000001137
 31
0.0
  0
CIRCLE
  5
D22
  8
1
 10
134.4
 20
0.0000000000001137
 30
0.0
 40
2.525000000000006
  0
LINE
  5
D28
  8
1
 10
133.15
 20
-0.721687836499882
 30
0.0
 11
134.4
 21
-1.443375672999878
 31
0.0
  0
LINE
  5
D29
  8
1
 10
135.65
 20
-0.721687836499882
 30
0.0
 11
134.4
 21
-1.443375672999878
 31
0.0
  0
LINE
  5
D2A
  8
1
 10
135.65
 20
0.7216878365001094
 30
0.0
 11
135.65
 21
-0.721687836499882
 31
0.0
  0
LINE
  5
D2B
  8
1
 10
135.65
 20
0.7216878365001094
 30
0.0
 11
134.4
 21
1.443375673000105
 31
0.0
  0
LINE
  5
D2C
  8
1
 10
133.15
 20
0.7216878365001094
 30
0.0
 11
134.4
 21
1.443375673000105
 31
0.0
  0
LINE
  5
D2D
  8
1
 10
133.15
 20
0.7216878365001094
 30
0.0
 11
133.15
 21
-0.721687836499882
 31
0.0
  0
CIRCLE
  5
D2E
  8
1
 10
134.4
 20
0.0000000000001137
 30
0.0
 40
2.054999999999836
  0
CIRCLE
  5
D2F
  8
1
 10
134.4
 20
0.0000000000001137
 30
0.0
 40
2.256103126842049
  0
CIRCLE
  5
D30
  8
1
 10
134.4
 20
0.0000000000001137
 30
0.0
 40
2.500000000000085
  0
POLYLINE
  5
D3E
  8
3
 66
     1
 10
0.0
 20
0.0
 30
0.0
  0
VERTEX
  5
2733
  8
3
 10
134.4
 20
-28.84788378399992
 30
0.0
  0
VERTEX
  5
2734
  8
3
 10
135.2674984817
 20
-28.93098265750007
 30
0.0
  0
VERTEX
  5
2735
  8
3
 10
136.0371754239
 20
-29.16774297809991
 30
0.0
  0
VERTEX
  5
2736
  8
3
 10
136.6238158074
 20
-29.52444509919985
 30
0.0
  0
VERTEX
  5
2737
  8
3
 10
136.960307759
 20
-29.9521880481999
 30
0.0
  0
VERTEX
  5
2738
  8
3
 10
137.0077571143
 20
-30.39500826999995
 30
0.0
  0
VERTEX
  5
2739
  8
3
 10
136.7624298798
 20
-30.80187446539992
 30
0.0
  0
VERTEX
  5
273A
  8
3
 10
136.2518724712
 20
-31.13320775749992
 30
0.0
  0
VERTEX
  5
273B
  8
3
 10
135.5314689166
 20
-31.3606117354999
 30
0.0
  0
VERTEX
  5
273C
  8
3
 10
134.6830058601
 20
-31.46622946299988
 30
0.0
  0
VERTEX
  5
273D
  8
3
 10
133.8045645979
 20
-31.44307976840003
 30
0.0
  0
VERTEX
  5
273E
  8
3
 10
132.99416225
 20
-31.29335200349999
 30
0.0
  0
VERTEX
  5
273F
  8
3
 10
132.340409202
 20
-31.02682272200002
 30
0.0
  0
VERTEX
  5
2740
  8
3
 10
131.9175743299
 20
-30.66357714589992
 30
0.0
  0
VERTEX
  5
2741
  8
3
 10
131.7750524153
 20
-30.23763957640006
 30
0.0
  0
VERTEX
  5
2742
  8
3
 10
131.9278161119
 20
-29.79499263650007
 30
0.0
  0
VERTEX
  5
2743
  8
3
 10
132.3577583493
 20
-29.38759440029992
 30
0.0
  0
VERTEX
  5
2744
  8
3
 10
133.0183925845
 20
-29.06811232050006
 30
0.0
  0
VERTEX
  5
2745
  8
3
 10
133.8359086638
 20
-28.88250270679998
 30
0.0
  0
VERTEX
  5
2746
  8
3
 10
134.4
 20
-28.84788378399992
 30
0.0
  0
SEQEND
  5
2C8C
  8
3
  0
POLYLINE
  5
D3F
  8
3
 66
     1
 10
0.0
 20
0.0
 30
0.0
  0
VERTEX
  5
2747
  8
3
 10
134.4
 20
31.47288378400015
 30
0.0
  0
VERTEX
  5
2748
  8
3
 10
135.2674984817
 20
31.40849580259999
 30
0.0
  0
VERTEX
  5
2749
  8
3
 10
136.0371754239
 20
31.21964005920006
 30
0.0
  0
VERTEX
  5
274A
  8
3
 10
136.6238158074
 20
30.91917383800012
 30
0.0
  0
VERTEX
  5
274B
  8
3
 10
136.960307759
 20
30.53136779520003
 30
0.0
  0
VERTEX
  5
274C
  8
3
 10
137.0077571143
 20
30.09462878880015
 30
0.0
  0
VERTEX
  5
274D
  8
3
 10
136.7624298798
 20
29.65751872390013
 30
0.0
  0
VERTEX
  5
274E
  8
3
 10
136.2518724712
 20
29.27277948669996
 30
0.0
  0
VERTEX
  5
274F
  8
3
 10
135.5314689166
 20
28.99198278799997
 30
0.0
  0
VERTEX
  5
2750
  8
3
 10
135.3708600341
 20
28.96634235060003
 30
0.0
  0
SEQEND
  5
2C8B
  8
3
  0
POLYLINE
  5
D40
  8
3
 66
     1
 10
0.0
 20
0.0
 30
0.0
  0
VERTEX
  5
2751
  8
3
 10
133.4444933061
 20
28.97094003550012
 30
0.0
  0
VERTEX
  5
2752
  8
3
 10
132.99416225
 20
29.07654230929995
 30
0.0
  0
VERTEX
  5
2753
  8
3
 10
132.340409202
 20
29.3993367022
 30
0.0
  0
VERTEX
  5
2754
  8
3
 10
131.9175743299
 20
29.81023794479995
 30
0.0
  0
VERTEX
  5
2755
  8
3
 10
131.7750524153
 20
30.2542280545
 30
0.0
  0
VERTEX
  5
2756
  8
3
 10
131.9278161119
 20
30.67756377989997
 30
0.0
  0
VERTEX
  5
2757
  8
3
 10
132.3577583493
 20
31.03679846279999
 30
0.0
  0
VERTEX
  5
2758
  8
3
 10
133.0183925845
 20
31.30010379650014
 30
0.0
  0
VERTEX
  5
2759
  8
3
 10
133.8359086638
 20
31.44617701610002
 30
0.0
  0
VERTEX
  5
275A
  8
3
 10
134.4
 20
31.47288378400015
 30
0.0
  0
SEQEND
  5
2C8A
  8
3
  0
CIRCLE
  5
D41
  8
3
 10
134.4
 20
0.0000000000001137
 30
0.0
 40
2.099999999999994
  0
LINE
  5
D4D
  8
SK3
 10
-40.09999999999999
 20
0.0000000000001137
 30
0.0
 11
-40.09999999999999
 21
11.11250000000007
 31
0.0
  0
LINE
  5
D4E
  8
SK3
 10
-40.09999999999999
 20
-11.11250000000007
 30
0.0
 11
-40.09999999999999
 21
0.0000000000001137
 31
0.0
  0
LINE
  5
D4F
  8
SK3
 10
-37.834376924
 20
0.0000000000001137
 30
0.0
 11
-37.834376924
 21
-7.341869999999858
 31
0.0
  0
LINE
  5
D50
  8
SK3
 10
-37.834376924
 20
7.341870000000085
 30
0.0
 11
-37.834376924
 21
0.0000000000001137
 31
0.0
  0
POLYLINE
  5
D53
  8
3
 66
     1
 10
0.0
 20
0.0
 30
0.0
  0
VERTEX
  5
275B
  8
3
 10
134.4
 20
7.142601359200057
 30
0.0
  0
VERTEX
  5
275C
  8
3
 10
135.0788114707
 20
7.11452859489998
 30
0.0
  0
VERTEX
  5
275D
  8
3
 10
135.6807739407
 20
7.024852442100041
 30
0.0
  0
VERTEX
  5
275E
  8
3
 10
136.1560423335
 20
6.855363423699941
 30
0.0
  0
VERTEX
  5
275F
  8
3
 10
136.4406959173
 20
6.591516763100003
 30
0.0
  0
VERTEX
  5
2760
  8
3
 10
136.49019915
 20
6.254497762500137
 30
0.0
  0
VERTEX
  5
2761
  8
3
 10
136.3165702344
 20
5.885470292800051
 30
0.0
  0
VERTEX
  5
2762
  8
3
 10
135.9406196151
 20
5.523451856700035
 30
0.0
  0
VERTEX
  5
2763
  8
3
 10
135.3815982434
 20
5.223388291400056
 30
0.0
  0
VERTEX
  5
2764
  8
3
 10
134.7023388718999
 20
5.059163961699937
 30
0.0
  0
VERTEX
  5
2765
  8
3
 10
134.0098814051
 20
5.070238859900087
 30
0.0
  0
VERTEX
  5
2766
  8
3
 10
133.3762875327
 20
5.23997753569995
 30
0.0
  0
VERTEX
  5
2767
  8
3
 10
132.8392323398
 20
5.538239863000058
 30
0.0
  0
VERTEX
  5
2768
  8
3
 10
132.4597170241
 20
5.918418927000062
 30
0.0
  0
VERTEX
  5
2769
  8
3
 10
132.3029203487
 20
6.30216747040015
 30
0.0
  0
VERTEX
  5
276A
  8
3
 10
132.379171346
 20
6.624567060700087
 30
0.0
  0
VERTEX
  5
276B
  8
3
 10
132.6656411802
 20
6.867043579300002
 30
0.0
  0
VERTEX
  5
276C
  8
3
 10
133.1461186494
 20
7.030900774799989
 30
0.0
  0
VERTEX
  5
276D
  8
3
 10
133.7831681338
 20
7.119658210600051
 30
0.0
  0
VERTEX
  5
276E
  8
3
 10
134.4
 20
7.142601359200057
 30
0.0
  0
SEQEND
  5
2C89
  8
3
  0
POLYLINE
  5
D54
  8
3
 66
     1
 10
0.0
 20
0.0
 30
0.0
  0
VERTEX
  5
276F
  8
3
 10
134.4
 20
-5.042601359299965
 30
0.0
  0
VERTEX
  5
2770
  8
3
 10
135.0788114707
 20
-5.12726540469987
 30
0.0
  0
VERTEX
  5
2771
  8
3
 10
135.6807739407
 20
-5.360635475300001
 30
0.0
  0
VERTEX
  5
2772
  8
3
 10
136.1560423335
 20
-5.703705782300062
 30
0.0
  0
VERTEX
  5
2773
  8
3
 10
136.4406959173
 20
-6.095976479099932
 30
0.0
  0
VERTEX
  5
2774
  8
3
 10
136.49019915
 20
-6.457148973899962
 30
0.0
  0
VERTEX
  5
2775
  8
3
 10
136.3165702344
 20
-6.743816689500022
 30
0.0
  0
VERTEX
  5
2776
  8
3
 10
135.9406196151
 20
-6.950508688600053
 30
0.0
  0
VERTEX
  5
2777
  8
3
 10
135.3815982434
 20
-7.079853989599883
 30
0.0
  0
VERTEX
  5
2778
  8
3
 10
134.7023388718999
 20
-7.137286000100062
 30
0.0
  0
VERTEX
  5
2779
  8
3
 10
134.0098814051
 20
-7.133684396399872
 30
0.0
  0
VERTEX
  5
277A
  8
3
 10
133.3762875327
 20
-7.073556763500051
 30
0.0
  0
VERTEX
  5
277B
  8
3
 10
132.8392323398
 20
-6.943232500399859
 30
0.0
  0
VERTEX
  5
277C
  8
3
 10
132.4597170241
 20
-6.721725825699991
 30
0.0
  0
VERTEX
  5
277D
  8
3
 10
132.3029203487
 20
-6.412878517799868
 30
0.0
  0
VERTEX
  5
277E
  8
3
 10
132.379171346
 20
-6.053382719900014
 30
0.0
  0
VERTEX
  5
277F
  8
3
 10
132.6656411802
 20
-5.682982987999935
 30
0.0
  0
VERTEX
  5
2780
  8
3
 10
133.1461186494
 20
-5.346329150199949
 30
0.0
  0
VERTEX
  5
2781
  8
3
 10
133.7831681338
 20
-5.112292163100051
 30
0.0
  0
VERTEX
  5
2782
  8
3
 10
134.4
 20
-5.042601359299965
 30
0.0
  0
SEQEND
  5
2C88
  8
3
  0
LINE
  5
D55
  8
3
 10
137.4
 20
31.75049999999999
 30
0.0
 11
137.4
 21
19.04949999999997
 31
0.0
  0
LINE
  5
D56
  8
3
 10
137.4
 20
-19.04949999999997
 30
0.0
 11
137.4
 21
-31.75049999999999
 31
0.0
  0
POLYLINE
  5
D5B
  8
3
 66
     1
 10
0.0
 20
0.0
 30
0.0
  0
VERTEX
  5
2783
  8
3
 10
134.4
 20
30.06185102680013
 30
0.0
  0
VERTEX
  5
2784
  8
3
 10
135.118242301
 20
29.99852827860002
 30
0.0
  0
VERTEX
  5
2785
  8
3
 10
135.7498539804
 20
29.81619769199995
 30
0.0
  0
VERTEX
  5
2786
  8
3
 10
136.218653348
 20
29.53685102680004
 30
0.0
  0
VERTEX
  5
2787
  8
3
 10
136.4680962814
 20
29.19418161329997
 30
0.0
  0
VERTEX
  5
2788
  8
3
 10
136.4680962814
 20
28.8295204402001
 30
0.0
  0
VERTEX
  5
2789
  8
3
 10
136.218653348
 20
28.48685102680008
 30
0.0
  0
VERTEX
  5
278A
  8
3
 10
135.7498539804
 20
28.20750436150013
 30
0.0
  0
VERTEX
  5
278B
  8
3
 10
135.118242301
 20
28.02517377490005
 30
0.0
  0
VERTEX
  5
278C
  8
3
 10
134.4
 20
27.96185102679999
 30
0.0
  0
VERTEX
  5
278D
  8
3
 10
133.681757699
 20
28.02517377490005
 30
0.0
  0
VERTEX
  5
278E
  8
3
 10
133.0501460197
 20
28.20750436150013
 30
0.0
  0
VERTEX
  5
278F
  8
3
 10
132.5813466521
 20
28.48685102680008
 30
0.0
  0
VERTEX
  5
2790
  8
3
 10
132.3319037186999
 20
28.8295204402001
 30
0.0
  0
VERTEX
  5
2791
  8
3
 10
132.3319037186999
 20
29.19418161329997
 30
0.0
  0
VERTEX
  5
2792
  8
3
 10
132.5813466521
 20
29.53685102680004
 30
0.0
  0
VERTEX
  5
2793
  8
3
 10
133.0501460197
 20
29.81619769199995
 30
0.0
  0
VERTEX
  5
2794
  8
3
 10
133.681757699
 20
29.99852827860002
 30
0.0
  0
VERTEX
  5
2795
  8
3
 10
134.4
 20
30.06185102680013
 30
0.0
  0
SEQEND
  5
2C87
  8
3
  0
POLYLINE
  5
D5C
  8
3
 66
     1
 10
0.0
 20
0.0
 30
0.0
  0
VERTEX
  5
2796
  8
3
 10
135.5874342087
 20
10.1757984945001
 30
0.0
  0
VERTEX
  5
2797
  8
3
 10
135.2307135081
 20
9.66977149310003
 30
0.0
  0
VERTEX
  5
2798
  8
3
 10
135.0930665581
 20
9.414316763800002
 30
0.0
  0
VERTEX
  5
2799
  8
3
 10
135.041457207
 20
9.209155885299992
 30
0.0
  0
VERTEX
  5
279A
  8
3
 10
135.0692654754
 20
9.011915962300122
 30
0.0
  0
VERTEX
  5
279B
  8
3
 10
135.2124097565
 20
8.774532872500117
 30
0.0
  0
VERTEX
  5
279C
  8
3
 10
135.6612023873
 20
8.395253660000094
 30
0.0
  0
VERTEX
  5
279D
  8
3
 10
136.1624496909999
 20
8.182853683999951
 30
0.0
  0
VERTEX
  5
279E
  8
3
 10
136.3967185942
 20
8.212678140000094
 30
0.0
  0
VERTEX
  5
279F
  8
3
 10
136.4989640743
 20
8.41171314159999
 30
0.0
  0
VERTEX
  5
27A0
  8
3
 10
136.4524341615
 20
8.709264812000015
 30
0.0
  0
VERTEX
  5
27A1
  8
3
 10
136.3027405741
 20
9.068375611500073
 30
0.0
  0
VERTEX
  5
27A2
  8
3
 10
135.9654809665
 20
9.638514827300128
 30
0.0
  0
VERTEX
  5
27A3
  8
3
 10
135.4087797991
 20
10.42164103419998
 30
0.0
  0
VERTEX
  5
27A4
  8
3
 10
135.1826480156
 20
10.76040447870002
 30
0.0
  0
VERTEX
  5
27A5
  8
3
 10
135.0623756697
 20
11.02537921250007
 30
0.0
  0
VERTEX
  5
27A6
  8
3
 10
135.0419854699
 20
11.21564272800003
 30
0.0
  0
VERTEX
  5
27A7
  8
3
 10
135.0899948735
 20
11.39014499200005
 30
0.0
  0
VERTEX
  5
27A8
  8
3
 10
135.2867697775
 20
11.65888278659997
 30
0.0
  0
VERTEX
  5
27A9
  8
3
 10
135.8437809255
 20
12.05893686470006
 30
0.0
  0
VERTEX
  5
27AA
  8
3
 10
136.2302357267
 20
12.17550193290015
 30
0.0
  0
VERTEX
  5
27AB
  8
3
 10
136.4315862227
 20
12.11135876740002
 30
0.0
  0
VERTEX
  5
27AC
  8
3
 10
136.4995856547
 20
11.88661539700013
 30
0.0
  0
VERTEX
  5
27AD
  8
3
 10
136.4310524638
 20
11.57819859829999
 30
0.0
  0
VERTEX
  5
27AE
  8
3
 10
136.2618425502
 20
11.20416659449995
 30
0.0
  0
VERTEX
  5
27AF
  8
3
 10
135.8897946255
 20
10.60073280660015
 30
0.0
  0
VERTEX
  5
27B0
  8
3
 10
135.5874342087
 20
10.1757984945001
 30
0.0
  0
SEQEND
  5
2C86
  8
3
  0
POLYLINE
  5
D5D
  8
3
 66
     1
 10
0.0
 20
0.0
 30
0.0
  0
VERTEX
  5
27B1
  8
3
 10
134.4
 20
-27.96185102679999
 30
0.0
  0
VERTEX
  5
27B2
  8
3
 10
135.118242301
 20
-28.02517377499987
 30
0.0
  0
VERTEX
  5
27B3
  8
3
 10
135.7498539804
 20
-28.2075043614999
 30
0.0
  0
VERTEX
  5
27B4
  8
3
 10
136.218653348
 20
-28.48685102679985
 30
0.0
  0
VERTEX
  5
27B5
  8
3
 10
136.4680962814
 20
-28.82952044019987
 30
0.0
  0
VERTEX
  5
27B6
  8
3
 10
136.4680962814
 20
-29.19418161329997
 30
0.0
  0
VERTEX
  5
27B7
  8
3
 10
136.218653348
 20
-29.53685102680004
 30
0.0
  0
VERTEX
  5
27B8
  8
3
 10
135.7498539804
 20
-29.81619769209999
 30
0.0
  0
VERTEX
  5
27B9
  8
3
 10
135.118242301
 20
-29.99852827860002
 30
0.0
  0
VERTEX
  5
27BA
  8
3
 10
134.4
 20
-30.0618510267999
 30
0.0
  0
VERTEX
  5
27BB
  8
3
 10
133.681757699
 20
-29.99852827860002
 30
0.0
  0
VERTEX
  5
27BC
  8
3
 10
133.0501460197
 20
-29.81619769209999
 30
0.0
  0
VERTEX
  5
27BD
  8
3
 10
132.5813466521
 20
-29.53685102680004
 30
0.0
  0
VERTEX
  5
27BE
  8
3
 10
132.3319037186999
 20
-29.19418161329997
 30
0.0
  0
VERTEX
  5
27BF
  8
3
 10
132.3319037186999
 20
-28.82952044019987
 30
0.0
  0
VERTEX
  5
27C0
  8
3
 10
132.5813466521
 20
-28.48685102679985
 30
0.0
  0
VERTEX
  5
27C1
  8
3
 10
133.0501460197
 20
-28.2075043614999
 30
0.0
  0
VERTEX
  5
27C2
  8
3
 10
133.681757699
 20
-28.02517377499987
 30
0.0
  0
VERTEX
  5
27C3
  8
3
 10
134.4
 20
-27.96185102679999
 30
0.0
  0
SEQEND
  5
2C85
  8
3
  0
POLYLINE
  5
D5E
  8
3
 66
     1
 10
0.0
 20
0.0
 30
0.0
  0
VERTEX
  5
27C4
  8
3
 10
135.5874342087
 20
-10.17579849449987
 30
0.0
  0
VERTEX
  5
27C5
  8
3
 10
136.1489098361
 20
-11.00400580190001
 30
0.0
  0
VERTEX
  5
27C6
  8
3
 10
136.3893771506
 20
-11.47067319020005
 30
0.0
  0
VERTEX
  5
27C7
  8
3
 10
136.4982281393999
 20
-11.86311415459988
 30
0.0
  0
VERTEX
  5
27C8
  8
3
 10
136.4559499552
 20
-12.08168261339995
 30
0.0
  0
VERTEX
  5
27C9
  8
3
 10
136.3097723243999
 20
-12.17066122909989
 30
0.0
  0
VERTEX
  5
27CA
  8
3
 10
135.9787290787
 20
-12.11790390530007
 30
0.0
  0
VERTEX
  5
27CB
  8
3
 10
135.4272776947
 20
-11.78727340240005
 30
0.0
  0
VERTEX
  5
27CC
  8
3
 10
135.1942035719
 20
-11.55471426139991
 30
0.0
  0
VERTEX
  5
27CD
  8
3
 10
135.0649965004999
 20
-11.32721459859988
 30
0.0
  0
VERTEX
  5
27CE
  8
3
 10
135.0413892584
 20
-11.14345243449986
 30
0.0
  0
VERTEX
  5
27CF
  8
3
 10
135.0873066879
 20
-10.95165245479996
 30
0.0
  0
VERTEX
  5
27D0
  8
3
 10
135.2771154607
 20
-10.6106926926999
 30
0.0
  0
VERTEX
  5
27D1
  8
3
 10
135.8265238451
 20
-9.84239505289986
 30
0.0
  0
VERTEX
  5
27D2
  8
3
 10
136.2214913441
 20
-9.22155508670005
 30
0.0
  0
VERTEX
  5
27D3
  8
3
 10
136.4274313366
 20
-8.783500904499874
 30
0.0
  0
VERTEX
  5
27D4
  8
3
 10
136.4998083939
 20
-8.42973822149986
 30
0.0
  0
VERTEX
  5
27D5
  8
3
 10
136.4339491164
 20
-8.242638408299968
 30
0.0
  0
VERTEX
  5
27D6
  8
3
 10
136.2672328854
 20
-8.176300128200069
 30
0.0
  0
VERTEX
  5
27D7
  8
3
 10
135.8996433485
 20
-8.266377161599962
 30
0.0
  0
VERTEX
  5
27D8
  8
3
 10
135.3235376401
 20
-8.65642717849994
 30
0.0
  0
VERTEX
  5
27D9
  8
3
 10
135.1331917126
 20
-8.88255606209998
 30
0.0
  0
VERTEX
  5
27DA
  8
3
 10
135.0500050133
 20
-9.0805132111999
 30
0.0
  0
VERTEX
  5
27DB
  8
3
 10
135.0483785218
 20
-9.265393811799981
 30
0.0
  0
VERTEX
  5
27DC
  8
3
 10
135.1332199998
 20
-9.50124742419996
 30
0.0
  0
VERTEX
  5
27DD
  8
3
 10
135.5145471951
 20
-10.07592391669994
 30
0.0
  0
VERTEX
  5
27DE
  8
3
 10
135.5874342087
 20
-10.17579849449987
 30
0.0
  0
SEQEND
  5
2C84
  8
3
  0
POLYLINE
  5
D5F
  8
3
 66
     1
 10
0.0
 20
0.0
 30
0.0
  0
VERTEX
  5
27DF
  8
3
 10
137.025
 20
29.37991182339999
 30
0.0
  0
VERTEX
  5
27E0
  8
3
 10
136.9083786152
 20
28.99304565700015
 30
0.0
  0
VERTEX
  5
27E1
  8
3
 10
136.5688767825999
 20
28.64055424719993
 30
0.0
  0
VERTEX
  5
27E2
  8
3
 10
136.0366607299
 20
28.3537580026001
 30
0.0
  0
VERTEX
  5
27E3
  8
3
 10
135.359020189
 20
28.15814002829995
 30
0.0
  0
VERTEX
  5
27E4
  8
3
 10
134.5961664956999
 20
28.07108183959997
 30
0.0
  0
VERTEX
  5
27E5
  8
3
 10
133.8158825484
 20
28.10031893860003
 30
0.0
  0
VERTEX
  5
27E6
  8
3
 10
133.0875
 20
28.24325348090008
 30
0.0
  0
VERTEX
  5
27E7
  8
3
 10
132.4757388364999
 20
28.48718510500009
 30
0.0
  0
VERTEX
  5
27E8
  8
3
 10
132.0349567218
 20
28.81043941580003
 30
0.0
  0
VERTEX
  5
27E9
  8
3
 10
131.8043190812
 20
29.18429384900003
 30
0.0
  0
VERTEX
  5
27EA
  8
3
 10
131.8043190812
 20
29.57552979770014
 30
0.0
  0
VERTEX
  5
27EB
  8
3
 10
132.0349567218
 20
29.94938423099995
 30
0.0
  0
VERTEX
  5
27EC
  8
3
 10
132.4757388364999
 20
30.27263854170008
 30
0.0
  0
VERTEX
  5
27ED
  8
3
 10
133.0875
 20
30.51657016580009
 30
0.0
  0
VERTEX
  5
27EE
  8
3
 10
133.8158825484
 20
30.65950470810014
 30
0.0
  0
VERTEX
  5
27EF
  8
3
 10
134.5961664956999
 20
30.68874180720002
 30
0.0
  0
VERTEX
  5
27F0
  8
3
 10
135.359020189
 20
30.60168361850003
 30
0.0
  0
VERTEX
  5
27F1
  8
3
 10
136.0366607299
 20
30.40606564410007
 30
0.0
  0
VERTEX
  5
27F2
  8
3
 10
136.5688767825999
 20
30.11926939960006
 30
0.0
  0
VERTEX
  5
27F3
  8
3
 10
136.9083786152
 20
29.76677798980006
 30
0.0
  0
VERTEX
  5
27F4
  8
3
 10
137.025
 20
29.37991182339999
 30
0.0
  0
SEQEND
  5
2C83
  8
3
  0
POLYLINE
  5
D60
  8
3
 66
     1
 10
0.0
 20
0.0
 30
0.0
  0
VERTEX
  5
27F5
  8
3
 10
137.025
 20
-29.37991182339999
 30
0.0
  0
VERTEX
  5
27F6
  8
3
 10
136.9083786152
 20
-29.76677798980006
 30
0.0
  0
VERTEX
  5
27F7
  8
3
 10
136.5688767825999
 20
-30.11926939960006
 30
0.0
  0
VERTEX
  5
27F8
  8
3
 10
136.0366607299
 20
-30.40606564410007
 30
0.0
  0
VERTEX
  5
27F9
  8
3
 10
135.359020189
 20
-30.60168361850003
 30
0.0
  0
VERTEX
  5
27FA
  8
3
 10
134.5961664956999
 20
-30.68874180720002
 30
0.0
  0
VERTEX
  5
27FB
  8
3
 10
133.8158825484
 20
-30.65950470809992
 30
0.0
  0
VERTEX
  5
27FC
  8
3
 10
133.0875
 20
-30.51657016589991
 30
0.0
  0
VERTEX
  5
27FD
  8
3
 10
132.4757388364999
 20
-30.27263854169985
 30
0.0
  0
VERTEX
  5
27FE
  8
3
 10
132.0349567218
 20
-29.94938423099995
 30
0.0
  0
VERTEX
  5
27FF
  8
3
 10
131.8043190812
 20
-29.57552979779996
 30
0.0
  0
VERTEX
  5
2800
  8
3
 10
131.8043190812
 20
-29.18429384900003
 30
0.0
  0
VERTEX
  5
2801
  8
3
 10
132.0349567218
 20
-28.81043941580003
 30
0.0
  0
VERTEX
  5
2802
  8
3
 10
132.4757388364999
 20
-28.48718510509991
 30
0.0
  0
VERTEX
  5
2803
  8
3
 10
133.0875
 20
-28.24325348089985
 30
0.0
  0
VERTEX
  5
2804
  8
3
 10
133.8158825484
 20
-28.10031893870007
 30
0.0
  0
VERTEX
  5
2805
  8
3
 10
134.5961664956999
 20
-28.07108183959997
 30
0.0
  0
VERTEX
  5
2806
  8
3
 10
135.359020189
 20
-28.15814002829995
 30
0.0
  0
VERTEX
  5
2807
  8
3
 10
136.0366607299
 20
-28.35375800269992
 30
0.0
  0
VERTEX
  5
2808
  8
3
 10
136.5688767825999
 20
-28.64055424719993
 30
0.0
  0
VERTEX
  5
2809
  8
3
 10
136.9083786152
 20
-28.99304565699993
 30
0.0
  0
VERTEX
  5
280A
  8
3
 10
137.025
 20
-29.37991182339999
 30
0.0
  0
SEQEND
  5
2C82
  8
3
  0
POLYLINE
  5
D61
  8
3
 66
     1
 10
0.0
 20
0.0
 30
0.0
  0
VERTEX
  5
280B
  8
3
 10
134.4
 20
30.64241182340004
 30
0.0
  0
VERTEX
  5
280C
  8
3
 10
135.1802679108
 20
30.58062067520007
 30
0.0
  0
VERTEX
  5
280D
  8
3
 10
135.8841577621
 20
30.40129577880009
 30
0.0
  0
VERTEX
  5
280E
  8
3
 10
136.4427679108
 20
30.12199070439999
 30
0.0
  0
VERTEX
  5
280F
  8
3
 10
136.8014177037
 20
29.77004577879995
 30
0.0
  0
VERTEX
  5
2810
  8
3
 10
136.925
 20
29.37991182339999
 30
0.0
  0
VERTEX
  5
2811
  8
3
 10
136.8014177037
 20
28.98977786800003
 30
0.0
  0
VERTEX
  5
2812
  8
3
 10
136.4427679108
 20
28.6378329424
 30
0.0
  0
VERTEX
  5
2813
  8
3
 10
135.8841577621
 20
28.35852786800012
 30
0.0
  0
VERTEX
  5
2814
  8
3
 10
135.1802679108
 20
28.17920297160015
 30
0.0
  0
VERTEX
  5
2815
  8
3
 10
134.4
 20
28.11741182339995
 30
0.0
  0
VERTEX
  5
2816
  8
3
 10
133.6197320892
 20
28.17920297160015
 30
0.0
  0
VERTEX
  5
2817
  8
3
 10
132.915842238
 20
28.35852786800012
 30
0.0
  0
VERTEX
  5
2818
  8
3
 10
132.3572320892
 20
28.6378329424
 30
0.0
  0
VERTEX
  5
2819
  8
3
 10
131.9985822964
 20
28.98977786800003
 30
0.0
  0
VERTEX
  5
281A
  8
3
 10
131.8749999999999
 20
29.37991182339999
 30
0.0
  0
VERTEX
  5
281B
  8
3
 10
131.9985822964
 20
29.77004577879995
 30
0.0
  0
VERTEX
  5
281C
  8
3
 10
132.3572320892
 20
30.12199070439999
 30
0.0
  0
VERTEX
  5
281D
  8
3
 10
132.915842238
 20
30.40129577880009
 30
0.0
  0
VERTEX
  5
281E
  8
3
 10
133.6197320892
 20
30.58062067520007
 30
0.0
  0
VERTEX
  5
281F
  8
3
 10
134.4
 20
30.64241182340004
 30
0.0
  0
SEQEND
  5
2C81
  8
3
  0
POLYLINE
  5
D62
  8
3
 66
     1
 10
0.0
 20
0.0
 30
0.0
  0
VERTEX
  5
2820
  8
3
 10
134.4
 20
-28.11741182339995
 30
0.0
  0
VERTEX
  5
2821
  8
3
 10
135.1802679108
 20
-28.17920297159992
 30
0.0
  0
VERTEX
  5
2822
  8
3
 10
135.8841577621
 20
-28.3585278679999
 30
0.0
  0
VERTEX
  5
2823
  8
3
 10
136.4427679108
 20
-28.6378329424
 30
0.0
  0
VERTEX
  5
2824
  8
3
 10
136.8014177037
 20
-28.98977786800003
 30
0.0
  0
VERTEX
  5
2825
  8
3
 10
136.925
 20
-29.37991182339999
 30
0.0
  0
VERTEX
  5
2826
  8
3
 10
136.8014177037
 20
-29.77004577879995
 30
0.0
  0
VERTEX
  5
2827
  8
3
 10
136.4427679108
 20
-30.12199070439999
 30
0.0
  0
VERTEX
  5
2828
  8
3
 10
135.8841577621
 20
-30.40129577879986
 30
0.0
  0
VERTEX
  5
2829
  8
3
 10
135.1802679108
 20
-30.58062067520007
 30
0.0
  0
VERTEX
  5
282A
  8
3
 10
134.4
 20
-30.64241182340004
 30
0.0
  0
VERTEX
  5
282B
  8
3
 10
133.6197320892
 20
-30.58062067520007
 30
0.0
  0
VERTEX
  5
282C
  8
3
 10
132.915842238
 20
-30.40129577879986
 30
0.0
  0
VERTEX
  5
282D
  8
3
 10
132.3572320892
 20
-30.12199070439999
 30
0.0
  0
VERTEX
  5
282E
  8
3
 10
131.9985822964
 20
-29.77004577879995
 30
0.0
  0
VERTEX
  5
282F
  8
3
 10
131.8749999999999
 20
-29.37991182339999
 30
0.0
  0
VERTEX
  5
2830
  8
3
 10
131.9985822964
 20
-28.98977786800003
 30
0.0
  0
VERTEX
  5
2831
  8
3
 10
132.3572320892
 20
-28.6378329424
 30
0.0
  0
VERTEX
  5
2832
  8
3
 10
132.915842238
 20
-28.3585278679999
 30
0.0
  0
VERTEX
  5
2833
  8
3
 10
133.6197320892
 20
-28.17920297159992
 30
0.0
  0
VERTEX
  5
2834
  8
3
 10
134.4
 20
-28.11741182339995
 30
0.0
  0
SEQEND
  5
2C80
  8
3
  0
CIRCLE
  5
D63
  8
3
 10
134.4
 20
0.0000000000001137
 30
0.0
 40
2.31673274345232
  0
CIRCLE
  5
D64
  8
3
 10
134.4
 20
0.0000000000001137
 30
0.0
 40
1.75
  0
POLYLINE
  5
D65
  8
3
 66
     1
 10
0.0
 20
0.0
 30
0.0
  0
VERTEX
  5
2835
  8
3
 10
134.4
 20
25.92478480450006
 30
0.0
  0
VERTEX
  5
2836
  8
3
 10
135.0321729159
 20
25.86569800519999
 30
0.0
  0
VERTEX
  5
2837
  8
3
 10
135.5789673764
 20
25.69641760699994
 30
0.0
  0
VERTEX
  5
2838
  8
3
 10
135.9665357599
 20
25.43980586579994
 30
0.0
  0
VERTEX
  5
2839
  8
3
 10
136.1425348086
 20
25.13051961899998
 30
0.0
  0
VERTEX
  5
283A
  8
3
 10
136.0831948756
 20
24.81032968810007
 30
0.0
  0
VERTEX
  5
283B
  8
3
 10
135.7965301478
 20
24.5224794976001
 30
0.0
  0
VERTEX
  5
283C
  8
3
 10
135.3212562851
 20
24.30584481070002
 30
0.0
  0
VERTEX
  5
283D
  8
3
 10
134.7215616562
 20
24.18968334220006
 30
0.0
  0
VERTEX
  5
283E
  8
3
 10
134.0784383439
 20
24.18968334220006
 30
0.0
  0
VERTEX
  5
283F
  8
3
 10
133.478743715
 20
24.30584481070002
 30
0.0
  0
VERTEX
  5
2840
  8
3
 10
133.0034698523
 20
24.5224794976001
 30
0.0
  0
VERTEX
  5
2841
  8
3
 10
132.7168051245
 20
24.81032968810007
 30
0.0
  0
VERTEX
  5
2842
  8
3
 10
132.6574651915
 20
25.13051961899998
 30
0.0
  0
VERTEX
  5
2843
  8
3
 10
132.8334642402
 20
25.43980586579994
 30
0.0
  0
VERTEX
  5
2844
  8
3
 10
133.2210326237
 20
25.69641760699994
 30
0.0
  0
VERTEX
  5
2845
  8
3
 10
133.7678270842
 20
25.86569800519999
 30
0.0
  0
VERTEX
  5
2846
  8
3
 10
134.4
 20
25.92478480450006
 30
0.0
  0
SEQEND
  5
2C7F
  8
3
  0
POLYLINE
  5
D66
  8
3
 66
     1
 10
0.0
 20
0.0
 30
0.0
  0
VERTEX
  5
2847
  8
3
 10
136.7167327435
 20
25.54058975739997
 30
0.0
  0
VERTEX
  5
2848
  8
3
 10
136.5912057732
 20
25.16446881140007
 30
0.0
  0
VERTEX
  5
2849
  8
3
 10
136.2282276573
 20
24.82910640600005
 30
0.0
  0
VERTEX
  5
284A
  8
3
 10
135.6671327069
 20
24.57084426150016
 30
0.0
  0
VERTEX
  5
284B
  8
3
 10
134.9687242661
 20
24.41766908860006
 30
0.0
  0
VERTEX
  5
284C
  8
3
 10
134.2086857265
 20
24.38617979420007
 30
0.0
  0
VERTEX
  5
284D
  8
3
 10
133.4693790569
 20
24.47978873170007
 30
0.0
  0
VERTEX
  5
284E
  8
3
 10
132.8309196065
 20
24.68835192040012
 30
0.0
  0
VERTEX
  5
284F
  8
3
 10
132.3624943636
 20
24.98926830259995
 30
0.0
  0
VERTEX
  5
2850
  8
3
 10
132.1148644716
 20
25.34992891910008
 30
0.0
  0
VERTEX
  5
2851
  8
3
 10
132.1148644716
 20
25.73125059580013
 30
0.0
  0
VERTEX
  5
2852
  8
3
 10
132.3624943636
 20
26.09191121219999
 30
0.0
  0
VERTEX
  5
2853
  8
3
 10
132.8309196065
 20
26.39282759440005
 30
0.0
  0
VERTEX
  5
2854
  8
3
 10
133.4693790569
 20
26.60139078320015
 30
0.0
  0
VERTEX
  5
2855
  8
3
 10
134.2086857265
 20
26.69499972070014
 30
0.0
  0
VERTEX
  5
2856
  8
3
 10
134.9687242661
 20
26.66351042620011
 30
0.0
  0
VERTEX
  5
2857
  8
3
 10
135.6671327069
 20
26.51033525340006
 30
0.0
  0
VERTEX
  5
2858
  8
3
 10
136.2282276573
 20
26.25207310889994
 30
0.0
  0
VERTEX
  5
2859
  8
3
 10
136.5912057732
 20
25.91671070350014
 30
0.0
  0
VERTEX
  5
285A
  8
3
 10
136.7167327435
 20
25.54058975739997
 30
0.0
  0
SEQEND
  5
2C7E
  8
3
  0
POLYLINE
  5
D67
  8
3
 66
     1
 10
0.0
 20
0.0
 30
0.0
  0
VERTEX
  5
285B
  8
3
 10
132.345
 20
25.69930384290012
 30
0.0
  0
VERTEX
  5
285C
  8
3
 10
132.4689316643
 20
26.0507295402
 30
0.0
  0
VERTEX
  5
285D
  8
3
 10
132.8257786694
 20
26.35976811190005
 30
0.0
  0
VERTEX
  5
285E
  8
3
 10
133.3725
 20
26.58914494530006
 30
0.0
  0
VERTEX
  5
285F
  8
3
 10
134.0431529949
 20
26.71119380910011
 30
0.0
  0
VERTEX
  5
2860
  8
3
 10
134.7568470051
 20
26.71119380910011
 30
0.0
  0
VERTEX
  5
2861
  8
3
 10
135.4275
 20
26.58914494530006
 30
0.0
  0
VERTEX
  5
2862
  8
3
 10
135.9742213307
 20
26.35976811190005
 30
0.0
  0
VERTEX
  5
2863
  8
3
 10
136.3310683358
 20
26.0507295402
 30
0.0
  0
VERTEX
  5
2864
  8
3
 10
136.455
 20
25.69930384290012
 30
0.0
  0
VERTEX
  5
2865
  8
3
 10
136.3310683358
 20
25.34787814570007
 30
0.0
  0
VERTEX
  5
2866
  8
3
 10
135.9742213307
 20
25.03883957400001
 30
0.0
  0
VERTEX
  5
2867
  8
3
 10
135.4275
 20
24.80946274049995
 30
0.0
  0
VERTEX
  5
2868
  8
3
 10
134.7568470051
 20
24.68741387670013
 30
0.0
  0
VERTEX
  5
2869
  8
3
 10
134.0431529949
 20
24.68741387670013
 30
0.0
  0
VERTEX
  5
286A
  8
3
 10
133.3725
 20
24.80946274049995
 30
0.0
  0
VERTEX
  5
286B
  8
3
 10
132.8257786694
 20
25.03883957400001
 30
0.0
  0
VERTEX
  5
286C
  8
3
 10
132.4689316643
 20
25.34787814570007
 30
0.0
  0
VERTEX
  5
286D
  8
3
 10
132.345
 20
25.69930384290012
 30
0.0
  0
SEQEND
  5
2C7D
  8
3
  0
POLYLINE
  5
D68
  8
3
 66
     1
 10
0.0
 20
0.0
 30
0.0
  0
VERTEX
  5
286E
  8
3
 10
131.9
 20
25.96915073759999
 30
0.0
  0
VERTEX
  5
286F
  8
3
 10
132.0223587093
 20
26.35542198049995
 30
0.0
  0
VERTEX
  5
2870
  8
3
 10
132.3774575140999
 20
26.70388230290007
 30
0.0
  0
VERTEX
  5
2871
  8
3
 10
132.9305368692999
 20
26.98042198049995
 30
0.0
  0
VERTEX
  5
2872
  8
3
 10
133.6274575140999
 20
27.15797138289997
 30
0.0
  0
VERTEX
  5
2873
  8
3
 10
134.4
 20
27.21915073759999
 30
0.0
  0
VERTEX
  5
2874
  8
3
 10
135.1725424859999
 20
27.15797138289997
 30
0.0
  0
VERTEX
  5
2875
  8
3
 10
135.8694631307999
 20
26.98042198049995
 30
0.0
  0
VERTEX
  5
2876
  8
3
 10
136.4225424859999
 20
26.70388230290007
 30
0.0
  0
VERTEX
  5
2877
  8
3
 10
136.7776412908
 20
26.35542198049995
 30
0.0
  0
VERTEX
  5
2878
  8
3
 10
136.9
 20
25.96915073759999
 30
0.0
  0
VERTEX
  5
2879
  8
3
 10
136.7776412908
 20
25.58287949459998
 30
0.0
  0
VERTEX
  5
287A
  8
3
 10
136.4225424859999
 20
25.23441917220009
 30
0.0
  0
VERTEX
  5
287B
  8
3
 10
135.8694631307999
 20
24.95787949459998
 30
0.0
  0
VERTEX
  5
287C
  8
3
 10
135.1725424859999
 20
24.78033009219996
 30
0.0
  0
VERTEX
  5
287D
  8
3
 10
134.4
 20
24.71915073759999
 30
0.0
  0
VERTEX
  5
287E
  8
3
 10
133.6274575140999
 20
24.78033009219996
 30
0.0
  0
VERTEX
  5
287F
  8
3
 10
132.9305368692999
 20
24.95787949459998
 30
0.0
  0
VERTEX
  5
2880
  8
3
 10
132.3774575140999
 20
25.23441917220009
 30
0.0
  0
VERTEX
  5
2881
  8
3
 10
132.0223587093
 20
25.58287949459998
 30
0.0
  0
VERTEX
  5
2882
  8
3
 10
131.9
 20
25.96915073759999
 30
0.0
  0
SEQEND
  5
2C7C
  8
3
  0
POLYLINE
  5
D69
  8
3
 66
     1
 10
0.0
 20
0.0
 30
0.0
  0
VERTEX
  5
2883
  8
3
 10
131.9
 20
26.04719028889997
 30
0.0
  0
VERTEX
  5
2884
  8
3
 10
132.0223587093
 20
26.43346153189998
 30
0.0
  0
VERTEX
  5
2885
  8
3
 10
132.3774575140999
 20
26.78192185430009
 30
0.0
  0
VERTEX
  5
2886
  8
3
 10
132.9305368692999
 20
27.05846153189998
 30
0.0
  0
VERTEX
  5
2887
  8
3
 10
133.6274575140999
 20
27.2360109343
 30
0.0
  0
VERTEX
  5
2888
  8
3
 10
134.4
 20
27.29719028889997
 30
0.0
  0
VERTEX
  5
2889
  8
3
 10
135.1725424859999
 20
27.2360109343
 30
0.0
  0
VERTEX
  5
288A
  8
3
 10
135.8694631307999
 20
27.05846153189998
 30
0.0
  0
VERTEX
  5
288B
  8
3
 10
136.4225424859999
 20
26.78192185430009
 30
0.0
  0
VERTEX
  5
288C
  8
3
 10
136.7776412908
 20
26.43346153189998
 30
0.0
  0
VERTEX
  5
288D
  8
3
 10
136.9
 20
26.04719028889997
 30
0.0
  0
VERTEX
  5
288E
  8
3
 10
136.7776412908
 20
25.66091904589996
 30
0.0
  0
VERTEX
  5
288F
  8
3
 10
136.4225424859999
 20
25.31245872350007
 30
0.0
  0
VERTEX
  5
2890
  8
3
 10
135.8694631307999
 20
25.03591904589996
 30
0.0
  0
VERTEX
  5
2891
  8
3
 10
135.1725424859999
 20
24.85836964349994
 30
0.0
  0
VERTEX
  5
2892
  8
3
 10
134.4
 20
24.79719028889997
 30
0.0
  0
VERTEX
  5
2893
  8
3
 10
133.6274575140999
 20
24.85836964349994
 30
0.0
  0
VERTEX
  5
2894
  8
3
 10
132.9305368692999
 20
25.03591904589996
 30
0.0
  0
VERTEX
  5
2895
  8
3
 10
132.3774575140999
 20
25.31245872350007
 30
0.0
  0
VERTEX
  5
2896
  8
3
 10
132.0223587093
 20
25.66091904589996
 30
0.0
  0
VERTEX
  5
2897
  8
3
 10
131.9
 20
26.04719028889997
 30
0.0
  0
SEQEND
  5
2C7B
  8
3
  0
POLYLINE
  5
D6A
  8
3
 66
     1
 10
0.0
 20
0.0
 30
0.0
  0
VERTEX
  5
2898
  8
3
 10
132.3450000001
 20
26.31703718350002
 30
0.0
  0
VERTEX
  5
2899
  8
3
 10
132.4689316643
 20
26.66846288080012
 30
0.0
  0
VERTEX
  5
289A
  8
3
 10
132.8257786694
 20
26.97750145249995
 30
0.0
  0
VERTEX
  5
289B
  8
3
 10
133.3725000001
 20
27.20687828589996
 30
0.0
  0
VERTEX
  5
289C
  8
3
 10
134.0431529949
 20
27.32892714980005
 30
0.0
  0
VERTEX
  5
289D
  8
3
 10
134.7568470052
 20
27.32892714980005
 30
0.0
  0
VERTEX
  5
289E
  8
3
 10
135.4275000001
 20
27.20687828589996
 30
0.0
  0
VERTEX
  5
289F
  8
3
 10
135.9742213307
 20
26.97750145249995
 30
0.0
  0
VERTEX
  5
28A0
  8
3
 10
136.3310683358
 20
26.66846288080012
 30
0.0
  0
VERTEX
  5
28A1
  8
3
 10
136.4550000001
 20
26.31703718350002
 30
0.0
  0
VERTEX
  5
28A2
  8
3
 10
136.3310683358
 20
25.96561148629996
 30
0.0
  0
VERTEX
  5
28A3
  8
3
 10
135.9742213307
 20
25.65657291460013
 30
0.0
  0
VERTEX
  5
28A4
  8
3
 10
135.4275000001
 20
25.42719608110008
 30
0.0
  0
VERTEX
  5
28A5
  8
3
 10
134.7568470052
 20
25.30514721730003
 30
0.0
  0
VERTEX
  5
28A6
  8
3
 10
134.0431529949
 20
25.30514721730003
 30
0.0
  0
VERTEX
  5
28A7
  8
3
 10
133.3725000001
 20
25.42719608110008
 30
0.0
  0
VERTEX
  5
28A8
  8
3
 10
132.8257786694
 20
25.65657291460013
 30
0.0
  0
VERTEX
  5
28A9
  8
3
 10
132.4689316643
 20
25.96561148629996
 30
0.0
  0
VERTEX
  5
28AA
  8
3
 10
132.3450000001
 20
26.31703718350002
 30
0.0
  0
SEQEND
  5
2C7A
  8
3
  0
POLYLINE
  5
D6B
  8
3
 66
     1
 10
0.0
 20
0.0
 30
0.0
  0
VERTEX
  5
28AB
  8
3
 10
131.9
 20
26.58688407820011
 30
0.0
  0
VERTEX
  5
28AC
  8
3
 10
132.0223587093
 20
26.97315532110008
 30
0.0
  0
VERTEX
  5
28AD
  8
3
 10
132.3774575140999
 20
27.32161564349997
 30
0.0
  0
VERTEX
  5
28AE
  8
3
 10
132.9305368692999
 20
27.59815532110008
 30
0.0
  0
VERTEX
  5
28AF
  8
3
 10
133.6274575140999
 20
27.7757047235001
 30
0.0
  0
VERTEX
  5
28B0
  8
3
 10
134.4
 20
27.83688407820011
 30
0.0
  0
VERTEX
  5
28B1
  8
3
 10
135.1725424859999
 20
27.7757047235001
 30
0.0
  0
VERTEX
  5
28B2
  8
3
 10
135.8694631307999
 20
27.59815532110008
 30
0.0
  0
VERTEX
  5
28B3
  8
3
 10
136.4225424859999
 20
27.32161564349997
 30
0.0
  0
VERTEX
  5
28B4
  8
3
 10
136.7776412908
 20
26.97315532110008
 30
0.0
  0
VERTEX
  5
28B5
  8
3
 10
136.9
 20
26.58688407820011
 30
0.0
  0
VERTEX
  5
28B6
  8
3
 10
136.7776412908
 20
26.2006128352001
 30
0.0
  0
VERTEX
  5
28B7
  8
3
 10
136.4225424859999
 20
25.85215251279999
 30
0.0
  0
VERTEX
  5
28B8
  8
3
 10
135.8694631307999
 20
25.5756128352001
 30
0.0
  0
VERTEX
  5
28B9
  8
3
 10
135.1725424859999
 20
25.39806343280009
 30
0.0
  0
VERTEX
  5
28BA
  8
3
 10
134.4
 20
25.33688407820011
 30
0.0
  0
VERTEX
  5
28BB
  8
3
 10
133.6274575140999
 20
25.39806343280009
 30
0.0
  0
VERTEX
  5
28BC
  8
3
 10
132.9305368692999
 20
25.5756128352001
 30
0.0
  0
VERTEX
  5
28BD
  8
3
 10
132.3774575140999
 20
25.85215251279999
 30
0.0
  0
VERTEX
  5
28BE
  8
3
 10
132.0223587093
 20
26.2006128352001
 30
0.0
  0
VERTEX
  5
28BF
  8
3
 10
131.9
 20
26.58688407820011
 30
0.0
  0
SEQEND
  5
2C79
  8
3
  0
POLYLINE
  5
D6C
  8
3
 66
     1
 10
0.0
 20
0.0
 30
0.0
  0
VERTEX
  5
28C0
  8
3
 10
131.9
 20
26.66492362950009
 30
0.0
  0
VERTEX
  5
28C1
  8
3
 10
132.0223587093
 20
27.0511948725001
 30
0.0
  0
VERTEX
  5
28C2
  8
3
 10
132.3774575140999
 20
27.39965519489999
 30
0.0
  0
VERTEX
  5
28C3
  8
3
 10
132.9305368692999
 20
27.6761948725001
 30
0.0
  0
VERTEX
  5
28C4
  8
3
 10
133.6274575140999
 20
27.85374427490012
 30
0.0
  0
VERTEX
  5
28C5
  8
3
 10
134.4
 20
27.91492362950009
 30
0.0
  0
VERTEX
  5
28C6
  8
3
 10
135.1725424859999
 20
27.85374427490012
 30
0.0
  0
VERTEX
  5
28C7
  8
3
 10
135.8694631307999
 20
27.6761948725001
 30
0.0
  0
VERTEX
  5
28C8
  8
3
 10
136.4225424859999
 20
27.39965519489999
 30
0.0
  0
VERTEX
  5
28C9
  8
3
 10
136.7776412908
 20
27.0511948725001
 30
0.0
  0
VERTEX
  5
28CA
  8
3
 10
136.9
 20
26.66492362950009
 30
0.0
  0
VERTEX
  5
28CB
  8
3
 10
136.7776412908
 20
26.27865238650008
 30
0.0
  0
VERTEX
  5
28CC
  8
3
 10
136.4225424859999
 20
25.93019206409997
 30
0.0
  0
VERTEX
  5
28CD
  8
3
 10
135.8694631307999
 20
25.65365238650008
 30
0.0
  0
VERTEX
  5
28CE
  8
3
 10
135.1725424859999
 20
25.47610298410007
 30
0.0
  0
VERTEX
  5
28CF
  8
3
 10
134.4
 20
25.41492362950009
 30
0.0
  0
VERTEX
  5
28D0
  8
3
 10
133.6274575140999
 20
25.47610298410007
 30
0.0
  0
VERTEX
  5
28D1
  8
3
 10
132.9305368692999
 20
25.65365238650008
 30
0.0
  0
VERTEX
  5
28D2
  8
3
 10
132.3774575140999
 20
25.93019206409997
 30
0.0
  0
VERTEX
  5
28D3
  8
3
 10
132.0223587093
 20
26.27865238650008
 30
0.0
  0
VERTEX
  5
28D4
  8
3
 10
131.9
 20
26.66492362950009
 30
0.0
  0
SEQEND
  5
2C78
  8
3
  0
POLYLINE
  5
D6D
  8
3
 66
     1
 10
0.0
 20
0.0
 30
0.0
  0
VERTEX
  5
28D5
  8
3
 10
132.345
 20
26.93477052410014
 30
0.0
  0
VERTEX
  5
28D6
  8
3
 10
132.4689316643
 20
27.28619622140002
 30
0.0
  0
VERTEX
  5
28D7
  8
3
 10
132.8257786694
 20
27.59523479310008
 30
0.0
  0
VERTEX
  5
28D8
  8
3
 10
133.3725
 20
27.82461162650009
 30
0.0
  0
VERTEX
  5
28D9
  8
3
 10
134.0431529949
 20
27.94666049039995
 30
0.0
  0
VERTEX
  5
28DA
  8
3
 10
134.7568470052
 20
27.94666049039995
 30
0.0
  0
VERTEX
  5
28DB
  8
3
 10
135.4275
 20
27.82461162650009
 30
0.0
  0
VERTEX
  5
28DC
  8
3
 10
135.9742213307
 20
27.59523479310008
 30
0.0
  0
VERTEX
  5
28DD
  8
3
 10
136.3310683358
 20
27.28619622140002
 30
0.0
  0
VERTEX
  5
28DE
  8
3
 10
136.455
 20
26.93477052410014
 30
0.0
  0
VERTEX
  5
28DF
  8
3
 10
136.3310683358
 20
26.58334482690009
 30
0.0
  0
VERTEX
  5
28E0
  8
3
 10
135.9742213307
 20
26.27430625520003
 30
0.0
  0
VERTEX
  5
28E1
  8
3
 10
135.4275
 20
26.04492942169998
 30
0.0
  0
VERTEX
  5
28E2
  8
3
 10
134.7568470052
 20
25.92288055789993
 30
0.0
  0
VERTEX
  5
28E3
  8
3
 10
134.0431529949
 20
25.92288055789993
 30
0.0
  0
VERTEX
  5
28E4
  8
3
 10
133.3725
 20
26.04492942169998
 30
0.0
  0
VERTEX
  5
28E5
  8
3
 10
132.8257786694
 20
26.27430625520003
 30
0.0
  0
VERTEX
  5
28E6
  8
3
 10
132.4689316643
 20
26.58334482690009
 30
0.0
  0
VERTEX
  5
28E7
  8
3
 10
132.345
 20
26.93477052410014
 30
0.0
  0
SEQEND
  5
2C77
  8
3
  0
POLYLINE
  5
D6E
  8
3
 66
     1
 10
0.0
 20
0.0
 30
0.0
  0
VERTEX
  5
28E8
  8
3
 10
131.9
 20
27.20461741880001
 30
0.0
  0
VERTEX
  5
28E9
  8
3
 10
132.0223587093
 20
27.59088866169998
 30
0.0
  0
VERTEX
  5
28EA
  8
3
 10
132.3774575140999
 20
27.93934898410009
 30
0.0
  0
VERTEX
  5
28EB
  8
3
 10
132.9305368692999
 20
28.21588866169998
 30
0.0
  0
VERTEX
  5
28EC
  8
3
 10
133.6274575140999
 20
28.3934380641
 30
0.0
  0
VERTEX
  5
28ED
  8
3
 10
134.4
 20
28.45461741880001
 30
0.0
  0
VERTEX
  5
28EE
  8
3
 10
135.1725424859999
 20
28.3934380641
 30
0.0
  0
VERTEX
  5
28EF
  8
3
 10
135.8694631307999
 20
28.21588866169998
 30
0.0
  0
VERTEX
  5
28F0
  8
3
 10
136.4225424859999
 20
27.93934898410009
 30
0.0
  0
VERTEX
  5
28F1
  8
3
 10
136.7776412908
 20
27.59088866169998
 30
0.0
  0
VERTEX
  5
28F2
  8
3
 10
136.9
 20
27.20461741880001
 30
0.0
  0
VERTEX
  5
28F3
  8
3
 10
136.7776412908
 20
26.8183461758
 30
0.0
  0
VERTEX
  5
28F4
  8
3
 10
136.4225424859999
 20
26.46988585340011
 30
0.0
  0
VERTEX
  5
28F5
  8
3
 10
135.8694631307999
 20
26.1933461758
 30
0.0
  0
VERTEX
  5
28F6
  8
3
 10
135.1725424859999
 20
26.01579677339998
 30
0.0
  0
VERTEX
  5
28F7
  8
3
 10
134.4
 20
25.95461741880001
 30
0.0
  0
VERTEX
  5
28F8
  8
3
 10
133.6274575140999
 20
26.01579677339998
 30
0.0
  0
VERTEX
  5
28F9
  8
3
 10
132.9305368692999
 20
26.1933461758
 30
0.0
  0
VERTEX
  5
28FA
  8
3
 10
132.3774575140999
 20
26.46988585340011
 30
0.0
  0
VERTEX
  5
28FB
  8
3
 10
132.0223587093
 20
26.8183461758
 30
0.0
  0
VERTEX
  5
28FC
  8
3
 10
131.9
 20
27.20461741880001
 30
0.0
  0
SEQEND
  5
2C76
  8
3
  0
POLYLINE
  5
D6F
  8
3
 66
     1
 10
0.0
 20
0.0
 30
0.0
  0
VERTEX
  5
28FD
  8
3
 10
131.9
 20
27.28265697009999
 30
0.0
  0
VERTEX
  5
28FE
  8
3
 10
132.0223587093
 20
27.6689282131
 30
0.0
  0
VERTEX
  5
28FF
  8
3
 10
132.3774575140999
 20
28.01738853550012
 30
0.0
  0
VERTEX
  5
2900
  8
3
 10
132.9305368692999
 20
28.2939282131
 30
0.0
  0
VERTEX
  5
2901
  8
3
 10
133.6274575140999
 20
28.47147761550002
 30
0.0
  0
VERTEX
  5
2902
  8
3
 10
134.4
 20
28.53265697009999
 30
0.0
  0
VERTEX
  5
2903
  8
3
 10
135.1725424859999
 20
28.47147761550002
 30
0.0
  0
VERTEX
  5
2904
  8
3
 10
135.8694631307999
 20
28.2939282131
 30
0.0
  0
VERTEX
  5
2905
  8
3
 10
136.4225424859999
 20
28.01738853550012
 30
0.0
  0
VERTEX
  5
2906
  8
3
 10
136.7776412908
 20
27.6689282131
 30
0.0
  0
VERTEX
  5
2907
  8
3
 10
136.9
 20
27.28265697009999
 30
0.0
  0
VERTEX
  5
2908
  8
3
 10
136.7776412908
 20
26.89638572709998
 30
0.0
  0
VERTEX
  5
2909
  8
3
 10
136.4225424859999
 20
26.54792540470009
 30
0.0
  0
VERTEX
  5
290A
  8
3
 10
135.8694631307999
 20
26.27138572709998
 30
0.0
  0
VERTEX
  5
290B
  8
3
 10
135.1725424859999
 20
26.09383632469996
 30
0.0
  0
VERTEX
  5
290C
  8
3
 10
134.4
 20
26.03265697009999
 30
0.0
  0
VERTEX
  5
290D
  8
3
 10
133.6274575140999
 20
26.09383632469996
 30
0.0
  0
VERTEX
  5
290E
  8
3
 10
132.9305368692999
 20
26.27138572709998
 30
0.0
  0
VERTEX
  5
290F
  8
3
 10
132.3774575140999
 20
26.54792540470009
 30
0.0
  0
VERTEX
  5
2910
  8
3
 10
132.0223587093
 20
26.89638572709998
 30
0.0
  0
VERTEX
  5
2911
  8
3
 10
131.9
 20
27.28265697009999
 30
0.0
  0
SEQEND
  5
2C75
  8
3
  0
POLYLINE
  5
D70
  8
3
 66
     1
 10
0.0
 20
0.0
 30
0.0
  0
VERTEX
  5
2912
  8
3
 10
132.345
 20
27.55250386470004
 30
0.0
  0
VERTEX
  5
2913
  8
3
 10
132.4689316643
 20
27.90392956200014
 30
0.0
  0
VERTEX
  5
2914
  8
3
 10
132.8257786694
 20
28.21296813369997
 30
0.0
  0
VERTEX
  5
2915
  8
3
 10
133.3725
 20
28.44234496709998
 30
0.0
  0
VERTEX
  5
2916
  8
3
 10
134.0431529949
 20
28.56439383100007
 30
0.0
  0
VERTEX
  5
2917
  8
3
 10
134.7568470051
 20
28.56439383100007
 30
0.0
  0
VERTEX
  5
2918
  8
3
 10
135.4275
 20
28.44234496709998
 30
0.0
  0
VERTEX
  5
2919
  8
3
 10
135.9742213307
 20
28.21296813369997
 30
0.0
  0
VERTEX
  5
291A
  8
3
 10
136.3310683358
 20
27.90392956200014
 30
0.0
  0
VERTEX
  5
291B
  8
3
 10
136.455
 20
27.55250386470004
 30
0.0
  0
VERTEX
  5
291C
  8
3
 10
136.3310683358
 20
27.20107816749999
 30
0.0
  0
VERTEX
  5
291D
  8
3
 10
135.9742213307
 20
26.89203959579993
 30
0.0
  0
VERTEX
  5
291E
  8
3
 10
135.4275
 20
26.66266276240015
 30
0.0
  0
VERTEX
  5
291F
  8
3
 10
134.7568470051
 20
26.54061389850006
 30
0.0
  0
VERTEX
  5
2920
  8
3
 10
134.0431529949
 20
26.54061389850006
 30
0.0
  0
VERTEX
  5
2921
  8
3
 10
133.3725
 20
26.66266276240015
 30
0.0
  0
VERTEX
  5
2922
  8
3
 10
132.8257786694
 20
26.89203959579993
 30
0.0
  0
VERTEX
  5
2923
  8
3
 10
132.4689316643
 20
27.20107816749999
 30
0.0
  0
VERTEX
  5
2924
  8
3
 10
132.345
 20
27.55250386470004
 30
0.0
  0
SEQEND
  5
2C74
  8
3
  0
POLYLINE
  5
D71
  8
3
 66
     1
 10
0.0
 20
0.0
 30
0.0
  0
VERTEX
  5
2925
  8
3
 10
131.9
 20
27.82235075940014
 30
0.0
  0
VERTEX
  5
2926
  8
3
 10
132.0223587093
 20
28.2086220023001
 30
0.0
  0
VERTEX
  5
2927
  8
3
 10
132.3774575140999
 20
28.55708232469999
 30
0.0
  0
VERTEX
  5
2928
  8
3
 10
132.9305368692999
 20
28.8336220023001
 30
0.0
  0
VERTEX
  5
2929
  8
3
 10
133.6274575140999
 20
29.01117140470012
 30
0.0
  0
VERTEX
  5
292A
  8
3
 10
134.4
 20
29.07235075940014
 30
0.0
  0
VERTEX
  5
292B
  8
3
 10
135.1725424859999
 20
29.01117140470012
 30
0.0
  0
VERTEX
  5
292C
  8
3
 10
135.8694631307999
 20
28.8336220023001
 30
0.0
  0
VERTEX
  5
292D
  8
3
 10
136.4225424859999
 20
28.55708232469999
 30
0.0
  0
VERTEX
  5
292E
  8
3
 10
136.7776412908
 20
28.2086220023001
 30
0.0
  0
VERTEX
  5
292F
  8
3
 10
136.9
 20
27.82235075940014
 30
0.0
  0
VERTEX
  5
2930
  8
3
 10
136.7776412908
 20
27.43607951640013
 30
0.0
  0
VERTEX
  5
2931
  8
3
 10
136.4225424859999
 20
27.08761919400001
 30
0.0
  0
VERTEX
  5
2932
  8
3
 10
135.8694631307999
 20
26.81107951640013
 30
0.0
  0
VERTEX
  5
2933
  8
3
 10
135.1725424859999
 20
26.63353011400011
 30
0.0
  0
VERTEX
  5
2934
  8
3
 10
134.4
 20
26.57235075940014
 30
0.0
  0
VERTEX
  5
2935
  8
3
 10
133.6274575140999
 20
26.63353011400011
 30
0.0
  0
VERTEX
  5
2936
  8
3
 10
132.9305368692999
 20
26.81107951640013
 30
0.0
  0
VERTEX
  5
2937
  8
3
 10
132.3774575140999
 20
27.08761919400001
 30
0.0
  0
VERTEX
  5
2938
  8
3
 10
132.0223587093
 20
27.43607951640013
 30
0.0
  0
VERTEX
  5
2939
  8
3
 10
131.9
 20
27.82235075940014
 30
0.0
  0
SEQEND
  5
2C73
  8
3
  0
POLYLINE
  5
D72
  8
3
 66
     1
 10
0.0
 20
0.0
 30
0.0
  0
VERTEX
  5
293A
  8
3
 10
131.9
 20
27.90039031070012
 30
0.0
  0
VERTEX
  5
293B
  8
3
 10
132.0223587093
 20
28.28666155370013
 30
0.0
  0
VERTEX
  5
293C
  8
3
 10
132.3774575140999
 20
28.63512187610002
 30
0.0
  0
VERTEX
  5
293D
  8
3
 10
132.9305368692999
 20
28.91166155370013
 30
0.0
  0
VERTEX
  5
293E
  8
3
 10
133.6274575140999
 20
29.08921095610015
 30
0.0
  0
VERTEX
  5
293F
  8
3
 10
134.4
 20
29.15039031070012
 30
0.0
  0
VERTEX
  5
2940
  8
3
 10
135.1725424859999
 20
29.08921095610015
 30
0.0
  0
VERTEX
  5
2941
  8
3
 10
135.8694631307999
 20
28.91166155370013
 30
0.0
  0
VERTEX
  5
2942
  8
3
 10
136.4225424859999
 20
28.63512187610002
 30
0.0
  0
VERTEX
  5
2943
  8
3
 10
136.7776412908
 20
28.28666155370013
 30
0.0
  0
VERTEX
  5
2944
  8
3
 10
136.9
 20
27.90039031070012
 30
0.0
  0
VERTEX
  5
2945
  8
3
 10
136.7776412908
 20
27.51411906780015
 30
0.0
  0
VERTEX
  5
2946
  8
3
 10
136.4225424859999
 20
27.16565874540004
 30
0.0
  0
VERTEX
  5
2947
  8
3
 10
135.8694631307999
 20
26.88911906780015
 30
0.0
  0
VERTEX
  5
2948
  8
3
 10
135.1725424859999
 20
26.71156966540013
 30
0.0
  0
VERTEX
  5
2949
  8
3
 10
134.4
 20
26.65039031070012
 30
0.0
  0
VERTEX
  5
294A
  8
3
 10
133.6274575140999
 20
26.71156966540013
 30
0.0
  0
VERTEX
  5
294B
  8
3
 10
132.9305368692999
 20
26.88911906780015
 30
0.0
  0
VERTEX
  5
294C
  8
3
 10
132.3774575140999
 20
27.16565874540004
 30
0.0
  0
VERTEX
  5
294D
  8
3
 10
132.0223587093
 20
27.51411906780015
 30
0.0
  0
VERTEX
  5
294E
  8
3
 10
131.9
 20
27.90039031070012
 30
0.0
  0
SEQEND
  5
2C72
  8
3
  0
POLYLINE
  5
D73
  8
3
 66
     1
 10
0.0
 20
0.0
 30
0.0
  0
VERTEX
  5
294F
  8
3
 10
132.345
 20
28.17023720529994
 30
0.0
  0
VERTEX
  5
2950
  8
3
 10
132.4689316643
 20
28.52166290260004
 30
0.0
  0
VERTEX
  5
2951
  8
3
 10
132.8257786694
 20
28.8307014743001
 30
0.0
  0
VERTEX
  5
2952
  8
3
 10
133.3725
 20
29.06007830770011
 30
0.0
  0
VERTEX
  5
2953
  8
3
 10
134.0431529949
 20
29.18212717159997
 30
0.0
  0
VERTEX
  5
2954
  8
3
 10
134.7568470051
 20
29.18212717159997
 30
0.0
  0
VERTEX
  5
2955
  8
3
 10
135.4275
 20
29.06007830770011
 30
0.0
  0
VERTEX
  5
2956
  8
3
 10
135.9742213306
 20
28.8307014743001
 30
0.0
  0
VERTEX
  5
2957
  8
3
 10
136.3310683358
 20
28.52166290260004
 30
0.0
  0
VERTEX
  5
2958
  8
3
 10
136.455
 20
28.17023720529994
 30
0.0
  0
VERTEX
  5
2959
  8
3
 10
136.3310683358
 20
27.81881150810011
 30
0.0
  0
VERTEX
  5
295A
  8
3
 10
135.9742213306
 20
27.50977293640005
 30
0.0
  0
VERTEX
  5
295B
  8
3
 10
135.4275
 20
27.28039610300004
 30
0.0
  0
VERTEX
  5
295C
  8
3
 10
134.7568470051
 20
27.15834723909995
 30
0.0
  0
VERTEX
  5
295D
  8
3
 10
134.0431529949
 20
27.15834723909995
 30
0.0
  0
VERTEX
  5
295E
  8
3
 10
133.3725
 20
27.28039610300004
 30
0.0
  0
VERTEX
  5
295F
  8
3
 10
132.8257786694
 20
27.50977293640005
 30
0.0
  0
VERTEX
  5
2960
  8
3
 10
132.4689316643
 20
27.81881150810011
 30
0.0
  0
VERTEX
  5
2961
  8
3
 10
132.345
 20
28.17023720529994
 30
0.0
  0
SEQEND
  5
2C71
  8
3
  0
POLYLINE
  5
D74
  8
3
 66
     1
 10
0.0
 20
0.0
 30
0.0
  0
VERTEX
  5
2962
  8
3
 10
131.9
 20
28.44008410000004
 30
0.0
  0
VERTEX
  5
2963
  8
3
 10
132.0223587093
 20
28.8263553429
 30
0.0
  0
VERTEX
  5
2964
  8
3
 10
132.3774575140999
 20
29.17481566530012
 30
0.0
  0
VERTEX
  5
2965
  8
3
 10
132.9305368692999
 20
29.4513553429
 30
0.0
  0
VERTEX
  5
2966
  8
3
 10
133.6274575140999
 20
29.62890474530002
 30
0.0
  0
VERTEX
  5
2967
  8
3
 10
134.4
 20
29.69008410000004
 30
0.0
  0
VERTEX
  5
2968
  8
3
 10
135.1725424859999
 20
29.62890474530002
 30
0.0
  0
VERTEX
  5
2969
  8
3
 10
135.8694631307999
 20
29.4513553429
 30
0.0
  0
VERTEX
  5
296A
  8
3
 10
136.4225424859999
 20
29.17481566530012
 30
0.0
  0
VERTEX
  5
296B
  8
3
 10
136.7776412908
 20
28.8263553429
 30
0.0
  0
VERTEX
  5
296C
  8
3
 10
136.9
 20
28.44008410000004
 30
0.0
  0
VERTEX
  5
296D
  8
3
 10
136.7776412908
 20
28.05381285700003
 30
0.0
  0
VERTEX
  5
296E
  8
3
 10
136.4225424859999
 20
27.70535253460014
 30
0.0
  0
VERTEX
  5
296F
  8
3
 10
135.8694631307999
 20
27.42881285700003
 30
0.0
  0
VERTEX
  5
2970
  8
3
 10
135.1725424859999
 20
27.25126345460001
 30
0.0
  0
VERTEX
  5
2971
  8
3
 10
134.4
 20
27.19008410000004
 30
0.0
  0
VERTEX
  5
2972
  8
3
 10
133.6274575140999
 20
27.25126345460001
 30
0.0
  0
VERTEX
  5
2973
  8
3
 10
132.9305368692999
 20
27.42881285700003
 30
0.0
  0
VERTEX
  5
2974
  8
3
 10
132.3774575140999
 20
27.70535253460014
 30
0.0
  0
VERTEX
  5
2975
  8
3
 10
132.0223587093
 20
28.05381285700003
 30
0.0
  0
VERTEX
  5
2976
  8
3
 10
131.9
 20
28.44008410000004
 30
0.0
  0
SEQEND
  5
2C70
  8
3
  0
POLYLINE
  5
D75
  8
3
 66
     1
 10
0.0
 20
0.0
 30
0.0
  0
VERTEX
  5
2977
  8
3
 10
131.9
 20
28.51812365130002
 30
0.0
  0
VERTEX
  5
2978
  8
3
 10
132.0223587093
 20
28.90439489430003
 30
0.0
  0
VERTEX
  5
2979
  8
3
 10
132.3774575140999
 20
29.25285521670014
 30
0.0
  0
VERTEX
  5
297A
  8
3
 10
132.9305368692999
 20
29.52939489430003
 30
0.0
  0
VERTEX
  5
297B
  8
3
 10
133.6274575140999
 20
29.70694429670004
 30
0.0
  0
VERTEX
  5
297C
  8
3
 10
134.4
 20
29.76812365130002
 30
0.0
  0
VERTEX
  5
297D
  8
3
 10
135.1725424859999
 20
29.70694429670004
 30
0.0
  0
VERTEX
  5
297E
  8
3
 10
135.8694631307999
 20
29.52939489430003
 30
0.0
  0
VERTEX
  5
297F
  8
3
 10
136.4225424859999
 20
29.25285521670014
 30
0.0
  0
VERTEX
  5
2980
  8
3
 10
136.7776412908
 20
28.90439489430003
 30
0.0
  0
VERTEX
  5
2981
  8
3
 10
136.9
 20
28.51812365130002
 30
0.0
  0
VERTEX
  5
2982
  8
3
 10
136.7776412908
 20
28.13185240840005
 30
0.0
  0
VERTEX
  5
2983
  8
3
 10
136.4225424859999
 20
27.78339208599994
 30
0.0
  0
VERTEX
  5
2984
  8
3
 10
135.8694631307999
 20
27.50685240840005
 30
0.0
  0
VERTEX
  5
2985
  8
3
 10
135.1725424859999
 20
27.32930300600003
 30
0.0
  0
VERTEX
  5
2986
  8
3
 10
134.4
 20
27.26812365130002
 30
0.0
  0
VERTEX
  5
2987
  8
3
 10
133.6274575140999
 20
27.32930300600003
 30
0.0
  0
VERTEX
  5
2988
  8
3
 10
132.9305368692999
 20
27.50685240840005
 30
0.0
  0
VERTEX
  5
2989
  8
3
 10
132.3774575140999
 20
27.78339208599994
 30
0.0
  0
VERTEX
  5
298A
  8
3
 10
132.0223587093
 20
28.13185240840005
 30
0.0
  0
VERTEX
  5
298B
  8
3
 10
131.9
 20
28.51812365130002
 30
0.0
  0
SEQEND
  5
2C6F
  8
3
  0
POLYLINE
  5
D76
  8
3
 66
     1
 10
0.0
 20
0.0
 30
0.0
  0
VERTEX
  5
298C
  8
3
 10
132.345
 20
28.78797054590007
 30
0.0
  0
VERTEX
  5
298D
  8
3
 10
132.4689316643
 20
29.13939624319994
 30
0.0
  0
VERTEX
  5
298E
  8
3
 10
132.8257786694
 20
29.4484348149
 30
0.0
  0
VERTEX
  5
298F
  8
3
 10
133.3725
 20
29.67781164830001
 30
0.0
  0
VERTEX
  5
2990
  8
3
 10
134.0431529949
 20
29.7998605122001
 30
0.0
  0
VERTEX
  5
2991
  8
3
 10
134.7568470051
 20
29.7998605122001
 30
0.0
  0
VERTEX
  5
2992
  8
3
 10
135.4275
 20
29.67781164830001
 30
0.0
  0
VERTEX
  5
2993
  8
3
 10
135.9742213306
 20
29.4484348149
 30
0.0
  0
VERTEX
  5
2994
  8
3
 10
136.3310683358
 20
29.13939624319994
 30
0.0
  0
VERTEX
  5
2995
  8
3
 10
136.455
 20
28.78797054590007
 30
0.0
  0
VERTEX
  5
2996
  8
3
 10
136.3310683358
 20
28.43654484870001
 30
0.0
  0
VERTEX
  5
2997
  8
3
 10
135.9742213306
 20
28.12750627699995
 30
0.0
  0
VERTEX
  5
2998
  8
3
 10
135.4275
 20
27.89812944359994
 30
0.0
  0
VERTEX
  5
2999
  8
3
 10
134.7568470051
 20
27.77608057970008
 30
0.0
  0
VERTEX
  5
299A
  8
3
 10
134.0431529949
 20
27.77608057970008
 30
0.0
  0
VERTEX
  5
299B
  8
3
 10
133.3725
 20
27.89812944359994
 30
0.0
  0
VERTEX
  5
299C
  8
3
 10
132.8257786694
 20
28.12750627699995
 30
0.0
  0
VERTEX
  5
299D
  8
3
 10
132.4689316643
 20
28.43654484870001
 30
0.0
  0
VERTEX
  5
299E
  8
3
 10
132.345
 20
28.78797054590007
 30
0.0
  0
SEQEND
  5
2C6E
  8
3
  0
POLYLINE
  5
D77
  8
3
 66
     1
 10
0.0
 20
0.0
 30
0.0
  0
VERTEX
  5
299F
  8
3
 10
131.9
 20
29.05781744059993
 30
0.0
  0
VERTEX
  5
29A0
  8
3
 10
132.0223587093
 20
29.44408868350013
 30
0.0
  0
VERTEX
  5
29A1
  8
3
 10
132.3774575140999
 20
29.79254900590001
 30
0.0
  0
VERTEX
  5
29A2
  8
3
 10
132.9305368692999
 20
30.06908868350013
 30
0.0
  0
VERTEX
  5
29A3
  8
3
 10
133.6274575140999
 20
30.24663808590014
 30
0.0
  0
VERTEX
  5
29A4
  8
3
 10
134.4
 20
30.30781744059993
 30
0.0
  0
VERTEX
  5
29A5
  8
3
 10
135.1725424859999
 20
30.24663808590014
 30
0.0
  0
VERTEX
  5
29A6
  8
3
 10
135.8694631307999
 20
30.06908868350013
 30
0.0
  0
VERTEX
  5
29A7
  8
3
 10
136.4225424859999
 20
29.79254900590001
 30
0.0
  0
VERTEX
  5
29A8
  8
3
 10
136.7776412908
 20
29.44408868350013
 30
0.0
  0
VERTEX
  5
29A9
  8
3
 10
136.9
 20
29.05781744059993
 30
0.0
  0
VERTEX
  5
29AA
  8
3
 10
136.7776412908
 20
28.67154619760015
 30
0.0
  0
VERTEX
  5
29AB
  8
3
 10
136.4225424859999
 20
28.32308587520004
 30
0.0
  0
VERTEX
  5
29AC
  8
3
 10
135.8694631307999
 20
28.04654619760015
 30
0.0
  0
VERTEX
  5
29AD
  8
3
 10
135.1725424859999
 20
27.86899679520013
 30
0.0
  0
VERTEX
  5
29AE
  8
3
 10
134.4
 20
27.80781744059993
 30
0.0
  0
VERTEX
  5
29AF
  8
3
 10
133.6274575140999
 20
27.86899679520013
 30
0.0
  0
VERTEX
  5
29B0
  8
3
 10
132.9305368692999
 20
28.04654619760015
 30
0.0
  0
VERTEX
  5
29B1
  8
3
 10
132.3774575140999
 20
28.32308587520004
 30
0.0
  0
VERTEX
  5
29B2
  8
3
 10
132.0223587093
 20
28.67154619760015
 30
0.0
  0
VERTEX
  5
29B3
  8
3
 10
131.9
 20
29.05781744059993
 30
0.0
  0
SEQEND
  5
2C6D
  8
3
  0
POLYLINE
  5
D78
  8
3
 66
     1
 10
0.0
 20
0.0
 30
0.0
  0
VERTEX
  5
29B4
  8
3
 10
131.9
 20
29.13585699190014
 30
0.0
  0
VERTEX
  5
29B5
  8
3
 10
132.0223587093
 20
29.52212823490015
 30
0.0
  0
VERTEX
  5
29B6
  8
3
 10
132.3774575140999
 20
29.87058855730004
 30
0.0
  0
VERTEX
  5
29B7
  8
3
 10
132.9305368692999
 20
30.14712823490015
 30
0.0
  0
VERTEX
  5
29B8
  8
3
 10
133.6274575140999
 20
30.32467763729994
 30
0.0
  0
VERTEX
  5
29B9
  8
3
 10
134.4
 20
30.38585699190014
 30
0.0
  0
VERTEX
  5
29BA
  8
3
 10
135.1725424859999
 20
30.32467763729994
 30
0.0
  0
VERTEX
  5
29BB
  8
3
 10
135.8694631307999
 20
30.14712823490015
 30
0.0
  0
VERTEX
  5
29BC
  8
3
 10
136.4225424859999
 20
29.87058855730004
 30
0.0
  0
VERTEX
  5
29BD
  8
3
 10
136.7776412908
 20
29.52212823490015
 30
0.0
  0
VERTEX
  5
29BE
  8
3
 10
136.9
 20
29.13585699190014
 30
0.0
  0
VERTEX
  5
29BF
  8
3
 10
136.7776412908
 20
28.74958574899995
 30
0.0
  0
VERTEX
  5
29C0
  8
3
 10
136.4225424859999
 20
28.40112542660006
 30
0.0
  0
VERTEX
  5
29C1
  8
3
 10
135.8694631307999
 20
28.12458574899995
 30
0.0
  0
VERTEX
  5
29C2
  8
3
 10
135.1725424859999
 20
27.94703634659993
 30
0.0
  0
VERTEX
  5
29C3
  8
3
 10
134.4
 20
27.88585699190014
 30
0.0
  0
VERTEX
  5
29C4
  8
3
 10
133.6274575140999
 20
27.94703634659993
 30
0.0
  0
VERTEX
  5
29C5
  8
3
 10
132.9305368692999
 20
28.12458574899995
 30
0.0
  0
VERTEX
  5
29C6
  8
3
 10
132.3774575140999
 20
28.40112542660006
 30
0.0
  0
VERTEX
  5
29C7
  8
3
 10
132.0223587093
 20
28.74958574899995
 30
0.0
  0
VERTEX
  5
29C8
  8
3
 10
131.9
 20
29.13585699190014
 30
0.0
  0
SEQEND
  5
2C6C
  8
3
  0
POLYLINE
  5
D79
  8
3
 66
     1
 10
0.0
 20
0.0
 30
0.0
  0
VERTEX
  5
29C9
  8
3
 10
132.345
 20
29.40570388660001
 30
0.0
  0
VERTEX
  5
29CA
  8
3
 10
132.4689316643
 20
29.75712958380007
 30
0.0
  0
VERTEX
  5
29CB
  8
3
 10
132.8257786694
 20
30.06616815550012
 30
0.0
  0
VERTEX
  5
29CC
  8
3
 10
133.3725
 20
30.29554498890013
 30
0.0
  0
VERTEX
  5
29CD
  8
3
 10
134.0431529949
 20
30.4175938528
 30
0.0
  0
VERTEX
  5
29CE
  8
3
 10
134.7568470051
 20
30.4175938528
 30
0.0
  0
VERTEX
  5
29CF
  8
3
 10
135.4275
 20
30.29554498890013
 30
0.0
  0
VERTEX
  5
29D0
  8
3
 10
135.9742213306
 20
30.06616815550012
 30
0.0
  0
VERTEX
  5
29D1
  8
3
 10
136.3310683357
 20
29.75712958380007
 30
0.0
  0
VERTEX
  5
29D2
  8
3
 10
136.455
 20
29.40570388660001
 30
0.0
  0
VERTEX
  5
29D3
  8
3
 10
136.3310683357
 20
29.05427818930013
 30
0.0
  0
VERTEX
  5
29D4
  8
3
 10
135.9742213306
 20
28.74523961760008
 30
0.0
  0
VERTEX
  5
29D5
  8
3
 10
135.4275
 20
28.51586278420007
 30
0.0
  0
VERTEX
  5
29D6
  8
3
 10
134.7568470051
 20
28.39381392029998
 30
0.0
  0
VERTEX
  5
29D7
  8
3
 10
134.0431529949
 20
28.39381392029998
 30
0.0
  0
VERTEX
  5
29D8
  8
3
 10
133.3725
 20
28.51586278420007
 30
0.0
  0
VERTEX
  5
29D9
  8
3
 10
132.8257786694
 20
28.74523961760008
 30
0.0
  0
VERTEX
  5
29DA
  8
3
 10
132.4689316643
 20
29.05427818930013
 30
0.0
  0
VERTEX
  5
29DB
  8
3
 10
132.345
 20
29.40570388660001
 30
0.0
  0
SEQEND
  5
2C6B
  8
3
  0
POLYLINE
  5
D7A
  8
3
 66
     1
 10
0.0
 20
0.0
 30
0.0
  0
VERTEX
  5
29DC
  8
3
 10
131.9
 20
29.67555078120006
 30
0.0
  0
VERTEX
  5
29DD
  8
3
 10
132.0223587093
 20
30.06182202410002
 30
0.0
  0
VERTEX
  5
29DE
  8
3
 10
132.3774575140999
 20
30.41028234650014
 30
0.0
  0
VERTEX
  5
29DF
  8
3
 10
132.9305368692999
 20
30.68682202410002
 30
0.0
  0
VERTEX
  5
29E0
  8
3
 10
133.6274575140999
 20
30.86437142650004
 30
0.0
  0
VERTEX
  5
29E1
  8
3
 10
134.4
 20
30.92555078120006
 30
0.0
  0
VERTEX
  5
29E2
  8
3
 10
135.1725424859999
 20
30.86437142650004
 30
0.0
  0
VERTEX
  5
29E3
  8
3
 10
135.8694631307999
 20
30.68682202410002
 30
0.0
  0
VERTEX
  5
29E4
  8
3
 10
136.4225424859999
 20
30.41028234650014
 30
0.0
  0
VERTEX
  5
29E5
  8
3
 10
136.7776412908
 20
30.06182202410002
 30
0.0
  0
VERTEX
  5
29E6
  8
3
 10
136.9
 20
29.67555078120006
 30
0.0
  0
VERTEX
  5
29E7
  8
3
 10
136.7776412908
 20
29.28927953820005
 30
0.0
  0
VERTEX
  5
29E8
  8
3
 10
136.4225424859999
 20
28.94081921579993
 30
0.0
  0
VERTEX
  5
29E9
  8
3
 10
135.8694631307999
 20
28.66427953820005
 30
0.0
  0
VERTEX
  5
29EA
  8
3
 10
135.1725424859999
 20
28.48673013580003
 30
0.0
  0
VERTEX
  5
29EB
  8
3
 10
134.4
 20
28.42555078120006
 30
0.0
  0
VERTEX
  5
29EC
  8
3
 10
133.6274575140999
 20
28.48673013580003
 30
0.0
  0
VERTEX
  5
29ED
  8
3
 10
132.9305368692999
 20
28.66427953820005
 30
0.0
  0
VERTEX
  5
29EE
  8
3
 10
132.3774575140999
 20
28.94081921579993
 30
0.0
  0
VERTEX
  5
29EF
  8
3
 10
132.0223587093
 20
29.28927953820005
 30
0.0
  0
VERTEX
  5
29F0
  8
3
 10
131.9
 20
29.67555078120006
 30
0.0
  0
SEQEND
  5
2C6A
  8
3
  0
LINE
  5
D7B
  8
3
 10
134.4
 20
28.62935647339998
 30
0.0
 11
134.4
 21
30.96762506359994
 31
0.0
  0
LINE
  5
D7C
  8
3
 10
133.15
 20
28.26851255520012
 30
0.0
 11
134.4
 21
28.62935647339998
 31
0.0
  0
LINE
  5
D7D
  8
3
 10
135.65
 20
28.26851255520012
 30
0.0
 11
134.4
 21
28.62935647339998
 31
0.0
  0
POLYLINE
  5
D7E
  8
3
 66
     1
 10
0.0
 20
0.0
 30
0.0
  0
VERTEX
  5
29F1
  8
3
 10
131.9
 20
29.75359033250004
 30
0.0
  0
VERTEX
  5
29F2
  8
3
 10
132.0223587093
 20
30.13986157550005
 30
0.0
  0
VERTEX
  5
29F3
  8
3
 10
132.3774575140999
 20
30.48832189789994
 30
0.0
  0
VERTEX
  5
29F4
  8
3
 10
132.9305368692999
 20
30.76486157550005
 30
0.0
  0
VERTEX
  5
29F5
  8
3
 10
133.6274575140999
 20
30.94241097790007
 30
0.0
  0
VERTEX
  5
29F6
  8
3
 10
134.4
 20
31.00359033250004
 30
0.0
  0
VERTEX
  5
29F7
  8
3
 10
135.1725424859999
 20
30.94241097790007
 30
0.0
  0
VERTEX
  5
29F8
  8
3
 10
135.8694631307999
 20
30.76486157550005
 30
0.0
  0
VERTEX
  5
29F9
  8
3
 10
136.4225424859999
 20
30.48832189789994
 30
0.0
  0
VERTEX
  5
29FA
  8
3
 10
136.7776412908
 20
30.13986157550005
 30
0.0
  0
VERTEX
  5
29FB
  8
3
 10
136.9
 20
29.75359033250004
 30
0.0
  0
VERTEX
  5
29FC
  8
3
 10
136.7776412908
 20
29.36731908960007
 30
0.0
  0
VERTEX
  5
29FD
  8
3
 10
136.4225424859999
 20
29.01885876719996
 30
0.0
  0
VERTEX
  5
29FE
  8
3
 10
135.8694631307999
 20
28.74231908960007
 30
0.0
  0
VERTEX
  5
29FF
  8
3
 10
135.1725424859999
 20
28.56476968720006
 30
0.0
  0
VERTEX
  5
2A00
  8
3
 10
134.4
 20
28.50359033250004
 30
0.0
  0
VERTEX
  5
2A01
  8
3
 10
133.6274575140999
 20
28.56476968720006
 30
0.0
  0
VERTEX
  5
2A02
  8
3
 10
132.9305368692999
 20
28.74231908960007
 30
0.0
  0
VERTEX
  5
2A03
  8
3
 10
132.3774575140999
 20
29.01885876719996
 30
0.0
  0
VERTEX
  5
2A04
  8
3
 10
132.0223587093
 20
29.36731908960007
 30
0.0
  0
VERTEX
  5
2A05
  8
3
 10
131.9
 20
29.75359033250004
 30
0.0
  0
SEQEND
  5
2C69
  8
3
  0
POLYLINE
  5
D7F
  8
3
 66
     1
 10
0.0
 20
0.0
 30
0.0
  0
VERTEX
  5
2A06
  8
3
 10
132.345
 20
30.02343722720013
 30
0.0
  0
VERTEX
  5
2A07
  8
3
 10
132.4689316643
 20
30.37486292439996
 30
0.0
  0
VERTEX
  5
2A08
  8
3
 10
132.8257786694
 20
30.68390149610002
 30
0.0
  0
VERTEX
  5
2A09
  8
3
 10
133.3725
 20
30.91327832950003
 30
0.0
  0
VERTEX
  5
2A0A
  8
3
 10
134.0431529949
 20
31.03532719340012
 30
0.0
  0
VERTEX
  5
2A0B
  8
3
 10
134.7568470051
 20
31.03532719340012
 30
0.0
  0
VERTEX
  5
2A0C
  8
3
 10
135.4275
 20
30.91327832950003
 30
0.0
  0
VERTEX
  5
2A0D
  8
3
 10
135.9742213306
 20
30.68390149610002
 30
0.0
  0
VERTEX
  5
2A0E
  8
3
 10
136.3310683357
 20
30.37486292439996
 30
0.0
  0
VERTEX
  5
2A0F
  8
3
 10
136.455
 20
30.02343722720013
 30
0.0
  0
VERTEX
  5
2A10
  8
3
 10
136.3310683357
 20
29.67201152990003
 30
0.0
  0
VERTEX
  5
2A11
  8
3
 10
135.9742213306
 20
29.36297295819998
 30
0.0
  0
VERTEX
  5
2A12
  8
3
 10
135.4275
 20
29.13359612479996
 30
0.0
  0
VERTEX
  5
2A13
  8
3
 10
134.7568470051
 20
29.0115472609001
 30
0.0
  0
VERTEX
  5
2A14
  8
3
 10
134.0431529949
 20
29.0115472609001
 30
0.0
  0
VERTEX
  5
2A15
  8
3
 10
133.3725
 20
29.13359612479996
 30
0.0
  0
VERTEX
  5
2A16
  8
3
 10
132.8257786694
 20
29.36297295819998
 30
0.0
  0
VERTEX
  5
2A17
  8
3
 10
132.4689316643
 20
29.67201152990003
 30
0.0
  0
VERTEX
  5
2A18
  8
3
 10
132.345
 20
30.02343722720013
 30
0.0
  0
SEQEND
  5
2C68
  8
3
  0
POLYLINE
  5
D80
  8
3
 66
     1
 10
0.0
 20
0.0
 30
0.0
  0
VERTEX
  5
2A19
  8
3
 10
132.1438968732
 20
30.14538566370004
 30
0.0
  0
VERTEX
  5
2A1A
  8
3
 10
132.2661387635999
 20
29.77910791989996
 30
0.0
  0
VERTEX
  5
2A1B
  8
3
 10
132.6196176293
 20
29.45252205290001
 30
0.0
  0
VERTEX
  5
2A1C
  8
3
 10
133.1660285503
 20
29.20101870910014
 30
0.0
  0
VERTEX
  5
2A1D
  8
3
 10
133.8461594249
 20
29.05185217819997
 30
0.0
  0
VERTEX
  5
2A1E
  8
3
 10
134.5863075196
 20
29.02118696829996
 30
0.0
  0
VERTEX
  5
2A1F
  8
3
 10
135.3062663036
 20
29.11234613089994
 30
0.0
  0
VERTEX
  5
2A20
  8
3
 10
135.9280170715
 20
29.31545115610004
 30
0.0
  0
VERTEX
  5
2A21
  8
3
 10
136.3841834801
 20
29.60849246290002
 30
0.0
  0
VERTEX
  5
2A22
  8
3
 10
136.6253328208
 20
29.95971447880004
 30
0.0
  0
VERTEX
  5
2A23
  8
3
 10
136.6253328208
 20
30.33105684860004
 30
0.0
  0
VERTEX
  5
2A24
  8
3
 10
136.3841834801
 20
30.68227886460011
 30
0.0
  0
VERTEX
  5
2A25
  8
3
 10
135.9280170715
 20
30.97532017140009
 30
0.0
  0
VERTEX
  5
2A26
  8
3
 10
135.3062663036
 20
31.17842519659996
 30
0.0
  0
VERTEX
  5
2A27
  8
3
 10
134.5863075196
 20
31.26958435919994
 30
0.0
  0
VERTEX
  5
2A28
  8
3
 10
133.8461594249
 20
31.23891914929993
 30
0.0
  0
VERTEX
  5
2A29
  8
3
 10
133.1660285503
 20
31.08975261839998
 30
0.0
  0
VERTEX
  5
2A2A
  8
3
 10
132.6196176293
 20
30.83824927460012
 30
0.0
  0
VERTEX
  5
2A2B
  8
3
 10
132.2661387635999
 20
30.51166340759994
 30
0.0
  0
VERTEX
  5
2A2C
  8
3
 10
132.1438968732
 20
30.14538566370004
 30
0.0
  0
SEQEND
  5
2C67
  8
3
  0
LINE
  5
D81
  8
3
 10
133.15
 20
28.26851255520012
 30
0.0
 11
133.15
 21
27.54682471870012
 31
0.0
  0
LINE
  5
D82
  8
3
 10
133.15
 20
28.26851255520012
 30
0.0
 11
133.15
 21
30.60678114540008
 31
0.0
  0
LINE
  5
D83
  8
3
 10
135.65
 20
28.26851255520012
 30
0.0
 11
135.65
 21
27.54682471870012
 31
0.0
  0
LINE
  5
D84
  8
3
 10
135.65
 20
28.26851255520012
 30
0.0
 11
135.65
 21
30.60678114540008
 31
0.0
  0
POLYLINE
  5
D85
  8
3
 66
     1
 10
0.0
 20
0.0
 30
0.0
  0
VERTEX
  5
2A2D
  8
3
 10
134.4
 20
31.27343722720013
 30
0.0
  0
VERTEX
  5
2A2E
  8
3
 10
135.1028513946
 20
31.2114713950001
 30
0.0
  0
VERTEX
  5
2A2F
  8
3
 10
135.7209285379
 20
31.03304789250012
 30
0.0
  0
VERTEX
  5
2A30
  8
3
 10
136.1796822048
 20
30.75968722720006
 30
0.0
  0
VERTEX
  5
2A31
  8
3
 10
136.4237799324999
 20
30.42436072969997
 30
0.0
  0
VERTEX
  5
2A32
  8
3
 10
136.4237799324999
 20
30.06751372459996
 30
0.0
  0
VERTEX
  5
2A33
  8
3
 10
136.1796822048
 20
29.73218722720014
 30
0.0
  0
VERTEX
  5
2A34
  8
3
 10
135.7209285379
 20
29.45882656190008
 30
0.0
  0
VERTEX
  5
2A35
  8
3
 10
135.1028513946
 20
29.28040305930006
 30
0.0
  0
VERTEX
  5
2A36
  8
3
 10
134.4
 20
29.21843722720007
 30
0.0
  0
VERTEX
  5
2A37
  8
3
 10
133.6971486055
 20
29.28040305930006
 30
0.0
  0
VERTEX
  5
2A38
  8
3
 10
133.0790714621
 20
29.45882656190008
 30
0.0
  0
VERTEX
  5
2A39
  8
3
 10
132.6203177953
 20
29.73218722720014
 30
0.0
  0
VERTEX
  5
2A3A
  8
3
 10
132.3762200675999
 20
30.06751372459996
 30
0.0
  0
VERTEX
  5
2A3B
  8
3
 10
132.3762200675999
 20
30.42436072969997
 30
0.0
  0
VERTEX
  5
2A3C
  8
3
 10
132.6203177953
 20
30.75968722720006
 30
0.0
  0
VERTEX
  5
2A3D
  8
3
 10
133.0790714621
 20
31.03304789250012
 30
0.0
  0
VERTEX
  5
2A3E
  8
3
 10
133.6971486055
 20
31.2114713950001
 30
0.0
  0
VERTEX
  5
2A3F
  8
3
 10
134.4
 20
31.27343722720013
 30
0.0
  0
SEQEND
  5
2C66
  8
3
  0
LINE
  5
D86
  8
3
 10
133.15
 20
30.60678114540008
 30
0.0
 11
134.4
 21
30.96762506359994
 31
0.0
  0
LINE
  5
D87
  8
3
 10
135.65
 20
30.60678114540008
 30
0.0
 11
134.4
 21
30.96762506359994
 31
0.0
  0
LINE
  5
D88
  8
3
 10
134.4
 20
27.18598080050003
 30
0.0
 11
134.4
 21
28.62935647339998
 31
0.0
  0
LINE
  5
D89
  8
3
 10
135.65
 20
29.88509330890008
 30
0.0
 11
134.4
 21
29.52424939069999
 31
0.0
  0
LINE
  5
D8A
  8
3
 10
135.65
 20
27.54682471870012
 30
0.0
 11
134.4
 21
27.18598080050003
 31
0.0
  0
LINE
  5
D8B
  8
3
 10
133.15
 20
29.88509330890008
 30
0.0
 11
134.4
 21
29.52424939069999
 31
0.0
  0
LINE
  5
D8C
  8
3
 10
133.15
 20
27.54682471870012
 30
0.0
 11
134.4
 21
27.18598080050003
 31
0.0
  0
POLYLINE
  5
D8D
  8
3
 66
     1
 10
0.0
 20
0.0
 30
0.0
  0
VERTEX
  5
2A40
  8
3
 10
134.4
 20
-25.92478480450006
 30
0.0
  0
VERTEX
  5
2A41
  8
3
 10
133.7678270842
 20
-25.86569800519999
 30
0.0
  0
VERTEX
  5
2A42
  8
3
 10
133.2210326236
 20
-25.69641760699994
 30
0.0
  0
VERTEX
  5
2A43
  8
3
 10
132.8334642402
 20
-25.43980586579994
 30
0.0
  0
VERTEX
  5
2A44
  8
3
 10
132.6574651915
 20
-25.13051961899998
 30
0.0
  0
VERTEX
  5
2A45
  8
3
 10
132.7168051245
 20
-24.81032968819989
 30
0.0
  0
VERTEX
  5
2A46
  8
3
 10
133.0034698523
 20
-24.52247949759987
 30
0.0
  0
VERTEX
  5
2A47
  8
3
 10
133.478743715
 20
-24.30584481070002
 30
0.0
  0
VERTEX
  5
2A48
  8
3
 10
134.0784383438
 20
-24.18968334229987
 30
0.0
  0
VERTEX
  5
2A49
  8
3
 10
134.7215616562
 20
-24.18968334229987
 30
0.0
  0
VERTEX
  5
2A4A
  8
3
 10
135.3212562851
 20
-24.30584481070002
 30
0.0
  0
VERTEX
  5
2A4B
  8
3
 10
135.7965301478
 20
-24.52247949759987
 30
0.0
  0
VERTEX
  5
2A4C
  8
3
 10
136.0831948756
 20
-24.81032968819989
 30
0.0
  0
VERTEX
  5
2A4D
  8
3
 10
136.1425348085
 20
-25.13051961899998
 30
0.0
  0
VERTEX
  5
2A4E
  8
3
 10
135.9665357599
 20
-25.43980586579994
 30
0.0
  0
VERTEX
  5
2A4F
  8
3
 10
135.5789673764
 20
-25.69641760699994
 30
0.0
  0
VERTEX
  5
2A50
  8
3
 10
135.0321729159
 20
-25.86569800519999
 30
0.0
  0
VERTEX
  5
2A51
  8
3
 10
134.4
 20
-25.92478480450006
 30
0.0
  0
SEQEND
  5
2C65
  8
3
  0
POLYLINE
  5
D8E
  8
3
 66
     1
 10
0.0
 20
0.0
 30
0.0
  0
VERTEX
  5
2A52
  8
3
 10
132.0832672566
 20
-25.54058975750002
 30
0.0
  0
VERTEX
  5
2A53
  8
3
 10
132.2087942269
 20
-25.16446881140007
 30
0.0
  0
VERTEX
  5
2A54
  8
3
 10
132.5717723426999
 20
-24.82910640600005
 30
0.0
  0
VERTEX
  5
2A55
  8
3
 10
133.1328672931
 20
-24.57084426149993
 30
0.0
  0
VERTEX
  5
2A56
  8
3
 10
133.8312757339
 20
-24.41766908869988
 30
0.0
  0
VERTEX
  5
2A57
  8
3
 10
134.5913142735999
 20
-24.38617979419985
 30
0.0
  0
VERTEX
  5
2A58
  8
3
 10
135.3306209432
 20
-24.47978873170007
 30
0.0
  0
VERTEX
  5
2A59
  8
3
 10
135.9690803935
 20
-24.68835192049994
 30
0.0
  0
VERTEX
  5
2A5A
  8
3
 10
136.4375056365
 20
-24.9892683027
 30
0.0
  0
VERTEX
  5
2A5B
  8
3
 10
136.6851355285
 20
-25.34992891909985
 30
0.0
  0
VERTEX
  5
2A5C
  8
3
 10
136.6851355285
 20
-25.73125059579991
 30
0.0
  0
VERTEX
  5
2A5D
  8
3
 10
136.4375056365
 20
-26.09191121230003
 30
0.0
  0
VERTEX
  5
2A5E
  8
3
 10
135.9690803935
 20
-26.39282759449986
 30
0.0
  0
VERTEX
  5
2A5F
  8
3
 10
135.3306209432
 20
-26.60139078319992
 30
0.0
  0
VERTEX
  5
2A60
  8
3
 10
134.5913142735999
 20
-26.69499972069991
 30
0.0
  0
VERTEX
  5
2A61
  8
3
 10
133.8312757339
 20
-26.66351042629992
 30
0.0
  0
VERTEX
  5
2A62
  8
3
 10
133.1328672931
 20
-26.51033525340006
 30
0.0
  0
VERTEX
  5
2A63
  8
3
 10
132.5717723426999
 20
-26.25207310889994
 30
0.0
  0
VERTEX
  5
2A64
  8
3
 10
132.2087942269
 20
-25.91671070349992
 30
0.0
  0
VERTEX
  5
2A65
  8
3
 10
132.0832672566
 20
-25.54058975750002
 30
0.0
  0
SEQEND
  5
2C64
  8
3
  0
POLYLINE
  5
D8F
  8
3
 66
     1
 10
0.0
 20
0.0
 30
0.0
  0
VERTEX
  5
2A66
  8
3
 10
136.455
 20
-25.69930384299994
 30
0.0
  0
VERTEX
  5
2A67
  8
3
 10
136.3310683357
 20
-26.0507295402
 30
0.0
  0
VERTEX
  5
2A68
  8
3
 10
135.9742213306
 20
-26.35976811190005
 30
0.0
  0
VERTEX
  5
2A69
  8
3
 10
135.4275
 20
-26.58914494530006
 30
0.0
  0
VERTEX
  5
2A6A
  8
3
 10
134.7568470051
 20
-26.71119380919993
 30
0.0
  0
VERTEX
  5
2A6B
  8
3
 10
134.0431529949
 20
-26.71119380919993
 30
0.0
  0
VERTEX
  5
2A6C
  8
3
 10
133.3725
 20
-26.58914494530006
 30
0.0
  0
VERTEX
  5
2A6D
  8
3
 10
132.8257786694
 20
-26.35976811190005
 30
0.0
  0
VERTEX
  5
2A6E
  8
3
 10
132.4689316643
 20
-26.0507295402
 30
0.0
  0
VERTEX
  5
2A6F
  8
3
 10
132.345
 20
-25.69930384299994
 30
0.0
  0
VERTEX
  5
2A70
  8
3
 10
132.4689316643
 20
-25.34787814570007
 30
0.0
  0
VERTEX
  5
2A71
  8
3
 10
132.8257786694
 20
-25.03883957400001
 30
0.0
  0
VERTEX
  5
2A72
  8
3
 10
133.3725
 20
-24.8094627406
 30
0.0
  0
VERTEX
  5
2A73
  8
3
 10
134.0431529949
 20
-24.68741387669991
 30
0.0
  0
VERTEX
  5
2A74
  8
3
 10
134.7568470051
 20
-24.68741387669991
 30
0.0
  0
VERTEX
  5
2A75
  8
3
 10
135.4275
 20
-24.8094627406
 30
0.0
  0
VERTEX
  5
2A76
  8
3
 10
135.9742213306
 20
-25.03883957400001
 30
0.0
  0
VERTEX
  5
2A77
  8
3
 10
136.3310683357
 20
-25.34787814570007
 30
0.0
  0
VERTEX
  5
2A78
  8
3
 10
136.455
 20
-25.69930384299994
 30
0.0
  0
SEQEND
  5
2C63
  8
3
  0
POLYLINE
  5
D90
  8
3
 66
     1
 10
0.0
 20
0.0
 30
0.0
  0
VERTEX
  5
2A79
  8
3
 10
136.9
 20
-25.96915073759999
 30
0.0
  0
VERTEX
  5
2A7A
  8
3
 10
136.7776412908
 20
-26.35542198049995
 30
0.0
  0
VERTEX
  5
2A7B
  8
3
 10
136.4225424859999
 20
-26.70388230290007
 30
0.0
  0
VERTEX
  5
2A7C
  8
3
 10
135.8694631307999
 20
-26.98042198049995
 30
0.0
  0
VERTEX
  5
2A7D
  8
3
 10
135.1725424859999
 20
-27.15797138289997
 30
0.0
  0
VERTEX
  5
2A7E
  8
3
 10
134.4
 20
-27.21915073759999
 30
0.0
  0
VERTEX
  5
2A7F
  8
3
 10
133.6274575140999
 20
-27.15797138289997
 30
0.0
  0
VERTEX
  5
2A80
  8
3
 10
132.9305368692999
 20
-26.98042198049995
 30
0.0
  0
VERTEX
  5
2A81
  8
3
 10
132.3774575140999
 20
-26.70388230290007
 30
0.0
  0
VERTEX
  5
2A82
  8
3
 10
132.0223587093
 20
-26.35542198049995
 30
0.0
  0
VERTEX
  5
2A83
  8
3
 10
131.9
 20
-25.96915073759999
 30
0.0
  0
VERTEX
  5
2A84
  8
3
 10
132.0223587093
 20
-25.58287949459998
 30
0.0
  0
VERTEX
  5
2A85
  8
3
 10
132.3774575140999
 20
-25.23441917219986
 30
0.0
  0
VERTEX
  5
2A86
  8
3
 10
132.9305368692999
 20
-24.95787949459998
 30
0.0
  0
VERTEX
  5
2A87
  8
3
 10
133.6274575140999
 20
-24.78033009219996
 30
0.0
  0
VERTEX
  5
2A88
  8
3
 10
134.4
 20
-24.71915073759999
 30
0.0
  0
VERTEX
  5
2A89
  8
3
 10
135.1725424859999
 20
-24.78033009219996
 30
0.0
  0
VERTEX
  5
2A8A
  8
3
 10
135.8694631307999
 20
-24.95787949459998
 30
0.0
  0
VERTEX
  5
2A8B
  8
3
 10
136.4225424859999
 20
-25.23441917219986
 30
0.0
  0
VERTEX
  5
2A8C
  8
3
 10
136.7776412908
 20
-25.58287949459998
 30
0.0
  0
VERTEX
  5
2A8D
  8
3
 10
136.9
 20
-25.96915073759999
 30
0.0
  0
SEQEND
  5
2C62
  8
3
  0
POLYLINE
  5
D91
  8
3
 66
     1
 10
0.0
 20
0.0
 30
0.0
  0
VERTEX
  5
2A8E
  8
3
 10
136.9
 20
-26.04719028889997
 30
0.0
  0
VERTEX
  5
2A8F
  8
3
 10
136.7776412908
 20
-26.43346153189998
 30
0.0
  0
VERTEX
  5
2A90
  8
3
 10
136.4225424859999
 20
-26.78192185429987
 30
0.0
  0
VERTEX
  5
2A91
  8
3
 10
135.8694631307999
 20
-27.05846153189998
 30
0.0
  0
VERTEX
  5
2A92
  8
3
 10
135.1725424859999
 20
-27.2360109343
 30
0.0
  0
VERTEX
  5
2A93
  8
3
 10
134.4
 20
-27.29719028889997
 30
0.0
  0
VERTEX
  5
2A94
  8
3
 10
133.6274575140999
 20
-27.2360109343
 30
0.0
  0
VERTEX
  5
2A95
  8
3
 10
132.9305368692999
 20
-27.05846153189998
 30
0.0
  0
VERTEX
  5
2A96
  8
3
 10
132.3774575140999
 20
-26.78192185429987
 30
0.0
  0
VERTEX
  5
2A97
  8
3
 10
132.0223587093
 20
-26.43346153189998
 30
0.0
  0
VERTEX
  5
2A98
  8
3
 10
131.9
 20
-26.04719028889997
 30
0.0
  0
VERTEX
  5
2A99
  8
3
 10
132.0223587093
 20
-25.660919046
 30
0.0
  0
VERTEX
  5
2A9A
  8
3
 10
132.3774575140999
 20
-25.31245872359989
 30
0.0
  0
VERTEX
  5
2A9B
  8
3
 10
132.9305368692999
 20
-25.035919046
 30
0.0
  0
VERTEX
  5
2A9C
  8
3
 10
133.6274575140999
 20
-24.85836964359999
 30
0.0
  0
VERTEX
  5
2A9D
  8
3
 10
134.4
 20
-24.79719028889997
 30
0.0
  0
VERTEX
  5
2A9E
  8
3
 10
135.1725424859999
 20
-24.85836964359999
 30
0.0
  0
VERTEX
  5
2A9F
  8
3
 10
135.8694631307999
 20
-25.035919046
 30
0.0
  0
VERTEX
  5
2AA0
  8
3
 10
136.4225424859999
 20
-25.31245872359989
 30
0.0
  0
VERTEX
  5
2AA1
  8
3
 10
136.7776412908
 20
-25.660919046
 30
0.0
  0
VERTEX
  5
2AA2
  8
3
 10
136.9
 20
-26.04719028889997
 30
0.0
  0
SEQEND
  5
2C61
  8
3
  0
POLYLINE
  5
D92
  8
3
 66
     1
 10
0.0
 20
0.0
 30
0.0
  0
VERTEX
  5
2AA3
  8
3
 10
136.455
 20
-26.31703718360006
 30
0.0
  0
VERTEX
  5
2AA4
  8
3
 10
136.3310683357
 20
-26.66846288079989
 30
0.0
  0
VERTEX
  5
2AA5
  8
3
 10
135.9742213306
 20
-26.97750145249995
 30
0.0
  0
VERTEX
  5
2AA6
  8
3
 10
135.4275
 20
-27.20687828589996
 30
0.0
  0
VERTEX
  5
2AA7
  8
3
 10
134.7568470051
 20
-27.32892714980005
 30
0.0
  0
VERTEX
  5
2AA8
  8
3
 10
134.0431529949
 20
-27.32892714980005
 30
0.0
  0
VERTEX
  5
2AA9
  8
3
 10
133.3725
 20
-27.20687828589996
 30
0.0
  0
VERTEX
  5
2AAA
  8
3
 10
132.8257786694
 20
-26.97750145249995
 30
0.0
  0
VERTEX
  5
2AAB
  8
3
 10
132.4689316643
 20
-26.66846288079989
 30
0.0
  0
VERTEX
  5
2AAC
  8
3
 10
132.345
 20
-26.31703718360006
 30
0.0
  0
VERTEX
  5
2AAD
  8
3
 10
132.4689316643
 20
-25.96561148629996
 30
0.0
  0
VERTEX
  5
2AAE
  8
3
 10
132.8257786694
 20
-25.65657291459991
 30
0.0
  0
VERTEX
  5
2AAF
  8
3
 10
133.3725
 20
-25.4271960811999
 30
0.0
  0
VERTEX
  5
2AB0
  8
3
 10
134.0431529949
 20
-25.30514721730003
 30
0.0
  0
VERTEX
  5
2AB1
  8
3
 10
134.7568470051
 20
-25.30514721730003
 30
0.0
  0
VERTEX
  5
2AB2
  8
3
 10
135.4275
 20
-25.4271960811999
 30
0.0
  0
VERTEX
  5
2AB3
  8
3
 10
135.9742213306
 20
-25.65657291459991
 30
0.0
  0
VERTEX
  5
2AB4
  8
3
 10
136.3310683357
 20
-25.96561148629996
 30
0.0
  0
VERTEX
  5
2AB5
  8
3
 10
136.455
 20
-26.31703718360006
 30
0.0
  0
SEQEND
  5
2C60
  8
3
  0
POLYLINE
  5
D93
  8
3
 66
     1
 10
0.0
 20
0.0
 30
0.0
  0
VERTEX
  5
2AB6
  8
3
 10
136.9
 20
-26.58688407819989
 30
0.0
  0
VERTEX
  5
2AB7
  8
3
 10
136.7776412908
 20
-26.97315532109985
 30
0.0
  0
VERTEX
  5
2AB8
  8
3
 10
136.4225424859999
 20
-27.32161564349997
 30
0.0
  0
VERTEX
  5
2AB9
  8
3
 10
135.8694631307
 20
-27.59815532109985
 30
0.0
  0
VERTEX
  5
2ABA
  8
3
 10
135.1725424859999
 20
-27.77570472359992
 30
0.0
  0
VERTEX
  5
2ABB
  8
3
 10
134.4
 20
-27.83688407819989
 30
0.0
  0
VERTEX
  5
2ABC
  8
3
 10
133.6274575140999
 20
-27.77570472359992
 30
0.0
  0
VERTEX
  5
2ABD
  8
3
 10
132.9305368692999
 20
-27.59815532109985
 30
0.0
  0
VERTEX
  5
2ABE
  8
3
 10
132.3774575140999
 20
-27.32161564349997
 30
0.0
  0
VERTEX
  5
2ABF
  8
3
 10
132.0223587093
 20
-26.97315532109985
 30
0.0
  0
VERTEX
  5
2AC0
  8
3
 10
131.9
 20
-26.58688407819989
 30
0.0
  0
VERTEX
  5
2AC1
  8
3
 10
132.0223587093
 20
-26.20061283519988
 30
0.0
  0
VERTEX
  5
2AC2
  8
3
 10
132.3774575140999
 20
-25.85215251279999
 30
0.0
  0
VERTEX
  5
2AC3
  8
3
 10
132.9305368692999
 20
-25.57561283519988
 30
0.0
  0
VERTEX
  5
2AC4
  8
3
 10
133.6274575140999
 20
-25.39806343279986
 30
0.0
  0
VERTEX
  5
2AC5
  8
3
 10
134.4
 20
-25.33688407819989
 30
0.0
  0
VERTEX
  5
2AC6
  8
3
 10
135.1725424859999
 20
-25.39806343279986
 30
0.0
  0
VERTEX
  5
2AC7
  8
3
 10
135.8694631307
 20
-25.57561283519988
 30
0.0
  0
VERTEX
  5
2AC8
  8
3
 10
136.4225424859999
 20
-25.85215251279999
 30
0.0
  0
VERTEX
  5
2AC9
  8
3
 10
136.7776412908
 20
-26.20061283519988
 30
0.0
  0
VERTEX
  5
2ACA
  8
3
 10
136.9
 20
-26.58688407819989
 30
0.0
  0
SEQEND
  5
2C5F
  8
3
  0
POLYLINE
  5
D94
  8
3
 66
     1
 10
0.0
 20
0.0
 30
0.0
  0
VERTEX
  5
2ACB
  8
3
 10
136.9
 20
-26.66492362949987
 30
0.0
  0
VERTEX
  5
2ACC
  8
3
 10
136.7776412908
 20
-27.05119487249988
 30
0.0
  0
VERTEX
  5
2ACD
  8
3
 10
136.4225424859999
 20
-27.39965519489999
 30
0.0
  0
VERTEX
  5
2ACE
  8
3
 10
135.8694631307
 20
-27.67619487249988
 30
0.0
  0
VERTEX
  5
2ACF
  8
3
 10
135.1725424859999
 20
-27.8537442748999
 30
0.0
  0
VERTEX
  5
2AD0
  8
3
 10
134.4
 20
-27.91492362949987
 30
0.0
  0
VERTEX
  5
2AD1
  8
3
 10
133.6274575140999
 20
-27.8537442748999
 30
0.0
  0
VERTEX
  5
2AD2
  8
3
 10
132.9305368692999
 20
-27.67619487249988
 30
0.0
  0
VERTEX
  5
2AD3
  8
3
 10
132.3774575140999
 20
-27.39965519489999
 30
0.0
  0
VERTEX
  5
2AD4
  8
3
 10
132.0223587093
 20
-27.05119487249988
 30
0.0
  0
VERTEX
  5
2AD5
  8
3
 10
131.9
 20
-26.66492362949987
 30
0.0
  0
VERTEX
  5
2AD6
  8
3
 10
132.0223587093
 20
-26.2786523865999
 30
0.0
  0
VERTEX
  5
2AD7
  8
3
 10
132.3774575140999
 20
-25.93019206420001
 30
0.0
  0
VERTEX
  5
2AD8
  8
3
 10
132.9305368692999
 20
-25.6536523865999
 30
0.0
  0
VERTEX
  5
2AD9
  8
3
 10
133.6274575140999
 20
-25.47610298419988
 30
0.0
  0
VERTEX
  5
2ADA
  8
3
 10
134.4
 20
-25.41492362949987
 30
0.0
  0
VERTEX
  5
2ADB
  8
3
 10
135.1725424859999
 20
-25.47610298419988
 30
0.0
  0
VERTEX
  5
2ADC
  8
3
 10
135.8694631307
 20
-25.6536523865999
 30
0.0
  0
VERTEX
  5
2ADD
  8
3
 10
136.4225424859999
 20
-25.93019206420001
 30
0.0
  0
VERTEX
  5
2ADE
  8
3
 10
136.7776412908
 20
-26.2786523865999
 30
0.0
  0
VERTEX
  5
2ADF
  8
3
 10
136.9
 20
-26.66492362949987
 30
0.0
  0
SEQEND
  5
2C5E
  8
3
  0
POLYLINE
  5
D95
  8
3
 66
     1
 10
0.0
 20
0.0
 30
0.0
  0
VERTEX
  5
2AE0
  8
3
 10
136.455
 20
-26.93477052419996
 30
0.0
  0
VERTEX
  5
2AE1
  8
3
 10
136.3310683357
 20
-27.28619622140002
 30
0.0
  0
VERTEX
  5
2AE2
  8
3
 10
135.9742213306
 20
-27.59523479309985
 30
0.0
  0
VERTEX
  5
2AE3
  8
3
 10
135.4275
 20
-27.82461162649986
 30
0.0
  0
VERTEX
  5
2AE4
  8
3
 10
134.7568470051
 20
-27.94666049039995
 30
0.0
  0
VERTEX
  5
2AE5
  8
3
 10
134.0431529949
 20
-27.94666049039995
 30
0.0
  0
VERTEX
  5
2AE6
  8
3
 10
133.3725
 20
-27.82461162649986
 30
0.0
  0
VERTEX
  5
2AE7
  8
3
 10
132.8257786694
 20
-27.59523479309985
 30
0.0
  0
VERTEX
  5
2AE8
  8
3
 10
132.4689316643
 20
-27.28619622140002
 30
0.0
  0
VERTEX
  5
2AE9
  8
3
 10
132.345
 20
-26.93477052419996
 30
0.0
  0
VERTEX
  5
2AEA
  8
3
 10
132.4689316643
 20
-26.58334482689986
 30
0.0
  0
VERTEX
  5
2AEB
  8
3
 10
132.8257786694
 20
-26.27430625520003
 30
0.0
  0
VERTEX
  5
2AEC
  8
3
 10
133.3725
 20
-26.04492942180002
 30
0.0
  0
VERTEX
  5
2AED
  8
3
 10
134.0431529949
 20
-25.92288055789993
 30
0.0
  0
VERTEX
  5
2AEE
  8
3
 10
134.7568470051
 20
-25.92288055789993
 30
0.0
  0
VERTEX
  5
2AEF
  8
3
 10
135.4275
 20
-26.04492942180002
 30
0.0
  0
VERTEX
  5
2AF0
  8
3
 10
135.9742213306
 20
-26.27430625520003
 30
0.0
  0
VERTEX
  5
2AF1
  8
3
 10
136.3310683357
 20
-26.58334482689986
 30
0.0
  0
VERTEX
  5
2AF2
  8
3
 10
136.455
 20
-26.93477052419996
 30
0.0
  0
SEQEND
  5
2C5D
  8
3
  0
POLYLINE
  5
D96
  8
3
 66
     1
 10
0.0
 20
0.0
 30
0.0
  0
VERTEX
  5
2AF3
  8
3
 10
136.9
 20
-27.20461741880001
 30
0.0
  0
VERTEX
  5
2AF4
  8
3
 10
136.7776412908
 20
-27.59088866180002
 30
0.0
  0
VERTEX
  5
2AF5
  8
3
 10
136.4225424859999
 20
-27.93934898419991
 30
0.0
  0
VERTEX
  5
2AF6
  8
3
 10
135.8694631307999
 20
-28.21588866180002
 30
0.0
  0
VERTEX
  5
2AF7
  8
3
 10
135.1725424859999
 20
-28.39343806420004
 30
0.0
  0
VERTEX
  5
2AF8
  8
3
 10
134.4
 20
-28.45461741880001
 30
0.0
  0
VERTEX
  5
2AF9
  8
3
 10
133.6274575140999
 20
-28.39343806420004
 30
0.0
  0
VERTEX
  5
2AFA
  8
3
 10
132.9305368692999
 20
-28.21588866180002
 30
0.0
  0
VERTEX
  5
2AFB
  8
3
 10
132.3774575140999
 20
-27.93934898419991
 30
0.0
  0
VERTEX
  5
2AFC
  8
3
 10
132.0223587093
 20
-27.59088866180002
 30
0.0
  0
VERTEX
  5
2AFD
  8
3
 10
131.9
 20
-27.20461741880001
 30
0.0
  0
VERTEX
  5
2AFE
  8
3
 10
132.0223587093
 20
-26.8183461758
 30
0.0
  0
VERTEX
  5
2AFF
  8
3
 10
132.3774575140999
 20
-26.46988585339989
 30
0.0
  0
VERTEX
  5
2B00
  8
3
 10
132.9305368692999
 20
-26.1933461758
 30
0.0
  0
VERTEX
  5
2B01
  8
3
 10
133.6274575140999
 20
-26.01579677339998
 30
0.0
  0
VERTEX
  5
2B02
  8
3
 10
134.4
 20
-25.95461741880001
 30
0.0
  0
VERTEX
  5
2B03
  8
3
 10
135.1725424859999
 20
-26.01579677339998
 30
0.0
  0
VERTEX
  5
2B04
  8
3
 10
135.8694631307999
 20
-26.1933461758
 30
0.0
  0
VERTEX
  5
2B05
  8
3
 10
136.4225424859999
 20
-26.46988585339989
 30
0.0
  0
VERTEX
  5
2B06
  8
3
 10
136.7776412908
 20
-26.8183461758
 30
0.0
  0
VERTEX
  5
2B07
  8
3
 10
136.9
 20
-27.20461741880001
 30
0.0
  0
SEQEND
  5
2C5C
  8
3
  0
POLYLINE
  5
D97
  8
3
 66
     1
 10
0.0
 20
0.0
 30
0.0
  0
VERTEX
  5
2B08
  8
3
 10
136.9
 20
-27.28265697009999
 30
0.0
  0
VERTEX
  5
2B09
  8
3
 10
136.7776412908
 20
-27.6689282131
 30
0.0
  0
VERTEX
  5
2B0A
  8
3
 10
136.4225424859999
 20
-28.01738853549989
 30
0.0
  0
VERTEX
  5
2B0B
  8
3
 10
135.8694631307999
 20
-28.2939282131
 30
0.0
  0
VERTEX
  5
2B0C
  8
3
 10
135.1725424859999
 20
-28.47147761550002
 30
0.0
  0
VERTEX
  5
2B0D
  8
3
 10
134.4
 20
-28.53265697009999
 30
0.0
  0
VERTEX
  5
2B0E
  8
3
 10
133.6274575140999
 20
-28.47147761550002
 30
0.0
  0
VERTEX
  5
2B0F
  8
3
 10
132.9305368692999
 20
-28.2939282131
 30
0.0
  0
VERTEX
  5
2B10
  8
3
 10
132.3774575140999
 20
-28.01738853549989
 30
0.0
  0
VERTEX
  5
2B11
  8
3
 10
132.0223587093
 20
-27.6689282131
 30
0.0
  0
VERTEX
  5
2B12
  8
3
 10
131.9
 20
-27.28265697009999
 30
0.0
  0
VERTEX
  5
2B13
  8
3
 10
132.0223587093
 20
-26.89638572720003
 30
0.0
  0
VERTEX
  5
2B14
  8
3
 10
132.3774575140999
 20
-26.54792540479991
 30
0.0
  0
VERTEX
  5
2B15
  8
3
 10
132.9305368692999
 20
-26.27138572720003
 30
0.0
  0
VERTEX
  5
2B16
  8
3
 10
133.6274575140999
 20
-26.09383632480001
 30
0.0
  0
VERTEX
  5
2B17
  8
3
 10
134.4
 20
-26.03265697009999
 30
0.0
  0
VERTEX
  5
2B18
  8
3
 10
135.1725424859999
 20
-26.09383632480001
 30
0.0
  0
VERTEX
  5
2B19
  8
3
 10
135.8694631307999
 20
-26.27138572720003
 30
0.0
  0
VERTEX
  5
2B1A
  8
3
 10
136.4225424859999
 20
-26.54792540479991
 30
0.0
  0
VERTEX
  5
2B1B
  8
3
 10
136.7776412908
 20
-26.89638572720003
 30
0.0
  0
VERTEX
  5
2B1C
  8
3
 10
136.9
 20
-27.28265697009999
 30
0.0
  0
SEQEND
  5
2C5B
  8
3
  0
POLYLINE
  5
D98
  8
3
 66
     1
 10
0.0
 20
0.0
 30
0.0
  0
VERTEX
  5
2B1D
  8
3
 10
136.455
 20
-27.55250386479986
 30
0.0
  0
VERTEX
  5
2B1E
  8
3
 10
136.3310683357
 20
-27.90392956199992
 30
0.0
  0
VERTEX
  5
2B1F
  8
3
 10
135.9742213306
 20
-28.21296813369997
 30
0.0
  0
VERTEX
  5
2B20
  8
3
 10
135.4275
 20
-28.44234496720003
 30
0.0
  0
VERTEX
  5
2B21
  8
3
 10
134.7568470051
 20
-28.56439383099985
 30
0.0
  0
VERTEX
  5
2B22
  8
3
 10
134.0431529949
 20
-28.56439383099985
 30
0.0
  0
VERTEX
  5
2B23
  8
3
 10
133.3725
 20
-28.44234496720003
 30
0.0
  0
VERTEX
  5
2B24
  8
3
 10
132.8257786694
 20
-28.21296813369997
 30
0.0
  0
VERTEX
  5
2B25
  8
3
 10
132.4689316643
 20
-27.90392956199992
 30
0.0
  0
VERTEX
  5
2B26
  8
3
 10
132.345
 20
-27.55250386479986
 30
0.0
  0
VERTEX
  5
2B27
  8
3
 10
132.4689316643
 20
-27.20107816749999
 30
0.0
  0
VERTEX
  5
2B28
  8
3
 10
132.8257786694
 20
-26.89203959579993
 30
0.0
  0
VERTEX
  5
2B29
  8
3
 10
133.3725
 20
-26.66266276239992
 30
0.0
  0
VERTEX
  5
2B2A
  8
3
 10
134.0431529949
 20
-26.54061389850006
 30
0.0
  0
VERTEX
  5
2B2B
  8
3
 10
134.7568470051
 20
-26.54061389850006
 30
0.0
  0
VERTEX
  5
2B2C
  8
3
 10
135.4275
 20
-26.66266276239992
 30
0.0
  0
VERTEX
  5
2B2D
  8
3
 10
135.9742213306
 20
-26.89203959579993
 30
0.0
  0
VERTEX
  5
2B2E
  8
3
 10
136.3310683357
 20
-27.20107816749999
 30
0.0
  0
VERTEX
  5
2B2F
  8
3
 10
136.455
 20
-27.55250386479986
 30
0.0
  0
SEQEND
  5
2C5A
  8
3
  0
POLYLINE
  5
D99
  8
3
 66
     1
 10
0.0
 20
0.0
 30
0.0
  0
VERTEX
  5
2B30
  8
3
 10
136.9
 20
-27.82235075939991
 30
0.0
  0
VERTEX
  5
2B31
  8
3
 10
136.7776412908
 20
-28.20862200239992
 30
0.0
  0
VERTEX
  5
2B32
  8
3
 10
136.4225424859999
 20
-28.55708232480004
 30
0.0
  0
VERTEX
  5
2B33
  8
3
 10
135.8694631307999
 20
-28.83362200239992
 30
0.0
  0
VERTEX
  5
2B34
  8
3
 10
135.1725424859999
 20
-29.01117140479994
 30
0.0
  0
VERTEX
  5
2B35
  8
3
 10
134.4
 20
-29.07235075939991
 30
0.0
  0
VERTEX
  5
2B36
  8
3
 10
133.6274575140999
 20
-29.01117140479994
 30
0.0
  0
VERTEX
  5
2B37
  8
3
 10
132.9305368692999
 20
-28.83362200239992
 30
0.0
  0
VERTEX
  5
2B38
  8
3
 10
132.3774575140999
 20
-28.55708232480004
 30
0.0
  0
VERTEX
  5
2B39
  8
3
 10
132.0223587093
 20
-28.20862200239992
 30
0.0
  0
VERTEX
  5
2B3A
  8
3
 10
131.9
 20
-27.82235075939991
 30
0.0
  0
VERTEX
  5
2B3B
  8
3
 10
132.0223587093
 20
-27.4360795163999
 30
0.0
  0
VERTEX
  5
2B3C
  8
3
 10
132.3774575140999
 20
-27.08761919400001
 30
0.0
  0
VERTEX
  5
2B3D
  8
3
 10
132.9305368692999
 20
-26.8110795163999
 30
0.0
  0
VERTEX
  5
2B3E
  8
3
 10
133.6274575140999
 20
-26.63353011399988
 30
0.0
  0
VERTEX
  5
2B3F
  8
3
 10
134.4
 20
-26.57235075939991
 30
0.0
  0
VERTEX
  5
2B40
  8
3
 10
135.1725424859999
 20
-26.63353011399988
 30
0.0
  0
VERTEX
  5
2B41
  8
3
 10
135.8694631307999
 20
-26.8110795163999
 30
0.0
  0
VERTEX
  5
2B42
  8
3
 10
136.4225424859999
 20
-27.08761919400001
 30
0.0
  0
VERTEX
  5
2B43
  8
3
 10
136.7776412908
 20
-27.4360795163999
 30
0.0
  0
VERTEX
  5
2B44
  8
3
 10
136.9
 20
-27.82235075939991
 30
0.0
  0
SEQEND
  5
2C59
  8
3
  0
POLYLINE
  5
D9A
  8
3
 66
     1
 10
0.0
 20
0.0
 30
0.0
  0
VERTEX
  5
2B45
  8
3
 10
136.9
 20
-27.90039031069989
 30
0.0
  0
VERTEX
  5
2B46
  8
3
 10
136.7776412908
 20
-28.2866615536999
 30
0.0
  0
VERTEX
  5
2B47
  8
3
 10
136.4225424859999
 20
-28.63512187610002
 30
0.0
  0
VERTEX
  5
2B48
  8
3
 10
135.8694631307999
 20
-28.9116615536999
 30
0.0
  0
VERTEX
  5
2B49
  8
3
 10
135.1725424859999
 20
-29.08921095609992
 30
0.0
  0
VERTEX
  5
2B4A
  8
3
 10
134.4
 20
-29.15039031069989
 30
0.0
  0
VERTEX
  5
2B4B
  8
3
 10
133.6274575140999
 20
-29.08921095609992
 30
0.0
  0
VERTEX
  5
2B4C
  8
3
 10
132.9305368692999
 20
-28.9116615536999
 30
0.0
  0
VERTEX
  5
2B4D
  8
3
 10
132.3774575140999
 20
-28.63512187610002
 30
0.0
  0
VERTEX
  5
2B4E
  8
3
 10
132.0223587093
 20
-28.2866615536999
 30
0.0
  0
VERTEX
  5
2B4F
  8
3
 10
131.9
 20
-27.90039031069989
 30
0.0
  0
VERTEX
  5
2B50
  8
3
 10
132.0223587093
 20
-27.51411906779992
 30
0.0
  0
VERTEX
  5
2B51
  8
3
 10
132.3774575140999
 20
-27.16565874540004
 30
0.0
  0
VERTEX
  5
2B52
  8
3
 10
132.9305368692999
 20
-26.88911906779992
 30
0.0
  0
VERTEX
  5
2B53
  8
3
 10
133.6274575140999
 20
-26.71156966539991
 30
0.0
  0
VERTEX
  5
2B54
  8
3
 10
134.4
 20
-26.65039031069989
 30
0.0
  0
VERTEX
  5
2B55
  8
3
 10
135.1725424859999
 20
-26.71156966539991
 30
0.0
  0
VERTEX
  5
2B56
  8
3
 10
135.8694631307999
 20
-26.88911906779992
 30
0.0
  0
VERTEX
  5
2B57
  8
3
 10
136.4225424859999
 20
-27.16565874540004
 30
0.0
  0
VERTEX
  5
2B58
  8
3
 10
136.7776412908
 20
-27.51411906779992
 30
0.0
  0
VERTEX
  5
2B59
  8
3
 10
136.9
 20
-27.90039031069989
 30
0.0
  0
SEQEND
  5
2C58
  8
3
  0
POLYLINE
  5
D9B
  8
3
 66
     1
 10
0.0
 20
0.0
 30
0.0
  0
VERTEX
  5
2B5A
  8
3
 10
136.455
 20
-28.17023720539999
 30
0.0
  0
VERTEX
  5
2B5B
  8
3
 10
136.3310683357
 20
-28.52166290260004
 30
0.0
  0
VERTEX
  5
2B5C
  8
3
 10
135.9742213306
 20
-28.83070147429987
 30
0.0
  0
VERTEX
  5
2B5D
  8
3
 10
135.4275
 20
-29.06007830779993
 30
0.0
  0
VERTEX
  5
2B5E
  8
3
 10
134.7568470051
 20
-29.18212717159997
 30
0.0
  0
VERTEX
  5
2B5F
  8
3
 10
134.0431529949
 20
-29.18212717159997
 30
0.0
  0
VERTEX
  5
2B60
  8
3
 10
133.3725
 20
-29.06007830779993
 30
0.0
  0
VERTEX
  5
2B61
  8
3
 10
132.8257786694
 20
-28.83070147429987
 30
0.0
  0
VERTEX
  5
2B62
  8
3
 10
132.4689316643
 20
-28.52166290260004
 30
0.0
  0
VERTEX
  5
2B63
  8
3
 10
132.345
 20
-28.17023720539999
 30
0.0
  0
VERTEX
  5
2B64
  8
3
 10
132.4689316643
 20
-27.81881150809988
 30
0.0
  0
VERTEX
  5
2B65
  8
3
 10
132.8257786694
 20
-27.50977293640005
 30
0.0
  0
VERTEX
  5
2B66
  8
3
 10
133.3725
 20
-27.28039610300004
 30
0.0
  0
VERTEX
  5
2B67
  8
3
 10
134.0431529949
 20
-27.1583472392
 30
0.0
  0
VERTEX
  5
2B68
  8
3
 10
134.7568470051
 20
-27.1583472392
 30
0.0
  0
VERTEX
  5
2B69
  8
3
 10
135.4275
 20
-27.28039610300004
 30
0.0
  0
VERTEX
  5
2B6A
  8
3
 10
135.9742213306
 20
-27.50977293640005
 30
0.0
  0
VERTEX
  5
2B6B
  8
3
 10
136.3310683357
 20
-27.81881150809988
 30
0.0
  0
VERTEX
  5
2B6C
  8
3
 10
136.455
 20
-28.17023720539999
 30
0.0
  0
SEQEND
  5
2C57
  8
3
  0
POLYLINE
  5
D9C
  8
3
 66
     1
 10
0.0
 20
0.0
 30
0.0
  0
VERTEX
  5
2B6D
  8
3
 10
136.9
 20
-28.44008410000004
 30
0.0
  0
VERTEX
  5
2B6E
  8
3
 10
136.7776412908
 20
-28.82635534300005
 30
0.0
  0
VERTEX
  5
2B6F
  8
3
 10
136.4225424859999
 20
-29.17481566539993
 30
0.0
  0
VERTEX
  5
2B70
  8
3
 10
135.8694631307999
 20
-29.45135534300005
 30
0.0
  0
VERTEX
  5
2B71
  8
3
 10
135.1725424859999
 20
-29.62890474540006
 30
0.0
  0
VERTEX
  5
2B72
  8
3
 10
134.4
 20
-29.69008410000004
 30
0.0
  0
VERTEX
  5
2B73
  8
3
 10
133.6274575140999
 20
-29.62890474540006
 30
0.0
  0
VERTEX
  5
2B74
  8
3
 10
132.9305368692999
 20
-29.45135534300005
 30
0.0
  0
VERTEX
  5
2B75
  8
3
 10
132.3774575140999
 20
-29.17481566539993
 30
0.0
  0
VERTEX
  5
2B76
  8
3
 10
132.0223587093
 20
-28.82635534300005
 30
0.0
  0
VERTEX
  5
2B77
  8
3
 10
131.9
 20
-28.44008410000004
 30
0.0
  0
VERTEX
  5
2B78
  8
3
 10
132.0223587093
 20
-28.05381285700003
 30
0.0
  0
VERTEX
  5
2B79
  8
3
 10
132.3774575140999
 20
-27.70535253459991
 30
0.0
  0
VERTEX
  5
2B7A
  8
3
 10
132.9305368692999
 20
-27.42881285700003
 30
0.0
  0
VERTEX
  5
2B7B
  8
3
 10
133.6274575140999
 20
-27.25126345460001
 30
0.0
  0
VERTEX
  5
2B7C
  8
3
 10
134.4
 20
-27.19008410000004
 30
0.0
  0
VERTEX
  5
2B7D
  8
3
 10
135.1725424859999
 20
-27.25126345460001
 30
0.0
  0
VERTEX
  5
2B7E
  8
3
 10
135.8694631307999
 20
-27.42881285700003
 30
0.0
  0
VERTEX
  5
2B7F
  8
3
 10
136.4225424859999
 20
-27.70535253459991
 30
0.0
  0
VERTEX
  5
2B80
  8
3
 10
136.7776412908
 20
-28.05381285700003
 30
0.0
  0
VERTEX
  5
2B81
  8
3
 10
136.9
 20
-28.44008410000004
 30
0.0
  0
SEQEND
  5
2C56
  8
3
  0
POLYLINE
  5
D9D
  8
3
 66
     1
 10
0.0
 20
0.0
 30
0.0
  0
VERTEX
  5
2B82
  8
3
 10
136.9
 20
-28.51812365130002
 30
0.0
  0
VERTEX
  5
2B83
  8
3
 10
136.7776412908
 20
-28.90439489430003
 30
0.0
  0
VERTEX
  5
2B84
  8
3
 10
136.4225424859999
 20
-29.25285521669991
 30
0.0
  0
VERTEX
  5
2B85
  8
3
 10
135.8694631307999
 20
-29.52939489430003
 30
0.0
  0
VERTEX
  5
2B86
  8
3
 10
135.1725424859999
 20
-29.70694429670004
 30
0.0
  0
VERTEX
  5
2B87
  8
3
 10
134.4
 20
-29.76812365140006
 30
0.0
  0
VERTEX
  5
2B88
  8
3
 10
133.6274575140999
 20
-29.70694429670004
 30
0.0
  0
VERTEX
  5
2B89
  8
3
 10
132.9305368692999
 20
-29.52939489430003
 30
0.0
  0
VERTEX
  5
2B8A
  8
3
 10
132.3774575140999
 20
-29.25285521669991
 30
0.0
  0
VERTEX
  5
2B8B
  8
3
 10
132.0223587093
 20
-28.90439489430003
 30
0.0
  0
VERTEX
  5
2B8C
  8
3
 10
131.9
 20
-28.51812365130002
 30
0.0
  0
VERTEX
  5
2B8D
  8
3
 10
132.0223587093
 20
-28.13185240840005
 30
0.0
  0
VERTEX
  5
2B8E
  8
3
 10
132.3774575140999
 20
-27.78339208599994
 30
0.0
  0
VERTEX
  5
2B8F
  8
3
 10
132.9305368692999
 20
-27.50685240840005
 30
0.0
  0
VERTEX
  5
2B90
  8
3
 10
133.6274575140999
 20
-27.32930300600003
 30
0.0
  0
VERTEX
  5
2B91
  8
3
 10
134.4
 20
-27.26812365130002
 30
0.0
  0
VERTEX
  5
2B92
  8
3
 10
135.1725424859999
 20
-27.32930300600003
 30
0.0
  0
VERTEX
  5
2B93
  8
3
 10
135.8694631307999
 20
-27.50685240840005
 30
0.0
  0
VERTEX
  5
2B94
  8
3
 10
136.4225424859999
 20
-27.78339208599994
 30
0.0
  0
VERTEX
  5
2B95
  8
3
 10
136.7776412908
 20
-28.13185240840005
 30
0.0
  0
VERTEX
  5
2B96
  8
3
 10
136.9
 20
-28.51812365130002
 30
0.0
  0
SEQEND
  5
2C55
  8
3
  0
POLYLINE
  5
D9E
  8
3
 66
     1
 10
0.0
 20
0.0
 30
0.0
  0
VERTEX
  5
2B97
  8
3
 10
136.455
 20
-28.78797054599988
 30
0.0
  0
VERTEX
  5
2B98
  8
3
 10
136.3310683357
 20
-29.13939624319994
 30
0.0
  0
VERTEX
  5
2B99
  8
3
 10
135.9742213306
 20
-29.4484348149
 30
0.0
  0
VERTEX
  5
2B9A
  8
3
 10
135.4275
 20
-29.67781164840005
 30
0.0
  0
VERTEX
  5
2B9B
  8
3
 10
134.7568470051
 20
-29.79986051219987
 30
0.0
  0
VERTEX
  5
2B9C
  8
3
 10
134.0431529949
 20
-29.79986051219987
 30
0.0
  0
VERTEX
  5
2B9D
  8
3
 10
133.3725
 20
-29.67781164840005
 30
0.0
  0
VERTEX
  5
2B9E
  8
3
 10
132.8257786694
 20
-29.4484348149
 30
0.0
  0
VERTEX
  5
2B9F
  8
3
 10
132.4689316643
 20
-29.13939624319994
 30
0.0
  0
VERTEX
  5
2BA0
  8
3
 10
132.345
 20
-28.78797054599988
 30
0.0
  0
VERTEX
  5
2BA1
  8
3
 10
132.4689316643
 20
-28.43654484870001
 30
0.0
  0
VERTEX
  5
2BA2
  8
3
 10
132.8257786694
 20
-28.12750627699995
 30
0.0
  0
VERTEX
  5
2BA3
  8
3
 10
133.3725
 20
-27.89812944359994
 30
0.0
  0
VERTEX
  5
2BA4
  8
3
 10
134.0431529949
 20
-27.7760805797999
 30
0.0
  0
VERTEX
  5
2BA5
  8
3
 10
134.7568470051
 20
-27.7760805797999
 30
0.0
  0
VERTEX
  5
2BA6
  8
3
 10
135.4275
 20
-27.89812944359994
 30
0.0
  0
VERTEX
  5
2BA7
  8
3
 10
135.9742213306
 20
-28.12750627699995
 30
0.0
  0
VERTEX
  5
2BA8
  8
3
 10
136.3310683357
 20
-28.43654484870001
 30
0.0
  0
VERTEX
  5
2BA9
  8
3
 10
136.455
 20
-28.78797054599988
 30
0.0
  0
SEQEND
  5
2C54
  8
3
  0
POLYLINE
  5
D9F
  8
3
 66
     1
 10
0.0
 20
0.0
 30
0.0
  0
VERTEX
  5
2BAA
  8
3
 10
136.9
 20
-29.05781744059993
 30
0.0
  0
VERTEX
  5
2BAB
  8
3
 10
136.7776412908
 20
-29.44408868359994
 30
0.0
  0
VERTEX
  5
2BAC
  8
3
 10
136.4225424859999
 20
-29.79254900600006
 30
0.0
  0
VERTEX
  5
2BAD
  8
3
 10
135.8694631307999
 20
-30.06908868359994
 30
0.0
  0
VERTEX
  5
2BAE
  8
3
 10
135.1725424859999
 20
-30.24663808599996
 30
0.0
  0
VERTEX
  5
2BAF
  8
3
 10
134.4
 20
-30.30781744059993
 30
0.0
  0
VERTEX
  5
2BB0
  8
3
 10
133.6274575140999
 20
-30.24663808599996
 30
0.0
  0
VERTEX
  5
2BB1
  8
3
 10
132.9305368692999
 20
-30.06908868359994
 30
0.0
  0
VERTEX
  5
2BB2
  8
3
 10
132.3774575140999
 20
-29.79254900600006
 30
0.0
  0
VERTEX
  5
2BB3
  8
3
 10
132.0223587093
 20
-29.44408868359994
 30
0.0
  0
VERTEX
  5
2BB4
  8
3
 10
131.9
 20
-29.05781744059993
 30
0.0
  0
VERTEX
  5
2BB5
  8
3
 10
132.0223587093
 20
-28.67154619759992
 30
0.0
  0
VERTEX
  5
2BB6
  8
3
 10
132.3774575140999
 20
-28.32308587520004
 30
0.0
  0
VERTEX
  5
2BB7
  8
3
 10
132.9305368692999
 20
-28.04654619759992
 30
0.0
  0
VERTEX
  5
2BB8
  8
3
 10
133.6274575140999
 20
-27.86899679519991
 30
0.0
  0
VERTEX
  5
2BB9
  8
3
 10
134.4
 20
-27.80781744059993
 30
0.0
  0
VERTEX
  5
2BBA
  8
3
 10
135.1725424859999
 20
-27.86899679519991
 30
0.0
  0
VERTEX
  5
2BBB
  8
3
 10
135.8694631307999
 20
-28.04654619759992
 30
0.0
  0
VERTEX
  5
2BBC
  8
3
 10
136.4225424859999
 20
-28.32308587520004
 30
0.0
  0
VERTEX
  5
2BBD
  8
3
 10
136.7776412908
 20
-28.67154619759992
 30
0.0
  0
VERTEX
  5
2BBE
  8
3
 10
136.9
 20
-29.05781744059993
 30
0.0
  0
SEQEND
  5
2C53
  8
3
  0
POLYLINE
  5
DA0
  8
3
 66
     1
 10
0.0
 20
0.0
 30
0.0
  0
VERTEX
  5
2BBF
  8
3
 10
136.9
 20
-29.13585699199996
 30
0.0
  0
VERTEX
  5
2BC0
  8
3
 10
136.7776412908
 20
-29.52212823489992
 30
0.0
  0
VERTEX
  5
2BC1
  8
3
 10
136.4225424859999
 20
-29.87058855730004
 30
0.0
  0
VERTEX
  5
2BC2
  8
3
 10
135.8694631307999
 20
-30.14712823489992
 30
0.0
  0
VERTEX
  5
2BC3
  8
3
 10
135.1725424859999
 20
-30.32467763729994
 30
0.0
  0
VERTEX
  5
2BC4
  8
3
 10
134.4
 20
-30.38585699199996
 30
0.0
  0
VERTEX
  5
2BC5
  8
3
 10
133.6274575140999
 20
-30.32467763729994
 30
0.0
  0
VERTEX
  5
2BC6
  8
3
 10
132.9305368692999
 20
-30.14712823489992
 30
0.0
  0
VERTEX
  5
2BC7
  8
3
 10
132.3774575140999
 20
-29.87058855730004
 30
0.0
  0
VERTEX
  5
2BC8
  8
3
 10
132.0223587093
 20
-29.52212823489992
 30
0.0
  0
VERTEX
  5
2BC9
  8
3
 10
131.9
 20
-29.13585699199996
 30
0.0
  0
VERTEX
  5
2BCA
  8
3
 10
132.0223587093
 20
-28.74958574899995
 30
0.0
  0
VERTEX
  5
2BCB
  8
3
 10
132.3774575140999
 20
-28.40112542660006
 30
0.0
  0
VERTEX
  5
2BCC
  8
3
 10
132.9305368692999
 20
-28.12458574899995
 30
0.0
  0
VERTEX
  5
2BCD
  8
3
 10
133.6274575140999
 20
-27.94703634659993
 30
0.0
  0
VERTEX
  5
2BCE
  8
3
 10
134.4
 20
-27.88585699199996
 30
0.0
  0
VERTEX
  5
2BCF
  8
3
 10
135.1725424859999
 20
-27.94703634659993
 30
0.0
  0
VERTEX
  5
2BD0
  8
3
 10
135.8694631307999
 20
-28.12458574899995
 30
0.0
  0
VERTEX
  5
2BD1
  8
3
 10
136.4225424859999
 20
-28.40112542660006
 30
0.0
  0
VERTEX
  5
2BD2
  8
3
 10
136.7776412908
 20
-28.74958574899995
 30
0.0
  0
VERTEX
  5
2BD3
  8
3
 10
136.9
 20
-29.13585699199996
 30
0.0
  0
SEQEND
  5
2C52
  8
3
  0
POLYLINE
  5
DA1
  8
3
 66
     1
 10
0.0
 20
0.0
 30
0.0
  0
VERTEX
  5
2BD4
  8
3
 10
136.455
 20
-29.40570388660001
 30
0.0
  0
VERTEX
  5
2BD5
  8
3
 10
136.3310683357
 20
-29.75712958380007
 30
0.0
  0
VERTEX
  5
2BD6
  8
3
 10
135.9742213306
 20
-30.06616815549989
 30
0.0
  0
VERTEX
  5
2BD7
  8
3
 10
135.4275
 20
-30.29554498899995
 30
0.0
  0
VERTEX
  5
2BD8
  8
3
 10
134.7568470051
 20
-30.4175938528
 30
0.0
  0
VERTEX
  5
2BD9
  8
3
 10
134.0431529949
 20
-30.4175938528
 30
0.0
  0
VERTEX
  5
2BDA
  8
3
 10
133.3725
 20
-30.29554498899995
 30
0.0
  0
VERTEX
  5
2BDB
  8
3
 10
132.8257786694
 20
-30.06616815549989
 30
0.0
  0
VERTEX
  5
2BDC
  8
3
 10
132.4689316643
 20
-29.75712958380007
 30
0.0
  0
VERTEX
  5
2BDD
  8
3
 10
132.345
 20
-29.40570388660001
 30
0.0
  0
VERTEX
  5
2BDE
  8
3
 10
132.4689316643
 20
-29.05427818929991
 30
0.0
  0
VERTEX
  5
2BDF
  8
3
 10
132.8257786694
 20
-28.74523961759985
 30
0.0
  0
VERTEX
  5
2BE0
  8
3
 10
133.3725
 20
-28.51586278420007
 30
0.0
  0
VERTEX
  5
2BE1
  8
3
 10
134.0431529949
 20
-28.39381392040002
 30
0.0
  0
VERTEX
  5
2BE2
  8
3
 10
134.7568470051
 20
-28.39381392040002
 30
0.0
  0
VERTEX
  5
2BE3
  8
3
 10
135.4275
 20
-28.51586278420007
 30
0.0
  0
VERTEX
  5
2BE4
  8
3
 10
135.9742213306
 20
-28.74523961759985
 30
0.0
  0
VERTEX
  5
2BE5
  8
3
 10
136.3310683357
 20
-29.05427818929991
 30
0.0
  0
VERTEX
  5
2BE6
  8
3
 10
136.455
 20
-29.40570388660001
 30
0.0
  0
SEQEND
  5
2C51
  8
3
  0
POLYLINE
  5
DA2
  8
3
 66
     1
 10
0.0
 20
0.0
 30
0.0
  0
VERTEX
  5
2BE7
  8
3
 10
136.9
 20
-29.67555078120006
 30
0.0
  0
VERTEX
  5
2BE8
  8
3
 10
136.7776412908
 20
-30.06182202420007
 30
0.0
  0
VERTEX
  5
2BE9
  8
3
 10
136.4225424859999
 20
-30.41028234659996
 30
0.0
  0
VERTEX
  5
2BEA
  8
3
 10
135.8694631307999
 20
-30.68682202420007
 30
0.0
  0
VERTEX
  5
2BEB
  8
3
 10
135.1725424859999
 20
-30.86437142659986
 30
0.0
  0
VERTEX
  5
2BEC
  8
3
 10
134.4
 20
-30.92555078120006
 30
0.0
  0
VERTEX
  5
2BED
  8
3
 10
133.6274575140999
 20
-30.86437142659986
 30
0.0
  0
VERTEX
  5
2BEE
  8
3
 10
132.9305368692999
 20
-30.68682202420007
 30
0.0
  0
VERTEX
  5
2BEF
  8
3
 10
132.3774575140999
 20
-30.41028234659996
 30
0.0
  0
VERTEX
  5
2BF0
  8
3
 10
132.0223587093
 20
-30.06182202420007
 30
0.0
  0
VERTEX
  5
2BF1
  8
3
 10
131.9
 20
-29.67555078120006
 30
0.0
  0
VERTEX
  5
2BF2
  8
3
 10
132.0223587093
 20
-29.28927953820005
 30
0.0
  0
VERTEX
  5
2BF3
  8
3
 10
132.3774575140999
 20
-28.94081921579993
 30
0.0
  0
VERTEX
  5
2BF4
  8
3
 10
132.9305368692999
 20
-28.66427953820005
 30
0.0
  0
VERTEX
  5
2BF5
  8
3
 10
133.6274575140999
 20
-28.48673013580003
 30
0.0
  0
VERTEX
  5
2BF6
  8
3
 10
134.4
 20
-28.42555078120006
 30
0.0
  0
VERTEX
  5
2BF7
  8
3
 10
135.1725424859999
 20
-28.48673013580003
 30
0.0
  0
VERTEX
  5
2BF8
  8
3
 10
135.8694631307999
 20
-28.66427953820005
 30
0.0
  0
VERTEX
  5
2BF9
  8
3
 10
136.4225424859999
 20
-28.94081921579993
 30
0.0
  0
VERTEX
  5
2BFA
  8
3
 10
136.7776412908
 20
-29.28927953820005
 30
0.0
  0
VERTEX
  5
2BFB
  8
3
 10
136.9
 20
-29.67555078120006
 30
0.0
  0
SEQEND
  5
2C50
  8
3
  0
LINE
  5
DA3
  8
3
 10
134.4
 20
-28.62935647350002
 30
0.0
 11
134.4
 21
-30.96762506369998
 31
0.0
  0
LINE
  5
DA4
  8
3
 10
135.65
 20
-28.26851255519989
 30
0.0
 11
134.4
 21
-28.62935647350002
 31
0.0
  0
LINE
  5
DA5
  8
3
 10
133.15
 20
-28.26851255519989
 30
0.0
 11
134.4
 21
-28.62935647350002
 31
0.0
  0
POLYLINE
  5
DA6
  8
3
 66
     1
 10
0.0
 20
0.0
 30
0.0
  0
VERTEX
  5
2BFC
  8
3
 10
136.9
 20
-29.75359033259986
 30
0.0
  0
VERTEX
  5
2BFD
  8
3
 10
136.7776412908
 20
-30.13986157550005
 30
0.0
  0
VERTEX
  5
2BFE
  8
3
 10
136.4225424859999
 20
-30.48832189789994
 30
0.0
  0
VERTEX
  5
2BFF
  8
3
 10
135.8694631307999
 20
-30.76486157550005
 30
0.0
  0
VERTEX
  5
2C00
  8
3
 10
135.1725424859999
 20
-30.94241097790007
 30
0.0
  0
VERTEX
  5
2C01
  8
3
 10
134.4
 20
-31.00359033259986
 30
0.0
  0
VERTEX
  5
2C02
  8
3
 10
133.6274575140999
 20
-30.94241097790007
 30
0.0
  0
VERTEX
  5
2C03
  8
3
 10
132.9305368692999
 20
-30.76486157550005
 30
0.0
  0
VERTEX
  5
2C04
  8
3
 10
132.3774575140999
 20
-30.48832189789994
 30
0.0
  0
VERTEX
  5
2C05
  8
3
 10
132.0223587093
 20
-30.13986157550005
 30
0.0
  0
VERTEX
  5
2C06
  8
3
 10
131.9
 20
-29.75359033259986
 30
0.0
  0
VERTEX
  5
2C07
  8
3
 10
132.0223587093
 20
-29.36731908959985
 30
0.0
  0
VERTEX
  5
2C08
  8
3
 10
132.3774575140999
 20
-29.01885876719996
 30
0.0
  0
VERTEX
  5
2C09
  8
3
 10
132.9305368692999
 20
-28.74231908959985
 30
0.0
  0
VERTEX
  5
2C0A
  8
3
 10
133.6274575140999
 20
-28.56476968720006
 30
0.0
  0
VERTEX
  5
2C0B
  8
3
 10
134.4
 20
-28.50359033259986
 30
0.0
  0
VERTEX
  5
2C0C
  8
3
 10
135.1725424859999
 20
-28.56476968720006
 30
0.0
  0
VERTEX
  5
2C0D
  8
3
 10
135.8694631307999
 20
-28.74231908959985
 30
0.0
  0
VERTEX
  5
2C0E
  8
3
 10
136.4225424859999
 20
-29.01885876719996
 30
0.0
  0
VERTEX
  5
2C0F
  8
3
 10
136.7776412908
 20
-29.36731908959985
 30
0.0
  0
VERTEX
  5
2C10
  8
3
 10
136.9
 20
-29.75359033259986
 30
0.0
  0
SEQEND
  5
2C4F
  8
3
  0
POLYLINE
  5
DA7
  8
3
 66
     1
 10
0.0
 20
0.0
 30
0.0
  0
VERTEX
  5
2C11
  8
3
 10
136.455
 20
-30.02343722719991
 30
0.0
  0
VERTEX
  5
2C12
  8
3
 10
136.3310683357
 20
-30.37486292450001
 30
0.0
  0
VERTEX
  5
2C13
  8
3
 10
135.9742213306
 20
-30.68390149610002
 30
0.0
  0
VERTEX
  5
2C14
  8
3
 10
135.4275
 20
-30.91327832959985
 30
0.0
  0
VERTEX
  5
2C15
  8
3
 10
134.7568470051
 20
-31.03532719339989
 30
0.0
  0
VERTEX
  5
2C16
  8
3
 10
134.0431529949
 20
-31.03532719339989
 30
0.0
  0
VERTEX
  5
2C17
  8
3
 10
133.3725
 20
-30.91327832959985
 30
0.0
  0
VERTEX
  5
2C18
  8
3
 10
132.8257786694
 20
-30.68390149610002
 30
0.0
  0
VERTEX
  5
2C19
  8
3
 10
132.4689316643
 20
-30.37486292450001
 30
0.0
  0
VERTEX
  5
2C1A
  8
3
 10
132.345
 20
-30.02343722719991
 30
0.0
  0
VERTEX
  5
2C1B
  8
3
 10
132.4689316643
 20
-29.67201152990003
 30
0.0
  0
VERTEX
  5
2C1C
  8
3
 10
132.8257786694
 20
-29.36297295819998
 30
0.0
  0
VERTEX
  5
2C1D
  8
3
 10
133.3725
 20
-29.13359612479996
 30
0.0
  0
VERTEX
  5
2C1E
  8
3
 10
134.0431529949
 20
-29.01154726099992
 30
0.0
  0
VERTEX
  5
2C1F
  8
3
 10
134.7568470051
 20
-29.01154726099992
 30
0.0
  0
VERTEX
  5
2C20
  8
3
 10
135.4275
 20
-29.13359612479996
 30
0.0
  0
VERTEX
  5
2C21
  8
3
 10
135.9742213306
 20
-29.36297295819998
 30
0.0
  0
VERTEX
  5
2C22
  8
3
 10
136.3310683357
 20
-29.67201152990003
 30
0.0
  0
VERTEX
  5
2C23
  8
3
 10
136.455
 20
-30.02343722719991
 30
0.0
  0
SEQEND
  5
2C4E
  8
3
  0
POLYLINE
  5
DA8
  8
3
 66
     1
 10
0.0
 20
0.0
 30
0.0
  0
VERTEX
  5
2C24
  8
3
 10
136.6561031268999
 20
-30.14538566379986
 30
0.0
  0
VERTEX
  5
2C25
  8
3
 10
136.5338612364999
 20
-29.77910791989996
 30
0.0
  0
VERTEX
  5
2C26
  8
3
 10
136.1803823708
 20
-29.45252205290001
 30
0.0
  0
VERTEX
  5
2C27
  8
3
 10
135.6339714498
 20
-29.20101870909991
 30
0.0
  0
VERTEX
  5
2C28
  8
3
 10
134.9538405752
 20
-29.05185217819997
 30
0.0
  0
VERTEX
  5
2C29
  8
3
 10
134.2136924805
 20
-29.02118696829996
 30
0.0
  0
VERTEX
  5
2C2A
  8
3
 10
133.4937336963999
 20
-29.11234613089994
 30
0.0
  0
VERTEX
  5
2C2B
  8
3
 10
132.8719829285
 20
-29.31545115610004
 30
0.0
  0
VERTEX
  5
2C2C
  8
3
 10
132.41581652
 20
-29.60849246290002
 30
0.0
  0
VERTEX
  5
2C2D
  8
3
 10
132.1746671792
 20
-29.95971447889985
 30
0.0
  0
VERTEX
  5
2C2E
  8
3
 10
132.1746671792
 20
-30.33105684869986
 30
0.0
  0
VERTEX
  5
2C2F
  8
3
 10
132.41581652
 20
-30.68227886459988
 30
0.0
  0
VERTEX
  5
2C30
  8
3
 10
132.8719829285
 20
-30.97532017139986
 30
0.0
  0
VERTEX
  5
2C31
  8
3
 10
133.4937336963999
 20
-31.17842519659996
 30
0.0
  0
VERTEX
  5
2C32
  8
3
 10
134.2136924805
 20
-31.26958435919994
 30
0.0
  0
VERTEX
  5
2C33
  8
3
 10
134.9538405752
 20
-31.23891914929993
 30
0.0
  0
VERTEX
  5
2C34
  8
3
 10
135.6339714498
 20
-31.08975261839998
 30
0.0
  0
VERTEX
  5
2C35
  8
3
 10
136.1803823708
 20
-30.83824927459989
 30
0.0
  0
VERTEX
  5
2C36
  8
3
 10
136.5338612364999
 20
-30.51166340759994
 30
0.0
  0
VERTEX
  5
2C37
  8
3
 10
136.6561031268999
 20
-30.14538566379986
 30
0.0
  0
SEQEND
  5
2C4D
  8
3
  0
LINE
  5
DA9
  8
3
 10
135.65
 20
-28.26851255519989
 30
0.0
 11
135.65
 21
-27.5468247186999
 31
0.0
  0
LINE
  5
DAA
  8
3
 10
135.65
 20
-28.26851255519989
 30
0.0
 11
135.65
 21
-30.60678114539985
 31
0.0
  0
LINE
  5
DAB
  8
3
 10
133.15
 20
-28.26851255519989
 30
0.0
 11
133.15
 21
-27.5468247186999
 31
0.0
  0
LINE
  5
DAC
  8
3
 10
133.15
 20
-28.26851255519989
 30
0.0
 11
133.15
 21
-30.60678114539985
 31
0.0
  0
POLYLINE
  5
DAD
  8
3
 66
     1
 10
0.0
 20
0.0
 30
0.0
  0
VERTEX
  5
2C38
  8
3
 10
134.4
 20
-31.27343722719991
 30
0.0
  0
VERTEX
  5
2C39
  8
3
 10
133.6971486055
 20
-31.21147139499988
 30
0.0
  0
VERTEX
  5
2C3A
  8
3
 10
133.0790714621
 20
-31.03304789249989
 30
0.0
  0
VERTEX
  5
2C3B
  8
3
 10
132.6203177953
 20
-30.75968722720006
 30
0.0
  0
VERTEX
  5
2C3C
  8
3
 10
132.3762200675999
 20
-30.42436072969997
 30
0.0
  0
VERTEX
  5
2C3D
  8
3
 10
132.3762200675999
 20
-30.06751372459996
 30
0.0
  0
VERTEX
  5
2C3E
  8
3
 10
132.6203177953
 20
-29.73218722719992
 30
0.0
  0
VERTEX
  5
2C3F
  8
3
 10
133.0790714621
 20
-29.45882656189985
 30
0.0
  0
VERTEX
  5
2C40
  8
3
 10
133.6971486055
 20
-29.28040305930006
 30
0.0
  0
VERTEX
  5
2C41
  8
3
 10
134.4
 20
-29.21843722720007
 30
0.0
  0
VERTEX
  5
2C42
  8
3
 10
135.1028513946
 20
-29.28040305930006
 30
0.0
  0
VERTEX
  5
2C43
  8
3
 10
135.7209285379
 20
-29.45882656189985
 30
0.0
  0
VERTEX
  5
2C44
  8
3
 10
136.1796822048
 20
-29.73218722719992
 30
0.0
  0
VERTEX
  5
2C45
  8
3
 10
136.4237799324999
 20
-30.06751372459996
 30
0.0
  0
VERTEX
  5
2C46
  8
3
 10
136.4237799324999
 20
-30.42436072969997
 30
0.0
  0
VERTEX
  5
2C47
  8
3
 10
136.1796822048
 20
-30.75968722720006
 30
0.0
  0
VERTEX
  5
2C48
  8
3
 10
135.7209285379
 20
-31.03304789249989
 30
0.0
  0
VERTEX
  5
2C49
  8
3
 10
135.1028513946
 20
-31.21147139499988
 30
0.0
  0
VERTEX
  5
2C4A
  8
3
 10
134.4
 20
-31.27343722719991
 30
0.0
  0
SEQEND
  5
2C4C
  8
3
  0
LINE
  5
DAE
  8
3
 10
135.65
 20
-30.60678114539985
 30
0.0
 11
134.4
 21
-30.96762506369998
 31
0.0
  0
LINE
  5
DAF
  8
3
 10
133.15
 20
-30.60678114539985
 30
0.0
 11
134.4
 21
-30.96762506369998
 31
0.0
  0
LINE
  5
DB0
  8
3
 10
134.4
 20
-27.18598080050003
 30
0.0
 11
134.4
 21
-28.62935647350002
 31
0.0
  0
LINE
  5
DB1
  8
3
 10
133.15
 20
-29.88509330889985
 30
0.0
 11
134.4
 21
-29.52424939069999
 31
0.0
  0
LINE
  5
DB2
  8
3
 10
133.15
 20
-27.5468247186999
 30
0.0
 11
134.4
 21
-27.18598080050003
 31
0.0
  0
LINE
  5
DB3
  8
3
 10
135.65
 20
-29.88509330889985
 30
0.0
 11
134.4
 21
-29.52424939069999
 31
0.0
  0
LINE
  5
DB4
  8
3
 10
135.65
 20
-27.5468247186999
 30
0.0
 11
134.4
 21
-27.18598080050003
 31
0.0
  0
LINE
  5
DB6
  8
3
 10
152.20019979
 20
7.098029999999994
 30
0.0
 11
152.20019979
 21
-7.098029999999994
 31
0.0
  0
LINE
  5
DBF
  8
3
 10
140.7977603049999
 20
-19.04618999999991
 30
0.0
 11
140.7977603049999
 21
-31.75381000000004
 31
0.0
  0
LINE
  5
DC0
  8
3
 10
138.7348
 20
-19.30399999999997
 30
0.0
 11
138.7348
 21
-31.49599999999998
 31
0.0
  0
LINE
  5
DC1
  8
3
 10
139.6596395106999
 20
-19.0561899999999
 30
0.0
 11
139.6596395106999
 21
-31.74381000000005
 31
0.0
  0
LINE
  5
DC2
  8
3
 10
140.7977603049999
 20
31.75381000000004
 30
0.0
 11
140.7977603049999
 21
19.04619000000014
 31
0.0
  0
LINE
  5
DC3
  8
3
 10
138.7348
 20
31.49599999999998
 30
0.0
 11
138.7348
 21
19.30399999999997
 31
0.0
  0
LINE
  5
DC4
  8
3
 10
139.6596395106999
 20
31.74381000000005
 30
0.0
 11
139.6596395106999
 21
19.05619000000013
 31
0.0
  0
LINE
  5
DC8
  8
3
 10
152.4
 20
16.87407116049997
 30
0.0
 11
152.2136296695
 21
16.17852761799998
 31
0.0
  0
LINE
  5
DC9
  8
3
 10
152.2136296695
 20
-16.17852761810002
 30
0.0
 11
152.4
 21
-16.87407116060001
 31
0.0
  0
ARC
  5
DCA
  8
3
 10
152.6
 20
-16.07499999999993
 30
0.0
 40
0.4000000000000283
 50
166.8750000000056
 51
194.9999999999931
  0
ARC
  5
DCB
  8
3
 10
152.6
 20
-16.07499999999993
 30
0.0
 40
0.4000000000000807
 50
120.0000000000003
 51
166.8750000000077
  0
ARC
  5
DCC
  8
3
 10
152.6
 20
16.07499999999993
 30
0.0
 40
0.4000000000000263
 50
165.0000000000069
 51
180.0
  0
ARC
  5
DCD
  8
3
 10
152.6
 20
16.07499999999993
 30
0.0
 40
0.3999999999999773
 50
180.0
 51
240.0000000000183
  0
LINE
  5
DCE
  8
3
 10
152.2
 20
16.07499999999993
 30
0.0
 11
152.2
 21
-16.07499999999993
 31
0.0
  0
LINE
  5
DD1
  8
3
 10
152.4
 20
2.000000000000114
 30
0.0
 11
135.0468979737
 21
2.000000000000114
 31
0.0
  0
LINE
  5
DD2
  8
3
 10
135.0501266854999
 20
-1.999999999999886
 30
0.0
 11
152.4
 21
-1.999999999999886
 31
0.0
  0
LINE
  5
DD9
  8
SK3
 10
-40.09999999999999
 20
-11.11250000000007
 30
0.0
 11
-37.834376924
 21
-7.341869999999858
 31
0.0
  0
LINE
  5
DDA
  8
SK3
 10
-37.834376924
 20
7.341870000000085
 30
0.0
 11
-40.09999999999999
 21
11.11250000000007
 31
0.0
  0
LINE
  5
DDF
  8
3
 10
152.4440397900001
 20
7.341870000000085
 30
0.0
 11
0.0000000000000284
 21
7.341870000000085
 31
0.0
  0
LINE
  5
DE0
  8
3
 10
0.0
 20
-7.341869999999858
 30
0.0
 11
152.4440397899999
 21
-7.341869999999858
 31
0.0
  0
LINE
  5
DE1
  8
3
 10
152.4
 20
31.75049999999999
 30
0.0
 11
137.4
 21
31.75049999999999
 31
0.0
  0
LINE
  5
DE2
  8
3
 10
137.4
 20
19.04949999999997
 30
0.0
 11
152.4
 21
19.04949999999997
 31
0.0
  0
LINE
  5
DE3
  8
3
 10
152.4
 20
-19.04949999999997
 30
0.0
 11
137.4
 21
-19.04949999999997
 31
0.0
  0
LINE
  5
DE4
  8
3
 10
137.4
 20
-31.75049999999999
 30
0.0
 11
152.4
 21
-31.75049999999999
 31
0.0
  0
LINE
  5
DE5
  8
3
 10
137.4
 20
-19.04949999999997
 30
0.0
 11
133.5842346389
 21
-25.39999999999998
 31
0.0
  0
LINE
  5
DE6
  8
3
 10
133.5842346389
 20
-25.39999999999998
 30
0.0
 11
137.4
 21
-31.75049999999999
 31
0.0
  0
LINE
  5
DE7
  8
3
 10
137.4
 20
31.75049999999999
 30
0.0
 11
133.5842346389
 21
25.39999999999998
 31
0.0
  0
LINE
  5
DE8
  8
3
 10
133.5842346389
 20
25.39999999999998
 30
0.0
 11
137.4
 21
19.04949999999997
 31
0.0
  0
LINE
  5
DEF
  8
3
 10
132.3
 20
29.01185102679995
 30
0.0
 11
132.3
 21
6.354557527900056
 31
0.0
  0
LINE
  5
DF0
  8
3
 10
136.4999999999999
 20
11.90303384810011
 30
0.0
 11
136.4999999999999
 21
29.01185102679995
 31
0.0
  0
LINE
  5
DF1
  8
3
 10
136.4999999999999
 20
6.35234756579996
 30
0.0
 11
136.4999999999999
 21
8.450111038200134
 31
0.0
  0
LINE
  5
DF2
  8
3
 10
136.4999999999999
 20
-8.447117866799886
 30
0.0
 11
136.4999999999999
 21
-6.352347565900004
 31
0.0
  0
LINE
  5
DF3
  8
3
 10
136.4999999999999
 20
-29.01185102679995
 30
0.0
 11
136.4999999999999
 21
-11.89983538059994
 31
0.0
  0
LINE
  5
DF4
  8
3
 10
132.3
 20
-6.354557527900056
 30
0.0
 11
132.3
 21
-29.01185102679995
 31
0.0
  0
LINE
  5
DF5
  8
3
 10
152.4
 20
12.1757984945001
 30
0.0
 11
136.2429309105
 21
12.1757984945001
 31
0.0
  0
LINE
  5
DF6
  8
3
 10
136.2335497759
 20
8.1757984945001
 30
0.0
 11
152.4
 21
8.1757984945001
 31
0.0
  0
LINE
  5
DF7
  8
3
 10
152.4
 20
-8.175798494499873
 30
0.0
 11
136.2420407841
 21
-8.175798494499873
 31
0.0
  0
LINE
  5
DF8
  8
3
 10
136.2341813471
 20
-12.17579849449987
 30
0.0
 11
152.4
 21
-12.17579849449987
 31
0.0
  0
LINE
  5
DF9
  8
3
 10
131.775
 20
30.24576628110015
 30
0.0
 11
131.775
 21
29.37991182339999
 31
0.0
  0
LINE
  5
DFA
  8
3
 10
137.025
 20
29.37991182339999
 30
0.0
 11
137.025
 21
30.24378634679999
 31
0.0
  0
LINE
  5
DFB
  8
3
 10
137.025
 20
-30.24378634690004
 30
0.0
 11
137.025
 21
-29.37991182339999
 31
0.0
  0
LINE
  5
DFC
  8
3
 10
131.775
 20
-29.37991182339999
 30
0.0
 11
131.775
 21
-30.24576628119996
 31
0.0
  0
LINE
  5
DFD
  8
3
 10
132.3383461332
 20
28.65100710850004
 30
0.0
 11
132.6853571801
 21
28.40563324409993
 31
0.0
  0
LINE
  5
DFE
  8
3
 10
136.11464282
 20
28.40563324409993
 30
0.0
 11
136.4616538669
 21
28.65100710850004
 31
0.0
  0
LINE
  5
DFF
  8
3
 10
136.4616538669
 20
-28.65100710850004
 30
0.0
 11
136.11464282
 21
-28.40563324409993
 31
0.0
  0
LINE
  5
E00
  8
3
 10
132.6853571801
 20
-28.40563324409993
 30
0.0
 11
132.3383461332
 21
-28.65100710850004
 31
0.0
  0
LINE
  5
E01
  8
3
 10
132.5083956361
 20
24.87180662089997
 30
0.0
 11
132.9711309834
 21
24.54460331889993
 31
0.0
  0
LINE
  5
E02
  8
3
 10
135.8288690167
 20
24.54460331889993
 30
0.0
 11
136.291604364
 21
24.87180662089997
 31
0.0
  0
LINE
  5
E03
  8
3
 10
132.9854967959999
 20
24.93847369239995
 30
0.0
 11
133.2372783663
 21
24.85208731180012
 31
0.0
  0
LINE
  5
E04
  8
3
 10
135.5627216338
 20
24.85208731180012
 30
0.0
 11
135.8145032041
 21
24.93847369239995
 31
0.0
  0
LINE
  5
E05
  8
3
 10
135.7108103555
 20
26.49571106080009
 30
0.0
 11
135.5627216338
 21
26.54652037409994
 31
0.0
  0
LINE
  5
E06
  8
3
 10
133.2372783663
 20
26.54652037409994
 30
0.0
 11
133.0891896446
 21
26.49571106080009
 31
0.0
  0
LINE
  5
E07
  8
3
 10
131.9
 20
26.04719028889997
 30
0.0
 11
131.9
 21
25.96915073759999
 31
0.0
  0
LINE
  5
E08
  8
3
 10
136.9
 20
25.96915073759999
 30
0.0
 11
136.9
 21
26.04719028889997
 31
0.0
  0
LINE
  5
E09
  8
3
 10
135.8145032041
 20
27.07786733410001
 30
0.0
 11
135.5627216338
 21
27.16425371470007
 31
0.0
  0
LINE
  5
E0A
  8
3
 10
133.2372783663
 20
27.16425371470007
 30
0.0
 11
132.9854967959999
 21
27.07786733410001
 31
0.0
  0
LINE
  5
E0B
  8
3
 10
132.9854967959999
 20
25.55620703300008
 30
0.0
 11
133.2372783663
 21
25.46982065240002
 31
0.0
  0
LINE
  5
E0C
  8
3
 10
135.5627216338
 20
25.46982065240002
 30
0.0
 11
135.8145032041
 21
25.55620703300008
 31
0.0
  0
LINE
  5
E0D
  8
3
 10
131.9
 20
26.66492362950009
 30
0.0
 11
131.9
 21
26.58688407820011
 31
0.0
  0
LINE
  5
E0E
  8
3
 10
136.9
 20
26.58688407820011
 30
0.0
 11
136.9
 21
26.66492362950009
 31
0.0
  0
LINE
  5
E0F
  8
3
 10
135.8145032041
 20
27.69560067470013
 30
0.0
 11
135.5627216338
 21
27.78198705529996
 31
0.0
  0
LINE
  5
E10
  8
3
 10
133.2372783663
 20
27.78198705529996
 30
0.0
 11
132.9854967959999
 21
27.69560067470013
 31
0.0
  0
LINE
  5
E11
  8
3
 10
132.9854967959999
 20
26.17394037359998
 30
0.0
 11
133.2372783663
 21
26.08755399300014
 31
0.0
  0
LINE
  5
E12
  8
3
 10
135.5627216338
 20
26.08755399300014
 30
0.0
 11
135.8145032041
 21
26.17394037359998
 31
0.0
  0
LINE
  5
E13
  8
3
 10
131.9
 20
27.28265697009999
 30
0.0
 11
131.9
 21
27.20461741880001
 31
0.0
  0
LINE
  5
E14
  8
3
 10
136.9
 20
27.20461741880001
 30
0.0
 11
136.9
 21
27.28265697009999
 31
0.0
  0
LINE
  5
E15
  8
3
 10
135.8145032041
 20
28.31333401530003
 30
0.0
 11
135.5627216338
 21
28.39972039590009
 31
0.0
  0
LINE
  5
E16
  8
3
 10
133.2372783663
 20
28.39972039590009
 30
0.0
 11
132.9854967959999
 21
28.31333401530003
 31
0.0
  0
LINE
  5
E17
  8
3
 10
132.9854967959999
 20
26.7916737142001
 30
0.0
 11
133.2372783663
 21
26.70528733360004
 31
0.0
  0
LINE
  5
E18
  8
3
 10
135.5627216338
 20
26.70528733360004
 30
0.0
 11
135.8145032041
 21
26.7916737142001
 31
0.0
  0
LINE
  5
E19
  8
3
 10
131.9
 20
27.90039031070012
 30
0.0
 11
131.9
 21
27.82235075940014
 31
0.0
  0
LINE
  5
E1A
  8
3
 10
136.9
 20
27.82235075940014
 30
0.0
 11
136.9
 21
27.90039031070012
 31
0.0
  0
LINE
  5
E1B
  8
3
 10
135.8145032041
 20
28.93106735590015
 30
0.0
 11
135.5627216338
 21
29.01745373649999
 31
0.0
  0
LINE
  5
E1C
  8
3
 10
133.2372783663
 20
29.01745373649999
 30
0.0
 11
132.9854967959999
 21
28.93106735590015
 31
0.0
  0
LINE
  5
E1D
  8
3
 10
132.9854967959999
 20
27.4094070548
 30
0.0
 11
133.2372783663
 21
27.32302067419994
 31
0.0
  0
LINE
  5
E1E
  8
3
 10
135.5627216338
 20
27.32302067419994
 30
0.0
 11
135.8145032041
 21
27.4094070548
 31
0.0
  0
LINE
  5
E1F
  8
3
 10
131.9
 20
28.51812365130002
 30
0.0
 11
131.9
 21
28.44008410000004
 31
0.0
  0
LINE
  5
E20
  8
3
 10
136.9
 20
28.44008410000004
 30
0.0
 11
136.9
 21
28.51812365130002
 31
0.0
  0
LINE
  5
E21
  8
3
 10
135.8145032041
 20
29.54880069650005
 30
0.0
 11
135.5627216338
 21
29.63518707710011
 31
0.0
  0
LINE
  5
E22
  8
3
 10
133.2372783663
 20
29.63518707710011
 30
0.0
 11
132.9854967959999
 21
29.54880069650005
 31
0.0
  0
LINE
  5
E23
  8
3
 10
132.9854967959999
 20
28.02714039540012
 30
0.0
 11
133.2372783663
 21
27.94075401480006
 31
0.0
  0
LINE
  5
E24
  8
3
 10
135.5627216338
 20
27.94075401480006
 30
0.0
 11
135.8145032041
 21
28.02714039540012
 31
0.0
  0
LINE
  5
E25
  8
3
 10
131.9
 20
29.13585699190014
 30
0.0
 11
131.9
 21
29.05781744059993
 31
0.0
  0
LINE
  5
E26
  8
3
 10
136.9
 20
29.05781744059993
 30
0.0
 11
136.9
 21
29.13585699190014
 31
0.0
  0
LINE
  5
E27
  8
3
 10
135.8145032041
 20
30.16653403709995
 30
0.0
 11
135.5627216338
 21
30.25292041770001
 31
0.0
  0
LINE
  5
E28
  8
3
 10
133.2372783663
 20
30.25292041770001
 30
0.0
 11
132.9854967959999
 21
30.16653403709995
 31
0.0
  0
LINE
  5
E29
  8
3
 10
132.9854967959999
 20
28.64487373600002
 30
0.0
 11
133.2372783663
 21
28.55848735539996
 31
0.0
  0
LINE
  5
E2A
  8
3
 10
135.5627216338
 20
28.55848735539996
 30
0.0
 11
135.8145032041
 21
28.64487373600002
 31
0.0
  0
LINE
  5
E2B
  8
3
 10
131.9
 20
29.75359033250004
 30
0.0
 11
131.9
 21
29.67555078120006
 31
0.0
  0
LINE
  5
E2C
  8
3
 10
136.9
 20
29.67555078120006
 30
0.0
 11
136.9
 21
29.75359033250004
 31
0.0
  0
LINE
  5
E2D
  8
3
 10
135.8145032041
 20
30.78426737770008
 30
0.0
 11
135.5627216338
 21
30.87065375830014
 31
0.0
  0
LINE
  5
E2E
  8
3
 10
133.2372783663
 20
30.87065375830014
 30
0.0
 11
132.9854967959999
 21
30.78426737770008
 31
0.0
  0
LINE
  5
E2F
  8
3
 10
133.1234939594
 20
29.21526018199995
 30
0.0
 11
133.2372783663
 21
29.17622069600009
 31
0.0
  0
LINE
  5
E30
  8
3
 10
135.5627216338
 20
29.17622069600009
 30
0.0
 11
135.6765060407
 21
29.21526018199995
 31
0.0
  0
LINE
  5
E31
  8
3
 10
136.291604364
 20
-24.87180662089997
 30
0.0
 11
135.8288690166
 21
-24.54460331889993
 31
0.0
  0
LINE
  5
E32
  8
3
 10
132.9711309834
 20
-24.54460331889993
 30
0.0
 11
132.5083956361
 21
-24.87180662089997
 31
0.0
  0
LINE
  5
E33
  8
3
 10
135.8145032041
 20
-24.93847369239995
 30
0.0
 11
135.5627216337
 21
-24.85208731179989
 31
0.0
  0
LINE
  5
E34
  8
3
 10
133.2372783663
 20
-24.85208731179989
 30
0.0
 11
132.9854967959999
 21
-24.93847369239995
 31
0.0
  0
LINE
  5
E35
  8
3
 10
133.0891896446
 20
-26.49571106089991
 30
0.0
 11
133.2372783663
 21
-26.54652037409994
 31
0.0
  0
LINE
  5
E36
  8
3
 10
135.5627216337
 20
-26.54652037409994
 30
0.0
 11
135.7108103554
 21
-26.49571106089991
 31
0.0
  0
LINE
  5
E37
  8
3
 10
136.9
 20
-26.04719028889997
 30
0.0
 11
136.9
 21
-25.96915073759999
 31
0.0
  0
LINE
  5
E38
  8
3
 10
131.9
 20
-25.96915073759999
 30
0.0
 11
131.9
 21
-26.04719028889997
 31
0.0
  0
LINE
  5
E39
  8
3
 10
132.9854967959999
 20
-27.07786733410001
 30
0.0
 11
133.2372783663
 21
-27.16425371470007
 31
0.0
  0
LINE
  5
E3A
  8
3
 10
135.5627216337
 20
-27.16425371470007
 30
0.0
 11
135.8145032041
 21
-27.07786733410001
 31
0.0
  0
LINE
  5
E3B
  8
3
 10
135.8145032041
 20
-25.55620703299985
 30
0.0
 11
135.5627216337
 21
-25.46982065240002
 31
0.0
  0
LINE
  5
E3C
  8
3
 10
133.2372783663
 20
-25.46982065240002
 30
0.0
 11
132.9854967959999
 21
-25.55620703299985
 31
0.0
  0
LINE
  5
E3D
  8
3
 10
136.9
 20
-26.66492362949987
 30
0.0
 11
136.9
 21
-26.58688407819989
 31
0.0
  0
LINE
  5
E3E
  8
3
 10
131.9
 20
-26.58688407819989
 30
0.0
 11
131.9
 21
-26.66492362949987
 31
0.0
  0
LINE
  5
E3F
  8
3
 10
132.9854967959999
 20
-27.6956006746999
 30
0.0
 11
133.2372783663
 21
-27.78198705529996
 31
0.0
  0
LINE
  5
E40
  8
3
 10
135.5627216337
 20
-27.78198705529996
 30
0.0
 11
135.8145032041
 21
-27.6956006746999
 31
0.0
  0
LINE
  5
E41
  8
3
 10
135.8145032041
 20
-26.17394037359998
 30
0.0
 11
135.5627216337
 21
-26.08755399299991
 31
0.0
  0
LINE
  5
E42
  8
3
 10
133.2372783663
 20
-26.08755399299991
 30
0.0
 11
132.9854967959999
 21
-26.17394037359998
 31
0.0
  0
LINE
  5
E43
  8
3
 10
136.9
 20
-27.28265697009999
 30
0.0
 11
136.9
 21
-27.20461741880001
 31
0.0
  0
LINE
  5
E44
  8
3
 10
131.9
 20
-27.20461741880001
 30
0.0
 11
131.9
 21
-27.28265697009999
 31
0.0
  0
LINE
  5
E45
  8
3
 10
132.9854967959999
 20
-28.31333401530003
 30
0.0
 11
133.2372783663
 21
-28.39972039589986
 31
0.0
  0
LINE
  5
E46
  8
3
 10
135.5627216337
 20
-28.39972039589986
 30
0.0
 11
135.8145032041
 21
-28.31333401530003
 31
0.0
  0
LINE
  5
E47
  8
3
 10
135.8145032041
 20
-26.79167371419987
 30
0.0
 11
135.5627216337
 21
-26.70528733360004
 31
0.0
  0
LINE
  5
E48
  8
3
 10
133.2372783663
 20
-26.70528733360004
 30
0.0
 11
132.9854967959999
 21
-26.79167371419987
 31
0.0
  0
LINE
  5
E49
  8
3
 10
136.9
 20
-27.90039031069989
 30
0.0
 11
136.9
 21
-27.82235075939991
 31
0.0
  0
LINE
  5
E4A
  8
3
 10
131.9
 20
-27.82235075939991
 30
0.0
 11
131.9
 21
-27.90039031069989
 31
0.0
  0
LINE
  5
E4B
  8
3
 10
132.9854967959999
 20
-28.93106735589993
 30
0.0
 11
133.2372783663
 21
-29.01745373649999
 31
0.0
  0
LINE
  5
E4C
  8
3
 10
135.5627216337
 20
-29.01745373649999
 30
0.0
 11
135.8145032041
 21
-28.93106735589993
 31
0.0
  0
LINE
  5
E4D
  8
3
 10
135.8145032041
 20
-27.4094070548
 30
0.0
 11
135.5627216338
 21
-27.32302067419994
 31
0.0
  0
LINE
  5
E4E
  8
3
 10
133.2372783663
 20
-27.32302067419994
 30
0.0
 11
132.9854967959999
 21
-27.4094070548
 31
0.0
  0
LINE
  5
E4F
  8
3
 10
136.9
 20
-28.51812365140006
 30
0.0
 11
136.9
 21
-28.44008410000004
 31
0.0
  0
LINE
  5
E50
  8
3
 10
131.9
 20
-28.44008410000004
 30
0.0
 11
131.9
 21
-28.51812365140006
 31
0.0
  0
LINE
  5
E51
  8
3
 10
132.9854967959999
 20
-29.54880069650005
 30
0.0
 11
133.2372783663
 21
-29.63518707709989
 31
0.0
  0
LINE
  5
E52
  8
3
 10
135.5627216338
 20
-29.63518707709989
 30
0.0
 11
135.8145032041
 21
-29.54880069650005
 31
0.0
  0
LINE
  5
E53
  8
3
 10
135.8145032041
 20
-28.0271403953999
 30
0.0
 11
135.5627216338
 21
-27.94075401480006
 31
0.0
  0
LINE
  5
E54
  8
3
 10
133.2372783663
 20
-27.94075401480006
 30
0.0
 11
132.9854967959999
 21
-28.0271403953999
 31
0.0
  0
LINE
  5
E55
  8
3
 10
136.9
 20
-29.13585699199996
 30
0.0
 11
136.9
 21
-29.05781744059993
 31
0.0
  0
LINE
  5
E56
  8
3
 10
131.9
 20
-29.05781744059993
 30
0.0
 11
131.9
 21
-29.13585699199996
 31
0.0
  0
LINE
  5
E57
  8
3
 10
132.9854967959999
 20
-30.16653403709995
 30
0.0
 11
133.2372783663
 21
-30.25292041770001
 31
0.0
  0
LINE
  5
E58
  8
3
 10
135.5627216338
 20
-30.25292041770001
 30
0.0
 11
135.8145032041
 21
-30.16653403709995
 31
0.0
  0
LINE
  5
E59
  8
3
 10
135.8145032041
 20
-28.64487373600002
 30
0.0
 11
135.5627216338
 21
-28.55848735550001
 31
0.0
  0
LINE
  5
E5A
  8
3
 10
133.2372783663
 20
-28.55848735550001
 30
0.0
 11
132.9854967959999
 21
-28.64487373600002
 31
0.0
  0
LINE
  5
E5B
  8
3
 10
136.9
 20
-29.75359033259986
 30
0.0
 11
136.9
 21
-29.67555078120006
 31
0.0
  0
LINE
  5
E5C
  8
3
 10
131.9
 20
-29.67555078120006
 30
0.0
 11
131.9
 21
-29.75359033259986
 31
0.0
  0
LINE
  5
E5D
  8
3
 10
132.9854967959999
 20
-30.78426737769985
 30
0.0
 11
133.2372783663
 21
-30.87065375829991
 31
0.0
  0
LINE
  5
E5E
  8
3
 10
135.5627216338
 20
-30.87065375829991
 30
0.0
 11
135.8145032041
 21
-30.78426737769985
 31
0.0
  0
LINE
  5
E5F
  8
3
 10
135.6765060407
 20
-29.21526018199995
 30
0.0
 11
135.5627216338
 21
-29.1762206960999
 31
0.0
  0
LINE
  5
E60
  8
3
 10
133.2372783663
 20
-29.1762206960999
 30
0.0
 11
133.1234939594
 21
-29.21526018199995
 31
0.0
  0
LINE
  5
E63
  8
3
 10
152.4
 20
7.297830210000001
 30
0.0
 11
152.20019979
 21
7.098029999999994
 31
0.0
  0
LINE
  5
E64
  8
3
 10
152.20019979
 20
-7.098029999999994
 30
0.0
 11
152.4
 21
-7.297830209999944
 31
0.0
  0
LINE
  5
E69
  8
3
 10
152.4
 20
-19.04618999999991
 30
0.0
 11
140.7977603049999
 21
-19.04618999999991
 31
0.0
  0
LINE
  5
E6A
  8
3
 10
140.7977603049999
 20
-31.75381000000004
 30
0.0
 11
152.4
 21
-31.75381000000004
 31
0.0
  0
ARC
  5
E6B
  8
3
 10
140.7348
 20
-18.85298999999998
 30
0.0
 40
0.2031999999999312
 50
270.0
 51
288.0498306932985
  0
ARC
  5
E6C
  8
3
 10
140.7348
 20
-31.94700999999998
 30
0.0
 40
0.2032000000001517
 50
71.9501693067052
 51
90.0
  0
LINE
  5
E6D
  8
3
 10
139.6596395106999
 20
-19.0561899999999
 30
0.0
 11
138.7348
 21
-19.30399999999997
 31
0.0
  0
LINE
  5
E6E
  8
3
 10
138.7348
 20
-31.49599999999998
 30
0.0
 11
139.6596395106999
 21
-31.74381000000005
 31
0.0
  0
LINE
  5
E6F
  8
3
 10
140.7348
 20
-19.0561899999999
 30
0.0
 11
139.6596395106999
 21
-19.0561899999999
 31
0.0
  0
LINE
  5
E70
  8
3
 10
139.6596395106999
 20
-31.74381000000005
 30
0.0
 11
140.7348
 21
-31.74381000000005
 31
0.0
  0
LINE
  5
E71
  8
3
 10
152.4
 20
31.75381000000004
 30
0.0
 11
140.7977603049999
 21
31.75381000000004
 31
0.0
  0
LINE
  5
E72
  8
3
 10
140.7977603049999
 20
19.04619000000014
 30
0.0
 11
152.4
 21
19.04619000000014
 31
0.0
  0
ARC
  5
E73
  8
3
 10
140.7348
 20
31.94700999999998
 30
0.0
 40
0.2031999999999312
 50
270.0
 51
288.0498306932985
  0
ARC
  5
E74
  8
3
 10
140.7348
 20
18.85298999999998
 30
0.0
 40
0.2031999999999243
 50
71.95016930670089
 51
90.0
  0
LINE
  5
E75
  8
3
 10
139.6596395106999
 20
31.74381000000005
 30
0.0
 11
138.7348
 21
31.49599999999998
 31
0.0
  0
LINE
  5
E76
  8
3
 10
138.7348
 20
19.30399999999997
 30
0.0
 11
139.6596395106999
 21
19.05619000000013
 31
0.0
  0
LINE
  5
E77
  8
3
 10
140.7348
 20
31.74381000000005
 30
0.0
 11
139.6596395106999
 21
31.74381000000005
 31
0.0
  0
LINE
  5
E78
  8
3
 10
139.6596395106999
 20
19.05619000000013
 30
0.0
 11
140.7348
 21
19.05619000000013
 31
0.0
  0
ARC
  5
E8B
  8
SK1
 10
152.6
 20
-16.07499999999993
 30
0.0
 40
0.4000000000000807
 50
74.99999999999191
 51
120.0000000000003
  0
ARC
  5
E8C
  8
SK1
 10
152.6
 20
16.07499999999993
 30
0.0
 40
0.3999999999999199
 50
239.9999999999951
 51
285.000000000006
  0
LINE
  5
E8D
  8
SK1
 10
153.3990711606
 20
-15.87499999999989
 30
0.0
 11
168.4
 21
-15.87499999999989
 31
0.0
  0
LINE
  5
E8E
  8
SK1
 10
168.4
 20
15.87500000000011
 30
0.0
 11
153.3990711606
 21
15.87500000000011
 31
0.0
  0
LINE
  5
E8F
  8
SK1
 10
153.3990711606
 20
15.87500000000011
 30
0.0
 11
152.7035276180999
 21
15.68862966950007
 31
0.0
  0
LINE
  5
E90
  8
SK1
 10
152.7035276180999
 20
-15.68862966949985
 30
0.0
 11
153.3990711606
 21
-15.87499999999989
 31
0.0
  0
ARC
  5
E91
  8
SK1
 10
168.4
 20
-14.37499999999989
 30
0.0
 40
1.5
 50
270.0
 51
0.0
  0
ARC
  5
E92
  8
SK1
 10
168.4
 20
14.37500000000011
 30
0.0
 40
1.5
 50
0.0
 51
90.0
  0
LINE
  5
E93
  8
SK1
 10
187.93799979
 20
19.05000000000007
 30
0.0
 11
176.7619997899999
 21
19.05000000000007
 31
0.0
  0
LINE
  5
E94
  8
SK1
 10
176.7619997899999
 20
-19.05000000000007
 30
0.0
 11
187.93799979
 21
-19.05000000000007
 31
0.0
  0
LINE
  5
E95
  8
SK1
 10
176.7619997899999
 20
19.05000000000007
 30
0.0
 11
175.99999979
 21
18.28800000000012
 31
0.0
  0
LINE
  5
E96
  8
SK1
 10
175.99999979
 20
-18.2879999999999
 30
0.0
 11
176.7619997899999
 21
-19.05000000000007
 31
0.0
  0
LINE
  5
E97
  8
SK1
 10
187.93799979
 20
-19.05000000000007
 30
0.0
 11
188.69999979
 21
-18.2879999999999
 31
0.0
  0
LINE
  5
E98
  8
SK1
 10
188.69999979
 20
18.28800000000012
 30
0.0
 11
187.93799979
 21
19.05000000000007
 31
0.0
  0
ARC
  5
E99
  8
SK1
 10
175.18719979
 20
-8.750300000000038
 30
0.0
 40
0.81280000000001
 50
0.0
 51
90.0
  0
ARC
  5
E9A
  8
SK1
 10
175.18719979
 20
8.750300000000038
 30
0.0
 40
0.81280000000001
 50
270.0
 51
359.9999999999038
  0
LINE
  5
E9B
  8
SK1
 10
175.18719979
 20
7.937500000000114
 30
0.0
 11
169.9
 21
7.937500000000114
 31
0.0
  0
LINE
  5
E9C
  8
SK1
 10
169.9
 20
-7.937499999999886
 30
0.0
 11
175.18719979
 21
-7.937499999999886
 31
0.0
  0
LINE
  5
E9D
  8
SK1
 10
152.4283378126
 20
-19.04618999999991
 30
0.0
 11
152.4
 21
-19.04618999999991
 31
0.0
  0
LINE
  5
EA0
  8
SK1
 10
152.4
 20
19.04619000000014
 30
0.0
 11
152.4283378126
 21
19.04619000000014
 31
0.0
  0
LINE
  5
EC7
  8
SK1
 10
153.3990711606
 20
0.0000000000001137
 30
0.0
 11
153.3990711606
 21
15.87500000000011
 31
0.0
  0
LINE
  5
EC8
  8
SK1
 10
153.3990711606
 20
-15.87499999999989
 30
0.0
 11
153.3990711606
 21
0.0000000000001137
 31
0.0
  0
LINE
  5
EC9
  8
SK1
 10
169.9
 20
0.0000000000001137
 30
0.0
 11
169.9
 21
14.37500000000011
 31
0.0
  0
LINE
  5
ECA
  8
SK1
 10
169.9
 20
-14.37499999999989
 30
0.0
 11
169.9
 21
0.0000000000001137
 31
0.0
  0
LINE
  5
ED4
  8
SK1
 10
187.93799979
 20
19.05000000000007
 30
0.0
 11
187.93799979
 21
-19.05000000000007
 31
0.0
  0
LINE
  5
ED5
  8
SK1
 10
176.7619997899999
 20
19.05000000000007
 30
0.0
 11
176.7619997899999
 21
-19.05000000000007
 31
0.0
  0
LINE
  5
ED6
  8
SK1
 10
175.99999979
 20
18.28800000000012
 30
0.0
 11
175.99999979
 21
-18.2879999999999
 31
0.0
  0
LINE
  5
ED7
  8
SK1
 10
188.69999979
 20
18.28800000000012
 30
0.0
 11
188.69999979
 21
-18.2879999999999
 31
0.0
  0
LINE
  5
ED8
  8
SK1
 10
158.8008
 20
-19.05000000000007
 30
0.0
 11
152.4
 21
-19.05000000000007
 31
0.0
  0
LINE
  5
ED9
  8
SK1
 10
158.8008
 20
-19.05000000000007
 30
0.0
 11
158.8008
 21
-31.74999999999989
 31
0.0
  0
LINE
  5
EDA
  8
SK1
 10
158.8008
 20
-31.74999999999989
 30
0.0
 11
152.4
 21
-31.74999999999989
 31
0.0
  0
LINE
  5
EDB
  8
SK1
 10
158.8008
 20
31.75000000000011
 30
0.0
 11
152.4
 21
31.75000000000011
 31
0.0
  0
LINE
  5
EDC
  8
SK1
 10
158.8008
 20
31.75000000000011
 30
0.0
 11
158.8008
 21
19.05000000000007
 31
0.0
  0
LINE
  5
EDD
  8
SK1
 10
158.8008
 20
19.05000000000007
 30
0.0
 11
152.4
 21
19.05000000000007
 31
0.0
  0
LINE
  5
EF4
  8
SK3
 10
169.0339745374
 20
-8.499999999999886
 30
0.0
 11
169.0339745374
 21
8.500000000000114
 31
0.0
  0
LINE
  5
EF5
  8
SK3
 10
166.9
 20
8.500000000000114
 30
0.0
 11
166.9
 21
-8.499999999999886
 31
0.0
  0
LINE
  5
F58
  8
SK3
 10
153.03966979
 20
7.937500000000114
 30
0.0
 11
153.03966979
 21
-7.937499999999886
 31
0.0
  0
LINE
  5
F59
  8
SK3
 10
152.20019979
 20
7.098029999999994
 30
0.0
 11
152.20019979
 21
-7.098029999999994
 31
0.0
  0
LINE
  5
F5A
  8
SK3
 10
180.76249979
 20
0.0000000000001137
 30
0.0
 11
188.69999979
 21
0.0000000000001137
 31
0.0
  0
LINE
  5
F5B
  8
SK3
 10
180.76249979
 20
0.0000000000001137
 30
0.0
 11
180.76249979
 21
-2.006600000000049
 31
0.0
  0
LINE
  5
F5C
  8
SK3
 10
180.76249979
 20
2.006600000000049
 30
0.0
 11
180.76249979
 21
0.0000000000001137
 31
0.0
  0
LINE
  5
F5D
  8
SK3
 10
179.8099997899999
 20
4.013199999999983
 30
0.0
 11
179.8099997899999
 21
-4.013199999999983
 31
0.0
  0
LINE
  5
F5E
  8
SK3
 10
180.76249979
 20
4.013199999999983
 30
0.0
 11
180.76249979
 21
2.006600000000049
 31
0.0
  0
LINE
  5
F5F
  8
SK3
 10
180.76249979
 20
-2.006600000000049
 30
0.0
 11
180.76249979
 21
-4.013199999999983
 31
0.0
  0
LINE
  5
F60
  8
SK3
 10
180.76249979
 20
4.013199999999983
 30
0.0
 11
188.69999979
 21
4.013199999999983
 31
0.0
  0
LINE
  5
F61
  8
SK3
 10
180.76249979
 20
-4.013199999999983
 30
0.0
 11
188.69999979
 21
-4.013199999999983
 31
0.0
  0
LINE
  5
F74
  8
SK3
 10
169.9
 20
2.000000000000114
 30
0.0
 11
152.4
 21
2.000000000000114
 31
0.0
  0
LINE
  5
F75
  8
SK3
 10
152.4
 20
-1.999999999999886
 30
0.0
 11
169.9
 21
-1.999999999999886
 31
0.0
  0
LINE
  5
F7E
  8
SK3
 10
169.9
 20
9.000000033999981
 30
0.0
 11
169.0339745374
 21
8.500000000000114
 31
0.0
  0
LINE
  5
F7F
  8
SK3
 10
169.0339745374
 20
-8.499999999999886
 30
0.0
 11
169.9
 21
-9.000000033999981
 31
0.0
  0
LINE
  5
F80
  8
SK3
 10
169.0339745374
 20
8.500000000000114
 30
0.0
 11
166.9
 21
8.500000000000114
 31
0.0
  0
LINE
  5
F81
  8
SK3
 10
166.9
 20
-8.499999999999886
 30
0.0
 11
169.0339745374
 21
-8.499999999999886
 31
0.0
  0
LINE
  5
F82
  8
SK3
 10
166.9
 20
7.341870000000085
 30
0.0
 11
152.4
 21
7.341870000000085
 31
0.0
  0
LINE
  5
F83
  8
SK3
 10
152.4
 20
-7.341869999999858
 30
0.0
 11
166.9
 21
-7.341869999999858
 31
0.0
  0
LINE
  5
F98
  8
SK3
 10
169.9
 20
12.1757984945001
 30
0.0
 11
152.4
 21
12.1757984945001
 31
0.0
  0
LINE
  5
F99
  8
SK3
 10
152.4
 20
8.1757984945001
 30
0.0
 11
169.9
 21
8.1757984945001
 31
0.0
  0
LINE
  5
F9A
  8
SK3
 10
169.9
 20
-8.175798494499873
 30
0.0
 11
152.4
 21
-8.175798494499873
 31
0.0
  0
LINE
  5
F9B
  8
SK3
 10
152.4
 20
-12.17579849449987
 30
0.0
 11
169.9
 21
-12.17579849449987
 31
0.0
  0
LINE
  5
1004
  8
SK3
 10
169.9
 20
7.937500000000114
 30
0.0
 11
153.03966979
 21
7.937500000000114
 31
0.0
  0
LINE
  5
1005
  8
SK3
 10
153.03966979
 20
-7.937499999999886
 30
0.0
 11
169.9
 21
-7.937499999999886
 31
0.0
  0
LINE
  5
1006
  8
SK3
 10
153.03966979
 20
7.937500000000114
 30
0.0
 11
152.20019979
 21
7.098029999999994
 31
0.0
  0
LINE
  5
1007
  8
SK3
 10
152.20019979
 20
-7.098029999999994
 30
0.0
 11
153.03966979
 21
-7.937499999999886
 31
0.0
  0
LINE
  5
1008
  8
SK3
 10
180.76249979
 20
4.013199999999983
 30
0.0
 11
179.8099997899999
 21
4.013199999999983
 31
0.0
  0
LINE
  5
1009
  8
SK3
 10
179.8099997899999
 20
-4.013199999999983
 30
0.0
 11
180.76249979
 21
-4.013199999999983
 31
0.0
  0
LINE
  5
100A
  8
SK3
 10
179.8099997899999
 20
4.013199999999983
 30
0.0
 11
177.3986259538
 21
0.0000000000001137
 31
0.0
  0
LINE
  5
100B
  8
SK3
 10
177.3986259538
 20
0.0000000000001137
 30
0.0
 11
179.8099997899999
 21
-4.013199999999983
 31
0.0
  0
LINE
  5
1022
  8
SK3
 10
-37.834376924
 20
7.341870000000085
 30
0.0
 11
-0.0000000000000071
 21
7.341870000000085
 31
0.0
  0
LINE
  5
1023
  8
SK3
 10
-37.834376924
 20
-7.341869999999858
 30
0.0
 11
0.0
 21
-7.341869999999858
 31
0.0
  0
LINE
  5
1029
  8
1
 10
151.4
 20
-34.9250000000003
 30
0.0
 11
20.05000000000001
 21
-34.92499999999983
 31
0.0
  0
LINE
  5
102A
  8
NOCUT
 10
152.4
 20
0.0000000000001137
 30
0.0
 11
152.4
 21
33.92500000000007
 31
0.0
  0
ARC
  5
102C
  8
NOCUT
 10
151.4
 20
33.92500000000007
 30
0.0
 40
1.0
 50
0.0
 51
90.0
  0
LINE
  5
103A
  8
SK4
 10
152.4
 20
0.0000000000001137
 30
0.0
 11
188.69999979
 21
0.0000000000001137
 31
0.0
  0
DIMENSION
  5
103C
  8
SK2
  2
*D10
 10
200.7529545597058
 20
-15.87499999999989
 30
0.0
 11
198.8779545597058
 21
0.0000000000001119
 31
0.0
 70
    32
  3
ISO-25
 13
168.4
 23
15.87500000000011
 33
0.0
 14
168.4
 24
-15.87499999999989
 34
0.0
 50
90.0
1001
ACAD
1000
DSTYLE
1002
{
1070
   287
1070
     5
1070
   271
1070
     3
1070
   272
1070
     3
1070
   279
1070
     2
1002
}
  0
DIMENSION
  5
104B
  8
SK2
  2
*D11
 10
217.5478316052353
 20
-34.9250000000003
 30
0.0
 11
215.6728316052353
 21
-0.0000000000001208
 31
0.0
 70
    32
  3
ISO-25
 13
151.4
 23
34.92500000000007
 33
0.0
 14
151.4
 24
-34.9250000000003
 34
0.0
 50
90.0
1001
ACAD
1000
DSTYLE
1002
{
1070
   287
1070
     5
1070
   271
1070
     3
1070
   272
1070
     3
1070
   279
1070
     2
1002
}
  0
ENDSEC
  0
EOF
