  0
SECTION
  2
HEADER
  9
$ACADVER
  1
AC1009
  9
$DWGCODEPAGE
  3
ansi_1251
  9
$INSBASE
 10
0.0
 20
0.0
 30
0.0
  9
$EXTMIN
 10
-68.25000000000001
 20
-30.5409271246
 30
0.0
  9
$EXTMAX
 10
88.90000000000003
 20
30.50275418977125
 30
0.0
  9
$LIMMIN
 10
0.0
 20
0.0
  9
$LIMMAX
 10
420.0
 20
297.0
  9
$ORTHOMODE
 70
     1
  9
$REGENMODE
 70
     1
  9
$FILLMODE
 70
     1
  9
$QTEXTMODE
 70
     0
  9
$MIRRTEXT
 70
     0
  9
$DRAGMODE
 70
     2
  9
$LTSCALE
 40
1.0
  9
$OSMODE
 70
   279
  9
$ATTMODE
 70
     1
  9
$TEXTSIZE
 40
2.5
  9
$TRACEWID
 40
1.0
  9
$TEXTSTYLE
  7
STANDARD
  9
$CLAYER
  8
0
  9
$CELTYPE
  6
BYLAYER
  9
$CECOLOR
 62
   256
  9
$DIMSCALE
 40
1.0
  9
$DIMASZ
 40
2.5
  9
$DIMEXO
 40
0.625
  9
$DIMDLI
 40
3.75
  9
$DIMRND
 40
0.0
  9
$DIMDLE
 40
0.0
  9
$DIMEXE
 40
1.25
  9
$DIMTP
 40
0.0
  9
$DIMTM
 40
0.0
  9
$DIMTXT
 40
2.5
  9
$DIMCEN
 40
2.5
  9
$DIMTSZ
 40
0.0
  9
$DIMTOL
 70
     0
  9
$DIMLIM
 70
     0
  9
$DIMTIH
 70
     0
  9
$DIMTOH
 70
     0
  9
$DIMSE1
 70
     0
  9
$DIMSE2
 70
     0
  9
$DIMTAD
 70
     1
  9
$DIMZIN
 70
     8
  9
$DIMBLK
  1

  9
$DIMASO
 70
     1
  9
$DIMSHO
 70
     1
  9
$DIMPOST
  1

  9
$DIMAPOST
  1

  9
$DIMALT
 70
     0
  9
$DIMALTD
 70
     3
  9
$DIMALTF
 40
0.03937007874016
  9
$DIMLFAC
 40
1.0
  9
$DIMTOFL
 70
     1
  9
$DIMTVP
 40
0.0
  9
$DIMTIX
 70
     0
  9
$DIMSOXD
 70
     0
  9
$DIMSAH
 70
     0
  9
$DIMBLK1
  1

  9
$DIMBLK2
  1

  9
$DIMSTYLE
  2
ISO-25
  9
$DIMCLRD
 70
     0
  9
$DIMCLRE
 70
     0
  9
$DIMCLRT
 70
     0
  9
$DIMTFAC
 40
1.0
  9
$DIMGAP
 40
0.625
  9
$LUNITS
 70
     2
  9
$LUPREC
 70
     3
  9
$SKETCHINC
 40
1.0
  9
$FILLETRAD
 40
10.0
  9
$AUNITS
 70
     0
  9
$AUPREC
 70
     0
  9
$MENU
  1
.
  9
$ELEVATION
 40
0.0
  9
$PELEVATION
 40
0.0
  9
$THICKNESS
 40
0.0
  9
$LIMCHECK
 70
     0
  9
$CHAMFERA
 40
10.0
  9
$CHAMFERB
 40
10.0
  9
$SKPOLY
 70
     0
  9
$TDCREATE
 40
2455022.429026158
  9
$TDUPDATE
 40
2458659.538982558
  9
$TDINDWG
 40
0.1506771181
  9
$TDUSRTIMER
 40
2458702.67764213
  9
$USRTIMER
 70
     1
  9
$ANGBASE
 50
0.0
  9
$ANGDIR
 70
     0
  9
$PDMODE
 70
     0
  9
$PDSIZE
 40
0.0
  9
$PLINEWID
 40
0.0
  9
$COORDS
 70
     1
  9
$SPLFRAME
 70
     0
  9
$SPLINETYPE
 70
     6
  9
$SPLINESEGS
 70
     8
  9
$ATTDIA
 70
     0
  9
$ATTREQ
 70
     1
  9
$HANDLING
 70
     1
  9
$HANDSEED
  5
212E
  9
$SURFTAB1
 70
     6
  9
$SURFTAB2
 70
     6
  9
$SURFTYPE
 70
     6
  9
$SURFU
 70
     6
  9
$SURFV
 70
     6
  9
$UCSNAME
  2

  9
$UCSORG
 10
0.0
 20
0.0
 30
0.0
  9
$UCSXDIR
 10
1.0
 20
0.0
 30
0.0
  9
$UCSYDIR
 10
0.0
 20
1.0
 30
0.0
  9
$PUCSNAME
  2

  9
$PUCSORG
 10
0.0
 20
0.0
 30
0.0
  9
$PUCSXDIR
 10
1.0
 20
0.0
 30
0.0
  9
$PUCSYDIR
 10
0.0
 20
1.0
 30
0.0
  9
$USERI1
 70
     0
  9
$USERI2
 70
     0
  9
$USERI3
 70
     0
  9
$USERI4
 70
     0
  9
$USERI5
 70
     0
  9
$USERR1
 40
0.0
  9
$USERR2
 40
0.0
  9
$USERR3
 40
0.0
  9
$USERR4
 40
0.0
  9
$USERR5
 40
0.0
  9
$WORLDVIEW
 70
     1
  9
$SHADEDGE
 70
     3
  9
$SHADEDIF
 70
    70
  9
$TILEMODE
 70
     1
  9
$MAXACTVP
 70
    64
  9
$PLIMCHECK
 70
     0
  9
$PEXTMIN
 10
1.000000000000000E+20
 20
1.000000000000000E+20
 30
1.000000000000000E+20
  9
$PEXTMAX
 10
-1.000000000000000E+20
 20
-1.000000000000000E+20
 30
-1.000000000000000E+20
  9
$PLIMMIN
 10
0.0
 20
0.0
  9
$PLIMMAX
 10
420.0
 20
297.0
  9
$UNITMODE
 70
     0
  9
$VISRETAIN
 70
     1
  9
$PLINEGEN
 70
     0
  9
$PSLTSCALE
 70
     1
  0
ENDSEC
  0
SECTION
  2
TABLES
  0
TABLE
  2
VPORT
 70
     1
  0
VPORT
  2
*ACTIVE
 70
     0
 10
0.0
 20
0.0
 11
1.0
 21
1.0
 12
33.19891580261762
 22
-2.020325411445
 13
0.0
 23
0.0
 14
10.0
 24
10.0
 15
10.0
 25
10.0
 16
0.0
 26
0.0
 36
1.0
 17
0.0
 27
0.0
 37
0.0
 40
206.3124201250583
 41
1.332880434782609
 42
50.0
 43
0.0
 44
0.0
 50
0.0
 51
0.0
 71
    16
 72
  1000
 73
     1
 74
     3
 75
     0
 76
     0
 77
     0
 78
     0
  0
ENDTAB
  0
TABLE
  2
LTYPE
 70
     6
  0
LTYPE
  2
CONTINUOUS
 70
     0
  3
Solid line
 72
    65
 73
     0
 40
0.0
  0
LTYPE
  2
CENTER
 70
     0
  3
 Center _____  _  _____  _  _____  _  _____  _ 
 72
    65
 73
     4
 40
50.8
 49
31.75
 49
-6.35
 49
6.35
 49
-6.35
  0
LTYPE
  2
DASHED
 70
     0
  3
Dashed __  __  __  __  __  __  __  __  __  __  
 72
    65
 73
     2
 40
19.05
 49
12.7
 49
-6.35
  0
LTYPE
  2
HIDDEN
 70
     0
  3
Hidden __ __ __ __ __ __ __ __ __ __ __ __ __ __
 72
    65
 73
     2
 40
1.905
 49
1.27
 49
-0.635
  0
LTYPE
  2
CENTERX2
 70
     0
  3
Center (2x) ________  __  ________  __  _____
 72
    65
 73
     4
 40
20.32
 49
12.7
 49
-2.54
 49
2.54
 49
-2.54
  0
LTYPE
  2
PHANTOM
 70
     0
  3
Phantom ______  __  __  ______  __  __  ______
 72
    65
 73
     6
 40
12.7
 49
6.35
 49
-1.27
 49
1.27
 49
-1.27
 49
1.27
 49
-1.27
  0
ENDTAB
  0
TABLE
  2
LAYER
 70
    26
  0
LAYER
  2
0
 70
     0
 62
     7
  6
CONTINUOUS
  0
LAYER
  2
1
 70
     0
 62
     4
  6
CONTINUOUS
  0
LAYER
  2
2
 70
     0
 62
     7
  6
CONTINUOUS
  0
LAYER
  2
3
 70
     0
 62
     1
  6
DASHED
  0
LAYER
  2
4
 70
     0
 62
     2
  6
CENTER
  0
LAYER
  2
6
 70
     0
 62
     5
  6
CONTINUOUS
  0
LAYER
  2
7
 70
     0
 62
     5
  6
CONTINUOUS
  0
LAYER
  2
11
 70
     0
 62
     4
  6
CONTINUOUS
  0
LAYER
  2
SK1
 70
     0
 62
     4
  6
CONTINUOUS
  0
LAYER
  2
SK2
 70
     0
 62
     7
  6
CONTINUOUS
  0
LAYER
  2
SK3
 70
     0
 62
     1
  6
DASHED
  0
LAYER
  2
SK4
 70
     0
 62
     2
  6
CENTER
  0
LAYER
  2
SK6
 70
     0
 62
     5
  6
CONTINUOUS
  0
LAYER
  2
SK7
 70
     0
 62
     5
  6
CONTINUOUS
  0
LAYER
  2
SK11
 70
     0
 62
     4
  6
CONTINUOUS
  0
LAYER
  2
CUT
 70
     0
 62
     1
  6
CONTINUOUS
  0
LAYER
  2
NOCUT
 70
     0
 62
    -7
  6
CONTINUOUS
  0
LAYER
  2
SKVIEW1
 70
     0
 62
     4
  6
CONTINUOUS
  0
LAYER
  2
SKVIEW2
 70
     0
 62
     7
  6
CONTINUOUS
  0
LAYER
  2
SKVIEW3
 70
     0
 62
     1
  6
DASHED
  0
LAYER
  2
SKVIEW4
 70
     0
 62
     2
  6
CENTER
  0
LAYER
  2
SKVIEW6
 70
     0
 62
     5
  6
CONTINUOUS
  0
LAYER
  2
SKVIEW7
 70
     0
 62
     5
  6
CONTINUOUS
  0
LAYER
  2
SKVIEW11
 70
     0
 62
     4
  6
CONTINUOUS
  0
LAYER
  2
INFTOTAL
 70
     0
 62
     9
  6
CONTINUOUS
  0
LAYER
  2
DEFPOINTS
 70
     0
 62
     7
  6
CONTINUOUS
  0
ENDTAB
  0
TABLE
  2
STYLE
 70
     1
  0
STYLE
  2
STANDARD
 70
     0
 40
0.0
 41
1.0
 50
0.0
 71
     0
 42
2.5
  3
txt
  4

  0
ENDTAB
  0
TABLE
  2
VIEW
 70
     0
  0
ENDTAB
  0
TABLE
  2
UCS
 70
     0
  0
ENDTAB
  0
TABLE
  2
APPID
 70
     2
  0
APPID
  2
ACAD
 70
     0
  0
APPID
  2
ACAECLAYERSTANDARD
 70
     0
  0
ENDTAB
  0
TABLE
  2
DIMSTYLE
 70
     1
  0
DIMSTYLE
  2
ISO-25
 70
     0
  3

  4

  5

  6

  7

 40
1.0
 41
2.5
 42
0.625
 43
3.75
 44
1.25
 45
0.0
 46
0.0
 47
0.0
 48
0.0
140
2.5
141
2.5
142
0.0
143
0.03937007874016
144
1.0
145
0.0
146
1.0
147
0.625
 71
     0
 72
     0
 73
     0
 74
     0
 75
     0
 76
     0
 77
     1
 78
     8
170
     0
171
     3
172
     1
173
     0
174
     0
175
     0
176
     0
177
     0
178
     0
  0
ENDTAB
  0
ENDSEC
  0
SECTION
  2
BLOCKS
  0
BLOCK
  8
0
  2
$MODEL_SPACE
 70
     0
 10
0.0
 20
0.0
 30
0.0
  3
$MODEL_SPACE
  1

  0
ENDBLK
  5
21
  8
0
  0
BLOCK
 67
     1
  8
0
  2
$PAPER_SPACE
 70
     0
 10
0.0
 20
0.0
 30
0.0
  3
$PAPER_SPACE
  1

  0
ENDBLK
  5
1D
 67
     1
  8
0
  0
BLOCK
  8
0
  2
SW_CENTERMARKSYMBOL_0
 70
     0
 10
0.0
 20
0.0
 30
0.0
  3
SW_CENTERMARKSYMBOL_0
  1

  0
LINE
  5
74B
  8
4
 62
     0
 10
0.0
 20
0.0
 30
0.0
 11
0.0
 21
2.5
 31
0.0
  0
LINE
  5
74C
  8
4
 62
     0
 10
0.0
 20
0.0
 30
0.0
 11
-2.5
 21
0.0
 31
0.0
  0
LINE
  5
74D
  8
4
 62
     0
 10
0.0
 20
0.0
 30
0.0
 11
0.0
 21
-2.5
 31
0.0
  0
LINE
  5
74E
  8
4
 62
     0
 10
0.0
 20
0.0
 30
0.0
 11
2.5
 21
0.0
 31
0.0
  0
LINE
  5
74F
  8
4
 62
     0
 10
0.0
 20
5.0
 30
0.0
 11
0.0
 21
7.25
 31
0.0
  0
LINE
  5
750
  8
4
 62
     0
 10
-5.0
 20
0.0
 30
0.0
 11
-7.25
 21
0.0
 31
0.0
  0
LINE
  5
751
  8
4
 62
     0
 10
0.0
 20
-5.0
 30
0.0
 11
0.0
 21
-7.25
 31
0.0
  0
LINE
  5
752
  8
4
 62
     0
 10
5.0
 20
0.0
 30
0.0
 11
7.25
 21
0.0
 31
0.0
  0
ENDBLK
  5
753
  8
0
  0
BLOCK
  8
0
  2
SW_CENTERMARKSYMBOL_1
 70
     0
 10
0.0
 20
0.0
 30
0.0
  3
SW_CENTERMARKSYMBOL_1
  1

  0
LINE
  5
757
  8
4
 62
     0
 10
0.0
 20
0.0
 30
0.0
 11
0.0
 21
2.5
 31
0.0
  0
LINE
  5
758
  8
4
 62
     0
 10
0.0
 20
0.0
 30
0.0
 11
-2.5
 21
0.0
 31
0.0
  0
LINE
  5
759
  8
4
 62
     0
 10
0.0
 20
0.0
 30
0.0
 11
0.0
 21
-2.5
 31
0.0
  0
LINE
  5
75A
  8
4
 62
     0
 10
0.0
 20
0.0
 30
0.0
 11
2.5
 21
0.0
 31
0.0
  0
LINE
  5
75B
  8
4
 62
     0
 10
0.0
 20
5.0
 30
0.0
 11
0.0
 21
8.85
 31
0.0
  0
LINE
  5
75C
  8
4
 62
     0
 10
-5.0
 20
0.0
 30
0.0
 11
-8.85
 21
0.0
 31
0.0
  0
LINE
  5
75D
  8
4
 62
     0
 10
0.0
 20
-5.0
 30
0.0
 11
0.0
 21
-8.85
 31
0.0
  0
LINE
  5
75E
  8
4
 62
     0
 10
5.0
 20
0.0
 30
0.0
 11
8.85
 21
0.0
 31
0.0
  0
ENDBLK
  5
75F
  8
0
  0
BLOCK
  8
0
  2
*U2
 70
     1
 10
0.0
 20
0.0
 30
0.0
  3
*U2
  1

  0
TEXT
  5
77E
  8
SK6
 10
-50.0
 20
78.25
 30
0.0
 40
3.5
  1
BIG KAISER
 41
0.85
  0
TEXT
  5
781
  8
SK6
 10
-50.0
 20
73.0
 30
0.0
 40
3.5
  1
BCV50-SMC1.250-4
 41
0.85
  0
ENDBLK
  5
782
  8
0
  0
BLOCK
  8
0
  2
*U3
 70
     1
 10
0.0
 20
0.0
 30
0.0
  3
*U3
  1

  0
INSERT
  5
786
  8
6
  2
_FILLED
 10
-38.3385186602
 20
-29.3339625913
 30
0.0
 41
3.5
 42
3.5
 43
3.5
 50
52.86965044919886
  0
POLYLINE
  5
78B
  8
6
 66
     1
 10
0.0
 20
0.0
 30
0.0
  0
VERTEX
  5
20E4
  8
6
 10
-40.45122500062811
 20
-32.12438763403361
 30
0.0
  0
VERTEX
  5
20E5
  8
6
 10
-65.5826187589
 20
-65.3174865328
 30
0.0
  0
VERTEX
  5
20E6
  8
6
 10
-67.4576187589
 20
-63.5674865328
 30
0.0
  0
VERTEX
  5
20E7
  8
6
 10
-70.9576187589
 20
-63.5674865328
 30
0.0
  0
SEQEND
  5
20E9
  8
6
  0
ENDBLK
  5
78C
  8
0
  0
BLOCK
  8
0
  2
_FILLED
 70
     0
 10
0.0
 20
0.0
 30
0.0
  3
_FILLED
  1

  0
SOLID
  5
789
  8
0
  6
BYBLOCK
 62
     0
 10
0.0
 20
0.0
 30
0.0
 11
-1.0
 21
0.2142857143
 31
0.0
 12
-1.0
 22
-0.2142857143
 32
0.0
 13
-1.0
 23
-0.2142857143
 33
0.0
  0
ENDBLK
  5
78A
  8
0
  6
BYBLOCK
 62
     0
  0
BLOCK
  8
0
  2
*U5
 70
     1
 10
0.0
 20
0.0
 30
0.0
  3
*U5
  1

  0
TEXT
  5
790
  8
SK6
 10
-85.96178542556666
 20
-67.06748653279999
 30
0.0
 40
3.5
  1
BCV50
 41
0.85
  0
ENDBLK
  5
791
  8
0
  0
BLOCK
  8
0
  2
*D6
 70
     1
 10
0.0
 20
0.0
 30
0.0
  3
*D6
  1

  0
LINE
  5
7EA
  8
SK2
 62
     0
 10
35.125
 20
34.92499999999998
 30
0.0
 11
154.2192759862572
 21
34.92499999999998
 31
0.0
  0
LINE
  5
7EB
  8
SK2
 62
     0
 10
35.125
 20
-34.92500000000001
 30
0.0
 11
154.2192759862572
 21
-34.92500000000002
 31
0.0
  0
LINE
  5
7EC
  8
SK2
 62
     0
 10
152.9692759862572
 20
32.42499999999998
 30
0.0
 11
152.9692759862572
 21
-32.42500000000002
 31
0.0
  0
SOLID
  5
7ED
  8
SK2
 62
     0
 10
153.3859426529239
 20
32.42499999999998
 30
0.0
 11
152.5526093195905
 21
32.42499999999998
 31
0.0
 12
152.9692759862572
 22
34.92499999999998
 32
0.0
 13
152.9692759862572
 23
34.92499999999998
 33
0.0
  0
SOLID
  5
7EE
  8
SK2
 62
     0
 10
152.5526093195905
 20
-32.42500000000002
 30
0.0
 11
153.3859426529239
 21
-32.42500000000002
 31
0.0
 12
152.9692759862572
 22
-34.92500000000002
 32
0.0
 13
152.9692759862572
 23
-34.92500000000002
 33
0.0
  0
TEXT
  5
7EF
  8
SK2
  6
CONTINUOUS
 62
     0
 10
152.3442759862572
 20
-5.000000000000028
 30
0.0
 40
2.5
  1
69.85
 50
90.0
  0
POINT
  5
7F0
  8
DEFPOINTS
 62
     0
 10
34.5
 20
34.92499999999998
 30
0.0
  0
POINT
  5
7F1
  8
DEFPOINTS
 62
     0
 10
34.5
 20
-34.92500000000001
 30
0.0
  0
POINT
  5
7F2
  8
DEFPOINTS
 62
     0
 10
152.9692759862572
 20
-34.92500000000002
 30
0.0
  0
ENDBLK
  5
7F4
  8
0
  0
BLOCK
  8
0
  2
*D7
 70
     1
 10
0.0
 20
0.0
 30
0.0
  3
*D7
  1

  0
LINE
  5
7F9
  8
SK2
 62
     0
 10
0.0
 20
-35.55000000000001
 30
0.0
 11
0.0
 21
-74.40665109041375
 31
0.0
  0
LINE
  5
7FA
  8
SK2
 62
     0
 10
35.05
 20
-35.05000000000001
 30
0.0
 11
35.05
 21
-74.40665109041375
 31
0.0
  0
LINE
  5
7FB
  8
SK2
 62
     0
 10
2.5
 20
-73.15665109041375
 30
0.0
 11
32.55
 21
-73.15665109041375
 31
0.0
  0
SOLID
  5
7FC
  8
SK2
 62
     0
 10
2.5
 20
-72.73998442374707
 30
0.0
 11
2.5
 21
-73.57331775708042
 31
0.0
 12
0.0
 22
-73.15665109041375
 32
0.0
 13
0.0
 23
-73.15665109041375
 33
0.0
  0
SOLID
  5
7FD
  8
SK2
 62
     0
 10
32.55
 20
-73.57331775708042
 30
0.0
 11
32.55
 21
-72.73998442374707
 31
0.0
 12
35.05
 22
-73.15665109041375
 32
0.0
 13
35.05
 23
-73.15665109041375
 33
0.0
  0
TEXT
  5
7FE
  8
SK2
  6
CONTINUOUS
 62
     0
 10
12.73333333333333
 20
-72.53165109041375
 30
0.0
 40
2.5
  1
35.05
  0
POINT
  5
7FF
  8
DEFPOINTS
 62
     0
 10
0.0
 20
-34.92500000000001
 30
0.0
  0
POINT
  5
800
  8
DEFPOINTS
 62
     0
 10
35.05
 20
-34.42500000000001
 30
0.0
  0
POINT
  5
801
  8
DEFPOINTS
 62
     0
 10
35.05
 20
-73.15665109041375
 30
0.0
  0
ENDBLK
  5
803
  8
0
  0
BLOCK
  8
0
  2
*D8
 70
     1
 10
0.0
 20
0.0
 30
0.0
  3
*D8
  1

  0
LINE
  5
808
  8
SK2
 62
     0
 10
0.0
 20
35.54999999999998
 30
0.0
 11
0.0
 21
63.71215670356074
 31
0.0
  0
LINE
  5
809
  8
SK2
 62
     0
 10
101.6
 20
34.55000000000007
 30
0.0
 11
101.6
 21
63.71215670356074
 31
0.0
  0
LINE
  5
80A
  8
SK2
 62
     0
 10
2.5
 20
62.46215670356074
 30
0.0
 11
99.09999999999998
 21
62.46215670356074
 31
0.0
  0
SOLID
  5
80B
  8
SK2
 62
     0
 10
2.5
 20
62.8788233702274
 30
0.0
 11
2.5
 21
62.04549003689407
 31
0.0
 12
0.0
 22
62.46215670356074
 32
0.0
 13
0.0
 23
62.46215670356074
 33
0.0
  0
SOLID
  5
80C
  8
SK2
 62
     0
 10
99.09999999999998
 20
62.04549003689407
 30
0.0
 11
99.09999999999998
 21
62.8788233702274
 31
0.0
 12
101.6
 22
62.46215670356074
 32
0.0
 13
101.6
 23
62.46215670356074
 33
0.0
  0
TEXT
  5
80D
  8
SK2
  6
CONTINUOUS
 62
     0
 10
46.84166666666665
 20
63.08715670356074
 30
0.0
 40
2.5
  1
101.6
  0
POINT
  5
80E
  8
DEFPOINTS
 62
     0
 10
0.0
 20
34.92499999999998
 30
0.0
  0
POINT
  5
80F
  8
DEFPOINTS
 62
     0
 10
101.6
 20
33.92500000000007
 30
0.0
  0
POINT
  5
810
  8
DEFPOINTS
 62
     0
 10
101.6
 20
62.46215670356074
 30
0.0
  0
ENDBLK
  5
812
  8
0
  0
BLOCK
  8
0
  2
*D9
 70
     1
 10
0.0
 20
0.0
 30
0.0
  3
*D9
  1

  0
LINE
  5
B8A
  8
1
 62
     0
 10
1.674999999999997
 20
49.21250000000001
 30
0.0
 11
-19.75958623088567
 21
49.21250000000001
 31
0.0
  0
LINE
  5
B8B
  8
1
 62
     0
 10
-0.625
 20
0.0
 30
0.0
 11
-19.75958623088567
 21
0.0000000000000012
 31
0.0
  0
LINE
  5
B8C
  8
1
 62
     0
 10
-18.50958623088567
 20
46.71250000000001
 30
0.0
 11
-18.50958623088567
 21
2.500000000000001
 31
0.0
  0
SOLID
  5
B8D
  8
1
 62
     0
 10
-18.092919564219
 20
46.71250000000001
 30
0.0
 11
-18.92625289755234
 21
46.71250000000001
 31
0.0
 12
-18.50958623088567
 22
49.21250000000001
 32
0.0
 13
-18.50958623088567
 23
49.21250000000001
 33
0.0
  0
SOLID
  5
B8E
  8
1
 62
     0
 10
-18.92625289755234
 20
2.500000000000001
 30
0.0
 11
-18.09291956421901
 21
2.500000000000001
 31
0.0
 12
-18.50958623088567
 22
0.0000000000000011
 32
0.0
 13
-18.50958623088567
 23
0.0000000000000011
 33
0.0
  0
TEXT
  5
B8F
  8
1
  6
CONTINUOUS
 62
     0
 10
-19.13458623088568
 20
18.77291666666667
 30
0.0
 40
2.5
  1
49.213
 50
90.0
  0
POINT
  5
B90
  8
DEFPOINTS
 62
     0
 10
2.299999999999997
 20
49.21250000000001
 30
0.0
  0
POINT
  5
B91
  8
DEFPOINTS
 62
     0
 10
0.0
 20
0.0
 30
0.0
  0
POINT
  5
B92
  8
DEFPOINTS
 62
     0
 10
-18.50958623088567
 20
0.0000000000000011
 30
0.0
  0
ENDBLK
  5
B94
  8
0
  0
BLOCK
  8
0
  2
*D10
 70
     1
 10
0.0
 20
0.0
 30
0.0
  3
*D10
  1

  0
LINE
  5
1040
  8
SK2
 62
     0
 10
118.225
 20
15.87500000000011
 30
0.0
 11
151.2029545597057
 21
15.87500000000011
 31
0.0
  0
LINE
  5
1041
  8
SK2
 62
     0
 10
118.225
 20
-15.87499999999989
 30
0.0
 11
151.2029545597057
 21
-15.87499999999989
 31
0.0
  0
LINE
  5
1042
  8
SK2
 62
     0
 10
149.9529545597057
 20
13.37500000000011
 30
0.0
 11
149.9529545597057
 21
-13.37499999999989
 31
0.0
  0
SOLID
  5
1043
  8
SK2
 62
     0
 10
150.3696212263724
 20
13.37500000000011
 30
0.0
 11
149.5362878930391
 21
13.37500000000011
 31
0.0
 12
149.9529545597057
 22
15.87500000000011
 32
0.0
 13
149.9529545597057
 23
15.87500000000011
 33
0.0
  0
SOLID
  5
1044
  8
SK2
 62
     0
 10
149.5362878930391
 20
-13.37499999999989
 30
0.0
 11
150.3696212263724
 21
-13.37499999999989
 31
0.0
 12
149.9529545597057
 22
-15.87499999999989
 32
0.0
 13
149.9529545597057
 23
-15.87499999999989
 33
0.0
  0
TEXT
  5
1045
  8
SK2
  6
CONTINUOUS
 62
     0
 10
149.3279545597057
 20
-4.583333333333229
 30
0.0
 40
2.5
  1
31.75
 50
90.0
  0
POINT
  5
1046
  8
DEFPOINTS
 62
     0
 10
117.6
 20
15.87500000000011
 30
0.0
  0
POINT
  5
1047
  8
DEFPOINTS
 62
     0
 10
117.6
 20
-15.87499999999989
 30
0.0
  0
POINT
  5
1048
  8
DEFPOINTS
 62
     0
 10
149.9529545597057
 20
-15.87499999999989
 30
0.0
  0
ENDBLK
  5
104A
  8
0
  0
BLOCK
  8
0
  2
*D11
 70
     1
 10
0.0
 20
0.0
 30
0.0
  3
*D11
  1

  0
LINE
  5
104F
  8
SK2
 62
     0
 10
101.225
 20
34.92500000000007
 30
0.0
 11
167.9978316052353
 21
34.92500000000006
 31
0.0
  0
LINE
  5
1050
  8
SK2
 62
     0
 10
101.225
 20
-34.9250000000003
 30
0.0
 11
167.9978316052353
 21
-34.9250000000003
 31
0.0
  0
LINE
  5
1051
  8
SK2
 62
     0
 10
166.7478316052353
 20
32.42500000000006
 30
0.0
 11
166.7478316052353
 21
-32.4250000000003
 31
0.0
  0
SOLID
  5
1052
  8
SK2
 62
     0
 10
167.1644982719019
 20
32.42500000000006
 30
0.0
 11
166.3311649385686
 21
32.42500000000006
 31
0.0
 12
166.7478316052353
 22
34.92500000000006
 32
0.0
 13
166.7478316052353
 23
34.92500000000006
 33
0.0
  0
SOLID
  5
1053
  8
SK2
 62
     0
 10
166.3311649385686
 20
-32.4250000000003
 30
0.0
 11
167.1644982719019
 21
-32.4250000000003
 31
0.0
 12
166.7478316052353
 22
-34.9250000000003
 32
0.0
 13
166.7478316052353
 23
-34.9250000000003
 33
0.0
  0
TEXT
  5
1054
  8
SK2
  6
CONTINUOUS
 62
     0
 10
166.1228316052353
 20
-5.000000000000114
 30
0.0
 40
2.5
  1
69.85
 50
90.0
  0
POINT
  5
1055
  8
DEFPOINTS
 62
     0
 10
100.6
 20
34.92500000000007
 30
0.0
  0
POINT
  5
1056
  8
DEFPOINTS
 62
     0
 10
100.6
 20
-34.9250000000003
 30
0.0
  0
POINT
  5
1057
  8
DEFPOINTS
 62
     0
 10
166.7478316052353
 20
-34.9250000000003
 30
0.0
  0
ENDBLK
  5
1059
  8
0
  0
ENDSEC
  0
SECTION
  2
ENTITIES
  0
LINE
  5
685
  8
SK1
 10
0.0
 20
34.92499999999998
 30
0.0
 11
-99.6319088344
 21
20.3952133832
 31
0.0
  0
LINE
  5
686
  8
SK1
 10
-99.6319088344
 20
-20.3952133832
 30
0.0
 11
0.0
 21
-34.92500000000001
 31
0.0
  0
ARC
  5
68D
  8
SK1
 10
-99.3
 20
18.1192879614
 30
0.0
 40
2.299999999999995
 50
98.29722000000018
 51
180.0
  0
ARC
  5
68E
  8
SK1
 10
-99.3
 20
-18.1192879614
 30
0.0
 40
2.299999999999995
 50
180.0
 51
261.7027799999998
  0
LINE
  5
6F6
  8
SK1
 10
-101.6
 20
0.0
 30
0.0
 11
-101.6
 21
-18.1192879614
 31
0.0
  0
LINE
  5
6F7
  8
SK1
 10
-101.6
 20
18.1192879614
 30
0.0
 11
-101.6
 21
0.0
 31
0.0
  0
LINE
  5
71A
  8
SK3
 10
-99.5215390309
 20
-13.10000000000002
 30
0.0
 11
-99.5215390309
 21
13.09999999999999
 31
0.0
  0
LINE
  5
71B
  8
SK3
 10
-95.25
 20
-13.10000000000002
 30
0.0
 11
-95.25
 21
13.09999999999999
 31
0.0
  0
LINE
  5
72A
  8
SK3
 10
-101.6
 20
-14.30000000000001
 30
0.0
 11
-99.5215390309
 21
-13.10000000000002
 31
0.0
  0
LINE
  5
72B
  8
SK3
 10
-99.5215390309
 20
13.09999999999999
 30
0.0
 11
-101.6
 21
14.3
 31
0.0
  0
LINE
  5
72C
  8
SK3
 10
-99.5215390309
 20
-13.10000000000002
 30
0.0
 11
-95.25
 21
-13.10000000000002
 31
0.0
  0
LINE
  5
72D
  8
SK3
 10
-95.25
 20
13.09999999999999
 30
0.0
 11
-99.5215390309
 21
13.09999999999999
 31
0.0
  0
LINE
  5
72E
  8
SK3
 10
-95.25
 20
-11.09980000000002
 30
0.0
 11
-40.09999999999999
 21
-11.09980000000002
 31
0.0
  0
LINE
  5
72F
  8
SK3
 10
-40.09999999999999
 20
11.09979999999999
 30
0.0
 11
-95.25
 21
11.09979999999999
 31
0.0
  0
LINE
  5
760
  8
SK3
 10
-57.1
 20
12.69999999999999
 30
0.0
 11
-95.25
 21
12.69999999999999
 31
0.0
  0
LINE
  5
761
  8
SK3
 10
-95.25
 20
-12.69999999999999
 30
0.0
 11
-57.1
 21
-12.69999999999999
 31
0.0
  0
LINE
  5
774
  8
SK3
 10
-57.1
 20
12.69999999999999
 30
0.0
 11
-57.1
 21
-12.69999999999999
 31
0.0
  0
LINE
  5
777
  8
SK4
 10
0.0
 20
0.0
 30
0.0
 11
-101.6
 21
0.0
 31
0.0
  0
LINE
  5
779
  8
4
 10
0.0
 20
0.0
 30
0.0
 11
101.6
 21
0.0
 31
0.0
  0
INSERT
  5
77B
  8
SK6
  2
*U2
 10
-44.10380399683656
 20
-23.39313954296377
 30
0.0
  0
INSERT
  5
78D
  8
SK6
  2
*U5
 10
17.55665382414153
 20
-2.560320993650734
 30
0.0
  0
LINE
  5
793
  8
0
 10
3.0
 20
3.0
 30
0.0
 11
-3.0
 21
-3.0
 31
0.0
  0
LINE
  5
794
  8
0
 10
-3.0
 20
3.0
 30
0.0
 11
3.0
 21
-3.0
 31
0.0
  0
CIRCLE
  5
795
  8
0
 10
0.0
 20
0.0
 30
0.0
 40
2.5
  0
LINE
  5
796
  8
0
 10
104.6
 20
-3.0
 30
0.0
 11
98.59999999999997
 21
3.0
 31
0.0
  0
CIRCLE
  5
797
  8
0
 10
101.6
 20
0.0
 30
0.0
 40
2.5
  0
LINE
  5
798
  8
0
 10
98.59999999999997
 20
-3.0
 30
0.0
 11
104.6
 21
3.0
 31
0.0
  0
LINE
  5
799
  8
NOCUT
 10
0.7999999999999972
 20
34.62500000000001
 30
0.0
 11
0.2999999999999972
 21
34.62500000000001
 31
0.0
  0
LINE
  5
79C
  8
NOCUT
 10
0.2999999999999972
 20
34.62500000000001
 30
0.0
 11
0.0
 21
34.92499999999999
 31
0.0
  0
LINE
  5
79D
  8
NOCUT
 10
100.6
 20
34.92500000000007
 30
0.0
 11
20.05
 21
34.92499999999999
 31
0.0
  0
ARC
  5
79E
  8
NOCUT
 10
0.7999999999999972
 20
35.62500000000001
 30
0.0
 40
1.0
 50
270.0
 51
314.4270040008
  0
ARC
  5
79F
  8
NOCUT
 10
20.05
 20
35.92499999999999
 30
0.0
 40
1.0
 50
180.0
 51
270.0
  0
LINE
  5
7A0
  8
NOCUT
 10
12.55499999999999
 20
45.64499999999999
 30
0.0
 11
9.704999999999998
 21
45.64499999999999
 31
0.0
  0
ARC
  5
7A1
  8
NOCUT
 10
12.55499999999999
 20
46.14499999999999
 30
0.0
 40
0.5
 50
270.0
 51
0.0
  0
ARC
  5
7A2
  8
NOCUT
 10
9.704999999999998
 20
46.14499999999999
 30
0.0
 40
0.5
 50
180.0
 51
270.0
  0
ARC
  5
7A3
  8
NOCUT
 10
2.299999999999997
 20
48.4125
 30
0.0
 40
0.7999999999999972
 50
90.0
 51
180.0
  0
ARC
  5
7A4
  8
NOCUT
 10
18.24999999999999
 20
48.4125
 30
0.0
 40
0.799999999999983
 50
0.0
 51
90.0
  0
LINE
  5
7A5
  8
NOCUT
 10
9.204999999999998
 20
46.43919780459999
 30
0.0
 11
7.603833230999996
 21
49.21250000000001
 31
0.0
  0
LINE
  5
7A6
  8
NOCUT
 10
14.65616676910001
 20
49.21250000000001
 30
0.0
 11
13.05499999999999
 21
46.43919780459999
 31
0.0
  0
LINE
  5
7A7
  8
NOCUT
 10
18.24999999999999
 20
49.21250000000001
 30
0.0
 11
14.65616676910001
 21
49.21250000000001
 31
0.0
  0
LINE
  5
7A8
  8
NOCUT
 10
7.603833230999996
 20
49.21250000000001
 30
0.0
 11
2.299999999999997
 21
49.21250000000001
 31
0.0
  0
LINE
  5
7AC
  8
NOCUT
 10
1.5
 20
48.4125
 30
0.0
 11
1.499999999999929
 21
34.91085715714565
 31
0.0
  0
LINE
  5
7AD
  8
NOCUT
 10
19.04999999999997
 20
48.4125
 30
0.0
 11
19.05
 21
35.92499999999999
 31
0.0
  0
LINE
  5
7AE
  8
NOCUT
 10
9.204999999999998
 20
46.43919780459999
 30
0.0
 11
9.204999999999998
 21
46.14499999999999
 31
0.0
  0
LINE
  5
7AF
  8
NOCUT
 10
13.05499999999999
 20
46.43919780459999
 30
0.0
 11
13.05499999999999
 21
46.14499999999999
 31
0.0
  0
DIMENSION
  5
804
  8
SK2
  2
*D8
 10
101.6
 20
62.46215670356074
 30
0.0
 11
50.79999999999999
 21
64.33715670356074
 31
0.0
 70
    32
  3
ISO-25
 13
0.0
 23
34.92499999999998
 33
0.0
 14
101.6
 24
33.92500000000007
 34
0.0
1001
ACAD
1000
DSTYLE
1002
{
1070
   287
1070
     5
1070
   271
1070
     3
1070
   272
1070
     3
1070
   279
1070
     2
1002
}
  0
LINE
  5
8BF
  8
NOCUT
 10
0.0
 20
34.92499999999999
 30
0.0
 11
0.0
 21
0.0
 31
0.0
  0
LINE
  5
8C0
  8
NOCUT
 10
0.0
 20
0.0
 30
0.0
 11
101.6
 21
0.0
 31
0.0
  0
INSERT
  5
A17
  8
SK6
  2
_FILLED
 10
-20.78186483605847
 20
-31.89428358495073
 30
0.0
 41
3.5
 42
3.5
 43
3.5
 50
52.86965044919886
  0
POLYLINE
  5
A18
  8
SK6
 66
     1
 10
0.0
 20
0.0
 30
0.0
  0
VERTEX
  5
1BC2
  8
SK6
 10
-22.89457117648658
 20
-34.68470862768434
 30
0.0
  0
VERTEX
  5
1BC3
  8
SK6
 10
-48.02596493475846
 20
-67.87780752645074
 30
0.0
  0
VERTEX
  5
1BC4
  8
SK6
 10
-49.90096493475846
 20
-66.12780752645074
 30
0.0
  0
VERTEX
  5
1BC5
  8
SK6
 10
-53.40096493475846
 20
-66.12780752645074
 30
0.0
  0
SEQEND
  5
212D
  8
SK6
  0
ARC
  5
AC7
  8
1
 10
20.04999999999998
 20
35.92499999999998
 30
0.0
 40
1.0
 50
180.0
 51
270.0
  0
ARC
  5
AC9
  8
1
 10
20.04999999999998
 20
-35.92500000000001
 30
0.0
 40
1.0
 50
90.0
 51
180.0
  0
ARC
  5
ACA
  8
1
 10
1.299999999999983
 20
35.125
 30
0.0
 40
0.5
 50
270.0
 51
293.5781784781994
  0
ARC
  5
ACB
  8
1
 10
1.299999999999983
 20
-35.125
 30
0.0
 40
0.500000000000009
 50
66.42182152180017
 51
90.0
  0
LINE
  5
ACF
  8
1
 10
0.0
 20
-34.92500000000001
 30
0.0
 11
0.2999999999999829
 21
-34.625
 31
0.0
  0
LINE
  5
AD0
  8
1
 10
0.2999999999999829
 20
34.625
 30
0.0
 11
0.0
 21
34.92499999999998
 31
0.0
  0
LINE
  5
AD5
  8
1
 10
1.299999999999983
 20
34.625
 30
0.0
 11
0.2999999999999829
 21
34.625
 31
0.0
  0
LINE
  5
AD6
  8
1
 10
0.2999999999999829
 20
-34.625
 30
0.0
 11
1.299999999999983
 21
-34.625
 31
0.0
  0
LINE
  5
ADB
  8
1
 10
14.65616694409999
 20
-47.282880439
 30
0.0
 11
14.68806954659999
 21
-47.29184187660002
 31
0.0
  0
LINE
  5
ADC
  8
1
 10
14.6561667691
 20
47.30816788690001
 30
0.0
 11
14.6561667691
 21
-47.2826327523
 31
0.0
  0
LINE
  5
ADD
  8
1
 10
14.7615962207
 20
47.3314147463
 30
0.0
 11
14.6561668942
 21
47.30816788690001
 31
0.0
  0
LINE
  5
ADE
  8
1
 10
18.25
 20
47.3314147463
 30
0.0
 11
14.7615962207
 21
47.3314147463
 31
0.0
  0
LINE
  5
ADF
  8
1
 10
14.68806954659999
 20
-47.29184187660002
 30
0.0
 11
18.25
 21
-47.29184187660002
 31
0.0
  0
LINE
  5
AE0
  8
1
 10
7.498403779400007
 20
47.3314147463
 30
0.0
 11
4.006414746699988
 21
47.3314147463
 31
0.0
  0
LINE
  5
AE1
  8
1
 10
7.603833105900009
 20
47.30816788690001
 30
0.0
 11
7.498403779400007
 21
47.3314147463
 31
0.0
  0
LINE
  5
AE2
  8
1
 10
7.603833230899994
 20
47.30844201400001
 30
0.0
 11
7.603833230899994
 21
-47.28288044160001
 31
0.0
  0
LINE
  5
AE3
  8
1
 10
7.571930453299984
 20
-47.29184187660002
 30
0.0
 11
7.603833055899997
 21
-47.282880439
 31
0.0
  0
LINE
  5
AE4
  8
1
 10
4.040356993800003
 20
-47.29184187660002
 30
0.0
 11
7.571930453299984
 21
-47.29184187660002
 31
0.0
  0
LINE
  5
AE5
  8
1
 10
2.300001405499984
 20
-46.74795901499999
 30
0.0
 11
4.040356993800003
 21
-47.29184189310001
 31
0.0
  0
LINE
  5
AE6
  8
1
 10
4.006414746699988
 20
47.33141476029999
 30
0.0
 11
2.299999765199999
 21
46.80267569
 31
0.0
  0
ARC
  5
AE7
  8
1
 10
2.557435939599998
 20
-45.59355264690001
 30
0.0
 40
1.184053137363273
 50
207.7147598986998
 51
257.3157095984005
  0
LINE
  5
AE8
  8
1
 10
1.50922466130001
 20
-46.14422037630001
 30
0.0
 11
1.5
 21
-46.01377680920001
 31
0.0
  0
LINE
  5
AE9
  8
1
 10
1.5
 20
-46.01377680920001
 30
0.0
 11
1.5
 21
46.01377680919998
 31
0.0
  0
ARC
  5
AEA
  8
1
 10
2.572884962100005
 20
45.72649004249999
 30
0.0
 40
1.111555736593689
 50
104.3436511600003
 51
164.8417645594994
  0
LINE
  5
AEB
  8
1
 10
9.204999995999998
 20
44.41431970880001
 30
0.0
 11
7.60383322749999
 21
47.3081678945
 31
0.0
  0
LINE
  5
AEC
  8
1
 10
9.204999999999984
 20
44.4143196734
 30
0.0
 11
9.204999999999984
 21
-44.387299867
 31
0.0
  0
LINE
  5
AED
  8
1
 10
7.603833226399985
 20
-47.28288044990001
 30
0.0
 11
9.2049999921
 21
-44.38762367050001
 31
0.0
  0
LINE
  5
AEE
  8
1
 10
14.65616677259999
 20
47.3081678945
 30
0.0
 11
13.05500000399999
 21
44.41431970880001
 31
0.0
  0
LINE
  5
AEF
  8
1
 10
13.05500000800001
 20
-44.38762367050001
 30
0.0
 11
14.65616677360001
 21
-47.28288044990001
 31
0.0
  0
LINE
  5
AF0
  8
1
 10
13.05500000000001
 20
44.41459195280001
 30
0.0
 11
13.05500000000001
 21
-44.38762365650001
 31
0.0
  0
ARC
  5
AF1
  8
1
 10
17.92302328310001
 20
46.41895288640001
 30
0.0
 40
1.127359624435328
 50
1.493363825500091
 51
43.53750291790048
  0
LINE
  5
AF2
  8
1
 10
19.04999999999998
 20
46.44833319130001
 30
0.0
 11
19.04999999999998
 21
-46.44833319130001
 31
0.0
  0
ARC
  5
AF3
  8
1
 10
17.91824827779999
 20
-46.4157978575
 30
0.0
 40
1.1322192847622
 50
319.2464850235001
 51
358.3533278529993
  0
ARC
  5
AF4
  8
1
 10
18.2616113983
 20
-46.25791326929999
 30
0.0
 40
1.033993805426882
 50
269.3565743835002
 51
299.8289453780985
  0
ARC
  5
AF5
  8
1
 10
18.2610591033
 20
46.41902767409999
 30
0.0
 40
0.9124540938653742
 50
58.31881226410037
 51
90.69445187719943
  0
ARC
  5
AF6
  8
1
 10
12.5158206966
 20
-44.1073442162
 30
0.0
 40
0.5397579791454132
 50
357.3466499737992
 51
85.83742202690154
  0
ARC
  5
AF7
  8
1
 10
12.54139279200001
 20
44.09944295630001
 30
0.0
 40
0.4858431210597904
 50
271.6049163143007
 51
333.441972537701
  0
POLYLINE
  5
AF8
  8
1
 66
     1
 10
0.0
 20
0.0
 30
0.0
  0
VERTEX
  5
1BC6
  8
1
 10
13.05500000000001
 20
44.14662312639999
 30
0.0
  0
VERTEX
  5
1BC7
  8
1
 10
13.03542892280001
 20
44.01594229719998
 30
0.0
  0
VERTEX
  5
1BC8
  8
1
 10
12.97787844319998
 20
43.88571451269999
 30
0.0
  0
SEQEND
  5
212C
  8
1
  0
ARC
  5
AF9
  8
1
 10
9.744214343399989
 20
-44.10737531749999
 30
0.0
 40
0.5397915428070933
 50
94.16604783349855
 51
182.6498801657025
  0
POLYLINE
  5
AFA
  8
1
 66
     1
 10
0.0
 20
0.0
 30
0.0
  0
VERTEX
  5
1BC9
  8
1
 10
9.280099379399985
 20
43.88913247470001
 30
0.0
  0
VERTEX
  5
1BCA
  8
1
 10
9.224055884099982
 20
44.0177026321
 30
0.0
  0
VERTEX
  5
1BCB
  8
1
 10
9.204999999999984
 20
44.14662312639999
 30
0.0
  0
SEQEND
  5
212B
  8
1
  0
ARC
  5
AFB
  8
1
 10
9.721350266000002
 20
44.10422581969999
 30
0.0
 40
0.4907078648052702
 50
206.0244317763009
 51
268.0905652222996
  0
LINE
  5
AFC
  8
1
 10
12.55500000000001
 20
43.613790424
 30
0.0
 11
9.704999999999984
 21
43.613790424
 31
0.0
  0
LINE
  5
AFD
  8
1
 10
9.704999999999984
 20
-43.5690100651
 30
0.0
 11
12.55500000000001
 21
-43.5690100651
 31
0.0
  0
LINE
  5
B00
  8
1
 10
0.2999999999999829
 20
34.625
 30
0.0
 11
0.2999999999999829
 21
-34.625
 31
0.0
  0
LINE
  5
B01
  8
1
 10
0.0
 20
34.92499999999998
 30
0.0
 11
0.0
 21
-34.92500000000001
 31
0.0
  0
LINE
  5
B04
  8
1
 10
14.68806954670001
 20
-47.29184187660002
 30
0.0
 11
14.65616694420001
 21
-47.282880439
 31
0.0
  0
LINE
  5
B1A
  8
3
 10
1.500000000000004
 20
37.72
 30
0.0
 11
19.04999999999998
 21
37.72
 31
0.0
  0
LINE
  5
B3B
  8
3
 10
1.5
 20
-35.30000000000001
 30
0.0
 11
19.26937525020018
 21
-35.30000000000001
 31
0.0
  0
LINE
  5
B42
  8
3
 10
26.97499999999999
 20
28.32499999999999
 30
0.0
 11
33.32499999999999
 21
28.32499999999999
 31
0.0
  0
LINE
  5
B43
  8
3
 10
20.625
 20
28.32499999999999
 30
0.0
 11
26.97499999999999
 21
28.32499999999999
 31
0.0
  0
LINE
  5
B44
  8
3
 10
11.375
 20
37.31999999999999
 30
0.0
 11
16.125
 21
37.31999999999999
 31
0.0
  0
LINE
  5
B45
  8
3
 10
6.625
 20
37.31999999999999
 30
0.0
 11
11.375
 21
37.31999999999999
 31
0.0
  0
LINE
  5
B55
  8
3
 10
20.625
 20
28.32499999999999
 30
0.0
 11
26.97499999999999
 21
24.50953506919998
 31
0.0
  0
LINE
  5
B56
  8
3
 10
26.97499999999999
 20
24.50953506919998
 30
0.0
 11
33.32499999999999
 21
28.32499999999999
 31
0.0
  0
LINE
  5
B57
  8
3
 10
20.625
 20
34.92499999999998
 30
0.0
 11
20.625
 21
28.32499999999999
 31
0.0
  0
LINE
  5
B58
  8
3
 10
33.32499999999999
 20
28.32499999999999
 30
0.0
 11
33.32499999999999
 21
34.92499999999998
 31
0.0
  0
LINE
  5
B59
  8
3
 10
6.625
 20
37.72
 30
0.0
 11
6.625
 21
37.31999999999999
 31
0.0
  0
LINE
  5
B5A
  8
3
 10
16.125
 20
37.31999999999999
 30
0.0
 11
16.125
 21
37.72
 31
0.0
  0
LINE
  5
B5B
  8
1
 10
20.04999999999998
 20
-34.92500000000001
 30
0.0
 11
20.04999999999998
 21
34.92499999999998
 31
0.0
  0
LINE
  5
B5C
  8
1
 10
1.299999999999983
 20
-34.625
 30
0.0
 11
1.299999999999983
 21
34.625
 31
0.0
  0
LINE
  5
B5F
  8
1
 10
12.55500000000001
 20
-43.00413183130001
 30
0.0
 11
12.55500000000001
 21
42.79577481850001
 31
0.0
  0
LINE
  5
B60
  8
1
 10
9.704999999999984
 20
-43.00421493109999
 30
0.0
 11
9.704999999999984
 21
42.7957705776
 31
0.0
  0
LINE
  5
B62
  8
1
 10
18.25
 20
47.3314147463
 30
0.0
 11
18.25
 21
-47.29184187660002
 31
0.0
  0
LINE
  5
B64
  8
1
 10
2.299999999999983
 20
-46.74795854910002
 30
0.0
 11
2.299999999999983
 21
46.80267576719999
 31
0.0
  0
LINE
  5
CE0
  8
1
 10
100.6
 20
34.92500000000007
 30
0.0
 11
20.04999999999998
 21
34.92500000000007
 31
0.0
  0
ARC
  5
CE2
  8
1
 10
100.6
 20
-33.92500000000007
 30
0.0
 40
1.000000000000227
 50
270.0
 51
0.0
  0
ARC
  5
CE3
  8
1
 10
100.6
 20
33.92500000000007
 30
0.0
 40
1.0
 50
0.0
 51
90.0
  0
LINE
  5
CFB
  8
1
 10
101.6
 20
-31.75381000000004
 30
0.0
 11
101.6283378126
 21
-31.75381000000004
 31
0.0
  0
CIRCLE
  5
D1F
  8
1
 10
83.59999999999998
 20
0.0000000000001137
 30
0.0
 40
2.624999999999545
  0
LINE
  5
D20
  8
1
 10
101.6
 20
0.0000000000001137
 30
0.0
 11
101.6
 21
33.92500000000007
 31
0.0
  0
LINE
  5
D21
  8
1
 10
101.6
 20
-33.92500000000007
 30
0.0
 11
101.6
 21
0.0000000000001137
 31
0.0
  0
CIRCLE
  5
D22
  8
1
 10
83.59999999999998
 20
0.0000000000001137
 30
0.0
 40
2.525000000000006
  0
LINE
  5
D28
  8
1
 10
82.34999999999998
 20
-0.721687836499882
 30
0.0
 11
83.59999999999998
 21
-1.443375672999878
 31
0.0
  0
LINE
  5
D29
  8
1
 10
84.84999999999998
 20
-0.721687836499882
 30
0.0
 11
83.59999999999998
 21
-1.443375672999878
 31
0.0
  0
LINE
  5
D2A
  8
1
 10
84.84999999999998
 20
0.7216878365001094
 30
0.0
 11
84.84999999999998
 21
-0.721687836499882
 31
0.0
  0
LINE
  5
D2B
  8
1
 10
84.84999999999998
 20
0.7216878365001094
 30
0.0
 11
83.59999999999998
 21
1.443375673000105
 31
0.0
  0
LINE
  5
D2C
  8
1
 10
82.34999999999998
 20
0.7216878365001094
 30
0.0
 11
83.59999999999998
 21
1.443375673000105
 31
0.0
  0
LINE
  5
D2D
  8
1
 10
82.34999999999998
 20
0.7216878365001094
 30
0.0
 11
82.34999999999998
 21
-0.721687836499882
 31
0.0
  0
CIRCLE
  5
D2E
  8
1
 10
83.59999999999998
 20
0.0000000000001137
 30
0.0
 40
2.054999999999836
  0
CIRCLE
  5
D2F
  8
1
 10
83.59999999999998
 20
0.0000000000001137
 30
0.0
 40
2.256103126842049
  0
CIRCLE
  5
D30
  8
1
 10
83.59999999999998
 20
0.0000000000001137
 30
0.0
 40
2.500000000000085
  0
POLYLINE
  5
D3E
  8
3
 66
     1
 10
0.0
 20
0.0
 30
0.0
  0
VERTEX
  5
1BCC
  8
3
 10
83.59999999999998
 20
-28.84788378399992
 30
0.0
  0
VERTEX
  5
1BCD
  8
3
 10
84.46749848169999
 20
-28.93098265750007
 30
0.0
  0
VERTEX
  5
1BCE
  8
3
 10
85.23717542390001
 20
-29.16774297809991
 30
0.0
  0
VERTEX
  5
1BCF
  8
3
 10
85.82381580739998
 20
-29.52444509919985
 30
0.0
  0
VERTEX
  5
1BD0
  8
3
 10
86.16030775899999
 20
-29.9521880481999
 30
0.0
  0
VERTEX
  5
1BD1
  8
3
 10
86.20775711429998
 20
-30.39500826999995
 30
0.0
  0
VERTEX
  5
1BD2
  8
3
 10
85.96242987979998
 20
-30.80187446539992
 30
0.0
  0
VERTEX
  5
1BD3
  8
3
 10
85.45187247119999
 20
-31.13320775749992
 30
0.0
  0
VERTEX
  5
1BD4
  8
3
 10
84.73146891659998
 20
-31.3606117354999
 30
0.0
  0
VERTEX
  5
1BD5
  8
3
 10
83.88300586009997
 20
-31.46622946299988
 30
0.0
  0
VERTEX
  5
1BD6
  8
3
 10
83.00456459789997
 20
-31.44307976840003
 30
0.0
  0
VERTEX
  5
1BD7
  8
3
 10
82.19416224999999
 20
-31.29335200349999
 30
0.0
  0
VERTEX
  5
1BD8
  8
3
 10
81.54040920199999
 20
-31.02682272200002
 30
0.0
  0
VERTEX
  5
1BD9
  8
3
 10
81.1175743299
 20
-30.66357714589992
 30
0.0
  0
VERTEX
  5
1BDA
  8
3
 10
80.97505241529997
 20
-30.23763957640006
 30
0.0
  0
VERTEX
  5
1BDB
  8
3
 10
81.12781611189997
 20
-29.79499263650007
 30
0.0
  0
VERTEX
  5
1BDC
  8
3
 10
81.55775834930002
 20
-29.38759440029992
 30
0.0
  0
VERTEX
  5
1BDD
  8
3
 10
82.21839258449997
 20
-29.06811232050006
 30
0.0
  0
VERTEX
  5
1BDE
  8
3
 10
83.03590866380002
 20
-28.88250270679998
 30
0.0
  0
VERTEX
  5
1BDF
  8
3
 10
83.59999999999998
 20
-28.84788378399992
 30
0.0
  0
SEQEND
  5
212A
  8
3
  0
POLYLINE
  5
D3F
  8
3
 66
     1
 10
0.0
 20
0.0
 30
0.0
  0
VERTEX
  5
1BE0
  8
3
 10
83.59999999999998
 20
31.47288378400015
 30
0.0
  0
VERTEX
  5
1BE1
  8
3
 10
84.46749848169999
 20
31.40849580259999
 30
0.0
  0
VERTEX
  5
1BE2
  8
3
 10
85.23717542390001
 20
31.21964005920006
 30
0.0
  0
VERTEX
  5
1BE3
  8
3
 10
85.82381580739998
 20
30.91917383800012
 30
0.0
  0
VERTEX
  5
1BE4
  8
3
 10
86.16030775899999
 20
30.53136779520003
 30
0.0
  0
VERTEX
  5
1BE5
  8
3
 10
86.20775711429998
 20
30.09462878880015
 30
0.0
  0
VERTEX
  5
1BE6
  8
3
 10
85.96242987979998
 20
29.65751872390013
 30
0.0
  0
VERTEX
  5
1BE7
  8
3
 10
85.45187247119999
 20
29.27277948669996
 30
0.0
  0
VERTEX
  5
1BE8
  8
3
 10
84.73146891659998
 20
28.99198278799997
 30
0.0
  0
VERTEX
  5
1BE9
  8
3
 10
84.57086003409997
 20
28.96634235060003
 30
0.0
  0
SEQEND
  5
2129
  8
3
  0
POLYLINE
  5
D40
  8
3
 66
     1
 10
0.0
 20
0.0
 30
0.0
  0
VERTEX
  5
1BEA
  8
3
 10
82.64449330610002
 20
28.97094003550012
 30
0.0
  0
VERTEX
  5
1BEB
  8
3
 10
82.19416224999999
 20
29.07654230929995
 30
0.0
  0
VERTEX
  5
1BEC
  8
3
 10
81.54040920199999
 20
29.3993367022
 30
0.0
  0
VERTEX
  5
1BED
  8
3
 10
81.1175743299
 20
29.81023794479995
 30
0.0
  0
VERTEX
  5
1BEE
  8
3
 10
80.97505241529997
 20
30.2542280545
 30
0.0
  0
VERTEX
  5
1BEF
  8
3
 10
81.12781611189997
 20
30.67756377989997
 30
0.0
  0
VERTEX
  5
1BF0
  8
3
 10
81.55775834930002
 20
31.03679846279999
 30
0.0
  0
VERTEX
  5
1BF1
  8
3
 10
82.21839258449997
 20
31.30010379650014
 30
0.0
  0
VERTEX
  5
1BF2
  8
3
 10
83.03590866380002
 20
31.44617701610002
 30
0.0
  0
VERTEX
  5
1BF3
  8
3
 10
83.59999999999998
 20
31.47288378400015
 30
0.0
  0
SEQEND
  5
2128
  8
3
  0
CIRCLE
  5
D41
  8
3
 10
83.59999999999998
 20
0.0000000000001137
 30
0.0
 40
2.099999999999994
  0
LINE
  5
D4D
  8
SK3
 10
-40.09999999999999
 20
0.0000000000001137
 30
0.0
 11
-40.09999999999999
 21
11.11250000000007
 31
0.0
  0
LINE
  5
D4E
  8
SK3
 10
-40.09999999999999
 20
-11.11250000000007
 30
0.0
 11
-40.09999999999999
 21
0.0000000000001137
 31
0.0
  0
LINE
  5
D4F
  8
SK3
 10
-37.834376924
 20
0.0000000000001137
 30
0.0
 11
-37.834376924
 21
-7.341869999999858
 31
0.0
  0
LINE
  5
D50
  8
SK3
 10
-37.834376924
 20
7.341870000000085
 30
0.0
 11
-37.834376924
 21
0.0000000000001137
 31
0.0
  0
POLYLINE
  5
D53
  8
3
 66
     1
 10
0.0
 20
0.0
 30
0.0
  0
VERTEX
  5
1BF4
  8
3
 10
83.59999999999998
 20
7.142601359200057
 30
0.0
  0
VERTEX
  5
1BF5
  8
3
 10
84.27881147069998
 20
7.11452859489998
 30
0.0
  0
VERTEX
  5
1BF6
  8
3
 10
84.88077394070002
 20
7.024852442100041
 30
0.0
  0
VERTEX
  5
1BF7
  8
3
 10
85.35604233350001
 20
6.855363423699941
 30
0.0
  0
VERTEX
  5
1BF8
  8
3
 10
85.6406959173
 20
6.591516763100003
 30
0.0
  0
VERTEX
  5
1BF9
  8
3
 10
85.69019915000003
 20
6.254497762500137
 30
0.0
  0
VERTEX
  5
1BFA
  8
3
 10
85.51657023439999
 20
5.885470292800051
 30
0.0
  0
VERTEX
  5
1BFB
  8
3
 10
85.1406196151
 20
5.523451856700035
 30
0.0
  0
VERTEX
  5
1BFC
  8
3
 10
84.5815982434
 20
5.223388291400056
 30
0.0
  0
VERTEX
  5
1BFD
  8
3
 10
83.90233887189994
 20
5.059163961699937
 30
0.0
  0
VERTEX
  5
1BFE
  8
3
 10
83.20988140509998
 20
5.070238859900087
 30
0.0
  0
VERTEX
  5
1BFF
  8
3
 10
82.57628753270002
 20
5.23997753569995
 30
0.0
  0
VERTEX
  5
1C00
  8
3
 10
82.0392323398
 20
5.538239863000058
 30
0.0
  0
VERTEX
  5
1C01
  8
3
 10
81.65971702409998
 20
5.918418927000062
 30
0.0
  0
VERTEX
  5
1C02
  8
3
 10
81.50292034869996
 20
6.30216747040015
 30
0.0
  0
VERTEX
  5
1C03
  8
3
 10
81.57917134599997
 20
6.624567060700087
 30
0.0
  0
VERTEX
  5
1C04
  8
3
 10
81.8656411802
 20
6.867043579300002
 30
0.0
  0
VERTEX
  5
1C05
  8
3
 10
82.34611864939997
 20
7.030900774799989
 30
0.0
  0
VERTEX
  5
1C06
  8
3
 10
82.98316813379996
 20
7.119658210600051
 30
0.0
  0
VERTEX
  5
1C07
  8
3
 10
83.59999999999998
 20
7.142601359200057
 30
0.0
  0
SEQEND
  5
2127
  8
3
  0
POLYLINE
  5
D54
  8
3
 66
     1
 10
0.0
 20
0.0
 30
0.0
  0
VERTEX
  5
1C08
  8
3
 10
83.59999999999998
 20
-5.042601359299965
 30
0.0
  0
VERTEX
  5
1C09
  8
3
 10
84.27881147069998
 20
-5.12726540469987
 30
0.0
  0
VERTEX
  5
1C0A
  8
3
 10
84.88077394070002
 20
-5.360635475300001
 30
0.0
  0
VERTEX
  5
1C0B
  8
3
 10
85.35604233350001
 20
-5.703705782300062
 30
0.0
  0
VERTEX
  5
1C0C
  8
3
 10
85.6406959173
 20
-6.095976479099932
 30
0.0
  0
VERTEX
  5
1C0D
  8
3
 10
85.69019915000003
 20
-6.457148973899962
 30
0.0
  0
VERTEX
  5
1C0E
  8
3
 10
85.51657023439999
 20
-6.743816689500022
 30
0.0
  0
VERTEX
  5
1C0F
  8
3
 10
85.1406196151
 20
-6.950508688600053
 30
0.0
  0
VERTEX
  5
1C10
  8
3
 10
84.5815982434
 20
-7.079853989599883
 30
0.0
  0
VERTEX
  5
1C11
  8
3
 10
83.90233887189994
 20
-7.137286000100062
 30
0.0
  0
VERTEX
  5
1C12
  8
3
 10
83.20988140509998
 20
-7.133684396399872
 30
0.0
  0
VERTEX
  5
1C13
  8
3
 10
82.57628753270002
 20
-7.073556763500051
 30
0.0
  0
VERTEX
  5
1C14
  8
3
 10
82.0392323398
 20
-6.943232500399859
 30
0.0
  0
VERTEX
  5
1C15
  8
3
 10
81.65971702409998
 20
-6.721725825699991
 30
0.0
  0
VERTEX
  5
1C16
  8
3
 10
81.50292034869996
 20
-6.412878517799868
 30
0.0
  0
VERTEX
  5
1C17
  8
3
 10
81.57917134599997
 20
-6.053382719900014
 30
0.0
  0
VERTEX
  5
1C18
  8
3
 10
81.8656411802
 20
-5.682982987999935
 30
0.0
  0
VERTEX
  5
1C19
  8
3
 10
82.34611864939997
 20
-5.346329150199949
 30
0.0
  0
VERTEX
  5
1C1A
  8
3
 10
82.98316813379996
 20
-5.112292163100051
 30
0.0
  0
VERTEX
  5
1C1B
  8
3
 10
83.59999999999998
 20
-5.042601359299965
 30
0.0
  0
SEQEND
  5
2126
  8
3
  0
LINE
  5
D55
  8
3
 10
86.59999999999998
 20
31.75049999999999
 30
0.0
 11
86.59999999999998
 21
19.04949999999997
 31
0.0
  0
LINE
  5
D56
  8
3
 10
86.59999999999998
 20
-19.04949999999997
 30
0.0
 11
86.59999999999998
 21
-31.75049999999999
 31
0.0
  0
POLYLINE
  5
D5B
  8
3
 66
     1
 10
0.0
 20
0.0
 30
0.0
  0
VERTEX
  5
1C1C
  8
3
 10
83.59999999999998
 20
30.06185102680013
 30
0.0
  0
VERTEX
  5
1C1D
  8
3
 10
84.31824230099996
 20
29.99852827860002
 30
0.0
  0
VERTEX
  5
1C1E
  8
3
 10
84.94985398040002
 20
29.81619769199995
 30
0.0
  0
VERTEX
  5
1C1F
  8
3
 10
85.41865334799998
 20
29.53685102680004
 30
0.0
  0
VERTEX
  5
1C20
  8
3
 10
85.6680962814
 20
29.19418161329997
 30
0.0
  0
VERTEX
  5
1C21
  8
3
 10
85.6680962814
 20
28.8295204402001
 30
0.0
  0
VERTEX
  5
1C22
  8
3
 10
85.41865334799998
 20
28.48685102680008
 30
0.0
  0
VERTEX
  5
1C23
  8
3
 10
84.94985398040002
 20
28.20750436150013
 30
0.0
  0
VERTEX
  5
1C24
  8
3
 10
84.31824230099996
 20
28.02517377490005
 30
0.0
  0
VERTEX
  5
1C25
  8
3
 10
83.59999999999998
 20
27.96185102679999
 30
0.0
  0
VERTEX
  5
1C26
  8
3
 10
82.881757699
 20
28.02517377490005
 30
0.0
  0
VERTEX
  5
1C27
  8
3
 10
82.25014601969998
 20
28.20750436150013
 30
0.0
  0
VERTEX
  5
1C28
  8
3
 10
81.78134665209997
 20
28.48685102680008
 30
0.0
  0
VERTEX
  5
1C29
  8
3
 10
81.53190371869995
 20
28.8295204402001
 30
0.0
  0
VERTEX
  5
1C2A
  8
3
 10
81.53190371869995
 20
29.19418161329997
 30
0.0
  0
VERTEX
  5
1C2B
  8
3
 10
81.78134665209997
 20
29.53685102680004
 30
0.0
  0
VERTEX
  5
1C2C
  8
3
 10
82.25014601969998
 20
29.81619769199995
 30
0.0
  0
VERTEX
  5
1C2D
  8
3
 10
82.881757699
 20
29.99852827860002
 30
0.0
  0
VERTEX
  5
1C2E
  8
3
 10
83.59999999999998
 20
30.06185102680013
 30
0.0
  0
SEQEND
  5
2125
  8
3
  0
POLYLINE
  5
D5C
  8
3
 66
     1
 10
0.0
 20
0.0
 30
0.0
  0
VERTEX
  5
1C2F
  8
3
 10
84.78743420870002
 20
10.1757984945001
 30
0.0
  0
VERTEX
  5
1C30
  8
3
 10
84.4307135081
 20
9.66977149310003
 30
0.0
  0
VERTEX
  5
1C31
  8
3
 10
84.29306655810002
 20
9.414316763800002
 30
0.0
  0
VERTEX
  5
1C32
  8
3
 10
84.24145720699995
 20
9.209155885299992
 30
0.0
  0
VERTEX
  5
1C33
  8
3
 10
84.26926547539996
 20
9.011915962300122
 30
0.0
  0
VERTEX
  5
1C34
  8
3
 10
84.4124097565
 20
8.774532872500117
 30
0.0
  0
VERTEX
  5
1C35
  8
3
 10
84.86120238729997
 20
8.395253660000094
 30
0.0
  0
VERTEX
  5
1C36
  8
3
 10
85.36244969099995
 20
8.182853683999951
 30
0.0
  0
VERTEX
  5
1C37
  8
3
 10
85.59671859419997
 20
8.212678140000094
 30
0.0
  0
VERTEX
  5
1C38
  8
3
 10
85.69896407429998
 20
8.41171314159999
 30
0.0
  0
VERTEX
  5
1C39
  8
3
 10
85.65243416149998
 20
8.709264812000015
 30
0.0
  0
VERTEX
  5
1C3A
  8
3
 10
85.50274057409997
 20
9.068375611500073
 30
0.0
  0
VERTEX
  5
1C3B
  8
3
 10
85.16548096649997
 20
9.638514827300128
 30
0.0
  0
VERTEX
  5
1C3C
  8
3
 10
84.60877979909999
 20
10.42164103419998
 30
0.0
  0
VERTEX
  5
1C3D
  8
3
 10
84.38264801560003
 20
10.76040447870002
 30
0.0
  0
VERTEX
  5
1C3E
  8
3
 10
84.26237566969998
 20
11.02537921250007
 30
0.0
  0
VERTEX
  5
1C3F
  8
3
 10
84.2419854699
 20
11.21564272800003
 30
0.0
  0
VERTEX
  5
1C40
  8
3
 10
84.28999487349996
 20
11.39014499200005
 30
0.0
  0
VERTEX
  5
1C41
  8
3
 10
84.48676977749996
 20
11.65888278659997
 30
0.0
  0
VERTEX
  5
1C42
  8
3
 10
85.04378092549997
 20
12.05893686470006
 30
0.0
  0
VERTEX
  5
1C43
  8
3
 10
85.43023572669996
 20
12.17550193290015
 30
0.0
  0
VERTEX
  5
1C44
  8
3
 10
85.6315862227
 20
12.11135876740002
 30
0.0
  0
VERTEX
  5
1C45
  8
3
 10
85.69958565469996
 20
11.88661539700013
 30
0.0
  0
VERTEX
  5
1C46
  8
3
 10
85.63105246379997
 20
11.57819859829999
 30
0.0
  0
VERTEX
  5
1C47
  8
3
 10
85.46184255020002
 20
11.20416659449995
 30
0.0
  0
VERTEX
  5
1C48
  8
3
 10
85.08979462549998
 20
10.60073280660015
 30
0.0
  0
VERTEX
  5
1C49
  8
3
 10
84.78743420870002
 20
10.1757984945001
 30
0.0
  0
SEQEND
  5
2124
  8
3
  0
POLYLINE
  5
D5D
  8
3
 66
     1
 10
0.0
 20
0.0
 30
0.0
  0
VERTEX
  5
1C4A
  8
3
 10
83.59999999999998
 20
-27.96185102679999
 30
0.0
  0
VERTEX
  5
1C4B
  8
3
 10
84.31824230099996
 20
-28.02517377499987
 30
0.0
  0
VERTEX
  5
1C4C
  8
3
 10
84.94985398040002
 20
-28.2075043614999
 30
0.0
  0
VERTEX
  5
1C4D
  8
3
 10
85.41865334799998
 20
-28.48685102679985
 30
0.0
  0
VERTEX
  5
1C4E
  8
3
 10
85.6680962814
 20
-28.82952044019987
 30
0.0
  0
VERTEX
  5
1C4F
  8
3
 10
85.6680962814
 20
-29.19418161329997
 30
0.0
  0
VERTEX
  5
1C50
  8
3
 10
85.41865334799998
 20
-29.53685102680004
 30
0.0
  0
VERTEX
  5
1C51
  8
3
 10
84.94985398040002
 20
-29.81619769209999
 30
0.0
  0
VERTEX
  5
1C52
  8
3
 10
84.31824230099996
 20
-29.99852827860002
 30
0.0
  0
VERTEX
  5
1C53
  8
3
 10
83.59999999999998
 20
-30.0618510267999
 30
0.0
  0
VERTEX
  5
1C54
  8
3
 10
82.881757699
 20
-29.99852827860002
 30
0.0
  0
VERTEX
  5
1C55
  8
3
 10
82.25014601969998
 20
-29.81619769209999
 30
0.0
  0
VERTEX
  5
1C56
  8
3
 10
81.78134665209997
 20
-29.53685102680004
 30
0.0
  0
VERTEX
  5
1C57
  8
3
 10
81.53190371869995
 20
-29.19418161329997
 30
0.0
  0
VERTEX
  5
1C58
  8
3
 10
81.53190371869995
 20
-28.82952044019987
 30
0.0
  0
VERTEX
  5
1C59
  8
3
 10
81.78134665209997
 20
-28.48685102679985
 30
0.0
  0
VERTEX
  5
1C5A
  8
3
 10
82.25014601969998
 20
-28.2075043614999
 30
0.0
  0
VERTEX
  5
1C5B
  8
3
 10
82.881757699
 20
-28.02517377499987
 30
0.0
  0
VERTEX
  5
1C5C
  8
3
 10
83.59999999999998
 20
-27.96185102679999
 30
0.0
  0
SEQEND
  5
2123
  8
3
  0
POLYLINE
  5
D5E
  8
3
 66
     1
 10
0.0
 20
0.0
 30
0.0
  0
VERTEX
  5
1C5D
  8
3
 10
84.78743420870002
 20
-10.17579849449987
 30
0.0
  0
VERTEX
  5
1C5E
  8
3
 10
85.34890983610002
 20
-11.00400580190001
 30
0.0
  0
VERTEX
  5
1C5F
  8
3
 10
85.58937715059996
 20
-11.47067319020005
 30
0.0
  0
VERTEX
  5
1C60
  8
3
 10
85.69822813939994
 20
-11.86311415459988
 30
0.0
  0
VERTEX
  5
1C61
  8
3
 10
85.65594995519997
 20
-12.08168261339995
 30
0.0
  0
VERTEX
  5
1C62
  8
3
 10
85.50977232439995
 20
-12.17066122909989
 30
0.0
  0
VERTEX
  5
1C63
  8
3
 10
85.17872907869999
 20
-12.11790390530007
 30
0.0
  0
VERTEX
  5
1C64
  8
3
 10
84.62727769469997
 20
-11.78727340240005
 30
0.0
  0
VERTEX
  5
1C65
  8
3
 10
84.39420357190001
 20
-11.55471426139991
 30
0.0
  0
VERTEX
  5
1C66
  8
3
 10
84.26499650049995
 20
-11.32721459859988
 30
0.0
  0
VERTEX
  5
1C67
  8
3
 10
84.24138925839999
 20
-11.14345243449986
 30
0.0
  0
VERTEX
  5
1C68
  8
3
 10
84.28730668789997
 20
-10.95165245479996
 30
0.0
  0
VERTEX
  5
1C69
  8
3
 10
84.47711546069998
 20
-10.6106926926999
 30
0.0
  0
VERTEX
  5
1C6A
  8
3
 10
85.02652384509999
 20
-9.84239505289986
 30
0.0
  0
VERTEX
  5
1C6B
  8
3
 10
85.4214913441
 20
-9.22155508670005
 30
0.0
  0
VERTEX
  5
1C6C
  8
3
 10
85.62743133660003
 20
-8.783500904499874
 30
0.0
  0
VERTEX
  5
1C6D
  8
3
 10
85.69980839389997
 20
-8.42973822149986
 30
0.0
  0
VERTEX
  5
1C6E
  8
3
 10
85.63394911640002
 20
-8.242638408299968
 30
0.0
  0
VERTEX
  5
1C6F
  8
3
 10
85.46723288540001
 20
-8.176300128200069
 30
0.0
  0
VERTEX
  5
1C70
  8
3
 10
85.09964334849998
 20
-8.266377161599962
 30
0.0
  0
VERTEX
  5
1C71
  8
3
 10
84.52353764009997
 20
-8.65642717849994
 30
0.0
  0
VERTEX
  5
1C72
  8
3
 10
84.33319171259997
 20
-8.88255606209998
 30
0.0
  0
VERTEX
  5
1C73
  8
3
 10
84.2500050133
 20
-9.0805132111999
 30
0.0
  0
VERTEX
  5
1C74
  8
3
 10
84.24837852179998
 20
-9.265393811799981
 30
0.0
  0
VERTEX
  5
1C75
  8
3
 10
84.33321999980002
 20
-9.50124742419996
 30
0.0
  0
VERTEX
  5
1C76
  8
3
 10
84.71454719509997
 20
-10.07592391669994
 30
0.0
  0
VERTEX
  5
1C77
  8
3
 10
84.78743420870002
 20
-10.17579849449987
 30
0.0
  0
SEQEND
  5
2122
  8
3
  0
POLYLINE
  5
D5F
  8
3
 66
     1
 10
0.0
 20
0.0
 30
0.0
  0
VERTEX
  5
1C78
  8
3
 10
86.22499999999998
 20
29.37991182339999
 30
0.0
  0
VERTEX
  5
1C79
  8
3
 10
86.10837861519998
 20
28.99304565700015
 30
0.0
  0
VERTEX
  5
1C7A
  8
3
 10
85.76887678259995
 20
28.64055424719993
 30
0.0
  0
VERTEX
  5
1C7B
  8
3
 10
85.23666072990001
 20
28.3537580026001
 30
0.0
  0
VERTEX
  5
1C7C
  8
3
 10
84.55902018899998
 20
28.15814002829995
 30
0.0
  0
VERTEX
  5
1C7D
  8
3
 10
83.79616649569995
 20
28.07108183959997
 30
0.0
  0
VERTEX
  5
1C7E
  8
3
 10
83.0158825484
 20
28.10031893860003
 30
0.0
  0
VERTEX
  5
1C7F
  8
3
 10
82.28749999999998
 20
28.24325348090008
 30
0.0
  0
VERTEX
  5
1C80
  8
3
 10
81.67573883649995
 20
28.48718510500009
 30
0.0
  0
VERTEX
  5
1C81
  8
3
 10
81.23495672179997
 20
28.81043941580003
 30
0.0
  0
VERTEX
  5
1C82
  8
3
 10
81.0043190812
 20
29.18429384900003
 30
0.0
  0
VERTEX
  5
1C83
  8
3
 10
81.0043190812
 20
29.57552979770014
 30
0.0
  0
VERTEX
  5
1C84
  8
3
 10
81.23495672179997
 20
29.94938423099995
 30
0.0
  0
VERTEX
  5
1C85
  8
3
 10
81.67573883649995
 20
30.27263854170008
 30
0.0
  0
VERTEX
  5
1C86
  8
3
 10
82.28749999999998
 20
30.51657016580009
 30
0.0
  0
VERTEX
  5
1C87
  8
3
 10
83.0158825484
 20
30.65950470810014
 30
0.0
  0
VERTEX
  5
1C88
  8
3
 10
83.79616649569995
 20
30.68874180720002
 30
0.0
  0
VERTEX
  5
1C89
  8
3
 10
84.55902018899998
 20
30.60168361850003
 30
0.0
  0
VERTEX
  5
1C8A
  8
3
 10
85.23666072990001
 20
30.40606564410007
 30
0.0
  0
VERTEX
  5
1C8B
  8
3
 10
85.76887678259995
 20
30.11926939960006
 30
0.0
  0
VERTEX
  5
1C8C
  8
3
 10
86.10837861519998
 20
29.76677798980006
 30
0.0
  0
VERTEX
  5
1C8D
  8
3
 10
86.22499999999998
 20
29.37991182339999
 30
0.0
  0
SEQEND
  5
2121
  8
3
  0
POLYLINE
  5
D60
  8
3
 66
     1
 10
0.0
 20
0.0
 30
0.0
  0
VERTEX
  5
1C8E
  8
3
 10
86.22499999999998
 20
-29.37991182339999
 30
0.0
  0
VERTEX
  5
1C8F
  8
3
 10
86.10837861519998
 20
-29.76677798980006
 30
0.0
  0
VERTEX
  5
1C90
  8
3
 10
85.76887678259995
 20
-30.11926939960006
 30
0.0
  0
VERTEX
  5
1C91
  8
3
 10
85.23666072990001
 20
-30.40606564410007
 30
0.0
  0
VERTEX
  5
1C92
  8
3
 10
84.55902018899998
 20
-30.60168361850003
 30
0.0
  0
VERTEX
  5
1C93
  8
3
 10
83.79616649569995
 20
-30.68874180720002
 30
0.0
  0
VERTEX
  5
1C94
  8
3
 10
83.0158825484
 20
-30.65950470809992
 30
0.0
  0
VERTEX
  5
1C95
  8
3
 10
82.28749999999998
 20
-30.51657016589991
 30
0.0
  0
VERTEX
  5
1C96
  8
3
 10
81.67573883649995
 20
-30.27263854169985
 30
0.0
  0
VERTEX
  5
1C97
  8
3
 10
81.23495672179997
 20
-29.94938423099995
 30
0.0
  0
VERTEX
  5
1C98
  8
3
 10
81.0043190812
 20
-29.57552979779996
 30
0.0
  0
VERTEX
  5
1C99
  8
3
 10
81.0043190812
 20
-29.18429384900003
 30
0.0
  0
VERTEX
  5
1C9A
  8
3
 10
81.23495672179997
 20
-28.81043941580003
 30
0.0
  0
VERTEX
  5
1C9B
  8
3
 10
81.67573883649995
 20
-28.48718510509991
 30
0.0
  0
VERTEX
  5
1C9C
  8
3
 10
82.28749999999998
 20
-28.24325348089985
 30
0.0
  0
VERTEX
  5
1C9D
  8
3
 10
83.0158825484
 20
-28.10031893870007
 30
0.0
  0
VERTEX
  5
1C9E
  8
3
 10
83.79616649569995
 20
-28.07108183959997
 30
0.0
  0
VERTEX
  5
1C9F
  8
3
 10
84.55902018899998
 20
-28.15814002829995
 30
0.0
  0
VERTEX
  5
1CA0
  8
3
 10
85.23666072990001
 20
-28.35375800269992
 30
0.0
  0
VERTEX
  5
1CA1
  8
3
 10
85.76887678259995
 20
-28.64055424719993
 30
0.0
  0
VERTEX
  5
1CA2
  8
3
 10
86.10837861519998
 20
-28.99304565699993
 30
0.0
  0
VERTEX
  5
1CA3
  8
3
 10
86.22499999999998
 20
-29.37991182339999
 30
0.0
  0
SEQEND
  5
2120
  8
3
  0
POLYLINE
  5
D61
  8
3
 66
     1
 10
0.0
 20
0.0
 30
0.0
  0
VERTEX
  5
1CA4
  8
3
 10
83.59999999999998
 20
30.64241182340004
 30
0.0
  0
VERTEX
  5
1CA5
  8
3
 10
84.38026791079996
 20
30.58062067520007
 30
0.0
  0
VERTEX
  5
1CA6
  8
3
 10
85.08415776209996
 20
30.40129577880009
 30
0.0
  0
VERTEX
  5
1CA7
  8
3
 10
85.6427679108
 20
30.12199070439999
 30
0.0
  0
VERTEX
  5
1CA8
  8
3
 10
86.0014177037
 20
29.77004577879995
 30
0.0
  0
VERTEX
  5
1CA9
  8
3
 10
86.12500000000001
 20
29.37991182339999
 30
0.0
  0
VERTEX
  5
1CAA
  8
3
 10
86.0014177037
 20
28.98977786800003
 30
0.0
  0
VERTEX
  5
1CAB
  8
3
 10
85.6427679108
 20
28.6378329424
 30
0.0
  0
VERTEX
  5
1CAC
  8
3
 10
85.08415776209996
 20
28.35852786800012
 30
0.0
  0
VERTEX
  5
1CAD
  8
3
 10
84.38026791079996
 20
28.17920297160015
 30
0.0
  0
VERTEX
  5
1CAE
  8
3
 10
83.59999999999998
 20
28.11741182339995
 30
0.0
  0
VERTEX
  5
1CAF
  8
3
 10
82.8197320892
 20
28.17920297160015
 30
0.0
  0
VERTEX
  5
1CB0
  8
3
 10
82.11584223799998
 20
28.35852786800012
 30
0.0
  0
VERTEX
  5
1CB1
  8
3
 10
81.55723208919996
 20
28.6378329424
 30
0.0
  0
VERTEX
  5
1CB2
  8
3
 10
81.1985822964
 20
28.98977786800003
 30
0.0
  0
VERTEX
  5
1CB3
  8
3
 10
81.07499999999995
 20
29.37991182339999
 30
0.0
  0
VERTEX
  5
1CB4
  8
3
 10
81.1985822964
 20
29.77004577879995
 30
0.0
  0
VERTEX
  5
1CB5
  8
3
 10
81.55723208919996
 20
30.12199070439999
 30
0.0
  0
VERTEX
  5
1CB6
  8
3
 10
82.11584223799998
 20
30.40129577880009
 30
0.0
  0
VERTEX
  5
1CB7
  8
3
 10
82.8197320892
 20
30.58062067520007
 30
0.0
  0
VERTEX
  5
1CB8
  8
3
 10
83.59999999999998
 20
30.64241182340004
 30
0.0
  0
SEQEND
  5
211F
  8
3
  0
POLYLINE
  5
D62
  8
3
 66
     1
 10
0.0
 20
0.0
 30
0.0
  0
VERTEX
  5
1CB9
  8
3
 10
83.59999999999998
 20
-28.11741182339995
 30
0.0
  0
VERTEX
  5
1CBA
  8
3
 10
84.38026791079996
 20
-28.17920297159992
 30
0.0
  0
VERTEX
  5
1CBB
  8
3
 10
85.08415776209996
 20
-28.3585278679999
 30
0.0
  0
VERTEX
  5
1CBC
  8
3
 10
85.6427679108
 20
-28.6378329424
 30
0.0
  0
VERTEX
  5
1CBD
  8
3
 10
86.0014177037
 20
-28.98977786800003
 30
0.0
  0
VERTEX
  5
1CBE
  8
3
 10
86.12500000000001
 20
-29.37991182339999
 30
0.0
  0
VERTEX
  5
1CBF
  8
3
 10
86.0014177037
 20
-29.77004577879995
 30
0.0
  0
VERTEX
  5
1CC0
  8
3
 10
85.6427679108
 20
-30.12199070439999
 30
0.0
  0
VERTEX
  5
1CC1
  8
3
 10
85.08415776209996
 20
-30.40129577879986
 30
0.0
  0
VERTEX
  5
1CC2
  8
3
 10
84.38026791079996
 20
-30.58062067520007
 30
0.0
  0
VERTEX
  5
1CC3
  8
3
 10
83.59999999999998
 20
-30.64241182340004
 30
0.0
  0
VERTEX
  5
1CC4
  8
3
 10
82.8197320892
 20
-30.58062067520007
 30
0.0
  0
VERTEX
  5
1CC5
  8
3
 10
82.11584223799998
 20
-30.40129577879986
 30
0.0
  0
VERTEX
  5
1CC6
  8
3
 10
81.55723208919996
 20
-30.12199070439999
 30
0.0
  0
VERTEX
  5
1CC7
  8
3
 10
81.1985822964
 20
-29.77004577879995
 30
0.0
  0
VERTEX
  5
1CC8
  8
3
 10
81.07499999999995
 20
-29.37991182339999
 30
0.0
  0
VERTEX
  5
1CC9
  8
3
 10
81.1985822964
 20
-28.98977786800003
 30
0.0
  0
VERTEX
  5
1CCA
  8
3
 10
81.55723208919996
 20
-28.6378329424
 30
0.0
  0
VERTEX
  5
1CCB
  8
3
 10
82.11584223799998
 20
-28.3585278679999
 30
0.0
  0
VERTEX
  5
1CCC
  8
3
 10
82.8197320892
 20
-28.17920297159992
 30
0.0
  0
VERTEX
  5
1CCD
  8
3
 10
83.59999999999998
 20
-28.11741182339995
 30
0.0
  0
SEQEND
  5
211E
  8
3
  0
CIRCLE
  5
D63
  8
3
 10
83.59999999999998
 20
0.0000000000001137
 30
0.0
 40
2.31673274345232
  0
CIRCLE
  5
D64
  8
3
 10
83.59999999999998
 20
0.0000000000001137
 30
0.0
 40
1.75
  0
POLYLINE
  5
D65
  8
3
 66
     1
 10
0.0
 20
0.0
 30
0.0
  0
VERTEX
  5
1CCE
  8
3
 10
83.59999999999998
 20
25.92478480450006
 30
0.0
  0
VERTEX
  5
1CCF
  8
3
 10
84.2321729159
 20
25.86569800519999
 30
0.0
  0
VERTEX
  5
1CD0
  8
3
 10
84.77896737639999
 20
25.69641760699994
 30
0.0
  0
VERTEX
  5
1CD1
  8
3
 10
85.16653575989996
 20
25.43980586579994
 30
0.0
  0
VERTEX
  5
1CD2
  8
3
 10
85.34253480859998
 20
25.13051961899998
 30
0.0
  0
VERTEX
  5
1CD3
  8
3
 10
85.28319487559999
 20
24.81032968810007
 30
0.0
  0
VERTEX
  5
1CD4
  8
3
 10
84.99653014779996
 20
24.5224794976001
 30
0.0
  0
VERTEX
  5
1CD5
  8
3
 10
84.5212562851
 20
24.30584481070002
 30
0.0
  0
VERTEX
  5
1CD6
  8
3
 10
83.92156165619998
 20
24.18968334220006
 30
0.0
  0
VERTEX
  5
1CD7
  8
3
 10
83.27843834390002
 20
24.18968334220006
 30
0.0
  0
VERTEX
  5
1CD8
  8
3
 10
82.67874371500001
 20
24.30584481070002
 30
0.0
  0
VERTEX
  5
1CD9
  8
3
 10
82.20346985229999
 20
24.5224794976001
 30
0.0
  0
VERTEX
  5
1CDA
  8
3
 10
81.91680512450002
 20
24.81032968810007
 30
0.0
  0
VERTEX
  5
1CDB
  8
3
 10
81.85746519149997
 20
25.13051961899998
 30
0.0
  0
VERTEX
  5
1CDC
  8
3
 10
82.03346424019999
 20
25.43980586579994
 30
0.0
  0
VERTEX
  5
1CDD
  8
3
 10
82.42103262369996
 20
25.69641760699994
 30
0.0
  0
VERTEX
  5
1CDE
  8
3
 10
82.96782708419995
 20
25.86569800519999
 30
0.0
  0
VERTEX
  5
1CDF
  8
3
 10
83.59999999999998
 20
25.92478480450006
 30
0.0
  0
SEQEND
  5
211D
  8
3
  0
POLYLINE
  5
D66
  8
3
 66
     1
 10
0.0
 20
0.0
 30
0.0
  0
VERTEX
  5
1CE0
  8
3
 10
85.91673274350002
 20
25.54058975739997
 30
0.0
  0
VERTEX
  5
1CE1
  8
3
 10
85.79120577319999
 20
25.16446881140007
 30
0.0
  0
VERTEX
  5
1CE2
  8
3
 10
85.42822765730001
 20
24.82910640600005
 30
0.0
  0
VERTEX
  5
1CE3
  8
3
 10
84.86713270689997
 20
24.57084426150016
 30
0.0
  0
VERTEX
  5
1CE4
  8
3
 10
84.16872426609997
 20
24.41766908860006
 30
0.0
  0
VERTEX
  5
1CE5
  8
3
 10
83.4086857265
 20
24.38617979420007
 30
0.0
  0
VERTEX
  5
1CE6
  8
3
 10
82.66937905689998
 20
24.47978873170007
 30
0.0
  0
VERTEX
  5
1CE7
  8
3
 10
82.0309196065
 20
24.68835192040012
 30
0.0
  0
VERTEX
  5
1CE8
  8
3
 10
81.56249436359998
 20
24.98926830259995
 30
0.0
  0
VERTEX
  5
1CE9
  8
3
 10
81.31486447160002
 20
25.34992891910008
 30
0.0
  0
VERTEX
  5
1CEA
  8
3
 10
81.31486447160002
 20
25.73125059580013
 30
0.0
  0
VERTEX
  5
1CEB
  8
3
 10
81.56249436359998
 20
26.09191121219999
 30
0.0
  0
VERTEX
  5
1CEC
  8
3
 10
82.0309196065
 20
26.39282759440005
 30
0.0
  0
VERTEX
  5
1CED
  8
3
 10
82.66937905689998
 20
26.60139078320015
 30
0.0
  0
VERTEX
  5
1CEE
  8
3
 10
83.4086857265
 20
26.69499972070014
 30
0.0
  0
VERTEX
  5
1CEF
  8
3
 10
84.16872426609997
 20
26.66351042620011
 30
0.0
  0
VERTEX
  5
1CF0
  8
3
 10
84.86713270689997
 20
26.51033525340006
 30
0.0
  0
VERTEX
  5
1CF1
  8
3
 10
85.42822765730001
 20
26.25207310889994
 30
0.0
  0
VERTEX
  5
1CF2
  8
3
 10
85.79120577319999
 20
25.91671070350014
 30
0.0
  0
VERTEX
  5
1CF3
  8
3
 10
85.91673274350002
 20
25.54058975739997
 30
0.0
  0
SEQEND
  5
211C
  8
3
  0
POLYLINE
  5
D67
  8
3
 66
     1
 10
0.0
 20
0.0
 30
0.0
  0
VERTEX
  5
1CF4
  8
3
 10
81.54499999999997
 20
25.69930384290012
 30
0.0
  0
VERTEX
  5
1CF5
  8
3
 10
81.66893166429999
 20
26.0507295402
 30
0.0
  0
VERTEX
  5
1CF6
  8
3
 10
82.0257786694
 20
26.35976811190005
 30
0.0
  0
VERTEX
  5
1CF7
  8
3
 10
82.5725
 20
26.58914494530006
 30
0.0
  0
VERTEX
  5
1CF8
  8
3
 10
83.24315299489997
 20
26.71119380910011
 30
0.0
  0
VERTEX
  5
1CF9
  8
3
 10
83.95684700509999
 20
26.71119380910011
 30
0.0
  0
VERTEX
  5
1CFA
  8
3
 10
84.62749999999996
 20
26.58914494530006
 30
0.0
  0
VERTEX
  5
1CFB
  8
3
 10
85.17422133070001
 20
26.35976811190005
 30
0.0
  0
VERTEX
  5
1CFC
  8
3
 10
85.53106833580001
 20
26.0507295402
 30
0.0
  0
VERTEX
  5
1CFD
  8
3
 10
85.65499999999999
 20
25.69930384290012
 30
0.0
  0
VERTEX
  5
1CFE
  8
3
 10
85.53106833580001
 20
25.34787814570007
 30
0.0
  0
VERTEX
  5
1CFF
  8
3
 10
85.17422133070001
 20
25.03883957400001
 30
0.0
  0
VERTEX
  5
1D00
  8
3
 10
84.62749999999996
 20
24.80946274049995
 30
0.0
  0
VERTEX
  5
1D01
  8
3
 10
83.95684700509999
 20
24.68741387670013
 30
0.0
  0
VERTEX
  5
1D02
  8
3
 10
83.24315299489997
 20
24.68741387670013
 30
0.0
  0
VERTEX
  5
1D03
  8
3
 10
82.5725
 20
24.80946274049995
 30
0.0
  0
VERTEX
  5
1D04
  8
3
 10
82.0257786694
 20
25.03883957400001
 30
0.0
  0
VERTEX
  5
1D05
  8
3
 10
81.66893166429999
 20
25.34787814570007
 30
0.0
  0
VERTEX
  5
1D06
  8
3
 10
81.54499999999997
 20
25.69930384290012
 30
0.0
  0
SEQEND
  5
211B
  8
3
  0
POLYLINE
  5
D68
  8
3
 66
     1
 10
0.0
 20
0.0
 30
0.0
  0
VERTEX
  5
1D07
  8
3
 10
81.09999999999998
 20
25.96915073759999
 30
0.0
  0
VERTEX
  5
1D08
  8
3
 10
81.22235870930002
 20
26.35542198049995
 30
0.0
  0
VERTEX
  5
1D09
  8
3
 10
81.57745751409995
 20
26.70388230290007
 30
0.0
  0
VERTEX
  5
1D0A
  8
3
 10
82.13053686929995
 20
26.98042198049995
 30
0.0
  0
VERTEX
  5
1D0B
  8
3
 10
82.82745751409995
 20
27.15797138289997
 30
0.0
  0
VERTEX
  5
1D0C
  8
3
 10
83.59999999999998
 20
27.21915073759999
 30
0.0
  0
VERTEX
  5
1D0D
  8
3
 10
84.37254248599994
 20
27.15797138289997
 30
0.0
  0
VERTEX
  5
1D0E
  8
3
 10
85.06946313079995
 20
26.98042198049995
 30
0.0
  0
VERTEX
  5
1D0F
  8
3
 10
85.62254248599994
 20
26.70388230290007
 30
0.0
  0
VERTEX
  5
1D10
  8
3
 10
85.97764129079998
 20
26.35542198049995
 30
0.0
  0
VERTEX
  5
1D11
  8
3
 10
86.09999999999998
 20
25.96915073759999
 30
0.0
  0
VERTEX
  5
1D12
  8
3
 10
85.97764129079998
 20
25.58287949459998
 30
0.0
  0
VERTEX
  5
1D13
  8
3
 10
85.62254248599994
 20
25.23441917220009
 30
0.0
  0
VERTEX
  5
1D14
  8
3
 10
85.06946313079995
 20
24.95787949459998
 30
0.0
  0
VERTEX
  5
1D15
  8
3
 10
84.37254248599994
 20
24.78033009219996
 30
0.0
  0
VERTEX
  5
1D16
  8
3
 10
83.59999999999998
 20
24.71915073759999
 30
0.0
  0
VERTEX
  5
1D17
  8
3
 10
82.82745751409995
 20
24.78033009219996
 30
0.0
  0
VERTEX
  5
1D18
  8
3
 10
82.13053686929995
 20
24.95787949459998
 30
0.0
  0
VERTEX
  5
1D19
  8
3
 10
81.57745751409995
 20
25.23441917220009
 30
0.0
  0
VERTEX
  5
1D1A
  8
3
 10
81.22235870930002
 20
25.58287949459998
 30
0.0
  0
VERTEX
  5
1D1B
  8
3
 10
81.09999999999998
 20
25.96915073759999
 30
0.0
  0
SEQEND
  5
211A
  8
3
  0
POLYLINE
  5
D69
  8
3
 66
     1
 10
0.0
 20
0.0
 30
0.0
  0
VERTEX
  5
1D1C
  8
3
 10
81.09999999999998
 20
26.04719028889997
 30
0.0
  0
VERTEX
  5
1D1D
  8
3
 10
81.22235870930002
 20
26.43346153189998
 30
0.0
  0
VERTEX
  5
1D1E
  8
3
 10
81.57745751409995
 20
26.78192185430009
 30
0.0
  0
VERTEX
  5
1D1F
  8
3
 10
82.13053686929995
 20
27.05846153189998
 30
0.0
  0
VERTEX
  5
1D20
  8
3
 10
82.82745751409995
 20
27.2360109343
 30
0.0
  0
VERTEX
  5
1D21
  8
3
 10
83.59999999999998
 20
27.29719028889997
 30
0.0
  0
VERTEX
  5
1D22
  8
3
 10
84.37254248599994
 20
27.2360109343
 30
0.0
  0
VERTEX
  5
1D23
  8
3
 10
85.06946313079995
 20
27.05846153189998
 30
0.0
  0
VERTEX
  5
1D24
  8
3
 10
85.62254248599994
 20
26.78192185430009
 30
0.0
  0
VERTEX
  5
1D25
  8
3
 10
85.97764129079998
 20
26.43346153189998
 30
0.0
  0
VERTEX
  5
1D26
  8
3
 10
86.09999999999998
 20
26.04719028889997
 30
0.0
  0
VERTEX
  5
1D27
  8
3
 10
85.97764129079998
 20
25.66091904589996
 30
0.0
  0
VERTEX
  5
1D28
  8
3
 10
85.62254248599994
 20
25.31245872350007
 30
0.0
  0
VERTEX
  5
1D29
  8
3
 10
85.06946313079995
 20
25.03591904589996
 30
0.0
  0
VERTEX
  5
1D2A
  8
3
 10
84.37254248599994
 20
24.85836964349994
 30
0.0
  0
VERTEX
  5
1D2B
  8
3
 10
83.59999999999998
 20
24.79719028889997
 30
0.0
  0
VERTEX
  5
1D2C
  8
3
 10
82.82745751409995
 20
24.85836964349994
 30
0.0
  0
VERTEX
  5
1D2D
  8
3
 10
82.13053686929995
 20
25.03591904589996
 30
0.0
  0
VERTEX
  5
1D2E
  8
3
 10
81.57745751409995
 20
25.31245872350007
 30
0.0
  0
VERTEX
  5
1D2F
  8
3
 10
81.22235870930002
 20
25.66091904589996
 30
0.0
  0
VERTEX
  5
1D30
  8
3
 10
81.09999999999998
 20
26.04719028889997
 30
0.0
  0
SEQEND
  5
2119
  8
3
  0
POLYLINE
  5
D6A
  8
3
 66
     1
 10
0.0
 20
0.0
 30
0.0
  0
VERTEX
  5
1D31
  8
3
 10
81.54500000010002
 20
26.31703718350002
 30
0.0
  0
VERTEX
  5
1D32
  8
3
 10
81.66893166429999
 20
26.66846288080012
 30
0.0
  0
VERTEX
  5
1D33
  8
3
 10
82.0257786694
 20
26.97750145249995
 30
0.0
  0
VERTEX
  5
1D34
  8
3
 10
82.57250000009999
 20
27.20687828589996
 30
0.0
  0
VERTEX
  5
1D35
  8
3
 10
83.24315299489997
 20
27.32892714980005
 30
0.0
  0
VERTEX
  5
1D36
  8
3
 10
83.95684700519998
 20
27.32892714980005
 30
0.0
  0
VERTEX
  5
1D37
  8
3
 10
84.6275000001
 20
27.20687828589996
 30
0.0
  0
VERTEX
  5
1D38
  8
3
 10
85.17422133070001
 20
26.97750145249995
 30
0.0
  0
VERTEX
  5
1D39
  8
3
 10
85.53106833580001
 20
26.66846288080012
 30
0.0
  0
VERTEX
  5
1D3A
  8
3
 10
85.65500000009997
 20
26.31703718350002
 30
0.0
  0
VERTEX
  5
1D3B
  8
3
 10
85.53106833580001
 20
25.96561148629996
 30
0.0
  0
VERTEX
  5
1D3C
  8
3
 10
85.17422133070001
 20
25.65657291460013
 30
0.0
  0
VERTEX
  5
1D3D
  8
3
 10
84.6275000001
 20
25.42719608110008
 30
0.0
  0
VERTEX
  5
1D3E
  8
3
 10
83.95684700519998
 20
25.30514721730003
 30
0.0
  0
VERTEX
  5
1D3F
  8
3
 10
83.24315299489997
 20
25.30514721730003
 30
0.0
  0
VERTEX
  5
1D40
  8
3
 10
82.57250000009999
 20
25.42719608110008
 30
0.0
  0
VERTEX
  5
1D41
  8
3
 10
82.0257786694
 20
25.65657291460013
 30
0.0
  0
VERTEX
  5
1D42
  8
3
 10
81.66893166429999
 20
25.96561148629996
 30
0.0
  0
VERTEX
  5
1D43
  8
3
 10
81.54500000010002
 20
26.31703718350002
 30
0.0
  0
SEQEND
  5
2118
  8
3
  0
POLYLINE
  5
D6B
  8
3
 66
     1
 10
0.0
 20
0.0
 30
0.0
  0
VERTEX
  5
1D44
  8
3
 10
81.09999999999998
 20
26.58688407820011
 30
0.0
  0
VERTEX
  5
1D45
  8
3
 10
81.22235870930002
 20
26.97315532110008
 30
0.0
  0
VERTEX
  5
1D46
  8
3
 10
81.57745751409995
 20
27.32161564349997
 30
0.0
  0
VERTEX
  5
1D47
  8
3
 10
82.13053686929995
 20
27.59815532110008
 30
0.0
  0
VERTEX
  5
1D48
  8
3
 10
82.82745751409995
 20
27.7757047235001
 30
0.0
  0
VERTEX
  5
1D49
  8
3
 10
83.59999999999998
 20
27.83688407820011
 30
0.0
  0
VERTEX
  5
1D4A
  8
3
 10
84.37254248599994
 20
27.7757047235001
 30
0.0
  0
VERTEX
  5
1D4B
  8
3
 10
85.06946313079995
 20
27.59815532110008
 30
0.0
  0
VERTEX
  5
1D4C
  8
3
 10
85.62254248599994
 20
27.32161564349997
 30
0.0
  0
VERTEX
  5
1D4D
  8
3
 10
85.97764129079998
 20
26.97315532110008
 30
0.0
  0
VERTEX
  5
1D4E
  8
3
 10
86.09999999999998
 20
26.58688407820011
 30
0.0
  0
VERTEX
  5
1D4F
  8
3
 10
85.97764129079998
 20
26.2006128352001
 30
0.0
  0
VERTEX
  5
1D50
  8
3
 10
85.62254248599994
 20
25.85215251279999
 30
0.0
  0
VERTEX
  5
1D51
  8
3
 10
85.06946313079995
 20
25.5756128352001
 30
0.0
  0
VERTEX
  5
1D52
  8
3
 10
84.37254248599994
 20
25.39806343280009
 30
0.0
  0
VERTEX
  5
1D53
  8
3
 10
83.59999999999998
 20
25.33688407820011
 30
0.0
  0
VERTEX
  5
1D54
  8
3
 10
82.82745751409995
 20
25.39806343280009
 30
0.0
  0
VERTEX
  5
1D55
  8
3
 10
82.13053686929995
 20
25.5756128352001
 30
0.0
  0
VERTEX
  5
1D56
  8
3
 10
81.57745751409995
 20
25.85215251279999
 30
0.0
  0
VERTEX
  5
1D57
  8
3
 10
81.22235870930002
 20
26.2006128352001
 30
0.0
  0
VERTEX
  5
1D58
  8
3
 10
81.09999999999998
 20
26.58688407820011
 30
0.0
  0
SEQEND
  5
2117
  8
3
  0
POLYLINE
  5
D6C
  8
3
 66
     1
 10
0.0
 20
0.0
 30
0.0
  0
VERTEX
  5
1D59
  8
3
 10
81.09999999999998
 20
26.66492362950009
 30
0.0
  0
VERTEX
  5
1D5A
  8
3
 10
81.22235870930002
 20
27.0511948725001
 30
0.0
  0
VERTEX
  5
1D5B
  8
3
 10
81.57745751409995
 20
27.39965519489999
 30
0.0
  0
VERTEX
  5
1D5C
  8
3
 10
82.13053686929995
 20
27.6761948725001
 30
0.0
  0
VERTEX
  5
1D5D
  8
3
 10
82.82745751409995
 20
27.85374427490012
 30
0.0
  0
VERTEX
  5
1D5E
  8
3
 10
83.59999999999998
 20
27.91492362950009
 30
0.0
  0
VERTEX
  5
1D5F
  8
3
 10
84.37254248599994
 20
27.85374427490012
 30
0.0
  0
VERTEX
  5
1D60
  8
3
 10
85.06946313079995
 20
27.6761948725001
 30
0.0
  0
VERTEX
  5
1D61
  8
3
 10
85.62254248599994
 20
27.39965519489999
 30
0.0
  0
VERTEX
  5
1D62
  8
3
 10
85.97764129079998
 20
27.0511948725001
 30
0.0
  0
VERTEX
  5
1D63
  8
3
 10
86.09999999999998
 20
26.66492362950009
 30
0.0
  0
VERTEX
  5
1D64
  8
3
 10
85.97764129079998
 20
26.27865238650008
 30
0.0
  0
VERTEX
  5
1D65
  8
3
 10
85.62254248599994
 20
25.93019206409997
 30
0.0
  0
VERTEX
  5
1D66
  8
3
 10
85.06946313079995
 20
25.65365238650008
 30
0.0
  0
VERTEX
  5
1D67
  8
3
 10
84.37254248599994
 20
25.47610298410007
 30
0.0
  0
VERTEX
  5
1D68
  8
3
 10
83.59999999999998
 20
25.41492362950009
 30
0.0
  0
VERTEX
  5
1D69
  8
3
 10
82.82745751409995
 20
25.47610298410007
 30
0.0
  0
VERTEX
  5
1D6A
  8
3
 10
82.13053686929995
 20
25.65365238650008
 30
0.0
  0
VERTEX
  5
1D6B
  8
3
 10
81.57745751409995
 20
25.93019206409997
 30
0.0
  0
VERTEX
  5
1D6C
  8
3
 10
81.22235870930002
 20
26.27865238650008
 30
0.0
  0
VERTEX
  5
1D6D
  8
3
 10
81.09999999999998
 20
26.66492362950009
 30
0.0
  0
SEQEND
  5
2116
  8
3
  0
POLYLINE
  5
D6D
  8
3
 66
     1
 10
0.0
 20
0.0
 30
0.0
  0
VERTEX
  5
1D6E
  8
3
 10
81.54499999999997
 20
26.93477052410014
 30
0.0
  0
VERTEX
  5
1D6F
  8
3
 10
81.66893166429999
 20
27.28619622140002
 30
0.0
  0
VERTEX
  5
1D70
  8
3
 10
82.0257786694
 20
27.59523479310008
 30
0.0
  0
VERTEX
  5
1D71
  8
3
 10
82.5725
 20
27.82461162650009
 30
0.0
  0
VERTEX
  5
1D72
  8
3
 10
83.24315299489997
 20
27.94666049039995
 30
0.0
  0
VERTEX
  5
1D73
  8
3
 10
83.95684700519998
 20
27.94666049039995
 30
0.0
  0
VERTEX
  5
1D74
  8
3
 10
84.62749999999996
 20
27.82461162650009
 30
0.0
  0
VERTEX
  5
1D75
  8
3
 10
85.17422133070001
 20
27.59523479310008
 30
0.0
  0
VERTEX
  5
1D76
  8
3
 10
85.53106833580001
 20
27.28619622140002
 30
0.0
  0
VERTEX
  5
1D77
  8
3
 10
85.65499999999999
 20
26.93477052410014
 30
0.0
  0
VERTEX
  5
1D78
  8
3
 10
85.53106833580001
 20
26.58334482690009
 30
0.0
  0
VERTEX
  5
1D79
  8
3
 10
85.17422133070001
 20
26.27430625520003
 30
0.0
  0
VERTEX
  5
1D7A
  8
3
 10
84.62749999999996
 20
26.04492942169998
 30
0.0
  0
VERTEX
  5
1D7B
  8
3
 10
83.95684700519998
 20
25.92288055789993
 30
0.0
  0
VERTEX
  5
1D7C
  8
3
 10
83.24315299489997
 20
25.92288055789993
 30
0.0
  0
VERTEX
  5
1D7D
  8
3
 10
82.5725
 20
26.04492942169998
 30
0.0
  0
VERTEX
  5
1D7E
  8
3
 10
82.0257786694
 20
26.27430625520003
 30
0.0
  0
VERTEX
  5
1D7F
  8
3
 10
81.66893166429999
 20
26.58334482690009
 30
0.0
  0
VERTEX
  5
1D80
  8
3
 10
81.54499999999997
 20
26.93477052410014
 30
0.0
  0
SEQEND
  5
2115
  8
3
  0
POLYLINE
  5
D6E
  8
3
 66
     1
 10
0.0
 20
0.0
 30
0.0
  0
VERTEX
  5
1D81
  8
3
 10
81.09999999999998
 20
27.20461741880001
 30
0.0
  0
VERTEX
  5
1D82
  8
3
 10
81.22235870930002
 20
27.59088866169998
 30
0.0
  0
VERTEX
  5
1D83
  8
3
 10
81.57745751409995
 20
27.93934898410009
 30
0.0
  0
VERTEX
  5
1D84
  8
3
 10
82.13053686929995
 20
28.21588866169998
 30
0.0
  0
VERTEX
  5
1D85
  8
3
 10
82.82745751409995
 20
28.3934380641
 30
0.0
  0
VERTEX
  5
1D86
  8
3
 10
83.59999999999998
 20
28.45461741880001
 30
0.0
  0
VERTEX
  5
1D87
  8
3
 10
84.37254248599994
 20
28.3934380641
 30
0.0
  0
VERTEX
  5
1D88
  8
3
 10
85.06946313079995
 20
28.21588866169998
 30
0.0
  0
VERTEX
  5
1D89
  8
3
 10
85.62254248599994
 20
27.93934898410009
 30
0.0
  0
VERTEX
  5
1D8A
  8
3
 10
85.97764129079998
 20
27.59088866169998
 30
0.0
  0
VERTEX
  5
1D8B
  8
3
 10
86.09999999999998
 20
27.20461741880001
 30
0.0
  0
VERTEX
  5
1D8C
  8
3
 10
85.97764129079998
 20
26.8183461758
 30
0.0
  0
VERTEX
  5
1D8D
  8
3
 10
85.62254248599994
 20
26.46988585340011
 30
0.0
  0
VERTEX
  5
1D8E
  8
3
 10
85.06946313079995
 20
26.1933461758
 30
0.0
  0
VERTEX
  5
1D8F
  8
3
 10
84.37254248599994
 20
26.01579677339998
 30
0.0
  0
VERTEX
  5
1D90
  8
3
 10
83.59999999999998
 20
25.95461741880001
 30
0.0
  0
VERTEX
  5
1D91
  8
3
 10
82.82745751409995
 20
26.01579677339998
 30
0.0
  0
VERTEX
  5
1D92
  8
3
 10
82.13053686929995
 20
26.1933461758
 30
0.0
  0
VERTEX
  5
1D93
  8
3
 10
81.57745751409995
 20
26.46988585340011
 30
0.0
  0
VERTEX
  5
1D94
  8
3
 10
81.22235870930002
 20
26.8183461758
 30
0.0
  0
VERTEX
  5
1D95
  8
3
 10
81.09999999999998
 20
27.20461741880001
 30
0.0
  0
SEQEND
  5
2114
  8
3
  0
POLYLINE
  5
D6F
  8
3
 66
     1
 10
0.0
 20
0.0
 30
0.0
  0
VERTEX
  5
1D96
  8
3
 10
81.09999999999998
 20
27.28265697009999
 30
0.0
  0
VERTEX
  5
1D97
  8
3
 10
81.22235870930002
 20
27.6689282131
 30
0.0
  0
VERTEX
  5
1D98
  8
3
 10
81.57745751409995
 20
28.01738853550012
 30
0.0
  0
VERTEX
  5
1D99
  8
3
 10
82.13053686929995
 20
28.2939282131
 30
0.0
  0
VERTEX
  5
1D9A
  8
3
 10
82.82745751409995
 20
28.47147761550002
 30
0.0
  0
VERTEX
  5
1D9B
  8
3
 10
83.59999999999998
 20
28.53265697009999
 30
0.0
  0
VERTEX
  5
1D9C
  8
3
 10
84.37254248599994
 20
28.47147761550002
 30
0.0
  0
VERTEX
  5
1D9D
  8
3
 10
85.06946313079995
 20
28.2939282131
 30
0.0
  0
VERTEX
  5
1D9E
  8
3
 10
85.62254248599994
 20
28.01738853550012
 30
0.0
  0
VERTEX
  5
1D9F
  8
3
 10
85.97764129079998
 20
27.6689282131
 30
0.0
  0
VERTEX
  5
1DA0
  8
3
 10
86.09999999999998
 20
27.28265697009999
 30
0.0
  0
VERTEX
  5
1DA1
  8
3
 10
85.97764129079998
 20
26.89638572709998
 30
0.0
  0
VERTEX
  5
1DA2
  8
3
 10
85.62254248599994
 20
26.54792540470009
 30
0.0
  0
VERTEX
  5
1DA3
  8
3
 10
85.06946313079995
 20
26.27138572709998
 30
0.0
  0
VERTEX
  5
1DA4
  8
3
 10
84.37254248599994
 20
26.09383632469996
 30
0.0
  0
VERTEX
  5
1DA5
  8
3
 10
83.59999999999998
 20
26.03265697009999
 30
0.0
  0
VERTEX
  5
1DA6
  8
3
 10
82.82745751409995
 20
26.09383632469996
 30
0.0
  0
VERTEX
  5
1DA7
  8
3
 10
82.13053686929995
 20
26.27138572709998
 30
0.0
  0
VERTEX
  5
1DA8
  8
3
 10
81.57745751409995
 20
26.54792540470009
 30
0.0
  0
VERTEX
  5
1DA9
  8
3
 10
81.22235870930002
 20
26.89638572709998
 30
0.0
  0
VERTEX
  5
1DAA
  8
3
 10
81.09999999999998
 20
27.28265697009999
 30
0.0
  0
SEQEND
  5
2113
  8
3
  0
POLYLINE
  5
D70
  8
3
 66
     1
 10
0.0
 20
0.0
 30
0.0
  0
VERTEX
  5
1DAB
  8
3
 10
81.54499999999997
 20
27.55250386470004
 30
0.0
  0
VERTEX
  5
1DAC
  8
3
 10
81.66893166429999
 20
27.90392956200014
 30
0.0
  0
VERTEX
  5
1DAD
  8
3
 10
82.0257786694
 20
28.21296813369997
 30
0.0
  0
VERTEX
  5
1DAE
  8
3
 10
82.5725
 20
28.44234496709998
 30
0.0
  0
VERTEX
  5
1DAF
  8
3
 10
83.24315299489997
 20
28.56439383100007
 30
0.0
  0
VERTEX
  5
1DB0
  8
3
 10
83.95684700509999
 20
28.56439383100007
 30
0.0
  0
VERTEX
  5
1DB1
  8
3
 10
84.62749999999996
 20
28.44234496709998
 30
0.0
  0
VERTEX
  5
1DB2
  8
3
 10
85.17422133070001
 20
28.21296813369997
 30
0.0
  0
VERTEX
  5
1DB3
  8
3
 10
85.53106833580001
 20
27.90392956200014
 30
0.0
  0
VERTEX
  5
1DB4
  8
3
 10
85.65499999999999
 20
27.55250386470004
 30
0.0
  0
VERTEX
  5
1DB5
  8
3
 10
85.53106833580001
 20
27.20107816749999
 30
0.0
  0
VERTEX
  5
1DB6
  8
3
 10
85.17422133070001
 20
26.89203959579993
 30
0.0
  0
VERTEX
  5
1DB7
  8
3
 10
84.62749999999996
 20
26.66266276240015
 30
0.0
  0
VERTEX
  5
1DB8
  8
3
 10
83.95684700509999
 20
26.54061389850006
 30
0.0
  0
VERTEX
  5
1DB9
  8
3
 10
83.24315299489997
 20
26.54061389850006
 30
0.0
  0
VERTEX
  5
1DBA
  8
3
 10
82.5725
 20
26.66266276240015
 30
0.0
  0
VERTEX
  5
1DBB
  8
3
 10
82.0257786694
 20
26.89203959579993
 30
0.0
  0
VERTEX
  5
1DBC
  8
3
 10
81.66893166429999
 20
27.20107816749999
 30
0.0
  0
VERTEX
  5
1DBD
  8
3
 10
81.54499999999997
 20
27.55250386470004
 30
0.0
  0
SEQEND
  5
2112
  8
3
  0
POLYLINE
  5
D71
  8
3
 66
     1
 10
0.0
 20
0.0
 30
0.0
  0
VERTEX
  5
1DBE
  8
3
 10
81.09999999999998
 20
27.82235075940014
 30
0.0
  0
VERTEX
  5
1DBF
  8
3
 10
81.22235870930002
 20
28.2086220023001
 30
0.0
  0
VERTEX
  5
1DC0
  8
3
 10
81.57745751409995
 20
28.55708232469999
 30
0.0
  0
VERTEX
  5
1DC1
  8
3
 10
82.13053686929995
 20
28.8336220023001
 30
0.0
  0
VERTEX
  5
1DC2
  8
3
 10
82.82745751409995
 20
29.01117140470012
 30
0.0
  0
VERTEX
  5
1DC3
  8
3
 10
83.59999999999998
 20
29.07235075940014
 30
0.0
  0
VERTEX
  5
1DC4
  8
3
 10
84.37254248599994
 20
29.01117140470012
 30
0.0
  0
VERTEX
  5
1DC5
  8
3
 10
85.06946313079995
 20
28.8336220023001
 30
0.0
  0
VERTEX
  5
1DC6
  8
3
 10
85.62254248599994
 20
28.55708232469999
 30
0.0
  0
VERTEX
  5
1DC7
  8
3
 10
85.97764129079998
 20
28.2086220023001
 30
0.0
  0
VERTEX
  5
1DC8
  8
3
 10
86.09999999999998
 20
27.82235075940014
 30
0.0
  0
VERTEX
  5
1DC9
  8
3
 10
85.97764129079998
 20
27.43607951640013
 30
0.0
  0
VERTEX
  5
1DCA
  8
3
 10
85.62254248599994
 20
27.08761919400001
 30
0.0
  0
VERTEX
  5
1DCB
  8
3
 10
85.06946313079995
 20
26.81107951640013
 30
0.0
  0
VERTEX
  5
1DCC
  8
3
 10
84.37254248599994
 20
26.63353011400011
 30
0.0
  0
VERTEX
  5
1DCD
  8
3
 10
83.59999999999998
 20
26.57235075940014
 30
0.0
  0
VERTEX
  5
1DCE
  8
3
 10
82.82745751409995
 20
26.63353011400011
 30
0.0
  0
VERTEX
  5
1DCF
  8
3
 10
82.13053686929995
 20
26.81107951640013
 30
0.0
  0
VERTEX
  5
1DD0
  8
3
 10
81.57745751409995
 20
27.08761919400001
 30
0.0
  0
VERTEX
  5
1DD1
  8
3
 10
81.22235870930002
 20
27.43607951640013
 30
0.0
  0
VERTEX
  5
1DD2
  8
3
 10
81.09999999999998
 20
27.82235075940014
 30
0.0
  0
SEQEND
  5
2111
  8
3
  0
POLYLINE
  5
D72
  8
3
 66
     1
 10
0.0
 20
0.0
 30
0.0
  0
VERTEX
  5
1DD3
  8
3
 10
81.09999999999998
 20
27.90039031070012
 30
0.0
  0
VERTEX
  5
1DD4
  8
3
 10
81.22235870930002
 20
28.28666155370013
 30
0.0
  0
VERTEX
  5
1DD5
  8
3
 10
81.57745751409995
 20
28.63512187610002
 30
0.0
  0
VERTEX
  5
1DD6
  8
3
 10
82.13053686929995
 20
28.91166155370013
 30
0.0
  0
VERTEX
  5
1DD7
  8
3
 10
82.82745751409995
 20
29.08921095610015
 30
0.0
  0
VERTEX
  5
1DD8
  8
3
 10
83.59999999999998
 20
29.15039031070012
 30
0.0
  0
VERTEX
  5
1DD9
  8
3
 10
84.37254248599994
 20
29.08921095610015
 30
0.0
  0
VERTEX
  5
1DDA
  8
3
 10
85.06946313079995
 20
28.91166155370013
 30
0.0
  0
VERTEX
  5
1DDB
  8
3
 10
85.62254248599994
 20
28.63512187610002
 30
0.0
  0
VERTEX
  5
1DDC
  8
3
 10
85.97764129079998
 20
28.28666155370013
 30
0.0
  0
VERTEX
  5
1DDD
  8
3
 10
86.09999999999998
 20
27.90039031070012
 30
0.0
  0
VERTEX
  5
1DDE
  8
3
 10
85.97764129079998
 20
27.51411906780015
 30
0.0
  0
VERTEX
  5
1DDF
  8
3
 10
85.62254248599994
 20
27.16565874540004
 30
0.0
  0
VERTEX
  5
1DE0
  8
3
 10
85.06946313079995
 20
26.88911906780015
 30
0.0
  0
VERTEX
  5
1DE1
  8
3
 10
84.37254248599994
 20
26.71156966540013
 30
0.0
  0
VERTEX
  5
1DE2
  8
3
 10
83.59999999999998
 20
26.65039031070012
 30
0.0
  0
VERTEX
  5
1DE3
  8
3
 10
82.82745751409995
 20
26.71156966540013
 30
0.0
  0
VERTEX
  5
1DE4
  8
3
 10
82.13053686929995
 20
26.88911906780015
 30
0.0
  0
VERTEX
  5
1DE5
  8
3
 10
81.57745751409995
 20
27.16565874540004
 30
0.0
  0
VERTEX
  5
1DE6
  8
3
 10
81.22235870930002
 20
27.51411906780015
 30
0.0
  0
VERTEX
  5
1DE7
  8
3
 10
81.09999999999998
 20
27.90039031070012
 30
0.0
  0
SEQEND
  5
2110
  8
3
  0
POLYLINE
  5
D73
  8
3
 66
     1
 10
0.0
 20
0.0
 30
0.0
  0
VERTEX
  5
1DE8
  8
3
 10
81.54499999999997
 20
28.17023720529994
 30
0.0
  0
VERTEX
  5
1DE9
  8
3
 10
81.66893166429999
 20
28.52166290260004
 30
0.0
  0
VERTEX
  5
1DEA
  8
3
 10
82.0257786694
 20
28.8307014743001
 30
0.0
  0
VERTEX
  5
1DEB
  8
3
 10
82.5725
 20
29.06007830770011
 30
0.0
  0
VERTEX
  5
1DEC
  8
3
 10
83.24315299489997
 20
29.18212717159997
 30
0.0
  0
VERTEX
  5
1DED
  8
3
 10
83.95684700509999
 20
29.18212717159997
 30
0.0
  0
VERTEX
  5
1DEE
  8
3
 10
84.62749999999996
 20
29.06007830770011
 30
0.0
  0
VERTEX
  5
1DEF
  8
3
 10
85.17422133059996
 20
28.8307014743001
 30
0.0
  0
VERTEX
  5
1DF0
  8
3
 10
85.53106833580001
 20
28.52166290260004
 30
0.0
  0
VERTEX
  5
1DF1
  8
3
 10
85.65499999999999
 20
28.17023720529994
 30
0.0
  0
VERTEX
  5
1DF2
  8
3
 10
85.53106833580001
 20
27.81881150810011
 30
0.0
  0
VERTEX
  5
1DF3
  8
3
 10
85.17422133059996
 20
27.50977293640005
 30
0.0
  0
VERTEX
  5
1DF4
  8
3
 10
84.62749999999996
 20
27.28039610300004
 30
0.0
  0
VERTEX
  5
1DF5
  8
3
 10
83.95684700509999
 20
27.15834723909995
 30
0.0
  0
VERTEX
  5
1DF6
  8
3
 10
83.24315299489997
 20
27.15834723909995
 30
0.0
  0
VERTEX
  5
1DF7
  8
3
 10
82.5725
 20
27.28039610300004
 30
0.0
  0
VERTEX
  5
1DF8
  8
3
 10
82.0257786694
 20
27.50977293640005
 30
0.0
  0
VERTEX
  5
1DF9
  8
3
 10
81.66893166429999
 20
27.81881150810011
 30
0.0
  0
VERTEX
  5
1DFA
  8
3
 10
81.54499999999997
 20
28.17023720529994
 30
0.0
  0
SEQEND
  5
210F
  8
3
  0
POLYLINE
  5
D74
  8
3
 66
     1
 10
0.0
 20
0.0
 30
0.0
  0
VERTEX
  5
1DFB
  8
3
 10
81.09999999999998
 20
28.44008410000004
 30
0.0
  0
VERTEX
  5
1DFC
  8
3
 10
81.22235870930002
 20
28.8263553429
 30
0.0
  0
VERTEX
  5
1DFD
  8
3
 10
81.57745751409995
 20
29.17481566530012
 30
0.0
  0
VERTEX
  5
1DFE
  8
3
 10
82.13053686929995
 20
29.4513553429
 30
0.0
  0
VERTEX
  5
1DFF
  8
3
 10
82.82745751409995
 20
29.62890474530002
 30
0.0
  0
VERTEX
  5
1E00
  8
3
 10
83.59999999999998
 20
29.69008410000004
 30
0.0
  0
VERTEX
  5
1E01
  8
3
 10
84.37254248599994
 20
29.62890474530002
 30
0.0
  0
VERTEX
  5
1E02
  8
3
 10
85.06946313079995
 20
29.4513553429
 30
0.0
  0
VERTEX
  5
1E03
  8
3
 10
85.62254248599994
 20
29.17481566530012
 30
0.0
  0
VERTEX
  5
1E04
  8
3
 10
85.97764129079998
 20
28.8263553429
 30
0.0
  0
VERTEX
  5
1E05
  8
3
 10
86.09999999999998
 20
28.44008410000004
 30
0.0
  0
VERTEX
  5
1E06
  8
3
 10
85.97764129079998
 20
28.05381285700003
 30
0.0
  0
VERTEX
  5
1E07
  8
3
 10
85.62254248599994
 20
27.70535253460014
 30
0.0
  0
VERTEX
  5
1E08
  8
3
 10
85.06946313079995
 20
27.42881285700003
 30
0.0
  0
VERTEX
  5
1E09
  8
3
 10
84.37254248599994
 20
27.25126345460001
 30
0.0
  0
VERTEX
  5
1E0A
  8
3
 10
83.59999999999998
 20
27.19008410000004
 30
0.0
  0
VERTEX
  5
1E0B
  8
3
 10
82.82745751409995
 20
27.25126345460001
 30
0.0
  0
VERTEX
  5
1E0C
  8
3
 10
82.13053686929995
 20
27.42881285700003
 30
0.0
  0
VERTEX
  5
1E0D
  8
3
 10
81.57745751409995
 20
27.70535253460014
 30
0.0
  0
VERTEX
  5
1E0E
  8
3
 10
81.22235870930002
 20
28.05381285700003
 30
0.0
  0
VERTEX
  5
1E0F
  8
3
 10
81.09999999999998
 20
28.44008410000004
 30
0.0
  0
SEQEND
  5
210E
  8
3
  0
POLYLINE
  5
D75
  8
3
 66
     1
 10
0.0
 20
0.0
 30
0.0
  0
VERTEX
  5
1E10
  8
3
 10
81.09999999999998
 20
28.51812365130002
 30
0.0
  0
VERTEX
  5
1E11
  8
3
 10
81.22235870930002
 20
28.90439489430003
 30
0.0
  0
VERTEX
  5
1E12
  8
3
 10
81.57745751409995
 20
29.25285521670014
 30
0.0
  0
VERTEX
  5
1E13
  8
3
 10
82.13053686929995
 20
29.52939489430003
 30
0.0
  0
VERTEX
  5
1E14
  8
3
 10
82.82745751409995
 20
29.70694429670004
 30
0.0
  0
VERTEX
  5
1E15
  8
3
 10
83.59999999999998
 20
29.76812365130002
 30
0.0
  0
VERTEX
  5
1E16
  8
3
 10
84.37254248599994
 20
29.70694429670004
 30
0.0
  0
VERTEX
  5
1E17
  8
3
 10
85.06946313079995
 20
29.52939489430003
 30
0.0
  0
VERTEX
  5
1E18
  8
3
 10
85.62254248599994
 20
29.25285521670014
 30
0.0
  0
VERTEX
  5
1E19
  8
3
 10
85.97764129079998
 20
28.90439489430003
 30
0.0
  0
VERTEX
  5
1E1A
  8
3
 10
86.09999999999998
 20
28.51812365130002
 30
0.0
  0
VERTEX
  5
1E1B
  8
3
 10
85.97764129079998
 20
28.13185240840005
 30
0.0
  0
VERTEX
  5
1E1C
  8
3
 10
85.62254248599994
 20
27.78339208599994
 30
0.0
  0
VERTEX
  5
1E1D
  8
3
 10
85.06946313079995
 20
27.50685240840005
 30
0.0
  0
VERTEX
  5
1E1E
  8
3
 10
84.37254248599994
 20
27.32930300600003
 30
0.0
  0
VERTEX
  5
1E1F
  8
3
 10
83.59999999999998
 20
27.26812365130002
 30
0.0
  0
VERTEX
  5
1E20
  8
3
 10
82.82745751409995
 20
27.32930300600003
 30
0.0
  0
VERTEX
  5
1E21
  8
3
 10
82.13053686929995
 20
27.50685240840005
 30
0.0
  0
VERTEX
  5
1E22
  8
3
 10
81.57745751409995
 20
27.78339208599994
 30
0.0
  0
VERTEX
  5
1E23
  8
3
 10
81.22235870930002
 20
28.13185240840005
 30
0.0
  0
VERTEX
  5
1E24
  8
3
 10
81.09999999999998
 20
28.51812365130002
 30
0.0
  0
SEQEND
  5
210D
  8
3
  0
POLYLINE
  5
D76
  8
3
 66
     1
 10
0.0
 20
0.0
 30
0.0
  0
VERTEX
  5
1E25
  8
3
 10
81.54499999999997
 20
28.78797054590007
 30
0.0
  0
VERTEX
  5
1E26
  8
3
 10
81.66893166429999
 20
29.13939624319994
 30
0.0
  0
VERTEX
  5
1E27
  8
3
 10
82.0257786694
 20
29.4484348149
 30
0.0
  0
VERTEX
  5
1E28
  8
3
 10
82.5725
 20
29.67781164830001
 30
0.0
  0
VERTEX
  5
1E29
  8
3
 10
83.24315299489997
 20
29.7998605122001
 30
0.0
  0
VERTEX
  5
1E2A
  8
3
 10
83.95684700509999
 20
29.7998605122001
 30
0.0
  0
VERTEX
  5
1E2B
  8
3
 10
84.62749999999996
 20
29.67781164830001
 30
0.0
  0
VERTEX
  5
1E2C
  8
3
 10
85.17422133059996
 20
29.4484348149
 30
0.0
  0
VERTEX
  5
1E2D
  8
3
 10
85.53106833580001
 20
29.13939624319994
 30
0.0
  0
VERTEX
  5
1E2E
  8
3
 10
85.65499999999999
 20
28.78797054590007
 30
0.0
  0
VERTEX
  5
1E2F
  8
3
 10
85.53106833580001
 20
28.43654484870001
 30
0.0
  0
VERTEX
  5
1E30
  8
3
 10
85.17422133059996
 20
28.12750627699995
 30
0.0
  0
VERTEX
  5
1E31
  8
3
 10
84.62749999999996
 20
27.89812944359994
 30
0.0
  0
VERTEX
  5
1E32
  8
3
 10
83.95684700509999
 20
27.77608057970008
 30
0.0
  0
VERTEX
  5
1E33
  8
3
 10
83.24315299489997
 20
27.77608057970008
 30
0.0
  0
VERTEX
  5
1E34
  8
3
 10
82.5725
 20
27.89812944359994
 30
0.0
  0
VERTEX
  5
1E35
  8
3
 10
82.0257786694
 20
28.12750627699995
 30
0.0
  0
VERTEX
  5
1E36
  8
3
 10
81.66893166429999
 20
28.43654484870001
 30
0.0
  0
VERTEX
  5
1E37
  8
3
 10
81.54499999999997
 20
28.78797054590007
 30
0.0
  0
SEQEND
  5
210C
  8
3
  0
POLYLINE
  5
D77
  8
3
 66
     1
 10
0.0
 20
0.0
 30
0.0
  0
VERTEX
  5
1E38
  8
3
 10
81.09999999999998
 20
29.05781744059993
 30
0.0
  0
VERTEX
  5
1E39
  8
3
 10
81.22235870930002
 20
29.44408868350013
 30
0.0
  0
VERTEX
  5
1E3A
  8
3
 10
81.57745751409995
 20
29.79254900590001
 30
0.0
  0
VERTEX
  5
1E3B
  8
3
 10
82.13053686929995
 20
30.06908868350013
 30
0.0
  0
VERTEX
  5
1E3C
  8
3
 10
82.82745751409995
 20
30.24663808590014
 30
0.0
  0
VERTEX
  5
1E3D
  8
3
 10
83.59999999999998
 20
30.30781744059993
 30
0.0
  0
VERTEX
  5
1E3E
  8
3
 10
84.37254248599994
 20
30.24663808590014
 30
0.0
  0
VERTEX
  5
1E3F
  8
3
 10
85.06946313079995
 20
30.06908868350013
 30
0.0
  0
VERTEX
  5
1E40
  8
3
 10
85.62254248599994
 20
29.79254900590001
 30
0.0
  0
VERTEX
  5
1E41
  8
3
 10
85.97764129079998
 20
29.44408868350013
 30
0.0
  0
VERTEX
  5
1E42
  8
3
 10
86.09999999999998
 20
29.05781744059993
 30
0.0
  0
VERTEX
  5
1E43
  8
3
 10
85.97764129079998
 20
28.67154619760015
 30
0.0
  0
VERTEX
  5
1E44
  8
3
 10
85.62254248599994
 20
28.32308587520004
 30
0.0
  0
VERTEX
  5
1E45
  8
3
 10
85.06946313079995
 20
28.04654619760015
 30
0.0
  0
VERTEX
  5
1E46
  8
3
 10
84.37254248599994
 20
27.86899679520013
 30
0.0
  0
VERTEX
  5
1E47
  8
3
 10
83.59999999999998
 20
27.80781744059993
 30
0.0
  0
VERTEX
  5
1E48
  8
3
 10
82.82745751409995
 20
27.86899679520013
 30
0.0
  0
VERTEX
  5
1E49
  8
3
 10
82.13053686929995
 20
28.04654619760015
 30
0.0
  0
VERTEX
  5
1E4A
  8
3
 10
81.57745751409995
 20
28.32308587520004
 30
0.0
  0
VERTEX
  5
1E4B
  8
3
 10
81.22235870930002
 20
28.67154619760015
 30
0.0
  0
VERTEX
  5
1E4C
  8
3
 10
81.09999999999998
 20
29.05781744059993
 30
0.0
  0
SEQEND
  5
210B
  8
3
  0
POLYLINE
  5
D78
  8
3
 66
     1
 10
0.0
 20
0.0
 30
0.0
  0
VERTEX
  5
1E4D
  8
3
 10
81.09999999999998
 20
29.13585699190014
 30
0.0
  0
VERTEX
  5
1E4E
  8
3
 10
81.22235870930002
 20
29.52212823490015
 30
0.0
  0
VERTEX
  5
1E4F
  8
3
 10
81.57745751409995
 20
29.87058855730004
 30
0.0
  0
VERTEX
  5
1E50
  8
3
 10
82.13053686929995
 20
30.14712823490015
 30
0.0
  0
VERTEX
  5
1E51
  8
3
 10
82.82745751409995
 20
30.32467763729994
 30
0.0
  0
VERTEX
  5
1E52
  8
3
 10
83.59999999999998
 20
30.38585699190014
 30
0.0
  0
VERTEX
  5
1E53
  8
3
 10
84.37254248599994
 20
30.32467763729994
 30
0.0
  0
VERTEX
  5
1E54
  8
3
 10
85.06946313079995
 20
30.14712823490015
 30
0.0
  0
VERTEX
  5
1E55
  8
3
 10
85.62254248599994
 20
29.87058855730004
 30
0.0
  0
VERTEX
  5
1E56
  8
3
 10
85.97764129079998
 20
29.52212823490015
 30
0.0
  0
VERTEX
  5
1E57
  8
3
 10
86.09999999999998
 20
29.13585699190014
 30
0.0
  0
VERTEX
  5
1E58
  8
3
 10
85.97764129079998
 20
28.74958574899995
 30
0.0
  0
VERTEX
  5
1E59
  8
3
 10
85.62254248599994
 20
28.40112542660006
 30
0.0
  0
VERTEX
  5
1E5A
  8
3
 10
85.06946313079995
 20
28.12458574899995
 30
0.0
  0
VERTEX
  5
1E5B
  8
3
 10
84.37254248599994
 20
27.94703634659993
 30
0.0
  0
VERTEX
  5
1E5C
  8
3
 10
83.59999999999998
 20
27.88585699190014
 30
0.0
  0
VERTEX
  5
1E5D
  8
3
 10
82.82745751409995
 20
27.94703634659993
 30
0.0
  0
VERTEX
  5
1E5E
  8
3
 10
82.13053686929995
 20
28.12458574899995
 30
0.0
  0
VERTEX
  5
1E5F
  8
3
 10
81.57745751409995
 20
28.40112542660006
 30
0.0
  0
VERTEX
  5
1E60
  8
3
 10
81.22235870930002
 20
28.74958574899995
 30
0.0
  0
VERTEX
  5
1E61
  8
3
 10
81.09999999999998
 20
29.13585699190014
 30
0.0
  0
SEQEND
  5
210A
  8
3
  0
POLYLINE
  5
D79
  8
3
 66
     1
 10
0.0
 20
0.0
 30
0.0
  0
VERTEX
  5
1E62
  8
3
 10
81.54499999999997
 20
29.40570388660001
 30
0.0
  0
VERTEX
  5
1E63
  8
3
 10
81.66893166429999
 20
29.75712958380007
 30
0.0
  0
VERTEX
  5
1E64
  8
3
 10
82.0257786694
 20
30.06616815550012
 30
0.0
  0
VERTEX
  5
1E65
  8
3
 10
82.5725
 20
30.29554498890013
 30
0.0
  0
VERTEX
  5
1E66
  8
3
 10
83.24315299489997
 20
30.4175938528
 30
0.0
  0
VERTEX
  5
1E67
  8
3
 10
83.95684700509999
 20
30.4175938528
 30
0.0
  0
VERTEX
  5
1E68
  8
3
 10
84.62749999999996
 20
30.29554498890013
 30
0.0
  0
VERTEX
  5
1E69
  8
3
 10
85.17422133059996
 20
30.06616815550012
 30
0.0
  0
VERTEX
  5
1E6A
  8
3
 10
85.53106833569997
 20
29.75712958380007
 30
0.0
  0
VERTEX
  5
1E6B
  8
3
 10
85.65499999999999
 20
29.40570388660001
 30
0.0
  0
VERTEX
  5
1E6C
  8
3
 10
85.53106833569997
 20
29.05427818930013
 30
0.0
  0
VERTEX
  5
1E6D
  8
3
 10
85.17422133059996
 20
28.74523961760008
 30
0.0
  0
VERTEX
  5
1E6E
  8
3
 10
84.62749999999996
 20
28.51586278420007
 30
0.0
  0
VERTEX
  5
1E6F
  8
3
 10
83.95684700509999
 20
28.39381392029998
 30
0.0
  0
VERTEX
  5
1E70
  8
3
 10
83.24315299489997
 20
28.39381392029998
 30
0.0
  0
VERTEX
  5
1E71
  8
3
 10
82.5725
 20
28.51586278420007
 30
0.0
  0
VERTEX
  5
1E72
  8
3
 10
82.0257786694
 20
28.74523961760008
 30
0.0
  0
VERTEX
  5
1E73
  8
3
 10
81.66893166429999
 20
29.05427818930013
 30
0.0
  0
VERTEX
  5
1E74
  8
3
 10
81.54499999999997
 20
29.40570388660001
 30
0.0
  0
SEQEND
  5
2109
  8
3
  0
POLYLINE
  5
D7A
  8
3
 66
     1
 10
0.0
 20
0.0
 30
0.0
  0
VERTEX
  5
1E75
  8
3
 10
81.09999999999998
 20
29.67555078120006
 30
0.0
  0
VERTEX
  5
1E76
  8
3
 10
81.22235870930002
 20
30.06182202410002
 30
0.0
  0
VERTEX
  5
1E77
  8
3
 10
81.57745751409995
 20
30.41028234650014
 30
0.0
  0
VERTEX
  5
1E78
  8
3
 10
82.13053686929995
 20
30.68682202410002
 30
0.0
  0
VERTEX
  5
1E79
  8
3
 10
82.82745751409995
 20
30.86437142650004
 30
0.0
  0
VERTEX
  5
1E7A
  8
3
 10
83.59999999999998
 20
30.92555078120006
 30
0.0
  0
VERTEX
  5
1E7B
  8
3
 10
84.37254248599994
 20
30.86437142650004
 30
0.0
  0
VERTEX
  5
1E7C
  8
3
 10
85.06946313079995
 20
30.68682202410002
 30
0.0
  0
VERTEX
  5
1E7D
  8
3
 10
85.62254248599994
 20
30.41028234650014
 30
0.0
  0
VERTEX
  5
1E7E
  8
3
 10
85.97764129079998
 20
30.06182202410002
 30
0.0
  0
VERTEX
  5
1E7F
  8
3
 10
86.09999999999998
 20
29.67555078120006
 30
0.0
  0
VERTEX
  5
1E80
  8
3
 10
85.97764129079998
 20
29.28927953820005
 30
0.0
  0
VERTEX
  5
1E81
  8
3
 10
85.62254248599994
 20
28.94081921579993
 30
0.0
  0
VERTEX
  5
1E82
  8
3
 10
85.06946313079995
 20
28.66427953820005
 30
0.0
  0
VERTEX
  5
1E83
  8
3
 10
84.37254248599994
 20
28.48673013580003
 30
0.0
  0
VERTEX
  5
1E84
  8
3
 10
83.59999999999998
 20
28.42555078120006
 30
0.0
  0
VERTEX
  5
1E85
  8
3
 10
82.82745751409995
 20
28.48673013580003
 30
0.0
  0
VERTEX
  5
1E86
  8
3
 10
82.13053686929995
 20
28.66427953820005
 30
0.0
  0
VERTEX
  5
1E87
  8
3
 10
81.57745751409995
 20
28.94081921579993
 30
0.0
  0
VERTEX
  5
1E88
  8
3
 10
81.22235870930002
 20
29.28927953820005
 30
0.0
  0
VERTEX
  5
1E89
  8
3
 10
81.09999999999998
 20
29.67555078120006
 30
0.0
  0
SEQEND
  5
2108
  8
3
  0
LINE
  5
D7B
  8
3
 10
83.59999999999998
 20
28.62935647339998
 30
0.0
 11
83.59999999999998
 21
30.96762506359994
 31
0.0
  0
LINE
  5
D7C
  8
3
 10
82.34999999999998
 20
28.26851255520012
 30
0.0
 11
83.59999999999998
 21
28.62935647339998
 31
0.0
  0
LINE
  5
D7D
  8
3
 10
84.84999999999998
 20
28.26851255520012
 30
0.0
 11
83.59999999999998
 21
28.62935647339998
 31
0.0
  0
POLYLINE
  5
D7E
  8
3
 66
     1
 10
0.0
 20
0.0
 30
0.0
  0
VERTEX
  5
1E8A
  8
3
 10
81.09999999999998
 20
29.75359033250004
 30
0.0
  0
VERTEX
  5
1E8B
  8
3
 10
81.22235870930002
 20
30.13986157550005
 30
0.0
  0
VERTEX
  5
1E8C
  8
3
 10
81.57745751409995
 20
30.48832189789994
 30
0.0
  0
VERTEX
  5
1E8D
  8
3
 10
82.13053686929995
 20
30.76486157550005
 30
0.0
  0
VERTEX
  5
1E8E
  8
3
 10
82.82745751409995
 20
30.94241097790007
 30
0.0
  0
VERTEX
  5
1E8F
  8
3
 10
83.59999999999998
 20
31.00359033250004
 30
0.0
  0
VERTEX
  5
1E90
  8
3
 10
84.37254248599994
 20
30.94241097790007
 30
0.0
  0
VERTEX
  5
1E91
  8
3
 10
85.06946313079995
 20
30.76486157550005
 30
0.0
  0
VERTEX
  5
1E92
  8
3
 10
85.62254248599994
 20
30.48832189789994
 30
0.0
  0
VERTEX
  5
1E93
  8
3
 10
85.97764129079998
 20
30.13986157550005
 30
0.0
  0
VERTEX
  5
1E94
  8
3
 10
86.09999999999998
 20
29.75359033250004
 30
0.0
  0
VERTEX
  5
1E95
  8
3
 10
85.97764129079998
 20
29.36731908960007
 30
0.0
  0
VERTEX
  5
1E96
  8
3
 10
85.62254248599994
 20
29.01885876719996
 30
0.0
  0
VERTEX
  5
1E97
  8
3
 10
85.06946313079995
 20
28.74231908960007
 30
0.0
  0
VERTEX
  5
1E98
  8
3
 10
84.37254248599994
 20
28.56476968720006
 30
0.0
  0
VERTEX
  5
1E99
  8
3
 10
83.59999999999998
 20
28.50359033250004
 30
0.0
  0
VERTEX
  5
1E9A
  8
3
 10
82.82745751409995
 20
28.56476968720006
 30
0.0
  0
VERTEX
  5
1E9B
  8
3
 10
82.13053686929995
 20
28.74231908960007
 30
0.0
  0
VERTEX
  5
1E9C
  8
3
 10
81.57745751409995
 20
29.01885876719996
 30
0.0
  0
VERTEX
  5
1E9D
  8
3
 10
81.22235870930002
 20
29.36731908960007
 30
0.0
  0
VERTEX
  5
1E9E
  8
3
 10
81.09999999999998
 20
29.75359033250004
 30
0.0
  0
SEQEND
  5
2107
  8
3
  0
POLYLINE
  5
D7F
  8
3
 66
     1
 10
0.0
 20
0.0
 30
0.0
  0
VERTEX
  5
1E9F
  8
3
 10
81.54499999999997
 20
30.02343722720013
 30
0.0
  0
VERTEX
  5
1EA0
  8
3
 10
81.66893166429999
 20
30.37486292439996
 30
0.0
  0
VERTEX
  5
1EA1
  8
3
 10
82.0257786694
 20
30.68390149610002
 30
0.0
  0
VERTEX
  5
1EA2
  8
3
 10
82.5725
 20
30.91327832950003
 30
0.0
  0
VERTEX
  5
1EA3
  8
3
 10
83.24315299489997
 20
31.03532719340012
 30
0.0
  0
VERTEX
  5
1EA4
  8
3
 10
83.95684700509999
 20
31.03532719340012
 30
0.0
  0
VERTEX
  5
1EA5
  8
3
 10
84.62749999999996
 20
30.91327832950003
 30
0.0
  0
VERTEX
  5
1EA6
  8
3
 10
85.17422133059996
 20
30.68390149610002
 30
0.0
  0
VERTEX
  5
1EA7
  8
3
 10
85.53106833569997
 20
30.37486292439996
 30
0.0
  0
VERTEX
  5
1EA8
  8
3
 10
85.65499999999999
 20
30.02343722720013
 30
0.0
  0
VERTEX
  5
1EA9
  8
3
 10
85.53106833569997
 20
29.67201152990003
 30
0.0
  0
VERTEX
  5
1EAA
  8
3
 10
85.17422133059996
 20
29.36297295819998
 30
0.0
  0
VERTEX
  5
1EAB
  8
3
 10
84.62749999999996
 20
29.13359612479996
 30
0.0
  0
VERTEX
  5
1EAC
  8
3
 10
83.95684700509999
 20
29.0115472609001
 30
0.0
  0
VERTEX
  5
1EAD
  8
3
 10
83.24315299489997
 20
29.0115472609001
 30
0.0
  0
VERTEX
  5
1EAE
  8
3
 10
82.5725
 20
29.13359612479996
 30
0.0
  0
VERTEX
  5
1EAF
  8
3
 10
82.0257786694
 20
29.36297295819998
 30
0.0
  0
VERTEX
  5
1EB0
  8
3
 10
81.66893166429999
 20
29.67201152990003
 30
0.0
  0
VERTEX
  5
1EB1
  8
3
 10
81.54499999999997
 20
30.02343722720013
 30
0.0
  0
SEQEND
  5
2106
  8
3
  0
POLYLINE
  5
D80
  8
3
 66
     1
 10
0.0
 20
0.0
 30
0.0
  0
VERTEX
  5
1EB2
  8
3
 10
81.3438968732
 20
30.14538566370004
 30
0.0
  0
VERTEX
  5
1EB3
  8
3
 10
81.46613876359994
 20
29.77910791989996
 30
0.0
  0
VERTEX
  5
1EB4
  8
3
 10
81.81961762929997
 20
29.45252205290001
 30
0.0
  0
VERTEX
  5
1EB5
  8
3
 10
82.36602855029999
 20
29.20101870910014
 30
0.0
  0
VERTEX
  5
1EB6
  8
3
 10
83.04615942490001
 20
29.05185217819997
 30
0.0
  0
VERTEX
  5
1EB7
  8
3
 10
83.78630751959999
 20
29.02118696829996
 30
0.0
  0
VERTEX
  5
1EB8
  8
3
 10
84.50626630360001
 20
29.11234613089994
 30
0.0
  0
VERTEX
  5
1EB9
  8
3
 10
85.1280170715
 20
29.31545115610004
 30
0.0
  0
VERTEX
  5
1EBA
  8
3
 10
85.58418348009998
 20
29.60849246290002
 30
0.0
  0
VERTEX
  5
1EBB
  8
3
 10
85.8253328208
 20
29.95971447880004
 30
0.0
  0
VERTEX
  5
1EBC
  8
3
 10
85.8253328208
 20
30.33105684860004
 30
0.0
  0
VERTEX
  5
1EBD
  8
3
 10
85.58418348009998
 20
30.68227886460011
 30
0.0
  0
VERTEX
  5
1EBE
  8
3
 10
85.1280170715
 20
30.97532017140009
 30
0.0
  0
VERTEX
  5
1EBF
  8
3
 10
84.50626630360001
 20
31.17842519659996
 30
0.0
  0
VERTEX
  5
1EC0
  8
3
 10
83.78630751959999
 20
31.26958435919994
 30
0.0
  0
VERTEX
  5
1EC1
  8
3
 10
83.04615942490001
 20
31.23891914929993
 30
0.0
  0
VERTEX
  5
1EC2
  8
3
 10
82.36602855029999
 20
31.08975261839998
 30
0.0
  0
VERTEX
  5
1EC3
  8
3
 10
81.81961762929997
 20
30.83824927460012
 30
0.0
  0
VERTEX
  5
1EC4
  8
3
 10
81.46613876359994
 20
30.51166340759994
 30
0.0
  0
VERTEX
  5
1EC5
  8
3
 10
81.3438968732
 20
30.14538566370004
 30
0.0
  0
SEQEND
  5
2105
  8
3
  0
LINE
  5
D81
  8
3
 10
82.34999999999998
 20
28.26851255520012
 30
0.0
 11
82.34999999999998
 21
27.54682471870012
 31
0.0
  0
LINE
  5
D82
  8
3
 10
82.34999999999998
 20
28.26851255520012
 30
0.0
 11
82.34999999999998
 21
30.60678114540008
 31
0.0
  0
LINE
  5
D83
  8
3
 10
84.84999999999998
 20
28.26851255520012
 30
0.0
 11
84.84999999999998
 21
27.54682471870012
 31
0.0
  0
LINE
  5
D84
  8
3
 10
84.84999999999998
 20
28.26851255520012
 30
0.0
 11
84.84999999999998
 21
30.60678114540008
 31
0.0
  0
POLYLINE
  5
D85
  8
3
 66
     1
 10
0.0
 20
0.0
 30
0.0
  0
VERTEX
  5
1EC6
  8
3
 10
83.59999999999998
 20
31.27343722720013
 30
0.0
  0
VERTEX
  5
1EC7
  8
3
 10
84.30285139460001
 20
31.2114713950001
 30
0.0
  0
VERTEX
  5
1EC8
  8
3
 10
84.92092853789997
 20
31.03304789250012
 30
0.0
  0
VERTEX
  5
1EC9
  8
3
 10
85.37968220479998
 20
30.75968722720006
 30
0.0
  0
VERTEX
  5
1ECA
  8
3
 10
85.62377993249994
 20
30.42436072969997
 30
0.0
  0
VERTEX
  5
1ECB
  8
3
 10
85.62377993249994
 20
30.06751372459996
 30
0.0
  0
VERTEX
  5
1ECC
  8
3
 10
85.37968220479998
 20
29.73218722720014
 30
0.0
  0
VERTEX
  5
1ECD
  8
3
 10
84.92092853789997
 20
29.45882656190008
 30
0.0
  0
VERTEX
  5
1ECE
  8
3
 10
84.30285139460001
 20
29.28040305930006
 30
0.0
  0
VERTEX
  5
1ECF
  8
3
 10
83.59999999999998
 20
29.21843722720007
 30
0.0
  0
VERTEX
  5
1ED0
  8
3
 10
82.89714860549999
 20
29.28040305930006
 30
0.0
  0
VERTEX
  5
1ED1
  8
3
 10
82.27907146209999
 20
29.45882656190008
 30
0.0
  0
VERTEX
  5
1ED2
  8
3
 10
81.82031779529997
 20
29.73218722720014
 30
0.0
  0
VERTEX
  5
1ED3
  8
3
 10
81.57622006759995
 20
30.06751372459996
 30
0.0
  0
VERTEX
  5
1ED4
  8
3
 10
81.57622006759995
 20
30.42436072969997
 30
0.0
  0
VERTEX
  5
1ED5
  8
3
 10
81.82031779529997
 20
30.75968722720006
 30
0.0
  0
VERTEX
  5
1ED6
  8
3
 10
82.27907146209999
 20
31.03304789250012
 30
0.0
  0
VERTEX
  5
1ED7
  8
3
 10
82.89714860549999
 20
31.2114713950001
 30
0.0
  0
VERTEX
  5
1ED8
  8
3
 10
83.59999999999998
 20
31.27343722720013
 30
0.0
  0
SEQEND
  5
2104
  8
3
  0
LINE
  5
D86
  8
3
 10
82.34999999999998
 20
30.60678114540008
 30
0.0
 11
83.59999999999998
 21
30.96762506359994
 31
0.0
  0
LINE
  5
D87
  8
3
 10
84.84999999999998
 20
30.60678114540008
 30
0.0
 11
83.59999999999998
 21
30.96762506359994
 31
0.0
  0
LINE
  5
D88
  8
3
 10
83.59999999999998
 20
27.18598080050003
 30
0.0
 11
83.59999999999998
 21
28.62935647339998
 31
0.0
  0
LINE
  5
D89
  8
3
 10
84.84999999999998
 20
29.88509330890008
 30
0.0
 11
83.59999999999998
 21
29.52424939069999
 31
0.0
  0
LINE
  5
D8A
  8
3
 10
84.84999999999998
 20
27.54682471870012
 30
0.0
 11
83.59999999999998
 21
27.18598080050003
 31
0.0
  0
LINE
  5
D8B
  8
3
 10
82.34999999999998
 20
29.88509330890008
 30
0.0
 11
83.59999999999998
 21
29.52424939069999
 31
0.0
  0
LINE
  5
D8C
  8
3
 10
82.34999999999998
 20
27.54682471870012
 30
0.0
 11
83.59999999999998
 21
27.18598080050003
 31
0.0
  0
POLYLINE
  5
D8D
  8
3
 66
     1
 10
0.0
 20
0.0
 30
0.0
  0
VERTEX
  5
1ED9
  8
3
 10
83.59999999999998
 20
-25.92478480450006
 30
0.0
  0
VERTEX
  5
1EDA
  8
3
 10
82.96782708419995
 20
-25.86569800519999
 30
0.0
  0
VERTEX
  5
1EDB
  8
3
 10
82.42103262359997
 20
-25.69641760699994
 30
0.0
  0
VERTEX
  5
1EDC
  8
3
 10
82.03346424019999
 20
-25.43980586579994
 30
0.0
  0
VERTEX
  5
1EDD
  8
3
 10
81.85746519149997
 20
-25.13051961899998
 30
0.0
  0
VERTEX
  5
1EDE
  8
3
 10
81.91680512450002
 20
-24.81032968819989
 30
0.0
  0
VERTEX
  5
1EDF
  8
3
 10
82.20346985229999
 20
-24.52247949759987
 30
0.0
  0
VERTEX
  5
1EE0
  8
3
 10
82.67874371500001
 20
-24.30584481070002
 30
0.0
  0
VERTEX
  5
1EE1
  8
3
 10
83.27843834379998
 20
-24.18968334229987
 30
0.0
  0
VERTEX
  5
1EE2
  8
3
 10
83.92156165619998
 20
-24.18968334229987
 30
0.0
  0
VERTEX
  5
1EE3
  8
3
 10
84.5212562851
 20
-24.30584481070002
 30
0.0
  0
VERTEX
  5
1EE4
  8
3
 10
84.99653014779996
 20
-24.52247949759987
 30
0.0
  0
VERTEX
  5
1EE5
  8
3
 10
85.28319487559999
 20
-24.81032968819989
 30
0.0
  0
VERTEX
  5
1EE6
  8
3
 10
85.34253480849999
 20
-25.13051961899998
 30
0.0
  0
VERTEX
  5
1EE7
  8
3
 10
85.16653575989996
 20
-25.43980586579994
 30
0.0
  0
VERTEX
  5
1EE8
  8
3
 10
84.77896737639999
 20
-25.69641760699994
 30
0.0
  0
VERTEX
  5
1EE9
  8
3
 10
84.2321729159
 20
-25.86569800519999
 30
0.0
  0
VERTEX
  5
1EEA
  8
3
 10
83.59999999999998
 20
-25.92478480450006
 30
0.0
  0
SEQEND
  5
2103
  8
3
  0
POLYLINE
  5
D8E
  8
3
 66
     1
 10
0.0
 20
0.0
 30
0.0
  0
VERTEX
  5
1EEB
  8
3
 10
81.28326725659998
 20
-25.54058975750002
 30
0.0
  0
VERTEX
  5
1EEC
  8
3
 10
81.40879422690001
 20
-25.16446881140007
 30
0.0
  0
VERTEX
  5
1EED
  8
3
 10
81.77177234269995
 20
-24.82910640600005
 30
0.0
  0
VERTEX
  5
1EEE
  8
3
 10
82.3328672931
 20
-24.57084426149993
 30
0.0
  0
VERTEX
  5
1EEF
  8
3
 10
83.03127573389999
 20
-24.41766908869988
 30
0.0
  0
VERTEX
  5
1EF0
  8
3
 10
83.79131427359995
 20
-24.38617979419985
 30
0.0
  0
VERTEX
  5
1EF1
  8
3
 10
84.53062094320002
 20
-24.47978873170007
 30
0.0
  0
VERTEX
  5
1EF2
  8
3
 10
85.16908039349995
 20
-24.68835192049994
 30
0.0
  0
VERTEX
  5
1EF3
  8
3
 10
85.63750563650002
 20
-24.9892683027
 30
0.0
  0
VERTEX
  5
1EF4
  8
3
 10
85.88513552849999
 20
-25.34992891909985
 30
0.0
  0
VERTEX
  5
1EF5
  8
3
 10
85.88513552849999
 20
-25.73125059579991
 30
0.0
  0
VERTEX
  5
1EF6
  8
3
 10
85.63750563650002
 20
-26.09191121230003
 30
0.0
  0
VERTEX
  5
1EF7
  8
3
 10
85.16908039349995
 20
-26.39282759449986
 30
0.0
  0
VERTEX
  5
1EF8
  8
3
 10
84.53062094320002
 20
-26.60139078319992
 30
0.0
  0
VERTEX
  5
1EF9
  8
3
 10
83.79131427359995
 20
-26.69499972069991
 30
0.0
  0
VERTEX
  5
1EFA
  8
3
 10
83.03127573389999
 20
-26.66351042629992
 30
0.0
  0
VERTEX
  5
1EFB
  8
3
 10
82.3328672931
 20
-26.51033525340006
 30
0.0
  0
VERTEX
  5
1EFC
  8
3
 10
81.77177234269995
 20
-26.25207310889994
 30
0.0
  0
VERTEX
  5
1EFD
  8
3
 10
81.40879422690001
 20
-25.91671070349992
 30
0.0
  0
VERTEX
  5
1EFE
  8
3
 10
81.28326725659998
 20
-25.54058975750002
 30
0.0
  0
SEQEND
  5
2102
  8
3
  0
POLYLINE
  5
D8F
  8
3
 66
     1
 10
0.0
 20
0.0
 30
0.0
  0
VERTEX
  5
1EFF
  8
3
 10
85.65499999999999
 20
-25.69930384299994
 30
0.0
  0
VERTEX
  5
1F00
  8
3
 10
85.53106833569997
 20
-26.0507295402
 30
0.0
  0
VERTEX
  5
1F01
  8
3
 10
85.17422133059996
 20
-26.35976811190005
 30
0.0
  0
VERTEX
  5
1F02
  8
3
 10
84.62749999999996
 20
-26.58914494530006
 30
0.0
  0
VERTEX
  5
1F03
  8
3
 10
83.95684700509999
 20
-26.71119380919993
 30
0.0
  0
VERTEX
  5
1F04
  8
3
 10
83.24315299489997
 20
-26.71119380919993
 30
0.0
  0
VERTEX
  5
1F05
  8
3
 10
82.5725
 20
-26.58914494530006
 30
0.0
  0
VERTEX
  5
1F06
  8
3
 10
82.0257786694
 20
-26.35976811190005
 30
0.0
  0
VERTEX
  5
1F07
  8
3
 10
81.66893166429999
 20
-26.0507295402
 30
0.0
  0
VERTEX
  5
1F08
  8
3
 10
81.54499999999997
 20
-25.69930384299994
 30
0.0
  0
VERTEX
  5
1F09
  8
3
 10
81.66893166429999
 20
-25.34787814570007
 30
0.0
  0
VERTEX
  5
1F0A
  8
3
 10
82.0257786694
 20
-25.03883957400001
 30
0.0
  0
VERTEX
  5
1F0B
  8
3
 10
82.5725
 20
-24.8094627406
 30
0.0
  0
VERTEX
  5
1F0C
  8
3
 10
83.24315299489997
 20
-24.68741387669991
 30
0.0
  0
VERTEX
  5
1F0D
  8
3
 10
83.95684700509999
 20
-24.68741387669991
 30
0.0
  0
VERTEX
  5
1F0E
  8
3
 10
84.62749999999996
 20
-24.8094627406
 30
0.0
  0
VERTEX
  5
1F0F
  8
3
 10
85.17422133059996
 20
-25.03883957400001
 30
0.0
  0
VERTEX
  5
1F10
  8
3
 10
85.53106833569997
 20
-25.34787814570007
 30
0.0
  0
VERTEX
  5
1F11
  8
3
 10
85.65499999999999
 20
-25.69930384299994
 30
0.0
  0
SEQEND
  5
2101
  8
3
  0
POLYLINE
  5
D90
  8
3
 66
     1
 10
0.0
 20
0.0
 30
0.0
  0
VERTEX
  5
1F12
  8
3
 10
86.09999999999998
 20
-25.96915073759999
 30
0.0
  0
VERTEX
  5
1F13
  8
3
 10
85.97764129079998
 20
-26.35542198049995
 30
0.0
  0
VERTEX
  5
1F14
  8
3
 10
85.62254248599994
 20
-26.70388230290007
 30
0.0
  0
VERTEX
  5
1F15
  8
3
 10
85.06946313079995
 20
-26.98042198049995
 30
0.0
  0
VERTEX
  5
1F16
  8
3
 10
84.37254248599994
 20
-27.15797138289997
 30
0.0
  0
VERTEX
  5
1F17
  8
3
 10
83.59999999999998
 20
-27.21915073759999
 30
0.0
  0
VERTEX
  5
1F18
  8
3
 10
82.82745751409995
 20
-27.15797138289997
 30
0.0
  0
VERTEX
  5
1F19
  8
3
 10
82.13053686929995
 20
-26.98042198049995
 30
0.0
  0
VERTEX
  5
1F1A
  8
3
 10
81.57745751409995
 20
-26.70388230290007
 30
0.0
  0
VERTEX
  5
1F1B
  8
3
 10
81.22235870930002
 20
-26.35542198049995
 30
0.0
  0
VERTEX
  5
1F1C
  8
3
 10
81.09999999999998
 20
-25.96915073759999
 30
0.0
  0
VERTEX
  5
1F1D
  8
3
 10
81.22235870930002
 20
-25.58287949459998
 30
0.0
  0
VERTEX
  5
1F1E
  8
3
 10
81.57745751409995
 20
-25.23441917219986
 30
0.0
  0
VERTEX
  5
1F1F
  8
3
 10
82.13053686929995
 20
-24.95787949459998
 30
0.0
  0
VERTEX
  5
1F20
  8
3
 10
82.82745751409995
 20
-24.78033009219996
 30
0.0
  0
VERTEX
  5
1F21
  8
3
 10
83.59999999999998
 20
-24.71915073759999
 30
0.0
  0
VERTEX
  5
1F22
  8
3
 10
84.37254248599994
 20
-24.78033009219996
 30
0.0
  0
VERTEX
  5
1F23
  8
3
 10
85.06946313079995
 20
-24.95787949459998
 30
0.0
  0
VERTEX
  5
1F24
  8
3
 10
85.62254248599994
 20
-25.23441917219986
 30
0.0
  0
VERTEX
  5
1F25
  8
3
 10
85.97764129079998
 20
-25.58287949459998
 30
0.0
  0
VERTEX
  5
1F26
  8
3
 10
86.09999999999998
 20
-25.96915073759999
 30
0.0
  0
SEQEND
  5
2100
  8
3
  0
POLYLINE
  5
D91
  8
3
 66
     1
 10
0.0
 20
0.0
 30
0.0
  0
VERTEX
  5
1F27
  8
3
 10
86.09999999999998
 20
-26.04719028889997
 30
0.0
  0
VERTEX
  5
1F28
  8
3
 10
85.97764129079998
 20
-26.43346153189998
 30
0.0
  0
VERTEX
  5
1F29
  8
3
 10
85.62254248599994
 20
-26.78192185429987
 30
0.0
  0
VERTEX
  5
1F2A
  8
3
 10
85.06946313079995
 20
-27.05846153189998
 30
0.0
  0
VERTEX
  5
1F2B
  8
3
 10
84.37254248599994
 20
-27.2360109343
 30
0.0
  0
VERTEX
  5
1F2C
  8
3
 10
83.59999999999998
 20
-27.29719028889997
 30
0.0
  0
VERTEX
  5
1F2D
  8
3
 10
82.82745751409995
 20
-27.2360109343
 30
0.0
  0
VERTEX
  5
1F2E
  8
3
 10
82.13053686929995
 20
-27.05846153189998
 30
0.0
  0
VERTEX
  5
1F2F
  8
3
 10
81.57745751409995
 20
-26.78192185429987
 30
0.0
  0
VERTEX
  5
1F30
  8
3
 10
81.22235870930002
 20
-26.43346153189998
 30
0.0
  0
VERTEX
  5
1F31
  8
3
 10
81.09999999999998
 20
-26.04719028889997
 30
0.0
  0
VERTEX
  5
1F32
  8
3
 10
81.22235870930002
 20
-25.660919046
 30
0.0
  0
VERTEX
  5
1F33
  8
3
 10
81.57745751409995
 20
-25.31245872359989
 30
0.0
  0
VERTEX
  5
1F34
  8
3
 10
82.13053686929995
 20
-25.035919046
 30
0.0
  0
VERTEX
  5
1F35
  8
3
 10
82.82745751409995
 20
-24.85836964359999
 30
0.0
  0
VERTEX
  5
1F36
  8
3
 10
83.59999999999998
 20
-24.79719028889997
 30
0.0
  0
VERTEX
  5
1F37
  8
3
 10
84.37254248599994
 20
-24.85836964359999
 30
0.0
  0
VERTEX
  5
1F38
  8
3
 10
85.06946313079995
 20
-25.035919046
 30
0.0
  0
VERTEX
  5
1F39
  8
3
 10
85.62254248599994
 20
-25.31245872359989
 30
0.0
  0
VERTEX
  5
1F3A
  8
3
 10
85.97764129079998
 20
-25.660919046
 30
0.0
  0
VERTEX
  5
1F3B
  8
3
 10
86.09999999999998
 20
-26.04719028889997
 30
0.0
  0
SEQEND
  5
20FF
  8
3
  0
POLYLINE
  5
D92
  8
3
 66
     1
 10
0.0
 20
0.0
 30
0.0
  0
VERTEX
  5
1F3C
  8
3
 10
85.65499999999999
 20
-26.31703718360006
 30
0.0
  0
VERTEX
  5
1F3D
  8
3
 10
85.53106833569997
 20
-26.66846288079989
 30
0.0
  0
VERTEX
  5
1F3E
  8
3
 10
85.17422133059996
 20
-26.97750145249995
 30
0.0
  0
VERTEX
  5
1F3F
  8
3
 10
84.62749999999996
 20
-27.20687828589996
 30
0.0
  0
VERTEX
  5
1F40
  8
3
 10
83.95684700509999
 20
-27.32892714980005
 30
0.0
  0
VERTEX
  5
1F41
  8
3
 10
83.24315299489997
 20
-27.32892714980005
 30
0.0
  0
VERTEX
  5
1F42
  8
3
 10
82.5725
 20
-27.20687828589996
 30
0.0
  0
VERTEX
  5
1F43
  8
3
 10
82.0257786694
 20
-26.97750145249995
 30
0.0
  0
VERTEX
  5
1F44
  8
3
 10
81.66893166429999
 20
-26.66846288079989
 30
0.0
  0
VERTEX
  5
1F45
  8
3
 10
81.54499999999997
 20
-26.31703718360006
 30
0.0
  0
VERTEX
  5
1F46
  8
3
 10
81.66893166429999
 20
-25.96561148629996
 30
0.0
  0
VERTEX
  5
1F47
  8
3
 10
82.0257786694
 20
-25.65657291459991
 30
0.0
  0
VERTEX
  5
1F48
  8
3
 10
82.5725
 20
-25.4271960811999
 30
0.0
  0
VERTEX
  5
1F49
  8
3
 10
83.24315299489997
 20
-25.30514721730003
 30
0.0
  0
VERTEX
  5
1F4A
  8
3
 10
83.95684700509999
 20
-25.30514721730003
 30
0.0
  0
VERTEX
  5
1F4B
  8
3
 10
84.62749999999996
 20
-25.4271960811999
 30
0.0
  0
VERTEX
  5
1F4C
  8
3
 10
85.17422133059996
 20
-25.65657291459991
 30
0.0
  0
VERTEX
  5
1F4D
  8
3
 10
85.53106833569997
 20
-25.96561148629996
 30
0.0
  0
VERTEX
  5
1F4E
  8
3
 10
85.65499999999999
 20
-26.31703718360006
 30
0.0
  0
SEQEND
  5
20FE
  8
3
  0
POLYLINE
  5
D93
  8
3
 66
     1
 10
0.0
 20
0.0
 30
0.0
  0
VERTEX
  5
1F4F
  8
3
 10
86.09999999999998
 20
-26.58688407819989
 30
0.0
  0
VERTEX
  5
1F50
  8
3
 10
85.97764129079998
 20
-26.97315532109985
 30
0.0
  0
VERTEX
  5
1F51
  8
3
 10
85.62254248599994
 20
-27.32161564349997
 30
0.0
  0
VERTEX
  5
1F52
  8
3
 10
85.06946313070002
 20
-27.59815532109985
 30
0.0
  0
VERTEX
  5
1F53
  8
3
 10
84.37254248599994
 20
-27.77570472359992
 30
0.0
  0
VERTEX
  5
1F54
  8
3
 10
83.59999999999998
 20
-27.83688407819989
 30
0.0
  0
VERTEX
  5
1F55
  8
3
 10
82.82745751409995
 20
-27.77570472359992
 30
0.0
  0
VERTEX
  5
1F56
  8
3
 10
82.13053686929995
 20
-27.59815532109985
 30
0.0
  0
VERTEX
  5
1F57
  8
3
 10
81.57745751409995
 20
-27.32161564349997
 30
0.0
  0
VERTEX
  5
1F58
  8
3
 10
81.22235870930002
 20
-26.97315532109985
 30
0.0
  0
VERTEX
  5
1F59
  8
3
 10
81.09999999999998
 20
-26.58688407819989
 30
0.0
  0
VERTEX
  5
1F5A
  8
3
 10
81.22235870930002
 20
-26.20061283519988
 30
0.0
  0
VERTEX
  5
1F5B
  8
3
 10
81.57745751409995
 20
-25.85215251279999
 30
0.0
  0
VERTEX
  5
1F5C
  8
3
 10
82.13053686929995
 20
-25.57561283519988
 30
0.0
  0
VERTEX
  5
1F5D
  8
3
 10
82.82745751409995
 20
-25.39806343279986
 30
0.0
  0
VERTEX
  5
1F5E
  8
3
 10
83.59999999999998
 20
-25.33688407819989
 30
0.0
  0
VERTEX
  5
1F5F
  8
3
 10
84.37254248599994
 20
-25.39806343279986
 30
0.0
  0
VERTEX
  5
1F60
  8
3
 10
85.06946313070002
 20
-25.57561283519988
 30
0.0
  0
VERTEX
  5
1F61
  8
3
 10
85.62254248599994
 20
-25.85215251279999
 30
0.0
  0
VERTEX
  5
1F62
  8
3
 10
85.97764129079998
 20
-26.20061283519988
 30
0.0
  0
VERTEX
  5
1F63
  8
3
 10
86.09999999999998
 20
-26.58688407819989
 30
0.0
  0
SEQEND
  5
20FD
  8
3
  0
POLYLINE
  5
D94
  8
3
 66
     1
 10
0.0
 20
0.0
 30
0.0
  0
VERTEX
  5
1F64
  8
3
 10
86.09999999999998
 20
-26.66492362949987
 30
0.0
  0
VERTEX
  5
1F65
  8
3
 10
85.97764129079998
 20
-27.05119487249988
 30
0.0
  0
VERTEX
  5
1F66
  8
3
 10
85.62254248599994
 20
-27.39965519489999
 30
0.0
  0
VERTEX
  5
1F67
  8
3
 10
85.06946313070002
 20
-27.67619487249988
 30
0.0
  0
VERTEX
  5
1F68
  8
3
 10
84.37254248599994
 20
-27.8537442748999
 30
0.0
  0
VERTEX
  5
1F69
  8
3
 10
83.59999999999998
 20
-27.91492362949987
 30
0.0
  0
VERTEX
  5
1F6A
  8
3
 10
82.82745751409995
 20
-27.8537442748999
 30
0.0
  0
VERTEX
  5
1F6B
  8
3
 10
82.13053686929995
 20
-27.67619487249988
 30
0.0
  0
VERTEX
  5
1F6C
  8
3
 10
81.57745751409995
 20
-27.39965519489999
 30
0.0
  0
VERTEX
  5
1F6D
  8
3
 10
81.22235870930002
 20
-27.05119487249988
 30
0.0
  0
VERTEX
  5
1F6E
  8
3
 10
81.09999999999998
 20
-26.66492362949987
 30
0.0
  0
VERTEX
  5
1F6F
  8
3
 10
81.22235870930002
 20
-26.2786523865999
 30
0.0
  0
VERTEX
  5
1F70
  8
3
 10
81.57745751409995
 20
-25.93019206420001
 30
0.0
  0
VERTEX
  5
1F71
  8
3
 10
82.13053686929995
 20
-25.6536523865999
 30
0.0
  0
VERTEX
  5
1F72
  8
3
 10
82.82745751409995
 20
-25.47610298419988
 30
0.0
  0
VERTEX
  5
1F73
  8
3
 10
83.59999999999998
 20
-25.41492362949987
 30
0.0
  0
VERTEX
  5
1F74
  8
3
 10
84.37254248599994
 20
-25.47610298419988
 30
0.0
  0
VERTEX
  5
1F75
  8
3
 10
85.06946313070002
 20
-25.6536523865999
 30
0.0
  0
VERTEX
  5
1F76
  8
3
 10
85.62254248599994
 20
-25.93019206420001
 30
0.0
  0
VERTEX
  5
1F77
  8
3
 10
85.97764129079998
 20
-26.2786523865999
 30
0.0
  0
VERTEX
  5
1F78
  8
3
 10
86.09999999999998
 20
-26.66492362949987
 30
0.0
  0
SEQEND
  5
20FC
  8
3
  0
POLYLINE
  5
D95
  8
3
 66
     1
 10
0.0
 20
0.0
 30
0.0
  0
VERTEX
  5
1F79
  8
3
 10
85.65499999999999
 20
-26.93477052419996
 30
0.0
  0
VERTEX
  5
1F7A
  8
3
 10
85.53106833569997
 20
-27.28619622140002
 30
0.0
  0
VERTEX
  5
1F7B
  8
3
 10
85.17422133059996
 20
-27.59523479309985
 30
0.0
  0
VERTEX
  5
1F7C
  8
3
 10
84.62749999999996
 20
-27.82461162649986
 30
0.0
  0
VERTEX
  5
1F7D
  8
3
 10
83.95684700509999
 20
-27.94666049039995
 30
0.0
  0
VERTEX
  5
1F7E
  8
3
 10
83.24315299489997
 20
-27.94666049039995
 30
0.0
  0
VERTEX
  5
1F7F
  8
3
 10
82.5725
 20
-27.82461162649986
 30
0.0
  0
VERTEX
  5
1F80
  8
3
 10
82.0257786694
 20
-27.59523479309985
 30
0.0
  0
VERTEX
  5
1F81
  8
3
 10
81.66893166429999
 20
-27.28619622140002
 30
0.0
  0
VERTEX
  5
1F82
  8
3
 10
81.54499999999997
 20
-26.93477052419996
 30
0.0
  0
VERTEX
  5
1F83
  8
3
 10
81.66893166429999
 20
-26.58334482689986
 30
0.0
  0
VERTEX
  5
1F84
  8
3
 10
82.0257786694
 20
-26.27430625520003
 30
0.0
  0
VERTEX
  5
1F85
  8
3
 10
82.5725
 20
-26.04492942180002
 30
0.0
  0
VERTEX
  5
1F86
  8
3
 10
83.24315299489997
 20
-25.92288055789993
 30
0.0
  0
VERTEX
  5
1F87
  8
3
 10
83.95684700509999
 20
-25.92288055789993
 30
0.0
  0
VERTEX
  5
1F88
  8
3
 10
84.62749999999996
 20
-26.04492942180002
 30
0.0
  0
VERTEX
  5
1F89
  8
3
 10
85.17422133059996
 20
-26.27430625520003
 30
0.0
  0
VERTEX
  5
1F8A
  8
3
 10
85.53106833569997
 20
-26.58334482689986
 30
0.0
  0
VERTEX
  5
1F8B
  8
3
 10
85.65499999999999
 20
-26.93477052419996
 30
0.0
  0
SEQEND
  5
20FB
  8
3
  0
POLYLINE
  5
D96
  8
3
 66
     1
 10
0.0
 20
0.0
 30
0.0
  0
VERTEX
  5
1F8C
  8
3
 10
86.09999999999998
 20
-27.20461741880001
 30
0.0
  0
VERTEX
  5
1F8D
  8
3
 10
85.97764129079998
 20
-27.59088866180002
 30
0.0
  0
VERTEX
  5
1F8E
  8
3
 10
85.62254248599994
 20
-27.93934898419991
 30
0.0
  0
VERTEX
  5
1F8F
  8
3
 10
85.06946313079995
 20
-28.21588866180002
 30
0.0
  0
VERTEX
  5
1F90
  8
3
 10
84.37254248599994
 20
-28.39343806420004
 30
0.0
  0
VERTEX
  5
1F91
  8
3
 10
83.59999999999998
 20
-28.45461741880001
 30
0.0
  0
VERTEX
  5
1F92
  8
3
 10
82.82745751409995
 20
-28.39343806420004
 30
0.0
  0
VERTEX
  5
1F93
  8
3
 10
82.13053686929995
 20
-28.21588866180002
 30
0.0
  0
VERTEX
  5
1F94
  8
3
 10
81.57745751409995
 20
-27.93934898419991
 30
0.0
  0
VERTEX
  5
1F95
  8
3
 10
81.22235870930002
 20
-27.59088866180002
 30
0.0
  0
VERTEX
  5
1F96
  8
3
 10
81.09999999999998
 20
-27.20461741880001
 30
0.0
  0
VERTEX
  5
1F97
  8
3
 10
81.22235870930002
 20
-26.8183461758
 30
0.0
  0
VERTEX
  5
1F98
  8
3
 10
81.57745751409995
 20
-26.46988585339989
 30
0.0
  0
VERTEX
  5
1F99
  8
3
 10
82.13053686929995
 20
-26.1933461758
 30
0.0
  0
VERTEX
  5
1F9A
  8
3
 10
82.82745751409995
 20
-26.01579677339998
 30
0.0
  0
VERTEX
  5
1F9B
  8
3
 10
83.59999999999998
 20
-25.95461741880001
 30
0.0
  0
VERTEX
  5
1F9C
  8
3
 10
84.37254248599994
 20
-26.01579677339998
 30
0.0
  0
VERTEX
  5
1F9D
  8
3
 10
85.06946313079995
 20
-26.1933461758
 30
0.0
  0
VERTEX
  5
1F9E
  8
3
 10
85.62254248599994
 20
-26.46988585339989
 30
0.0
  0
VERTEX
  5
1F9F
  8
3
 10
85.97764129079998
 20
-26.8183461758
 30
0.0
  0
VERTEX
  5
1FA0
  8
3
 10
86.09999999999998
 20
-27.20461741880001
 30
0.0
  0
SEQEND
  5
20FA
  8
3
  0
POLYLINE
  5
D97
  8
3
 66
     1
 10
0.0
 20
0.0
 30
0.0
  0
VERTEX
  5
1FA1
  8
3
 10
86.09999999999998
 20
-27.28265697009999
 30
0.0
  0
VERTEX
  5
1FA2
  8
3
 10
85.97764129079998
 20
-27.6689282131
 30
0.0
  0
VERTEX
  5
1FA3
  8
3
 10
85.62254248599994
 20
-28.01738853549989
 30
0.0
  0
VERTEX
  5
1FA4
  8
3
 10
85.06946313079995
 20
-28.2939282131
 30
0.0
  0
VERTEX
  5
1FA5
  8
3
 10
84.37254248599994
 20
-28.47147761550002
 30
0.0
  0
VERTEX
  5
1FA6
  8
3
 10
83.59999999999998
 20
-28.53265697009999
 30
0.0
  0
VERTEX
  5
1FA7
  8
3
 10
82.82745751409995
 20
-28.47147761550002
 30
0.0
  0
VERTEX
  5
1FA8
  8
3
 10
82.13053686929995
 20
-28.2939282131
 30
0.0
  0
VERTEX
  5
1FA9
  8
3
 10
81.57745751409995
 20
-28.01738853549989
 30
0.0
  0
VERTEX
  5
1FAA
  8
3
 10
81.22235870930002
 20
-27.6689282131
 30
0.0
  0
VERTEX
  5
1FAB
  8
3
 10
81.09999999999998
 20
-27.28265697009999
 30
0.0
  0
VERTEX
  5
1FAC
  8
3
 10
81.22235870930002
 20
-26.89638572720003
 30
0.0
  0
VERTEX
  5
1FAD
  8
3
 10
81.57745751409995
 20
-26.54792540479991
 30
0.0
  0
VERTEX
  5
1FAE
  8
3
 10
82.13053686929995
 20
-26.27138572720003
 30
0.0
  0
VERTEX
  5
1FAF
  8
3
 10
82.82745751409995
 20
-26.09383632480001
 30
0.0
  0
VERTEX
  5
1FB0
  8
3
 10
83.59999999999998
 20
-26.03265697009999
 30
0.0
  0
VERTEX
  5
1FB1
  8
3
 10
84.37254248599994
 20
-26.09383632480001
 30
0.0
  0
VERTEX
  5
1FB2
  8
3
 10
85.06946313079995
 20
-26.27138572720003
 30
0.0
  0
VERTEX
  5
1FB3
  8
3
 10
85.62254248599994
 20
-26.54792540479991
 30
0.0
  0
VERTEX
  5
1FB4
  8
3
 10
85.97764129079998
 20
-26.89638572720003
 30
0.0
  0
VERTEX
  5
1FB5
  8
3
 10
86.09999999999998
 20
-27.28265697009999
 30
0.0
  0
SEQEND
  5
20F9
  8
3
  0
POLYLINE
  5
D98
  8
3
 66
     1
 10
0.0
 20
0.0
 30
0.0
  0
VERTEX
  5
1FB6
  8
3
 10
85.65499999999999
 20
-27.55250386479986
 30
0.0
  0
VERTEX
  5
1FB7
  8
3
 10
85.53106833569997
 20
-27.90392956199992
 30
0.0
  0
VERTEX
  5
1FB8
  8
3
 10
85.17422133059996
 20
-28.21296813369997
 30
0.0
  0
VERTEX
  5
1FB9
  8
3
 10
84.62749999999996
 20
-28.44234496720003
 30
0.0
  0
VERTEX
  5
1FBA
  8
3
 10
83.95684700509999
 20
-28.56439383099985
 30
0.0
  0
VERTEX
  5
1FBB
  8
3
 10
83.24315299489997
 20
-28.56439383099985
 30
0.0
  0
VERTEX
  5
1FBC
  8
3
 10
82.5725
 20
-28.44234496720003
 30
0.0
  0
VERTEX
  5
1FBD
  8
3
 10
82.0257786694
 20
-28.21296813369997
 30
0.0
  0
VERTEX
  5
1FBE
  8
3
 10
81.66893166429999
 20
-27.90392956199992
 30
0.0
  0
VERTEX
  5
1FBF
  8
3
 10
81.54499999999997
 20
-27.55250386479986
 30
0.0
  0
VERTEX
  5
1FC0
  8
3
 10
81.66893166429999
 20
-27.20107816749999
 30
0.0
  0
VERTEX
  5
1FC1
  8
3
 10
82.0257786694
 20
-26.89203959579993
 30
0.0
  0
VERTEX
  5
1FC2
  8
3
 10
82.5725
 20
-26.66266276239992
 30
0.0
  0
VERTEX
  5
1FC3
  8
3
 10
83.24315299489997
 20
-26.54061389850006
 30
0.0
  0
VERTEX
  5
1FC4
  8
3
 10
83.95684700509999
 20
-26.54061389850006
 30
0.0
  0
VERTEX
  5
1FC5
  8
3
 10
84.62749999999996
 20
-26.66266276239992
 30
0.0
  0
VERTEX
  5
1FC6
  8
3
 10
85.17422133059996
 20
-26.89203959579993
 30
0.0
  0
VERTEX
  5
1FC7
  8
3
 10
85.53106833569997
 20
-27.20107816749999
 30
0.0
  0
VERTEX
  5
1FC8
  8
3
 10
85.65499999999999
 20
-27.55250386479986
 30
0.0
  0
SEQEND
  5
20F8
  8
3
  0
POLYLINE
  5
D99
  8
3
 66
     1
 10
0.0
 20
0.0
 30
0.0
  0
VERTEX
  5
1FC9
  8
3
 10
86.09999999999998
 20
-27.82235075939991
 30
0.0
  0
VERTEX
  5
1FCA
  8
3
 10
85.97764129079998
 20
-28.20862200239992
 30
0.0
  0
VERTEX
  5
1FCB
  8
3
 10
85.62254248599994
 20
-28.55708232480004
 30
0.0
  0
VERTEX
  5
1FCC
  8
3
 10
85.06946313079995
 20
-28.83362200239992
 30
0.0
  0
VERTEX
  5
1FCD
  8
3
 10
84.37254248599994
 20
-29.01117140479994
 30
0.0
  0
VERTEX
  5
1FCE
  8
3
 10
83.59999999999998
 20
-29.07235075939991
 30
0.0
  0
VERTEX
  5
1FCF
  8
3
 10
82.82745751409995
 20
-29.01117140479994
 30
0.0
  0
VERTEX
  5
1FD0
  8
3
 10
82.13053686929995
 20
-28.83362200239992
 30
0.0
  0
VERTEX
  5
1FD1
  8
3
 10
81.57745751409995
 20
-28.55708232480004
 30
0.0
  0
VERTEX
  5
1FD2
  8
3
 10
81.22235870930002
 20
-28.20862200239992
 30
0.0
  0
VERTEX
  5
1FD3
  8
3
 10
81.09999999999998
 20
-27.82235075939991
 30
0.0
  0
VERTEX
  5
1FD4
  8
3
 10
81.22235870930002
 20
-27.4360795163999
 30
0.0
  0
VERTEX
  5
1FD5
  8
3
 10
81.57745751409995
 20
-27.08761919400001
 30
0.0
  0
VERTEX
  5
1FD6
  8
3
 10
82.13053686929995
 20
-26.8110795163999
 30
0.0
  0
VERTEX
  5
1FD7
  8
3
 10
82.82745751409995
 20
-26.63353011399988
 30
0.0
  0
VERTEX
  5
1FD8
  8
3
 10
83.59999999999998
 20
-26.57235075939991
 30
0.0
  0
VERTEX
  5
1FD9
  8
3
 10
84.37254248599994
 20
-26.63353011399988
 30
0.0
  0
VERTEX
  5
1FDA
  8
3
 10
85.06946313079995
 20
-26.8110795163999
 30
0.0
  0
VERTEX
  5
1FDB
  8
3
 10
85.62254248599994
 20
-27.08761919400001
 30
0.0
  0
VERTEX
  5
1FDC
  8
3
 10
85.97764129079998
 20
-27.4360795163999
 30
0.0
  0
VERTEX
  5
1FDD
  8
3
 10
86.09999999999998
 20
-27.82235075939991
 30
0.0
  0
SEQEND
  5
20F7
  8
3
  0
POLYLINE
  5
D9A
  8
3
 66
     1
 10
0.0
 20
0.0
 30
0.0
  0
VERTEX
  5
1FDE
  8
3
 10
86.09999999999998
 20
-27.90039031069989
 30
0.0
  0
VERTEX
  5
1FDF
  8
3
 10
85.97764129079998
 20
-28.2866615536999
 30
0.0
  0
VERTEX
  5
1FE0
  8
3
 10
85.62254248599994
 20
-28.63512187610002
 30
0.0
  0
VERTEX
  5
1FE1
  8
3
 10
85.06946313079995
 20
-28.9116615536999
 30
0.0
  0
VERTEX
  5
1FE2
  8
3
 10
84.37254248599994
 20
-29.08921095609992
 30
0.0
  0
VERTEX
  5
1FE3
  8
3
 10
83.59999999999998
 20
-29.15039031069989
 30
0.0
  0
VERTEX
  5
1FE4
  8
3
 10
82.82745751409995
 20
-29.08921095609992
 30
0.0
  0
VERTEX
  5
1FE5
  8
3
 10
82.13053686929995
 20
-28.9116615536999
 30
0.0
  0
VERTEX
  5
1FE6
  8
3
 10
81.57745751409995
 20
-28.63512187610002
 30
0.0
  0
VERTEX
  5
1FE7
  8
3
 10
81.22235870930002
 20
-28.2866615536999
 30
0.0
  0
VERTEX
  5
1FE8
  8
3
 10
81.09999999999998
 20
-27.90039031069989
 30
0.0
  0
VERTEX
  5
1FE9
  8
3
 10
81.22235870930002
 20
-27.51411906779992
 30
0.0
  0
VERTEX
  5
1FEA
  8
3
 10
81.57745751409995
 20
-27.16565874540004
 30
0.0
  0
VERTEX
  5
1FEB
  8
3
 10
82.13053686929995
 20
-26.88911906779992
 30
0.0
  0
VERTEX
  5
1FEC
  8
3
 10
82.82745751409995
 20
-26.71156966539991
 30
0.0
  0
VERTEX
  5
1FED
  8
3
 10
83.59999999999998
 20
-26.65039031069989
 30
0.0
  0
VERTEX
  5
1FEE
  8
3
 10
84.37254248599994
 20
-26.71156966539991
 30
0.0
  0
VERTEX
  5
1FEF
  8
3
 10
85.06946313079995
 20
-26.88911906779992
 30
0.0
  0
VERTEX
  5
1FF0
  8
3
 10
85.62254248599994
 20
-27.16565874540004
 30
0.0
  0
VERTEX
  5
1FF1
  8
3
 10
85.97764129079998
 20
-27.51411906779992
 30
0.0
  0
VERTEX
  5
1FF2
  8
3
 10
86.09999999999998
 20
-27.90039031069989
 30
0.0
  0
SEQEND
  5
20F6
  8
3
  0
POLYLINE
  5
D9B
  8
3
 66
     1
 10
0.0
 20
0.0
 30
0.0
  0
VERTEX
  5
1FF3
  8
3
 10
85.65499999999999
 20
-28.17023720539999
 30
0.0
  0
VERTEX
  5
1FF4
  8
3
 10
85.53106833569997
 20
-28.52166290260004
 30
0.0
  0
VERTEX
  5
1FF5
  8
3
 10
85.17422133059996
 20
-28.83070147429987
 30
0.0
  0
VERTEX
  5
1FF6
  8
3
 10
84.62749999999996
 20
-29.06007830779993
 30
0.0
  0
VERTEX
  5
1FF7
  8
3
 10
83.95684700509999
 20
-29.18212717159997
 30
0.0
  0
VERTEX
  5
1FF8
  8
3
 10
83.24315299489997
 20
-29.18212717159997
 30
0.0
  0
VERTEX
  5
1FF9
  8
3
 10
82.5725
 20
-29.06007830779993
 30
0.0
  0
VERTEX
  5
1FFA
  8
3
 10
82.0257786694
 20
-28.83070147429987
 30
0.0
  0
VERTEX
  5
1FFB
  8
3
 10
81.66893166429999
 20
-28.52166290260004
 30
0.0
  0
VERTEX
  5
1FFC
  8
3
 10
81.54499999999997
 20
-28.17023720539999
 30
0.0
  0
VERTEX
  5
1FFD
  8
3
 10
81.66893166429999
 20
-27.81881150809988
 30
0.0
  0
VERTEX
  5
1FFE
  8
3
 10
82.0257786694
 20
-27.50977293640005
 30
0.0
  0
VERTEX
  5
1FFF
  8
3
 10
82.5725
 20
-27.28039610300004
 30
0.0
  0
VERTEX
  5
2000
  8
3
 10
83.24315299489997
 20
-27.1583472392
 30
0.0
  0
VERTEX
  5
2001
  8
3
 10
83.95684700509999
 20
-27.1583472392
 30
0.0
  0
VERTEX
  5
2002
  8
3
 10
84.62749999999996
 20
-27.28039610300004
 30
0.0
  0
VERTEX
  5
2003
  8
3
 10
85.17422133059996
 20
-27.50977293640005
 30
0.0
  0
VERTEX
  5
2004
  8
3
 10
85.53106833569997
 20
-27.81881150809988
 30
0.0
  0
VERTEX
  5
2005
  8
3
 10
85.65499999999999
 20
-28.17023720539999
 30
0.0
  0
SEQEND
  5
20F5
  8
3
  0
POLYLINE
  5
D9C
  8
3
 66
     1
 10
0.0
 20
0.0
 30
0.0
  0
VERTEX
  5
2006
  8
3
 10
86.09999999999998
 20
-28.44008410000004
 30
0.0
  0
VERTEX
  5
2007
  8
3
 10
85.97764129079998
 20
-28.82635534300005
 30
0.0
  0
VERTEX
  5
2008
  8
3
 10
85.62254248599994
 20
-29.17481566539993
 30
0.0
  0
VERTEX
  5
2009
  8
3
 10
85.06946313079995
 20
-29.45135534300005
 30
0.0
  0
VERTEX
  5
200A
  8
3
 10
84.37254248599994
 20
-29.62890474540006
 30
0.0
  0
VERTEX
  5
200B
  8
3
 10
83.59999999999998
 20
-29.69008410000004
 30
0.0
  0
VERTEX
  5
200C
  8
3
 10
82.82745751409995
 20
-29.62890474540006
 30
0.0
  0
VERTEX
  5
200D
  8
3
 10
82.13053686929995
 20
-29.45135534300005
 30
0.0
  0
VERTEX
  5
200E
  8
3
 10
81.57745751409995
 20
-29.17481566539993
 30
0.0
  0
VERTEX
  5
200F
  8
3
 10
81.22235870930002
 20
-28.82635534300005
 30
0.0
  0
VERTEX
  5
2010
  8
3
 10
81.09999999999998
 20
-28.44008410000004
 30
0.0
  0
VERTEX
  5
2011
  8
3
 10
81.22235870930002
 20
-28.05381285700003
 30
0.0
  0
VERTEX
  5
2012
  8
3
 10
81.57745751409995
 20
-27.70535253459991
 30
0.0
  0
VERTEX
  5
2013
  8
3
 10
82.13053686929995
 20
-27.42881285700003
 30
0.0
  0
VERTEX
  5
2014
  8
3
 10
82.82745751409995
 20
-27.25126345460001
 30
0.0
  0
VERTEX
  5
2015
  8
3
 10
83.59999999999998
 20
-27.19008410000004
 30
0.0
  0
VERTEX
  5
2016
  8
3
 10
84.37254248599994
 20
-27.25126345460001
 30
0.0
  0
VERTEX
  5
2017
  8
3
 10
85.06946313079995
 20
-27.42881285700003
 30
0.0
  0
VERTEX
  5
2018
  8
3
 10
85.62254248599994
 20
-27.70535253459991
 30
0.0
  0
VERTEX
  5
2019
  8
3
 10
85.97764129079998
 20
-28.05381285700003
 30
0.0
  0
VERTEX
  5
201A
  8
3
 10
86.09999999999998
 20
-28.44008410000004
 30
0.0
  0
SEQEND
  5
20F4
  8
3
  0
POLYLINE
  5
D9D
  8
3
 66
     1
 10
0.0
 20
0.0
 30
0.0
  0
VERTEX
  5
201B
  8
3
 10
86.09999999999998
 20
-28.51812365130002
 30
0.0
  0
VERTEX
  5
201C
  8
3
 10
85.97764129079998
 20
-28.90439489430003
 30
0.0
  0
VERTEX
  5
201D
  8
3
 10
85.62254248599994
 20
-29.25285521669991
 30
0.0
  0
VERTEX
  5
201E
  8
3
 10
85.06946313079995
 20
-29.52939489430003
 30
0.0
  0
VERTEX
  5
201F
  8
3
 10
84.37254248599994
 20
-29.70694429670004
 30
0.0
  0
VERTEX
  5
2020
  8
3
 10
83.59999999999998
 20
-29.76812365140006
 30
0.0
  0
VERTEX
  5
2021
  8
3
 10
82.82745751409995
 20
-29.70694429670004
 30
0.0
  0
VERTEX
  5
2022
  8
3
 10
82.13053686929995
 20
-29.52939489430003
 30
0.0
  0
VERTEX
  5
2023
  8
3
 10
81.57745751409995
 20
-29.25285521669991
 30
0.0
  0
VERTEX
  5
2024
  8
3
 10
81.22235870930002
 20
-28.90439489430003
 30
0.0
  0
VERTEX
  5
2025
  8
3
 10
81.09999999999998
 20
-28.51812365130002
 30
0.0
  0
VERTEX
  5
2026
  8
3
 10
81.22235870930002
 20
-28.13185240840005
 30
0.0
  0
VERTEX
  5
2027
  8
3
 10
81.57745751409995
 20
-27.78339208599994
 30
0.0
  0
VERTEX
  5
2028
  8
3
 10
82.13053686929995
 20
-27.50685240840005
 30
0.0
  0
VERTEX
  5
2029
  8
3
 10
82.82745751409995
 20
-27.32930300600003
 30
0.0
  0
VERTEX
  5
202A
  8
3
 10
83.59999999999998
 20
-27.26812365130002
 30
0.0
  0
VERTEX
  5
202B
  8
3
 10
84.37254248599994
 20
-27.32930300600003
 30
0.0
  0
VERTEX
  5
202C
  8
3
 10
85.06946313079995
 20
-27.50685240840005
 30
0.0
  0
VERTEX
  5
202D
  8
3
 10
85.62254248599994
 20
-27.78339208599994
 30
0.0
  0
VERTEX
  5
202E
  8
3
 10
85.97764129079998
 20
-28.13185240840005
 30
0.0
  0
VERTEX
  5
202F
  8
3
 10
86.09999999999998
 20
-28.51812365130002
 30
0.0
  0
SEQEND
  5
20F3
  8
3
  0
POLYLINE
  5
D9E
  8
3
 66
     1
 10
0.0
 20
0.0
 30
0.0
  0
VERTEX
  5
2030
  8
3
 10
85.65499999999999
 20
-28.78797054599988
 30
0.0
  0
VERTEX
  5
2031
  8
3
 10
85.53106833569997
 20
-29.13939624319994
 30
0.0
  0
VERTEX
  5
2032
  8
3
 10
85.17422133059996
 20
-29.4484348149
 30
0.0
  0
VERTEX
  5
2033
  8
3
 10
84.62749999999996
 20
-29.67781164840005
 30
0.0
  0
VERTEX
  5
2034
  8
3
 10
83.95684700509999
 20
-29.79986051219987
 30
0.0
  0
VERTEX
  5
2035
  8
3
 10
83.24315299489997
 20
-29.79986051219987
 30
0.0
  0
VERTEX
  5
2036
  8
3
 10
82.5725
 20
-29.67781164840005
 30
0.0
  0
VERTEX
  5
2037
  8
3
 10
82.0257786694
 20
-29.4484348149
 30
0.0
  0
VERTEX
  5
2038
  8
3
 10
81.66893166429999
 20
-29.13939624319994
 30
0.0
  0
VERTEX
  5
2039
  8
3
 10
81.54499999999997
 20
-28.78797054599988
 30
0.0
  0
VERTEX
  5
203A
  8
3
 10
81.66893166429999
 20
-28.43654484870001
 30
0.0
  0
VERTEX
  5
203B
  8
3
 10
82.0257786694
 20
-28.12750627699995
 30
0.0
  0
VERTEX
  5
203C
  8
3
 10
82.5725
 20
-27.89812944359994
 30
0.0
  0
VERTEX
  5
203D
  8
3
 10
83.24315299489997
 20
-27.7760805797999
 30
0.0
  0
VERTEX
  5
203E
  8
3
 10
83.95684700509999
 20
-27.7760805797999
 30
0.0
  0
VERTEX
  5
203F
  8
3
 10
84.62749999999996
 20
-27.89812944359994
 30
0.0
  0
VERTEX
  5
2040
  8
3
 10
85.17422133059996
 20
-28.12750627699995
 30
0.0
  0
VERTEX
  5
2041
  8
3
 10
85.53106833569997
 20
-28.43654484870001
 30
0.0
  0
VERTEX
  5
2042
  8
3
 10
85.65499999999999
 20
-28.78797054599988
 30
0.0
  0
SEQEND
  5
20F2
  8
3
  0
POLYLINE
  5
D9F
  8
3
 66
     1
 10
0.0
 20
0.0
 30
0.0
  0
VERTEX
  5
2043
  8
3
 10
86.09999999999998
 20
-29.05781744059993
 30
0.0
  0
VERTEX
  5
2044
  8
3
 10
85.97764129079998
 20
-29.44408868359994
 30
0.0
  0
VERTEX
  5
2045
  8
3
 10
85.62254248599994
 20
-29.79254900600006
 30
0.0
  0
VERTEX
  5
2046
  8
3
 10
85.06946313079995
 20
-30.06908868359994
 30
0.0
  0
VERTEX
  5
2047
  8
3
 10
84.37254248599994
 20
-30.24663808599996
 30
0.0
  0
VERTEX
  5
2048
  8
3
 10
83.59999999999998
 20
-30.30781744059993
 30
0.0
  0
VERTEX
  5
2049
  8
3
 10
82.82745751409995
 20
-30.24663808599996
 30
0.0
  0
VERTEX
  5
204A
  8
3
 10
82.13053686929995
 20
-30.06908868359994
 30
0.0
  0
VERTEX
  5
204B
  8
3
 10
81.57745751409995
 20
-29.79254900600006
 30
0.0
  0
VERTEX
  5
204C
  8
3
 10
81.22235870930002
 20
-29.44408868359994
 30
0.0
  0
VERTEX
  5
204D
  8
3
 10
81.09999999999998
 20
-29.05781744059993
 30
0.0
  0
VERTEX
  5
204E
  8
3
 10
81.22235870930002
 20
-28.67154619759992
 30
0.0
  0
VERTEX
  5
204F
  8
3
 10
81.57745751409995
 20
-28.32308587520004
 30
0.0
  0
VERTEX
  5
2050
  8
3
 10
82.13053686929995
 20
-28.04654619759992
 30
0.0
  0
VERTEX
  5
2051
  8
3
 10
82.82745751409995
 20
-27.86899679519991
 30
0.0
  0
VERTEX
  5
2052
  8
3
 10
83.59999999999998
 20
-27.80781744059993
 30
0.0
  0
VERTEX
  5
2053
  8
3
 10
84.37254248599994
 20
-27.86899679519991
 30
0.0
  0
VERTEX
  5
2054
  8
3
 10
85.06946313079995
 20
-28.04654619759992
 30
0.0
  0
VERTEX
  5
2055
  8
3
 10
85.62254248599994
 20
-28.32308587520004
 30
0.0
  0
VERTEX
  5
2056
  8
3
 10
85.97764129079998
 20
-28.67154619759992
 30
0.0
  0
VERTEX
  5
2057
  8
3
 10
86.09999999999998
 20
-29.05781744059993
 30
0.0
  0
SEQEND
  5
20F1
  8
3
  0
POLYLINE
  5
DA0
  8
3
 66
     1
 10
0.0
 20
0.0
 30
0.0
  0
VERTEX
  5
2058
  8
3
 10
86.09999999999998
 20
-29.13585699199996
 30
0.0
  0
VERTEX
  5
2059
  8
3
 10
85.97764129079998
 20
-29.52212823489992
 30
0.0
  0
VERTEX
  5
205A
  8
3
 10
85.62254248599994
 20
-29.87058855730004
 30
0.0
  0
VERTEX
  5
205B
  8
3
 10
85.06946313079995
 20
-30.14712823489992
 30
0.0
  0
VERTEX
  5
205C
  8
3
 10
84.37254248599994
 20
-30.32467763729994
 30
0.0
  0
VERTEX
  5
205D
  8
3
 10
83.59999999999998
 20
-30.38585699199996
 30
0.0
  0
VERTEX
  5
205E
  8
3
 10
82.82745751409995
 20
-30.32467763729994
 30
0.0
  0
VERTEX
  5
205F
  8
3
 10
82.13053686929995
 20
-30.14712823489992
 30
0.0
  0
VERTEX
  5
2060
  8
3
 10
81.57745751409995
 20
-29.87058855730004
 30
0.0
  0
VERTEX
  5
2061
  8
3
 10
81.22235870930002
 20
-29.52212823489992
 30
0.0
  0
VERTEX
  5
2062
  8
3
 10
81.09999999999998
 20
-29.13585699199996
 30
0.0
  0
VERTEX
  5
2063
  8
3
 10
81.22235870930002
 20
-28.74958574899995
 30
0.0
  0
VERTEX
  5
2064
  8
3
 10
81.57745751409995
 20
-28.40112542660006
 30
0.0
  0
VERTEX
  5
2065
  8
3
 10
82.13053686929995
 20
-28.12458574899995
 30
0.0
  0
VERTEX
  5
2066
  8
3
 10
82.82745751409995
 20
-27.94703634659993
 30
0.0
  0
VERTEX
  5
2067
  8
3
 10
83.59999999999998
 20
-27.88585699199996
 30
0.0
  0
VERTEX
  5
2068
  8
3
 10
84.37254248599994
 20
-27.94703634659993
 30
0.0
  0
VERTEX
  5
2069
  8
3
 10
85.06946313079995
 20
-28.12458574899995
 30
0.0
  0
VERTEX
  5
206A
  8
3
 10
85.62254248599994
 20
-28.40112542660006
 30
0.0
  0
VERTEX
  5
206B
  8
3
 10
85.97764129079998
 20
-28.74958574899995
 30
0.0
  0
VERTEX
  5
206C
  8
3
 10
86.09999999999998
 20
-29.13585699199996
 30
0.0
  0
SEQEND
  5
20F0
  8
3
  0
POLYLINE
  5
DA1
  8
3
 66
     1
 10
0.0
 20
0.0
 30
0.0
  0
VERTEX
  5
206D
  8
3
 10
85.65499999999999
 20
-29.40570388660001
 30
0.0
  0
VERTEX
  5
206E
  8
3
 10
85.53106833569997
 20
-29.75712958380007
 30
0.0
  0
VERTEX
  5
206F
  8
3
 10
85.17422133059996
 20
-30.06616815549989
 30
0.0
  0
VERTEX
  5
2070
  8
3
 10
84.62749999999996
 20
-30.29554498899995
 30
0.0
  0
VERTEX
  5
2071
  8
3
 10
83.95684700509999
 20
-30.4175938528
 30
0.0
  0
VERTEX
  5
2072
  8
3
 10
83.24315299489997
 20
-30.4175938528
 30
0.0
  0
VERTEX
  5
2073
  8
3
 10
82.5725
 20
-30.29554498899995
 30
0.0
  0
VERTEX
  5
2074
  8
3
 10
82.0257786694
 20
-30.06616815549989
 30
0.0
  0
VERTEX
  5
2075
  8
3
 10
81.66893166429999
 20
-29.75712958380007
 30
0.0
  0
VERTEX
  5
2076
  8
3
 10
81.54499999999997
 20
-29.40570388660001
 30
0.0
  0
VERTEX
  5
2077
  8
3
 10
81.66893166429999
 20
-29.05427818929991
 30
0.0
  0
VERTEX
  5
2078
  8
3
 10
82.0257786694
 20
-28.74523961759985
 30
0.0
  0
VERTEX
  5
2079
  8
3
 10
82.5725
 20
-28.51586278420007
 30
0.0
  0
VERTEX
  5
207A
  8
3
 10
83.24315299489997
 20
-28.39381392040002
 30
0.0
  0
VERTEX
  5
207B
  8
3
 10
83.95684700509999
 20
-28.39381392040002
 30
0.0
  0
VERTEX
  5
207C
  8
3
 10
84.62749999999996
 20
-28.51586278420007
 30
0.0
  0
VERTEX
  5
207D
  8
3
 10
85.17422133059996
 20
-28.74523961759985
 30
0.0
  0
VERTEX
  5
207E
  8
3
 10
85.53106833569997
 20
-29.05427818929991
 30
0.0
  0
VERTEX
  5
207F
  8
3
 10
85.65499999999999
 20
-29.40570388660001
 30
0.0
  0
SEQEND
  5
20EF
  8
3
  0
POLYLINE
  5
DA2
  8
3
 66
     1
 10
0.0
 20
0.0
 30
0.0
  0
VERTEX
  5
2080
  8
3
 10
86.09999999999998
 20
-29.67555078120006
 30
0.0
  0
VERTEX
  5
2081
  8
3
 10
85.97764129079998
 20
-30.06182202420007
 30
0.0
  0
VERTEX
  5
2082
  8
3
 10
85.62254248599994
 20
-30.41028234659996
 30
0.0
  0
VERTEX
  5
2083
  8
3
 10
85.06946313079995
 20
-30.68682202420007
 30
0.0
  0
VERTEX
  5
2084
  8
3
 10
84.37254248599994
 20
-30.86437142659986
 30
0.0
  0
VERTEX
  5
2085
  8
3
 10
83.59999999999998
 20
-30.92555078120006
 30
0.0
  0
VERTEX
  5
2086
  8
3
 10
82.82745751409995
 20
-30.86437142659986
 30
0.0
  0
VERTEX
  5
2087
  8
3
 10
82.13053686929995
 20
-30.68682202420007
 30
0.0
  0
VERTEX
  5
2088
  8
3
 10
81.57745751409995
 20
-30.41028234659996
 30
0.0
  0
VERTEX
  5
2089
  8
3
 10
81.22235870930002
 20
-30.06182202420007
 30
0.0
  0
VERTEX
  5
208A
  8
3
 10
81.09999999999998
 20
-29.67555078120006
 30
0.0
  0
VERTEX
  5
208B
  8
3
 10
81.22235870930002
 20
-29.28927953820005
 30
0.0
  0
VERTEX
  5
208C
  8
3
 10
81.57745751409995
 20
-28.94081921579993
 30
0.0
  0
VERTEX
  5
208D
  8
3
 10
82.13053686929995
 20
-28.66427953820005
 30
0.0
  0
VERTEX
  5
208E
  8
3
 10
82.82745751409995
 20
-28.48673013580003
 30
0.0
  0
VERTEX
  5
208F
  8
3
 10
83.59999999999998
 20
-28.42555078120006
 30
0.0
  0
VERTEX
  5
2090
  8
3
 10
84.37254248599994
 20
-28.48673013580003
 30
0.0
  0
VERTEX
  5
2091
  8
3
 10
85.06946313079995
 20
-28.66427953820005
 30
0.0
  0
VERTEX
  5
2092
  8
3
 10
85.62254248599994
 20
-28.94081921579993
 30
0.0
  0
VERTEX
  5
2093
  8
3
 10
85.97764129079998
 20
-29.28927953820005
 30
0.0
  0
VERTEX
  5
2094
  8
3
 10
86.09999999999998
 20
-29.67555078120006
 30
0.0
  0
SEQEND
  5
20EE
  8
3
  0
LINE
  5
DA3
  8
3
 10
83.59999999999998
 20
-28.62935647350002
 30
0.0
 11
83.59999999999998
 21
-30.96762506369998
 31
0.0
  0
LINE
  5
DA4
  8
3
 10
84.84999999999998
 20
-28.26851255519989
 30
0.0
 11
83.59999999999998
 21
-28.62935647350002
 31
0.0
  0
LINE
  5
DA5
  8
3
 10
82.34999999999998
 20
-28.26851255519989
 30
0.0
 11
83.59999999999998
 21
-28.62935647350002
 31
0.0
  0
POLYLINE
  5
DA6
  8
3
 66
     1
 10
0.0
 20
0.0
 30
0.0
  0
VERTEX
  5
2095
  8
3
 10
86.09999999999998
 20
-29.75359033259986
 30
0.0
  0
VERTEX
  5
2096
  8
3
 10
85.97764129079998
 20
-30.13986157550005
 30
0.0
  0
VERTEX
  5
2097
  8
3
 10
85.62254248599994
 20
-30.48832189789994
 30
0.0
  0
VERTEX
  5
2098
  8
3
 10
85.06946313079995
 20
-30.76486157550005
 30
0.0
  0
VERTEX
  5
2099
  8
3
 10
84.37254248599994
 20
-30.94241097790007
 30
0.0
  0
VERTEX
  5
209A
  8
3
 10
83.59999999999998
 20
-31.00359033259986
 30
0.0
  0
VERTEX
  5
209B
  8
3
 10
82.82745751409995
 20
-30.94241097790007
 30
0.0
  0
VERTEX
  5
209C
  8
3
 10
82.13053686929995
 20
-30.76486157550005
 30
0.0
  0
VERTEX
  5
209D
  8
3
 10
81.57745751409995
 20
-30.48832189789994
 30
0.0
  0
VERTEX
  5
209E
  8
3
 10
81.22235870930002
 20
-30.13986157550005
 30
0.0
  0
VERTEX
  5
209F
  8
3
 10
81.09999999999998
 20
-29.75359033259986
 30
0.0
  0
VERTEX
  5
20A0
  8
3
 10
81.22235870930002
 20
-29.36731908959985
 30
0.0
  0
VERTEX
  5
20A1
  8
3
 10
81.57745751409995
 20
-29.01885876719996
 30
0.0
  0
VERTEX
  5
20A2
  8
3
 10
82.13053686929995
 20
-28.74231908959985
 30
0.0
  0
VERTEX
  5
20A3
  8
3
 10
82.82745751409995
 20
-28.56476968720006
 30
0.0
  0
VERTEX
  5
20A4
  8
3
 10
83.59999999999998
 20
-28.50359033259986
 30
0.0
  0
VERTEX
  5
20A5
  8
3
 10
84.37254248599994
 20
-28.56476968720006
 30
0.0
  0
VERTEX
  5
20A6
  8
3
 10
85.06946313079995
 20
-28.74231908959985
 30
0.0
  0
VERTEX
  5
20A7
  8
3
 10
85.62254248599994
 20
-29.01885876719996
 30
0.0
  0
VERTEX
  5
20A8
  8
3
 10
85.97764129079998
 20
-29.36731908959985
 30
0.0
  0
VERTEX
  5
20A9
  8
3
 10
86.09999999999998
 20
-29.75359033259986
 30
0.0
  0
SEQEND
  5
20ED
  8
3
  0
POLYLINE
  5
DA7
  8
3
 66
     1
 10
0.0
 20
0.0
 30
0.0
  0
VERTEX
  5
20AA
  8
3
 10
85.65499999999999
 20
-30.02343722719991
 30
0.0
  0
VERTEX
  5
20AB
  8
3
 10
85.53106833569997
 20
-30.37486292450001
 30
0.0
  0
VERTEX
  5
20AC
  8
3
 10
85.17422133059996
 20
-30.68390149610002
 30
0.0
  0
VERTEX
  5
20AD
  8
3
 10
84.62749999999996
 20
-30.91327832959985
 30
0.0
  0
VERTEX
  5
20AE
  8
3
 10
83.95684700509999
 20
-31.03532719339989
 30
0.0
  0
VERTEX
  5
20AF
  8
3
 10
83.24315299489997
 20
-31.03532719339989
 30
0.0
  0
VERTEX
  5
20B0
  8
3
 10
82.5725
 20
-30.91327832959985
 30
0.0
  0
VERTEX
  5
20B1
  8
3
 10
82.0257786694
 20
-30.68390149610002
 30
0.0
  0
VERTEX
  5
20B2
  8
3
 10
81.66893166429999
 20
-30.37486292450001
 30
0.0
  0
VERTEX
  5
20B3
  8
3
 10
81.54499999999997
 20
-30.02343722719991
 30
0.0
  0
VERTEX
  5
20B4
  8
3
 10
81.66893166429999
 20
-29.67201152990003
 30
0.0
  0
VERTEX
  5
20B5
  8
3
 10
82.0257786694
 20
-29.36297295819998
 30
0.0
  0
VERTEX
  5
20B6
  8
3
 10
82.5725
 20
-29.13359612479996
 30
0.0
  0
VERTEX
  5
20B7
  8
3
 10
83.24315299489997
 20
-29.01154726099992
 30
0.0
  0
VERTEX
  5
20B8
  8
3
 10
83.95684700509999
 20
-29.01154726099992
 30
0.0
  0
VERTEX
  5
20B9
  8
3
 10
84.62749999999996
 20
-29.13359612479996
 30
0.0
  0
VERTEX
  5
20BA
  8
3
 10
85.17422133059996
 20
-29.36297295819998
 30
0.0
  0
VERTEX
  5
20BB
  8
3
 10
85.53106833569997
 20
-29.67201152990003
 30
0.0
  0
VERTEX
  5
20BC
  8
3
 10
85.65499999999999
 20
-30.02343722719991
 30
0.0
  0
SEQEND
  5
20EC
  8
3
  0
POLYLINE
  5
DA8
  8
3
 66
     1
 10
0.0
 20
0.0
 30
0.0
  0
VERTEX
  5
20BD
  8
3
 10
85.85610312689995
 20
-30.14538566379986
 30
0.0
  0
VERTEX
  5
20BE
  8
3
 10
85.73386123649995
 20
-29.77910791989996
 30
0.0
  0
VERTEX
  5
20BF
  8
3
 10
85.38038237079998
 20
-29.45252205290001
 30
0.0
  0
VERTEX
  5
20C0
  8
3
 10
84.83397144979996
 20
-29.20101870909991
 30
0.0
  0
VERTEX
  5
20C1
  8
3
 10
84.1538405752
 20
-29.05185217819997
 30
0.0
  0
VERTEX
  5
20C2
  8
3
 10
83.41369248050002
 20
-29.02118696829996
 30
0.0
  0
VERTEX
  5
20C3
  8
3
 10
82.69373369639995
 20
-29.11234613089994
 30
0.0
  0
VERTEX
  5
20C4
  8
3
 10
82.07198292850002
 20
-29.31545115610004
 30
0.0
  0
VERTEX
  5
20C5
  8
3
 10
81.61581651999997
 20
-29.60849246290002
 30
0.0
  0
VERTEX
  5
20C6
  8
3
 10
81.37466717919996
 20
-29.95971447889985
 30
0.0
  0
VERTEX
  5
20C7
  8
3
 10
81.37466717919996
 20
-30.33105684869986
 30
0.0
  0
VERTEX
  5
20C8
  8
3
 10
81.61581651999997
 20
-30.68227886459988
 30
0.0
  0
VERTEX
  5
20C9
  8
3
 10
82.07198292850002
 20
-30.97532017139986
 30
0.0
  0
VERTEX
  5
20CA
  8
3
 10
82.69373369639995
 20
-31.17842519659996
 30
0.0
  0
VERTEX
  5
20CB
  8
3
 10
83.41369248050002
 20
-31.26958435919994
 30
0.0
  0
VERTEX
  5
20CC
  8
3
 10
84.1538405752
 20
-31.23891914929993
 30
0.0
  0
VERTEX
  5
20CD
  8
3
 10
84.83397144979996
 20
-31.08975261839998
 30
0.0
  0
VERTEX
  5
20CE
  8
3
 10
85.38038237079998
 20
-30.83824927459989
 30
0.0
  0
VERTEX
  5
20CF
  8
3
 10
85.73386123649995
 20
-30.51166340759994
 30
0.0
  0
VERTEX
  5
20D0
  8
3
 10
85.85610312689995
 20
-30.14538566379986
 30
0.0
  0
SEQEND
  5
20EB
  8
3
  0
LINE
  5
DA9
  8
3
 10
84.84999999999998
 20
-28.26851255519989
 30
0.0
 11
84.84999999999998
 21
-27.5468247186999
 31
0.0
  0
LINE
  5
DAA
  8
3
 10
84.84999999999998
 20
-28.26851255519989
 30
0.0
 11
84.84999999999998
 21
-30.60678114539985
 31
0.0
  0
LINE
  5
DAB
  8
3
 10
82.34999999999998
 20
-28.26851255519989
 30
0.0
 11
82.34999999999998
 21
-27.5468247186999
 31
0.0
  0
LINE
  5
DAC
  8
3
 10
82.34999999999998
 20
-28.26851255519989
 30
0.0
 11
82.34999999999998
 21
-30.60678114539985
 31
0.0
  0
POLYLINE
  5
DAD
  8
3
 66
     1
 10
0.0
 20
0.0
 30
0.0
  0
VERTEX
  5
20D1
  8
3
 10
83.59999999999998
 20
-31.27343722719991
 30
0.0
  0
VERTEX
  5
20D2
  8
3
 10
82.89714860549999
 20
-31.21147139499988
 30
0.0
  0
VERTEX
  5
20D3
  8
3
 10
82.27907146209999
 20
-31.03304789249989
 30
0.0
  0
VERTEX
  5
20D4
  8
3
 10
81.82031779529997
 20
-30.75968722720006
 30
0.0
  0
VERTEX
  5
20D5
  8
3
 10
81.57622006759995
 20
-30.42436072969997
 30
0.0
  0
VERTEX
  5
20D6
  8
3
 10
81.57622006759995
 20
-30.06751372459996
 30
0.0
  0
VERTEX
  5
20D7
  8
3
 10
81.82031779529997
 20
-29.73218722719992
 30
0.0
  0
VERTEX
  5
20D8
  8
3
 10
82.27907146209999
 20
-29.45882656189985
 30
0.0
  0
VERTEX
  5
20D9
  8
3
 10
82.89714860549999
 20
-29.28040305930006
 30
0.0
  0
VERTEX
  5
20DA
  8
3
 10
83.59999999999998
 20
-29.21843722720007
 30
0.0
  0
VERTEX
  5
20DB
  8
3
 10
84.30285139460001
 20
-29.28040305930006
 30
0.0
  0
VERTEX
  5
20DC
  8
3
 10
84.92092853789997
 20
-29.45882656189985
 30
0.0
  0
VERTEX
  5
20DD
  8
3
 10
85.37968220479998
 20
-29.73218722719992
 30
0.0
  0
VERTEX
  5
20DE
  8
3
 10
85.62377993249994
 20
-30.06751372459996
 30
0.0
  0
VERTEX
  5
20DF
  8
3
 10
85.62377993249994
 20
-30.42436072969997
 30
0.0
  0
VERTEX
  5
20E0
  8
3
 10
85.37968220479998
 20
-30.75968722720006
 30
0.0
  0
VERTEX
  5
20E1
  8
3
 10
84.92092853789997
 20
-31.03304789249989
 30
0.0
  0
VERTEX
  5
20E2
  8
3
 10
84.30285139460001
 20
-31.21147139499988
 30
0.0
  0
VERTEX
  5
20E3
  8
3
 10
83.59999999999998
 20
-31.27343722719991
 30
0.0
  0
SEQEND
  5
20EA
  8
3
  0
LINE
  5
DAE
  8
3
 10
84.84999999999998
 20
-30.60678114539985
 30
0.0
 11
83.59999999999998
 21
-30.96762506369998
 31
0.0
  0
LINE
  5
DAF
  8
3
 10
82.34999999999998
 20
-30.60678114539985
 30
0.0
 11
83.59999999999998
 21
-30.96762506369998
 31
0.0
  0
LINE
  5
DB0
  8
3
 10
83.59999999999998
 20
-27.18598080050003
 30
0.0
 11
83.59999999999998
 21
-28.62935647350002
 31
0.0
  0
LINE
  5
DB1
  8
3
 10
82.34999999999998
 20
-29.88509330889985
 30
0.0
 11
83.59999999999998
 21
-29.52424939069999
 31
0.0
  0
LINE
  5
DB2
  8
3
 10
82.34999999999998
 20
-27.5468247186999
 30
0.0
 11
83.59999999999998
 21
-27.18598080050003
 31
0.0
  0
LINE
  5
DB3
  8
3
 10
84.84999999999998
 20
-29.88509330889985
 30
0.0
 11
83.59999999999998
 21
-29.52424939069999
 31
0.0
  0
LINE
  5
DB4
  8
3
 10
84.84999999999998
 20
-27.5468247186999
 30
0.0
 11
83.59999999999998
 21
-27.18598080050003
 31
0.0
  0
LINE
  5
DB6
  8
3
 10
101.40019979
 20
7.098029999999994
 30
0.0
 11
101.40019979
 21
-7.098029999999994
 31
0.0
  0
LINE
  5
DBF
  8
3
 10
89.99776030499994
 20
-19.04618999999991
 30
0.0
 11
89.99776030499994
 21
-31.75381000000004
 31
0.0
  0
LINE
  5
DC0
  8
3
 10
87.93480000000001
 20
-19.30399999999997
 30
0.0
 11
87.93480000000001
 21
-31.49599999999998
 31
0.0
  0
LINE
  5
DC1
  8
3
 10
88.85963951069995
 20
-19.0561899999999
 30
0.0
 11
88.85963951069995
 21
-31.74381000000005
 31
0.0
  0
LINE
  5
DC2
  8
3
 10
89.99776030499994
 20
31.75381000000004
 30
0.0
 11
89.99776030499994
 21
19.04619000000014
 31
0.0
  0
LINE
  5
DC3
  8
3
 10
87.93480000000001
 20
31.49599999999998
 30
0.0
 11
87.93480000000001
 21
19.30399999999997
 31
0.0
  0
LINE
  5
DC4
  8
3
 10
88.85963951069995
 20
31.74381000000005
 30
0.0
 11
88.85963951069995
 21
19.05619000000013
 31
0.0
  0
LINE
  5
DC8
  8
3
 10
101.6
 20
16.87407116049997
 30
0.0
 11
101.4136296695
 21
16.17852761799998
 31
0.0
  0
LINE
  5
DC9
  8
3
 10
101.4136296695
 20
-16.17852761810002
 30
0.0
 11
101.6
 21
-16.87407116060001
 31
0.0
  0
ARC
  5
DCA
  8
3
 10
101.8
 20
-16.07499999999993
 30
0.0
 40
0.4000000000000283
 50
166.8750000000054
 51
194.9999999999931
  0
ARC
  5
DCB
  8
3
 10
101.8
 20
-16.07499999999993
 30
0.0
 40
0.4000000000000807
 50
119.9999999999988
 51
166.8750000000075
  0
ARC
  5
DCC
  8
3
 10
101.8
 20
16.07499999999993
 30
0.0
 40
0.4000000000000263
 50
165.0000000000069
 51
180.0
  0
ARC
  5
DCD
  8
3
 10
101.8
 20
16.07499999999993
 30
0.0
 40
0.3999999999999773
 50
180.0
 51
240.0000000000167
  0
LINE
  5
DCE
  8
3
 10
101.4
 20
16.07499999999993
 30
0.0
 11
101.4
 21
-16.07499999999993
 31
0.0
  0
LINE
  5
DD1
  8
3
 10
101.6
 20
2.000000000000114
 30
0.0
 11
84.24689797369997
 21
2.000000000000114
 31
0.0
  0
LINE
  5
DD2
  8
3
 10
84.25012668549995
 20
-1.999999999999886
 30
0.0
 11
101.6
 21
-1.999999999999886
 31
0.0
  0
LINE
  5
DD9
  8
SK3
 10
-40.09999999999999
 20
-11.11250000000007
 30
0.0
 11
-37.834376924
 21
-7.341869999999858
 31
0.0
  0
LINE
  5
DDA
  8
SK3
 10
-37.834376924
 20
7.341870000000085
 30
0.0
 11
-40.09999999999999
 21
11.11250000000007
 31
0.0
  0
LINE
  5
DDF
  8
3
 10
101.6440397900001
 20
7.341870000000085
 30
0.0
 11
-0.0000000000000071
 21
7.341870000000085
 31
0.0
  0
LINE
  5
DE0
  8
3
 10
0.0
 20
-7.341869999999858
 30
0.0
 11
101.6440397899999
 21
-7.341869999999858
 31
0.0
  0
LINE
  5
DE1
  8
3
 10
101.6
 20
31.75049999999999
 30
0.0
 11
86.59999999999998
 21
31.75049999999999
 31
0.0
  0
LINE
  5
DE2
  8
3
 10
86.59999999999998
 20
19.04949999999997
 30
0.0
 11
101.6
 21
19.04949999999997
 31
0.0
  0
LINE
  5
DE3
  8
3
 10
101.6
 20
-19.04949999999997
 30
0.0
 11
86.59999999999998
 21
-19.04949999999997
 31
0.0
  0
LINE
  5
DE4
  8
3
 10
86.59999999999998
 20
-31.75049999999999
 30
0.0
 11
101.6
 21
-31.75049999999999
 31
0.0
  0
LINE
  5
DE5
  8
3
 10
86.59999999999998
 20
-19.04949999999997
 30
0.0
 11
82.7842346389
 21
-25.39999999999998
 31
0.0
  0
LINE
  5
DE6
  8
3
 10
82.7842346389
 20
-25.39999999999998
 30
0.0
 11
86.59999999999998
 21
-31.75049999999999
 31
0.0
  0
LINE
  5
DE7
  8
3
 10
86.59999999999998
 20
31.75049999999999
 30
0.0
 11
82.7842346389
 21
25.39999999999998
 31
0.0
  0
LINE
  5
DE8
  8
3
 10
82.7842346389
 20
25.39999999999998
 30
0.0
 11
86.59999999999998
 21
19.04949999999997
 31
0.0
  0
LINE
  5
DEF
  8
3
 10
81.50000000000001
 20
29.01185102679995
 30
0.0
 11
81.50000000000001
 21
6.354557527900056
 31
0.0
  0
LINE
  5
DF0
  8
3
 10
85.69999999999995
 20
11.90303384810011
 30
0.0
 11
85.69999999999995
 21
29.01185102679995
 31
0.0
  0
LINE
  5
DF1
  8
3
 10
85.69999999999995
 20
6.35234756579996
 30
0.0
 11
85.69999999999995
 21
8.450111038200134
 31
0.0
  0
LINE
  5
DF2
  8
3
 10
85.69999999999995
 20
-8.447117866799886
 30
0.0
 11
85.69999999999995
 21
-6.352347565900004
 31
0.0
  0
LINE
  5
DF3
  8
3
 10
85.69999999999995
 20
-29.01185102679995
 30
0.0
 11
85.69999999999995
 21
-11.89983538059994
 31
0.0
  0
LINE
  5
DF4
  8
3
 10
81.50000000000001
 20
-6.354557527900056
 30
0.0
 11
81.50000000000001
 21
-29.01185102679995
 31
0.0
  0
LINE
  5
DF5
  8
3
 10
101.6
 20
12.1757984945001
 30
0.0
 11
85.44293091049998
 21
12.1757984945001
 31
0.0
  0
LINE
  5
DF6
  8
3
 10
85.43354977589998
 20
8.1757984945001
 30
0.0
 11
101.6
 21
8.1757984945001
 31
0.0
  0
LINE
  5
DF7
  8
3
 10
101.6
 20
-8.175798494499873
 30
0.0
 11
85.44204078409997
 21
-8.175798494499873
 31
0.0
  0
LINE
  5
DF8
  8
3
 10
85.4341813471
 20
-12.17579849449987
 30
0.0
 11
101.6
 21
-12.17579849449987
 31
0.0
  0
LINE
  5
DF9
  8
3
 10
80.97499999999998
 20
30.24576628110015
 30
0.0
 11
80.97499999999998
 21
29.37991182339999
 31
0.0
  0
LINE
  5
DFA
  8
3
 10
86.22499999999998
 20
29.37991182339999
 30
0.0
 11
86.22499999999998
 21
30.24378634679999
 31
0.0
  0
LINE
  5
DFB
  8
3
 10
86.22499999999998
 20
-30.24378634690004
 30
0.0
 11
86.22499999999998
 21
-29.37991182339999
 31
0.0
  0
LINE
  5
DFC
  8
3
 10
80.97499999999998
 20
-29.37991182339999
 30
0.0
 11
80.97499999999998
 21
-30.24576628119996
 31
0.0
  0
LINE
  5
DFD
  8
3
 10
81.5383461332
 20
28.65100710850004
 30
0.0
 11
81.88535718009997
 21
28.40563324409993
 31
0.0
  0
LINE
  5
DFE
  8
3
 10
85.31464281999997
 20
28.40563324409993
 30
0.0
 11
85.66165386690001
 21
28.65100710850004
 31
0.0
  0
LINE
  5
DFF
  8
3
 10
85.66165386690001
 20
-28.65100710850004
 30
0.0
 11
85.31464281999997
 21
-28.40563324409993
 31
0.0
  0
LINE
  5
E00
  8
3
 10
81.88535718009997
 20
-28.40563324409993
 30
0.0
 11
81.5383461332
 21
-28.65100710850004
 31
0.0
  0
LINE
  5
E01
  8
3
 10
81.70839563609998
 20
24.87180662089997
 30
0.0
 11
82.17113098339998
 21
24.54460331889993
 31
0.0
  0
LINE
  5
E02
  8
3
 10
85.02886901669997
 20
24.54460331889993
 30
0.0
 11
85.49160436399997
 21
24.87180662089997
 31
0.0
  0
LINE
  5
E03
  8
3
 10
82.18549679599995
 20
24.93847369239995
 30
0.0
 11
82.43727836630002
 21
24.85208731180012
 31
0.0
  0
LINE
  5
E04
  8
3
 10
84.76272163379998
 20
24.85208731180012
 30
0.0
 11
85.0145032041
 21
24.93847369239995
 31
0.0
  0
LINE
  5
E05
  8
3
 10
84.91081035549998
 20
26.49571106080009
 30
0.0
 11
84.76272163379998
 21
26.54652037409994
 31
0.0
  0
LINE
  5
E06
  8
3
 10
82.43727836630002
 20
26.54652037409994
 30
0.0
 11
82.28918964459997
 21
26.49571106080009
 31
0.0
  0
LINE
  5
E07
  8
3
 10
81.09999999999998
 20
26.04719028889997
 30
0.0
 11
81.09999999999998
 21
25.96915073759999
 31
0.0
  0
LINE
  5
E08
  8
3
 10
86.09999999999998
 20
25.96915073759999
 30
0.0
 11
86.09999999999998
 21
26.04719028889997
 31
0.0
  0
LINE
  5
E09
  8
3
 10
85.0145032041
 20
27.07786733410001
 30
0.0
 11
84.76272163379998
 21
27.16425371470007
 31
0.0
  0
LINE
  5
E0A
  8
3
 10
82.43727836630002
 20
27.16425371470007
 30
0.0
 11
82.18549679599995
 21
27.07786733410001
 31
0.0
  0
LINE
  5
E0B
  8
3
 10
82.18549679599995
 20
25.55620703300008
 30
0.0
 11
82.43727836630002
 21
25.46982065240002
 31
0.0
  0
LINE
  5
E0C
  8
3
 10
84.76272163379998
 20
25.46982065240002
 30
0.0
 11
85.0145032041
 21
25.55620703300008
 31
0.0
  0
LINE
  5
E0D
  8
3
 10
81.09999999999998
 20
26.66492362950009
 30
0.0
 11
81.09999999999998
 21
26.58688407820011
 31
0.0
  0
LINE
  5
E0E
  8
3
 10
86.09999999999998
 20
26.58688407820011
 30
0.0
 11
86.09999999999998
 21
26.66492362950009
 31
0.0
  0
LINE
  5
E0F
  8
3
 10
85.0145032041
 20
27.69560067470013
 30
0.0
 11
84.76272163379998
 21
27.78198705529996
 31
0.0
  0
LINE
  5
E10
  8
3
 10
82.43727836630002
 20
27.78198705529996
 30
0.0
 11
82.18549679599995
 21
27.69560067470013
 31
0.0
  0
LINE
  5
E11
  8
3
 10
82.18549679599995
 20
26.17394037359998
 30
0.0
 11
82.43727836630002
 21
26.08755399300014
 31
0.0
  0
LINE
  5
E12
  8
3
 10
84.76272163379998
 20
26.08755399300014
 30
0.0
 11
85.0145032041
 21
26.17394037359998
 31
0.0
  0
LINE
  5
E13
  8
3
 10
81.09999999999998
 20
27.28265697009999
 30
0.0
 11
81.09999999999998
 21
27.20461741880001
 31
0.0
  0
LINE
  5
E14
  8
3
 10
86.09999999999998
 20
27.20461741880001
 30
0.0
 11
86.09999999999998
 21
27.28265697009999
 31
0.0
  0
LINE
  5
E15
  8
3
 10
85.0145032041
 20
28.31333401530003
 30
0.0
 11
84.76272163379998
 21
28.39972039590009
 31
0.0
  0
LINE
  5
E16
  8
3
 10
82.43727836630002
 20
28.39972039590009
 30
0.0
 11
82.18549679599995
 21
28.31333401530003
 31
0.0
  0
LINE
  5
E17
  8
3
 10
82.18549679599995
 20
26.7916737142001
 30
0.0
 11
82.43727836630002
 21
26.70528733360004
 31
0.0
  0
LINE
  5
E18
  8
3
 10
84.76272163379998
 20
26.70528733360004
 30
0.0
 11
85.0145032041
 21
26.7916737142001
 31
0.0
  0
LINE
  5
E19
  8
3
 10
81.09999999999998
 20
27.90039031070012
 30
0.0
 11
81.09999999999998
 21
27.82235075940014
 31
0.0
  0
LINE
  5
E1A
  8
3
 10
86.09999999999998
 20
27.82235075940014
 30
0.0
 11
86.09999999999998
 21
27.90039031070012
 31
0.0
  0
LINE
  5
E1B
  8
3
 10
85.0145032041
 20
28.93106735590015
 30
0.0
 11
84.76272163379998
 21
29.01745373649999
 31
0.0
  0
LINE
  5
E1C
  8
3
 10
82.43727836630002
 20
29.01745373649999
 30
0.0
 11
82.18549679599995
 21
28.93106735590015
 31
0.0
  0
LINE
  5
E1D
  8
3
 10
82.18549679599995
 20
27.4094070548
 30
0.0
 11
82.43727836630002
 21
27.32302067419994
 31
0.0
  0
LINE
  5
E1E
  8
3
 10
84.76272163379998
 20
27.32302067419994
 30
0.0
 11
85.0145032041
 21
27.4094070548
 31
0.0
  0
LINE
  5
E1F
  8
3
 10
81.09999999999998
 20
28.51812365130002
 30
0.0
 11
81.09999999999998
 21
28.44008410000004
 31
0.0
  0
LINE
  5
E20
  8
3
 10
86.09999999999998
 20
28.44008410000004
 30
0.0
 11
86.09999999999998
 21
28.51812365130002
 31
0.0
  0
LINE
  5
E21
  8
3
 10
85.0145032041
 20
29.54880069650005
 30
0.0
 11
84.76272163379998
 21
29.63518707710011
 31
0.0
  0
LINE
  5
E22
  8
3
 10
82.43727836630002
 20
29.63518707710011
 30
0.0
 11
82.18549679599995
 21
29.54880069650005
 31
0.0
  0
LINE
  5
E23
  8
3
 10
82.18549679599995
 20
28.02714039540012
 30
0.0
 11
82.43727836630002
 21
27.94075401480006
 31
0.0
  0
LINE
  5
E24
  8
3
 10
84.76272163379998
 20
27.94075401480006
 30
0.0
 11
85.0145032041
 21
28.02714039540012
 31
0.0
  0
LINE
  5
E25
  8
3
 10
81.09999999999998
 20
29.13585699190014
 30
0.0
 11
81.09999999999998
 21
29.05781744059993
 31
0.0
  0
LINE
  5
E26
  8
3
 10
86.09999999999998
 20
29.05781744059993
 30
0.0
 11
86.09999999999998
 21
29.13585699190014
 31
0.0
  0
LINE
  5
E27
  8
3
 10
85.0145032041
 20
30.16653403709995
 30
0.0
 11
84.76272163379998
 21
30.25292041770001
 31
0.0
  0
LINE
  5
E28
  8
3
 10
82.43727836630002
 20
30.25292041770001
 30
0.0
 11
82.18549679599995
 21
30.16653403709995
 31
0.0
  0
LINE
  5
E29
  8
3
 10
82.18549679599995
 20
28.64487373600002
 30
0.0
 11
82.43727836630002
 21
28.55848735539996
 31
0.0
  0
LINE
  5
E2A
  8
3
 10
84.76272163379998
 20
28.55848735539996
 30
0.0
 11
85.0145032041
 21
28.64487373600002
 31
0.0
  0
LINE
  5
E2B
  8
3
 10
81.09999999999998
 20
29.75359033250004
 30
0.0
 11
81.09999999999998
 21
29.67555078120006
 31
0.0
  0
LINE
  5
E2C
  8
3
 10
86.09999999999998
 20
29.67555078120006
 30
0.0
 11
86.09999999999998
 21
29.75359033250004
 31
0.0
  0
LINE
  5
E2D
  8
3
 10
85.0145032041
 20
30.78426737770008
 30
0.0
 11
84.76272163379998
 21
30.87065375830014
 31
0.0
  0
LINE
  5
E2E
  8
3
 10
82.43727836630002
 20
30.87065375830014
 30
0.0
 11
82.18549679599995
 21
30.78426737770008
 31
0.0
  0
LINE
  5
E2F
  8
3
 10
82.32349395939998
 20
29.21526018199995
 30
0.0
 11
82.43727836630002
 21
29.17622069600009
 31
0.0
  0
LINE
  5
E30
  8
3
 10
84.76272163379998
 20
29.17622069600009
 30
0.0
 11
84.87650604069997
 21
29.21526018199995
 31
0.0
  0
LINE
  5
E31
  8
3
 10
85.49160436399997
 20
-24.87180662089997
 30
0.0
 11
85.02886901659998
 21
-24.54460331889993
 31
0.0
  0
LINE
  5
E32
  8
3
 10
82.17113098339998
 20
-24.54460331889993
 30
0.0
 11
81.70839563609998
 21
-24.87180662089997
 31
0.0
  0
LINE
  5
E33
  8
3
 10
85.0145032041
 20
-24.93847369239995
 30
0.0
 11
84.7627216337
 21
-24.85208731179989
 31
0.0
  0
LINE
  5
E34
  8
3
 10
82.43727836630002
 20
-24.85208731179989
 30
0.0
 11
82.18549679599995
 21
-24.93847369239995
 31
0.0
  0
LINE
  5
E35
  8
3
 10
82.28918964459997
 20
-26.49571106089991
 30
0.0
 11
82.43727836630002
 21
-26.54652037409994
 31
0.0
  0
LINE
  5
E36
  8
3
 10
84.7627216337
 20
-26.54652037409994
 30
0.0
 11
84.91081035539999
 21
-26.49571106089991
 31
0.0
  0
LINE
  5
E37
  8
3
 10
86.09999999999998
 20
-26.04719028889997
 30
0.0
 11
86.09999999999998
 21
-25.96915073759999
 31
0.0
  0
LINE
  5
E38
  8
3
 10
81.09999999999998
 20
-25.96915073759999
 30
0.0
 11
81.09999999999998
 21
-26.04719028889997
 31
0.0
  0
LINE
  5
E39
  8
3
 10
82.18549679599995
 20
-27.07786733410001
 30
0.0
 11
82.43727836630002
 21
-27.16425371470007
 31
0.0
  0
LINE
  5
E3A
  8
3
 10
84.7627216337
 20
-27.16425371470007
 30
0.0
 11
85.0145032041
 21
-27.07786733410001
 31
0.0
  0
LINE
  5
E3B
  8
3
 10
85.0145032041
 20
-25.55620703299985
 30
0.0
 11
84.7627216337
 21
-25.46982065240002
 31
0.0
  0
LINE
  5
E3C
  8
3
 10
82.43727836630002
 20
-25.46982065240002
 30
0.0
 11
82.18549679599995
 21
-25.55620703299985
 31
0.0
  0
LINE
  5
E3D
  8
3
 10
86.09999999999998
 20
-26.66492362949987
 30
0.0
 11
86.09999999999998
 21
-26.58688407819989
 31
0.0
  0
LINE
  5
E3E
  8
3
 10
81.09999999999998
 20
-26.58688407819989
 30
0.0
 11
81.09999999999998
 21
-26.66492362949987
 31
0.0
  0
LINE
  5
E3F
  8
3
 10
82.18549679599995
 20
-27.6956006746999
 30
0.0
 11
82.43727836630002
 21
-27.78198705529996
 31
0.0
  0
LINE
  5
E40
  8
3
 10
84.7627216337
 20
-27.78198705529996
 30
0.0
 11
85.0145032041
 21
-27.6956006746999
 31
0.0
  0
LINE
  5
E41
  8
3
 10
85.0145032041
 20
-26.17394037359998
 30
0.0
 11
84.7627216337
 21
-26.08755399299991
 31
0.0
  0
LINE
  5
E42
  8
3
 10
82.43727836630002
 20
-26.08755399299991
 30
0.0
 11
82.18549679599995
 21
-26.17394037359998
 31
0.0
  0
LINE
  5
E43
  8
3
 10
86.09999999999998
 20
-27.28265697009999
 30
0.0
 11
86.09999999999998
 21
-27.20461741880001
 31
0.0
  0
LINE
  5
E44
  8
3
 10
81.09999999999998
 20
-27.20461741880001
 30
0.0
 11
81.09999999999998
 21
-27.28265697009999
 31
0.0
  0
LINE
  5
E45
  8
3
 10
82.18549679599995
 20
-28.31333401530003
 30
0.0
 11
82.43727836630002
 21
-28.39972039589986
 31
0.0
  0
LINE
  5
E46
  8
3
 10
84.7627216337
 20
-28.39972039589986
 30
0.0
 11
85.0145032041
 21
-28.31333401530003
 31
0.0
  0
LINE
  5
E47
  8
3
 10
85.0145032041
 20
-26.79167371419987
 30
0.0
 11
84.7627216337
 21
-26.70528733360004
 31
0.0
  0
LINE
  5
E48
  8
3
 10
82.43727836630002
 20
-26.70528733360004
 30
0.0
 11
82.18549679599995
 21
-26.79167371419987
 31
0.0
  0
LINE
  5
E49
  8
3
 10
86.09999999999998
 20
-27.90039031069989
 30
0.0
 11
86.09999999999998
 21
-27.82235075939991
 31
0.0
  0
LINE
  5
E4A
  8
3
 10
81.09999999999998
 20
-27.82235075939991
 30
0.0
 11
81.09999999999998
 21
-27.90039031069989
 31
0.0
  0
LINE
  5
E4B
  8
3
 10
82.18549679599995
 20
-28.93106735589993
 30
0.0
 11
82.43727836630002
 21
-29.01745373649999
 31
0.0
  0
LINE
  5
E4C
  8
3
 10
84.7627216337
 20
-29.01745373649999
 30
0.0
 11
85.0145032041
 21
-28.93106735589993
 31
0.0
  0
LINE
  5
E4D
  8
3
 10
85.0145032041
 20
-27.4094070548
 30
0.0
 11
84.76272163379998
 21
-27.32302067419994
 31
0.0
  0
LINE
  5
E4E
  8
3
 10
82.43727836630002
 20
-27.32302067419994
 30
0.0
 11
82.18549679599995
 21
-27.4094070548
 31
0.0
  0
LINE
  5
E4F
  8
3
 10
86.09999999999998
 20
-28.51812365140006
 30
0.0
 11
86.09999999999998
 21
-28.44008410000004
 31
0.0
  0
LINE
  5
E50
  8
3
 10
81.09999999999998
 20
-28.44008410000004
 30
0.0
 11
81.09999999999998
 21
-28.51812365140006
 31
0.0
  0
LINE
  5
E51
  8
3
 10
82.18549679599995
 20
-29.54880069650005
 30
0.0
 11
82.43727836630002
 21
-29.63518707709989
 31
0.0
  0
LINE
  5
E52
  8
3
 10
84.76272163379998
 20
-29.63518707709989
 30
0.0
 11
85.0145032041
 21
-29.54880069650005
 31
0.0
  0
LINE
  5
E53
  8
3
 10
85.0145032041
 20
-28.0271403953999
 30
0.0
 11
84.76272163379998
 21
-27.94075401480006
 31
0.0
  0
LINE
  5
E54
  8
3
 10
82.43727836630002
 20
-27.94075401480006
 30
0.0
 11
82.18549679599995
 21
-28.0271403953999
 31
0.0
  0
LINE
  5
E55
  8
3
 10
86.09999999999998
 20
-29.13585699199996
 30
0.0
 11
86.09999999999998
 21
-29.05781744059993
 31
0.0
  0
LINE
  5
E56
  8
3
 10
81.09999999999998
 20
-29.05781744059993
 30
0.0
 11
81.09999999999998
 21
-29.13585699199996
 31
0.0
  0
LINE
  5
E57
  8
3
 10
82.18549679599995
 20
-30.16653403709995
 30
0.0
 11
82.43727836630002
 21
-30.25292041770001
 31
0.0
  0
LINE
  5
E58
  8
3
 10
84.76272163379998
 20
-30.25292041770001
 30
0.0
 11
85.0145032041
 21
-30.16653403709995
 31
0.0
  0
LINE
  5
E59
  8
3
 10
85.0145032041
 20
-28.64487373600002
 30
0.0
 11
84.76272163379998
 21
-28.55848735550001
 31
0.0
  0
LINE
  5
E5A
  8
3
 10
82.43727836630002
 20
-28.55848735550001
 30
0.0
 11
82.18549679599995
 21
-28.64487373600002
 31
0.0
  0
LINE
  5
E5B
  8
3
 10
86.09999999999998
 20
-29.75359033259986
 30
0.0
 11
86.09999999999998
 21
-29.67555078120006
 31
0.0
  0
LINE
  5
E5C
  8
3
 10
81.09999999999998
 20
-29.67555078120006
 30
0.0
 11
81.09999999999998
 21
-29.75359033259986
 31
0.0
  0
LINE
  5
E5D
  8
3
 10
82.18549679599995
 20
-30.78426737769985
 30
0.0
 11
82.43727836630002
 21
-30.87065375829991
 31
0.0
  0
LINE
  5
E5E
  8
3
 10
84.76272163379998
 20
-30.87065375829991
 30
0.0
 11
85.0145032041
 21
-30.78426737769985
 31
0.0
  0
LINE
  5
E5F
  8
3
 10
84.87650604069997
 20
-29.21526018199995
 30
0.0
 11
84.76272163379998
 21
-29.1762206960999
 31
0.0
  0
LINE
  5
E60
  8
3
 10
82.43727836630002
 20
-29.1762206960999
 30
0.0
 11
82.32349395939998
 21
-29.21526018199995
 31
0.0
  0
LINE
  5
E63
  8
3
 10
101.6
 20
7.297830210000001
 30
0.0
 11
101.40019979
 21
7.098029999999994
 31
0.0
  0
LINE
  5
E64
  8
3
 10
101.40019979
 20
-7.098029999999994
 30
0.0
 11
101.6
 21
-7.297830209999944
 31
0.0
  0
LINE
  5
E69
  8
3
 10
101.6
 20
-19.04618999999991
 30
0.0
 11
89.99776030499994
 21
-19.04618999999991
 31
0.0
  0
LINE
  5
E6A
  8
3
 10
89.99776030499994
 20
-31.75381000000004
 30
0.0
 11
101.6
 21
-31.75381000000004
 31
0.0
  0
ARC
  5
E6B
  8
3
 10
89.93480000000001
 20
-18.85298999999998
 30
0.0
 40
0.2031999999999312
 50
270.0
 51
288.0498306932985
  0
ARC
  5
E6C
  8
3
 10
89.93480000000001
 20
-31.94700999999998
 30
0.0
 40
0.2032000000001517
 50
71.9501693067052
 51
90.0
  0
LINE
  5
E6D
  8
3
 10
88.85963951069995
 20
-19.0561899999999
 30
0.0
 11
87.93480000000001
 21
-19.30399999999997
 31
0.0
  0
LINE
  5
E6E
  8
3
 10
87.93480000000001
 20
-31.49599999999998
 30
0.0
 11
88.85963951069995
 21
-31.74381000000005
 31
0.0
  0
LINE
  5
E6F
  8
3
 10
89.93480000000001
 20
-19.0561899999999
 30
0.0
 11
88.85963951069995
 21
-19.0561899999999
 31
0.0
  0
LINE
  5
E70
  8
3
 10
88.85963951069995
 20
-31.74381000000005
 30
0.0
 11
89.93480000000001
 21
-31.74381000000005
 31
0.0
  0
LINE
  5
E71
  8
3
 10
101.6
 20
31.75381000000004
 30
0.0
 11
89.99776030499994
 21
31.75381000000004
 31
0.0
  0
LINE
  5
E72
  8
3
 10
89.99776030499994
 20
19.04619000000014
 30
0.0
 11
101.6
 21
19.04619000000014
 31
0.0
  0
ARC
  5
E73
  8
3
 10
89.93480000000001
 20
31.94700999999998
 30
0.0
 40
0.2031999999999312
 50
270.0
 51
288.0498306932982
  0
ARC
  5
E74
  8
3
 10
89.93480000000001
 20
18.85298999999998
 30
0.0
 40
0.2031999999999243
 50
71.95016930670089
 51
90.0
  0
LINE
  5
E75
  8
3
 10
88.85963951069995
 20
31.74381000000005
 30
0.0
 11
87.93480000000001
 21
31.49599999999998
 31
0.0
  0
LINE
  5
E76
  8
3
 10
87.93480000000001
 20
19.30399999999997
 30
0.0
 11
88.85963951069995
 21
19.05619000000013
 31
0.0
  0
LINE
  5
E77
  8
3
 10
89.93480000000001
 20
31.74381000000005
 30
0.0
 11
88.85963951069995
 21
31.74381000000005
 31
0.0
  0
LINE
  5
E78
  8
3
 10
88.85963951069995
 20
19.05619000000013
 30
0.0
 11
89.93480000000001
 21
19.05619000000013
 31
0.0
  0
ARC
  5
E8B
  8
SK1
 10
101.8
 20
-16.07499999999993
 30
0.0
 40
0.4000000000000807
 50
74.99999999999382
 51
119.9999999999988
  0
ARC
  5
E8C
  8
SK1
 10
101.8
 20
16.07499999999993
 30
0.0
 40
0.3999999999999199
 50
239.9999999999951
 51
285.000000000006
  0
LINE
  5
E8D
  8
SK1
 10
102.5990711606
 20
-15.87499999999989
 30
0.0
 11
117.6
 21
-15.87499999999989
 31
0.0
  0
LINE
  5
E8E
  8
SK1
 10
117.6
 20
15.87500000000011
 30
0.0
 11
102.5990711606
 21
15.87500000000011
 31
0.0
  0
LINE
  5
E8F
  8
SK1
 10
102.5990711606
 20
15.87500000000011
 30
0.0
 11
101.9035276180999
 21
15.68862966950007
 31
0.0
  0
LINE
  5
E90
  8
SK1
 10
101.9035276180999
 20
-15.68862966949985
 30
0.0
 11
102.5990711606
 21
-15.87499999999989
 31
0.0
  0
ARC
  5
E91
  8
SK1
 10
117.6
 20
-14.37499999999989
 30
0.0
 40
1.5
 50
270.0
 51
0.0
  0
ARC
  5
E92
  8
SK1
 10
117.6
 20
14.37500000000011
 30
0.0
 40
1.5
 50
0.0
 51
90.0
  0
LINE
  5
E93
  8
SK1
 10
137.13799979
 20
19.05000000000007
 30
0.0
 11
125.96199979
 21
19.05000000000007
 31
0.0
  0
LINE
  5
E94
  8
SK1
 10
125.96199979
 20
-19.05000000000007
 30
0.0
 11
137.13799979
 21
-19.05000000000007
 31
0.0
  0
LINE
  5
E95
  8
SK1
 10
125.96199979
 20
19.05000000000007
 30
0.0
 11
125.19999979
 21
18.28800000000012
 31
0.0
  0
LINE
  5
E96
  8
SK1
 10
125.19999979
 20
-18.2879999999999
 30
0.0
 11
125.96199979
 21
-19.05000000000007
 31
0.0
  0
LINE
  5
E97
  8
SK1
 10
137.13799979
 20
-19.05000000000007
 30
0.0
 11
137.89999979
 21
-18.2879999999999
 31
0.0
  0
LINE
  5
E98
  8
SK1
 10
137.89999979
 20
18.28800000000012
 30
0.0
 11
137.13799979
 21
19.05000000000007
 31
0.0
  0
ARC
  5
E99
  8
SK1
 10
124.38719979
 20
-8.750300000000038
 30
0.0
 40
0.81280000000001
 50
0.0
 51
90.0
  0
ARC
  5
E9A
  8
SK1
 10
124.38719979
 20
8.750300000000038
 30
0.0
 40
0.81280000000001
 50
270.0
 51
359.9999999999038
  0
LINE
  5
E9B
  8
SK1
 10
124.38719979
 20
7.937500000000114
 30
0.0
 11
119.1
 21
7.937500000000114
 31
0.0
  0
LINE
  5
E9C
  8
SK1
 10
119.1
 20
-7.937499999999886
 30
0.0
 11
124.38719979
 21
-7.937499999999886
 31
0.0
  0
LINE
  5
E9D
  8
SK1
 10
101.6283378126
 20
-19.04618999999991
 30
0.0
 11
101.6
 21
-19.04618999999991
 31
0.0
  0
LINE
  5
EA0
  8
SK1
 10
101.6
 20
19.04619000000014
 30
0.0
 11
101.6283378126
 21
19.04619000000014
 31
0.0
  0
LINE
  5
EC7
  8
SK1
 10
102.5990711606
 20
0.0000000000001137
 30
0.0
 11
102.5990711606
 21
15.87500000000011
 31
0.0
  0
LINE
  5
EC8
  8
SK1
 10
102.5990711606
 20
-15.87499999999989
 30
0.0
 11
102.5990711606
 21
0.0000000000001137
 31
0.0
  0
LINE
  5
EC9
  8
SK1
 10
119.1
 20
0.0000000000001137
 30
0.0
 11
119.1
 21
14.37500000000011
 31
0.0
  0
LINE
  5
ECA
  8
SK1
 10
119.1
 20
-14.37499999999989
 30
0.0
 11
119.1
 21
0.0000000000001137
 31
0.0
  0
LINE
  5
ED4
  8
SK1
 10
137.13799979
 20
19.05000000000007
 30
0.0
 11
137.13799979
 21
-19.05000000000007
 31
0.0
  0
LINE
  5
ED5
  8
SK1
 10
125.96199979
 20
19.05000000000007
 30
0.0
 11
125.96199979
 21
-19.05000000000007
 31
0.0
  0
LINE
  5
ED6
  8
SK1
 10
125.19999979
 20
18.28800000000012
 30
0.0
 11
125.19999979
 21
-18.2879999999999
 31
0.0
  0
LINE
  5
ED7
  8
SK1
 10
137.89999979
 20
18.28800000000012
 30
0.0
 11
137.89999979
 21
-18.2879999999999
 31
0.0
  0
LINE
  5
ED8
  8
SK1
 10
108.0008
 20
-19.05000000000007
 30
0.0
 11
101.6
 21
-19.05000000000007
 31
0.0
  0
LINE
  5
ED9
  8
SK1
 10
108.0008
 20
-19.05000000000007
 30
0.0
 11
108.0008
 21
-31.74999999999989
 31
0.0
  0
LINE
  5
EDA
  8
SK1
 10
108.0008
 20
-31.74999999999989
 30
0.0
 11
101.6
 21
-31.74999999999989
 31
0.0
  0
LINE
  5
EDB
  8
SK1
 10
108.0008
 20
31.75000000000011
 30
0.0
 11
101.6
 21
31.75000000000011
 31
0.0
  0
LINE
  5
EDC
  8
SK1
 10
108.0008
 20
31.75000000000011
 30
0.0
 11
108.0008
 21
19.05000000000007
 31
0.0
  0
LINE
  5
EDD
  8
SK1
 10
108.0008
 20
19.05000000000007
 30
0.0
 11
101.6
 21
19.05000000000007
 31
0.0
  0
LINE
  5
EF4
  8
SK3
 10
118.2339745374
 20
-8.499999999999886
 30
0.0
 11
118.2339745374
 21
8.500000000000114
 31
0.0
  0
LINE
  5
EF5
  8
SK3
 10
116.1
 20
8.500000000000114
 30
0.0
 11
116.1
 21
-8.499999999999886
 31
0.0
  0
LINE
  5
F58
  8
SK3
 10
102.23966979
 20
7.937500000000114
 30
0.0
 11
102.23966979
 21
-7.937499999999886
 31
0.0
  0
LINE
  5
F59
  8
SK3
 10
101.40019979
 20
7.098029999999994
 30
0.0
 11
101.40019979
 21
-7.098029999999994
 31
0.0
  0
LINE
  5
F5A
  8
SK3
 10
129.96249979
 20
0.0000000000001137
 30
0.0
 11
137.89999979
 21
0.0000000000001137
 31
0.0
  0
LINE
  5
F5B
  8
SK3
 10
129.96249979
 20
0.0000000000001137
 30
0.0
 11
129.96249979
 21
-2.006600000000049
 31
0.0
  0
LINE
  5
F5C
  8
SK3
 10
129.96249979
 20
2.006600000000049
 30
0.0
 11
129.96249979
 21
0.0000000000001137
 31
0.0
  0
LINE
  5
F5D
  8
SK3
 10
129.0099997899999
 20
4.013199999999983
 30
0.0
 11
129.0099997899999
 21
-4.013199999999983
 31
0.0
  0
LINE
  5
F5E
  8
SK3
 10
129.96249979
 20
4.013199999999983
 30
0.0
 11
129.96249979
 21
2.006600000000049
 31
0.0
  0
LINE
  5
F5F
  8
SK3
 10
129.96249979
 20
-2.006600000000049
 30
0.0
 11
129.96249979
 21
-4.013199999999983
 31
0.0
  0
LINE
  5
F60
  8
SK3
 10
129.96249979
 20
4.013199999999983
 30
0.0
 11
137.89999979
 21
4.013199999999983
 31
0.0
  0
LINE
  5
F61
  8
SK3
 10
129.96249979
 20
-4.013199999999983
 30
0.0
 11
137.89999979
 21
-4.013199999999983
 31
0.0
  0
LINE
  5
F74
  8
SK3
 10
119.1
 20
2.000000000000114
 30
0.0
 11
101.6
 21
2.000000000000114
 31
0.0
  0
LINE
  5
F75
  8
SK3
 10
101.6
 20
-1.999999999999886
 30
0.0
 11
119.1
 21
-1.999999999999886
 31
0.0
  0
LINE
  5
F7E
  8
SK3
 10
119.1
 20
9.000000033999981
 30
0.0
 11
118.2339745374
 21
8.500000000000114
 31
0.0
  0
LINE
  5
F7F
  8
SK3
 10
118.2339745374
 20
-8.499999999999886
 30
0.0
 11
119.1
 21
-9.000000033999981
 31
0.0
  0
LINE
  5
F80
  8
SK3
 10
118.2339745374
 20
8.500000000000114
 30
0.0
 11
116.1
 21
8.500000000000114
 31
0.0
  0
LINE
  5
F81
  8
SK3
 10
116.1
 20
-8.499999999999886
 30
0.0
 11
118.2339745374
 21
-8.499999999999886
 31
0.0
  0
LINE
  5
F82
  8
SK3
 10
116.1
 20
7.341870000000085
 30
0.0
 11
101.6
 21
7.341870000000085
 31
0.0
  0
LINE
  5
F83
  8
SK3
 10
101.6
 20
-7.341869999999858
 30
0.0
 11
116.1
 21
-7.341869999999858
 31
0.0
  0
LINE
  5
F98
  8
SK3
 10
119.1
 20
12.1757984945001
 30
0.0
 11
101.6
 21
12.1757984945001
 31
0.0
  0
LINE
  5
F99
  8
SK3
 10
101.6
 20
8.1757984945001
 30
0.0
 11
119.1
 21
8.1757984945001
 31
0.0
  0
LINE
  5
F9A
  8
SK3
 10
119.1
 20
-8.175798494499873
 30
0.0
 11
101.6
 21
-8.175798494499873
 31
0.0
  0
LINE
  5
F9B
  8
SK3
 10
101.6
 20
-12.17579849449987
 30
0.0
 11
119.1
 21
-12.17579849449987
 31
0.0
  0
LINE
  5
1004
  8
SK3
 10
119.1
 20
7.937500000000114
 30
0.0
 11
102.23966979
 21
7.937500000000114
 31
0.0
  0
LINE
  5
1005
  8
SK3
 10
102.23966979
 20
-7.937499999999886
 30
0.0
 11
119.1
 21
-7.937499999999886
 31
0.0
  0
LINE
  5
1006
  8
SK3
 10
102.23966979
 20
7.937500000000114
 30
0.0
 11
101.40019979
 21
7.098029999999994
 31
0.0
  0
LINE
  5
1007
  8
SK3
 10
101.40019979
 20
-7.098029999999994
 30
0.0
 11
102.23966979
 21
-7.937499999999886
 31
0.0
  0
LINE
  5
1008
  8
SK3
 10
129.96249979
 20
4.013199999999983
 30
0.0
 11
129.0099997899999
 21
4.013199999999983
 31
0.0
  0
LINE
  5
1009
  8
SK3
 10
129.0099997899999
 20
-4.013199999999983
 30
0.0
 11
129.96249979
 21
-4.013199999999983
 31
0.0
  0
LINE
  5
100A
  8
SK3
 10
129.0099997899999
 20
4.013199999999983
 30
0.0
 11
126.5986259538
 21
0.0000000000001137
 31
0.0
  0
LINE
  5
100B
  8
SK3
 10
126.5986259538
 20
0.0000000000001137
 30
0.0
 11
129.0099997899999
 21
-4.013199999999983
 31
0.0
  0
LINE
  5
1022
  8
SK3
 10
-37.834376924
 20
7.341870000000085
 30
0.0
 11
-0.0000000000000071
 21
7.341870000000085
 31
0.0
  0
LINE
  5
1023
  8
SK3
 10
-37.834376924
 20
-7.341869999999858
 30
0.0
 11
0.0
 21
-7.341869999999858
 31
0.0
  0
LINE
  5
1029
  8
1
 10
100.6
 20
-34.9250000000003
 30
0.0
 11
20.04999999999998
 21
-34.92500000000001
 31
0.0
  0
LINE
  5
102A
  8
NOCUT
 10
101.6
 20
0.0000000000001137
 30
0.0
 11
101.6
 21
33.92500000000007
 31
0.0
  0
ARC
  5
102C
  8
NOCUT
 10
100.6
 20
33.92500000000007
 30
0.0
 40
1.0
 50
0.0
 51
90.0
  0
LINE
  5
103A
  8
SK4
 10
101.6
 20
0.0000000000001137
 30
0.0
 11
137.89999979
 21
0.0000000000001137
 31
0.0
  0
DIMENSION
  5
103C
  8
SK2
  2
*D10
 10
149.9529545597057
 20
-15.87499999999989
 30
0.0
 11
148.0779545597057
 21
0.0000000000001119
 31
0.0
 70
    32
  3
ISO-25
 13
117.6
 23
15.87500000000011
 33
0.0
 14
117.6
 24
-15.87499999999989
 34
0.0
 50
90.0
1001
ACAD
1000
DSTYLE
1002
{
1070
   287
1070
     5
1070
   271
1070
     3
1070
   272
1070
     3
1070
   279
1070
     2
1002
}
  0
DIMENSION
  5
104B
  8
SK2
  2
*D11
 10
166.7478316052353
 20
-34.9250000000003
 30
0.0
 11
164.8728316052353
 21
-0.0000000000001208
 31
0.0
 70
    32
  3
ISO-25
 13
100.6
 23
34.92500000000007
 33
0.0
 14
100.6
 24
-34.9250000000003
 34
0.0
 50
90.0
1001
ACAD
1000
DSTYLE
1002
{
1070
   287
1070
     5
1070
   271
1070
     3
1070
   272
1070
     3
1070
   279
1070
     2
1002
}
  0
ENDSEC
  0
EOF
