  0
SECTION
  2
HEADER
  9
$ACADVER
  1
AC1009
  9
$DWGCODEPAGE
  3
ansi_1251
  9
$INSBASE
 10
0.0
 20
0.0
 30
0.0
  9
$EXTMIN
 10
-68.25000000000001
 20
-30.5409271246
 30
0.0
  9
$EXTMAX
 10
88.90000000000003
 20
30.50275418977125
 30
0.0
  9
$LIMMIN
 10
0.0
 20
0.0
  9
$LIMMAX
 10
420.0
 20
297.0
  9
$ORTHOMODE
 70
     1
  9
$REGENMODE
 70
     1
  9
$FILLMODE
 70
     1
  9
$QTEXTMODE
 70
     0
  9
$MIRRTEXT
 70
     0
  9
$DRAGMODE
 70
     2
  9
$LTSCALE
 40
1.0
  9
$OSMODE
 70
   279
  9
$ATTMODE
 70
     1
  9
$TEXTSIZE
 40
2.5
  9
$TRACEWID
 40
1.0
  9
$TEXTSTYLE
  7
STANDARD
  9
$CLAYER
  8
SK2
  9
$CELTYPE
  6
BYLAYER
  9
$CECOLOR
 62
   256
  9
$DIMSCALE
 40
1.0
  9
$DIMASZ
 40
2.5
  9
$DIMEXO
 40
0.625
  9
$DIMDLI
 40
3.75
  9
$DIMRND
 40
0.0
  9
$DIMDLE
 40
0.0
  9
$DIMEXE
 40
1.25
  9
$DIMTP
 40
0.0
  9
$DIMTM
 40
0.0
  9
$DIMTXT
 40
2.5
  9
$DIMCEN
 40
2.5
  9
$DIMTSZ
 40
0.0
  9
$DIMTOL
 70
     0
  9
$DIMLIM
 70
     0
  9
$DIMTIH
 70
     0
  9
$DIMTOH
 70
     0
  9
$DIMSE1
 70
     0
  9
$DIMSE2
 70
     0
  9
$DIMTAD
 70
     1
  9
$DIMZIN
 70
     8
  9
$DIMBLK
  1

  9
$DIMASO
 70
     1
  9
$DIMSHO
 70
     1
  9
$DIMPOST
  1

  9
$DIMAPOST
  1

  9
$DIMALT
 70
     0
  9
$DIMALTD
 70
     3
  9
$DIMALTF
 40
0.03937007874016
  9
$DIMLFAC
 40
1.0
  9
$DIMTOFL
 70
     1
  9
$DIMTVP
 40
0.0
  9
$DIMTIX
 70
     0
  9
$DIMSOXD
 70
     0
  9
$DIMSAH
 70
     0
  9
$DIMBLK1
  1

  9
$DIMBLK2
  1

  9
$DIMSTYLE
  2
ISO-25
  9
$DIMCLRD
 70
     0
  9
$DIMCLRE
 70
     0
  9
$DIMCLRT
 70
     0
  9
$DIMTFAC
 40
1.0
  9
$DIMGAP
 40
0.625
  9
$LUNITS
 70
     2
  9
$LUPREC
 70
     3
  9
$SKETCHINC
 40
1.0
  9
$FILLETRAD
 40
10.0
  9
$AUNITS
 70
     0
  9
$AUPREC
 70
     0
  9
$MENU
  1
.
  9
$ELEVATION
 40
0.0
  9
$PELEVATION
 40
0.0
  9
$THICKNESS
 40
0.0
  9
$LIMCHECK
 70
     0
  9
$CHAMFERA
 40
10.0
  9
$CHAMFERB
 40
10.0
  9
$SKPOLY
 70
     0
  9
$TDCREATE
 40
2455022.429026158
  9
$TDUPDATE
 40
2458659.538982558
  9
$TDINDWG
 40
0.1506771181
  9
$TDUSRTIMER
 40
2458702.677388472
  9
$USRTIMER
 70
     1
  9
$ANGBASE
 50
0.0
  9
$ANGDIR
 70
     0
  9
$PDMODE
 70
     0
  9
$PDSIZE
 40
0.0
  9
$PLINEWID
 40
0.0
  9
$COORDS
 70
     1
  9
$SPLFRAME
 70
     0
  9
$SPLINETYPE
 70
     6
  9
$SPLINESEGS
 70
     8
  9
$ATTDIA
 70
     0
  9
$ATTREQ
 70
     1
  9
$HANDLING
 70
     1
  9
$HANDSEED
  5
1BB7
  9
$SURFTAB1
 70
     6
  9
$SURFTAB2
 70
     6
  9
$SURFTYPE
 70
     6
  9
$SURFU
 70
     6
  9
$SURFV
 70
     6
  9
$UCSNAME
  2

  9
$UCSORG
 10
0.0
 20
0.0
 30
0.0
  9
$UCSXDIR
 10
1.0
 20
0.0
 30
0.0
  9
$UCSYDIR
 10
0.0
 20
1.0
 30
0.0
  9
$PUCSNAME
  2

  9
$PUCSORG
 10
0.0
 20
0.0
 30
0.0
  9
$PUCSXDIR
 10
1.0
 20
0.0
 30
0.0
  9
$PUCSYDIR
 10
0.0
 20
1.0
 30
0.0
  9
$USERI1
 70
     0
  9
$USERI2
 70
     0
  9
$USERI3
 70
     0
  9
$USERI4
 70
     0
  9
$USERI5
 70
     0
  9
$USERR1
 40
0.0
  9
$USERR2
 40
0.0
  9
$USERR3
 40
0.0
  9
$USERR4
 40
0.0
  9
$USERR5
 40
0.0
  9
$WORLDVIEW
 70
     1
  9
$SHADEDGE
 70
     3
  9
$SHADEDIF
 70
    70
  9
$TILEMODE
 70
     1
  9
$MAXACTVP
 70
    64
  9
$PLIMCHECK
 70
     0
  9
$PEXTMIN
 10
1.000000000000000E+20
 20
1.000000000000000E+20
 30
1.000000000000000E+20
  9
$PEXTMAX
 10
-1.000000000000000E+20
 20
-1.000000000000000E+20
 30
-1.000000000000000E+20
  9
$PLIMMIN
 10
0.0
 20
0.0
  9
$PLIMMAX
 10
420.0
 20
297.0
  9
$UNITMODE
 70
     0
  9
$VISRETAIN
 70
     1
  9
$PLINEGEN
 70
     0
  9
$PSLTSCALE
 70
     1
  0
ENDSEC
  0
SECTION
  2
TABLES
  0
TABLE
  2
VPORT
 70
     1
  0
VPORT
  2
*ACTIVE
 70
     0
 10
0.0
 20
0.0
 11
1.0
 21
1.0
 12
7.798915802617643
 22
-2.020325411445
 13
0.0
 23
0.0
 14
10.0
 24
10.0
 15
10.0
 25
10.0
 16
0.0
 26
0.0
 36
1.0
 17
0.0
 27
0.0
 37
0.0
 40
167.437215232092
 41
1.332880434782609
 42
50.0
 43
0.0
 44
0.0
 50
0.0
 51
0.0
 71
    16
 72
  1000
 73
     1
 74
     3
 75
     0
 76
     0
 77
     0
 78
     0
  0
ENDTAB
  0
TABLE
  2
LTYPE
 70
     6
  0
LTYPE
  2
CONTINUOUS
 70
     0
  3
Solid line
 72
    65
 73
     0
 40
0.0
  0
LTYPE
  2
CENTER
 70
     0
  3
 Center _____  _  _____  _  _____  _  _____  _ 
 72
    65
 73
     4
 40
50.8
 49
31.75
 49
-6.35
 49
6.35
 49
-6.35
  0
LTYPE
  2
DASHED
 70
     0
  3
Dashed __  __  __  __  __  __  __  __  __  __  
 72
    65
 73
     2
 40
19.05
 49
12.7
 49
-6.35
  0
LTYPE
  2
HIDDEN
 70
     0
  3
Hidden __ __ __ __ __ __ __ __ __ __ __ __ __ __
 72
    65
 73
     2
 40
1.905
 49
1.27
 49
-0.635
  0
LTYPE
  2
CENTERX2
 70
     0
  3
Center (2x) ________  __  ________  __  _____
 72
    65
 73
     4
 40
20.32
 49
12.7
 49
-2.54
 49
2.54
 49
-2.54
  0
LTYPE
  2
PHANTOM
 70
     0
  3
Phantom ______  __  __  ______  __  __  ______
 72
    65
 73
     6
 40
12.7
 49
6.35
 49
-1.27
 49
1.27
 49
-1.27
 49
1.27
 49
-1.27
  0
ENDTAB
  0
TABLE
  2
LAYER
 70
    26
  0
LAYER
  2
0
 70
     0
 62
     7
  6
CONTINUOUS
  0
LAYER
  2
1
 70
     0
 62
     4
  6
CONTINUOUS
  0
LAYER
  2
2
 70
     0
 62
     7
  6
CONTINUOUS
  0
LAYER
  2
3
 70
     0
 62
     1
  6
DASHED
  0
LAYER
  2
4
 70
     0
 62
     2
  6
CENTER
  0
LAYER
  2
6
 70
     0
 62
     5
  6
CONTINUOUS
  0
LAYER
  2
7
 70
     0
 62
     5
  6
CONTINUOUS
  0
LAYER
  2
11
 70
     0
 62
     4
  6
CONTINUOUS
  0
LAYER
  2
SK1
 70
     0
 62
     4
  6
CONTINUOUS
  0
LAYER
  2
SK2
 70
     0
 62
     7
  6
CONTINUOUS
  0
LAYER
  2
SK3
 70
     0
 62
     1
  6
DASHED
  0
LAYER
  2
SK4
 70
     0
 62
     2
  6
CENTER
  0
LAYER
  2
SK6
 70
     0
 62
     5
  6
CONTINUOUS
  0
LAYER
  2
SK7
 70
     0
 62
     5
  6
CONTINUOUS
  0
LAYER
  2
SK11
 70
     0
 62
     4
  6
CONTINUOUS
  0
LAYER
  2
CUT
 70
     0
 62
     1
  6
CONTINUOUS
  0
LAYER
  2
NOCUT
 70
     0
 62
    -7
  6
CONTINUOUS
  0
LAYER
  2
SKVIEW1
 70
     0
 62
     4
  6
CONTINUOUS
  0
LAYER
  2
SKVIEW2
 70
     0
 62
     7
  6
CONTINUOUS
  0
LAYER
  2
SKVIEW3
 70
     0
 62
     1
  6
DASHED
  0
LAYER
  2
SKVIEW4
 70
     0
 62
     2
  6
CENTER
  0
LAYER
  2
SKVIEW6
 70
     0
 62
     5
  6
CONTINUOUS
  0
LAYER
  2
SKVIEW7
 70
     0
 62
     5
  6
CONTINUOUS
  0
LAYER
  2
SKVIEW11
 70
     0
 62
     4
  6
CONTINUOUS
  0
LAYER
  2
INFTOTAL
 70
     0
 62
     9
  6
CONTINUOUS
  0
LAYER
  2
DEFPOINTS
 70
     0
 62
     7
  6
CONTINUOUS
  0
ENDTAB
  0
TABLE
  2
STYLE
 70
     1
  0
STYLE
  2
STANDARD
 70
     0
 40
0.0
 41
1.0
 50
0.0
 71
     0
 42
2.5
  3
txt
  4

  0
ENDTAB
  0
TABLE
  2
VIEW
 70
     0
  0
ENDTAB
  0
TABLE
  2
UCS
 70
     0
  0
ENDTAB
  0
TABLE
  2
APPID
 70
     2
  0
APPID
  2
ACAD
 70
     0
  0
APPID
  2
ACAECLAYERSTANDARD
 70
     0
  0
ENDTAB
  0
TABLE
  2
DIMSTYLE
 70
     1
  0
DIMSTYLE
  2
ISO-25
 70
     0
  3

  4

  5

  6

  7

 40
1.0
 41
2.5
 42
0.625
 43
3.75
 44
1.25
 45
0.0
 46
0.0
 47
0.0
 48
0.0
140
2.5
141
2.5
142
0.0
143
0.03937007874016
144
1.0
145
0.0
146
1.0
147
0.625
 71
     0
 72
     0
 73
     0
 74
     0
 75
     0
 76
     0
 77
     1
 78
     8
170
     0
171
     3
172
     1
173
     0
174
     0
175
     0
176
     0
177
     0
178
     0
  0
ENDTAB
  0
ENDSEC
  0
SECTION
  2
BLOCKS
  0
BLOCK
  8
0
  2
$MODEL_SPACE
 70
     0
 10
0.0
 20
0.0
 30
0.0
  3
$MODEL_SPACE
  1

  0
ENDBLK
  5
21
  8
0
  0
BLOCK
 67
     1
  8
0
  2
$PAPER_SPACE
 70
     0
 10
0.0
 20
0.0
 30
0.0
  3
$PAPER_SPACE
  1

  0
ENDBLK
  5
1D
 67
     1
  8
0
  0
BLOCK
  8
0
  2
SW_CENTERMARKSYMBOL_0
 70
     0
 10
0.0
 20
0.0
 30
0.0
  3
SW_CENTERMARKSYMBOL_0
  1

  0
LINE
  5
74B
  8
4
 62
     0
 10
0.0
 20
0.0
 30
0.0
 11
0.0
 21
2.5
 31
0.0
  0
LINE
  5
74C
  8
4
 62
     0
 10
0.0
 20
0.0
 30
0.0
 11
-2.5
 21
0.0
 31
0.0
  0
LINE
  5
74D
  8
4
 62
     0
 10
0.0
 20
0.0
 30
0.0
 11
0.0
 21
-2.5
 31
0.0
  0
LINE
  5
74E
  8
4
 62
     0
 10
0.0
 20
0.0
 30
0.0
 11
2.5
 21
0.0
 31
0.0
  0
LINE
  5
74F
  8
4
 62
     0
 10
0.0
 20
5.0
 30
0.0
 11
0.0
 21
7.25
 31
0.0
  0
LINE
  5
750
  8
4
 62
     0
 10
-5.0
 20
0.0
 30
0.0
 11
-7.25
 21
0.0
 31
0.0
  0
LINE
  5
751
  8
4
 62
     0
 10
0.0
 20
-5.0
 30
0.0
 11
0.0
 21
-7.25
 31
0.0
  0
LINE
  5
752
  8
4
 62
     0
 10
5.0
 20
0.0
 30
0.0
 11
7.25
 21
0.0
 31
0.0
  0
ENDBLK
  5
753
  8
0
  0
BLOCK
  8
0
  2
SW_CENTERMARKSYMBOL_1
 70
     0
 10
0.0
 20
0.0
 30
0.0
  3
SW_CENTERMARKSYMBOL_1
  1

  0
LINE
  5
757
  8
4
 62
     0
 10
0.0
 20
0.0
 30
0.0
 11
0.0
 21
2.5
 31
0.0
  0
LINE
  5
758
  8
4
 62
     0
 10
0.0
 20
0.0
 30
0.0
 11
-2.5
 21
0.0
 31
0.0
  0
LINE
  5
759
  8
4
 62
     0
 10
0.0
 20
0.0
 30
0.0
 11
0.0
 21
-2.5
 31
0.0
  0
LINE
  5
75A
  8
4
 62
     0
 10
0.0
 20
0.0
 30
0.0
 11
2.5
 21
0.0
 31
0.0
  0
LINE
  5
75B
  8
4
 62
     0
 10
0.0
 20
5.0
 30
0.0
 11
0.0
 21
8.85
 31
0.0
  0
LINE
  5
75C
  8
4
 62
     0
 10
-5.0
 20
0.0
 30
0.0
 11
-8.85
 21
0.0
 31
0.0
  0
LINE
  5
75D
  8
4
 62
     0
 10
0.0
 20
-5.0
 30
0.0
 11
0.0
 21
-8.85
 31
0.0
  0
LINE
  5
75E
  8
4
 62
     0
 10
5.0
 20
0.0
 30
0.0
 11
8.85
 21
0.0
 31
0.0
  0
ENDBLK
  5
75F
  8
0
  0
BLOCK
  8
0
  2
*U2
 70
     1
 10
0.0
 20
0.0
 30
0.0
  3
*U2
  1

  0
TEXT
  5
77E
  8
SK6
 10
-50.0
 20
78.25
 30
0.0
 40
3.5
  1
BIG KAISER
 41
0.85
  0
TEXT
  5
781
  8
SK6
 10
-50.0
 20
73.0
 30
0.0
 40
3.5
  1
BCV50-SMC1.250-2
 41
0.85
  0
ENDBLK
  5
782
  8
0
  0
BLOCK
  8
0
  2
*U3
 70
     1
 10
0.0
 20
0.0
 30
0.0
  3
*U3
  1

  0
INSERT
  5
786
  8
6
  2
_FILLED
 10
-38.3385186602
 20
-29.3339625913
 30
0.0
 41
3.5
 42
3.5
 43
3.5
 50
52.86965044919886
  0
POLYLINE
  5
78B
  8
6
 66
     1
 10
0.0
 20
0.0
 30
0.0
  0
VERTEX
  5
1B6C
  8
6
 10
-40.45122500062811
 20
-32.12438763403361
 30
0.0
  0
VERTEX
  5
1B6D
  8
6
 10
-65.5826187589
 20
-65.3174865328
 30
0.0
  0
VERTEX
  5
1B6E
  8
6
 10
-67.4576187589
 20
-63.5674865328
 30
0.0
  0
VERTEX
  5
1B6F
  8
6
 10
-70.9576187589
 20
-63.5674865328
 30
0.0
  0
SEQEND
  5
1B72
  8
6
  0
ENDBLK
  5
78C
  8
0
  0
BLOCK
  8
0
  2
_FILLED
 70
     0
 10
0.0
 20
0.0
 30
0.0
  3
_FILLED
  1

  0
SOLID
  5
789
  8
0
  6
BYBLOCK
 62
     0
 10
0.0
 20
0.0
 30
0.0
 11
-1.0
 21
0.2142857143
 31
0.0
 12
-1.0
 22
-0.2142857143
 32
0.0
 13
-1.0
 23
-0.2142857143
 33
0.0
  0
ENDBLK
  5
78A
  8
0
  6
BYBLOCK
 62
     0
  0
BLOCK
  8
0
  2
*U5
 70
     1
 10
0.0
 20
0.0
 30
0.0
  3
*U5
  1

  0
TEXT
  5
790
  8
SK6
 10
-85.96178542556666
 20
-67.06748653279999
 30
0.0
 40
3.5
  1
BCV50
 41
0.85
  0
ENDBLK
  5
791
  8
0
  0
BLOCK
  8
0
  2
*D6
 70
     1
 10
0.0
 20
0.0
 30
0.0
  3
*D6
  1

  0
LINE
  5
7EA
  8
SK2
 62
     0
 10
35.125
 20
34.92499999999998
 30
0.0
 11
154.2192759862572
 21
34.92499999999998
 31
0.0
  0
LINE
  5
7EB
  8
SK2
 62
     0
 10
35.125
 20
-34.92500000000001
 30
0.0
 11
154.2192759862572
 21
-34.92500000000002
 31
0.0
  0
LINE
  5
7EC
  8
SK2
 62
     0
 10
152.9692759862572
 20
32.42499999999998
 30
0.0
 11
152.9692759862572
 21
-32.42500000000002
 31
0.0
  0
SOLID
  5
7ED
  8
SK2
 62
     0
 10
153.3859426529239
 20
32.42499999999998
 30
0.0
 11
152.5526093195905
 21
32.42499999999998
 31
0.0
 12
152.9692759862572
 22
34.92499999999998
 32
0.0
 13
152.9692759862572
 23
34.92499999999998
 33
0.0
  0
SOLID
  5
7EE
  8
SK2
 62
     0
 10
152.5526093195905
 20
-32.42500000000002
 30
0.0
 11
153.3859426529239
 21
-32.42500000000002
 31
0.0
 12
152.9692759862572
 22
-34.92500000000002
 32
0.0
 13
152.9692759862572
 23
-34.92500000000002
 33
0.0
  0
TEXT
  5
7EF
  8
SK2
  6
CONTINUOUS
 62
     0
 10
152.3442759862572
 20
-5.000000000000028
 30
0.0
 40
2.5
  1
69.85
 50
90.0
  0
POINT
  5
7F0
  8
DEFPOINTS
 62
     0
 10
34.5
 20
34.92499999999998
 30
0.0
  0
POINT
  5
7F1
  8
DEFPOINTS
 62
     0
 10
34.5
 20
-34.92500000000001
 30
0.0
  0
POINT
  5
7F2
  8
DEFPOINTS
 62
     0
 10
152.9692759862572
 20
-34.92500000000002
 30
0.0
  0
ENDBLK
  5
7F4
  8
0
  0
BLOCK
  8
0
  2
*D7
 70
     1
 10
0.0
 20
0.0
 30
0.0
  3
*D7
  1

  0
LINE
  5
7F9
  8
SK2
 62
     0
 10
0.0
 20
-35.55000000000001
 30
0.0
 11
0.0
 21
-74.40665109041375
 31
0.0
  0
LINE
  5
7FA
  8
SK2
 62
     0
 10
35.05
 20
-35.05000000000001
 30
0.0
 11
35.05
 21
-74.40665109041375
 31
0.0
  0
LINE
  5
7FB
  8
SK2
 62
     0
 10
2.5
 20
-73.15665109041375
 30
0.0
 11
32.55
 21
-73.15665109041375
 31
0.0
  0
SOLID
  5
7FC
  8
SK2
 62
     0
 10
2.5
 20
-72.73998442374707
 30
0.0
 11
2.5
 21
-73.57331775708042
 31
0.0
 12
0.0
 22
-73.15665109041375
 32
0.0
 13
0.0
 23
-73.15665109041375
 33
0.0
  0
SOLID
  5
7FD
  8
SK2
 62
     0
 10
32.55
 20
-73.57331775708042
 30
0.0
 11
32.55
 21
-72.73998442374707
 31
0.0
 12
35.05
 22
-73.15665109041375
 32
0.0
 13
35.05
 23
-73.15665109041375
 33
0.0
  0
TEXT
  5
7FE
  8
SK2
  6
CONTINUOUS
 62
     0
 10
12.73333333333333
 20
-72.53165109041375
 30
0.0
 40
2.5
  1
35.05
  0
POINT
  5
7FF
  8
DEFPOINTS
 62
     0
 10
0.0
 20
-34.92500000000001
 30
0.0
  0
POINT
  5
800
  8
DEFPOINTS
 62
     0
 10
35.05
 20
-34.42500000000001
 30
0.0
  0
POINT
  5
801
  8
DEFPOINTS
 62
     0
 10
35.05
 20
-73.15665109041375
 30
0.0
  0
ENDBLK
  5
803
  8
0
  0
BLOCK
  8
0
  2
*D8
 70
     1
 10
0.0
 20
0.0
 30
0.0
  3
*D8
  1

  0
LINE
  5
808
  8
SK2
 62
     0
 10
0.0
 20
35.54999999999998
 30
0.0
 11
0.0
 21
63.71215670356074
 31
0.0
  0
LINE
  5
809
  8
SK2
 62
     0
 10
50.79999999999998
 20
34.55000000000007
 30
0.0
 11
50.79999999999998
 21
63.71215670356074
 31
0.0
  0
LINE
  5
80A
  8
SK2
 62
     0
 10
2.5
 20
62.46215670356074
 30
0.0
 11
48.29999999999998
 21
62.46215670356074
 31
0.0
  0
SOLID
  5
80B
  8
SK2
 62
     0
 10
2.5
 20
62.8788233702274
 30
0.0
 11
2.5
 21
62.04549003689407
 31
0.0
 12
0.0
 22
62.46215670356074
 32
0.0
 13
0.0
 23
62.46215670356074
 33
0.0
  0
SOLID
  5
80C
  8
SK2
 62
     0
 10
48.29999999999998
 20
62.04549003689407
 30
0.0
 11
48.29999999999998
 21
62.8788233702274
 31
0.0
 12
50.79999999999998
 22
62.46215670356074
 32
0.0
 13
50.79999999999998
 23
62.46215670356074
 33
0.0
  0
TEXT
  5
80D
  8
SK2
  6
CONTINUOUS
 62
     0
 10
21.85833333333332
 20
63.08715670356074
 30
0.0
 40
2.5
  1
50.8
  0
POINT
  5
80E
  8
DEFPOINTS
 62
     0
 10
0.0
 20
34.92499999999998
 30
0.0
  0
POINT
  5
80F
  8
DEFPOINTS
 62
     0
 10
50.79999999999998
 20
33.92500000000007
 30
0.0
  0
POINT
  5
810
  8
DEFPOINTS
 62
     0
 10
50.79999999999998
 20
62.46215670356074
 30
0.0
  0
ENDBLK
  5
812
  8
0
  0
BLOCK
  8
0
  2
*D9
 70
     1
 10
0.0
 20
0.0
 30
0.0
  3
*D9
  1

  0
LINE
  5
B8A
  8
1
 62
     0
 10
1.674999999999997
 20
49.21250000000001
 30
0.0
 11
-19.75958623088567
 21
49.21250000000001
 31
0.0
  0
LINE
  5
B8B
  8
1
 62
     0
 10
-0.625
 20
0.0
 30
0.0
 11
-19.75958623088567
 21
0.0000000000000012
 31
0.0
  0
LINE
  5
B8C
  8
1
 62
     0
 10
-18.50958623088567
 20
46.71250000000001
 30
0.0
 11
-18.50958623088567
 21
2.500000000000001
 31
0.0
  0
SOLID
  5
B8D
  8
1
 62
     0
 10
-18.092919564219
 20
46.71250000000001
 30
0.0
 11
-18.92625289755234
 21
46.71250000000001
 31
0.0
 12
-18.50958623088567
 22
49.21250000000001
 32
0.0
 13
-18.50958623088567
 23
49.21250000000001
 33
0.0
  0
SOLID
  5
B8E
  8
1
 62
     0
 10
-18.92625289755234
 20
2.500000000000001
 30
0.0
 11
-18.09291956421901
 21
2.500000000000001
 31
0.0
 12
-18.50958623088567
 22
0.0000000000000011
 32
0.0
 13
-18.50958623088567
 23
0.0000000000000011
 33
0.0
  0
TEXT
  5
B8F
  8
1
  6
CONTINUOUS
 62
     0
 10
-19.13458623088568
 20
18.77291666666667
 30
0.0
 40
2.5
  1
49.213
 50
90.0
  0
POINT
  5
B90
  8
DEFPOINTS
 62
     0
 10
2.299999999999997
 20
49.21250000000001
 30
0.0
  0
POINT
  5
B91
  8
DEFPOINTS
 62
     0
 10
0.0
 20
0.0
 30
0.0
  0
POINT
  5
B92
  8
DEFPOINTS
 62
     0
 10
-18.50958623088567
 20
0.0000000000000011
 30
0.0
  0
ENDBLK
  5
B94
  8
0
  0
BLOCK
  8
0
  2
*D10
 70
     1
 10
0.0
 20
0.0
 30
0.0
  3
*D10
  1

  0
LINE
  5
1040
  8
SK2
 62
     0
 10
67.42499999999998
 20
15.87500000000011
 30
0.0
 11
100.4029545597058
 21
15.87500000000011
 31
0.0
  0
LINE
  5
1041
  8
SK2
 62
     0
 10
67.42499999999998
 20
-15.87499999999989
 30
0.0
 11
100.4029545597058
 21
-15.87499999999989
 31
0.0
  0
LINE
  5
1042
  8
SK2
 62
     0
 10
99.15295455970576
 20
13.37500000000011
 30
0.0
 11
99.15295455970576
 21
-13.37499999999989
 31
0.0
  0
SOLID
  5
1043
  8
SK2
 62
     0
 10
99.56962122637243
 20
13.37500000000011
 30
0.0
 11
98.73628789303909
 21
13.37500000000011
 31
0.0
 12
99.15295455970576
 22
15.87500000000011
 32
0.0
 13
99.15295455970576
 23
15.87500000000011
 33
0.0
  0
SOLID
  5
1044
  8
SK2
 62
     0
 10
98.73628789303909
 20
-13.37499999999989
 30
0.0
 11
99.56962122637243
 21
-13.37499999999989
 31
0.0
 12
99.15295455970576
 22
-15.87499999999989
 32
0.0
 13
99.15295455970576
 23
-15.87499999999989
 33
0.0
  0
TEXT
  5
1045
  8
SK2
  6
CONTINUOUS
 62
     0
 10
98.52795455970576
 20
-4.583333333333215
 30
0.0
 40
2.5
  1
31.75
 50
90.0
  0
POINT
  5
1046
  8
DEFPOINTS
 62
     0
 10
66.79999999999998
 20
15.87500000000011
 30
0.0
  0
POINT
  5
1047
  8
DEFPOINTS
 62
     0
 10
66.79999999999998
 20
-15.87499999999989
 30
0.0
  0
POINT
  5
1048
  8
DEFPOINTS
 62
     0
 10
99.15295455970576
 20
-15.87499999999989
 30
0.0
  0
ENDBLK
  5
104A
  8
0
  0
BLOCK
  8
0
  2
*D11
 70
     1
 10
0.0
 20
0.0
 30
0.0
  3
*D11
  1

  0
LINE
  5
104F
  8
SK2
 62
     0
 10
50.42499999999998
 20
34.92500000000007
 30
0.0
 11
117.1978316052353
 21
34.92500000000006
 31
0.0
  0
LINE
  5
1050
  8
SK2
 62
     0
 10
50.42499999999998
 20
-34.9250000000003
 30
0.0
 11
117.1978316052353
 21
-34.9250000000003
 31
0.0
  0
LINE
  5
1051
  8
SK2
 62
     0
 10
115.9478316052353
 20
32.42500000000006
 30
0.0
 11
115.9478316052353
 21
-32.4250000000003
 31
0.0
  0
SOLID
  5
1052
  8
SK2
 62
     0
 10
116.364498271902
 20
32.42500000000006
 30
0.0
 11
115.5311649385686
 21
32.42500000000006
 31
0.0
 12
115.9478316052353
 22
34.92500000000006
 32
0.0
 13
115.9478316052353
 23
34.92500000000006
 33
0.0
  0
SOLID
  5
1053
  8
SK2
 62
     0
 10
115.5311649385686
 20
-32.4250000000003
 30
0.0
 11
116.364498271902
 21
-32.4250000000003
 31
0.0
 12
115.9478316052353
 22
-34.9250000000003
 32
0.0
 13
115.9478316052353
 23
-34.9250000000003
 33
0.0
  0
TEXT
  5
1054
  8
SK2
  6
CONTINUOUS
 62
     0
 10
115.3228316052353
 20
-5.000000000000114
 30
0.0
 40
2.5
  1
69.85
 50
90.0
  0
POINT
  5
1055
  8
DEFPOINTS
 62
     0
 10
49.79999999999998
 20
34.92500000000007
 30
0.0
  0
POINT
  5
1056
  8
DEFPOINTS
 62
     0
 10
49.79999999999998
 20
-34.9250000000003
 30
0.0
  0
POINT
  5
1057
  8
DEFPOINTS
 62
     0
 10
115.9478316052353
 20
-34.9250000000003
 30
0.0
  0
ENDBLK
  5
1059
  8
0
  0
ENDSEC
  0
SECTION
  2
ENTITIES
  0
LINE
  5
685
  8
SK1
 10
0.0
 20
34.92499999999998
 30
0.0
 11
-99.6319088344
 21
20.3952133832
 31
0.0
  0
LINE
  5
686
  8
SK1
 10
-99.6319088344
 20
-20.3952133832
 30
0.0
 11
0.0
 21
-34.92500000000001
 31
0.0
  0
ARC
  5
68D
  8
SK1
 10
-99.3
 20
18.1192879614
 30
0.0
 40
2.299999999999995
 50
98.29722000000018
 51
180.0
  0
ARC
  5
68E
  8
SK1
 10
-99.3
 20
-18.1192879614
 30
0.0
 40
2.299999999999995
 50
180.0
 51
261.7027799999998
  0
LINE
  5
6F6
  8
SK1
 10
-101.6
 20
0.0
 30
0.0
 11
-101.6
 21
-18.1192879614
 31
0.0
  0
LINE
  5
6F7
  8
SK1
 10
-101.6
 20
18.1192879614
 30
0.0
 11
-101.6
 21
0.0
 31
0.0
  0
LINE
  5
71A
  8
SK3
 10
-99.5215390309
 20
-13.10000000000002
 30
0.0
 11
-99.5215390309
 21
13.09999999999999
 31
0.0
  0
LINE
  5
71B
  8
SK3
 10
-95.25
 20
-13.10000000000002
 30
0.0
 11
-95.25
 21
13.09999999999999
 31
0.0
  0
LINE
  5
72A
  8
SK3
 10
-101.6
 20
-14.30000000000001
 30
0.0
 11
-99.5215390309
 21
-13.10000000000002
 31
0.0
  0
LINE
  5
72B
  8
SK3
 10
-99.5215390309
 20
13.09999999999999
 30
0.0
 11
-101.6
 21
14.3
 31
0.0
  0
LINE
  5
72C
  8
SK3
 10
-99.5215390309
 20
-13.10000000000002
 30
0.0
 11
-95.25
 21
-13.10000000000002
 31
0.0
  0
LINE
  5
72D
  8
SK3
 10
-95.25
 20
13.09999999999999
 30
0.0
 11
-99.5215390309
 21
13.09999999999999
 31
0.0
  0
LINE
  5
72E
  8
SK3
 10
-95.25
 20
-11.09980000000002
 30
0.0
 11
-40.09999999999999
 21
-11.09980000000002
 31
0.0
  0
LINE
  5
72F
  8
SK3
 10
-40.09999999999999
 20
11.09979999999999
 30
0.0
 11
-95.25
 21
11.09979999999999
 31
0.0
  0
LINE
  5
760
  8
SK3
 10
-57.1
 20
12.69999999999999
 30
0.0
 11
-95.25
 21
12.69999999999999
 31
0.0
  0
LINE
  5
761
  8
SK3
 10
-95.25
 20
-12.69999999999999
 30
0.0
 11
-57.1
 21
-12.69999999999999
 31
0.0
  0
LINE
  5
774
  8
SK3
 10
-57.1
 20
12.69999999999999
 30
0.0
 11
-57.1
 21
-12.69999999999999
 31
0.0
  0
LINE
  5
777
  8
SK4
 10
0.0
 20
0.0
 30
0.0
 11
-101.6
 21
0.0
 31
0.0
  0
LINE
  5
779
  8
4
 10
0.0
 20
0.0
 30
0.0
 11
50.79999999999997
 21
0.0
 31
0.0
  0
INSERT
  5
77B
  8
SK6
  2
*U2
 10
-44.10380399683656
 20
-23.39313954296377
 30
0.0
  0
INSERT
  5
78D
  8
SK6
  2
*U5
 10
17.55665382414153
 20
-2.560320993650734
 30
0.0
  0
LINE
  5
793
  8
0
 10
3.0
 20
3.0
 30
0.0
 11
-3.0
 21
-3.0
 31
0.0
  0
LINE
  5
794
  8
0
 10
-3.0
 20
3.0
 30
0.0
 11
3.0
 21
-3.0
 31
0.0
  0
CIRCLE
  5
795
  8
0
 10
0.0
 20
0.0
 30
0.0
 40
2.5
  0
LINE
  5
796
  8
0
 10
53.79999999999997
 20
-3.0
 30
0.0
 11
47.79999999999997
 21
3.0
 31
0.0
  0
CIRCLE
  5
797
  8
0
 10
50.79999999999997
 20
0.0
 30
0.0
 40
2.5
  0
LINE
  5
798
  8
0
 10
47.79999999999997
 20
-3.0
 30
0.0
 11
53.79999999999997
 21
3.0
 31
0.0
  0
LINE
  5
799
  8
NOCUT
 10
0.7999999999999972
 20
34.62500000000001
 30
0.0
 11
0.2999999999999972
 21
34.62500000000001
 31
0.0
  0
LINE
  5
79C
  8
NOCUT
 10
0.2999999999999972
 20
34.62500000000001
 30
0.0
 11
0.0
 21
34.92499999999999
 31
0.0
  0
LINE
  5
79D
  8
NOCUT
 10
49.79999999999998
 20
34.92500000000007
 30
0.0
 11
20.05
 21
34.92499999999999
 31
0.0
  0
ARC
  5
79E
  8
NOCUT
 10
0.7999999999999972
 20
35.62500000000001
 30
0.0
 40
1.0
 50
270.0
 51
314.4270040008
  0
ARC
  5
79F
  8
NOCUT
 10
20.05
 20
35.92499999999999
 30
0.0
 40
1.0
 50
180.0
 51
270.0
  0
LINE
  5
7A0
  8
NOCUT
 10
12.55499999999999
 20
45.64499999999999
 30
0.0
 11
9.704999999999998
 21
45.64499999999999
 31
0.0
  0
ARC
  5
7A1
  8
NOCUT
 10
12.55499999999999
 20
46.14499999999999
 30
0.0
 40
0.5
 50
270.0
 51
0.0
  0
ARC
  5
7A2
  8
NOCUT
 10
9.704999999999998
 20
46.14499999999999
 30
0.0
 40
0.5
 50
180.0
 51
270.0
  0
ARC
  5
7A3
  8
NOCUT
 10
2.299999999999997
 20
48.4125
 30
0.0
 40
0.7999999999999972
 50
90.0
 51
180.0
  0
ARC
  5
7A4
  8
NOCUT
 10
18.24999999999999
 20
48.4125
 30
0.0
 40
0.799999999999983
 50
0.0
 51
90.0
  0
LINE
  5
7A5
  8
NOCUT
 10
9.204999999999998
 20
46.43919780459999
 30
0.0
 11
7.603833230999996
 21
49.21250000000001
 31
0.0
  0
LINE
  5
7A6
  8
NOCUT
 10
14.65616676910001
 20
49.21250000000001
 30
0.0
 11
13.05499999999999
 21
46.43919780459999
 31
0.0
  0
LINE
  5
7A7
  8
NOCUT
 10
18.24999999999999
 20
49.21250000000001
 30
0.0
 11
14.65616676910001
 21
49.21250000000001
 31
0.0
  0
LINE
  5
7A8
  8
NOCUT
 10
7.603833230999996
 20
49.21250000000001
 30
0.0
 11
2.299999999999997
 21
49.21250000000001
 31
0.0
  0
LINE
  5
7AC
  8
NOCUT
 10
1.5
 20
48.4125
 30
0.0
 11
1.499999999999929
 21
34.91085715714565
 31
0.0
  0
LINE
  5
7AD
  8
NOCUT
 10
19.04999999999997
 20
48.4125
 30
0.0
 11
19.05
 21
35.92499999999999
 31
0.0
  0
LINE
  5
7AE
  8
NOCUT
 10
9.204999999999998
 20
46.43919780459999
 30
0.0
 11
9.204999999999998
 21
46.14499999999999
 31
0.0
  0
LINE
  5
7AF
  8
NOCUT
 10
13.05499999999999
 20
46.43919780459999
 30
0.0
 11
13.05499999999999
 21
46.14499999999999
 31
0.0
  0
DIMENSION
  5
804
  8
SK2
  2
*D8
 10
50.79999999999998
 20
62.46215670356074
 30
0.0
 11
25.39999999999999
 21
64.33715670356074
 31
0.0
 70
    32
  3
ISO-25
 13
0.0
 23
34.92499999999998
 33
0.0
 14
50.79999999999998
 24
33.92500000000007
 34
0.0
1001
ACAD
1000
DSTYLE
1002
{
1070
   287
1070
     5
1070
   271
1070
     3
1070
   272
1070
     3
1070
   279
1070
     2
1002
}
  0
LINE
  5
8BF
  8
NOCUT
 10
0.0
 20
34.92499999999999
 30
0.0
 11
0.0
 21
0.0
 31
0.0
  0
LINE
  5
8C0
  8
NOCUT
 10
0.0
 20
0.0
 30
0.0
 11
50.79999999999997
 21
0.0
 31
0.0
  0
INSERT
  5
A17
  8
SK6
  2
_FILLED
 10
-20.78186483605847
 20
-31.89428358495073
 30
0.0
 41
3.5
 42
3.5
 43
3.5
 50
52.86965044919886
  0
POLYLINE
  5
A18
  8
SK6
 66
     1
 10
0.0
 20
0.0
 30
0.0
  0
VERTEX
  5
164A
  8
SK6
 10
-22.89457117648658
 20
-34.68470862768434
 30
0.0
  0
VERTEX
  5
164B
  8
SK6
 10
-48.02596493475846
 20
-67.87780752645074
 30
0.0
  0
VERTEX
  5
164C
  8
SK6
 10
-49.90096493475846
 20
-66.12780752645074
 30
0.0
  0
VERTEX
  5
164D
  8
SK6
 10
-53.40096493475846
 20
-66.12780752645074
 30
0.0
  0
SEQEND
  5
1BB6
  8
SK6
  0
ARC
  5
AC7
  8
1
 10
20.04999999999998
 20
35.92499999999998
 30
0.0
 40
1.0
 50
180.0
 51
270.0
  0
ARC
  5
AC9
  8
1
 10
20.04999999999998
 20
-35.92500000000001
 30
0.0
 40
1.0
 50
90.0
 51
180.0
  0
ARC
  5
ACA
  8
1
 10
1.299999999999983
 20
35.125
 30
0.0
 40
0.5
 50
270.0
 51
293.5781784781994
  0
ARC
  5
ACB
  8
1
 10
1.299999999999983
 20
-35.125
 30
0.0
 40
0.500000000000009
 50
66.42182152180017
 51
90.0
  0
LINE
  5
ACF
  8
1
 10
0.0
 20
-34.92500000000001
 30
0.0
 11
0.2999999999999829
 21
-34.625
 31
0.0
  0
LINE
  5
AD0
  8
1
 10
0.2999999999999829
 20
34.625
 30
0.0
 11
0.0
 21
34.92499999999998
 31
0.0
  0
LINE
  5
AD5
  8
1
 10
1.299999999999983
 20
34.625
 30
0.0
 11
0.2999999999999829
 21
34.625
 31
0.0
  0
LINE
  5
AD6
  8
1
 10
0.2999999999999829
 20
-34.625
 30
0.0
 11
1.299999999999983
 21
-34.625
 31
0.0
  0
LINE
  5
ADB
  8
1
 10
14.65616694409999
 20
-47.282880439
 30
0.0
 11
14.68806954659999
 21
-47.29184187660002
 31
0.0
  0
LINE
  5
ADC
  8
1
 10
14.6561667691
 20
47.30816788690001
 30
0.0
 11
14.6561667691
 21
-47.2826327523
 31
0.0
  0
LINE
  5
ADD
  8
1
 10
14.7615962207
 20
47.3314147463
 30
0.0
 11
14.6561668942
 21
47.30816788690001
 31
0.0
  0
LINE
  5
ADE
  8
1
 10
18.25
 20
47.3314147463
 30
0.0
 11
14.7615962207
 21
47.3314147463
 31
0.0
  0
LINE
  5
ADF
  8
1
 10
14.68806954659999
 20
-47.29184187660002
 30
0.0
 11
18.25
 21
-47.29184187660002
 31
0.0
  0
LINE
  5
AE0
  8
1
 10
7.498403779400007
 20
47.3314147463
 30
0.0
 11
4.006414746699988
 21
47.3314147463
 31
0.0
  0
LINE
  5
AE1
  8
1
 10
7.603833105900009
 20
47.30816788690001
 30
0.0
 11
7.498403779400007
 21
47.3314147463
 31
0.0
  0
LINE
  5
AE2
  8
1
 10
7.603833230899994
 20
47.30844201400001
 30
0.0
 11
7.603833230899994
 21
-47.28288044160001
 31
0.0
  0
LINE
  5
AE3
  8
1
 10
7.571930453299984
 20
-47.29184187660002
 30
0.0
 11
7.603833055899997
 21
-47.282880439
 31
0.0
  0
LINE
  5
AE4
  8
1
 10
4.040356993800003
 20
-47.29184187660002
 30
0.0
 11
7.571930453299984
 21
-47.29184187660002
 31
0.0
  0
LINE
  5
AE5
  8
1
 10
2.300001405499984
 20
-46.74795901499999
 30
0.0
 11
4.040356993800003
 21
-47.29184189310001
 31
0.0
  0
LINE
  5
AE6
  8
1
 10
4.006414746699988
 20
47.33141476029999
 30
0.0
 11
2.299999765199999
 21
46.80267569
 31
0.0
  0
ARC
  5
AE7
  8
1
 10
2.557435939599998
 20
-45.59355264690001
 30
0.0
 40
1.184053137363273
 50
207.7147598986998
 51
257.3157095984005
  0
LINE
  5
AE8
  8
1
 10
1.50922466130001
 20
-46.14422037630001
 30
0.0
 11
1.5
 21
-46.01377680920001
 31
0.0
  0
LINE
  5
AE9
  8
1
 10
1.5
 20
-46.01377680920001
 30
0.0
 11
1.5
 21
46.01377680919998
 31
0.0
  0
ARC
  5
AEA
  8
1
 10
2.572884962100005
 20
45.72649004249999
 30
0.0
 40
1.111555736593689
 50
104.3436511600003
 51
164.8417645594994
  0
LINE
  5
AEB
  8
1
 10
9.204999995999998
 20
44.41431970880001
 30
0.0
 11
7.60383322749999
 21
47.3081678945
 31
0.0
  0
LINE
  5
AEC
  8
1
 10
9.204999999999984
 20
44.4143196734
 30
0.0
 11
9.204999999999984
 21
-44.387299867
 31
0.0
  0
LINE
  5
AED
  8
1
 10
7.603833226399985
 20
-47.28288044990001
 30
0.0
 11
9.2049999921
 21
-44.38762367050001
 31
0.0
  0
LINE
  5
AEE
  8
1
 10
14.65616677259999
 20
47.3081678945
 30
0.0
 11
13.05500000399999
 21
44.41431970880001
 31
0.0
  0
LINE
  5
AEF
  8
1
 10
13.05500000800001
 20
-44.38762367050001
 30
0.0
 11
14.65616677360001
 21
-47.28288044990001
 31
0.0
  0
LINE
  5
AF0
  8
1
 10
13.05500000000001
 20
44.41459195280001
 30
0.0
 11
13.05500000000001
 21
-44.38762365650001
 31
0.0
  0
ARC
  5
AF1
  8
1
 10
17.92302328310001
 20
46.41895288640001
 30
0.0
 40
1.127359624435328
 50
1.493363825500091
 51
43.53750291790048
  0
LINE
  5
AF2
  8
1
 10
19.04999999999998
 20
46.44833319130001
 30
0.0
 11
19.04999999999998
 21
-46.44833319130001
 31
0.0
  0
ARC
  5
AF3
  8
1
 10
17.91824827779999
 20
-46.4157978575
 30
0.0
 40
1.1322192847622
 50
319.2464850235001
 51
358.3533278529993
  0
ARC
  5
AF4
  8
1
 10
18.2616113983
 20
-46.25791326929999
 30
0.0
 40
1.033993805426882
 50
269.3565743835002
 51
299.8289453780985
  0
ARC
  5
AF5
  8
1
 10
18.2610591033
 20
46.41902767409999
 30
0.0
 40
0.9124540938653742
 50
58.31881226410037
 51
90.69445187719943
  0
ARC
  5
AF6
  8
1
 10
12.5158206966
 20
-44.1073442162
 30
0.0
 40
0.5397579791454132
 50
357.3466499737992
 51
85.83742202690154
  0
ARC
  5
AF7
  8
1
 10
12.54139279200001
 20
44.09944295630001
 30
0.0
 40
0.4858431210597904
 50
271.6049163143007
 51
333.441972537701
  0
POLYLINE
  5
AF8
  8
1
 66
     1
 10
0.0
 20
0.0
 30
0.0
  0
VERTEX
  5
164E
  8
1
 10
13.05500000000001
 20
44.14662312639999
 30
0.0
  0
VERTEX
  5
164F
  8
1
 10
13.03542892280001
 20
44.01594229719998
 30
0.0
  0
VERTEX
  5
1650
  8
1
 10
12.97787844319998
 20
43.88571451269999
 30
0.0
  0
SEQEND
  5
1BB5
  8
1
  0
ARC
  5
AF9
  8
1
 10
9.744214343399989
 20
-44.10737531749999
 30
0.0
 40
0.5397915428070933
 50
94.16604783349855
 51
182.6498801657025
  0
POLYLINE
  5
AFA
  8
1
 66
     1
 10
0.0
 20
0.0
 30
0.0
  0
VERTEX
  5
1651
  8
1
 10
9.280099379399985
 20
43.88913247470001
 30
0.0
  0
VERTEX
  5
1652
  8
1
 10
9.224055884099982
 20
44.0177026321
 30
0.0
  0
VERTEX
  5
1653
  8
1
 10
9.204999999999984
 20
44.14662312639999
 30
0.0
  0
SEQEND
  5
1BB4
  8
1
  0
ARC
  5
AFB
  8
1
 10
9.721350266000002
 20
44.10422581969999
 30
0.0
 40
0.4907078648052702
 50
206.0244317763009
 51
268.0905652222996
  0
LINE
  5
AFC
  8
1
 10
12.55500000000001
 20
43.613790424
 30
0.0
 11
9.704999999999984
 21
43.613790424
 31
0.0
  0
LINE
  5
AFD
  8
1
 10
9.704999999999984
 20
-43.5690100651
 30
0.0
 11
12.55500000000001
 21
-43.5690100651
 31
0.0
  0
LINE
  5
B00
  8
1
 10
0.2999999999999829
 20
34.625
 30
0.0
 11
0.2999999999999829
 21
-34.625
 31
0.0
  0
LINE
  5
B01
  8
1
 10
0.0
 20
34.92499999999998
 30
0.0
 11
0.0
 21
-34.92500000000001
 31
0.0
  0
LINE
  5
B04
  8
1
 10
14.68806954670001
 20
-47.29184187660002
 30
0.0
 11
14.65616694420001
 21
-47.282880439
 31
0.0
  0
LINE
  5
B1A
  8
3
 10
1.500000000000004
 20
37.72
 30
0.0
 11
19.04999999999998
 21
37.72
 31
0.0
  0
LINE
  5
B3B
  8
3
 10
1.5
 20
-35.30000000000001
 30
0.0
 11
19.26937525020018
 21
-35.30000000000001
 31
0.0
  0
LINE
  5
B42
  8
3
 10
26.97499999999999
 20
28.32499999999999
 30
0.0
 11
33.32499999999999
 21
28.32499999999999
 31
0.0
  0
LINE
  5
B43
  8
3
 10
20.625
 20
28.32499999999999
 30
0.0
 11
26.97499999999999
 21
28.32499999999999
 31
0.0
  0
LINE
  5
B44
  8
3
 10
11.375
 20
37.31999999999999
 30
0.0
 11
16.125
 21
37.31999999999999
 31
0.0
  0
LINE
  5
B45
  8
3
 10
6.625
 20
37.31999999999999
 30
0.0
 11
11.375
 21
37.31999999999999
 31
0.0
  0
LINE
  5
B55
  8
3
 10
20.625
 20
28.32499999999999
 30
0.0
 11
26.97499999999999
 21
24.50953506919998
 31
0.0
  0
LINE
  5
B56
  8
3
 10
26.97499999999999
 20
24.50953506919998
 30
0.0
 11
33.32499999999999
 21
28.32499999999999
 31
0.0
  0
LINE
  5
B57
  8
3
 10
20.625
 20
34.92499999999998
 30
0.0
 11
20.625
 21
28.32499999999999
 31
0.0
  0
LINE
  5
B58
  8
3
 10
33.32499999999999
 20
28.32499999999999
 30
0.0
 11
33.32499999999999
 21
34.92499999999998
 31
0.0
  0
LINE
  5
B59
  8
3
 10
6.625
 20
37.72
 30
0.0
 11
6.625
 21
37.31999999999999
 31
0.0
  0
LINE
  5
B5A
  8
3
 10
16.125
 20
37.31999999999999
 30
0.0
 11
16.125
 21
37.72
 31
0.0
  0
LINE
  5
B5B
  8
1
 10
20.04999999999998
 20
-34.92500000000001
 30
0.0
 11
20.04999999999998
 21
34.92499999999998
 31
0.0
  0
LINE
  5
B5C
  8
1
 10
1.299999999999983
 20
-34.625
 30
0.0
 11
1.299999999999983
 21
34.625
 31
0.0
  0
LINE
  5
B5F
  8
1
 10
12.55500000000001
 20
-43.00413183130001
 30
0.0
 11
12.55500000000001
 21
42.79577481850001
 31
0.0
  0
LINE
  5
B60
  8
1
 10
9.704999999999984
 20
-43.00421493109999
 30
0.0
 11
9.704999999999984
 21
42.7957705776
 31
0.0
  0
LINE
  5
B62
  8
1
 10
18.25
 20
47.3314147463
 30
0.0
 11
18.25
 21
-47.29184187660002
 31
0.0
  0
LINE
  5
B64
  8
1
 10
2.299999999999983
 20
-46.74795854910002
 30
0.0
 11
2.299999999999983
 21
46.80267576719999
 31
0.0
  0
LINE
  5
CE0
  8
1
 10
49.79999999999998
 20
34.92500000000007
 30
0.0
 11
20.04999999999998
 21
34.92500000000007
 31
0.0
  0
ARC
  5
CE2
  8
1
 10
49.79999999999998
 20
-33.92500000000007
 30
0.0
 40
1.000000000000227
 50
270.0
 51
0.0
  0
ARC
  5
CE3
  8
1
 10
49.79999999999998
 20
33.92500000000007
 30
0.0
 40
1.0
 50
0.0
 51
90.0
  0
LINE
  5
CFB
  8
1
 10
50.79999999999998
 20
-31.75381000000004
 30
0.0
 11
50.82833781259998
 21
-31.75381000000004
 31
0.0
  0
CIRCLE
  5
D1F
  8
1
 10
32.79999999999998
 20
0.0000000000001137
 30
0.0
 40
2.624999999999545
  0
LINE
  5
D20
  8
1
 10
50.79999999999998
 20
0.0000000000001137
 30
0.0
 11
50.79999999999998
 21
33.92500000000007
 31
0.0
  0
LINE
  5
D21
  8
1
 10
50.79999999999998
 20
-33.92500000000007
 30
0.0
 11
50.79999999999998
 21
0.0000000000001137
 31
0.0
  0
CIRCLE
  5
D22
  8
1
 10
32.79999999999998
 20
0.0000000000001137
 30
0.0
 40
2.525000000000006
  0
LINE
  5
D28
  8
1
 10
31.54999999999998
 20
-0.721687836499882
 30
0.0
 11
32.79999999999998
 21
-1.443375672999878
 31
0.0
  0
LINE
  5
D29
  8
1
 10
34.04999999999998
 20
-0.721687836499882
 30
0.0
 11
32.79999999999998
 21
-1.443375672999878
 31
0.0
  0
LINE
  5
D2A
  8
1
 10
34.04999999999998
 20
0.7216878365001094
 30
0.0
 11
34.04999999999998
 21
-0.721687836499882
 31
0.0
  0
LINE
  5
D2B
  8
1
 10
34.04999999999998
 20
0.7216878365001094
 30
0.0
 11
32.79999999999998
 21
1.443375673000105
 31
0.0
  0
LINE
  5
D2C
  8
1
 10
31.54999999999998
 20
0.7216878365001094
 30
0.0
 11
32.79999999999998
 21
1.443375673000105
 31
0.0
  0
LINE
  5
D2D
  8
1
 10
31.54999999999998
 20
0.7216878365001094
 30
0.0
 11
31.54999999999998
 21
-0.721687836499882
 31
0.0
  0
CIRCLE
  5
D2E
  8
1
 10
32.79999999999998
 20
0.0000000000001137
 30
0.0
 40
2.054999999999836
  0
CIRCLE
  5
D2F
  8
1
 10
32.79999999999998
 20
0.0000000000001137
 30
0.0
 40
2.256103126842049
  0
CIRCLE
  5
D30
  8
1
 10
32.79999999999998
 20
0.0000000000001137
 30
0.0
 40
2.500000000000085
  0
POLYLINE
  5
D3E
  8
3
 66
     1
 10
0.0
 20
0.0
 30
0.0
  0
VERTEX
  5
1654
  8
3
 10
32.79999999999998
 20
-28.84788378399992
 30
0.0
  0
VERTEX
  5
1655
  8
3
 10
33.66749848169999
 20
-28.93098265750007
 30
0.0
  0
VERTEX
  5
1656
  8
3
 10
34.43717542390002
 20
-29.16774297809991
 30
0.0
  0
VERTEX
  5
1657
  8
3
 10
35.02381580739998
 20
-29.52444509919985
 30
0.0
  0
VERTEX
  5
1658
  8
3
 10
35.36030775899999
 20
-29.9521880481999
 30
0.0
  0
VERTEX
  5
1659
  8
3
 10
35.40775711429998
 20
-30.39500826999995
 30
0.0
  0
VERTEX
  5
165A
  8
3
 10
35.16242987979999
 20
-30.80187446539992
 30
0.0
  0
VERTEX
  5
165B
  8
3
 10
34.65187247119999
 20
-31.13320775749992
 30
0.0
  0
VERTEX
  5
165C
  8
3
 10
33.93146891659998
 20
-31.3606117354999
 30
0.0
  0
VERTEX
  5
165D
  8
3
 10
33.08300586009997
 20
-31.46622946299988
 30
0.0
  0
VERTEX
  5
165E
  8
3
 10
32.20456459789997
 20
-31.44307976840003
 30
0.0
  0
VERTEX
  5
165F
  8
3
 10
31.39416224999999
 20
-31.29335200349999
 30
0.0
  0
VERTEX
  5
1660
  8
3
 10
30.740409202
 20
-31.02682272200002
 30
0.0
  0
VERTEX
  5
1661
  8
3
 10
30.3175743299
 20
-30.66357714589992
 30
0.0
  0
VERTEX
  5
1662
  8
3
 10
30.17505241529997
 20
-30.23763957640006
 30
0.0
  0
VERTEX
  5
1663
  8
3
 10
30.32781611189998
 20
-29.79499263650007
 30
0.0
  0
VERTEX
  5
1664
  8
3
 10
30.75775834930002
 20
-29.38759440029992
 30
0.0
  0
VERTEX
  5
1665
  8
3
 10
31.41839258449997
 20
-29.06811232050006
 30
0.0
  0
VERTEX
  5
1666
  8
3
 10
32.23590866380002
 20
-28.88250270679998
 30
0.0
  0
VERTEX
  5
1667
  8
3
 10
32.79999999999998
 20
-28.84788378399992
 30
0.0
  0
SEQEND
  5
1BB3
  8
3
  0
POLYLINE
  5
D3F
  8
3
 66
     1
 10
0.0
 20
0.0
 30
0.0
  0
VERTEX
  5
1668
  8
3
 10
32.79999999999998
 20
31.47288378400015
 30
0.0
  0
VERTEX
  5
1669
  8
3
 10
33.66749848169999
 20
31.40849580259999
 30
0.0
  0
VERTEX
  5
166A
  8
3
 10
34.43717542390002
 20
31.21964005920006
 30
0.0
  0
VERTEX
  5
166B
  8
3
 10
35.02381580739998
 20
30.91917383800012
 30
0.0
  0
VERTEX
  5
166C
  8
3
 10
35.36030775899999
 20
30.53136779520003
 30
0.0
  0
VERTEX
  5
166D
  8
3
 10
35.40775711429998
 20
30.09462878880015
 30
0.0
  0
VERTEX
  5
166E
  8
3
 10
35.16242987979999
 20
29.65751872390013
 30
0.0
  0
VERTEX
  5
166F
  8
3
 10
34.65187247119999
 20
29.27277948669996
 30
0.0
  0
VERTEX
  5
1670
  8
3
 10
33.93146891659998
 20
28.99198278799997
 30
0.0
  0
VERTEX
  5
1671
  8
3
 10
33.77086003409997
 20
28.96634235060003
 30
0.0
  0
SEQEND
  5
1BB2
  8
3
  0
POLYLINE
  5
D40
  8
3
 66
     1
 10
0.0
 20
0.0
 30
0.0
  0
VERTEX
  5
1672
  8
3
 10
31.84449330610002
 20
28.97094003550012
 30
0.0
  0
VERTEX
  5
1673
  8
3
 10
31.39416224999999
 20
29.07654230929995
 30
0.0
  0
VERTEX
  5
1674
  8
3
 10
30.740409202
 20
29.3993367022
 30
0.0
  0
VERTEX
  5
1675
  8
3
 10
30.3175743299
 20
29.81023794479995
 30
0.0
  0
VERTEX
  5
1676
  8
3
 10
30.17505241529997
 20
30.2542280545
 30
0.0
  0
VERTEX
  5
1677
  8
3
 10
30.32781611189998
 20
30.67756377989997
 30
0.0
  0
VERTEX
  5
1678
  8
3
 10
30.75775834930002
 20
31.03679846279999
 30
0.0
  0
VERTEX
  5
1679
  8
3
 10
31.41839258449997
 20
31.30010379650014
 30
0.0
  0
VERTEX
  5
167A
  8
3
 10
32.23590866380002
 20
31.44617701610002
 30
0.0
  0
VERTEX
  5
167B
  8
3
 10
32.79999999999998
 20
31.47288378400015
 30
0.0
  0
SEQEND
  5
1BB1
  8
3
  0
CIRCLE
  5
D41
  8
3
 10
32.79999999999998
 20
0.0000000000001137
 30
0.0
 40
2.099999999999994
  0
LINE
  5
D4D
  8
SK3
 10
-40.09999999999999
 20
0.0000000000001137
 30
0.0
 11
-40.09999999999999
 21
11.11250000000007
 31
0.0
  0
LINE
  5
D4E
  8
SK3
 10
-40.09999999999999
 20
-11.11250000000007
 30
0.0
 11
-40.09999999999999
 21
0.0000000000001137
 31
0.0
  0
LINE
  5
D4F
  8
SK3
 10
-37.834376924
 20
0.0000000000001137
 30
0.0
 11
-37.834376924
 21
-7.341869999999858
 31
0.0
  0
LINE
  5
D50
  8
SK3
 10
-37.834376924
 20
7.341870000000085
 30
0.0
 11
-37.834376924
 21
0.0000000000001137
 31
0.0
  0
POLYLINE
  5
D53
  8
3
 66
     1
 10
0.0
 20
0.0
 30
0.0
  0
VERTEX
  5
167C
  8
3
 10
32.79999999999998
 20
7.142601359200057
 30
0.0
  0
VERTEX
  5
167D
  8
3
 10
33.47881147069998
 20
7.11452859489998
 30
0.0
  0
VERTEX
  5
167E
  8
3
 10
34.08077394070003
 20
7.024852442100041
 30
0.0
  0
VERTEX
  5
167F
  8
3
 10
34.55604233350002
 20
6.855363423699941
 30
0.0
  0
VERTEX
  5
1680
  8
3
 10
34.8406959173
 20
6.591516763100003
 30
0.0
  0
VERTEX
  5
1681
  8
3
 10
34.89019915000003
 20
6.254497762500137
 30
0.0
  0
VERTEX
  5
1682
  8
3
 10
34.7165702344
 20
5.885470292800051
 30
0.0
  0
VERTEX
  5
1683
  8
3
 10
34.3406196151
 20
5.523451856700035
 30
0.0
  0
VERTEX
  5
1684
  8
3
 10
33.7815982434
 20
5.223388291400056
 30
0.0
  0
VERTEX
  5
1685
  8
3
 10
33.10233887189995
 20
5.059163961699937
 30
0.0
  0
VERTEX
  5
1686
  8
3
 10
32.40988140509998
 20
5.070238859900087
 30
0.0
  0
VERTEX
  5
1687
  8
3
 10
31.77628753270002
 20
5.23997753569995
 30
0.0
  0
VERTEX
  5
1688
  8
3
 10
31.2392323398
 20
5.538239863000058
 30
0.0
  0
VERTEX
  5
1689
  8
3
 10
30.85971702409998
 20
5.918418927000062
 30
0.0
  0
VERTEX
  5
168A
  8
3
 10
30.70292034869996
 20
6.30216747040015
 30
0.0
  0
VERTEX
  5
168B
  8
3
 10
30.77917134599997
 20
6.624567060700087
 30
0.0
  0
VERTEX
  5
168C
  8
3
 10
31.0656411802
 20
6.867043579300002
 30
0.0
  0
VERTEX
  5
168D
  8
3
 10
31.54611864939997
 20
7.030900774799989
 30
0.0
  0
VERTEX
  5
168E
  8
3
 10
32.18316813379997
 20
7.119658210600051
 30
0.0
  0
VERTEX
  5
168F
  8
3
 10
32.79999999999998
 20
7.142601359200057
 30
0.0
  0
SEQEND
  5
1BB0
  8
3
  0
POLYLINE
  5
D54
  8
3
 66
     1
 10
0.0
 20
0.0
 30
0.0
  0
VERTEX
  5
1690
  8
3
 10
32.79999999999998
 20
-5.042601359299965
 30
0.0
  0
VERTEX
  5
1691
  8
3
 10
33.47881147069998
 20
-5.12726540469987
 30
0.0
  0
VERTEX
  5
1692
  8
3
 10
34.08077394070003
 20
-5.360635475300001
 30
0.0
  0
VERTEX
  5
1693
  8
3
 10
34.55604233350002
 20
-5.703705782300062
 30
0.0
  0
VERTEX
  5
1694
  8
3
 10
34.8406959173
 20
-6.095976479099932
 30
0.0
  0
VERTEX
  5
1695
  8
3
 10
34.89019915000003
 20
-6.457148973899962
 30
0.0
  0
VERTEX
  5
1696
  8
3
 10
34.7165702344
 20
-6.743816689500022
 30
0.0
  0
VERTEX
  5
1697
  8
3
 10
34.3406196151
 20
-6.950508688600053
 30
0.0
  0
VERTEX
  5
1698
  8
3
 10
33.7815982434
 20
-7.079853989599883
 30
0.0
  0
VERTEX
  5
1699
  8
3
 10
33.10233887189995
 20
-7.137286000100062
 30
0.0
  0
VERTEX
  5
169A
  8
3
 10
32.40988140509998
 20
-7.133684396399872
 30
0.0
  0
VERTEX
  5
169B
  8
3
 10
31.77628753270002
 20
-7.073556763500051
 30
0.0
  0
VERTEX
  5
169C
  8
3
 10
31.2392323398
 20
-6.943232500399859
 30
0.0
  0
VERTEX
  5
169D
  8
3
 10
30.85971702409998
 20
-6.721725825699991
 30
0.0
  0
VERTEX
  5
169E
  8
3
 10
30.70292034869996
 20
-6.412878517799868
 30
0.0
  0
VERTEX
  5
169F
  8
3
 10
30.77917134599997
 20
-6.053382719900014
 30
0.0
  0
VERTEX
  5
16A0
  8
3
 10
31.0656411802
 20
-5.682982987999935
 30
0.0
  0
VERTEX
  5
16A1
  8
3
 10
31.54611864939997
 20
-5.346329150199949
 30
0.0
  0
VERTEX
  5
16A2
  8
3
 10
32.18316813379997
 20
-5.112292163100051
 30
0.0
  0
VERTEX
  5
16A3
  8
3
 10
32.79999999999998
 20
-5.042601359299965
 30
0.0
  0
SEQEND
  5
1BAF
  8
3
  0
LINE
  5
D55
  8
3
 10
35.79999999999998
 20
31.75049999999999
 30
0.0
 11
35.79999999999998
 21
19.04949999999997
 31
0.0
  0
LINE
  5
D56
  8
3
 10
35.79999999999998
 20
-19.04949999999997
 30
0.0
 11
35.79999999999998
 21
-31.75049999999999
 31
0.0
  0
POLYLINE
  5
D5B
  8
3
 66
     1
 10
0.0
 20
0.0
 30
0.0
  0
VERTEX
  5
16A4
  8
3
 10
32.79999999999998
 20
30.06185102680013
 30
0.0
  0
VERTEX
  5
16A5
  8
3
 10
33.51824230099996
 20
29.99852827860002
 30
0.0
  0
VERTEX
  5
16A6
  8
3
 10
34.14985398040002
 20
29.81619769199995
 30
0.0
  0
VERTEX
  5
16A7
  8
3
 10
34.61865334799998
 20
29.53685102680004
 30
0.0
  0
VERTEX
  5
16A8
  8
3
 10
34.8680962814
 20
29.19418161329997
 30
0.0
  0
VERTEX
  5
16A9
  8
3
 10
34.8680962814
 20
28.8295204402001
 30
0.0
  0
VERTEX
  5
16AA
  8
3
 10
34.61865334799998
 20
28.48685102680008
 30
0.0
  0
VERTEX
  5
16AB
  8
3
 10
34.14985398040002
 20
28.20750436150013
 30
0.0
  0
VERTEX
  5
16AC
  8
3
 10
33.51824230099996
 20
28.02517377490005
 30
0.0
  0
VERTEX
  5
16AD
  8
3
 10
32.79999999999998
 20
27.96185102679999
 30
0.0
  0
VERTEX
  5
16AE
  8
3
 10
32.08175769900001
 20
28.02517377490005
 30
0.0
  0
VERTEX
  5
16AF
  8
3
 10
31.45014601969999
 20
28.20750436150013
 30
0.0
  0
VERTEX
  5
16B0
  8
3
 10
30.98134665209997
 20
28.48685102680008
 30
0.0
  0
VERTEX
  5
16B1
  8
3
 10
30.73190371869995
 20
28.8295204402001
 30
0.0
  0
VERTEX
  5
16B2
  8
3
 10
30.73190371869995
 20
29.19418161329997
 30
0.0
  0
VERTEX
  5
16B3
  8
3
 10
30.98134665209997
 20
29.53685102680004
 30
0.0
  0
VERTEX
  5
16B4
  8
3
 10
31.45014601969999
 20
29.81619769199995
 30
0.0
  0
VERTEX
  5
16B5
  8
3
 10
32.08175769900001
 20
29.99852827860002
 30
0.0
  0
VERTEX
  5
16B6
  8
3
 10
32.79999999999998
 20
30.06185102680013
 30
0.0
  0
SEQEND
  5
1BAE
  8
3
  0
POLYLINE
  5
D5C
  8
3
 66
     1
 10
0.0
 20
0.0
 30
0.0
  0
VERTEX
  5
16B7
  8
3
 10
33.98743420870002
 20
10.1757984945001
 30
0.0
  0
VERTEX
  5
16B8
  8
3
 10
33.6307135081
 20
9.66977149310003
 30
0.0
  0
VERTEX
  5
16B9
  8
3
 10
33.49306655810003
 20
9.414316763800002
 30
0.0
  0
VERTEX
  5
16BA
  8
3
 10
33.44145720699996
 20
9.209155885299992
 30
0.0
  0
VERTEX
  5
16BB
  8
3
 10
33.46926547539996
 20
9.011915962300122
 30
0.0
  0
VERTEX
  5
16BC
  8
3
 10
33.6124097565
 20
8.774532872500117
 30
0.0
  0
VERTEX
  5
16BD
  8
3
 10
34.06120238729997
 20
8.395253660000094
 30
0.0
  0
VERTEX
  5
16BE
  8
3
 10
34.56244969099996
 20
8.182853683999951
 30
0.0
  0
VERTEX
  5
16BF
  8
3
 10
34.79671859419997
 20
8.212678140000094
 30
0.0
  0
VERTEX
  5
16C0
  8
3
 10
34.89896407429998
 20
8.41171314159999
 30
0.0
  0
VERTEX
  5
16C1
  8
3
 10
34.85243416149999
 20
8.709264812000015
 30
0.0
  0
VERTEX
  5
16C2
  8
3
 10
34.70274057409998
 20
9.068375611500073
 30
0.0
  0
VERTEX
  5
16C3
  8
3
 10
34.36548096649997
 20
9.638514827300128
 30
0.0
  0
VERTEX
  5
16C4
  8
3
 10
33.80877979909999
 20
10.42164103419998
 30
0.0
  0
VERTEX
  5
16C5
  8
3
 10
33.58264801560003
 20
10.76040447870002
 30
0.0
  0
VERTEX
  5
16C6
  8
3
 10
33.46237566969998
 20
11.02537921250007
 30
0.0
  0
VERTEX
  5
16C7
  8
3
 10
33.4419854699
 20
11.21564272800003
 30
0.0
  0
VERTEX
  5
16C8
  8
3
 10
33.48999487349997
 20
11.39014499200005
 30
0.0
  0
VERTEX
  5
16C9
  8
3
 10
33.68676977749996
 20
11.65888278659997
 30
0.0
  0
VERTEX
  5
16CA
  8
3
 10
34.24378092549998
 20
12.05893686470006
 30
0.0
  0
VERTEX
  5
16CB
  8
3
 10
34.63023572669996
 20
12.17550193290015
 30
0.0
  0
VERTEX
  5
16CC
  8
3
 10
34.8315862227
 20
12.11135876740002
 30
0.0
  0
VERTEX
  5
16CD
  8
3
 10
34.89958565469996
 20
11.88661539700013
 30
0.0
  0
VERTEX
  5
16CE
  8
3
 10
34.83105246379998
 20
11.57819859829999
 30
0.0
  0
VERTEX
  5
16CF
  8
3
 10
34.66184255020002
 20
11.20416659449995
 30
0.0
  0
VERTEX
  5
16D0
  8
3
 10
34.28979462549998
 20
10.60073280660015
 30
0.0
  0
VERTEX
  5
16D1
  8
3
 10
33.98743420870002
 20
10.1757984945001
 30
0.0
  0
SEQEND
  5
1BAD
  8
3
  0
POLYLINE
  5
D5D
  8
3
 66
     1
 10
0.0
 20
0.0
 30
0.0
  0
VERTEX
  5
16D2
  8
3
 10
32.79999999999998
 20
-27.96185102679999
 30
0.0
  0
VERTEX
  5
16D3
  8
3
 10
33.51824230099996
 20
-28.02517377499987
 30
0.0
  0
VERTEX
  5
16D4
  8
3
 10
34.14985398040002
 20
-28.2075043614999
 30
0.0
  0
VERTEX
  5
16D5
  8
3
 10
34.61865334799998
 20
-28.48685102679985
 30
0.0
  0
VERTEX
  5
16D6
  8
3
 10
34.8680962814
 20
-28.82952044019987
 30
0.0
  0
VERTEX
  5
16D7
  8
3
 10
34.8680962814
 20
-29.19418161329997
 30
0.0
  0
VERTEX
  5
16D8
  8
3
 10
34.61865334799998
 20
-29.53685102680004
 30
0.0
  0
VERTEX
  5
16D9
  8
3
 10
34.14985398040002
 20
-29.81619769209999
 30
0.0
  0
VERTEX
  5
16DA
  8
3
 10
33.51824230099996
 20
-29.99852827860002
 30
0.0
  0
VERTEX
  5
16DB
  8
3
 10
32.79999999999998
 20
-30.0618510267999
 30
0.0
  0
VERTEX
  5
16DC
  8
3
 10
32.08175769900001
 20
-29.99852827860002
 30
0.0
  0
VERTEX
  5
16DD
  8
3
 10
31.45014601969999
 20
-29.81619769209999
 30
0.0
  0
VERTEX
  5
16DE
  8
3
 10
30.98134665209997
 20
-29.53685102680004
 30
0.0
  0
VERTEX
  5
16DF
  8
3
 10
30.73190371869995
 20
-29.19418161329997
 30
0.0
  0
VERTEX
  5
16E0
  8
3
 10
30.73190371869995
 20
-28.82952044019987
 30
0.0
  0
VERTEX
  5
16E1
  8
3
 10
30.98134665209997
 20
-28.48685102679985
 30
0.0
  0
VERTEX
  5
16E2
  8
3
 10
31.45014601969999
 20
-28.2075043614999
 30
0.0
  0
VERTEX
  5
16E3
  8
3
 10
32.08175769900001
 20
-28.02517377499987
 30
0.0
  0
VERTEX
  5
16E4
  8
3
 10
32.79999999999998
 20
-27.96185102679999
 30
0.0
  0
SEQEND
  5
1BAC
  8
3
  0
POLYLINE
  5
D5E
  8
3
 66
     1
 10
0.0
 20
0.0
 30
0.0
  0
VERTEX
  5
16E5
  8
3
 10
33.98743420870002
 20
-10.17579849449987
 30
0.0
  0
VERTEX
  5
16E6
  8
3
 10
34.54890983610002
 20
-11.00400580190001
 30
0.0
  0
VERTEX
  5
16E7
  8
3
 10
34.78937715059996
 20
-11.47067319020005
 30
0.0
  0
VERTEX
  5
16E8
  8
3
 10
34.89822813939995
 20
-11.86311415459988
 30
0.0
  0
VERTEX
  5
16E9
  8
3
 10
34.85594995519997
 20
-12.08168261339995
 30
0.0
  0
VERTEX
  5
16EA
  8
3
 10
34.70977232439995
 20
-12.17066122909989
 30
0.0
  0
VERTEX
  5
16EB
  8
3
 10
34.37872907869999
 20
-12.11790390530007
 30
0.0
  0
VERTEX
  5
16EC
  8
3
 10
33.82727769469997
 20
-11.78727340240005
 30
0.0
  0
VERTEX
  5
16ED
  8
3
 10
33.59420357190001
 20
-11.55471426139991
 30
0.0
  0
VERTEX
  5
16EE
  8
3
 10
33.46499650049995
 20
-11.32721459859988
 30
0.0
  0
VERTEX
  5
16EF
  8
3
 10
33.44138925839999
 20
-11.14345243449986
 30
0.0
  0
VERTEX
  5
16F0
  8
3
 10
33.48730668789997
 20
-10.95165245479996
 30
0.0
  0
VERTEX
  5
16F1
  8
3
 10
33.67711546069998
 20
-10.6106926926999
 30
0.0
  0
VERTEX
  5
16F2
  8
3
 10
34.22652384509999
 20
-9.84239505289986
 30
0.0
  0
VERTEX
  5
16F3
  8
3
 10
34.62149134410001
 20
-9.22155508670005
 30
0.0
  0
VERTEX
  5
16F4
  8
3
 10
34.82743133660003
 20
-8.783500904499874
 30
0.0
  0
VERTEX
  5
16F5
  8
3
 10
34.89980839389997
 20
-8.42973822149986
 30
0.0
  0
VERTEX
  5
16F6
  8
3
 10
34.83394911640002
 20
-8.242638408299968
 30
0.0
  0
VERTEX
  5
16F7
  8
3
 10
34.66723288540001
 20
-8.176300128200069
 30
0.0
  0
VERTEX
  5
16F8
  8
3
 10
34.29964334849998
 20
-8.266377161599962
 30
0.0
  0
VERTEX
  5
16F9
  8
3
 10
33.72353764009998
 20
-8.65642717849994
 30
0.0
  0
VERTEX
  5
16FA
  8
3
 10
33.53319171259997
 20
-8.88255606209998
 30
0.0
  0
VERTEX
  5
16FB
  8
3
 10
33.4500050133
 20
-9.0805132111999
 30
0.0
  0
VERTEX
  5
16FC
  8
3
 10
33.44837852179998
 20
-9.265393811799981
 30
0.0
  0
VERTEX
  5
16FD
  8
3
 10
33.53321999980002
 20
-9.50124742419996
 30
0.0
  0
VERTEX
  5
16FE
  8
3
 10
33.91454719509997
 20
-10.07592391669994
 30
0.0
  0
VERTEX
  5
16FF
  8
3
 10
33.98743420870002
 20
-10.17579849449987
 30
0.0
  0
SEQEND
  5
1BAB
  8
3
  0
POLYLINE
  5
D5F
  8
3
 66
     1
 10
0.0
 20
0.0
 30
0.0
  0
VERTEX
  5
1700
  8
3
 10
35.42499999999998
 20
29.37991182339999
 30
0.0
  0
VERTEX
  5
1701
  8
3
 10
35.30837861519998
 20
28.99304565700015
 30
0.0
  0
VERTEX
  5
1702
  8
3
 10
34.96887678259995
 20
28.64055424719993
 30
0.0
  0
VERTEX
  5
1703
  8
3
 10
34.43666072990001
 20
28.3537580026001
 30
0.0
  0
VERTEX
  5
1704
  8
3
 10
33.75902018899998
 20
28.15814002829995
 30
0.0
  0
VERTEX
  5
1705
  8
3
 10
32.99616649569995
 20
28.07108183959997
 30
0.0
  0
VERTEX
  5
1706
  8
3
 10
32.2158825484
 20
28.10031893860003
 30
0.0
  0
VERTEX
  5
1707
  8
3
 10
31.48749999999998
 20
28.24325348090008
 30
0.0
  0
VERTEX
  5
1708
  8
3
 10
30.87573883649995
 20
28.48718510500009
 30
0.0
  0
VERTEX
  5
1709
  8
3
 10
30.43495672179998
 20
28.81043941580003
 30
0.0
  0
VERTEX
  5
170A
  8
3
 10
30.2043190812
 20
29.18429384900003
 30
0.0
  0
VERTEX
  5
170B
  8
3
 10
30.2043190812
 20
29.57552979770014
 30
0.0
  0
VERTEX
  5
170C
  8
3
 10
30.43495672179998
 20
29.94938423099995
 30
0.0
  0
VERTEX
  5
170D
  8
3
 10
30.87573883649995
 20
30.27263854170008
 30
0.0
  0
VERTEX
  5
170E
  8
3
 10
31.48749999999998
 20
30.51657016580009
 30
0.0
  0
VERTEX
  5
170F
  8
3
 10
32.2158825484
 20
30.65950470810014
 30
0.0
  0
VERTEX
  5
1710
  8
3
 10
32.99616649569995
 20
30.68874180720002
 30
0.0
  0
VERTEX
  5
1711
  8
3
 10
33.75902018899998
 20
30.60168361850003
 30
0.0
  0
VERTEX
  5
1712
  8
3
 10
34.43666072990001
 20
30.40606564410007
 30
0.0
  0
VERTEX
  5
1713
  8
3
 10
34.96887678259995
 20
30.11926939960006
 30
0.0
  0
VERTEX
  5
1714
  8
3
 10
35.30837861519998
 20
29.76677798980006
 30
0.0
  0
VERTEX
  5
1715
  8
3
 10
35.42499999999998
 20
29.37991182339999
 30
0.0
  0
SEQEND
  5
1BAA
  8
3
  0
POLYLINE
  5
D60
  8
3
 66
     1
 10
0.0
 20
0.0
 30
0.0
  0
VERTEX
  5
1716
  8
3
 10
35.42499999999998
 20
-29.37991182339999
 30
0.0
  0
VERTEX
  5
1717
  8
3
 10
35.30837861519998
 20
-29.76677798980006
 30
0.0
  0
VERTEX
  5
1718
  8
3
 10
34.96887678259995
 20
-30.11926939960006
 30
0.0
  0
VERTEX
  5
1719
  8
3
 10
34.43666072990001
 20
-30.40606564410007
 30
0.0
  0
VERTEX
  5
171A
  8
3
 10
33.75902018899998
 20
-30.60168361850003
 30
0.0
  0
VERTEX
  5
171B
  8
3
 10
32.99616649569995
 20
-30.68874180720002
 30
0.0
  0
VERTEX
  5
171C
  8
3
 10
32.2158825484
 20
-30.65950470809992
 30
0.0
  0
VERTEX
  5
171D
  8
3
 10
31.48749999999998
 20
-30.51657016589991
 30
0.0
  0
VERTEX
  5
171E
  8
3
 10
30.87573883649995
 20
-30.27263854169985
 30
0.0
  0
VERTEX
  5
171F
  8
3
 10
30.43495672179998
 20
-29.94938423099995
 30
0.0
  0
VERTEX
  5
1720
  8
3
 10
30.2043190812
 20
-29.57552979779996
 30
0.0
  0
VERTEX
  5
1721
  8
3
 10
30.2043190812
 20
-29.18429384900003
 30
0.0
  0
VERTEX
  5
1722
  8
3
 10
30.43495672179998
 20
-28.81043941580003
 30
0.0
  0
VERTEX
  5
1723
  8
3
 10
30.87573883649995
 20
-28.48718510509991
 30
0.0
  0
VERTEX
  5
1724
  8
3
 10
31.48749999999998
 20
-28.24325348089985
 30
0.0
  0
VERTEX
  5
1725
  8
3
 10
32.2158825484
 20
-28.10031893870007
 30
0.0
  0
VERTEX
  5
1726
  8
3
 10
32.99616649569995
 20
-28.07108183959997
 30
0.0
  0
VERTEX
  5
1727
  8
3
 10
33.75902018899998
 20
-28.15814002829995
 30
0.0
  0
VERTEX
  5
1728
  8
3
 10
34.43666072990001
 20
-28.35375800269992
 30
0.0
  0
VERTEX
  5
1729
  8
3
 10
34.96887678259995
 20
-28.64055424719993
 30
0.0
  0
VERTEX
  5
172A
  8
3
 10
35.30837861519998
 20
-28.99304565699993
 30
0.0
  0
VERTEX
  5
172B
  8
3
 10
35.42499999999998
 20
-29.37991182339999
 30
0.0
  0
SEQEND
  5
1BA9
  8
3
  0
POLYLINE
  5
D61
  8
3
 66
     1
 10
0.0
 20
0.0
 30
0.0
  0
VERTEX
  5
172C
  8
3
 10
32.79999999999998
 20
30.64241182340004
 30
0.0
  0
VERTEX
  5
172D
  8
3
 10
33.58026791079996
 20
30.58062067520007
 30
0.0
  0
VERTEX
  5
172E
  8
3
 10
34.28415776209997
 20
30.40129577880009
 30
0.0
  0
VERTEX
  5
172F
  8
3
 10
34.84276791080001
 20
30.12199070439999
 30
0.0
  0
VERTEX
  5
1730
  8
3
 10
35.2014177037
 20
29.77004577879995
 30
0.0
  0
VERTEX
  5
1731
  8
3
 10
35.32500000000002
 20
29.37991182339999
 30
0.0
  0
VERTEX
  5
1732
  8
3
 10
35.2014177037
 20
28.98977786800003
 30
0.0
  0
VERTEX
  5
1733
  8
3
 10
34.84276791080001
 20
28.6378329424
 30
0.0
  0
VERTEX
  5
1734
  8
3
 10
34.28415776209997
 20
28.35852786800012
 30
0.0
  0
VERTEX
  5
1735
  8
3
 10
33.58026791079996
 20
28.17920297160015
 30
0.0
  0
VERTEX
  5
1736
  8
3
 10
32.79999999999998
 20
28.11741182339995
 30
0.0
  0
VERTEX
  5
1737
  8
3
 10
32.01973208920001
 20
28.17920297160015
 30
0.0
  0
VERTEX
  5
1738
  8
3
 10
31.31584223799999
 20
28.35852786800012
 30
0.0
  0
VERTEX
  5
1739
  8
3
 10
30.75723208919996
 20
28.6378329424
 30
0.0
  0
VERTEX
  5
173A
  8
3
 10
30.39858229640001
 20
28.98977786800003
 30
0.0
  0
VERTEX
  5
173B
  8
3
 10
30.27499999999995
 20
29.37991182339999
 30
0.0
  0
VERTEX
  5
173C
  8
3
 10
30.39858229640001
 20
29.77004577879995
 30
0.0
  0
VERTEX
  5
173D
  8
3
 10
30.75723208919996
 20
30.12199070439999
 30
0.0
  0
VERTEX
  5
173E
  8
3
 10
31.31584223799999
 20
30.40129577880009
 30
0.0
  0
VERTEX
  5
173F
  8
3
 10
32.01973208920001
 20
30.58062067520007
 30
0.0
  0
VERTEX
  5
1740
  8
3
 10
32.79999999999998
 20
30.64241182340004
 30
0.0
  0
SEQEND
  5
1BA8
  8
3
  0
POLYLINE
  5
D62
  8
3
 66
     1
 10
0.0
 20
0.0
 30
0.0
  0
VERTEX
  5
1741
  8
3
 10
32.79999999999998
 20
-28.11741182339995
 30
0.0
  0
VERTEX
  5
1742
  8
3
 10
33.58026791079996
 20
-28.17920297159992
 30
0.0
  0
VERTEX
  5
1743
  8
3
 10
34.28415776209997
 20
-28.3585278679999
 30
0.0
  0
VERTEX
  5
1744
  8
3
 10
34.84276791080001
 20
-28.6378329424
 30
0.0
  0
VERTEX
  5
1745
  8
3
 10
35.2014177037
 20
-28.98977786800003
 30
0.0
  0
VERTEX
  5
1746
  8
3
 10
35.32500000000002
 20
-29.37991182339999
 30
0.0
  0
VERTEX
  5
1747
  8
3
 10
35.2014177037
 20
-29.77004577879995
 30
0.0
  0
VERTEX
  5
1748
  8
3
 10
34.84276791080001
 20
-30.12199070439999
 30
0.0
  0
VERTEX
  5
1749
  8
3
 10
34.28415776209997
 20
-30.40129577879986
 30
0.0
  0
VERTEX
  5
174A
  8
3
 10
33.58026791079996
 20
-30.58062067520007
 30
0.0
  0
VERTEX
  5
174B
  8
3
 10
32.79999999999998
 20
-30.64241182340004
 30
0.0
  0
VERTEX
  5
174C
  8
3
 10
32.01973208920001
 20
-30.58062067520007
 30
0.0
  0
VERTEX
  5
174D
  8
3
 10
31.31584223799999
 20
-30.40129577879986
 30
0.0
  0
VERTEX
  5
174E
  8
3
 10
30.75723208919996
 20
-30.12199070439999
 30
0.0
  0
VERTEX
  5
174F
  8
3
 10
30.39858229640001
 20
-29.77004577879995
 30
0.0
  0
VERTEX
  5
1750
  8
3
 10
30.27499999999995
 20
-29.37991182339999
 30
0.0
  0
VERTEX
  5
1751
  8
3
 10
30.39858229640001
 20
-28.98977786800003
 30
0.0
  0
VERTEX
  5
1752
  8
3
 10
30.75723208919996
 20
-28.6378329424
 30
0.0
  0
VERTEX
  5
1753
  8
3
 10
31.31584223799999
 20
-28.3585278679999
 30
0.0
  0
VERTEX
  5
1754
  8
3
 10
32.01973208920001
 20
-28.17920297159992
 30
0.0
  0
VERTEX
  5
1755
  8
3
 10
32.79999999999998
 20
-28.11741182339995
 30
0.0
  0
SEQEND
  5
1BA7
  8
3
  0
CIRCLE
  5
D63
  8
3
 10
32.79999999999998
 20
0.0000000000001137
 30
0.0
 40
2.31673274345232
  0
CIRCLE
  5
D64
  8
3
 10
32.79999999999998
 20
0.0000000000001137
 30
0.0
 40
1.75
  0
POLYLINE
  5
D65
  8
3
 66
     1
 10
0.0
 20
0.0
 30
0.0
  0
VERTEX
  5
1756
  8
3
 10
32.79999999999998
 20
25.92478480450006
 30
0.0
  0
VERTEX
  5
1757
  8
3
 10
33.4321729159
 20
25.86569800519999
 30
0.0
  0
VERTEX
  5
1758
  8
3
 10
33.97896737639999
 20
25.69641760699994
 30
0.0
  0
VERTEX
  5
1759
  8
3
 10
34.36653575989996
 20
25.43980586579994
 30
0.0
  0
VERTEX
  5
175A
  8
3
 10
34.54253480859998
 20
25.13051961899998
 30
0.0
  0
VERTEX
  5
175B
  8
3
 10
34.48319487559999
 20
24.81032968810007
 30
0.0
  0
VERTEX
  5
175C
  8
3
 10
34.19653014779996
 20
24.5224794976001
 30
0.0
  0
VERTEX
  5
175D
  8
3
 10
33.7212562851
 20
24.30584481070002
 30
0.0
  0
VERTEX
  5
175E
  8
3
 10
33.12156165619999
 20
24.18968334220006
 30
0.0
  0
VERTEX
  5
175F
  8
3
 10
32.47843834390002
 20
24.18968334220006
 30
0.0
  0
VERTEX
  5
1760
  8
3
 10
31.87874371500001
 20
24.30584481070002
 30
0.0
  0
VERTEX
  5
1761
  8
3
 10
31.40346985229999
 20
24.5224794976001
 30
0.0
  0
VERTEX
  5
1762
  8
3
 10
31.11680512450002
 20
24.81032968810007
 30
0.0
  0
VERTEX
  5
1763
  8
3
 10
31.05746519149997
 20
25.13051961899998
 30
0.0
  0
VERTEX
  5
1764
  8
3
 10
31.23346424019999
 20
25.43980586579994
 30
0.0
  0
VERTEX
  5
1765
  8
3
 10
31.62103262369996
 20
25.69641760699994
 30
0.0
  0
VERTEX
  5
1766
  8
3
 10
32.16782708419996
 20
25.86569800519999
 30
0.0
  0
VERTEX
  5
1767
  8
3
 10
32.79999999999998
 20
25.92478480450006
 30
0.0
  0
SEQEND
  5
1BA6
  8
3
  0
POLYLINE
  5
D66
  8
3
 66
     1
 10
0.0
 20
0.0
 30
0.0
  0
VERTEX
  5
1768
  8
3
 10
35.11673274350002
 20
25.54058975739997
 30
0.0
  0
VERTEX
  5
1769
  8
3
 10
34.99120577319999
 20
25.16446881140007
 30
0.0
  0
VERTEX
  5
176A
  8
3
 10
34.62822765730002
 20
24.82910640600005
 30
0.0
  0
VERTEX
  5
176B
  8
3
 10
34.06713270689997
 20
24.57084426150016
 30
0.0
  0
VERTEX
  5
176C
  8
3
 10
33.36872426609997
 20
24.41766908860006
 30
0.0
  0
VERTEX
  5
176D
  8
3
 10
32.6086857265
 20
24.38617979420007
 30
0.0
  0
VERTEX
  5
176E
  8
3
 10
31.86937905689999
 20
24.47978873170007
 30
0.0
  0
VERTEX
  5
176F
  8
3
 10
31.23091960650001
 20
24.68835192040012
 30
0.0
  0
VERTEX
  5
1770
  8
3
 10
30.76249436359998
 20
24.98926830259995
 30
0.0
  0
VERTEX
  5
1771
  8
3
 10
30.51486447160002
 20
25.34992891910008
 30
0.0
  0
VERTEX
  5
1772
  8
3
 10
30.51486447160002
 20
25.73125059580013
 30
0.0
  0
VERTEX
  5
1773
  8
3
 10
30.76249436359998
 20
26.09191121219999
 30
0.0
  0
VERTEX
  5
1774
  8
3
 10
31.23091960650001
 20
26.39282759440005
 30
0.0
  0
VERTEX
  5
1775
  8
3
 10
31.86937905689999
 20
26.60139078320015
 30
0.0
  0
VERTEX
  5
1776
  8
3
 10
32.6086857265
 20
26.69499972070014
 30
0.0
  0
VERTEX
  5
1777
  8
3
 10
33.36872426609997
 20
26.66351042620011
 30
0.0
  0
VERTEX
  5
1778
  8
3
 10
34.06713270689997
 20
26.51033525340006
 30
0.0
  0
VERTEX
  5
1779
  8
3
 10
34.62822765730002
 20
26.25207310889994
 30
0.0
  0
VERTEX
  5
177A
  8
3
 10
34.99120577319999
 20
25.91671070350014
 30
0.0
  0
VERTEX
  5
177B
  8
3
 10
35.11673274350002
 20
25.54058975739997
 30
0.0
  0
SEQEND
  5
1BA5
  8
3
  0
POLYLINE
  5
D67
  8
3
 66
     1
 10
0.0
 20
0.0
 30
0.0
  0
VERTEX
  5
177C
  8
3
 10
30.74499999999998
 20
25.69930384290012
 30
0.0
  0
VERTEX
  5
177D
  8
3
 10
30.86893166429999
 20
26.0507295402
 30
0.0
  0
VERTEX
  5
177E
  8
3
 10
31.2257786694
 20
26.35976811190005
 30
0.0
  0
VERTEX
  5
177F
  8
3
 10
31.77250000000001
 20
26.58914494530006
 30
0.0
  0
VERTEX
  5
1780
  8
3
 10
32.44315299489998
 20
26.71119380910011
 30
0.0
  0
VERTEX
  5
1781
  8
3
 10
33.15684700509999
 20
26.71119380910011
 30
0.0
  0
VERTEX
  5
1782
  8
3
 10
33.82749999999996
 20
26.58914494530006
 30
0.0
  0
VERTEX
  5
1783
  8
3
 10
34.37422133070001
 20
26.35976811190005
 30
0.0
  0
VERTEX
  5
1784
  8
3
 10
34.73106833580002
 20
26.0507295402
 30
0.0
  0
VERTEX
  5
1785
  8
3
 10
34.85499999999999
 20
25.69930384290012
 30
0.0
  0
VERTEX
  5
1786
  8
3
 10
34.73106833580002
 20
25.34787814570007
 30
0.0
  0
VERTEX
  5
1787
  8
3
 10
34.37422133070001
 20
25.03883957400001
 30
0.0
  0
VERTEX
  5
1788
  8
3
 10
33.82749999999996
 20
24.80946274049995
 30
0.0
  0
VERTEX
  5
1789
  8
3
 10
33.15684700509999
 20
24.68741387670013
 30
0.0
  0
VERTEX
  5
178A
  8
3
 10
32.44315299489998
 20
24.68741387670013
 30
0.0
  0
VERTEX
  5
178B
  8
3
 10
31.77250000000001
 20
24.80946274049995
 30
0.0
  0
VERTEX
  5
178C
  8
3
 10
31.2257786694
 20
25.03883957400001
 30
0.0
  0
VERTEX
  5
178D
  8
3
 10
30.86893166429999
 20
25.34787814570007
 30
0.0
  0
VERTEX
  5
178E
  8
3
 10
30.74499999999998
 20
25.69930384290012
 30
0.0
  0
SEQEND
  5
1BA4
  8
3
  0
POLYLINE
  5
D68
  8
3
 66
     1
 10
0.0
 20
0.0
 30
0.0
  0
VERTEX
  5
178F
  8
3
 10
30.29999999999998
 20
25.96915073759999
 30
0.0
  0
VERTEX
  5
1790
  8
3
 10
30.42235870930003
 20
26.35542198049995
 30
0.0
  0
VERTEX
  5
1791
  8
3
 10
30.77745751409995
 20
26.70388230290007
 30
0.0
  0
VERTEX
  5
1792
  8
3
 10
31.33053686929995
 20
26.98042198049995
 30
0.0
  0
VERTEX
  5
1793
  8
3
 10
32.02745751409995
 20
27.15797138289997
 30
0.0
  0
VERTEX
  5
1794
  8
3
 10
32.79999999999998
 20
27.21915073759999
 30
0.0
  0
VERTEX
  5
1795
  8
3
 10
33.57254248599995
 20
27.15797138289997
 30
0.0
  0
VERTEX
  5
1796
  8
3
 10
34.26946313079995
 20
26.98042198049995
 30
0.0
  0
VERTEX
  5
1797
  8
3
 10
34.82254248599995
 20
26.70388230290007
 30
0.0
  0
VERTEX
  5
1798
  8
3
 10
35.17764129079998
 20
26.35542198049995
 30
0.0
  0
VERTEX
  5
1799
  8
3
 10
35.29999999999998
 20
25.96915073759999
 30
0.0
  0
VERTEX
  5
179A
  8
3
 10
35.17764129079998
 20
25.58287949459998
 30
0.0
  0
VERTEX
  5
179B
  8
3
 10
34.82254248599995
 20
25.23441917220009
 30
0.0
  0
VERTEX
  5
179C
  8
3
 10
34.26946313079995
 20
24.95787949459998
 30
0.0
  0
VERTEX
  5
179D
  8
3
 10
33.57254248599995
 20
24.78033009219996
 30
0.0
  0
VERTEX
  5
179E
  8
3
 10
32.79999999999998
 20
24.71915073759999
 30
0.0
  0
VERTEX
  5
179F
  8
3
 10
32.02745751409995
 20
24.78033009219996
 30
0.0
  0
VERTEX
  5
17A0
  8
3
 10
31.33053686929995
 20
24.95787949459998
 30
0.0
  0
VERTEX
  5
17A1
  8
3
 10
30.77745751409995
 20
25.23441917220009
 30
0.0
  0
VERTEX
  5
17A2
  8
3
 10
30.42235870930003
 20
25.58287949459998
 30
0.0
  0
VERTEX
  5
17A3
  8
3
 10
30.29999999999998
 20
25.96915073759999
 30
0.0
  0
SEQEND
  5
1BA3
  8
3
  0
POLYLINE
  5
D69
  8
3
 66
     1
 10
0.0
 20
0.0
 30
0.0
  0
VERTEX
  5
17A4
  8
3
 10
30.29999999999998
 20
26.04719028889997
 30
0.0
  0
VERTEX
  5
17A5
  8
3
 10
30.42235870930003
 20
26.43346153189998
 30
0.0
  0
VERTEX
  5
17A6
  8
3
 10
30.77745751409995
 20
26.78192185430009
 30
0.0
  0
VERTEX
  5
17A7
  8
3
 10
31.33053686929995
 20
27.05846153189998
 30
0.0
  0
VERTEX
  5
17A8
  8
3
 10
32.02745751409995
 20
27.2360109343
 30
0.0
  0
VERTEX
  5
17A9
  8
3
 10
32.79999999999998
 20
27.29719028889997
 30
0.0
  0
VERTEX
  5
17AA
  8
3
 10
33.57254248599995
 20
27.2360109343
 30
0.0
  0
VERTEX
  5
17AB
  8
3
 10
34.26946313079995
 20
27.05846153189998
 30
0.0
  0
VERTEX
  5
17AC
  8
3
 10
34.82254248599995
 20
26.78192185430009
 30
0.0
  0
VERTEX
  5
17AD
  8
3
 10
35.17764129079998
 20
26.43346153189998
 30
0.0
  0
VERTEX
  5
17AE
  8
3
 10
35.29999999999998
 20
26.04719028889997
 30
0.0
  0
VERTEX
  5
17AF
  8
3
 10
35.17764129079998
 20
25.66091904589996
 30
0.0
  0
VERTEX
  5
17B0
  8
3
 10
34.82254248599995
 20
25.31245872350007
 30
0.0
  0
VERTEX
  5
17B1
  8
3
 10
34.26946313079995
 20
25.03591904589996
 30
0.0
  0
VERTEX
  5
17B2
  8
3
 10
33.57254248599995
 20
24.85836964349994
 30
0.0
  0
VERTEX
  5
17B3
  8
3
 10
32.79999999999998
 20
24.79719028889997
 30
0.0
  0
VERTEX
  5
17B4
  8
3
 10
32.02745751409995
 20
24.85836964349994
 30
0.0
  0
VERTEX
  5
17B5
  8
3
 10
31.33053686929995
 20
25.03591904589996
 30
0.0
  0
VERTEX
  5
17B6
  8
3
 10
30.77745751409995
 20
25.31245872350007
 30
0.0
  0
VERTEX
  5
17B7
  8
3
 10
30.42235870930003
 20
25.66091904589996
 30
0.0
  0
VERTEX
  5
17B8
  8
3
 10
30.29999999999998
 20
26.04719028889997
 30
0.0
  0
SEQEND
  5
1BA2
  8
3
  0
POLYLINE
  5
D6A
  8
3
 66
     1
 10
0.0
 20
0.0
 30
0.0
  0
VERTEX
  5
17B9
  8
3
 10
30.74500000010002
 20
26.31703718350002
 30
0.0
  0
VERTEX
  5
17BA
  8
3
 10
30.86893166429999
 20
26.66846288080012
 30
0.0
  0
VERTEX
  5
17BB
  8
3
 10
31.2257786694
 20
26.97750145249995
 30
0.0
  0
VERTEX
  5
17BC
  8
3
 10
31.7725000001
 20
27.20687828589996
 30
0.0
  0
VERTEX
  5
17BD
  8
3
 10
32.44315299489998
 20
27.32892714980005
 30
0.0
  0
VERTEX
  5
17BE
  8
3
 10
33.15684700519998
 20
27.32892714980005
 30
0.0
  0
VERTEX
  5
17BF
  8
3
 10
33.8275000001
 20
27.20687828589996
 30
0.0
  0
VERTEX
  5
17C0
  8
3
 10
34.37422133070001
 20
26.97750145249995
 30
0.0
  0
VERTEX
  5
17C1
  8
3
 10
34.73106833580002
 20
26.66846288080012
 30
0.0
  0
VERTEX
  5
17C2
  8
3
 10
34.85500000009998
 20
26.31703718350002
 30
0.0
  0
VERTEX
  5
17C3
  8
3
 10
34.73106833580002
 20
25.96561148629996
 30
0.0
  0
VERTEX
  5
17C4
  8
3
 10
34.37422133070001
 20
25.65657291460013
 30
0.0
  0
VERTEX
  5
17C5
  8
3
 10
33.8275000001
 20
25.42719608110008
 30
0.0
  0
VERTEX
  5
17C6
  8
3
 10
33.15684700519998
 20
25.30514721730003
 30
0.0
  0
VERTEX
  5
17C7
  8
3
 10
32.44315299489998
 20
25.30514721730003
 30
0.0
  0
VERTEX
  5
17C8
  8
3
 10
31.7725000001
 20
25.42719608110008
 30
0.0
  0
VERTEX
  5
17C9
  8
3
 10
31.2257786694
 20
25.65657291460013
 30
0.0
  0
VERTEX
  5
17CA
  8
3
 10
30.86893166429999
 20
25.96561148629996
 30
0.0
  0
VERTEX
  5
17CB
  8
3
 10
30.74500000010002
 20
26.31703718350002
 30
0.0
  0
SEQEND
  5
1BA1
  8
3
  0
POLYLINE
  5
D6B
  8
3
 66
     1
 10
0.0
 20
0.0
 30
0.0
  0
VERTEX
  5
17CC
  8
3
 10
30.29999999999998
 20
26.58688407820011
 30
0.0
  0
VERTEX
  5
17CD
  8
3
 10
30.42235870930003
 20
26.97315532110008
 30
0.0
  0
VERTEX
  5
17CE
  8
3
 10
30.77745751409995
 20
27.32161564349997
 30
0.0
  0
VERTEX
  5
17CF
  8
3
 10
31.33053686929995
 20
27.59815532110008
 30
0.0
  0
VERTEX
  5
17D0
  8
3
 10
32.02745751409995
 20
27.7757047235001
 30
0.0
  0
VERTEX
  5
17D1
  8
3
 10
32.79999999999998
 20
27.83688407820011
 30
0.0
  0
VERTEX
  5
17D2
  8
3
 10
33.57254248599995
 20
27.7757047235001
 30
0.0
  0
VERTEX
  5
17D3
  8
3
 10
34.26946313079995
 20
27.59815532110008
 30
0.0
  0
VERTEX
  5
17D4
  8
3
 10
34.82254248599995
 20
27.32161564349997
 30
0.0
  0
VERTEX
  5
17D5
  8
3
 10
35.17764129079998
 20
26.97315532110008
 30
0.0
  0
VERTEX
  5
17D6
  8
3
 10
35.29999999999998
 20
26.58688407820011
 30
0.0
  0
VERTEX
  5
17D7
  8
3
 10
35.17764129079998
 20
26.2006128352001
 30
0.0
  0
VERTEX
  5
17D8
  8
3
 10
34.82254248599995
 20
25.85215251279999
 30
0.0
  0
VERTEX
  5
17D9
  8
3
 10
34.26946313079995
 20
25.5756128352001
 30
0.0
  0
VERTEX
  5
17DA
  8
3
 10
33.57254248599995
 20
25.39806343280009
 30
0.0
  0
VERTEX
  5
17DB
  8
3
 10
32.79999999999998
 20
25.33688407820011
 30
0.0
  0
VERTEX
  5
17DC
  8
3
 10
32.02745751409995
 20
25.39806343280009
 30
0.0
  0
VERTEX
  5
17DD
  8
3
 10
31.33053686929995
 20
25.5756128352001
 30
0.0
  0
VERTEX
  5
17DE
  8
3
 10
30.77745751409995
 20
25.85215251279999
 30
0.0
  0
VERTEX
  5
17DF
  8
3
 10
30.42235870930003
 20
26.2006128352001
 30
0.0
  0
VERTEX
  5
17E0
  8
3
 10
30.29999999999998
 20
26.58688407820011
 30
0.0
  0
SEQEND
  5
1BA0
  8
3
  0
POLYLINE
  5
D6C
  8
3
 66
     1
 10
0.0
 20
0.0
 30
0.0
  0
VERTEX
  5
17E1
  8
3
 10
30.29999999999998
 20
26.66492362950009
 30
0.0
  0
VERTEX
  5
17E2
  8
3
 10
30.42235870930003
 20
27.0511948725001
 30
0.0
  0
VERTEX
  5
17E3
  8
3
 10
30.77745751409995
 20
27.39965519489999
 30
0.0
  0
VERTEX
  5
17E4
  8
3
 10
31.33053686929995
 20
27.6761948725001
 30
0.0
  0
VERTEX
  5
17E5
  8
3
 10
32.02745751409995
 20
27.85374427490012
 30
0.0
  0
VERTEX
  5
17E6
  8
3
 10
32.79999999999998
 20
27.91492362950009
 30
0.0
  0
VERTEX
  5
17E7
  8
3
 10
33.57254248599995
 20
27.85374427490012
 30
0.0
  0
VERTEX
  5
17E8
  8
3
 10
34.26946313079995
 20
27.6761948725001
 30
0.0
  0
VERTEX
  5
17E9
  8
3
 10
34.82254248599995
 20
27.39965519489999
 30
0.0
  0
VERTEX
  5
17EA
  8
3
 10
35.17764129079998
 20
27.0511948725001
 30
0.0
  0
VERTEX
  5
17EB
  8
3
 10
35.29999999999998
 20
26.66492362950009
 30
0.0
  0
VERTEX
  5
17EC
  8
3
 10
35.17764129079998
 20
26.27865238650008
 30
0.0
  0
VERTEX
  5
17ED
  8
3
 10
34.82254248599995
 20
25.93019206409997
 30
0.0
  0
VERTEX
  5
17EE
  8
3
 10
34.26946313079995
 20
25.65365238650008
 30
0.0
  0
VERTEX
  5
17EF
  8
3
 10
33.57254248599995
 20
25.47610298410007
 30
0.0
  0
VERTEX
  5
17F0
  8
3
 10
32.79999999999998
 20
25.41492362950009
 30
0.0
  0
VERTEX
  5
17F1
  8
3
 10
32.02745751409995
 20
25.47610298410007
 30
0.0
  0
VERTEX
  5
17F2
  8
3
 10
31.33053686929995
 20
25.65365238650008
 30
0.0
  0
VERTEX
  5
17F3
  8
3
 10
30.77745751409995
 20
25.93019206409997
 30
0.0
  0
VERTEX
  5
17F4
  8
3
 10
30.42235870930003
 20
26.27865238650008
 30
0.0
  0
VERTEX
  5
17F5
  8
3
 10
30.29999999999998
 20
26.66492362950009
 30
0.0
  0
SEQEND
  5
1B9F
  8
3
  0
POLYLINE
  5
D6D
  8
3
 66
     1
 10
0.0
 20
0.0
 30
0.0
  0
VERTEX
  5
17F6
  8
3
 10
30.74499999999998
 20
26.93477052410014
 30
0.0
  0
VERTEX
  5
17F7
  8
3
 10
30.86893166429999
 20
27.28619622140002
 30
0.0
  0
VERTEX
  5
17F8
  8
3
 10
31.2257786694
 20
27.59523479310008
 30
0.0
  0
VERTEX
  5
17F9
  8
3
 10
31.77250000000001
 20
27.82461162650009
 30
0.0
  0
VERTEX
  5
17FA
  8
3
 10
32.44315299489998
 20
27.94666049039995
 30
0.0
  0
VERTEX
  5
17FB
  8
3
 10
33.15684700519998
 20
27.94666049039995
 30
0.0
  0
VERTEX
  5
17FC
  8
3
 10
33.82749999999996
 20
27.82461162650009
 30
0.0
  0
VERTEX
  5
17FD
  8
3
 10
34.37422133070001
 20
27.59523479310008
 30
0.0
  0
VERTEX
  5
17FE
  8
3
 10
34.73106833580002
 20
27.28619622140002
 30
0.0
  0
VERTEX
  5
17FF
  8
3
 10
34.85499999999999
 20
26.93477052410014
 30
0.0
  0
VERTEX
  5
1800
  8
3
 10
34.73106833580002
 20
26.58334482690009
 30
0.0
  0
VERTEX
  5
1801
  8
3
 10
34.37422133070001
 20
26.27430625520003
 30
0.0
  0
VERTEX
  5
1802
  8
3
 10
33.82749999999996
 20
26.04492942169998
 30
0.0
  0
VERTEX
  5
1803
  8
3
 10
33.15684700519998
 20
25.92288055789993
 30
0.0
  0
VERTEX
  5
1804
  8
3
 10
32.44315299489998
 20
25.92288055789993
 30
0.0
  0
VERTEX
  5
1805
  8
3
 10
31.77250000000001
 20
26.04492942169998
 30
0.0
  0
VERTEX
  5
1806
  8
3
 10
31.2257786694
 20
26.27430625520003
 30
0.0
  0
VERTEX
  5
1807
  8
3
 10
30.86893166429999
 20
26.58334482690009
 30
0.0
  0
VERTEX
  5
1808
  8
3
 10
30.74499999999998
 20
26.93477052410014
 30
0.0
  0
SEQEND
  5
1B9E
  8
3
  0
POLYLINE
  5
D6E
  8
3
 66
     1
 10
0.0
 20
0.0
 30
0.0
  0
VERTEX
  5
1809
  8
3
 10
30.29999999999998
 20
27.20461741880001
 30
0.0
  0
VERTEX
  5
180A
  8
3
 10
30.42235870930003
 20
27.59088866169998
 30
0.0
  0
VERTEX
  5
180B
  8
3
 10
30.77745751409995
 20
27.93934898410009
 30
0.0
  0
VERTEX
  5
180C
  8
3
 10
31.33053686929995
 20
28.21588866169998
 30
0.0
  0
VERTEX
  5
180D
  8
3
 10
32.02745751409995
 20
28.3934380641
 30
0.0
  0
VERTEX
  5
180E
  8
3
 10
32.79999999999998
 20
28.45461741880001
 30
0.0
  0
VERTEX
  5
180F
  8
3
 10
33.57254248599995
 20
28.3934380641
 30
0.0
  0
VERTEX
  5
1810
  8
3
 10
34.26946313079995
 20
28.21588866169998
 30
0.0
  0
VERTEX
  5
1811
  8
3
 10
34.82254248599995
 20
27.93934898410009
 30
0.0
  0
VERTEX
  5
1812
  8
3
 10
35.17764129079998
 20
27.59088866169998
 30
0.0
  0
VERTEX
  5
1813
  8
3
 10
35.29999999999998
 20
27.20461741880001
 30
0.0
  0
VERTEX
  5
1814
  8
3
 10
35.17764129079998
 20
26.8183461758
 30
0.0
  0
VERTEX
  5
1815
  8
3
 10
34.82254248599995
 20
26.46988585340011
 30
0.0
  0
VERTEX
  5
1816
  8
3
 10
34.26946313079995
 20
26.1933461758
 30
0.0
  0
VERTEX
  5
1817
  8
3
 10
33.57254248599995
 20
26.01579677339998
 30
0.0
  0
VERTEX
  5
1818
  8
3
 10
32.79999999999998
 20
25.95461741880001
 30
0.0
  0
VERTEX
  5
1819
  8
3
 10
32.02745751409995
 20
26.01579677339998
 30
0.0
  0
VERTEX
  5
181A
  8
3
 10
31.33053686929995
 20
26.1933461758
 30
0.0
  0
VERTEX
  5
181B
  8
3
 10
30.77745751409995
 20
26.46988585340011
 30
0.0
  0
VERTEX
  5
181C
  8
3
 10
30.42235870930003
 20
26.8183461758
 30
0.0
  0
VERTEX
  5
181D
  8
3
 10
30.29999999999998
 20
27.20461741880001
 30
0.0
  0
SEQEND
  5
1B9D
  8
3
  0
POLYLINE
  5
D6F
  8
3
 66
     1
 10
0.0
 20
0.0
 30
0.0
  0
VERTEX
  5
181E
  8
3
 10
30.29999999999998
 20
27.28265697009999
 30
0.0
  0
VERTEX
  5
181F
  8
3
 10
30.42235870930003
 20
27.6689282131
 30
0.0
  0
VERTEX
  5
1820
  8
3
 10
30.77745751409995
 20
28.01738853550012
 30
0.0
  0
VERTEX
  5
1821
  8
3
 10
31.33053686929995
 20
28.2939282131
 30
0.0
  0
VERTEX
  5
1822
  8
3
 10
32.02745751409995
 20
28.47147761550002
 30
0.0
  0
VERTEX
  5
1823
  8
3
 10
32.79999999999998
 20
28.53265697009999
 30
0.0
  0
VERTEX
  5
1824
  8
3
 10
33.57254248599995
 20
28.47147761550002
 30
0.0
  0
VERTEX
  5
1825
  8
3
 10
34.26946313079995
 20
28.2939282131
 30
0.0
  0
VERTEX
  5
1826
  8
3
 10
34.82254248599995
 20
28.01738853550012
 30
0.0
  0
VERTEX
  5
1827
  8
3
 10
35.17764129079998
 20
27.6689282131
 30
0.0
  0
VERTEX
  5
1828
  8
3
 10
35.29999999999998
 20
27.28265697009999
 30
0.0
  0
VERTEX
  5
1829
  8
3
 10
35.17764129079998
 20
26.89638572709998
 30
0.0
  0
VERTEX
  5
182A
  8
3
 10
34.82254248599995
 20
26.54792540470009
 30
0.0
  0
VERTEX
  5
182B
  8
3
 10
34.26946313079995
 20
26.27138572709998
 30
0.0
  0
VERTEX
  5
182C
  8
3
 10
33.57254248599995
 20
26.09383632469996
 30
0.0
  0
VERTEX
  5
182D
  8
3
 10
32.79999999999998
 20
26.03265697009999
 30
0.0
  0
VERTEX
  5
182E
  8
3
 10
32.02745751409995
 20
26.09383632469996
 30
0.0
  0
VERTEX
  5
182F
  8
3
 10
31.33053686929995
 20
26.27138572709998
 30
0.0
  0
VERTEX
  5
1830
  8
3
 10
30.77745751409995
 20
26.54792540470009
 30
0.0
  0
VERTEX
  5
1831
  8
3
 10
30.42235870930003
 20
26.89638572709998
 30
0.0
  0
VERTEX
  5
1832
  8
3
 10
30.29999999999998
 20
27.28265697009999
 30
0.0
  0
SEQEND
  5
1B9C
  8
3
  0
POLYLINE
  5
D70
  8
3
 66
     1
 10
0.0
 20
0.0
 30
0.0
  0
VERTEX
  5
1833
  8
3
 10
30.74499999999998
 20
27.55250386470004
 30
0.0
  0
VERTEX
  5
1834
  8
3
 10
30.86893166429999
 20
27.90392956200014
 30
0.0
  0
VERTEX
  5
1835
  8
3
 10
31.2257786694
 20
28.21296813369997
 30
0.0
  0
VERTEX
  5
1836
  8
3
 10
31.77250000000001
 20
28.44234496709998
 30
0.0
  0
VERTEX
  5
1837
  8
3
 10
32.44315299489998
 20
28.56439383100007
 30
0.0
  0
VERTEX
  5
1838
  8
3
 10
33.15684700509999
 20
28.56439383100007
 30
0.0
  0
VERTEX
  5
1839
  8
3
 10
33.82749999999996
 20
28.44234496709998
 30
0.0
  0
VERTEX
  5
183A
  8
3
 10
34.37422133070001
 20
28.21296813369997
 30
0.0
  0
VERTEX
  5
183B
  8
3
 10
34.73106833580002
 20
27.90392956200014
 30
0.0
  0
VERTEX
  5
183C
  8
3
 10
34.85499999999999
 20
27.55250386470004
 30
0.0
  0
VERTEX
  5
183D
  8
3
 10
34.73106833580002
 20
27.20107816749999
 30
0.0
  0
VERTEX
  5
183E
  8
3
 10
34.37422133070001
 20
26.89203959579993
 30
0.0
  0
VERTEX
  5
183F
  8
3
 10
33.82749999999996
 20
26.66266276240015
 30
0.0
  0
VERTEX
  5
1840
  8
3
 10
33.15684700509999
 20
26.54061389850006
 30
0.0
  0
VERTEX
  5
1841
  8
3
 10
32.44315299489998
 20
26.54061389850006
 30
0.0
  0
VERTEX
  5
1842
  8
3
 10
31.77250000000001
 20
26.66266276240015
 30
0.0
  0
VERTEX
  5
1843
  8
3
 10
31.2257786694
 20
26.89203959579993
 30
0.0
  0
VERTEX
  5
1844
  8
3
 10
30.86893166429999
 20
27.20107816749999
 30
0.0
  0
VERTEX
  5
1845
  8
3
 10
30.74499999999998
 20
27.55250386470004
 30
0.0
  0
SEQEND
  5
1B9B
  8
3
  0
POLYLINE
  5
D71
  8
3
 66
     1
 10
0.0
 20
0.0
 30
0.0
  0
VERTEX
  5
1846
  8
3
 10
30.29999999999998
 20
27.82235075940014
 30
0.0
  0
VERTEX
  5
1847
  8
3
 10
30.42235870930003
 20
28.2086220023001
 30
0.0
  0
VERTEX
  5
1848
  8
3
 10
30.77745751409995
 20
28.55708232469999
 30
0.0
  0
VERTEX
  5
1849
  8
3
 10
31.33053686929995
 20
28.8336220023001
 30
0.0
  0
VERTEX
  5
184A
  8
3
 10
32.02745751409995
 20
29.01117140470012
 30
0.0
  0
VERTEX
  5
184B
  8
3
 10
32.79999999999998
 20
29.07235075940014
 30
0.0
  0
VERTEX
  5
184C
  8
3
 10
33.57254248599995
 20
29.01117140470012
 30
0.0
  0
VERTEX
  5
184D
  8
3
 10
34.26946313079995
 20
28.8336220023001
 30
0.0
  0
VERTEX
  5
184E
  8
3
 10
34.82254248599995
 20
28.55708232469999
 30
0.0
  0
VERTEX
  5
184F
  8
3
 10
35.17764129079998
 20
28.2086220023001
 30
0.0
  0
VERTEX
  5
1850
  8
3
 10
35.29999999999998
 20
27.82235075940014
 30
0.0
  0
VERTEX
  5
1851
  8
3
 10
35.17764129079998
 20
27.43607951640013
 30
0.0
  0
VERTEX
  5
1852
  8
3
 10
34.82254248599995
 20
27.08761919400001
 30
0.0
  0
VERTEX
  5
1853
  8
3
 10
34.26946313079995
 20
26.81107951640013
 30
0.0
  0
VERTEX
  5
1854
  8
3
 10
33.57254248599995
 20
26.63353011400011
 30
0.0
  0
VERTEX
  5
1855
  8
3
 10
32.79999999999998
 20
26.57235075940014
 30
0.0
  0
VERTEX
  5
1856
  8
3
 10
32.02745751409995
 20
26.63353011400011
 30
0.0
  0
VERTEX
  5
1857
  8
3
 10
31.33053686929995
 20
26.81107951640013
 30
0.0
  0
VERTEX
  5
1858
  8
3
 10
30.77745751409995
 20
27.08761919400001
 30
0.0
  0
VERTEX
  5
1859
  8
3
 10
30.42235870930003
 20
27.43607951640013
 30
0.0
  0
VERTEX
  5
185A
  8
3
 10
30.29999999999998
 20
27.82235075940014
 30
0.0
  0
SEQEND
  5
1B9A
  8
3
  0
POLYLINE
  5
D72
  8
3
 66
     1
 10
0.0
 20
0.0
 30
0.0
  0
VERTEX
  5
185B
  8
3
 10
30.29999999999998
 20
27.90039031070012
 30
0.0
  0
VERTEX
  5
185C
  8
3
 10
30.42235870930003
 20
28.28666155370013
 30
0.0
  0
VERTEX
  5
185D
  8
3
 10
30.77745751409995
 20
28.63512187610002
 30
0.0
  0
VERTEX
  5
185E
  8
3
 10
31.33053686929995
 20
28.91166155370013
 30
0.0
  0
VERTEX
  5
185F
  8
3
 10
32.02745751409995
 20
29.08921095610015
 30
0.0
  0
VERTEX
  5
1860
  8
3
 10
32.79999999999998
 20
29.15039031070012
 30
0.0
  0
VERTEX
  5
1861
  8
3
 10
33.57254248599995
 20
29.08921095610015
 30
0.0
  0
VERTEX
  5
1862
  8
3
 10
34.26946313079995
 20
28.91166155370013
 30
0.0
  0
VERTEX
  5
1863
  8
3
 10
34.82254248599995
 20
28.63512187610002
 30
0.0
  0
VERTEX
  5
1864
  8
3
 10
35.17764129079998
 20
28.28666155370013
 30
0.0
  0
VERTEX
  5
1865
  8
3
 10
35.29999999999998
 20
27.90039031070012
 30
0.0
  0
VERTEX
  5
1866
  8
3
 10
35.17764129079998
 20
27.51411906780015
 30
0.0
  0
VERTEX
  5
1867
  8
3
 10
34.82254248599995
 20
27.16565874540004
 30
0.0
  0
VERTEX
  5
1868
  8
3
 10
34.26946313079995
 20
26.88911906780015
 30
0.0
  0
VERTEX
  5
1869
  8
3
 10
33.57254248599995
 20
26.71156966540013
 30
0.0
  0
VERTEX
  5
186A
  8
3
 10
32.79999999999998
 20
26.65039031070012
 30
0.0
  0
VERTEX
  5
186B
  8
3
 10
32.02745751409995
 20
26.71156966540013
 30
0.0
  0
VERTEX
  5
186C
  8
3
 10
31.33053686929995
 20
26.88911906780015
 30
0.0
  0
VERTEX
  5
186D
  8
3
 10
30.77745751409995
 20
27.16565874540004
 30
0.0
  0
VERTEX
  5
186E
  8
3
 10
30.42235870930003
 20
27.51411906780015
 30
0.0
  0
VERTEX
  5
186F
  8
3
 10
30.29999999999998
 20
27.90039031070012
 30
0.0
  0
SEQEND
  5
1B99
  8
3
  0
POLYLINE
  5
D73
  8
3
 66
     1
 10
0.0
 20
0.0
 30
0.0
  0
VERTEX
  5
1870
  8
3
 10
30.74499999999998
 20
28.17023720529994
 30
0.0
  0
VERTEX
  5
1871
  8
3
 10
30.86893166429999
 20
28.52166290260004
 30
0.0
  0
VERTEX
  5
1872
  8
3
 10
31.2257786694
 20
28.8307014743001
 30
0.0
  0
VERTEX
  5
1873
  8
3
 10
31.77250000000001
 20
29.06007830770011
 30
0.0
  0
VERTEX
  5
1874
  8
3
 10
32.44315299489998
 20
29.18212717159997
 30
0.0
  0
VERTEX
  5
1875
  8
3
 10
33.15684700509999
 20
29.18212717159997
 30
0.0
  0
VERTEX
  5
1876
  8
3
 10
33.82749999999996
 20
29.06007830770011
 30
0.0
  0
VERTEX
  5
1877
  8
3
 10
34.37422133059997
 20
28.8307014743001
 30
0.0
  0
VERTEX
  5
1878
  8
3
 10
34.73106833580002
 20
28.52166290260004
 30
0.0
  0
VERTEX
  5
1879
  8
3
 10
34.85499999999999
 20
28.17023720529994
 30
0.0
  0
VERTEX
  5
187A
  8
3
 10
34.73106833580002
 20
27.81881150810011
 30
0.0
  0
VERTEX
  5
187B
  8
3
 10
34.37422133059997
 20
27.50977293640005
 30
0.0
  0
VERTEX
  5
187C
  8
3
 10
33.82749999999996
 20
27.28039610300004
 30
0.0
  0
VERTEX
  5
187D
  8
3
 10
33.15684700509999
 20
27.15834723909995
 30
0.0
  0
VERTEX
  5
187E
  8
3
 10
32.44315299489998
 20
27.15834723909995
 30
0.0
  0
VERTEX
  5
187F
  8
3
 10
31.77250000000001
 20
27.28039610300004
 30
0.0
  0
VERTEX
  5
1880
  8
3
 10
31.2257786694
 20
27.50977293640005
 30
0.0
  0
VERTEX
  5
1881
  8
3
 10
30.86893166429999
 20
27.81881150810011
 30
0.0
  0
VERTEX
  5
1882
  8
3
 10
30.74499999999998
 20
28.17023720529994
 30
0.0
  0
SEQEND
  5
1B98
  8
3
  0
POLYLINE
  5
D74
  8
3
 66
     1
 10
0.0
 20
0.0
 30
0.0
  0
VERTEX
  5
1883
  8
3
 10
30.29999999999998
 20
28.44008410000004
 30
0.0
  0
VERTEX
  5
1884
  8
3
 10
30.42235870930003
 20
28.8263553429
 30
0.0
  0
VERTEX
  5
1885
  8
3
 10
30.77745751409995
 20
29.17481566530012
 30
0.0
  0
VERTEX
  5
1886
  8
3
 10
31.33053686929995
 20
29.4513553429
 30
0.0
  0
VERTEX
  5
1887
  8
3
 10
32.02745751409995
 20
29.62890474530002
 30
0.0
  0
VERTEX
  5
1888
  8
3
 10
32.79999999999998
 20
29.69008410000004
 30
0.0
  0
VERTEX
  5
1889
  8
3
 10
33.57254248599995
 20
29.62890474530002
 30
0.0
  0
VERTEX
  5
188A
  8
3
 10
34.26946313079995
 20
29.4513553429
 30
0.0
  0
VERTEX
  5
188B
  8
3
 10
34.82254248599995
 20
29.17481566530012
 30
0.0
  0
VERTEX
  5
188C
  8
3
 10
35.17764129079998
 20
28.8263553429
 30
0.0
  0
VERTEX
  5
188D
  8
3
 10
35.29999999999998
 20
28.44008410000004
 30
0.0
  0
VERTEX
  5
188E
  8
3
 10
35.17764129079998
 20
28.05381285700003
 30
0.0
  0
VERTEX
  5
188F
  8
3
 10
34.82254248599995
 20
27.70535253460014
 30
0.0
  0
VERTEX
  5
1890
  8
3
 10
34.26946313079995
 20
27.42881285700003
 30
0.0
  0
VERTEX
  5
1891
  8
3
 10
33.57254248599995
 20
27.25126345460001
 30
0.0
  0
VERTEX
  5
1892
  8
3
 10
32.79999999999998
 20
27.19008410000004
 30
0.0
  0
VERTEX
  5
1893
  8
3
 10
32.02745751409995
 20
27.25126345460001
 30
0.0
  0
VERTEX
  5
1894
  8
3
 10
31.33053686929995
 20
27.42881285700003
 30
0.0
  0
VERTEX
  5
1895
  8
3
 10
30.77745751409995
 20
27.70535253460014
 30
0.0
  0
VERTEX
  5
1896
  8
3
 10
30.42235870930003
 20
28.05381285700003
 30
0.0
  0
VERTEX
  5
1897
  8
3
 10
30.29999999999998
 20
28.44008410000004
 30
0.0
  0
SEQEND
  5
1B97
  8
3
  0
POLYLINE
  5
D75
  8
3
 66
     1
 10
0.0
 20
0.0
 30
0.0
  0
VERTEX
  5
1898
  8
3
 10
30.29999999999998
 20
28.51812365130002
 30
0.0
  0
VERTEX
  5
1899
  8
3
 10
30.42235870930003
 20
28.90439489430003
 30
0.0
  0
VERTEX
  5
189A
  8
3
 10
30.77745751409995
 20
29.25285521670014
 30
0.0
  0
VERTEX
  5
189B
  8
3
 10
31.33053686929995
 20
29.52939489430003
 30
0.0
  0
VERTEX
  5
189C
  8
3
 10
32.02745751409995
 20
29.70694429670004
 30
0.0
  0
VERTEX
  5
189D
  8
3
 10
32.79999999999998
 20
29.76812365130002
 30
0.0
  0
VERTEX
  5
189E
  8
3
 10
33.57254248599995
 20
29.70694429670004
 30
0.0
  0
VERTEX
  5
189F
  8
3
 10
34.26946313079995
 20
29.52939489430003
 30
0.0
  0
VERTEX
  5
18A0
  8
3
 10
34.82254248599995
 20
29.25285521670014
 30
0.0
  0
VERTEX
  5
18A1
  8
3
 10
35.17764129079998
 20
28.90439489430003
 30
0.0
  0
VERTEX
  5
18A2
  8
3
 10
35.29999999999998
 20
28.51812365130002
 30
0.0
  0
VERTEX
  5
18A3
  8
3
 10
35.17764129079998
 20
28.13185240840005
 30
0.0
  0
VERTEX
  5
18A4
  8
3
 10
34.82254248599995
 20
27.78339208599994
 30
0.0
  0
VERTEX
  5
18A5
  8
3
 10
34.26946313079995
 20
27.50685240840005
 30
0.0
  0
VERTEX
  5
18A6
  8
3
 10
33.57254248599995
 20
27.32930300600003
 30
0.0
  0
VERTEX
  5
18A7
  8
3
 10
32.79999999999998
 20
27.26812365130002
 30
0.0
  0
VERTEX
  5
18A8
  8
3
 10
32.02745751409995
 20
27.32930300600003
 30
0.0
  0
VERTEX
  5
18A9
  8
3
 10
31.33053686929995
 20
27.50685240840005
 30
0.0
  0
VERTEX
  5
18AA
  8
3
 10
30.77745751409995
 20
27.78339208599994
 30
0.0
  0
VERTEX
  5
18AB
  8
3
 10
30.42235870930003
 20
28.13185240840005
 30
0.0
  0
VERTEX
  5
18AC
  8
3
 10
30.29999999999998
 20
28.51812365130002
 30
0.0
  0
SEQEND
  5
1B96
  8
3
  0
POLYLINE
  5
D76
  8
3
 66
     1
 10
0.0
 20
0.0
 30
0.0
  0
VERTEX
  5
18AD
  8
3
 10
30.74499999999998
 20
28.78797054590007
 30
0.0
  0
VERTEX
  5
18AE
  8
3
 10
30.86893166429999
 20
29.13939624319994
 30
0.0
  0
VERTEX
  5
18AF
  8
3
 10
31.2257786694
 20
29.4484348149
 30
0.0
  0
VERTEX
  5
18B0
  8
3
 10
31.77250000000001
 20
29.67781164830001
 30
0.0
  0
VERTEX
  5
18B1
  8
3
 10
32.44315299489998
 20
29.7998605122001
 30
0.0
  0
VERTEX
  5
18B2
  8
3
 10
33.15684700509999
 20
29.7998605122001
 30
0.0
  0
VERTEX
  5
18B3
  8
3
 10
33.82749999999996
 20
29.67781164830001
 30
0.0
  0
VERTEX
  5
18B4
  8
3
 10
34.37422133059997
 20
29.4484348149
 30
0.0
  0
VERTEX
  5
18B5
  8
3
 10
34.73106833580002
 20
29.13939624319994
 30
0.0
  0
VERTEX
  5
18B6
  8
3
 10
34.85499999999999
 20
28.78797054590007
 30
0.0
  0
VERTEX
  5
18B7
  8
3
 10
34.73106833580002
 20
28.43654484870001
 30
0.0
  0
VERTEX
  5
18B8
  8
3
 10
34.37422133059997
 20
28.12750627699995
 30
0.0
  0
VERTEX
  5
18B9
  8
3
 10
33.82749999999996
 20
27.89812944359994
 30
0.0
  0
VERTEX
  5
18BA
  8
3
 10
33.15684700509999
 20
27.77608057970008
 30
0.0
  0
VERTEX
  5
18BB
  8
3
 10
32.44315299489998
 20
27.77608057970008
 30
0.0
  0
VERTEX
  5
18BC
  8
3
 10
31.77250000000001
 20
27.89812944359994
 30
0.0
  0
VERTEX
  5
18BD
  8
3
 10
31.2257786694
 20
28.12750627699995
 30
0.0
  0
VERTEX
  5
18BE
  8
3
 10
30.86893166429999
 20
28.43654484870001
 30
0.0
  0
VERTEX
  5
18BF
  8
3
 10
30.74499999999998
 20
28.78797054590007
 30
0.0
  0
SEQEND
  5
1B95
  8
3
  0
POLYLINE
  5
D77
  8
3
 66
     1
 10
0.0
 20
0.0
 30
0.0
  0
VERTEX
  5
18C0
  8
3
 10
30.29999999999998
 20
29.05781744059993
 30
0.0
  0
VERTEX
  5
18C1
  8
3
 10
30.42235870930003
 20
29.44408868350013
 30
0.0
  0
VERTEX
  5
18C2
  8
3
 10
30.77745751409995
 20
29.79254900590001
 30
0.0
  0
VERTEX
  5
18C3
  8
3
 10
31.33053686929995
 20
30.06908868350013
 30
0.0
  0
VERTEX
  5
18C4
  8
3
 10
32.02745751409995
 20
30.24663808590014
 30
0.0
  0
VERTEX
  5
18C5
  8
3
 10
32.79999999999998
 20
30.30781744059993
 30
0.0
  0
VERTEX
  5
18C6
  8
3
 10
33.57254248599995
 20
30.24663808590014
 30
0.0
  0
VERTEX
  5
18C7
  8
3
 10
34.26946313079995
 20
30.06908868350013
 30
0.0
  0
VERTEX
  5
18C8
  8
3
 10
34.82254248599995
 20
29.79254900590001
 30
0.0
  0
VERTEX
  5
18C9
  8
3
 10
35.17764129079998
 20
29.44408868350013
 30
0.0
  0
VERTEX
  5
18CA
  8
3
 10
35.29999999999998
 20
29.05781744059993
 30
0.0
  0
VERTEX
  5
18CB
  8
3
 10
35.17764129079998
 20
28.67154619760015
 30
0.0
  0
VERTEX
  5
18CC
  8
3
 10
34.82254248599995
 20
28.32308587520004
 30
0.0
  0
VERTEX
  5
18CD
  8
3
 10
34.26946313079995
 20
28.04654619760015
 30
0.0
  0
VERTEX
  5
18CE
  8
3
 10
33.57254248599995
 20
27.86899679520013
 30
0.0
  0
VERTEX
  5
18CF
  8
3
 10
32.79999999999998
 20
27.80781744059993
 30
0.0
  0
VERTEX
  5
18D0
  8
3
 10
32.02745751409995
 20
27.86899679520013
 30
0.0
  0
VERTEX
  5
18D1
  8
3
 10
31.33053686929995
 20
28.04654619760015
 30
0.0
  0
VERTEX
  5
18D2
  8
3
 10
30.77745751409995
 20
28.32308587520004
 30
0.0
  0
VERTEX
  5
18D3
  8
3
 10
30.42235870930003
 20
28.67154619760015
 30
0.0
  0
VERTEX
  5
18D4
  8
3
 10
30.29999999999998
 20
29.05781744059993
 30
0.0
  0
SEQEND
  5
1B94
  8
3
  0
POLYLINE
  5
D78
  8
3
 66
     1
 10
0.0
 20
0.0
 30
0.0
  0
VERTEX
  5
18D5
  8
3
 10
30.29999999999998
 20
29.13585699190014
 30
0.0
  0
VERTEX
  5
18D6
  8
3
 10
30.42235870930003
 20
29.52212823490015
 30
0.0
  0
VERTEX
  5
18D7
  8
3
 10
30.77745751409995
 20
29.87058855730004
 30
0.0
  0
VERTEX
  5
18D8
  8
3
 10
31.33053686929995
 20
30.14712823490015
 30
0.0
  0
VERTEX
  5
18D9
  8
3
 10
32.02745751409995
 20
30.32467763729994
 30
0.0
  0
VERTEX
  5
18DA
  8
3
 10
32.79999999999998
 20
30.38585699190014
 30
0.0
  0
VERTEX
  5
18DB
  8
3
 10
33.57254248599995
 20
30.32467763729994
 30
0.0
  0
VERTEX
  5
18DC
  8
3
 10
34.26946313079995
 20
30.14712823490015
 30
0.0
  0
VERTEX
  5
18DD
  8
3
 10
34.82254248599995
 20
29.87058855730004
 30
0.0
  0
VERTEX
  5
18DE
  8
3
 10
35.17764129079998
 20
29.52212823490015
 30
0.0
  0
VERTEX
  5
18DF
  8
3
 10
35.29999999999998
 20
29.13585699190014
 30
0.0
  0
VERTEX
  5
18E0
  8
3
 10
35.17764129079998
 20
28.74958574899995
 30
0.0
  0
VERTEX
  5
18E1
  8
3
 10
34.82254248599995
 20
28.40112542660006
 30
0.0
  0
VERTEX
  5
18E2
  8
3
 10
34.26946313079995
 20
28.12458574899995
 30
0.0
  0
VERTEX
  5
18E3
  8
3
 10
33.57254248599995
 20
27.94703634659993
 30
0.0
  0
VERTEX
  5
18E4
  8
3
 10
32.79999999999998
 20
27.88585699190014
 30
0.0
  0
VERTEX
  5
18E5
  8
3
 10
32.02745751409995
 20
27.94703634659993
 30
0.0
  0
VERTEX
  5
18E6
  8
3
 10
31.33053686929995
 20
28.12458574899995
 30
0.0
  0
VERTEX
  5
18E7
  8
3
 10
30.77745751409995
 20
28.40112542660006
 30
0.0
  0
VERTEX
  5
18E8
  8
3
 10
30.42235870930003
 20
28.74958574899995
 30
0.0
  0
VERTEX
  5
18E9
  8
3
 10
30.29999999999998
 20
29.13585699190014
 30
0.0
  0
SEQEND
  5
1B93
  8
3
  0
POLYLINE
  5
D79
  8
3
 66
     1
 10
0.0
 20
0.0
 30
0.0
  0
VERTEX
  5
18EA
  8
3
 10
30.74499999999998
 20
29.40570388660001
 30
0.0
  0
VERTEX
  5
18EB
  8
3
 10
30.86893166429999
 20
29.75712958380007
 30
0.0
  0
VERTEX
  5
18EC
  8
3
 10
31.2257786694
 20
30.06616815550012
 30
0.0
  0
VERTEX
  5
18ED
  8
3
 10
31.77250000000001
 20
30.29554498890013
 30
0.0
  0
VERTEX
  5
18EE
  8
3
 10
32.44315299489998
 20
30.4175938528
 30
0.0
  0
VERTEX
  5
18EF
  8
3
 10
33.15684700509999
 20
30.4175938528
 30
0.0
  0
VERTEX
  5
18F0
  8
3
 10
33.82749999999996
 20
30.29554498890013
 30
0.0
  0
VERTEX
  5
18F1
  8
3
 10
34.37422133059997
 20
30.06616815550012
 30
0.0
  0
VERTEX
  5
18F2
  8
3
 10
34.73106833569997
 20
29.75712958380007
 30
0.0
  0
VERTEX
  5
18F3
  8
3
 10
34.85499999999999
 20
29.40570388660001
 30
0.0
  0
VERTEX
  5
18F4
  8
3
 10
34.73106833569997
 20
29.05427818930013
 30
0.0
  0
VERTEX
  5
18F5
  8
3
 10
34.37422133059997
 20
28.74523961760008
 30
0.0
  0
VERTEX
  5
18F6
  8
3
 10
33.82749999999996
 20
28.51586278420007
 30
0.0
  0
VERTEX
  5
18F7
  8
3
 10
33.15684700509999
 20
28.39381392029998
 30
0.0
  0
VERTEX
  5
18F8
  8
3
 10
32.44315299489998
 20
28.39381392029998
 30
0.0
  0
VERTEX
  5
18F9
  8
3
 10
31.77250000000001
 20
28.51586278420007
 30
0.0
  0
VERTEX
  5
18FA
  8
3
 10
31.2257786694
 20
28.74523961760008
 30
0.0
  0
VERTEX
  5
18FB
  8
3
 10
30.86893166429999
 20
29.05427818930013
 30
0.0
  0
VERTEX
  5
18FC
  8
3
 10
30.74499999999998
 20
29.40570388660001
 30
0.0
  0
SEQEND
  5
1B92
  8
3
  0
POLYLINE
  5
D7A
  8
3
 66
     1
 10
0.0
 20
0.0
 30
0.0
  0
VERTEX
  5
18FD
  8
3
 10
30.29999999999998
 20
29.67555078120006
 30
0.0
  0
VERTEX
  5
18FE
  8
3
 10
30.42235870930003
 20
30.06182202410002
 30
0.0
  0
VERTEX
  5
18FF
  8
3
 10
30.77745751409995
 20
30.41028234650014
 30
0.0
  0
VERTEX
  5
1900
  8
3
 10
31.33053686929995
 20
30.68682202410002
 30
0.0
  0
VERTEX
  5
1901
  8
3
 10
32.02745751409995
 20
30.86437142650004
 30
0.0
  0
VERTEX
  5
1902
  8
3
 10
32.79999999999998
 20
30.92555078120006
 30
0.0
  0
VERTEX
  5
1903
  8
3
 10
33.57254248599995
 20
30.86437142650004
 30
0.0
  0
VERTEX
  5
1904
  8
3
 10
34.26946313079995
 20
30.68682202410002
 30
0.0
  0
VERTEX
  5
1905
  8
3
 10
34.82254248599995
 20
30.41028234650014
 30
0.0
  0
VERTEX
  5
1906
  8
3
 10
35.17764129079998
 20
30.06182202410002
 30
0.0
  0
VERTEX
  5
1907
  8
3
 10
35.29999999999998
 20
29.67555078120006
 30
0.0
  0
VERTEX
  5
1908
  8
3
 10
35.17764129079998
 20
29.28927953820005
 30
0.0
  0
VERTEX
  5
1909
  8
3
 10
34.82254248599995
 20
28.94081921579993
 30
0.0
  0
VERTEX
  5
190A
  8
3
 10
34.26946313079995
 20
28.66427953820005
 30
0.0
  0
VERTEX
  5
190B
  8
3
 10
33.57254248599995
 20
28.48673013580003
 30
0.0
  0
VERTEX
  5
190C
  8
3
 10
32.79999999999998
 20
28.42555078120006
 30
0.0
  0
VERTEX
  5
190D
  8
3
 10
32.02745751409995
 20
28.48673013580003
 30
0.0
  0
VERTEX
  5
190E
  8
3
 10
31.33053686929995
 20
28.66427953820005
 30
0.0
  0
VERTEX
  5
190F
  8
3
 10
30.77745751409995
 20
28.94081921579993
 30
0.0
  0
VERTEX
  5
1910
  8
3
 10
30.42235870930003
 20
29.28927953820005
 30
0.0
  0
VERTEX
  5
1911
  8
3
 10
30.29999999999998
 20
29.67555078120006
 30
0.0
  0
SEQEND
  5
1B91
  8
3
  0
LINE
  5
D7B
  8
3
 10
32.79999999999998
 20
28.62935647339998
 30
0.0
 11
32.79999999999998
 21
30.96762506359994
 31
0.0
  0
LINE
  5
D7C
  8
3
 10
31.54999999999998
 20
28.26851255520012
 30
0.0
 11
32.79999999999998
 21
28.62935647339998
 31
0.0
  0
LINE
  5
D7D
  8
3
 10
34.04999999999998
 20
28.26851255520012
 30
0.0
 11
32.79999999999998
 21
28.62935647339998
 31
0.0
  0
POLYLINE
  5
D7E
  8
3
 66
     1
 10
0.0
 20
0.0
 30
0.0
  0
VERTEX
  5
1912
  8
3
 10
30.29999999999998
 20
29.75359033250004
 30
0.0
  0
VERTEX
  5
1913
  8
3
 10
30.42235870930003
 20
30.13986157550005
 30
0.0
  0
VERTEX
  5
1914
  8
3
 10
30.77745751409995
 20
30.48832189789994
 30
0.0
  0
VERTEX
  5
1915
  8
3
 10
31.33053686929995
 20
30.76486157550005
 30
0.0
  0
VERTEX
  5
1916
  8
3
 10
32.02745751409995
 20
30.94241097790007
 30
0.0
  0
VERTEX
  5
1917
  8
3
 10
32.79999999999998
 20
31.00359033250004
 30
0.0
  0
VERTEX
  5
1918
  8
3
 10
33.57254248599995
 20
30.94241097790007
 30
0.0
  0
VERTEX
  5
1919
  8
3
 10
34.26946313079995
 20
30.76486157550005
 30
0.0
  0
VERTEX
  5
191A
  8
3
 10
34.82254248599995
 20
30.48832189789994
 30
0.0
  0
VERTEX
  5
191B
  8
3
 10
35.17764129079998
 20
30.13986157550005
 30
0.0
  0
VERTEX
  5
191C
  8
3
 10
35.29999999999998
 20
29.75359033250004
 30
0.0
  0
VERTEX
  5
191D
  8
3
 10
35.17764129079998
 20
29.36731908960007
 30
0.0
  0
VERTEX
  5
191E
  8
3
 10
34.82254248599995
 20
29.01885876719996
 30
0.0
  0
VERTEX
  5
191F
  8
3
 10
34.26946313079995
 20
28.74231908960007
 30
0.0
  0
VERTEX
  5
1920
  8
3
 10
33.57254248599995
 20
28.56476968720006
 30
0.0
  0
VERTEX
  5
1921
  8
3
 10
32.79999999999998
 20
28.50359033250004
 30
0.0
  0
VERTEX
  5
1922
  8
3
 10
32.02745751409995
 20
28.56476968720006
 30
0.0
  0
VERTEX
  5
1923
  8
3
 10
31.33053686929995
 20
28.74231908960007
 30
0.0
  0
VERTEX
  5
1924
  8
3
 10
30.77745751409995
 20
29.01885876719996
 30
0.0
  0
VERTEX
  5
1925
  8
3
 10
30.42235870930003
 20
29.36731908960007
 30
0.0
  0
VERTEX
  5
1926
  8
3
 10
30.29999999999998
 20
29.75359033250004
 30
0.0
  0
SEQEND
  5
1B90
  8
3
  0
POLYLINE
  5
D7F
  8
3
 66
     1
 10
0.0
 20
0.0
 30
0.0
  0
VERTEX
  5
1927
  8
3
 10
30.74499999999998
 20
30.02343722720013
 30
0.0
  0
VERTEX
  5
1928
  8
3
 10
30.86893166429999
 20
30.37486292439996
 30
0.0
  0
VERTEX
  5
1929
  8
3
 10
31.2257786694
 20
30.68390149610002
 30
0.0
  0
VERTEX
  5
192A
  8
3
 10
31.77250000000001
 20
30.91327832950003
 30
0.0
  0
VERTEX
  5
192B
  8
3
 10
32.44315299489998
 20
31.03532719340012
 30
0.0
  0
VERTEX
  5
192C
  8
3
 10
33.15684700509999
 20
31.03532719340012
 30
0.0
  0
VERTEX
  5
192D
  8
3
 10
33.82749999999996
 20
30.91327832950003
 30
0.0
  0
VERTEX
  5
192E
  8
3
 10
34.37422133059997
 20
30.68390149610002
 30
0.0
  0
VERTEX
  5
192F
  8
3
 10
34.73106833569997
 20
30.37486292439996
 30
0.0
  0
VERTEX
  5
1930
  8
3
 10
34.85499999999999
 20
30.02343722720013
 30
0.0
  0
VERTEX
  5
1931
  8
3
 10
34.73106833569997
 20
29.67201152990003
 30
0.0
  0
VERTEX
  5
1932
  8
3
 10
34.37422133059997
 20
29.36297295819998
 30
0.0
  0
VERTEX
  5
1933
  8
3
 10
33.82749999999996
 20
29.13359612479996
 30
0.0
  0
VERTEX
  5
1934
  8
3
 10
33.15684700509999
 20
29.0115472609001
 30
0.0
  0
VERTEX
  5
1935
  8
3
 10
32.44315299489998
 20
29.0115472609001
 30
0.0
  0
VERTEX
  5
1936
  8
3
 10
31.77250000000001
 20
29.13359612479996
 30
0.0
  0
VERTEX
  5
1937
  8
3
 10
31.2257786694
 20
29.36297295819998
 30
0.0
  0
VERTEX
  5
1938
  8
3
 10
30.86893166429999
 20
29.67201152990003
 30
0.0
  0
VERTEX
  5
1939
  8
3
 10
30.74499999999998
 20
30.02343722720013
 30
0.0
  0
SEQEND
  5
1B8F
  8
3
  0
POLYLINE
  5
D80
  8
3
 66
     1
 10
0.0
 20
0.0
 30
0.0
  0
VERTEX
  5
193A
  8
3
 10
30.5438968732
 20
30.14538566370004
 30
0.0
  0
VERTEX
  5
193B
  8
3
 10
30.66613876359995
 20
29.77910791989996
 30
0.0
  0
VERTEX
  5
193C
  8
3
 10
31.01961762929997
 20
29.45252205290001
 30
0.0
  0
VERTEX
  5
193D
  8
3
 10
31.56602855029999
 20
29.20101870910014
 30
0.0
  0
VERTEX
  5
193E
  8
3
 10
32.24615942490001
 20
29.05185217819997
 30
0.0
  0
VERTEX
  5
193F
  8
3
 10
32.98630751959999
 20
29.02118696829996
 30
0.0
  0
VERTEX
  5
1940
  8
3
 10
33.70626630360002
 20
29.11234613089994
 30
0.0
  0
VERTEX
  5
1941
  8
3
 10
34.3280170715
 20
29.31545115610004
 30
0.0
  0
VERTEX
  5
1942
  8
3
 10
34.78418348009998
 20
29.60849246290002
 30
0.0
  0
VERTEX
  5
1943
  8
3
 10
35.0253328208
 20
29.95971447880004
 30
0.0
  0
VERTEX
  5
1944
  8
3
 10
35.0253328208
 20
30.33105684860004
 30
0.0
  0
VERTEX
  5
1945
  8
3
 10
34.78418348009998
 20
30.68227886460011
 30
0.0
  0
VERTEX
  5
1946
  8
3
 10
34.3280170715
 20
30.97532017140009
 30
0.0
  0
VERTEX
  5
1947
  8
3
 10
33.70626630360002
 20
31.17842519659996
 30
0.0
  0
VERTEX
  5
1948
  8
3
 10
32.98630751959999
 20
31.26958435919994
 30
0.0
  0
VERTEX
  5
1949
  8
3
 10
32.24615942490001
 20
31.23891914929993
 30
0.0
  0
VERTEX
  5
194A
  8
3
 10
31.56602855029999
 20
31.08975261839998
 30
0.0
  0
VERTEX
  5
194B
  8
3
 10
31.01961762929997
 20
30.83824927460012
 30
0.0
  0
VERTEX
  5
194C
  8
3
 10
30.66613876359995
 20
30.51166340759994
 30
0.0
  0
VERTEX
  5
194D
  8
3
 10
30.5438968732
 20
30.14538566370004
 30
0.0
  0
SEQEND
  5
1B8E
  8
3
  0
LINE
  5
D81
  8
3
 10
31.54999999999998
 20
28.26851255520012
 30
0.0
 11
31.54999999999998
 21
27.54682471870012
 31
0.0
  0
LINE
  5
D82
  8
3
 10
31.54999999999998
 20
28.26851255520012
 30
0.0
 11
31.54999999999998
 21
30.60678114540008
 31
0.0
  0
LINE
  5
D83
  8
3
 10
34.04999999999998
 20
28.26851255520012
 30
0.0
 11
34.04999999999998
 21
27.54682471870012
 31
0.0
  0
LINE
  5
D84
  8
3
 10
34.04999999999998
 20
28.26851255520012
 30
0.0
 11
34.04999999999998
 21
30.60678114540008
 31
0.0
  0
POLYLINE
  5
D85
  8
3
 66
     1
 10
0.0
 20
0.0
 30
0.0
  0
VERTEX
  5
194E
  8
3
 10
32.79999999999998
 20
31.27343722720013
 30
0.0
  0
VERTEX
  5
194F
  8
3
 10
33.50285139460001
 20
31.2114713950001
 30
0.0
  0
VERTEX
  5
1950
  8
3
 10
34.12092853789997
 20
31.03304789250012
 30
0.0
  0
VERTEX
  5
1951
  8
3
 10
34.57968220479998
 20
30.75968722720006
 30
0.0
  0
VERTEX
  5
1952
  8
3
 10
34.82377993249995
 20
30.42436072969997
 30
0.0
  0
VERTEX
  5
1953
  8
3
 10
34.82377993249995
 20
30.06751372459996
 30
0.0
  0
VERTEX
  5
1954
  8
3
 10
34.57968220479998
 20
29.73218722720014
 30
0.0
  0
VERTEX
  5
1955
  8
3
 10
34.12092853789997
 20
29.45882656190008
 30
0.0
  0
VERTEX
  5
1956
  8
3
 10
33.50285139460001
 20
29.28040305930006
 30
0.0
  0
VERTEX
  5
1957
  8
3
 10
32.79999999999998
 20
29.21843722720007
 30
0.0
  0
VERTEX
  5
1958
  8
3
 10
32.0971486055
 20
29.28040305930006
 30
0.0
  0
VERTEX
  5
1959
  8
3
 10
31.47907146209999
 20
29.45882656190008
 30
0.0
  0
VERTEX
  5
195A
  8
3
 10
31.02031779529997
 20
29.73218722720014
 30
0.0
  0
VERTEX
  5
195B
  8
3
 10
30.77622006759995
 20
30.06751372459996
 30
0.0
  0
VERTEX
  5
195C
  8
3
 10
30.77622006759995
 20
30.42436072969997
 30
0.0
  0
VERTEX
  5
195D
  8
3
 10
31.02031779529997
 20
30.75968722720006
 30
0.0
  0
VERTEX
  5
195E
  8
3
 10
31.47907146209999
 20
31.03304789250012
 30
0.0
  0
VERTEX
  5
195F
  8
3
 10
32.0971486055
 20
31.2114713950001
 30
0.0
  0
VERTEX
  5
1960
  8
3
 10
32.79999999999998
 20
31.27343722720013
 30
0.0
  0
SEQEND
  5
1B8D
  8
3
  0
LINE
  5
D86
  8
3
 10
31.54999999999998
 20
30.60678114540008
 30
0.0
 11
32.79999999999998
 21
30.96762506359994
 31
0.0
  0
LINE
  5
D87
  8
3
 10
34.04999999999998
 20
30.60678114540008
 30
0.0
 11
32.79999999999998
 21
30.96762506359994
 31
0.0
  0
LINE
  5
D88
  8
3
 10
32.79999999999998
 20
27.18598080050003
 30
0.0
 11
32.79999999999998
 21
28.62935647339998
 31
0.0
  0
LINE
  5
D89
  8
3
 10
34.04999999999998
 20
29.88509330890008
 30
0.0
 11
32.79999999999998
 21
29.52424939069999
 31
0.0
  0
LINE
  5
D8A
  8
3
 10
34.04999999999998
 20
27.54682471870012
 30
0.0
 11
32.79999999999998
 21
27.18598080050003
 31
0.0
  0
LINE
  5
D8B
  8
3
 10
31.54999999999998
 20
29.88509330890008
 30
0.0
 11
32.79999999999998
 21
29.52424939069999
 31
0.0
  0
LINE
  5
D8C
  8
3
 10
31.54999999999998
 20
27.54682471870012
 30
0.0
 11
32.79999999999998
 21
27.18598080050003
 31
0.0
  0
POLYLINE
  5
D8D
  8
3
 66
     1
 10
0.0
 20
0.0
 30
0.0
  0
VERTEX
  5
1961
  8
3
 10
32.79999999999998
 20
-25.92478480450006
 30
0.0
  0
VERTEX
  5
1962
  8
3
 10
32.16782708419996
 20
-25.86569800519999
 30
0.0
  0
VERTEX
  5
1963
  8
3
 10
31.62103262359997
 20
-25.69641760699994
 30
0.0
  0
VERTEX
  5
1964
  8
3
 10
31.23346424019999
 20
-25.43980586579994
 30
0.0
  0
VERTEX
  5
1965
  8
3
 10
31.05746519149997
 20
-25.13051961899998
 30
0.0
  0
VERTEX
  5
1966
  8
3
 10
31.11680512450002
 20
-24.81032968819989
 30
0.0
  0
VERTEX
  5
1967
  8
3
 10
31.40346985229999
 20
-24.52247949759987
 30
0.0
  0
VERTEX
  5
1968
  8
3
 10
31.87874371500001
 20
-24.30584481070002
 30
0.0
  0
VERTEX
  5
1969
  8
3
 10
32.47843834379998
 20
-24.18968334229987
 30
0.0
  0
VERTEX
  5
196A
  8
3
 10
33.12156165619999
 20
-24.18968334229987
 30
0.0
  0
VERTEX
  5
196B
  8
3
 10
33.7212562851
 20
-24.30584481070002
 30
0.0
  0
VERTEX
  5
196C
  8
3
 10
34.19653014779996
 20
-24.52247949759987
 30
0.0
  0
VERTEX
  5
196D
  8
3
 10
34.48319487559999
 20
-24.81032968819989
 30
0.0
  0
VERTEX
  5
196E
  8
3
 10
34.54253480849999
 20
-25.13051961899998
 30
0.0
  0
VERTEX
  5
196F
  8
3
 10
34.36653575989996
 20
-25.43980586579994
 30
0.0
  0
VERTEX
  5
1970
  8
3
 10
33.97896737639999
 20
-25.69641760699994
 30
0.0
  0
VERTEX
  5
1971
  8
3
 10
33.4321729159
 20
-25.86569800519999
 30
0.0
  0
VERTEX
  5
1972
  8
3
 10
32.79999999999998
 20
-25.92478480450006
 30
0.0
  0
SEQEND
  5
1B8C
  8
3
  0
POLYLINE
  5
D8E
  8
3
 66
     1
 10
0.0
 20
0.0
 30
0.0
  0
VERTEX
  5
1973
  8
3
 10
30.48326725659999
 20
-25.54058975750002
 30
0.0
  0
VERTEX
  5
1974
  8
3
 10
30.60879422690002
 20
-25.16446881140007
 30
0.0
  0
VERTEX
  5
1975
  8
3
 10
30.97177234269995
 20
-24.82910640600005
 30
0.0
  0
VERTEX
  5
1976
  8
3
 10
31.5328672931
 20
-24.57084426149993
 30
0.0
  0
VERTEX
  5
1977
  8
3
 10
32.23127573389999
 20
-24.41766908869988
 30
0.0
  0
VERTEX
  5
1978
  8
3
 10
32.99131427359995
 20
-24.38617979419985
 30
0.0
  0
VERTEX
  5
1979
  8
3
 10
33.73062094320002
 20
-24.47978873170007
 30
0.0
  0
VERTEX
  5
197A
  8
3
 10
34.36908039349996
 20
-24.68835192049994
 30
0.0
  0
VERTEX
  5
197B
  8
3
 10
34.83750563650003
 20
-24.9892683027
 30
0.0
  0
VERTEX
  5
197C
  8
3
 10
35.08513552849999
 20
-25.34992891909985
 30
0.0
  0
VERTEX
  5
197D
  8
3
 10
35.08513552849999
 20
-25.73125059579991
 30
0.0
  0
VERTEX
  5
197E
  8
3
 10
34.83750563650003
 20
-26.09191121230003
 30
0.0
  0
VERTEX
  5
197F
  8
3
 10
34.36908039349996
 20
-26.39282759449986
 30
0.0
  0
VERTEX
  5
1980
  8
3
 10
33.73062094320002
 20
-26.60139078319992
 30
0.0
  0
VERTEX
  5
1981
  8
3
 10
32.99131427359995
 20
-26.69499972069991
 30
0.0
  0
VERTEX
  5
1982
  8
3
 10
32.23127573389999
 20
-26.66351042629992
 30
0.0
  0
VERTEX
  5
1983
  8
3
 10
31.5328672931
 20
-26.51033525340006
 30
0.0
  0
VERTEX
  5
1984
  8
3
 10
30.97177234269995
 20
-26.25207310889994
 30
0.0
  0
VERTEX
  5
1985
  8
3
 10
30.60879422690002
 20
-25.91671070349992
 30
0.0
  0
VERTEX
  5
1986
  8
3
 10
30.48326725659999
 20
-25.54058975750002
 30
0.0
  0
SEQEND
  5
1B8B
  8
3
  0
POLYLINE
  5
D8F
  8
3
 66
     1
 10
0.0
 20
0.0
 30
0.0
  0
VERTEX
  5
1987
  8
3
 10
34.85499999999999
 20
-25.69930384299994
 30
0.0
  0
VERTEX
  5
1988
  8
3
 10
34.73106833569997
 20
-26.0507295402
 30
0.0
  0
VERTEX
  5
1989
  8
3
 10
34.37422133059997
 20
-26.35976811190005
 30
0.0
  0
VERTEX
  5
198A
  8
3
 10
33.82749999999996
 20
-26.58914494530006
 30
0.0
  0
VERTEX
  5
198B
  8
3
 10
33.15684700509999
 20
-26.71119380919993
 30
0.0
  0
VERTEX
  5
198C
  8
3
 10
32.44315299489998
 20
-26.71119380919993
 30
0.0
  0
VERTEX
  5
198D
  8
3
 10
31.77250000000001
 20
-26.58914494530006
 30
0.0
  0
VERTEX
  5
198E
  8
3
 10
31.2257786694
 20
-26.35976811190005
 30
0.0
  0
VERTEX
  5
198F
  8
3
 10
30.86893166429999
 20
-26.0507295402
 30
0.0
  0
VERTEX
  5
1990
  8
3
 10
30.74499999999998
 20
-25.69930384299994
 30
0.0
  0
VERTEX
  5
1991
  8
3
 10
30.86893166429999
 20
-25.34787814570007
 30
0.0
  0
VERTEX
  5
1992
  8
3
 10
31.2257786694
 20
-25.03883957400001
 30
0.0
  0
VERTEX
  5
1993
  8
3
 10
31.77250000000001
 20
-24.8094627406
 30
0.0
  0
VERTEX
  5
1994
  8
3
 10
32.44315299489998
 20
-24.68741387669991
 30
0.0
  0
VERTEX
  5
1995
  8
3
 10
33.15684700509999
 20
-24.68741387669991
 30
0.0
  0
VERTEX
  5
1996
  8
3
 10
33.82749999999996
 20
-24.8094627406
 30
0.0
  0
VERTEX
  5
1997
  8
3
 10
34.37422133059997
 20
-25.03883957400001
 30
0.0
  0
VERTEX
  5
1998
  8
3
 10
34.73106833569997
 20
-25.34787814570007
 30
0.0
  0
VERTEX
  5
1999
  8
3
 10
34.85499999999999
 20
-25.69930384299994
 30
0.0
  0
SEQEND
  5
1B8A
  8
3
  0
POLYLINE
  5
D90
  8
3
 66
     1
 10
0.0
 20
0.0
 30
0.0
  0
VERTEX
  5
199A
  8
3
 10
35.29999999999998
 20
-25.96915073759999
 30
0.0
  0
VERTEX
  5
199B
  8
3
 10
35.17764129079998
 20
-26.35542198049995
 30
0.0
  0
VERTEX
  5
199C
  8
3
 10
34.82254248599995
 20
-26.70388230290007
 30
0.0
  0
VERTEX
  5
199D
  8
3
 10
34.26946313079995
 20
-26.98042198049995
 30
0.0
  0
VERTEX
  5
199E
  8
3
 10
33.57254248599995
 20
-27.15797138289997
 30
0.0
  0
VERTEX
  5
199F
  8
3
 10
32.79999999999998
 20
-27.21915073759999
 30
0.0
  0
VERTEX
  5
19A0
  8
3
 10
32.02745751409995
 20
-27.15797138289997
 30
0.0
  0
VERTEX
  5
19A1
  8
3
 10
31.33053686929995
 20
-26.98042198049995
 30
0.0
  0
VERTEX
  5
19A2
  8
3
 10
30.77745751409995
 20
-26.70388230290007
 30
0.0
  0
VERTEX
  5
19A3
  8
3
 10
30.42235870930003
 20
-26.35542198049995
 30
0.0
  0
VERTEX
  5
19A4
  8
3
 10
30.29999999999998
 20
-25.96915073759999
 30
0.0
  0
VERTEX
  5
19A5
  8
3
 10
30.42235870930003
 20
-25.58287949459998
 30
0.0
  0
VERTEX
  5
19A6
  8
3
 10
30.77745751409995
 20
-25.23441917219986
 30
0.0
  0
VERTEX
  5
19A7
  8
3
 10
31.33053686929995
 20
-24.95787949459998
 30
0.0
  0
VERTEX
  5
19A8
  8
3
 10
32.02745751409995
 20
-24.78033009219996
 30
0.0
  0
VERTEX
  5
19A9
  8
3
 10
32.79999999999998
 20
-24.71915073759999
 30
0.0
  0
VERTEX
  5
19AA
  8
3
 10
33.57254248599995
 20
-24.78033009219996
 30
0.0
  0
VERTEX
  5
19AB
  8
3
 10
34.26946313079995
 20
-24.95787949459998
 30
0.0
  0
VERTEX
  5
19AC
  8
3
 10
34.82254248599995
 20
-25.23441917219986
 30
0.0
  0
VERTEX
  5
19AD
  8
3
 10
35.17764129079998
 20
-25.58287949459998
 30
0.0
  0
VERTEX
  5
19AE
  8
3
 10
35.29999999999998
 20
-25.96915073759999
 30
0.0
  0
SEQEND
  5
1B89
  8
3
  0
POLYLINE
  5
D91
  8
3
 66
     1
 10
0.0
 20
0.0
 30
0.0
  0
VERTEX
  5
19AF
  8
3
 10
35.29999999999998
 20
-26.04719028889997
 30
0.0
  0
VERTEX
  5
19B0
  8
3
 10
35.17764129079998
 20
-26.43346153189998
 30
0.0
  0
VERTEX
  5
19B1
  8
3
 10
34.82254248599995
 20
-26.78192185429987
 30
0.0
  0
VERTEX
  5
19B2
  8
3
 10
34.26946313079995
 20
-27.05846153189998
 30
0.0
  0
VERTEX
  5
19B3
  8
3
 10
33.57254248599995
 20
-27.2360109343
 30
0.0
  0
VERTEX
  5
19B4
  8
3
 10
32.79999999999998
 20
-27.29719028889997
 30
0.0
  0
VERTEX
  5
19B5
  8
3
 10
32.02745751409995
 20
-27.2360109343
 30
0.0
  0
VERTEX
  5
19B6
  8
3
 10
31.33053686929995
 20
-27.05846153189998
 30
0.0
  0
VERTEX
  5
19B7
  8
3
 10
30.77745751409995
 20
-26.78192185429987
 30
0.0
  0
VERTEX
  5
19B8
  8
3
 10
30.42235870930003
 20
-26.43346153189998
 30
0.0
  0
VERTEX
  5
19B9
  8
3
 10
30.29999999999998
 20
-26.04719028889997
 30
0.0
  0
VERTEX
  5
19BA
  8
3
 10
30.42235870930003
 20
-25.660919046
 30
0.0
  0
VERTEX
  5
19BB
  8
3
 10
30.77745751409995
 20
-25.31245872359989
 30
0.0
  0
VERTEX
  5
19BC
  8
3
 10
31.33053686929995
 20
-25.035919046
 30
0.0
  0
VERTEX
  5
19BD
  8
3
 10
32.02745751409995
 20
-24.85836964359999
 30
0.0
  0
VERTEX
  5
19BE
  8
3
 10
32.79999999999998
 20
-24.79719028889997
 30
0.0
  0
VERTEX
  5
19BF
  8
3
 10
33.57254248599995
 20
-24.85836964359999
 30
0.0
  0
VERTEX
  5
19C0
  8
3
 10
34.26946313079995
 20
-25.035919046
 30
0.0
  0
VERTEX
  5
19C1
  8
3
 10
34.82254248599995
 20
-25.31245872359989
 30
0.0
  0
VERTEX
  5
19C2
  8
3
 10
35.17764129079998
 20
-25.660919046
 30
0.0
  0
VERTEX
  5
19C3
  8
3
 10
35.29999999999998
 20
-26.04719028889997
 30
0.0
  0
SEQEND
  5
1B88
  8
3
  0
POLYLINE
  5
D92
  8
3
 66
     1
 10
0.0
 20
0.0
 30
0.0
  0
VERTEX
  5
19C4
  8
3
 10
34.85499999999999
 20
-26.31703718360006
 30
0.0
  0
VERTEX
  5
19C5
  8
3
 10
34.73106833569997
 20
-26.66846288079989
 30
0.0
  0
VERTEX
  5
19C6
  8
3
 10
34.37422133059997
 20
-26.97750145249995
 30
0.0
  0
VERTEX
  5
19C7
  8
3
 10
33.82749999999996
 20
-27.20687828589996
 30
0.0
  0
VERTEX
  5
19C8
  8
3
 10
33.15684700509999
 20
-27.32892714980005
 30
0.0
  0
VERTEX
  5
19C9
  8
3
 10
32.44315299489998
 20
-27.32892714980005
 30
0.0
  0
VERTEX
  5
19CA
  8
3
 10
31.77250000000001
 20
-27.20687828589996
 30
0.0
  0
VERTEX
  5
19CB
  8
3
 10
31.2257786694
 20
-26.97750145249995
 30
0.0
  0
VERTEX
  5
19CC
  8
3
 10
30.86893166429999
 20
-26.66846288079989
 30
0.0
  0
VERTEX
  5
19CD
  8
3
 10
30.74499999999998
 20
-26.31703718360006
 30
0.0
  0
VERTEX
  5
19CE
  8
3
 10
30.86893166429999
 20
-25.96561148629996
 30
0.0
  0
VERTEX
  5
19CF
  8
3
 10
31.2257786694
 20
-25.65657291459991
 30
0.0
  0
VERTEX
  5
19D0
  8
3
 10
31.77250000000001
 20
-25.4271960811999
 30
0.0
  0
VERTEX
  5
19D1
  8
3
 10
32.44315299489998
 20
-25.30514721730003
 30
0.0
  0
VERTEX
  5
19D2
  8
3
 10
33.15684700509999
 20
-25.30514721730003
 30
0.0
  0
VERTEX
  5
19D3
  8
3
 10
33.82749999999996
 20
-25.4271960811999
 30
0.0
  0
VERTEX
  5
19D4
  8
3
 10
34.37422133059997
 20
-25.65657291459991
 30
0.0
  0
VERTEX
  5
19D5
  8
3
 10
34.73106833569997
 20
-25.96561148629996
 30
0.0
  0
VERTEX
  5
19D6
  8
3
 10
34.85499999999999
 20
-26.31703718360006
 30
0.0
  0
SEQEND
  5
1B87
  8
3
  0
POLYLINE
  5
D93
  8
3
 66
     1
 10
0.0
 20
0.0
 30
0.0
  0
VERTEX
  5
19D7
  8
3
 10
35.29999999999998
 20
-26.58688407819989
 30
0.0
  0
VERTEX
  5
19D8
  8
3
 10
35.17764129079998
 20
-26.97315532109985
 30
0.0
  0
VERTEX
  5
19D9
  8
3
 10
34.82254248599995
 20
-27.32161564349997
 30
0.0
  0
VERTEX
  5
19DA
  8
3
 10
34.26946313070002
 20
-27.59815532109985
 30
0.0
  0
VERTEX
  5
19DB
  8
3
 10
33.57254248599995
 20
-27.77570472359992
 30
0.0
  0
VERTEX
  5
19DC
  8
3
 10
32.79999999999998
 20
-27.83688407819989
 30
0.0
  0
VERTEX
  5
19DD
  8
3
 10
32.02745751409995
 20
-27.77570472359992
 30
0.0
  0
VERTEX
  5
19DE
  8
3
 10
31.33053686929995
 20
-27.59815532109985
 30
0.0
  0
VERTEX
  5
19DF
  8
3
 10
30.77745751409995
 20
-27.32161564349997
 30
0.0
  0
VERTEX
  5
19E0
  8
3
 10
30.42235870930003
 20
-26.97315532109985
 30
0.0
  0
VERTEX
  5
19E1
  8
3
 10
30.29999999999998
 20
-26.58688407819989
 30
0.0
  0
VERTEX
  5
19E2
  8
3
 10
30.42235870930003
 20
-26.20061283519988
 30
0.0
  0
VERTEX
  5
19E3
  8
3
 10
30.77745751409995
 20
-25.85215251279999
 30
0.0
  0
VERTEX
  5
19E4
  8
3
 10
31.33053686929995
 20
-25.57561283519988
 30
0.0
  0
VERTEX
  5
19E5
  8
3
 10
32.02745751409995
 20
-25.39806343279986
 30
0.0
  0
VERTEX
  5
19E6
  8
3
 10
32.79999999999998
 20
-25.33688407819989
 30
0.0
  0
VERTEX
  5
19E7
  8
3
 10
33.57254248599995
 20
-25.39806343279986
 30
0.0
  0
VERTEX
  5
19E8
  8
3
 10
34.26946313070002
 20
-25.57561283519988
 30
0.0
  0
VERTEX
  5
19E9
  8
3
 10
34.82254248599995
 20
-25.85215251279999
 30
0.0
  0
VERTEX
  5
19EA
  8
3
 10
35.17764129079998
 20
-26.20061283519988
 30
0.0
  0
VERTEX
  5
19EB
  8
3
 10
35.29999999999998
 20
-26.58688407819989
 30
0.0
  0
SEQEND
  5
1B86
  8
3
  0
POLYLINE
  5
D94
  8
3
 66
     1
 10
0.0
 20
0.0
 30
0.0
  0
VERTEX
  5
19EC
  8
3
 10
35.29999999999998
 20
-26.66492362949987
 30
0.0
  0
VERTEX
  5
19ED
  8
3
 10
35.17764129079998
 20
-27.05119487249988
 30
0.0
  0
VERTEX
  5
19EE
  8
3
 10
34.82254248599995
 20
-27.39965519489999
 30
0.0
  0
VERTEX
  5
19EF
  8
3
 10
34.26946313070002
 20
-27.67619487249988
 30
0.0
  0
VERTEX
  5
19F0
  8
3
 10
33.57254248599995
 20
-27.8537442748999
 30
0.0
  0
VERTEX
  5
19F1
  8
3
 10
32.79999999999998
 20
-27.91492362949987
 30
0.0
  0
VERTEX
  5
19F2
  8
3
 10
32.02745751409995
 20
-27.8537442748999
 30
0.0
  0
VERTEX
  5
19F3
  8
3
 10
31.33053686929995
 20
-27.67619487249988
 30
0.0
  0
VERTEX
  5
19F4
  8
3
 10
30.77745751409995
 20
-27.39965519489999
 30
0.0
  0
VERTEX
  5
19F5
  8
3
 10
30.42235870930003
 20
-27.05119487249988
 30
0.0
  0
VERTEX
  5
19F6
  8
3
 10
30.29999999999998
 20
-26.66492362949987
 30
0.0
  0
VERTEX
  5
19F7
  8
3
 10
30.42235870930003
 20
-26.2786523865999
 30
0.0
  0
VERTEX
  5
19F8
  8
3
 10
30.77745751409995
 20
-25.93019206420001
 30
0.0
  0
VERTEX
  5
19F9
  8
3
 10
31.33053686929995
 20
-25.6536523865999
 30
0.0
  0
VERTEX
  5
19FA
  8
3
 10
32.02745751409995
 20
-25.47610298419988
 30
0.0
  0
VERTEX
  5
19FB
  8
3
 10
32.79999999999998
 20
-25.41492362949987
 30
0.0
  0
VERTEX
  5
19FC
  8
3
 10
33.57254248599995
 20
-25.47610298419988
 30
0.0
  0
VERTEX
  5
19FD
  8
3
 10
34.26946313070002
 20
-25.6536523865999
 30
0.0
  0
VERTEX
  5
19FE
  8
3
 10
34.82254248599995
 20
-25.93019206420001
 30
0.0
  0
VERTEX
  5
19FF
  8
3
 10
35.17764129079998
 20
-26.2786523865999
 30
0.0
  0
VERTEX
  5
1A00
  8
3
 10
35.29999999999998
 20
-26.66492362949987
 30
0.0
  0
SEQEND
  5
1B85
  8
3
  0
POLYLINE
  5
D95
  8
3
 66
     1
 10
0.0
 20
0.0
 30
0.0
  0
VERTEX
  5
1A01
  8
3
 10
34.85499999999999
 20
-26.93477052419996
 30
0.0
  0
VERTEX
  5
1A02
  8
3
 10
34.73106833569997
 20
-27.28619622140002
 30
0.0
  0
VERTEX
  5
1A03
  8
3
 10
34.37422133059997
 20
-27.59523479309985
 30
0.0
  0
VERTEX
  5
1A04
  8
3
 10
33.82749999999996
 20
-27.82461162649986
 30
0.0
  0
VERTEX
  5
1A05
  8
3
 10
33.15684700509999
 20
-27.94666049039995
 30
0.0
  0
VERTEX
  5
1A06
  8
3
 10
32.44315299489998
 20
-27.94666049039995
 30
0.0
  0
VERTEX
  5
1A07
  8
3
 10
31.77250000000001
 20
-27.82461162649986
 30
0.0
  0
VERTEX
  5
1A08
  8
3
 10
31.2257786694
 20
-27.59523479309985
 30
0.0
  0
VERTEX
  5
1A09
  8
3
 10
30.86893166429999
 20
-27.28619622140002
 30
0.0
  0
VERTEX
  5
1A0A
  8
3
 10
30.74499999999998
 20
-26.93477052419996
 30
0.0
  0
VERTEX
  5
1A0B
  8
3
 10
30.86893166429999
 20
-26.58334482689986
 30
0.0
  0
VERTEX
  5
1A0C
  8
3
 10
31.2257786694
 20
-26.27430625520003
 30
0.0
  0
VERTEX
  5
1A0D
  8
3
 10
31.77250000000001
 20
-26.04492942180002
 30
0.0
  0
VERTEX
  5
1A0E
  8
3
 10
32.44315299489998
 20
-25.92288055789993
 30
0.0
  0
VERTEX
  5
1A0F
  8
3
 10
33.15684700509999
 20
-25.92288055789993
 30
0.0
  0
VERTEX
  5
1A10
  8
3
 10
33.82749999999996
 20
-26.04492942180002
 30
0.0
  0
VERTEX
  5
1A11
  8
3
 10
34.37422133059997
 20
-26.27430625520003
 30
0.0
  0
VERTEX
  5
1A12
  8
3
 10
34.73106833569997
 20
-26.58334482689986
 30
0.0
  0
VERTEX
  5
1A13
  8
3
 10
34.85499999999999
 20
-26.93477052419996
 30
0.0
  0
SEQEND
  5
1B84
  8
3
  0
POLYLINE
  5
D96
  8
3
 66
     1
 10
0.0
 20
0.0
 30
0.0
  0
VERTEX
  5
1A14
  8
3
 10
35.29999999999998
 20
-27.20461741880001
 30
0.0
  0
VERTEX
  5
1A15
  8
3
 10
35.17764129079998
 20
-27.59088866180002
 30
0.0
  0
VERTEX
  5
1A16
  8
3
 10
34.82254248599995
 20
-27.93934898419991
 30
0.0
  0
VERTEX
  5
1A17
  8
3
 10
34.26946313079995
 20
-28.21588866180002
 30
0.0
  0
VERTEX
  5
1A18
  8
3
 10
33.57254248599995
 20
-28.39343806420004
 30
0.0
  0
VERTEX
  5
1A19
  8
3
 10
32.79999999999998
 20
-28.45461741880001
 30
0.0
  0
VERTEX
  5
1A1A
  8
3
 10
32.02745751409995
 20
-28.39343806420004
 30
0.0
  0
VERTEX
  5
1A1B
  8
3
 10
31.33053686929995
 20
-28.21588866180002
 30
0.0
  0
VERTEX
  5
1A1C
  8
3
 10
30.77745751409995
 20
-27.93934898419991
 30
0.0
  0
VERTEX
  5
1A1D
  8
3
 10
30.42235870930003
 20
-27.59088866180002
 30
0.0
  0
VERTEX
  5
1A1E
  8
3
 10
30.29999999999998
 20
-27.20461741880001
 30
0.0
  0
VERTEX
  5
1A1F
  8
3
 10
30.42235870930003
 20
-26.8183461758
 30
0.0
  0
VERTEX
  5
1A20
  8
3
 10
30.77745751409995
 20
-26.46988585339989
 30
0.0
  0
VERTEX
  5
1A21
  8
3
 10
31.33053686929995
 20
-26.1933461758
 30
0.0
  0
VERTEX
  5
1A22
  8
3
 10
32.02745751409995
 20
-26.01579677339998
 30
0.0
  0
VERTEX
  5
1A23
  8
3
 10
32.79999999999998
 20
-25.95461741880001
 30
0.0
  0
VERTEX
  5
1A24
  8
3
 10
33.57254248599995
 20
-26.01579677339998
 30
0.0
  0
VERTEX
  5
1A25
  8
3
 10
34.26946313079995
 20
-26.1933461758
 30
0.0
  0
VERTEX
  5
1A26
  8
3
 10
34.82254248599995
 20
-26.46988585339989
 30
0.0
  0
VERTEX
  5
1A27
  8
3
 10
35.17764129079998
 20
-26.8183461758
 30
0.0
  0
VERTEX
  5
1A28
  8
3
 10
35.29999999999998
 20
-27.20461741880001
 30
0.0
  0
SEQEND
  5
1B83
  8
3
  0
POLYLINE
  5
D97
  8
3
 66
     1
 10
0.0
 20
0.0
 30
0.0
  0
VERTEX
  5
1A29
  8
3
 10
35.29999999999998
 20
-27.28265697009999
 30
0.0
  0
VERTEX
  5
1A2A
  8
3
 10
35.17764129079998
 20
-27.6689282131
 30
0.0
  0
VERTEX
  5
1A2B
  8
3
 10
34.82254248599995
 20
-28.01738853549989
 30
0.0
  0
VERTEX
  5
1A2C
  8
3
 10
34.26946313079995
 20
-28.2939282131
 30
0.0
  0
VERTEX
  5
1A2D
  8
3
 10
33.57254248599995
 20
-28.47147761550002
 30
0.0
  0
VERTEX
  5
1A2E
  8
3
 10
32.79999999999998
 20
-28.53265697009999
 30
0.0
  0
VERTEX
  5
1A2F
  8
3
 10
32.02745751409995
 20
-28.47147761550002
 30
0.0
  0
VERTEX
  5
1A30
  8
3
 10
31.33053686929995
 20
-28.2939282131
 30
0.0
  0
VERTEX
  5
1A31
  8
3
 10
30.77745751409995
 20
-28.01738853549989
 30
0.0
  0
VERTEX
  5
1A32
  8
3
 10
30.42235870930003
 20
-27.6689282131
 30
0.0
  0
VERTEX
  5
1A33
  8
3
 10
30.29999999999998
 20
-27.28265697009999
 30
0.0
  0
VERTEX
  5
1A34
  8
3
 10
30.42235870930003
 20
-26.89638572720003
 30
0.0
  0
VERTEX
  5
1A35
  8
3
 10
30.77745751409995
 20
-26.54792540479991
 30
0.0
  0
VERTEX
  5
1A36
  8
3
 10
31.33053686929995
 20
-26.27138572720003
 30
0.0
  0
VERTEX
  5
1A37
  8
3
 10
32.02745751409995
 20
-26.09383632480001
 30
0.0
  0
VERTEX
  5
1A38
  8
3
 10
32.79999999999998
 20
-26.03265697009999
 30
0.0
  0
VERTEX
  5
1A39
  8
3
 10
33.57254248599995
 20
-26.09383632480001
 30
0.0
  0
VERTEX
  5
1A3A
  8
3
 10
34.26946313079995
 20
-26.27138572720003
 30
0.0
  0
VERTEX
  5
1A3B
  8
3
 10
34.82254248599995
 20
-26.54792540479991
 30
0.0
  0
VERTEX
  5
1A3C
  8
3
 10
35.17764129079998
 20
-26.89638572720003
 30
0.0
  0
VERTEX
  5
1A3D
  8
3
 10
35.29999999999998
 20
-27.28265697009999
 30
0.0
  0
SEQEND
  5
1B82
  8
3
  0
POLYLINE
  5
D98
  8
3
 66
     1
 10
0.0
 20
0.0
 30
0.0
  0
VERTEX
  5
1A3E
  8
3
 10
34.85499999999999
 20
-27.55250386479986
 30
0.0
  0
VERTEX
  5
1A3F
  8
3
 10
34.73106833569997
 20
-27.90392956199992
 30
0.0
  0
VERTEX
  5
1A40
  8
3
 10
34.37422133059997
 20
-28.21296813369997
 30
0.0
  0
VERTEX
  5
1A41
  8
3
 10
33.82749999999996
 20
-28.44234496720003
 30
0.0
  0
VERTEX
  5
1A42
  8
3
 10
33.15684700509999
 20
-28.56439383099985
 30
0.0
  0
VERTEX
  5
1A43
  8
3
 10
32.44315299489998
 20
-28.56439383099985
 30
0.0
  0
VERTEX
  5
1A44
  8
3
 10
31.77250000000001
 20
-28.44234496720003
 30
0.0
  0
VERTEX
  5
1A45
  8
3
 10
31.2257786694
 20
-28.21296813369997
 30
0.0
  0
VERTEX
  5
1A46
  8
3
 10
30.86893166429999
 20
-27.90392956199992
 30
0.0
  0
VERTEX
  5
1A47
  8
3
 10
30.74499999999998
 20
-27.55250386479986
 30
0.0
  0
VERTEX
  5
1A48
  8
3
 10
30.86893166429999
 20
-27.20107816749999
 30
0.0
  0
VERTEX
  5
1A49
  8
3
 10
31.2257786694
 20
-26.89203959579993
 30
0.0
  0
VERTEX
  5
1A4A
  8
3
 10
31.77250000000001
 20
-26.66266276239992
 30
0.0
  0
VERTEX
  5
1A4B
  8
3
 10
32.44315299489998
 20
-26.54061389850006
 30
0.0
  0
VERTEX
  5
1A4C
  8
3
 10
33.15684700509999
 20
-26.54061389850006
 30
0.0
  0
VERTEX
  5
1A4D
  8
3
 10
33.82749999999996
 20
-26.66266276239992
 30
0.0
  0
VERTEX
  5
1A4E
  8
3
 10
34.37422133059997
 20
-26.89203959579993
 30
0.0
  0
VERTEX
  5
1A4F
  8
3
 10
34.73106833569997
 20
-27.20107816749999
 30
0.0
  0
VERTEX
  5
1A50
  8
3
 10
34.85499999999999
 20
-27.55250386479986
 30
0.0
  0
SEQEND
  5
1B81
  8
3
  0
POLYLINE
  5
D99
  8
3
 66
     1
 10
0.0
 20
0.0
 30
0.0
  0
VERTEX
  5
1A51
  8
3
 10
35.29999999999998
 20
-27.82235075939991
 30
0.0
  0
VERTEX
  5
1A52
  8
3
 10
35.17764129079998
 20
-28.20862200239992
 30
0.0
  0
VERTEX
  5
1A53
  8
3
 10
34.82254248599995
 20
-28.55708232480004
 30
0.0
  0
VERTEX
  5
1A54
  8
3
 10
34.26946313079995
 20
-28.83362200239992
 30
0.0
  0
VERTEX
  5
1A55
  8
3
 10
33.57254248599995
 20
-29.01117140479994
 30
0.0
  0
VERTEX
  5
1A56
  8
3
 10
32.79999999999998
 20
-29.07235075939991
 30
0.0
  0
VERTEX
  5
1A57
  8
3
 10
32.02745751409995
 20
-29.01117140479994
 30
0.0
  0
VERTEX
  5
1A58
  8
3
 10
31.33053686929995
 20
-28.83362200239992
 30
0.0
  0
VERTEX
  5
1A59
  8
3
 10
30.77745751409995
 20
-28.55708232480004
 30
0.0
  0
VERTEX
  5
1A5A
  8
3
 10
30.42235870930003
 20
-28.20862200239992
 30
0.0
  0
VERTEX
  5
1A5B
  8
3
 10
30.29999999999998
 20
-27.82235075939991
 30
0.0
  0
VERTEX
  5
1A5C
  8
3
 10
30.42235870930003
 20
-27.4360795163999
 30
0.0
  0
VERTEX
  5
1A5D
  8
3
 10
30.77745751409995
 20
-27.08761919400001
 30
0.0
  0
VERTEX
  5
1A5E
  8
3
 10
31.33053686929995
 20
-26.8110795163999
 30
0.0
  0
VERTEX
  5
1A5F
  8
3
 10
32.02745751409995
 20
-26.63353011399988
 30
0.0
  0
VERTEX
  5
1A60
  8
3
 10
32.79999999999998
 20
-26.57235075939991
 30
0.0
  0
VERTEX
  5
1A61
  8
3
 10
33.57254248599995
 20
-26.63353011399988
 30
0.0
  0
VERTEX
  5
1A62
  8
3
 10
34.26946313079995
 20
-26.8110795163999
 30
0.0
  0
VERTEX
  5
1A63
  8
3
 10
34.82254248599995
 20
-27.08761919400001
 30
0.0
  0
VERTEX
  5
1A64
  8
3
 10
35.17764129079998
 20
-27.4360795163999
 30
0.0
  0
VERTEX
  5
1A65
  8
3
 10
35.29999999999998
 20
-27.82235075939991
 30
0.0
  0
SEQEND
  5
1B80
  8
3
  0
POLYLINE
  5
D9A
  8
3
 66
     1
 10
0.0
 20
0.0
 30
0.0
  0
VERTEX
  5
1A66
  8
3
 10
35.29999999999998
 20
-27.90039031069989
 30
0.0
  0
VERTEX
  5
1A67
  8
3
 10
35.17764129079998
 20
-28.2866615536999
 30
0.0
  0
VERTEX
  5
1A68
  8
3
 10
34.82254248599995
 20
-28.63512187610002
 30
0.0
  0
VERTEX
  5
1A69
  8
3
 10
34.26946313079995
 20
-28.9116615536999
 30
0.0
  0
VERTEX
  5
1A6A
  8
3
 10
33.57254248599995
 20
-29.08921095609992
 30
0.0
  0
VERTEX
  5
1A6B
  8
3
 10
32.79999999999998
 20
-29.15039031069989
 30
0.0
  0
VERTEX
  5
1A6C
  8
3
 10
32.02745751409995
 20
-29.08921095609992
 30
0.0
  0
VERTEX
  5
1A6D
  8
3
 10
31.33053686929995
 20
-28.9116615536999
 30
0.0
  0
VERTEX
  5
1A6E
  8
3
 10
30.77745751409995
 20
-28.63512187610002
 30
0.0
  0
VERTEX
  5
1A6F
  8
3
 10
30.42235870930003
 20
-28.2866615536999
 30
0.0
  0
VERTEX
  5
1A70
  8
3
 10
30.29999999999998
 20
-27.90039031069989
 30
0.0
  0
VERTEX
  5
1A71
  8
3
 10
30.42235870930003
 20
-27.51411906779992
 30
0.0
  0
VERTEX
  5
1A72
  8
3
 10
30.77745751409995
 20
-27.16565874540004
 30
0.0
  0
VERTEX
  5
1A73
  8
3
 10
31.33053686929995
 20
-26.88911906779992
 30
0.0
  0
VERTEX
  5
1A74
  8
3
 10
32.02745751409995
 20
-26.71156966539991
 30
0.0
  0
VERTEX
  5
1A75
  8
3
 10
32.79999999999998
 20
-26.65039031069989
 30
0.0
  0
VERTEX
  5
1A76
  8
3
 10
33.57254248599995
 20
-26.71156966539991
 30
0.0
  0
VERTEX
  5
1A77
  8
3
 10
34.26946313079995
 20
-26.88911906779992
 30
0.0
  0
VERTEX
  5
1A78
  8
3
 10
34.82254248599995
 20
-27.16565874540004
 30
0.0
  0
VERTEX
  5
1A79
  8
3
 10
35.17764129079998
 20
-27.51411906779992
 30
0.0
  0
VERTEX
  5
1A7A
  8
3
 10
35.29999999999998
 20
-27.90039031069989
 30
0.0
  0
SEQEND
  5
1B7F
  8
3
  0
POLYLINE
  5
D9B
  8
3
 66
     1
 10
0.0
 20
0.0
 30
0.0
  0
VERTEX
  5
1A7B
  8
3
 10
34.85499999999999
 20
-28.17023720539999
 30
0.0
  0
VERTEX
  5
1A7C
  8
3
 10
34.73106833569997
 20
-28.52166290260004
 30
0.0
  0
VERTEX
  5
1A7D
  8
3
 10
34.37422133059997
 20
-28.83070147429987
 30
0.0
  0
VERTEX
  5
1A7E
  8
3
 10
33.82749999999996
 20
-29.06007830779993
 30
0.0
  0
VERTEX
  5
1A7F
  8
3
 10
33.15684700509999
 20
-29.18212717159997
 30
0.0
  0
VERTEX
  5
1A80
  8
3
 10
32.44315299489998
 20
-29.18212717159997
 30
0.0
  0
VERTEX
  5
1A81
  8
3
 10
31.77250000000001
 20
-29.06007830779993
 30
0.0
  0
VERTEX
  5
1A82
  8
3
 10
31.2257786694
 20
-28.83070147429987
 30
0.0
  0
VERTEX
  5
1A83
  8
3
 10
30.86893166429999
 20
-28.52166290260004
 30
0.0
  0
VERTEX
  5
1A84
  8
3
 10
30.74499999999998
 20
-28.17023720539999
 30
0.0
  0
VERTEX
  5
1A85
  8
3
 10
30.86893166429999
 20
-27.81881150809988
 30
0.0
  0
VERTEX
  5
1A86
  8
3
 10
31.2257786694
 20
-27.50977293640005
 30
0.0
  0
VERTEX
  5
1A87
  8
3
 10
31.77250000000001
 20
-27.28039610300004
 30
0.0
  0
VERTEX
  5
1A88
  8
3
 10
32.44315299489998
 20
-27.1583472392
 30
0.0
  0
VERTEX
  5
1A89
  8
3
 10
33.15684700509999
 20
-27.1583472392
 30
0.0
  0
VERTEX
  5
1A8A
  8
3
 10
33.82749999999996
 20
-27.28039610300004
 30
0.0
  0
VERTEX
  5
1A8B
  8
3
 10
34.37422133059997
 20
-27.50977293640005
 30
0.0
  0
VERTEX
  5
1A8C
  8
3
 10
34.73106833569997
 20
-27.81881150809988
 30
0.0
  0
VERTEX
  5
1A8D
  8
3
 10
34.85499999999999
 20
-28.17023720539999
 30
0.0
  0
SEQEND
  5
1B7E
  8
3
  0
POLYLINE
  5
D9C
  8
3
 66
     1
 10
0.0
 20
0.0
 30
0.0
  0
VERTEX
  5
1A8E
  8
3
 10
35.29999999999998
 20
-28.44008410000004
 30
0.0
  0
VERTEX
  5
1A8F
  8
3
 10
35.17764129079998
 20
-28.82635534300005
 30
0.0
  0
VERTEX
  5
1A90
  8
3
 10
34.82254248599995
 20
-29.17481566539993
 30
0.0
  0
VERTEX
  5
1A91
  8
3
 10
34.26946313079995
 20
-29.45135534300005
 30
0.0
  0
VERTEX
  5
1A92
  8
3
 10
33.57254248599995
 20
-29.62890474540006
 30
0.0
  0
VERTEX
  5
1A93
  8
3
 10
32.79999999999998
 20
-29.69008410000004
 30
0.0
  0
VERTEX
  5
1A94
  8
3
 10
32.02745751409995
 20
-29.62890474540006
 30
0.0
  0
VERTEX
  5
1A95
  8
3
 10
31.33053686929995
 20
-29.45135534300005
 30
0.0
  0
VERTEX
  5
1A96
  8
3
 10
30.77745751409995
 20
-29.17481566539993
 30
0.0
  0
VERTEX
  5
1A97
  8
3
 10
30.42235870930003
 20
-28.82635534300005
 30
0.0
  0
VERTEX
  5
1A98
  8
3
 10
30.29999999999998
 20
-28.44008410000004
 30
0.0
  0
VERTEX
  5
1A99
  8
3
 10
30.42235870930003
 20
-28.05381285700003
 30
0.0
  0
VERTEX
  5
1A9A
  8
3
 10
30.77745751409995
 20
-27.70535253459991
 30
0.0
  0
VERTEX
  5
1A9B
  8
3
 10
31.33053686929995
 20
-27.42881285700003
 30
0.0
  0
VERTEX
  5
1A9C
  8
3
 10
32.02745751409995
 20
-27.25126345460001
 30
0.0
  0
VERTEX
  5
1A9D
  8
3
 10
32.79999999999998
 20
-27.19008410000004
 30
0.0
  0
VERTEX
  5
1A9E
  8
3
 10
33.57254248599995
 20
-27.25126345460001
 30
0.0
  0
VERTEX
  5
1A9F
  8
3
 10
34.26946313079995
 20
-27.42881285700003
 30
0.0
  0
VERTEX
  5
1AA0
  8
3
 10
34.82254248599995
 20
-27.70535253459991
 30
0.0
  0
VERTEX
  5
1AA1
  8
3
 10
35.17764129079998
 20
-28.05381285700003
 30
0.0
  0
VERTEX
  5
1AA2
  8
3
 10
35.29999999999998
 20
-28.44008410000004
 30
0.0
  0
SEQEND
  5
1B7D
  8
3
  0
POLYLINE
  5
D9D
  8
3
 66
     1
 10
0.0
 20
0.0
 30
0.0
  0
VERTEX
  5
1AA3
  8
3
 10
35.29999999999998
 20
-28.51812365130002
 30
0.0
  0
VERTEX
  5
1AA4
  8
3
 10
35.17764129079998
 20
-28.90439489430003
 30
0.0
  0
VERTEX
  5
1AA5
  8
3
 10
34.82254248599995
 20
-29.25285521669991
 30
0.0
  0
VERTEX
  5
1AA6
  8
3
 10
34.26946313079995
 20
-29.52939489430003
 30
0.0
  0
VERTEX
  5
1AA7
  8
3
 10
33.57254248599995
 20
-29.70694429670004
 30
0.0
  0
VERTEX
  5
1AA8
  8
3
 10
32.79999999999998
 20
-29.76812365140006
 30
0.0
  0
VERTEX
  5
1AA9
  8
3
 10
32.02745751409995
 20
-29.70694429670004
 30
0.0
  0
VERTEX
  5
1AAA
  8
3
 10
31.33053686929995
 20
-29.52939489430003
 30
0.0
  0
VERTEX
  5
1AAB
  8
3
 10
30.77745751409995
 20
-29.25285521669991
 30
0.0
  0
VERTEX
  5
1AAC
  8
3
 10
30.42235870930003
 20
-28.90439489430003
 30
0.0
  0
VERTEX
  5
1AAD
  8
3
 10
30.29999999999998
 20
-28.51812365130002
 30
0.0
  0
VERTEX
  5
1AAE
  8
3
 10
30.42235870930003
 20
-28.13185240840005
 30
0.0
  0
VERTEX
  5
1AAF
  8
3
 10
30.77745751409995
 20
-27.78339208599994
 30
0.0
  0
VERTEX
  5
1AB0
  8
3
 10
31.33053686929995
 20
-27.50685240840005
 30
0.0
  0
VERTEX
  5
1AB1
  8
3
 10
32.02745751409995
 20
-27.32930300600003
 30
0.0
  0
VERTEX
  5
1AB2
  8
3
 10
32.79999999999998
 20
-27.26812365130002
 30
0.0
  0
VERTEX
  5
1AB3
  8
3
 10
33.57254248599995
 20
-27.32930300600003
 30
0.0
  0
VERTEX
  5
1AB4
  8
3
 10
34.26946313079995
 20
-27.50685240840005
 30
0.0
  0
VERTEX
  5
1AB5
  8
3
 10
34.82254248599995
 20
-27.78339208599994
 30
0.0
  0
VERTEX
  5
1AB6
  8
3
 10
35.17764129079998
 20
-28.13185240840005
 30
0.0
  0
VERTEX
  5
1AB7
  8
3
 10
35.29999999999998
 20
-28.51812365130002
 30
0.0
  0
SEQEND
  5
1B7C
  8
3
  0
POLYLINE
  5
D9E
  8
3
 66
     1
 10
0.0
 20
0.0
 30
0.0
  0
VERTEX
  5
1AB8
  8
3
 10
34.85499999999999
 20
-28.78797054599988
 30
0.0
  0
VERTEX
  5
1AB9
  8
3
 10
34.73106833569997
 20
-29.13939624319994
 30
0.0
  0
VERTEX
  5
1ABA
  8
3
 10
34.37422133059997
 20
-29.4484348149
 30
0.0
  0
VERTEX
  5
1ABB
  8
3
 10
33.82749999999996
 20
-29.67781164840005
 30
0.0
  0
VERTEX
  5
1ABC
  8
3
 10
33.15684700509999
 20
-29.79986051219987
 30
0.0
  0
VERTEX
  5
1ABD
  8
3
 10
32.44315299489998
 20
-29.79986051219987
 30
0.0
  0
VERTEX
  5
1ABE
  8
3
 10
31.77250000000001
 20
-29.67781164840005
 30
0.0
  0
VERTEX
  5
1ABF
  8
3
 10
31.2257786694
 20
-29.4484348149
 30
0.0
  0
VERTEX
  5
1AC0
  8
3
 10
30.86893166429999
 20
-29.13939624319994
 30
0.0
  0
VERTEX
  5
1AC1
  8
3
 10
30.74499999999998
 20
-28.78797054599988
 30
0.0
  0
VERTEX
  5
1AC2
  8
3
 10
30.86893166429999
 20
-28.43654484870001
 30
0.0
  0
VERTEX
  5
1AC3
  8
3
 10
31.2257786694
 20
-28.12750627699995
 30
0.0
  0
VERTEX
  5
1AC4
  8
3
 10
31.77250000000001
 20
-27.89812944359994
 30
0.0
  0
VERTEX
  5
1AC5
  8
3
 10
32.44315299489998
 20
-27.7760805797999
 30
0.0
  0
VERTEX
  5
1AC6
  8
3
 10
33.15684700509999
 20
-27.7760805797999
 30
0.0
  0
VERTEX
  5
1AC7
  8
3
 10
33.82749999999996
 20
-27.89812944359994
 30
0.0
  0
VERTEX
  5
1AC8
  8
3
 10
34.37422133059997
 20
-28.12750627699995
 30
0.0
  0
VERTEX
  5
1AC9
  8
3
 10
34.73106833569997
 20
-28.43654484870001
 30
0.0
  0
VERTEX
  5
1ACA
  8
3
 10
34.85499999999999
 20
-28.78797054599988
 30
0.0
  0
SEQEND
  5
1B7B
  8
3
  0
POLYLINE
  5
D9F
  8
3
 66
     1
 10
0.0
 20
0.0
 30
0.0
  0
VERTEX
  5
1ACB
  8
3
 10
35.29999999999998
 20
-29.05781744059993
 30
0.0
  0
VERTEX
  5
1ACC
  8
3
 10
35.17764129079998
 20
-29.44408868359994
 30
0.0
  0
VERTEX
  5
1ACD
  8
3
 10
34.82254248599995
 20
-29.79254900600006
 30
0.0
  0
VERTEX
  5
1ACE
  8
3
 10
34.26946313079995
 20
-30.06908868359994
 30
0.0
  0
VERTEX
  5
1ACF
  8
3
 10
33.57254248599995
 20
-30.24663808599996
 30
0.0
  0
VERTEX
  5
1AD0
  8
3
 10
32.79999999999998
 20
-30.30781744059993
 30
0.0
  0
VERTEX
  5
1AD1
  8
3
 10
32.02745751409995
 20
-30.24663808599996
 30
0.0
  0
VERTEX
  5
1AD2
  8
3
 10
31.33053686929995
 20
-30.06908868359994
 30
0.0
  0
VERTEX
  5
1AD3
  8
3
 10
30.77745751409995
 20
-29.79254900600006
 30
0.0
  0
VERTEX
  5
1AD4
  8
3
 10
30.42235870930003
 20
-29.44408868359994
 30
0.0
  0
VERTEX
  5
1AD5
  8
3
 10
30.29999999999998
 20
-29.05781744059993
 30
0.0
  0
VERTEX
  5
1AD6
  8
3
 10
30.42235870930003
 20
-28.67154619759992
 30
0.0
  0
VERTEX
  5
1AD7
  8
3
 10
30.77745751409995
 20
-28.32308587520004
 30
0.0
  0
VERTEX
  5
1AD8
  8
3
 10
31.33053686929995
 20
-28.04654619759992
 30
0.0
  0
VERTEX
  5
1AD9
  8
3
 10
32.02745751409995
 20
-27.86899679519991
 30
0.0
  0
VERTEX
  5
1ADA
  8
3
 10
32.79999999999998
 20
-27.80781744059993
 30
0.0
  0
VERTEX
  5
1ADB
  8
3
 10
33.57254248599995
 20
-27.86899679519991
 30
0.0
  0
VERTEX
  5
1ADC
  8
3
 10
34.26946313079995
 20
-28.04654619759992
 30
0.0
  0
VERTEX
  5
1ADD
  8
3
 10
34.82254248599995
 20
-28.32308587520004
 30
0.0
  0
VERTEX
  5
1ADE
  8
3
 10
35.17764129079998
 20
-28.67154619759992
 30
0.0
  0
VERTEX
  5
1ADF
  8
3
 10
35.29999999999998
 20
-29.05781744059993
 30
0.0
  0
SEQEND
  5
1B7A
  8
3
  0
POLYLINE
  5
DA0
  8
3
 66
     1
 10
0.0
 20
0.0
 30
0.0
  0
VERTEX
  5
1AE0
  8
3
 10
35.29999999999998
 20
-29.13585699199996
 30
0.0
  0
VERTEX
  5
1AE1
  8
3
 10
35.17764129079998
 20
-29.52212823489992
 30
0.0
  0
VERTEX
  5
1AE2
  8
3
 10
34.82254248599995
 20
-29.87058855730004
 30
0.0
  0
VERTEX
  5
1AE3
  8
3
 10
34.26946313079995
 20
-30.14712823489992
 30
0.0
  0
VERTEX
  5
1AE4
  8
3
 10
33.57254248599995
 20
-30.32467763729994
 30
0.0
  0
VERTEX
  5
1AE5
  8
3
 10
32.79999999999998
 20
-30.38585699199996
 30
0.0
  0
VERTEX
  5
1AE6
  8
3
 10
32.02745751409995
 20
-30.32467763729994
 30
0.0
  0
VERTEX
  5
1AE7
  8
3
 10
31.33053686929995
 20
-30.14712823489992
 30
0.0
  0
VERTEX
  5
1AE8
  8
3
 10
30.77745751409995
 20
-29.87058855730004
 30
0.0
  0
VERTEX
  5
1AE9
  8
3
 10
30.42235870930003
 20
-29.52212823489992
 30
0.0
  0
VERTEX
  5
1AEA
  8
3
 10
30.29999999999998
 20
-29.13585699199996
 30
0.0
  0
VERTEX
  5
1AEB
  8
3
 10
30.42235870930003
 20
-28.74958574899995
 30
0.0
  0
VERTEX
  5
1AEC
  8
3
 10
30.77745751409995
 20
-28.40112542660006
 30
0.0
  0
VERTEX
  5
1AED
  8
3
 10
31.33053686929995
 20
-28.12458574899995
 30
0.0
  0
VERTEX
  5
1AEE
  8
3
 10
32.02745751409995
 20
-27.94703634659993
 30
0.0
  0
VERTEX
  5
1AEF
  8
3
 10
32.79999999999998
 20
-27.88585699199996
 30
0.0
  0
VERTEX
  5
1AF0
  8
3
 10
33.57254248599995
 20
-27.94703634659993
 30
0.0
  0
VERTEX
  5
1AF1
  8
3
 10
34.26946313079995
 20
-28.12458574899995
 30
0.0
  0
VERTEX
  5
1AF2
  8
3
 10
34.82254248599995
 20
-28.40112542660006
 30
0.0
  0
VERTEX
  5
1AF3
  8
3
 10
35.17764129079998
 20
-28.74958574899995
 30
0.0
  0
VERTEX
  5
1AF4
  8
3
 10
35.29999999999998
 20
-29.13585699199996
 30
0.0
  0
SEQEND
  5
1B79
  8
3
  0
POLYLINE
  5
DA1
  8
3
 66
     1
 10
0.0
 20
0.0
 30
0.0
  0
VERTEX
  5
1AF5
  8
3
 10
34.85499999999999
 20
-29.40570388660001
 30
0.0
  0
VERTEX
  5
1AF6
  8
3
 10
34.73106833569997
 20
-29.75712958380007
 30
0.0
  0
VERTEX
  5
1AF7
  8
3
 10
34.37422133059997
 20
-30.06616815549989
 30
0.0
  0
VERTEX
  5
1AF8
  8
3
 10
33.82749999999996
 20
-30.29554498899995
 30
0.0
  0
VERTEX
  5
1AF9
  8
3
 10
33.15684700509999
 20
-30.4175938528
 30
0.0
  0
VERTEX
  5
1AFA
  8
3
 10
32.44315299489998
 20
-30.4175938528
 30
0.0
  0
VERTEX
  5
1AFB
  8
3
 10
31.77250000000001
 20
-30.29554498899995
 30
0.0
  0
VERTEX
  5
1AFC
  8
3
 10
31.2257786694
 20
-30.06616815549989
 30
0.0
  0
VERTEX
  5
1AFD
  8
3
 10
30.86893166429999
 20
-29.75712958380007
 30
0.0
  0
VERTEX
  5
1AFE
  8
3
 10
30.74499999999998
 20
-29.40570388660001
 30
0.0
  0
VERTEX
  5
1AFF
  8
3
 10
30.86893166429999
 20
-29.05427818929991
 30
0.0
  0
VERTEX
  5
1B00
  8
3
 10
31.2257786694
 20
-28.74523961759985
 30
0.0
  0
VERTEX
  5
1B01
  8
3
 10
31.77250000000001
 20
-28.51586278420007
 30
0.0
  0
VERTEX
  5
1B02
  8
3
 10
32.44315299489998
 20
-28.39381392040002
 30
0.0
  0
VERTEX
  5
1B03
  8
3
 10
33.15684700509999
 20
-28.39381392040002
 30
0.0
  0
VERTEX
  5
1B04
  8
3
 10
33.82749999999996
 20
-28.51586278420007
 30
0.0
  0
VERTEX
  5
1B05
  8
3
 10
34.37422133059997
 20
-28.74523961759985
 30
0.0
  0
VERTEX
  5
1B06
  8
3
 10
34.73106833569997
 20
-29.05427818929991
 30
0.0
  0
VERTEX
  5
1B07
  8
3
 10
34.85499999999999
 20
-29.40570388660001
 30
0.0
  0
SEQEND
  5
1B78
  8
3
  0
POLYLINE
  5
DA2
  8
3
 66
     1
 10
0.0
 20
0.0
 30
0.0
  0
VERTEX
  5
1B08
  8
3
 10
35.29999999999998
 20
-29.67555078120006
 30
0.0
  0
VERTEX
  5
1B09
  8
3
 10
35.17764129079998
 20
-30.06182202420007
 30
0.0
  0
VERTEX
  5
1B0A
  8
3
 10
34.82254248599995
 20
-30.41028234659996
 30
0.0
  0
VERTEX
  5
1B0B
  8
3
 10
34.26946313079995
 20
-30.68682202420007
 30
0.0
  0
VERTEX
  5
1B0C
  8
3
 10
33.57254248599995
 20
-30.86437142659986
 30
0.0
  0
VERTEX
  5
1B0D
  8
3
 10
32.79999999999998
 20
-30.92555078120006
 30
0.0
  0
VERTEX
  5
1B0E
  8
3
 10
32.02745751409995
 20
-30.86437142659986
 30
0.0
  0
VERTEX
  5
1B0F
  8
3
 10
31.33053686929995
 20
-30.68682202420007
 30
0.0
  0
VERTEX
  5
1B10
  8
3
 10
30.77745751409995
 20
-30.41028234659996
 30
0.0
  0
VERTEX
  5
1B11
  8
3
 10
30.42235870930003
 20
-30.06182202420007
 30
0.0
  0
VERTEX
  5
1B12
  8
3
 10
30.29999999999998
 20
-29.67555078120006
 30
0.0
  0
VERTEX
  5
1B13
  8
3
 10
30.42235870930003
 20
-29.28927953820005
 30
0.0
  0
VERTEX
  5
1B14
  8
3
 10
30.77745751409995
 20
-28.94081921579993
 30
0.0
  0
VERTEX
  5
1B15
  8
3
 10
31.33053686929995
 20
-28.66427953820005
 30
0.0
  0
VERTEX
  5
1B16
  8
3
 10
32.02745751409995
 20
-28.48673013580003
 30
0.0
  0
VERTEX
  5
1B17
  8
3
 10
32.79999999999998
 20
-28.42555078120006
 30
0.0
  0
VERTEX
  5
1B18
  8
3
 10
33.57254248599995
 20
-28.48673013580003
 30
0.0
  0
VERTEX
  5
1B19
  8
3
 10
34.26946313079995
 20
-28.66427953820005
 30
0.0
  0
VERTEX
  5
1B1A
  8
3
 10
34.82254248599995
 20
-28.94081921579993
 30
0.0
  0
VERTEX
  5
1B1B
  8
3
 10
35.17764129079998
 20
-29.28927953820005
 30
0.0
  0
VERTEX
  5
1B1C
  8
3
 10
35.29999999999998
 20
-29.67555078120006
 30
0.0
  0
SEQEND
  5
1B77
  8
3
  0
LINE
  5
DA3
  8
3
 10
32.79999999999998
 20
-28.62935647350002
 30
0.0
 11
32.79999999999998
 21
-30.96762506369998
 31
0.0
  0
LINE
  5
DA4
  8
3
 10
34.04999999999998
 20
-28.26851255519989
 30
0.0
 11
32.79999999999998
 21
-28.62935647350002
 31
0.0
  0
LINE
  5
DA5
  8
3
 10
31.54999999999998
 20
-28.26851255519989
 30
0.0
 11
32.79999999999998
 21
-28.62935647350002
 31
0.0
  0
POLYLINE
  5
DA6
  8
3
 66
     1
 10
0.0
 20
0.0
 30
0.0
  0
VERTEX
  5
1B1D
  8
3
 10
35.29999999999998
 20
-29.75359033259986
 30
0.0
  0
VERTEX
  5
1B1E
  8
3
 10
35.17764129079998
 20
-30.13986157550005
 30
0.0
  0
VERTEX
  5
1B1F
  8
3
 10
34.82254248599995
 20
-30.48832189789994
 30
0.0
  0
VERTEX
  5
1B20
  8
3
 10
34.26946313079995
 20
-30.76486157550005
 30
0.0
  0
VERTEX
  5
1B21
  8
3
 10
33.57254248599995
 20
-30.94241097790007
 30
0.0
  0
VERTEX
  5
1B22
  8
3
 10
32.79999999999998
 20
-31.00359033259986
 30
0.0
  0
VERTEX
  5
1B23
  8
3
 10
32.02745751409995
 20
-30.94241097790007
 30
0.0
  0
VERTEX
  5
1B24
  8
3
 10
31.33053686929995
 20
-30.76486157550005
 30
0.0
  0
VERTEX
  5
1B25
  8
3
 10
30.77745751409995
 20
-30.48832189789994
 30
0.0
  0
VERTEX
  5
1B26
  8
3
 10
30.42235870930003
 20
-30.13986157550005
 30
0.0
  0
VERTEX
  5
1B27
  8
3
 10
30.29999999999998
 20
-29.75359033259986
 30
0.0
  0
VERTEX
  5
1B28
  8
3
 10
30.42235870930003
 20
-29.36731908959985
 30
0.0
  0
VERTEX
  5
1B29
  8
3
 10
30.77745751409995
 20
-29.01885876719996
 30
0.0
  0
VERTEX
  5
1B2A
  8
3
 10
31.33053686929995
 20
-28.74231908959985
 30
0.0
  0
VERTEX
  5
1B2B
  8
3
 10
32.02745751409995
 20
-28.56476968720006
 30
0.0
  0
VERTEX
  5
1B2C
  8
3
 10
32.79999999999998
 20
-28.50359033259986
 30
0.0
  0
VERTEX
  5
1B2D
  8
3
 10
33.57254248599995
 20
-28.56476968720006
 30
0.0
  0
VERTEX
  5
1B2E
  8
3
 10
34.26946313079995
 20
-28.74231908959985
 30
0.0
  0
VERTEX
  5
1B2F
  8
3
 10
34.82254248599995
 20
-29.01885876719996
 30
0.0
  0
VERTEX
  5
1B30
  8
3
 10
35.17764129079998
 20
-29.36731908959985
 30
0.0
  0
VERTEX
  5
1B31
  8
3
 10
35.29999999999998
 20
-29.75359033259986
 30
0.0
  0
SEQEND
  5
1B76
  8
3
  0
POLYLINE
  5
DA7
  8
3
 66
     1
 10
0.0
 20
0.0
 30
0.0
  0
VERTEX
  5
1B32
  8
3
 10
34.85499999999999
 20
-30.02343722719991
 30
0.0
  0
VERTEX
  5
1B33
  8
3
 10
34.73106833569997
 20
-30.37486292450001
 30
0.0
  0
VERTEX
  5
1B34
  8
3
 10
34.37422133059997
 20
-30.68390149610002
 30
0.0
  0
VERTEX
  5
1B35
  8
3
 10
33.82749999999996
 20
-30.91327832959985
 30
0.0
  0
VERTEX
  5
1B36
  8
3
 10
33.15684700509999
 20
-31.03532719339989
 30
0.0
  0
VERTEX
  5
1B37
  8
3
 10
32.44315299489998
 20
-31.03532719339989
 30
0.0
  0
VERTEX
  5
1B38
  8
3
 10
31.77250000000001
 20
-30.91327832959985
 30
0.0
  0
VERTEX
  5
1B39
  8
3
 10
31.2257786694
 20
-30.68390149610002
 30
0.0
  0
VERTEX
  5
1B3A
  8
3
 10
30.86893166429999
 20
-30.37486292450001
 30
0.0
  0
VERTEX
  5
1B3B
  8
3
 10
30.74499999999998
 20
-30.02343722719991
 30
0.0
  0
VERTEX
  5
1B3C
  8
3
 10
30.86893166429999
 20
-29.67201152990003
 30
0.0
  0
VERTEX
  5
1B3D
  8
3
 10
31.2257786694
 20
-29.36297295819998
 30
0.0
  0
VERTEX
  5
1B3E
  8
3
 10
31.77250000000001
 20
-29.13359612479996
 30
0.0
  0
VERTEX
  5
1B3F
  8
3
 10
32.44315299489998
 20
-29.01154726099992
 30
0.0
  0
VERTEX
  5
1B40
  8
3
 10
33.15684700509999
 20
-29.01154726099992
 30
0.0
  0
VERTEX
  5
1B41
  8
3
 10
33.82749999999996
 20
-29.13359612479996
 30
0.0
  0
VERTEX
  5
1B42
  8
3
 10
34.37422133059997
 20
-29.36297295819998
 30
0.0
  0
VERTEX
  5
1B43
  8
3
 10
34.73106833569997
 20
-29.67201152990003
 30
0.0
  0
VERTEX
  5
1B44
  8
3
 10
34.85499999999999
 20
-30.02343722719991
 30
0.0
  0
SEQEND
  5
1B75
  8
3
  0
POLYLINE
  5
DA8
  8
3
 66
     1
 10
0.0
 20
0.0
 30
0.0
  0
VERTEX
  5
1B45
  8
3
 10
35.05610312689996
 20
-30.14538566379986
 30
0.0
  0
VERTEX
  5
1B46
  8
3
 10
34.93386123649995
 20
-29.77910791989996
 30
0.0
  0
VERTEX
  5
1B47
  8
3
 10
34.58038237079998
 20
-29.45252205290001
 30
0.0
  0
VERTEX
  5
1B48
  8
3
 10
34.03397144979996
 20
-29.20101870909991
 30
0.0
  0
VERTEX
  5
1B49
  8
3
 10
33.3538405752
 20
-29.05185217819997
 30
0.0
  0
VERTEX
  5
1B4A
  8
3
 10
32.61369248050002
 20
-29.02118696829996
 30
0.0
  0
VERTEX
  5
1B4B
  8
3
 10
31.89373369639995
 20
-29.11234613089994
 30
0.0
  0
VERTEX
  5
1B4C
  8
3
 10
31.27198292850002
 20
-29.31545115610004
 30
0.0
  0
VERTEX
  5
1B4D
  8
3
 10
30.81581651999997
 20
-29.60849246290002
 30
0.0
  0
VERTEX
  5
1B4E
  8
3
 10
30.57466717919996
 20
-29.95971447889985
 30
0.0
  0
VERTEX
  5
1B4F
  8
3
 10
30.57466717919996
 20
-30.33105684869986
 30
0.0
  0
VERTEX
  5
1B50
  8
3
 10
30.81581651999997
 20
-30.68227886459988
 30
0.0
  0
VERTEX
  5
1B51
  8
3
 10
31.27198292850002
 20
-30.97532017139986
 30
0.0
  0
VERTEX
  5
1B52
  8
3
 10
31.89373369639995
 20
-31.17842519659996
 30
0.0
  0
VERTEX
  5
1B53
  8
3
 10
32.61369248050002
 20
-31.26958435919994
 30
0.0
  0
VERTEX
  5
1B54
  8
3
 10
33.3538405752
 20
-31.23891914929993
 30
0.0
  0
VERTEX
  5
1B55
  8
3
 10
34.03397144979996
 20
-31.08975261839998
 30
0.0
  0
VERTEX
  5
1B56
  8
3
 10
34.58038237079998
 20
-30.83824927459989
 30
0.0
  0
VERTEX
  5
1B57
  8
3
 10
34.93386123649995
 20
-30.51166340759994
 30
0.0
  0
VERTEX
  5
1B58
  8
3
 10
35.05610312689996
 20
-30.14538566379986
 30
0.0
  0
SEQEND
  5
1B74
  8
3
  0
LINE
  5
DA9
  8
3
 10
34.04999999999998
 20
-28.26851255519989
 30
0.0
 11
34.04999999999998
 21
-27.5468247186999
 31
0.0
  0
LINE
  5
DAA
  8
3
 10
34.04999999999998
 20
-28.26851255519989
 30
0.0
 11
34.04999999999998
 21
-30.60678114539985
 31
0.0
  0
LINE
  5
DAB
  8
3
 10
31.54999999999998
 20
-28.26851255519989
 30
0.0
 11
31.54999999999998
 21
-27.5468247186999
 31
0.0
  0
LINE
  5
DAC
  8
3
 10
31.54999999999998
 20
-28.26851255519989
 30
0.0
 11
31.54999999999998
 21
-30.60678114539985
 31
0.0
  0
POLYLINE
  5
DAD
  8
3
 66
     1
 10
0.0
 20
0.0
 30
0.0
  0
VERTEX
  5
1B59
  8
3
 10
32.79999999999998
 20
-31.27343722719991
 30
0.0
  0
VERTEX
  5
1B5A
  8
3
 10
32.0971486055
 20
-31.21147139499988
 30
0.0
  0
VERTEX
  5
1B5B
  8
3
 10
31.47907146209999
 20
-31.03304789249989
 30
0.0
  0
VERTEX
  5
1B5C
  8
3
 10
31.02031779529997
 20
-30.75968722720006
 30
0.0
  0
VERTEX
  5
1B5D
  8
3
 10
30.77622006759995
 20
-30.42436072969997
 30
0.0
  0
VERTEX
  5
1B5E
  8
3
 10
30.77622006759995
 20
-30.06751372459996
 30
0.0
  0
VERTEX
  5
1B5F
  8
3
 10
31.02031779529997
 20
-29.73218722719992
 30
0.0
  0
VERTEX
  5
1B60
  8
3
 10
31.47907146209999
 20
-29.45882656189985
 30
0.0
  0
VERTEX
  5
1B61
  8
3
 10
32.0971486055
 20
-29.28040305930006
 30
0.0
  0
VERTEX
  5
1B62
  8
3
 10
32.79999999999998
 20
-29.21843722720007
 30
0.0
  0
VERTEX
  5
1B63
  8
3
 10
33.50285139460001
 20
-29.28040305930006
 30
0.0
  0
VERTEX
  5
1B64
  8
3
 10
34.12092853789997
 20
-29.45882656189985
 30
0.0
  0
VERTEX
  5
1B65
  8
3
 10
34.57968220479998
 20
-29.73218722719992
 30
0.0
  0
VERTEX
  5
1B66
  8
3
 10
34.82377993249995
 20
-30.06751372459996
 30
0.0
  0
VERTEX
  5
1B67
  8
3
 10
34.82377993249995
 20
-30.42436072969997
 30
0.0
  0
VERTEX
  5
1B68
  8
3
 10
34.57968220479998
 20
-30.75968722720006
 30
0.0
  0
VERTEX
  5
1B69
  8
3
 10
34.12092853789997
 20
-31.03304789249989
 30
0.0
  0
VERTEX
  5
1B6A
  8
3
 10
33.50285139460001
 20
-31.21147139499988
 30
0.0
  0
VERTEX
  5
1B6B
  8
3
 10
32.79999999999998
 20
-31.27343722719991
 30
0.0
  0
SEQEND
  5
1B73
  8
3
  0
LINE
  5
DAE
  8
3
 10
34.04999999999998
 20
-30.60678114539985
 30
0.0
 11
32.79999999999998
 21
-30.96762506369998
 31
0.0
  0
LINE
  5
DAF
  8
3
 10
31.54999999999998
 20
-30.60678114539985
 30
0.0
 11
32.79999999999998
 21
-30.96762506369998
 31
0.0
  0
LINE
  5
DB0
  8
3
 10
32.79999999999998
 20
-27.18598080050003
 30
0.0
 11
32.79999999999998
 21
-28.62935647350002
 31
0.0
  0
LINE
  5
DB1
  8
3
 10
31.54999999999998
 20
-29.88509330889985
 30
0.0
 11
32.79999999999998
 21
-29.52424939069999
 31
0.0
  0
LINE
  5
DB2
  8
3
 10
31.54999999999998
 20
-27.5468247186999
 30
0.0
 11
32.79999999999998
 21
-27.18598080050003
 31
0.0
  0
LINE
  5
DB3
  8
3
 10
34.04999999999998
 20
-29.88509330889985
 30
0.0
 11
32.79999999999998
 21
-29.52424939069999
 31
0.0
  0
LINE
  5
DB4
  8
3
 10
34.04999999999998
 20
-27.5468247186999
 30
0.0
 11
32.79999999999998
 21
-27.18598080050003
 31
0.0
  0
LINE
  5
DB6
  8
3
 10
50.60019979
 20
7.098029999999994
 30
0.0
 11
50.60019979
 21
-7.098029999999994
 31
0.0
  0
LINE
  5
DBF
  8
3
 10
39.19776030499995
 20
-19.04618999999991
 30
0.0
 11
39.19776030499995
 21
-31.75381000000004
 31
0.0
  0
LINE
  5
DC0
  8
3
 10
37.13480000000001
 20
-19.30399999999997
 30
0.0
 11
37.13480000000001
 21
-31.49599999999998
 31
0.0
  0
LINE
  5
DC1
  8
3
 10
38.05963951069995
 20
-19.0561899999999
 30
0.0
 11
38.05963951069995
 21
-31.74381000000005
 31
0.0
  0
LINE
  5
DC2
  8
3
 10
39.19776030499995
 20
31.75381000000004
 30
0.0
 11
39.19776030499995
 21
19.04619000000014
 31
0.0
  0
LINE
  5
DC3
  8
3
 10
37.13480000000001
 20
31.49599999999998
 30
0.0
 11
37.13480000000001
 21
19.30399999999997
 31
0.0
  0
LINE
  5
DC4
  8
3
 10
38.05963951069995
 20
31.74381000000005
 30
0.0
 11
38.05963951069995
 21
19.05619000000013
 31
0.0
  0
LINE
  5
DC8
  8
3
 10
50.79999999999998
 20
16.87407116049997
 30
0.0
 11
50.6136296695
 21
16.17852761799998
 31
0.0
  0
LINE
  5
DC9
  8
3
 10
50.6136296695
 20
-16.17852761810002
 30
0.0
 11
50.79999999999998
 21
-16.87407116060001
 31
0.0
  0
ARC
  5
DCA
  8
3
 10
50.99999999999997
 20
-16.07499999999993
 30
0.0
 40
0.4000000000000283
 50
166.8750000000059
 51
194.9999999999936
  0
ARC
  5
DCB
  8
3
 10
50.99999999999997
 20
-16.07499999999993
 30
0.0
 40
0.4000000000000807
 50
119.9999999999997
 51
166.8750000000077
  0
ARC
  5
DCC
  8
3
 10
50.99999999999997
 20
16.07499999999993
 30
0.0
 40
0.4000000000000263
 50
165.0000000000064
 51
180.0
  0
ARC
  5
DCD
  8
3
 10
50.99999999999997
 20
16.07499999999993
 30
0.0
 40
0.3999999999999773
 50
180.0
 51
240.0000000000174
  0
LINE
  5
DCE
  8
3
 10
50.59999999999999
 20
16.07499999999993
 30
0.0
 11
50.59999999999999
 21
-16.07499999999993
 31
0.0
  0
LINE
  5
DD1
  8
3
 10
50.79999999999998
 20
2.000000000000114
 30
0.0
 11
33.44689797369998
 21
2.000000000000114
 31
0.0
  0
LINE
  5
DD2
  8
3
 10
33.45012668549995
 20
-1.999999999999886
 30
0.0
 11
50.79999999999998
 21
-1.999999999999886
 31
0.0
  0
LINE
  5
DD9
  8
SK3
 10
-40.09999999999999
 20
-11.11250000000007
 30
0.0
 11
-37.834376924
 21
-7.341869999999858
 31
0.0
  0
LINE
  5
DDA
  8
SK3
 10
-37.834376924
 20
7.341870000000085
 30
0.0
 11
-40.09999999999999
 21
11.11250000000007
 31
0.0
  0
LINE
  5
DDF
  8
3
 10
50.79999999999998
 20
7.341870000000085
 30
0.0
 11
-0.0000000000000071
 21
7.341870000000085
 31
0.0
  0
LINE
  5
DE0
  8
3
 10
0.0
 20
-7.341869999999858
 30
0.0
 11
50.79999999999998
 21
-7.341869999999858
 31
0.0
  0
LINE
  5
DE1
  8
3
 10
50.79999999999998
 20
31.75049999999999
 30
0.0
 11
35.79999999999998
 21
31.75049999999999
 31
0.0
  0
LINE
  5
DE2
  8
3
 10
35.79999999999998
 20
19.04949999999997
 30
0.0
 11
50.79999999999998
 21
19.04949999999997
 31
0.0
  0
LINE
  5
DE3
  8
3
 10
50.79999999999998
 20
-19.04949999999997
 30
0.0
 11
35.79999999999998
 21
-19.04949999999997
 31
0.0
  0
LINE
  5
DE4
  8
3
 10
35.79999999999998
 20
-31.75049999999999
 30
0.0
 11
50.79999999999998
 21
-31.75049999999999
 31
0.0
  0
LINE
  5
DE5
  8
3
 10
35.79999999999998
 20
-19.04949999999997
 30
0.0
 11
31.98423463890001
 21
-25.39999999999998
 31
0.0
  0
LINE
  5
DE6
  8
3
 10
31.98423463890001
 20
-25.39999999999998
 30
0.0
 11
35.79999999999998
 21
-31.75049999999999
 31
0.0
  0
LINE
  5
DE7
  8
3
 10
35.79999999999998
 20
31.75049999999999
 30
0.0
 11
31.98423463890001
 21
25.39999999999998
 31
0.0
  0
LINE
  5
DE8
  8
3
 10
31.98423463890001
 20
25.39999999999998
 30
0.0
 11
35.79999999999998
 21
19.04949999999997
 31
0.0
  0
LINE
  5
DEF
  8
3
 10
30.70000000000002
 20
29.01185102679995
 30
0.0
 11
30.70000000000002
 21
6.354557527900056
 31
0.0
  0
LINE
  5
DF0
  8
3
 10
34.89999999999995
 20
11.90303384810011
 30
0.0
 11
34.89999999999995
 21
29.01185102679995
 31
0.0
  0
LINE
  5
DF1
  8
3
 10
34.89999999999995
 20
6.35234756579996
 30
0.0
 11
34.89999999999995
 21
8.450111038200134
 31
0.0
  0
LINE
  5
DF2
  8
3
 10
34.89999999999995
 20
-8.447117866799886
 30
0.0
 11
34.89999999999995
 21
-6.352347565900004
 31
0.0
  0
LINE
  5
DF3
  8
3
 10
34.89999999999995
 20
-29.01185102679995
 30
0.0
 11
34.89999999999995
 21
-11.89983538059994
 31
0.0
  0
LINE
  5
DF4
  8
3
 10
30.70000000000002
 20
-6.354557527900056
 30
0.0
 11
30.70000000000002
 21
-29.01185102679995
 31
0.0
  0
LINE
  5
DF5
  8
3
 10
50.79999999999998
 20
12.1757984945001
 30
0.0
 11
34.64293091049998
 21
12.1757984945001
 31
0.0
  0
LINE
  5
DF6
  8
3
 10
34.63354977589998
 20
8.1757984945001
 30
0.0
 11
50.79999999999998
 21
8.1757984945001
 31
0.0
  0
LINE
  5
DF7
  8
3
 10
50.79999999999998
 20
-8.175798494499873
 30
0.0
 11
34.64204078409998
 21
-8.175798494499873
 31
0.0
  0
LINE
  5
DF8
  8
3
 10
34.6341813471
 20
-12.17579849449987
 30
0.0
 11
50.79999999999998
 21
-12.17579849449987
 31
0.0
  0
LINE
  5
DF9
  8
3
 10
30.17499999999998
 20
30.24576628110015
 30
0.0
 11
30.17499999999998
 21
29.37991182339999
 31
0.0
  0
LINE
  5
DFA
  8
3
 10
35.42499999999998
 20
29.37991182339999
 30
0.0
 11
35.42499999999998
 21
30.24378634679999
 31
0.0
  0
LINE
  5
DFB
  8
3
 10
35.42499999999998
 20
-30.24378634690004
 30
0.0
 11
35.42499999999998
 21
-29.37991182339999
 31
0.0
  0
LINE
  5
DFC
  8
3
 10
30.17499999999998
 20
-29.37991182339999
 30
0.0
 11
30.17499999999998
 21
-30.24576628119996
 31
0.0
  0
LINE
  5
DFD
  8
3
 10
30.7383461332
 20
28.65100710850004
 30
0.0
 11
31.08535718009998
 21
28.40563324409993
 31
0.0
  0
LINE
  5
DFE
  8
3
 10
34.51464281999998
 20
28.40563324409993
 30
0.0
 11
34.86165386690001
 21
28.65100710850004
 31
0.0
  0
LINE
  5
DFF
  8
3
 10
34.86165386690001
 20
-28.65100710850004
 30
0.0
 11
34.51464281999998
 21
-28.40563324409993
 31
0.0
  0
LINE
  5
E00
  8
3
 10
31.08535718009998
 20
-28.40563324409993
 30
0.0
 11
30.7383461332
 21
-28.65100710850004
 31
0.0
  0
LINE
  5
E01
  8
3
 10
30.90839563609998
 20
24.87180662089997
 30
0.0
 11
31.37113098339998
 21
24.54460331889993
 31
0.0
  0
LINE
  5
E02
  8
3
 10
34.22886901669997
 20
24.54460331889993
 30
0.0
 11
34.69160436399997
 21
24.87180662089997
 31
0.0
  0
LINE
  5
E03
  8
3
 10
31.38549679599996
 20
24.93847369239995
 30
0.0
 11
31.63727836630002
 21
24.85208731180012
 31
0.0
  0
LINE
  5
E04
  8
3
 10
33.96272163379999
 20
24.85208731180012
 30
0.0
 11
34.2145032041
 21
24.93847369239995
 31
0.0
  0
LINE
  5
E05
  8
3
 10
34.11081035549998
 20
26.49571106080009
 30
0.0
 11
33.96272163379999
 21
26.54652037409994
 31
0.0
  0
LINE
  5
E06
  8
3
 10
31.63727836630002
 20
26.54652037409994
 30
0.0
 11
31.48918964459997
 21
26.49571106080009
 31
0.0
  0
LINE
  5
E07
  8
3
 10
30.29999999999998
 20
26.04719028889997
 30
0.0
 11
30.29999999999998
 21
25.96915073759999
 31
0.0
  0
LINE
  5
E08
  8
3
 10
35.29999999999998
 20
25.96915073759999
 30
0.0
 11
35.29999999999998
 21
26.04719028889997
 31
0.0
  0
LINE
  5
E09
  8
3
 10
34.2145032041
 20
27.07786733410001
 30
0.0
 11
33.96272163379999
 21
27.16425371470007
 31
0.0
  0
LINE
  5
E0A
  8
3
 10
31.63727836630002
 20
27.16425371470007
 30
0.0
 11
31.38549679599996
 21
27.07786733410001
 31
0.0
  0
LINE
  5
E0B
  8
3
 10
31.38549679599996
 20
25.55620703300008
 30
0.0
 11
31.63727836630002
 21
25.46982065240002
 31
0.0
  0
LINE
  5
E0C
  8
3
 10
33.96272163379999
 20
25.46982065240002
 30
0.0
 11
34.2145032041
 21
25.55620703300008
 31
0.0
  0
LINE
  5
E0D
  8
3
 10
30.29999999999998
 20
26.66492362950009
 30
0.0
 11
30.29999999999998
 21
26.58688407820011
 31
0.0
  0
LINE
  5
E0E
  8
3
 10
35.29999999999998
 20
26.58688407820011
 30
0.0
 11
35.29999999999998
 21
26.66492362950009
 31
0.0
  0
LINE
  5
E0F
  8
3
 10
34.2145032041
 20
27.69560067470013
 30
0.0
 11
33.96272163379999
 21
27.78198705529996
 31
0.0
  0
LINE
  5
E10
  8
3
 10
31.63727836630002
 20
27.78198705529996
 30
0.0
 11
31.38549679599996
 21
27.69560067470013
 31
0.0
  0
LINE
  5
E11
  8
3
 10
31.38549679599996
 20
26.17394037359998
 30
0.0
 11
31.63727836630002
 21
26.08755399300014
 31
0.0
  0
LINE
  5
E12
  8
3
 10
33.96272163379999
 20
26.08755399300014
 30
0.0
 11
34.2145032041
 21
26.17394037359998
 31
0.0
  0
LINE
  5
E13
  8
3
 10
30.29999999999998
 20
27.28265697009999
 30
0.0
 11
30.29999999999998
 21
27.20461741880001
 31
0.0
  0
LINE
  5
E14
  8
3
 10
35.29999999999998
 20
27.20461741880001
 30
0.0
 11
35.29999999999998
 21
27.28265697009999
 31
0.0
  0
LINE
  5
E15
  8
3
 10
34.2145032041
 20
28.31333401530003
 30
0.0
 11
33.96272163379999
 21
28.39972039590009
 31
0.0
  0
LINE
  5
E16
  8
3
 10
31.63727836630002
 20
28.39972039590009
 30
0.0
 11
31.38549679599996
 21
28.31333401530003
 31
0.0
  0
LINE
  5
E17
  8
3
 10
31.38549679599996
 20
26.7916737142001
 30
0.0
 11
31.63727836630002
 21
26.70528733360004
 31
0.0
  0
LINE
  5
E18
  8
3
 10
33.96272163379999
 20
26.70528733360004
 30
0.0
 11
34.2145032041
 21
26.7916737142001
 31
0.0
  0
LINE
  5
E19
  8
3
 10
30.29999999999998
 20
27.90039031070012
 30
0.0
 11
30.29999999999998
 21
27.82235075940014
 31
0.0
  0
LINE
  5
E1A
  8
3
 10
35.29999999999998
 20
27.82235075940014
 30
0.0
 11
35.29999999999998
 21
27.90039031070012
 31
0.0
  0
LINE
  5
E1B
  8
3
 10
34.2145032041
 20
28.93106735590015
 30
0.0
 11
33.96272163379999
 21
29.01745373649999
 31
0.0
  0
LINE
  5
E1C
  8
3
 10
31.63727836630002
 20
29.01745373649999
 30
0.0
 11
31.38549679599996
 21
28.93106735590015
 31
0.0
  0
LINE
  5
E1D
  8
3
 10
31.38549679599996
 20
27.4094070548
 30
0.0
 11
31.63727836630002
 21
27.32302067419994
 31
0.0
  0
LINE
  5
E1E
  8
3
 10
33.96272163379999
 20
27.32302067419994
 30
0.0
 11
34.2145032041
 21
27.4094070548
 31
0.0
  0
LINE
  5
E1F
  8
3
 10
30.29999999999998
 20
28.51812365130002
 30
0.0
 11
30.29999999999998
 21
28.44008410000004
 31
0.0
  0
LINE
  5
E20
  8
3
 10
35.29999999999998
 20
28.44008410000004
 30
0.0
 11
35.29999999999998
 21
28.51812365130002
 31
0.0
  0
LINE
  5
E21
  8
3
 10
34.2145032041
 20
29.54880069650005
 30
0.0
 11
33.96272163379999
 21
29.63518707710011
 31
0.0
  0
LINE
  5
E22
  8
3
 10
31.63727836630002
 20
29.63518707710011
 30
0.0
 11
31.38549679599996
 21
29.54880069650005
 31
0.0
  0
LINE
  5
E23
  8
3
 10
31.38549679599996
 20
28.02714039540012
 30
0.0
 11
31.63727836630002
 21
27.94075401480006
 31
0.0
  0
LINE
  5
E24
  8
3
 10
33.96272163379999
 20
27.94075401480006
 30
0.0
 11
34.2145032041
 21
28.02714039540012
 31
0.0
  0
LINE
  5
E25
  8
3
 10
30.29999999999998
 20
29.13585699190014
 30
0.0
 11
30.29999999999998
 21
29.05781744059993
 31
0.0
  0
LINE
  5
E26
  8
3
 10
35.29999999999998
 20
29.05781744059993
 30
0.0
 11
35.29999999999998
 21
29.13585699190014
 31
0.0
  0
LINE
  5
E27
  8
3
 10
34.2145032041
 20
30.16653403709995
 30
0.0
 11
33.96272163379999
 21
30.25292041770001
 31
0.0
  0
LINE
  5
E28
  8
3
 10
31.63727836630002
 20
30.25292041770001
 30
0.0
 11
31.38549679599996
 21
30.16653403709995
 31
0.0
  0
LINE
  5
E29
  8
3
 10
31.38549679599996
 20
28.64487373600002
 30
0.0
 11
31.63727836630002
 21
28.55848735539996
 31
0.0
  0
LINE
  5
E2A
  8
3
 10
33.96272163379999
 20
28.55848735539996
 30
0.0
 11
34.2145032041
 21
28.64487373600002
 31
0.0
  0
LINE
  5
E2B
  8
3
 10
30.29999999999998
 20
29.75359033250004
 30
0.0
 11
30.29999999999998
 21
29.67555078120006
 31
0.0
  0
LINE
  5
E2C
  8
3
 10
35.29999999999998
 20
29.67555078120006
 30
0.0
 11
35.29999999999998
 21
29.75359033250004
 31
0.0
  0
LINE
  5
E2D
  8
3
 10
34.2145032041
 20
30.78426737770008
 30
0.0
 11
33.96272163379999
 21
30.87065375830014
 31
0.0
  0
LINE
  5
E2E
  8
3
 10
31.63727836630002
 20
30.87065375830014
 30
0.0
 11
31.38549679599996
 21
30.78426737770008
 31
0.0
  0
LINE
  5
E2F
  8
3
 10
31.52349395939999
 20
29.21526018199995
 30
0.0
 11
31.63727836630002
 21
29.17622069600009
 31
0.0
  0
LINE
  5
E30
  8
3
 10
33.96272163379999
 20
29.17622069600009
 30
0.0
 11
34.07650604069997
 21
29.21526018199995
 31
0.0
  0
LINE
  5
E31
  8
3
 10
34.69160436399997
 20
-24.87180662089997
 30
0.0
 11
34.22886901659999
 21
-24.54460331889993
 31
0.0
  0
LINE
  5
E32
  8
3
 10
31.37113098339998
 20
-24.54460331889993
 30
0.0
 11
30.90839563609998
 21
-24.87180662089997
 31
0.0
  0
LINE
  5
E33
  8
3
 10
34.2145032041
 20
-24.93847369239995
 30
0.0
 11
33.9627216337
 21
-24.85208731179989
 31
0.0
  0
LINE
  5
E34
  8
3
 10
31.63727836630002
 20
-24.85208731179989
 30
0.0
 11
31.38549679599996
 21
-24.93847369239995
 31
0.0
  0
LINE
  5
E35
  8
3
 10
31.48918964459997
 20
-26.49571106089991
 30
0.0
 11
31.63727836630002
 21
-26.54652037409994
 31
0.0
  0
LINE
  5
E36
  8
3
 10
33.9627216337
 20
-26.54652037409994
 30
0.0
 11
34.11081035539999
 21
-26.49571106089991
 31
0.0
  0
LINE
  5
E37
  8
3
 10
35.29999999999998
 20
-26.04719028889997
 30
0.0
 11
35.29999999999998
 21
-25.96915073759999
 31
0.0
  0
LINE
  5
E38
  8
3
 10
30.29999999999998
 20
-25.96915073759999
 30
0.0
 11
30.29999999999998
 21
-26.04719028889997
 31
0.0
  0
LINE
  5
E39
  8
3
 10
31.38549679599996
 20
-27.07786733410001
 30
0.0
 11
31.63727836630002
 21
-27.16425371470007
 31
0.0
  0
LINE
  5
E3A
  8
3
 10
33.9627216337
 20
-27.16425371470007
 30
0.0
 11
34.2145032041
 21
-27.07786733410001
 31
0.0
  0
LINE
  5
E3B
  8
3
 10
34.2145032041
 20
-25.55620703299985
 30
0.0
 11
33.9627216337
 21
-25.46982065240002
 31
0.0
  0
LINE
  5
E3C
  8
3
 10
31.63727836630002
 20
-25.46982065240002
 30
0.0
 11
31.38549679599996
 21
-25.55620703299985
 31
0.0
  0
LINE
  5
E3D
  8
3
 10
35.29999999999998
 20
-26.66492362949987
 30
0.0
 11
35.29999999999998
 21
-26.58688407819989
 31
0.0
  0
LINE
  5
E3E
  8
3
 10
30.29999999999998
 20
-26.58688407819989
 30
0.0
 11
30.29999999999998
 21
-26.66492362949987
 31
0.0
  0
LINE
  5
E3F
  8
3
 10
31.38549679599996
 20
-27.6956006746999
 30
0.0
 11
31.63727836630002
 21
-27.78198705529996
 31
0.0
  0
LINE
  5
E40
  8
3
 10
33.9627216337
 20
-27.78198705529996
 30
0.0
 11
34.2145032041
 21
-27.6956006746999
 31
0.0
  0
LINE
  5
E41
  8
3
 10
34.2145032041
 20
-26.17394037359998
 30
0.0
 11
33.9627216337
 21
-26.08755399299991
 31
0.0
  0
LINE
  5
E42
  8
3
 10
31.63727836630002
 20
-26.08755399299991
 30
0.0
 11
31.38549679599996
 21
-26.17394037359998
 31
0.0
  0
LINE
  5
E43
  8
3
 10
35.29999999999998
 20
-27.28265697009999
 30
0.0
 11
35.29999999999998
 21
-27.20461741880001
 31
0.0
  0
LINE
  5
E44
  8
3
 10
30.29999999999998
 20
-27.20461741880001
 30
0.0
 11
30.29999999999998
 21
-27.28265697009999
 31
0.0
  0
LINE
  5
E45
  8
3
 10
31.38549679599996
 20
-28.31333401530003
 30
0.0
 11
31.63727836630002
 21
-28.39972039589986
 31
0.0
  0
LINE
  5
E46
  8
3
 10
33.9627216337
 20
-28.39972039589986
 30
0.0
 11
34.2145032041
 21
-28.31333401530003
 31
0.0
  0
LINE
  5
E47
  8
3
 10
34.2145032041
 20
-26.79167371419987
 30
0.0
 11
33.9627216337
 21
-26.70528733360004
 31
0.0
  0
LINE
  5
E48
  8
3
 10
31.63727836630002
 20
-26.70528733360004
 30
0.0
 11
31.38549679599996
 21
-26.79167371419987
 31
0.0
  0
LINE
  5
E49
  8
3
 10
35.29999999999998
 20
-27.90039031069989
 30
0.0
 11
35.29999999999998
 21
-27.82235075939991
 31
0.0
  0
LINE
  5
E4A
  8
3
 10
30.29999999999998
 20
-27.82235075939991
 30
0.0
 11
30.29999999999998
 21
-27.90039031069989
 31
0.0
  0
LINE
  5
E4B
  8
3
 10
31.38549679599996
 20
-28.93106735589993
 30
0.0
 11
31.63727836630002
 21
-29.01745373649999
 31
0.0
  0
LINE
  5
E4C
  8
3
 10
33.9627216337
 20
-29.01745373649999
 30
0.0
 11
34.2145032041
 21
-28.93106735589993
 31
0.0
  0
LINE
  5
E4D
  8
3
 10
34.2145032041
 20
-27.4094070548
 30
0.0
 11
33.96272163379999
 21
-27.32302067419994
 31
0.0
  0
LINE
  5
E4E
  8
3
 10
31.63727836630002
 20
-27.32302067419994
 30
0.0
 11
31.38549679599996
 21
-27.4094070548
 31
0.0
  0
LINE
  5
E4F
  8
3
 10
35.29999999999998
 20
-28.51812365140006
 30
0.0
 11
35.29999999999998
 21
-28.44008410000004
 31
0.0
  0
LINE
  5
E50
  8
3
 10
30.29999999999998
 20
-28.44008410000004
 30
0.0
 11
30.29999999999998
 21
-28.51812365140006
 31
0.0
  0
LINE
  5
E51
  8
3
 10
31.38549679599996
 20
-29.54880069650005
 30
0.0
 11
31.63727836630002
 21
-29.63518707709989
 31
0.0
  0
LINE
  5
E52
  8
3
 10
33.96272163379999
 20
-29.63518707709989
 30
0.0
 11
34.2145032041
 21
-29.54880069650005
 31
0.0
  0
LINE
  5
E53
  8
3
 10
34.2145032041
 20
-28.0271403953999
 30
0.0
 11
33.96272163379999
 21
-27.94075401480006
 31
0.0
  0
LINE
  5
E54
  8
3
 10
31.63727836630002
 20
-27.94075401480006
 30
0.0
 11
31.38549679599996
 21
-28.0271403953999
 31
0.0
  0
LINE
  5
E55
  8
3
 10
35.29999999999998
 20
-29.13585699199996
 30
0.0
 11
35.29999999999998
 21
-29.05781744059993
 31
0.0
  0
LINE
  5
E56
  8
3
 10
30.29999999999998
 20
-29.05781744059993
 30
0.0
 11
30.29999999999998
 21
-29.13585699199996
 31
0.0
  0
LINE
  5
E57
  8
3
 10
31.38549679599996
 20
-30.16653403709995
 30
0.0
 11
31.63727836630002
 21
-30.25292041770001
 31
0.0
  0
LINE
  5
E58
  8
3
 10
33.96272163379999
 20
-30.25292041770001
 30
0.0
 11
34.2145032041
 21
-30.16653403709995
 31
0.0
  0
LINE
  5
E59
  8
3
 10
34.2145032041
 20
-28.64487373600002
 30
0.0
 11
33.96272163379999
 21
-28.55848735550001
 31
0.0
  0
LINE
  5
E5A
  8
3
 10
31.63727836630002
 20
-28.55848735550001
 30
0.0
 11
31.38549679599996
 21
-28.64487373600002
 31
0.0
  0
LINE
  5
E5B
  8
3
 10
35.29999999999998
 20
-29.75359033259986
 30
0.0
 11
35.29999999999998
 21
-29.67555078120006
 31
0.0
  0
LINE
  5
E5C
  8
3
 10
30.29999999999998
 20
-29.67555078120006
 30
0.0
 11
30.29999999999998
 21
-29.75359033259986
 31
0.0
  0
LINE
  5
E5D
  8
3
 10
31.38549679599996
 20
-30.78426737769985
 30
0.0
 11
31.63727836630002
 21
-30.87065375829991
 31
0.0
  0
LINE
  5
E5E
  8
3
 10
33.96272163379999
 20
-30.87065375829991
 30
0.0
 11
34.2145032041
 21
-30.78426737769985
 31
0.0
  0
LINE
  5
E5F
  8
3
 10
34.07650604069997
 20
-29.21526018199995
 30
0.0
 11
33.96272163379999
 21
-29.1762206960999
 31
0.0
  0
LINE
  5
E60
  8
3
 10
31.63727836630002
 20
-29.1762206960999
 30
0.0
 11
31.52349395939999
 21
-29.21526018199995
 31
0.0
  0
LINE
  5
E63
  8
3
 10
50.79999999999998
 20
7.297830210000001
 30
0.0
 11
50.60019979
 21
7.098029999999994
 31
0.0
  0
LINE
  5
E64
  8
3
 10
50.60019979
 20
-7.098029999999994
 30
0.0
 11
50.79999999999998
 21
-7.297830209999944
 31
0.0
  0
LINE
  5
E69
  8
3
 10
50.79999999999998
 20
-19.04618999999991
 30
0.0
 11
39.19776030499995
 21
-19.04618999999991
 31
0.0
  0
LINE
  5
E6A
  8
3
 10
39.19776030499995
 20
-31.75381000000004
 30
0.0
 11
50.79999999999998
 21
-31.75381000000004
 31
0.0
  0
ARC
  5
E6B
  8
3
 10
39.13480000000001
 20
-18.85298999999998
 30
0.0
 40
0.2031999999999312
 50
270.0
 51
288.0498306932988
  0
ARC
  5
E6C
  8
3
 10
39.13480000000001
 20
-31.94700999999998
 30
0.0
 40
0.2032000000001517
 50
71.95016930670582
 51
90.0
  0
LINE
  5
E6D
  8
3
 10
38.05963951069995
 20
-19.0561899999999
 30
0.0
 11
37.13480000000001
 21
-19.30399999999997
 31
0.0
  0
LINE
  5
E6E
  8
3
 10
37.13480000000001
 20
-31.49599999999998
 30
0.0
 11
38.05963951069995
 21
-31.74381000000005
 31
0.0
  0
LINE
  5
E6F
  8
3
 10
39.13480000000001
 20
-19.0561899999999
 30
0.0
 11
38.05963951069995
 21
-19.0561899999999
 31
0.0
  0
LINE
  5
E70
  8
3
 10
38.05963951069995
 20
-31.74381000000005
 30
0.0
 11
39.13480000000001
 21
-31.74381000000005
 31
0.0
  0
LINE
  5
E71
  8
3
 10
50.79999999999998
 20
31.75381000000004
 30
0.0
 11
39.19776030499995
 21
31.75381000000004
 31
0.0
  0
LINE
  5
E72
  8
3
 10
39.19776030499995
 20
19.04619000000014
 30
0.0
 11
50.79999999999998
 21
19.04619000000014
 31
0.0
  0
ARC
  5
E73
  8
3
 10
39.13480000000001
 20
31.94700999999998
 30
0.0
 40
0.2031999999999312
 50
270.0
 51
288.0498306932976
  0
ARC
  5
E74
  8
3
 10
39.13480000000001
 20
18.85298999999998
 30
0.0
 40
0.2031999999999243
 50
71.95016930669996
 51
90.0
  0
LINE
  5
E75
  8
3
 10
38.05963951069995
 20
31.74381000000005
 30
0.0
 11
37.13480000000001
 21
31.49599999999998
 31
0.0
  0
LINE
  5
E76
  8
3
 10
37.13480000000001
 20
19.30399999999997
 30
0.0
 11
38.05963951069995
 21
19.05619000000013
 31
0.0
  0
LINE
  5
E77
  8
3
 10
39.13480000000001
 20
31.74381000000005
 30
0.0
 11
38.05963951069995
 21
31.74381000000005
 31
0.0
  0
LINE
  5
E78
  8
3
 10
38.05963951069995
 20
19.05619000000013
 30
0.0
 11
39.13480000000001
 21
19.05619000000013
 31
0.0
  0
ARC
  5
E8B
  8
SK1
 10
50.99999999999997
 20
-16.07499999999993
 30
0.0
 40
0.4000000000000807
 50
74.99999999999278
 51
119.9999999999997
  0
ARC
  5
E8C
  8
SK1
 10
50.99999999999997
 20
16.07499999999993
 30
0.0
 40
0.3999999999999199
 50
239.9999999999951
 51
285.0000000000057
  0
LINE
  5
E8D
  8
SK1
 10
51.79907116059999
 20
-15.87499999999989
 30
0.0
 11
66.79999999999998
 21
-15.87499999999989
 31
0.0
  0
LINE
  5
E8E
  8
SK1
 10
66.79999999999998
 20
15.87500000000011
 30
0.0
 11
51.79907116059999
 21
15.87500000000011
 31
0.0
  0
LINE
  5
E8F
  8
SK1
 10
51.79907116059999
 20
15.87500000000011
 30
0.0
 11
51.10352761809995
 21
15.68862966950007
 31
0.0
  0
LINE
  5
E90
  8
SK1
 10
51.10352761809995
 20
-15.68862966949985
 30
0.0
 11
51.79907116059999
 21
-15.87499999999989
 31
0.0
  0
ARC
  5
E91
  8
SK1
 10
66.79999999999998
 20
-14.37499999999989
 30
0.0
 40
1.5
 50
270.0
 51
0.0
  0
ARC
  5
E92
  8
SK1
 10
66.79999999999998
 20
14.37500000000011
 30
0.0
 40
1.5
 50
0.0
 51
90.0
  0
LINE
  5
E93
  8
SK1
 10
86.33799979
 20
19.05000000000007
 30
0.0
 11
75.16199978999995
 21
19.05000000000007
 31
0.0
  0
LINE
  5
E94
  8
SK1
 10
75.16199978999995
 20
-19.05000000000007
 30
0.0
 11
86.33799979
 21
-19.05000000000007
 31
0.0
  0
LINE
  5
E95
  8
SK1
 10
75.16199978999995
 20
19.05000000000007
 30
0.0
 11
74.39999979000001
 21
18.28800000000012
 31
0.0
  0
LINE
  5
E96
  8
SK1
 10
74.39999979000001
 20
-18.2879999999999
 30
0.0
 11
75.16199978999995
 21
-19.05000000000007
 31
0.0
  0
LINE
  5
E97
  8
SK1
 10
86.33799979
 20
-19.05000000000007
 30
0.0
 11
87.09999979
 21
-18.2879999999999
 31
0.0
  0
LINE
  5
E98
  8
SK1
 10
87.09999979
 20
18.28800000000012
 30
0.0
 11
86.33799979
 21
19.05000000000007
 31
0.0
  0
ARC
  5
E99
  8
SK1
 10
73.58719978999997
 20
-8.750300000000038
 30
0.0
 40
0.81280000000001
 50
0.0
 51
90.0
  0
ARC
  5
E9A
  8
SK1
 10
73.58719978999997
 20
8.750300000000038
 30
0.0
 40
0.81280000000001
 50
270.0
 51
359.9999999999038
  0
LINE
  5
E9B
  8
SK1
 10
73.58719978999997
 20
7.937500000000114
 30
0.0
 11
68.29999999999998
 21
7.937500000000114
 31
0.0
  0
LINE
  5
E9C
  8
SK1
 10
68.29999999999998
 20
-7.937499999999886
 30
0.0
 11
73.58719978999997
 21
-7.937499999999886
 31
0.0
  0
LINE
  5
E9D
  8
SK1
 10
50.82833781259998
 20
-19.04618999999991
 30
0.0
 11
50.79999999999998
 21
-19.04618999999991
 31
0.0
  0
LINE
  5
EA0
  8
SK1
 10
50.79999999999998
 20
19.04619000000014
 30
0.0
 11
50.82833781259998
 21
19.04619000000014
 31
0.0
  0
LINE
  5
EC7
  8
SK1
 10
51.79907116059999
 20
0.0000000000001137
 30
0.0
 11
51.79907116059999
 21
15.87500000000011
 31
0.0
  0
LINE
  5
EC8
  8
SK1
 10
51.79907116059999
 20
-15.87499999999989
 30
0.0
 11
51.79907116059999
 21
0.0000000000001137
 31
0.0
  0
LINE
  5
EC9
  8
SK1
 10
68.29999999999998
 20
0.0000000000001137
 30
0.0
 11
68.29999999999998
 21
14.37500000000011
 31
0.0
  0
LINE
  5
ECA
  8
SK1
 10
68.29999999999998
 20
-14.37499999999989
 30
0.0
 11
68.29999999999998
 21
0.0000000000001137
 31
0.0
  0
LINE
  5
ED4
  8
SK1
 10
86.33799979
 20
19.05000000000007
 30
0.0
 11
86.33799979
 21
-19.05000000000007
 31
0.0
  0
LINE
  5
ED5
  8
SK1
 10
75.16199978999995
 20
19.05000000000007
 30
0.0
 11
75.16199978999995
 21
-19.05000000000007
 31
0.0
  0
LINE
  5
ED6
  8
SK1
 10
74.39999979000001
 20
18.28800000000012
 30
0.0
 11
74.39999979000001
 21
-18.2879999999999
 31
0.0
  0
LINE
  5
ED7
  8
SK1
 10
87.09999979
 20
18.28800000000012
 30
0.0
 11
87.09999979
 21
-18.2879999999999
 31
0.0
  0
LINE
  5
ED8
  8
SK1
 10
57.20079999999999
 20
-19.05000000000007
 30
0.0
 11
50.79999999999998
 21
-19.05000000000007
 31
0.0
  0
LINE
  5
ED9
  8
SK1
 10
57.20079999999999
 20
-19.05000000000007
 30
0.0
 11
57.20079999999999
 21
-31.74999999999989
 31
0.0
  0
LINE
  5
EDA
  8
SK1
 10
57.20079999999999
 20
-31.74999999999989
 30
0.0
 11
50.79999999999998
 21
-31.74999999999989
 31
0.0
  0
LINE
  5
EDB
  8
SK1
 10
57.20079999999999
 20
31.75000000000011
 30
0.0
 11
50.79999999999998
 21
31.75000000000011
 31
0.0
  0
LINE
  5
EDC
  8
SK1
 10
57.20079999999999
 20
31.75000000000011
 30
0.0
 11
57.20079999999999
 21
19.05000000000007
 31
0.0
  0
LINE
  5
EDD
  8
SK1
 10
57.20079999999999
 20
19.05000000000007
 30
0.0
 11
50.79999999999998
 21
19.05000000000007
 31
0.0
  0
LINE
  5
EF4
  8
SK3
 10
67.43397453739996
 20
-8.499999999999886
 30
0.0
 11
67.43397453739996
 21
8.500000000000114
 31
0.0
  0
LINE
  5
EF5
  8
SK3
 10
65.29999999999998
 20
8.500000000000114
 30
0.0
 11
65.29999999999998
 21
-8.499999999999886
 31
0.0
  0
LINE
  5
F58
  8
SK3
 10
51.43966979000001
 20
7.937500000000114
 30
0.0
 11
51.43966979000001
 21
-7.937499999999886
 31
0.0
  0
LINE
  5
F59
  8
SK3
 10
50.60019979
 20
7.098029999999994
 30
0.0
 11
50.60019979
 21
-7.098029999999994
 31
0.0
  0
LINE
  5
F5A
  8
SK3
 10
79.16249979
 20
0.0000000000001137
 30
0.0
 11
87.09999979
 21
0.0000000000001137
 31
0.0
  0
LINE
  5
F5B
  8
SK3
 10
79.16249979
 20
0.0000000000001137
 30
0.0
 11
79.16249979
 21
-2.006600000000049
 31
0.0
  0
LINE
  5
F5C
  8
SK3
 10
79.16249979
 20
2.006600000000049
 30
0.0
 11
79.16249979
 21
0.0000000000001137
 31
0.0
  0
LINE
  5
F5D
  8
SK3
 10
78.20999978999996
 20
4.013199999999983
 30
0.0
 11
78.20999978999996
 21
-4.013199999999983
 31
0.0
  0
LINE
  5
F5E
  8
SK3
 10
79.16249979
 20
4.013199999999983
 30
0.0
 11
79.16249979
 21
2.006600000000049
 31
0.0
  0
LINE
  5
F5F
  8
SK3
 10
79.16249979
 20
-2.006600000000049
 30
0.0
 11
79.16249979
 21
-4.013199999999983
 31
0.0
  0
LINE
  5
F60
  8
SK3
 10
79.16249979
 20
4.013199999999983
 30
0.0
 11
87.09999979
 21
4.013199999999983
 31
0.0
  0
LINE
  5
F61
  8
SK3
 10
79.16249979
 20
-4.013199999999983
 30
0.0
 11
87.09999979
 21
-4.013199999999983
 31
0.0
  0
LINE
  5
F74
  8
SK3
 10
68.29999999999998
 20
2.000000000000114
 30
0.0
 11
50.79999999999998
 21
2.000000000000114
 31
0.0
  0
LINE
  5
F75
  8
SK3
 10
50.79999999999998
 20
-1.999999999999886
 30
0.0
 11
68.29999999999998
 21
-1.999999999999886
 31
0.0
  0
LINE
  5
F7E
  8
SK3
 10
68.29999999999998
 20
9.000000033999981
 30
0.0
 11
67.43397453739996
 21
8.500000000000114
 31
0.0
  0
LINE
  5
F7F
  8
SK3
 10
67.43397453739996
 20
-8.499999999999886
 30
0.0
 11
68.29999999999998
 21
-9.000000033999981
 31
0.0
  0
LINE
  5
F80
  8
SK3
 10
67.43397453739996
 20
8.500000000000114
 30
0.0
 11
65.29999999999998
 21
8.500000000000114
 31
0.0
  0
LINE
  5
F81
  8
SK3
 10
65.29999999999998
 20
-8.499999999999886
 30
0.0
 11
67.43397453739996
 21
-8.499999999999886
 31
0.0
  0
LINE
  5
F82
  8
SK3
 10
65.29999999999998
 20
7.341870000000085
 30
0.0
 11
50.79999999999998
 21
7.341870000000085
 31
0.0
  0
LINE
  5
F83
  8
SK3
 10
50.79999999999998
 20
-7.341869999999858
 30
0.0
 11
65.29999999999998
 21
-7.341869999999858
 31
0.0
  0
LINE
  5
F98
  8
SK3
 10
68.29999999999998
 20
12.1757984945001
 30
0.0
 11
50.79999999999998
 21
12.1757984945001
 31
0.0
  0
LINE
  5
F99
  8
SK3
 10
50.79999999999998
 20
8.1757984945001
 30
0.0
 11
68.29999999999998
 21
8.1757984945001
 31
0.0
  0
LINE
  5
F9A
  8
SK3
 10
68.29999999999998
 20
-8.175798494499873
 30
0.0
 11
50.79999999999998
 21
-8.175798494499873
 31
0.0
  0
LINE
  5
F9B
  8
SK3
 10
50.79999999999998
 20
-12.17579849449987
 30
0.0
 11
68.29999999999998
 21
-12.17579849449987
 31
0.0
  0
LINE
  5
1004
  8
SK3
 10
68.29999999999998
 20
7.937500000000114
 30
0.0
 11
51.43966979000001
 21
7.937500000000114
 31
0.0
  0
LINE
  5
1005
  8
SK3
 10
51.43966979000001
 20
-7.937499999999886
 30
0.0
 11
68.29999999999998
 21
-7.937499999999886
 31
0.0
  0
LINE
  5
1006
  8
SK3
 10
51.43966979000001
 20
7.937500000000114
 30
0.0
 11
50.60019979
 21
7.098029999999994
 31
0.0
  0
LINE
  5
1007
  8
SK3
 10
50.60019979
 20
-7.098029999999994
 30
0.0
 11
51.43966979000001
 21
-7.937499999999886
 31
0.0
  0
LINE
  5
1008
  8
SK3
 10
79.16249979
 20
4.013199999999983
 30
0.0
 11
78.20999978999996
 21
4.013199999999983
 31
0.0
  0
LINE
  5
1009
  8
SK3
 10
78.20999978999996
 20
-4.013199999999983
 30
0.0
 11
79.16249979
 21
-4.013199999999983
 31
0.0
  0
LINE
  5
100A
  8
SK3
 10
78.20999978999996
 20
4.013199999999983
 30
0.0
 11
75.79862595379998
 21
0.0000000000001137
 31
0.0
  0
LINE
  5
100B
  8
SK3
 10
75.79862595379998
 20
0.0000000000001137
 30
0.0
 11
78.20999978999996
 21
-4.013199999999983
 31
0.0
  0
LINE
  5
1022
  8
SK3
 10
-37.834376924
 20
7.341870000000085
 30
0.0
 11
-0.0000000000000071
 21
7.341870000000085
 31
0.0
  0
LINE
  5
1023
  8
SK3
 10
-37.834376924
 20
-7.341869999999858
 30
0.0
 11
0.0
 21
-7.341869999999858
 31
0.0
  0
LINE
  5
1029
  8
1
 10
49.79999999999998
 20
-34.9250000000003
 30
0.0
 11
20.04999999999998
 21
-34.92500000000001
 31
0.0
  0
LINE
  5
102A
  8
NOCUT
 10
50.79999999999998
 20
0.0000000000001137
 30
0.0
 11
50.79999999999998
 21
33.92500000000007
 31
0.0
  0
ARC
  5
102C
  8
NOCUT
 10
49.79999999999998
 20
33.92500000000007
 30
0.0
 40
1.0
 50
0.0
 51
90.0
  0
LINE
  5
103A
  8
SK4
 10
50.79999999999998
 20
0.0000000000001137
 30
0.0
 11
87.09999979
 21
0.0000000000001137
 31
0.0
  0
DIMENSION
  5
103C
  8
SK2
  2
*D10
 10
99.15295455970576
 20
-15.87499999999989
 30
0.0
 11
97.27795455970576
 21
0.0000000000001119
 31
0.0
 70
    32
  3
ISO-25
 13
66.79999999999998
 23
15.87500000000011
 33
0.0
 14
66.79999999999998
 24
-15.87499999999989
 34
0.0
 50
90.0
1001
ACAD
1000
DSTYLE
1002
{
1070
   287
1070
     5
1070
   271
1070
     3
1070
   272
1070
     3
1070
   279
1070
     2
1002
}
  0
DIMENSION
  5
104B
  8
SK2
  2
*D11
 10
115.9478316052353
 20
-34.9250000000003
 30
0.0
 11
114.0728316052353
 21
-0.0000000000001208
 31
0.0
 70
    32
  3
ISO-25
 13
49.79999999999998
 23
34.92500000000007
 33
0.0
 14
49.79999999999998
 24
-34.9250000000003
 34
0.0
 50
90.0
1001
ACAD
1000
DSTYLE
1002
{
1070
   287
1070
     5
1070
   271
1070
     3
1070
   272
1070
     3
1070
   279
1070
     2
1002
}
  0
ENDSEC
  0
EOF
