  0
SECTION
  2
HEADER
  9
$ACADVER
  1
AC1009
  9
$DWGCODEPAGE
  3
ansi_1251
  9
$INSBASE
 10
0.0
 20
0.0
 30
0.0
  9
$EXTMIN
 10
-68.25000000000001
 20
-30.5409271246
 30
0.0
  9
$EXTMAX
 10
88.90000000000003
 20
30.50275418977125
 30
0.0
  9
$LIMMIN
 10
0.0
 20
0.0
  9
$LIMMAX
 10
420.0
 20
297.0
  9
$ORTHOMODE
 70
     1
  9
$REGENMODE
 70
     1
  9
$FILLMODE
 70
     1
  9
$QTEXTMODE
 70
     0
  9
$MIRRTEXT
 70
     0
  9
$DRAGMODE
 70
     2
  9
$LTSCALE
 40
1.0
  9
$OSMODE
 70
   279
  9
$ATTMODE
 70
     1
  9
$TEXTSIZE
 40
2.5
  9
$TRACEWID
 40
1.0
  9
$TEXTSTYLE
  7
STANDARD
  9
$CLAYER
  8
0
  9
$CELTYPE
  6
BYLAYER
  9
$CECOLOR
 62
   256
  9
$DIMSCALE
 40
1.0
  9
$DIMASZ
 40
2.5
  9
$DIMEXO
 40
0.625
  9
$DIMDLI
 40
3.75
  9
$DIMRND
 40
0.0
  9
$DIMDLE
 40
0.0
  9
$DIMEXE
 40
1.25
  9
$DIMTP
 40
0.0
  9
$DIMTM
 40
0.0
  9
$DIMTXT
 40
2.5
  9
$DIMCEN
 40
2.5
  9
$DIMTSZ
 40
0.0
  9
$DIMTOL
 70
     0
  9
$DIMLIM
 70
     0
  9
$DIMTIH
 70
     0
  9
$DIMTOH
 70
     0
  9
$DIMSE1
 70
     0
  9
$DIMSE2
 70
     0
  9
$DIMTAD
 70
     1
  9
$DIMZIN
 70
     8
  9
$DIMBLK
  1

  9
$DIMASO
 70
     1
  9
$DIMSHO
 70
     1
  9
$DIMPOST
  1

  9
$DIMAPOST
  1

  9
$DIMALT
 70
     0
  9
$DIMALTD
 70
     3
  9
$DIMALTF
 40
0.03937007874016
  9
$DIMLFAC
 40
1.0
  9
$DIMTOFL
 70
     1
  9
$DIMTVP
 40
0.0
  9
$DIMTIX
 70
     0
  9
$DIMSOXD
 70
     0
  9
$DIMSAH
 70
     0
  9
$DIMBLK1
  1

  9
$DIMBLK2
  1

  9
$DIMSTYLE
  2
ISO-25
  9
$DIMCLRD
 70
     0
  9
$DIMCLRE
 70
     0
  9
$DIMCLRT
 70
     0
  9
$DIMTFAC
 40
1.0
  9
$DIMGAP
 40
0.625
  9
$LUNITS
 70
     2
  9
$LUPREC
 70
     3
  9
$SKETCHINC
 40
1.0
  9
$FILLETRAD
 40
10.0
  9
$AUNITS
 70
     0
  9
$AUPREC
 70
     0
  9
$MENU
  1
.
  9
$ELEVATION
 40
0.0
  9
$PELEVATION
 40
0.0
  9
$THICKNESS
 40
0.0
  9
$LIMCHECK
 70
     0
  9
$CHAMFERA
 40
10.0
  9
$CHAMFERB
 40
10.0
  9
$SKPOLY
 70
     0
  9
$TDCREATE
 40
2455022.429026158
  9
$TDUPDATE
 40
2458659.538982558
  9
$TDINDWG
 40
0.1506771181
  9
$TDUSRTIMER
 40
2458702.67764213
  9
$USRTIMER
 70
     1
  9
$ANGBASE
 50
0.0
  9
$ANGDIR
 70
     0
  9
$PDMODE
 70
     0
  9
$PDSIZE
 40
0.0
  9
$PLINEWID
 40
0.0
  9
$COORDS
 70
     1
  9
$SPLFRAME
 70
     0
  9
$SPLINETYPE
 70
     6
  9
$SPLINESEGS
 70
     8
  9
$ATTDIA
 70
     0
  9
$ATTREQ
 70
     1
  9
$HANDLING
 70
     1
  9
$HANDSEED
  5
4E9E
  9
$SURFTAB1
 70
     6
  9
$SURFTAB2
 70
     6
  9
$SURFTYPE
 70
     6
  9
$SURFU
 70
     6
  9
$SURFV
 70
     6
  9
$UCSNAME
  2

  9
$UCSORG
 10
0.0
 20
0.0
 30
0.0
  9
$UCSXDIR
 10
1.0
 20
0.0
 30
0.0
  9
$UCSYDIR
 10
0.0
 20
1.0
 30
0.0
  9
$PUCSNAME
  2

  9
$PUCSORG
 10
0.0
 20
0.0
 30
0.0
  9
$PUCSXDIR
 10
1.0
 20
0.0
 30
0.0
  9
$PUCSYDIR
 10
0.0
 20
1.0
 30
0.0
  9
$USERI1
 70
     0
  9
$USERI2
 70
     0
  9
$USERI3
 70
     0
  9
$USERI4
 70
     0
  9
$USERI5
 70
     0
  9
$USERR1
 40
0.0
  9
$USERR2
 40
0.0
  9
$USERR3
 40
0.0
  9
$USERR4
 40
0.0
  9
$USERR5
 40
0.0
  9
$WORLDVIEW
 70
     1
  9
$SHADEDGE
 70
     3
  9
$SHADEDIF
 70
    70
  9
$TILEMODE
 70
     1
  9
$MAXACTVP
 70
    64
  9
$PLIMCHECK
 70
     0
  9
$PEXTMIN
 10
1.000000000000000E+20
 20
1.000000000000000E+20
 30
1.000000000000000E+20
  9
$PEXTMAX
 10
-1.000000000000000E+20
 20
-1.000000000000000E+20
 30
-1.000000000000000E+20
  9
$PLIMMIN
 10
0.0
 20
0.0
  9
$PLIMMAX
 10
420.0
 20
297.0
  9
$UNITMODE
 70
     0
  9
$VISRETAIN
 70
     1
  9
$PLINEGEN
 70
     0
  9
$PSLTSCALE
 70
     1
  0
ENDSEC
  0
SECTION
  2
TABLES
  0
TABLE
  2
VPORT
 70
     1
  0
VPORT
  2
*ACTIVE
 70
     0
 10
0.0
 20
0.0
 11
1.0
 21
1.0
 12
134.7989158026176
 22
-2.020325411445
 13
0.0
 23
0.0
 14
10.0
 24
10.0
 15
10.0
 25
10.0
 16
0.0
 26
0.0
 36
1.0
 17
0.0
 27
0.0
 37
0.0
 40
361.8132396969238
 41
1.332880434782609
 42
50.0
 43
0.0
 44
0.0
 50
0.0
 51
0.0
 71
    16
 72
  1000
 73
     1
 74
     3
 75
     0
 76
     0
 77
     0
 78
     0
  0
ENDTAB
  0
TABLE
  2
LTYPE
 70
     6
  0
LTYPE
  2
CONTINUOUS
 70
     0
  3
Solid line
 72
    65
 73
     0
 40
0.0
  0
LTYPE
  2
CENTER
 70
     0
  3
 Center _____  _  _____  _  _____  _  _____  _ 
 72
    65
 73
     4
 40
50.8
 49
31.75
 49
-6.35
 49
6.35
 49
-6.35
  0
LTYPE
  2
DASHED
 70
     0
  3
Dashed __  __  __  __  __  __  __  __  __  __  
 72
    65
 73
     2
 40
19.05
 49
12.7
 49
-6.35
  0
LTYPE
  2
HIDDEN
 70
     0
  3
Hidden __ __ __ __ __ __ __ __ __ __ __ __ __ __
 72
    65
 73
     2
 40
1.905
 49
1.27
 49
-0.635
  0
LTYPE
  2
CENTERX2
 70
     0
  3
Center (2x) ________  __  ________  __  _____
 72
    65
 73
     4
 40
20.32
 49
12.7
 49
-2.54
 49
2.54
 49
-2.54
  0
LTYPE
  2
PHANTOM
 70
     0
  3
Phantom ______  __  __  ______  __  __  ______
 72
    65
 73
     6
 40
12.7
 49
6.35
 49
-1.27
 49
1.27
 49
-1.27
 49
1.27
 49
-1.27
  0
ENDTAB
  0
TABLE
  2
LAYER
 70
    26
  0
LAYER
  2
0
 70
     0
 62
     7
  6
CONTINUOUS
  0
LAYER
  2
1
 70
     0
 62
     4
  6
CONTINUOUS
  0
LAYER
  2
2
 70
     0
 62
     7
  6
CONTINUOUS
  0
LAYER
  2
3
 70
     0
 62
     1
  6
DASHED
  0
LAYER
  2
4
 70
     0
 62
     2
  6
CENTER
  0
LAYER
  2
6
 70
     0
 62
     5
  6
CONTINUOUS
  0
LAYER
  2
7
 70
     0
 62
     5
  6
CONTINUOUS
  0
LAYER
  2
11
 70
     0
 62
     4
  6
CONTINUOUS
  0
LAYER
  2
SK1
 70
     0
 62
     4
  6
CONTINUOUS
  0
LAYER
  2
SK2
 70
     0
 62
     7
  6
CONTINUOUS
  0
LAYER
  2
SK3
 70
     0
 62
     1
  6
DASHED
  0
LAYER
  2
SK4
 70
     0
 62
     2
  6
CENTER
  0
LAYER
  2
SK6
 70
     0
 62
     5
  6
CONTINUOUS
  0
LAYER
  2
SK7
 70
     0
 62
     5
  6
CONTINUOUS
  0
LAYER
  2
SK11
 70
     0
 62
     4
  6
CONTINUOUS
  0
LAYER
  2
CUT
 70
     0
 62
     1
  6
CONTINUOUS
  0
LAYER
  2
NOCUT
 70
     0
 62
    -7
  6
CONTINUOUS
  0
LAYER
  2
SKVIEW1
 70
     0
 62
     4
  6
CONTINUOUS
  0
LAYER
  2
SKVIEW2
 70
     0
 62
     7
  6
CONTINUOUS
  0
LAYER
  2
SKVIEW3
 70
     0
 62
     1
  6
DASHED
  0
LAYER
  2
SKVIEW4
 70
     0
 62
     2
  6
CENTER
  0
LAYER
  2
SKVIEW6
 70
     0
 62
     5
  6
CONTINUOUS
  0
LAYER
  2
SKVIEW7
 70
     0
 62
     5
  6
CONTINUOUS
  0
LAYER
  2
SKVIEW11
 70
     0
 62
     4
  6
CONTINUOUS
  0
LAYER
  2
INFTOTAL
 70
     0
 62
     9
  6
CONTINUOUS
  0
LAYER
  2
DEFPOINTS
 70
     0
 62
     7
  6
CONTINUOUS
  0
ENDTAB
  0
TABLE
  2
STYLE
 70
     1
  0
STYLE
  2
STANDARD
 70
     0
 40
0.0
 41
1.0
 50
0.0
 71
     0
 42
2.5
  3
txt
  4

  0
ENDTAB
  0
TABLE
  2
VIEW
 70
     0
  0
ENDTAB
  0
TABLE
  2
UCS
 70
     0
  0
ENDTAB
  0
TABLE
  2
APPID
 70
     2
  0
APPID
  2
ACAD
 70
     0
  0
APPID
  2
ACAECLAYERSTANDARD
 70
     0
  0
ENDTAB
  0
TABLE
  2
DIMSTYLE
 70
     1
  0
DIMSTYLE
  2
ISO-25
 70
     0
  3

  4

  5

  6

  7

 40
1.0
 41
2.5
 42
0.625
 43
3.75
 44
1.25
 45
0.0
 46
0.0
 47
0.0
 48
0.0
140
2.5
141
2.5
142
0.0
143
0.03937007874016
144
1.0
145
0.0
146
1.0
147
0.625
 71
     0
 72
     0
 73
     0
 74
     0
 75
     0
 76
     0
 77
     1
 78
     8
170
     0
171
     3
172
     1
173
     0
174
     0
175
     0
176
     0
177
     0
178
     0
  0
ENDTAB
  0
ENDSEC
  0
SECTION
  2
BLOCKS
  0
BLOCK
  8
0
  2
$MODEL_SPACE
 70
     0
 10
0.0
 20
0.0
 30
0.0
  3
$MODEL_SPACE
  1

  0
ENDBLK
  5
21
  8
0
  0
BLOCK
 67
     1
  8
0
  2
$PAPER_SPACE
 70
     0
 10
0.0
 20
0.0
 30
0.0
  3
$PAPER_SPACE
  1

  0
ENDBLK
  5
1D
 67
     1
  8
0
  0
BLOCK
  8
0
  2
*U2
 70
     1
 10
0.0
 20
0.0
 30
0.0
  3
*U2
  1

  0
TEXT
  5
77E
  8
SK6
 10
-50.0
 20
78.25
 30
0.0
 40
3.5
  1
BIG KAISER
 41
0.85
  0
TEXT
  5
781
  8
SK6
 10
-50.0
 20
73.0
 30
0.0
 40
3.5
  1
BCV50-SMC1.250-12
 41
0.85
  0
ENDBLK
  5
782
  8
0
  0
BLOCK
  8
0
  2
_FILLED
 70
     0
 10
0.0
 20
0.0
 30
0.0
  3
_FILLED
  1

  0
SOLID
  5
789
  8
0
  6
BYBLOCK
 62
     0
 10
0.0
 20
0.0
 30
0.0
 11
-1.0
 21
0.2142857143
 31
0.0
 12
-1.0
 22
-0.2142857143
 32
0.0
 13
-1.0
 23
-0.2142857143
 33
0.0
  0
ENDBLK
  5
78A
  8
0
  6
BYBLOCK
 62
     0
  0
BLOCK
  8
0
  2
*U5
 70
     1
 10
0.0
 20
0.0
 30
0.0
  3
*U5
  1

  0
TEXT
  5
790
  8
SK6
 10
-85.96178542556666
 20
-67.06748653279999
 30
0.0
 40
3.5
  1
BCV50
 41
0.85
  0
ENDBLK
  5
791
  8
0
  0
BLOCK
  8
0
  2
*D8
 70
     1
 10
0.0
 20
0.0
 30
0.0
  3
*D8
  1

  0
LINE
  5
808
  8
SK2
 62
     0
 10
0.0
 20
35.54999999999998
 30
0.0
 11
0.0
 21
63.71215670356074
 31
0.0
  0
LINE
  5
809
  8
SK2
 62
     0
 10
304.8
 20
34.55000000000007
 30
0.0
 11
304.8
 21
63.71215670356074
 31
0.0
  0
LINE
  5
80A
  8
SK2
 62
     0
 10
2.5
 20
62.46215670356074
 30
0.0
 11
302.3
 21
62.46215670356074
 31
0.0
  0
SOLID
  5
80B
  8
SK2
 62
     0
 10
2.5
 20
62.8788233702274
 30
0.0
 11
2.5
 21
62.04549003689407
 31
0.0
 12
0.0
 22
62.46215670356074
 32
0.0
 13
0.0
 23
62.46215670356074
 33
0.0
  0
SOLID
  5
80C
  8
SK2
 62
     0
 10
302.3
 20
62.04549003689407
 30
0.0
 11
302.3
 21
62.8788233702274
 31
0.0
 12
304.8
 22
62.46215670356074
 32
0.0
 13
304.8
 23
62.46215670356074
 33
0.0
  0
TEXT
  5
80D
  8
SK2
  6
CONTINUOUS
 62
     0
 10
147.6083333333333
 20
63.08715670356074
 30
0.0
 40
2.5
  1
304.8
  0
POINT
  5
80E
  8
DEFPOINTS
 62
     0
 10
0.0
 20
34.92499999999998
 30
0.0
  0
POINT
  5
80F
  8
DEFPOINTS
 62
     0
 10
304.8
 20
33.92500000000007
 30
0.0
  0
POINT
  5
810
  8
DEFPOINTS
 62
     0
 10
304.8
 20
62.46215670356074
 30
0.0
  0
ENDBLK
  5
812
  8
0
  0
BLOCK
  8
0
  2
*D10
 70
     1
 10
0.0
 20
0.0
 30
0.0
  3
*D10
  1

  0
LINE
  5
1040
  8
SK2
 62
     0
 10
321.425
 20
15.87500000000011
 30
0.0
 11
354.4029545597058
 21
15.87500000000011
 31
0.0
  0
LINE
  5
1041
  8
SK2
 62
     0
 10
321.425
 20
-15.87499999999989
 30
0.0
 11
354.4029545597058
 21
-15.87499999999989
 31
0.0
  0
LINE
  5
1042
  8
SK2
 62
     0
 10
353.1529545597058
 20
13.37500000000011
 30
0.0
 11
353.1529545597058
 21
-13.37499999999989
 31
0.0
  0
SOLID
  5
1043
  8
SK2
 62
     0
 10
353.5696212263725
 20
13.37500000000011
 30
0.0
 11
352.7362878930391
 21
13.37500000000011
 31
0.0
 12
353.1529545597058
 22
15.87500000000011
 32
0.0
 13
353.1529545597058
 23
15.87500000000011
 33
0.0
  0
SOLID
  5
1044
  8
SK2
 62
     0
 10
352.7362878930391
 20
-13.37499999999989
 30
0.0
 11
353.5696212263725
 21
-13.37499999999989
 31
0.0
 12
353.1529545597058
 22
-15.87499999999989
 32
0.0
 13
353.1529545597058
 23
-15.87499999999989
 33
0.0
  0
TEXT
  5
1045
  8
SK2
  6
CONTINUOUS
 62
     0
 10
352.5279545597058
 20
-4.583333333333201
 30
0.0
 40
2.5
  1
31.75
 50
90.0
  0
POINT
  5
1046
  8
DEFPOINTS
 62
     0
 10
320.8
 20
15.87500000000011
 30
0.0
  0
POINT
  5
1047
  8
DEFPOINTS
 62
     0
 10
320.8
 20
-15.87499999999989
 30
0.0
  0
POINT
  5
1048
  8
DEFPOINTS
 62
     0
 10
353.1529545597058
 20
-15.87499999999989
 30
0.0
  0
ENDBLK
  5
104A
  8
0
  0
BLOCK
  8
0
  2
*D11
 70
     1
 10
0.0
 20
0.0
 30
0.0
  3
*D11
  1

  0
LINE
  5
104F
  8
SK2
 62
     0
 10
304.425
 20
34.92500000000007
 30
0.0
 11
371.1978316052353
 21
34.92500000000006
 31
0.0
  0
LINE
  5
1050
  8
SK2
 62
     0
 10
304.425
 20
-34.9250000000003
 30
0.0
 11
371.1978316052353
 21
-34.9250000000003
 31
0.0
  0
LINE
  5
1051
  8
SK2
 62
     0
 10
369.9478316052353
 20
32.42500000000006
 30
0.0
 11
369.9478316052353
 21
-32.4250000000003
 31
0.0
  0
SOLID
  5
1052
  8
SK2
 62
     0
 10
370.364498271902
 20
32.42500000000006
 30
0.0
 11
369.5311649385686
 21
32.42500000000006
 31
0.0
 12
369.9478316052353
 22
34.92500000000006
 32
0.0
 13
369.9478316052353
 23
34.92500000000006
 33
0.0
  0
SOLID
  5
1053
  8
SK2
 62
     0
 10
369.5311649385686
 20
-32.4250000000003
 30
0.0
 11
370.364498271902
 21
-32.4250000000003
 31
0.0
 12
369.9478316052353
 22
-34.9250000000003
 32
0.0
 13
369.9478316052353
 23
-34.9250000000003
 33
0.0
  0
TEXT
  5
1054
  8
SK2
  6
CONTINUOUS
 62
     0
 10
369.3228316052353
 20
-5.000000000000114
 30
0.0
 40
2.5
  1
69.85
 50
90.0
  0
POINT
  5
1055
  8
DEFPOINTS
 62
     0
 10
303.8
 20
34.92500000000007
 30
0.0
  0
POINT
  5
1056
  8
DEFPOINTS
 62
     0
 10
303.8
 20
-34.9250000000003
 30
0.0
  0
POINT
  5
1057
  8
DEFPOINTS
 62
     0
 10
369.9478316052353
 20
-34.9250000000003
 30
0.0
  0
ENDBLK
  5
1059
  8
0
  0
ENDSEC
  0
SECTION
  2
ENTITIES
  0
LINE
  5
685
  8
SK1
 10
0.0
 20
34.92499999999998
 30
0.0
 11
-99.6319088344
 21
20.3952133832
 31
0.0
  0
LINE
  5
686
  8
SK1
 10
-99.6319088344
 20
-20.3952133832
 30
0.0
 11
0.0
 21
-34.92500000000001
 31
0.0
  0
ARC
  5
68D
  8
SK1
 10
-99.3
 20
18.1192879614
 30
0.0
 40
2.299999999999995
 50
98.29722000000018
 51
180.0
  0
ARC
  5
68E
  8
SK1
 10
-99.3
 20
-18.1192879614
 30
0.0
 40
2.299999999999995
 50
180.0
 51
261.7027799999998
  0
LINE
  5
6F6
  8
SK1
 10
-101.6
 20
0.0
 30
0.0
 11
-101.6
 21
-18.1192879614
 31
0.0
  0
LINE
  5
6F7
  8
SK1
 10
-101.6
 20
18.1192879614
 30
0.0
 11
-101.6
 21
0.0
 31
0.0
  0
LINE
  5
71A
  8
SK3
 10
-99.5215390309
 20
-13.10000000000002
 30
0.0
 11
-99.5215390309
 21
13.09999999999999
 31
0.0
  0
LINE
  5
71B
  8
SK3
 10
-95.25
 20
-13.10000000000002
 30
0.0
 11
-95.25
 21
13.09999999999999
 31
0.0
  0
LINE
  5
72A
  8
SK3
 10
-101.6
 20
-14.30000000000001
 30
0.0
 11
-99.5215390309
 21
-13.10000000000002
 31
0.0
  0
LINE
  5
72B
  8
SK3
 10
-99.5215390309
 20
13.09999999999999
 30
0.0
 11
-101.6
 21
14.3
 31
0.0
  0
LINE
  5
72C
  8
SK3
 10
-99.5215390309
 20
-13.10000000000002
 30
0.0
 11
-95.25
 21
-13.10000000000002
 31
0.0
  0
LINE
  5
72D
  8
SK3
 10
-95.25
 20
13.09999999999999
 30
0.0
 11
-99.5215390309
 21
13.09999999999999
 31
0.0
  0
LINE
  5
72E
  8
SK3
 10
-95.25
 20
-11.09980000000002
 30
0.0
 11
-40.09999999999999
 21
-11.09980000000002
 31
0.0
  0
LINE
  5
72F
  8
SK3
 10
-40.09999999999999
 20
11.09979999999999
 30
0.0
 11
-95.25
 21
11.09979999999999
 31
0.0
  0
LINE
  5
760
  8
SK3
 10
-57.1
 20
12.69999999999999
 30
0.0
 11
-95.25
 21
12.69999999999999
 31
0.0
  0
LINE
  5
761
  8
SK3
 10
-95.25
 20
-12.69999999999999
 30
0.0
 11
-57.1
 21
-12.69999999999999
 31
0.0
  0
LINE
  5
774
  8
SK3
 10
-57.1
 20
12.69999999999999
 30
0.0
 11
-57.1
 21
-12.69999999999999
 31
0.0
  0
LINE
  5
777
  8
SK4
 10
0.0
 20
0.0
 30
0.0
 11
-101.6
 21
0.0
 31
0.0
  0
LINE
  5
779
  8
4
 10
0.0
 20
0.0
 30
0.0
 11
304.8000000000001
 21
0.0
 31
0.0
  0
INSERT
  5
77B
  8
SK6
  2
*U2
 10
-44.10380399683656
 20
-23.39313954296377
 30
0.0
  0
INSERT
  5
78D
  8
SK6
  2
*U5
 10
17.55665382414153
 20
-2.560320993650734
 30
0.0
  0
LINE
  5
793
  8
0
 10
3.0
 20
3.0
 30
0.0
 11
-3.0
 21
-3.0
 31
0.0
  0
LINE
  5
794
  8
0
 10
-3.0
 20
3.0
 30
0.0
 11
3.0
 21
-3.0
 31
0.0
  0
CIRCLE
  5
795
  8
0
 10
0.0
 20
0.0
 30
0.0
 40
2.5
  0
LINE
  5
796
  8
0
 10
307.8
 20
-3.0
 30
0.0
 11
301.8
 21
3.0
 31
0.0
  0
CIRCLE
  5
797
  8
0
 10
304.8
 20
0.0
 30
0.0
 40
2.5
  0
LINE
  5
798
  8
0
 10
301.8
 20
-3.0
 30
0.0
 11
307.8
 21
3.0
 31
0.0
  0
LINE
  5
799
  8
NOCUT
 10
0.7999999999999972
 20
34.62500000000001
 30
0.0
 11
0.2999999999999972
 21
34.62500000000001
 31
0.0
  0
LINE
  5
79C
  8
NOCUT
 10
0.2999999999999972
 20
34.62500000000001
 30
0.0
 11
0.0
 21
34.92499999999999
 31
0.0
  0
LINE
  5
79D
  8
NOCUT
 10
303.8
 20
34.92500000000007
 30
0.0
 11
121.65
 21
34.92499999999989
 31
0.0
  0
ARC
  5
79E
  8
NOCUT
 10
0.7999999999999972
 20
35.62500000000001
 30
0.0
 40
1.0
 50
270.0
 51
314.4270040008
  0
ARC
  5
79F
  8
NOCUT
 10
20.05
 20
35.92499999999999
 30
0.0
 40
1.0
 50
180.0
 51
270.0
  0
LINE
  5
7A0
  8
NOCUT
 10
12.55499999999999
 20
45.64499999999999
 30
0.0
 11
9.704999999999998
 21
45.64499999999999
 31
0.0
  0
ARC
  5
7A1
  8
NOCUT
 10
12.55499999999999
 20
46.14499999999999
 30
0.0
 40
0.5
 50
270.0
 51
0.0
  0
ARC
  5
7A2
  8
NOCUT
 10
9.704999999999998
 20
46.14499999999999
 30
0.0
 40
0.5
 50
180.0
 51
270.0
  0
ARC
  5
7A3
  8
NOCUT
 10
2.299999999999997
 20
48.4125
 30
0.0
 40
0.7999999999999972
 50
90.0
 51
180.0
  0
ARC
  5
7A4
  8
NOCUT
 10
18.24999999999999
 20
48.4125
 30
0.0
 40
0.799999999999983
 50
0.0
 51
90.0
  0
LINE
  5
7A5
  8
NOCUT
 10
9.204999999999998
 20
46.43919780459999
 30
0.0
 11
7.603833230999996
 21
49.21250000000001
 31
0.0
  0
LINE
  5
7A6
  8
NOCUT
 10
14.65616676910001
 20
49.21250000000001
 30
0.0
 11
13.05499999999999
 21
46.43919780459999
 31
0.0
  0
LINE
  5
7A7
  8
NOCUT
 10
18.24999999999999
 20
49.21250000000001
 30
0.0
 11
14.65616676910001
 21
49.21250000000001
 31
0.0
  0
LINE
  5
7A8
  8
NOCUT
 10
7.603833230999996
 20
49.21250000000001
 30
0.0
 11
2.299999999999997
 21
49.21250000000001
 31
0.0
  0
LINE
  5
7AC
  8
NOCUT
 10
1.5
 20
48.4125
 30
0.0
 11
1.499999999999929
 21
34.91085715714565
 31
0.0
  0
LINE
  5
7AD
  8
NOCUT
 10
19.04999999999997
 20
48.4125
 30
0.0
 11
19.05
 21
35.92499999999999
 31
0.0
  0
LINE
  5
7AE
  8
NOCUT
 10
9.204999999999998
 20
46.43919780459999
 30
0.0
 11
9.204999999999998
 21
46.14499999999999
 31
0.0
  0
LINE
  5
7AF
  8
NOCUT
 10
13.05499999999999
 20
46.43919780459999
 30
0.0
 11
13.05499999999999
 21
46.14499999999999
 31
0.0
  0
DIMENSION
  5
804
  8
SK2
  2
*D8
 10
304.8
 20
62.46215670356074
 30
0.0
 11
152.4
 21
64.33715670356074
 31
0.0
 70
    32
  3
ISO-25
 13
0.0
 23
34.92499999999998
 33
0.0
 14
304.8
 24
33.92500000000007
 34
0.0
1001
ACAD
1000
DSTYLE
1002
{
1070
   287
1070
     5
1070
   271
1070
     3
1070
   272
1070
     3
1070
   279
1070
     2
1002
}
  0
LINE
  5
8BF
  8
NOCUT
 10
0.0
 20
34.92499999999999
 30
0.0
 11
0.0
 21
0.0
 31
0.0
  0
LINE
  5
8C0
  8
NOCUT
 10
0.0
 20
0.0
 30
0.0
 11
304.8000000000001
 21
0.0
 31
0.0
  0
INSERT
  5
A17
  8
SK6
  2
_FILLED
 10
-20.78186483605847
 20
-31.89428358495073
 30
0.0
 41
3.5
 42
3.5
 43
3.5
 50
52.86965044919886
  0
POLYLINE
  5
A18
  8
SK6
 66
     1
 10
0.0
 20
0.0
 30
0.0
  0
VERTEX
  5
4937
  8
SK6
 10
-22.89457117648658
 20
-34.68470862768434
 30
0.0
  0
VERTEX
  5
4938
  8
SK6
 10
-48.02596493475846
 20
-67.87780752645074
 30
0.0
  0
VERTEX
  5
4939
  8
SK6
 10
-49.90096493475846
 20
-66.12780752645074
 30
0.0
  0
VERTEX
  5
493A
  8
SK6
 10
-53.40096493475846
 20
-66.12780752645074
 30
0.0
  0
SEQEND
  5
4E9D
  8
SK6
  0
ARC
  5
AC7
  8
1
 10
20.04999999999998
 20
35.92499999999998
 30
0.0
 40
1.0
 50
180.0
 51
270.0
  0
ARC
  5
AC9
  8
1
 10
20.04999999999998
 20
-35.92500000000001
 30
0.0
 40
1.0
 50
90.0
 51
180.0
  0
ARC
  5
ACA
  8
1
 10
1.299999999999983
 20
35.125
 30
0.0
 40
0.5
 50
270.0
 51
293.5781784781994
  0
ARC
  5
ACB
  8
1
 10
1.299999999999983
 20
-35.125
 30
0.0
 40
0.500000000000009
 50
66.42182152180017
 51
90.0
  0
LINE
  5
ACF
  8
1
 10
0.0
 20
-34.92500000000001
 30
0.0
 11
0.2999999999999829
 21
-34.625
 31
0.0
  0
LINE
  5
AD0
  8
1
 10
0.2999999999999829
 20
34.625
 30
0.0
 11
0.0
 21
34.92499999999998
 31
0.0
  0
LINE
  5
AD5
  8
1
 10
1.299999999999983
 20
34.625
 30
0.0
 11
0.2999999999999829
 21
34.625
 31
0.0
  0
LINE
  5
AD6
  8
1
 10
0.2999999999999829
 20
-34.625
 30
0.0
 11
1.299999999999983
 21
-34.625
 31
0.0
  0
LINE
  5
ADB
  8
1
 10
14.65616694409999
 20
-47.282880439
 30
0.0
 11
14.68806954659999
 21
-47.29184187660002
 31
0.0
  0
LINE
  5
ADC
  8
1
 10
14.6561667691
 20
47.30816788690001
 30
0.0
 11
14.6561667691
 21
-47.2826327523
 31
0.0
  0
LINE
  5
ADD
  8
1
 10
14.7615962207
 20
47.3314147463
 30
0.0
 11
14.6561668942
 21
47.30816788690001
 31
0.0
  0
LINE
  5
ADE
  8
1
 10
18.25
 20
47.3314147463
 30
0.0
 11
14.7615962207
 21
47.3314147463
 31
0.0
  0
LINE
  5
ADF
  8
1
 10
14.68806954659999
 20
-47.29184187660002
 30
0.0
 11
18.25
 21
-47.29184187660002
 31
0.0
  0
LINE
  5
AE0
  8
1
 10
7.498403779400007
 20
47.3314147463
 30
0.0
 11
4.006414746699988
 21
47.3314147463
 31
0.0
  0
LINE
  5
AE1
  8
1
 10
7.603833105900009
 20
47.30816788690001
 30
0.0
 11
7.498403779400007
 21
47.3314147463
 31
0.0
  0
LINE
  5
AE2
  8
1
 10
7.603833230899994
 20
47.30844201400001
 30
0.0
 11
7.603833230899994
 21
-47.28288044160001
 31
0.0
  0
LINE
  5
AE3
  8
1
 10
7.571930453299984
 20
-47.29184187660002
 30
0.0
 11
7.603833055899997
 21
-47.282880439
 31
0.0
  0
LINE
  5
AE4
  8
1
 10
4.040356993800003
 20
-47.29184187660002
 30
0.0
 11
7.571930453299984
 21
-47.29184187660002
 31
0.0
  0
LINE
  5
AE5
  8
1
 10
2.300001405499984
 20
-46.74795901499999
 30
0.0
 11
4.040356993800003
 21
-47.29184189310001
 31
0.0
  0
LINE
  5
AE6
  8
1
 10
4.006414746699988
 20
47.33141476029999
 30
0.0
 11
2.299999765199999
 21
46.80267569
 31
0.0
  0
ARC
  5
AE7
  8
1
 10
2.557435939599998
 20
-45.59355264690001
 30
0.0
 40
1.184053137363273
 50
207.7147598986998
 51
257.3157095984005
  0
LINE
  5
AE8
  8
1
 10
1.50922466130001
 20
-46.14422037630001
 30
0.0
 11
1.5
 21
-46.01377680920001
 31
0.0
  0
LINE
  5
AE9
  8
1
 10
1.5
 20
-46.01377680920001
 30
0.0
 11
1.5
 21
46.01377680919998
 31
0.0
  0
ARC
  5
AEA
  8
1
 10
2.572884962100005
 20
45.72649004249999
 30
0.0
 40
1.111555736593689
 50
104.3436511600003
 51
164.8417645594994
  0
LINE
  5
AEB
  8
1
 10
9.204999995999998
 20
44.41431970880001
 30
0.0
 11
7.60383322749999
 21
47.3081678945
 31
0.0
  0
LINE
  5
AEC
  8
1
 10
9.204999999999984
 20
44.4143196734
 30
0.0
 11
9.204999999999984
 21
-44.387299867
 31
0.0
  0
LINE
  5
AED
  8
1
 10
7.603833226399985
 20
-47.28288044990001
 30
0.0
 11
9.2049999921
 21
-44.38762367050001
 31
0.0
  0
LINE
  5
AEE
  8
1
 10
14.65616677259999
 20
47.3081678945
 30
0.0
 11
13.05500000399999
 21
44.41431970880001
 31
0.0
  0
LINE
  5
AEF
  8
1
 10
13.05500000800001
 20
-44.38762367050001
 30
0.0
 11
14.65616677360001
 21
-47.28288044990001
 31
0.0
  0
LINE
  5
AF0
  8
1
 10
13.05500000000001
 20
44.41459195280001
 30
0.0
 11
13.05500000000001
 21
-44.38762365650001
 31
0.0
  0
ARC
  5
AF1
  8
1
 10
17.92302328310001
 20
46.41895288640001
 30
0.0
 40
1.127359624435328
 50
1.493363825500091
 51
43.53750291790048
  0
LINE
  5
AF2
  8
1
 10
19.04999999999998
 20
46.44833319130001
 30
0.0
 11
19.04999999999998
 21
-46.44833319130001
 31
0.0
  0
ARC
  5
AF3
  8
1
 10
17.91824827779999
 20
-46.4157978575
 30
0.0
 40
1.1322192847622
 50
319.2464850235001
 51
358.3533278529993
  0
ARC
  5
AF4
  8
1
 10
18.2616113983
 20
-46.25791326929999
 30
0.0
 40
1.033993805426882
 50
269.3565743835002
 51
299.8289453780985
  0
ARC
  5
AF5
  8
1
 10
18.2610591033
 20
46.41902767409999
 30
0.0
 40
0.9124540938653742
 50
58.31881226410037
 51
90.69445187719943
  0
ARC
  5
AF6
  8
1
 10
12.5158206966
 20
-44.1073442162
 30
0.0
 40
0.5397579791454132
 50
357.3466499737992
 51
85.83742202690154
  0
ARC
  5
AF7
  8
1
 10
12.54139279200001
 20
44.09944295630001
 30
0.0
 40
0.4858431210597904
 50
271.6049163143007
 51
333.441972537701
  0
POLYLINE
  5
AF8
  8
1
 66
     1
 10
0.0
 20
0.0
 30
0.0
  0
VERTEX
  5
493B
  8
1
 10
13.05500000000001
 20
44.14662312639999
 30
0.0
  0
VERTEX
  5
493C
  8
1
 10
13.03542892280001
 20
44.01594229719998
 30
0.0
  0
VERTEX
  5
493D
  8
1
 10
12.97787844319998
 20
43.88571451269999
 30
0.0
  0
SEQEND
  5
4E9C
  8
1
  0
ARC
  5
AF9
  8
1
 10
9.744214343399989
 20
-44.10737531749999
 30
0.0
 40
0.5397915428070933
 50
94.16604783349855
 51
182.6498801657025
  0
POLYLINE
  5
AFA
  8
1
 66
     1
 10
0.0
 20
0.0
 30
0.0
  0
VERTEX
  5
493E
  8
1
 10
9.280099379399985
 20
43.88913247470001
 30
0.0
  0
VERTEX
  5
493F
  8
1
 10
9.224055884099982
 20
44.0177026321
 30
0.0
  0
VERTEX
  5
4940
  8
1
 10
9.204999999999984
 20
44.14662312639999
 30
0.0
  0
SEQEND
  5
4E9B
  8
1
  0
ARC
  5
AFB
  8
1
 10
9.721350266000002
 20
44.10422581969999
 30
0.0
 40
0.4907078648052702
 50
206.0244317763009
 51
268.0905652222996
  0
LINE
  5
AFC
  8
1
 10
12.55500000000001
 20
43.613790424
 30
0.0
 11
9.704999999999984
 21
43.613790424
 31
0.0
  0
LINE
  5
AFD
  8
1
 10
9.704999999999984
 20
-43.5690100651
 30
0.0
 11
12.55500000000001
 21
-43.5690100651
 31
0.0
  0
LINE
  5
B00
  8
1
 10
0.2999999999999829
 20
34.625
 30
0.0
 11
0.2999999999999829
 21
-34.625
 31
0.0
  0
LINE
  5
B01
  8
1
 10
0.0
 20
34.92499999999998
 30
0.0
 11
0.0
 21
-34.92500000000001
 31
0.0
  0
LINE
  5
B04
  8
1
 10
14.68806954670001
 20
-47.29184187660002
 30
0.0
 11
14.65616694420001
 21
-47.282880439
 31
0.0
  0
LINE
  5
B1A
  8
3
 10
1.500000000000004
 20
37.72
 30
0.0
 11
19.04999999999998
 21
37.72
 31
0.0
  0
LINE
  5
B3B
  8
3
 10
1.5
 20
-35.30000000000001
 30
0.0
 11
19.26937525020018
 21
-35.30000000000001
 31
0.0
  0
LINE
  5
B42
  8
3
 10
26.97499999999999
 20
28.32499999999999
 30
0.0
 11
33.32499999999999
 21
28.32499999999999
 31
0.0
  0
LINE
  5
B43
  8
3
 10
20.625
 20
28.32499999999999
 30
0.0
 11
26.97499999999999
 21
28.32499999999999
 31
0.0
  0
LINE
  5
B44
  8
3
 10
11.375
 20
37.31999999999999
 30
0.0
 11
16.125
 21
37.31999999999999
 31
0.0
  0
LINE
  5
B45
  8
3
 10
6.625
 20
37.31999999999999
 30
0.0
 11
11.375
 21
37.31999999999999
 31
0.0
  0
LINE
  5
B55
  8
3
 10
20.625
 20
28.32499999999999
 30
0.0
 11
26.97499999999999
 21
24.50953506919998
 31
0.0
  0
LINE
  5
B56
  8
3
 10
26.97499999999999
 20
24.50953506919998
 30
0.0
 11
33.32499999999999
 21
28.32499999999999
 31
0.0
  0
LINE
  5
B57
  8
3
 10
20.625
 20
34.92499999999998
 30
0.0
 11
20.625
 21
28.32499999999999
 31
0.0
  0
LINE
  5
B58
  8
3
 10
33.32499999999999
 20
28.32499999999999
 30
0.0
 11
33.32499999999999
 21
34.92499999999998
 31
0.0
  0
LINE
  5
B59
  8
3
 10
6.625
 20
37.72
 30
0.0
 11
6.625
 21
37.31999999999999
 31
0.0
  0
LINE
  5
B5A
  8
3
 10
16.125
 20
37.31999999999999
 30
0.0
 11
16.125
 21
37.72
 31
0.0
  0
LINE
  5
B5B
  8
1
 10
20.04999999999998
 20
-34.92500000000001
 30
0.0
 11
20.04999999999998
 21
34.92499999999998
 31
0.0
  0
LINE
  5
B5C
  8
1
 10
1.299999999999983
 20
-34.625
 30
0.0
 11
1.299999999999983
 21
34.625
 31
0.0
  0
LINE
  5
B5F
  8
1
 10
12.55500000000001
 20
-43.00413183130001
 30
0.0
 11
12.55500000000001
 21
42.79577481850001
 31
0.0
  0
LINE
  5
B60
  8
1
 10
9.704999999999984
 20
-43.00421493109999
 30
0.0
 11
9.704999999999984
 21
42.7957705776
 31
0.0
  0
LINE
  5
B62
  8
1
 10
18.25
 20
47.3314147463
 30
0.0
 11
18.25
 21
-47.29184187660002
 31
0.0
  0
LINE
  5
B64
  8
1
 10
2.299999999999983
 20
-46.74795854910002
 30
0.0
 11
2.299999999999983
 21
46.80267576719999
 31
0.0
  0
LINE
  5
CE0
  8
1
 10
303.8
 20
34.92500000000007
 30
0.0
 11
20.04999999999995
 21
34.92500000000007
 31
0.0
  0
ARC
  5
CE2
  8
1
 10
303.8
 20
-33.92500000000007
 30
0.0
 40
1.000000000000227
 50
270.0
 51
0.0
  0
ARC
  5
CE3
  8
1
 10
303.8
 20
33.92500000000007
 30
0.0
 40
1.0
 50
0.0
 51
90.0
  0
LINE
  5
CFB
  8
1
 10
304.8
 20
-31.75381000000004
 30
0.0
 11
304.8283378126
 21
-31.75381000000004
 31
0.0
  0
CIRCLE
  5
D1F
  8
1
 10
286.8
 20
0.0000000000001137
 30
0.0
 40
2.624999999999545
  0
LINE
  5
D20
  8
1
 10
304.8
 20
0.0000000000001137
 30
0.0
 11
304.8
 21
33.92500000000007
 31
0.0
  0
LINE
  5
D21
  8
1
 10
304.8
 20
-33.92500000000007
 30
0.0
 11
304.8
 21
0.0000000000001137
 31
0.0
  0
CIRCLE
  5
D22
  8
1
 10
286.8
 20
0.0000000000001137
 30
0.0
 40
2.525000000000006
  0
LINE
  5
D28
  8
1
 10
285.55
 20
-0.721687836499882
 30
0.0
 11
286.8
 21
-1.443375672999878
 31
0.0
  0
LINE
  5
D29
  8
1
 10
288.05
 20
-0.721687836499882
 30
0.0
 11
286.8
 21
-1.443375672999878
 31
0.0
  0
LINE
  5
D2A
  8
1
 10
288.05
 20
0.7216878365001094
 30
0.0
 11
288.05
 21
-0.721687836499882
 31
0.0
  0
LINE
  5
D2B
  8
1
 10
288.05
 20
0.7216878365001094
 30
0.0
 11
286.8
 21
1.443375673000105
 31
0.0
  0
LINE
  5
D2C
  8
1
 10
285.55
 20
0.7216878365001094
 30
0.0
 11
286.8
 21
1.443375673000105
 31
0.0
  0
LINE
  5
D2D
  8
1
 10
285.55
 20
0.7216878365001094
 30
0.0
 11
285.55
 21
-0.721687836499882
 31
0.0
  0
CIRCLE
  5
D2E
  8
1
 10
286.8
 20
0.0000000000001137
 30
0.0
 40
2.054999999999836
  0
CIRCLE
  5
D2F
  8
1
 10
286.8
 20
0.0000000000001137
 30
0.0
 40
2.256103126842049
  0
CIRCLE
  5
D30
  8
1
 10
286.8
 20
0.0000000000001137
 30
0.0
 40
2.500000000000085
  0
POLYLINE
  5
D3E
  8
3
 66
     1
 10
0.0
 20
0.0
 30
0.0
  0
VERTEX
  5
4941
  8
3
 10
286.8
 20
-28.84788378399992
 30
0.0
  0
VERTEX
  5
4942
  8
3
 10
287.6674984817
 20
-28.93098265750007
 30
0.0
  0
VERTEX
  5
4943
  8
3
 10
288.4371754239
 20
-29.16774297809991
 30
0.0
  0
VERTEX
  5
4944
  8
3
 10
289.0238158074
 20
-29.52444509919985
 30
0.0
  0
VERTEX
  5
4945
  8
3
 10
289.360307759
 20
-29.9521880481999
 30
0.0
  0
VERTEX
  5
4946
  8
3
 10
289.4077571143
 20
-30.39500826999995
 30
0.0
  0
VERTEX
  5
4947
  8
3
 10
289.1624298798
 20
-30.80187446539992
 30
0.0
  0
VERTEX
  5
4948
  8
3
 10
288.6518724712
 20
-31.13320775749992
 30
0.0
  0
VERTEX
  5
4949
  8
3
 10
287.9314689166
 20
-31.3606117354999
 30
0.0
  0
VERTEX
  5
494A
  8
3
 10
287.0830058601
 20
-31.46622946299988
 30
0.0
  0
VERTEX
  5
494B
  8
3
 10
286.2045645979
 20
-31.44307976840003
 30
0.0
  0
VERTEX
  5
494C
  8
3
 10
285.39416225
 20
-31.29335200349999
 30
0.0
  0
VERTEX
  5
494D
  8
3
 10
284.740409202
 20
-31.02682272200002
 30
0.0
  0
VERTEX
  5
494E
  8
3
 10
284.3175743299
 20
-30.66357714589992
 30
0.0
  0
VERTEX
  5
494F
  8
3
 10
284.1750524153
 20
-30.23763957640006
 30
0.0
  0
VERTEX
  5
4950
  8
3
 10
284.3278161119
 20
-29.79499263650007
 30
0.0
  0
VERTEX
  5
4951
  8
3
 10
284.7577583493
 20
-29.38759440029992
 30
0.0
  0
VERTEX
  5
4952
  8
3
 10
285.4183925845
 20
-29.06811232050006
 30
0.0
  0
VERTEX
  5
4953
  8
3
 10
286.2359086638
 20
-28.88250270679998
 30
0.0
  0
VERTEX
  5
4954
  8
3
 10
286.8
 20
-28.84788378399992
 30
0.0
  0
SEQEND
  5
4E9A
  8
3
  0
POLYLINE
  5
D3F
  8
3
 66
     1
 10
0.0
 20
0.0
 30
0.0
  0
VERTEX
  5
4955
  8
3
 10
286.8
 20
31.47288378400015
 30
0.0
  0
VERTEX
  5
4956
  8
3
 10
287.6674984817
 20
31.40849580259999
 30
0.0
  0
VERTEX
  5
4957
  8
3
 10
288.4371754239
 20
31.21964005920006
 30
0.0
  0
VERTEX
  5
4958
  8
3
 10
289.0238158074
 20
30.91917383800012
 30
0.0
  0
VERTEX
  5
4959
  8
3
 10
289.360307759
 20
30.53136779520003
 30
0.0
  0
VERTEX
  5
495A
  8
3
 10
289.4077571143
 20
30.09462878880015
 30
0.0
  0
VERTEX
  5
495B
  8
3
 10
289.1624298798
 20
29.65751872390013
 30
0.0
  0
VERTEX
  5
495C
  8
3
 10
288.6518724712
 20
29.27277948669996
 30
0.0
  0
VERTEX
  5
495D
  8
3
 10
287.9314689166
 20
28.99198278799997
 30
0.0
  0
VERTEX
  5
495E
  8
3
 10
287.7708600341
 20
28.96634235060003
 30
0.0
  0
SEQEND
  5
4E99
  8
3
  0
POLYLINE
  5
D40
  8
3
 66
     1
 10
0.0
 20
0.0
 30
0.0
  0
VERTEX
  5
495F
  8
3
 10
285.8444933061
 20
28.97094003550012
 30
0.0
  0
VERTEX
  5
4960
  8
3
 10
285.39416225
 20
29.07654230929995
 30
0.0
  0
VERTEX
  5
4961
  8
3
 10
284.740409202
 20
29.3993367022
 30
0.0
  0
VERTEX
  5
4962
  8
3
 10
284.3175743299
 20
29.81023794479995
 30
0.0
  0
VERTEX
  5
4963
  8
3
 10
284.1750524153
 20
30.2542280545
 30
0.0
  0
VERTEX
  5
4964
  8
3
 10
284.3278161119
 20
30.67756377989997
 30
0.0
  0
VERTEX
  5
4965
  8
3
 10
284.7577583493
 20
31.03679846279999
 30
0.0
  0
VERTEX
  5
4966
  8
3
 10
285.4183925845
 20
31.30010379650014
 30
0.0
  0
VERTEX
  5
4967
  8
3
 10
286.2359086638
 20
31.44617701610002
 30
0.0
  0
VERTEX
  5
4968
  8
3
 10
286.8
 20
31.47288378400015
 30
0.0
  0
SEQEND
  5
4E98
  8
3
  0
CIRCLE
  5
D41
  8
3
 10
286.8
 20
0.0000000000001137
 30
0.0
 40
2.099999999999994
  0
LINE
  5
D4D
  8
SK3
 10
-40.09999999999999
 20
0.0000000000001137
 30
0.0
 11
-40.09999999999999
 21
11.11250000000007
 31
0.0
  0
LINE
  5
D4E
  8
SK3
 10
-40.09999999999999
 20
-11.11250000000007
 30
0.0
 11
-40.09999999999999
 21
0.0000000000001137
 31
0.0
  0
LINE
  5
D4F
  8
SK3
 10
-37.834376924
 20
0.0000000000001137
 30
0.0
 11
-37.834376924
 21
-7.341869999999858
 31
0.0
  0
LINE
  5
D50
  8
SK3
 10
-37.834376924
 20
7.341870000000085
 30
0.0
 11
-37.834376924
 21
0.0000000000001137
 31
0.0
  0
POLYLINE
  5
D53
  8
3
 66
     1
 10
0.0
 20
0.0
 30
0.0
  0
VERTEX
  5
4969
  8
3
 10
286.8
 20
7.142601359200057
 30
0.0
  0
VERTEX
  5
496A
  8
3
 10
287.4788114707
 20
7.11452859489998
 30
0.0
  0
VERTEX
  5
496B
  8
3
 10
288.0807739407001
 20
7.024852442100041
 30
0.0
  0
VERTEX
  5
496C
  8
3
 10
288.5560423335
 20
6.855363423699941
 30
0.0
  0
VERTEX
  5
496D
  8
3
 10
288.8406959173
 20
6.591516763100003
 30
0.0
  0
VERTEX
  5
496E
  8
3
 10
288.8901991500001
 20
6.254497762500137
 30
0.0
  0
VERTEX
  5
496F
  8
3
 10
288.7165702344
 20
5.885470292800051
 30
0.0
  0
VERTEX
  5
4970
  8
3
 10
288.3406196151
 20
5.523451856700035
 30
0.0
  0
VERTEX
  5
4971
  8
3
 10
287.7815982434
 20
5.223388291400056
 30
0.0
  0
VERTEX
  5
4972
  8
3
 10
287.1023388719
 20
5.059163961699937
 30
0.0
  0
VERTEX
  5
4973
  8
3
 10
286.4098814051
 20
5.070238859900087
 30
0.0
  0
VERTEX
  5
4974
  8
3
 10
285.7762875327001
 20
5.23997753569995
 30
0.0
  0
VERTEX
  5
4975
  8
3
 10
285.2392323398
 20
5.538239863000058
 30
0.0
  0
VERTEX
  5
4976
  8
3
 10
284.8597170241
 20
5.918418927000062
 30
0.0
  0
VERTEX
  5
4977
  8
3
 10
284.7029203487
 20
6.30216747040015
 30
0.0
  0
VERTEX
  5
4978
  8
3
 10
284.779171346
 20
6.624567060700087
 30
0.0
  0
VERTEX
  5
4979
  8
3
 10
285.0656411802
 20
6.867043579300002
 30
0.0
  0
VERTEX
  5
497A
  8
3
 10
285.5461186494
 20
7.030900774799989
 30
0.0
  0
VERTEX
  5
497B
  8
3
 10
286.1831681338
 20
7.119658210600051
 30
0.0
  0
VERTEX
  5
497C
  8
3
 10
286.8
 20
7.142601359200057
 30
0.0
  0
SEQEND
  5
4E97
  8
3
  0
POLYLINE
  5
D54
  8
3
 66
     1
 10
0.0
 20
0.0
 30
0.0
  0
VERTEX
  5
497D
  8
3
 10
286.8
 20
-5.042601359299965
 30
0.0
  0
VERTEX
  5
497E
  8
3
 10
287.4788114707
 20
-5.12726540469987
 30
0.0
  0
VERTEX
  5
497F
  8
3
 10
288.0807739407001
 20
-5.360635475300001
 30
0.0
  0
VERTEX
  5
4980
  8
3
 10
288.5560423335
 20
-5.703705782300062
 30
0.0
  0
VERTEX
  5
4981
  8
3
 10
288.8406959173
 20
-6.095976479099932
 30
0.0
  0
VERTEX
  5
4982
  8
3
 10
288.8901991500001
 20
-6.457148973899962
 30
0.0
  0
VERTEX
  5
4983
  8
3
 10
288.7165702344
 20
-6.743816689500022
 30
0.0
  0
VERTEX
  5
4984
  8
3
 10
288.3406196151
 20
-6.950508688600053
 30
0.0
  0
VERTEX
  5
4985
  8
3
 10
287.7815982434
 20
-7.079853989599883
 30
0.0
  0
VERTEX
  5
4986
  8
3
 10
287.1023388719
 20
-7.137286000100062
 30
0.0
  0
VERTEX
  5
4987
  8
3
 10
286.4098814051
 20
-7.133684396399872
 30
0.0
  0
VERTEX
  5
4988
  8
3
 10
285.7762875327001
 20
-7.073556763500051
 30
0.0
  0
VERTEX
  5
4989
  8
3
 10
285.2392323398
 20
-6.943232500399859
 30
0.0
  0
VERTEX
  5
498A
  8
3
 10
284.8597170241
 20
-6.721725825699991
 30
0.0
  0
VERTEX
  5
498B
  8
3
 10
284.7029203487
 20
-6.412878517799868
 30
0.0
  0
VERTEX
  5
498C
  8
3
 10
284.779171346
 20
-6.053382719900014
 30
0.0
  0
VERTEX
  5
498D
  8
3
 10
285.0656411802
 20
-5.682982987999935
 30
0.0
  0
VERTEX
  5
498E
  8
3
 10
285.5461186494
 20
-5.346329150199949
 30
0.0
  0
VERTEX
  5
498F
  8
3
 10
286.1831681338
 20
-5.112292163100051
 30
0.0
  0
VERTEX
  5
4990
  8
3
 10
286.8
 20
-5.042601359299965
 30
0.0
  0
SEQEND
  5
4E96
  8
3
  0
LINE
  5
D55
  8
3
 10
289.8
 20
31.75049999999999
 30
0.0
 11
289.8
 21
19.04949999999997
 31
0.0
  0
LINE
  5
D56
  8
3
 10
289.8
 20
-19.04949999999997
 30
0.0
 11
289.8
 21
-31.75049999999999
 31
0.0
  0
POLYLINE
  5
D5B
  8
3
 66
     1
 10
0.0
 20
0.0
 30
0.0
  0
VERTEX
  5
4991
  8
3
 10
286.8
 20
30.06185102680013
 30
0.0
  0
VERTEX
  5
4992
  8
3
 10
287.518242301
 20
29.99852827860002
 30
0.0
  0
VERTEX
  5
4993
  8
3
 10
288.1498539804001
 20
29.81619769199995
 30
0.0
  0
VERTEX
  5
4994
  8
3
 10
288.618653348
 20
29.53685102680004
 30
0.0
  0
VERTEX
  5
4995
  8
3
 10
288.8680962814
 20
29.19418161329997
 30
0.0
  0
VERTEX
  5
4996
  8
3
 10
288.8680962814
 20
28.8295204402001
 30
0.0
  0
VERTEX
  5
4997
  8
3
 10
288.618653348
 20
28.48685102680008
 30
0.0
  0
VERTEX
  5
4998
  8
3
 10
288.1498539804001
 20
28.20750436150013
 30
0.0
  0
VERTEX
  5
4999
  8
3
 10
287.518242301
 20
28.02517377490005
 30
0.0
  0
VERTEX
  5
499A
  8
3
 10
286.8
 20
27.96185102679999
 30
0.0
  0
VERTEX
  5
499B
  8
3
 10
286.081757699
 20
28.02517377490005
 30
0.0
  0
VERTEX
  5
499C
  8
3
 10
285.4501460197
 20
28.20750436150013
 30
0.0
  0
VERTEX
  5
499D
  8
3
 10
284.9813466521
 20
28.48685102680008
 30
0.0
  0
VERTEX
  5
499E
  8
3
 10
284.7319037187
 20
28.8295204402001
 30
0.0
  0
VERTEX
  5
499F
  8
3
 10
284.7319037187
 20
29.19418161329997
 30
0.0
  0
VERTEX
  5
49A0
  8
3
 10
284.9813466521
 20
29.53685102680004
 30
0.0
  0
VERTEX
  5
49A1
  8
3
 10
285.4501460197
 20
29.81619769199995
 30
0.0
  0
VERTEX
  5
49A2
  8
3
 10
286.081757699
 20
29.99852827860002
 30
0.0
  0
VERTEX
  5
49A3
  8
3
 10
286.8
 20
30.06185102680013
 30
0.0
  0
SEQEND
  5
4E95
  8
3
  0
POLYLINE
  5
D5C
  8
3
 66
     1
 10
0.0
 20
0.0
 30
0.0
  0
VERTEX
  5
49A4
  8
3
 10
287.9874342087001
 20
10.1757984945001
 30
0.0
  0
VERTEX
  5
49A5
  8
3
 10
287.6307135081
 20
9.66977149310003
 30
0.0
  0
VERTEX
  5
49A6
  8
3
 10
287.4930665581001
 20
9.414316763800002
 30
0.0
  0
VERTEX
  5
49A7
  8
3
 10
287.441457207
 20
9.209155885299992
 30
0.0
  0
VERTEX
  5
49A8
  8
3
 10
287.4692654754
 20
9.011915962300122
 30
0.0
  0
VERTEX
  5
49A9
  8
3
 10
287.6124097565
 20
8.774532872500117
 30
0.0
  0
VERTEX
  5
49AA
  8
3
 10
288.0612023873
 20
8.395253660000094
 30
0.0
  0
VERTEX
  5
49AB
  8
3
 10
288.562449691
 20
8.182853683999951
 30
0.0
  0
VERTEX
  5
49AC
  8
3
 10
288.7967185942
 20
8.212678140000094
 30
0.0
  0
VERTEX
  5
49AD
  8
3
 10
288.8989640743
 20
8.41171314159999
 30
0.0
  0
VERTEX
  5
49AE
  8
3
 10
288.8524341615
 20
8.709264812000015
 30
0.0
  0
VERTEX
  5
49AF
  8
3
 10
288.7027405741
 20
9.068375611500073
 30
0.0
  0
VERTEX
  5
49B0
  8
3
 10
288.3654809665
 20
9.638514827300128
 30
0.0
  0
VERTEX
  5
49B1
  8
3
 10
287.8087797991
 20
10.42164103419998
 30
0.0
  0
VERTEX
  5
49B2
  8
3
 10
287.5826480156001
 20
10.76040447870002
 30
0.0
  0
VERTEX
  5
49B3
  8
3
 10
287.4623756697
 20
11.02537921250007
 30
0.0
  0
VERTEX
  5
49B4
  8
3
 10
287.4419854699
 20
11.21564272800003
 30
0.0
  0
VERTEX
  5
49B5
  8
3
 10
287.4899948735
 20
11.39014499200005
 30
0.0
  0
VERTEX
  5
49B6
  8
3
 10
287.6867697775
 20
11.65888278659997
 30
0.0
  0
VERTEX
  5
49B7
  8
3
 10
288.2437809255
 20
12.05893686470006
 30
0.0
  0
VERTEX
  5
49B8
  8
3
 10
288.6302357267
 20
12.17550193290015
 30
0.0
  0
VERTEX
  5
49B9
  8
3
 10
288.8315862227
 20
12.11135876740002
 30
0.0
  0
VERTEX
  5
49BA
  8
3
 10
288.8995856547
 20
11.88661539700013
 30
0.0
  0
VERTEX
  5
49BB
  8
3
 10
288.8310524638
 20
11.57819859829999
 30
0.0
  0
VERTEX
  5
49BC
  8
3
 10
288.6618425502
 20
11.20416659449995
 30
0.0
  0
VERTEX
  5
49BD
  8
3
 10
288.2897946255
 20
10.60073280660015
 30
0.0
  0
VERTEX
  5
49BE
  8
3
 10
287.9874342087001
 20
10.1757984945001
 30
0.0
  0
SEQEND
  5
4E94
  8
3
  0
POLYLINE
  5
D5D
  8
3
 66
     1
 10
0.0
 20
0.0
 30
0.0
  0
VERTEX
  5
49BF
  8
3
 10
286.8
 20
-27.96185102679999
 30
0.0
  0
VERTEX
  5
49C0
  8
3
 10
287.518242301
 20
-28.02517377499987
 30
0.0
  0
VERTEX
  5
49C1
  8
3
 10
288.1498539804001
 20
-28.2075043614999
 30
0.0
  0
VERTEX
  5
49C2
  8
3
 10
288.618653348
 20
-28.48685102679985
 30
0.0
  0
VERTEX
  5
49C3
  8
3
 10
288.8680962814
 20
-28.82952044019987
 30
0.0
  0
VERTEX
  5
49C4
  8
3
 10
288.8680962814
 20
-29.19418161329997
 30
0.0
  0
VERTEX
  5
49C5
  8
3
 10
288.618653348
 20
-29.53685102680004
 30
0.0
  0
VERTEX
  5
49C6
  8
3
 10
288.1498539804001
 20
-29.81619769209999
 30
0.0
  0
VERTEX
  5
49C7
  8
3
 10
287.518242301
 20
-29.99852827860002
 30
0.0
  0
VERTEX
  5
49C8
  8
3
 10
286.8
 20
-30.0618510267999
 30
0.0
  0
VERTEX
  5
49C9
  8
3
 10
286.081757699
 20
-29.99852827860002
 30
0.0
  0
VERTEX
  5
49CA
  8
3
 10
285.4501460197
 20
-29.81619769209999
 30
0.0
  0
VERTEX
  5
49CB
  8
3
 10
284.9813466521
 20
-29.53685102680004
 30
0.0
  0
VERTEX
  5
49CC
  8
3
 10
284.7319037187
 20
-29.19418161329997
 30
0.0
  0
VERTEX
  5
49CD
  8
3
 10
284.7319037187
 20
-28.82952044019987
 30
0.0
  0
VERTEX
  5
49CE
  8
3
 10
284.9813466521
 20
-28.48685102679985
 30
0.0
  0
VERTEX
  5
49CF
  8
3
 10
285.4501460197
 20
-28.2075043614999
 30
0.0
  0
VERTEX
  5
49D0
  8
3
 10
286.081757699
 20
-28.02517377499987
 30
0.0
  0
VERTEX
  5
49D1
  8
3
 10
286.8
 20
-27.96185102679999
 30
0.0
  0
SEQEND
  5
4E93
  8
3
  0
POLYLINE
  5
D5E
  8
3
 66
     1
 10
0.0
 20
0.0
 30
0.0
  0
VERTEX
  5
49D2
  8
3
 10
287.9874342087001
 20
-10.17579849449987
 30
0.0
  0
VERTEX
  5
49D3
  8
3
 10
288.5489098361001
 20
-11.00400580190001
 30
0.0
  0
VERTEX
  5
49D4
  8
3
 10
288.7893771506
 20
-11.47067319020005
 30
0.0
  0
VERTEX
  5
49D5
  8
3
 10
288.8982281394
 20
-11.86311415459988
 30
0.0
  0
VERTEX
  5
49D6
  8
3
 10
288.8559499552
 20
-12.08168261339995
 30
0.0
  0
VERTEX
  5
49D7
  8
3
 10
288.7097723244
 20
-12.17066122909989
 30
0.0
  0
VERTEX
  5
49D8
  8
3
 10
288.3787290787
 20
-12.11790390530007
 30
0.0
  0
VERTEX
  5
49D9
  8
3
 10
287.8272776947
 20
-11.78727340240005
 30
0.0
  0
VERTEX
  5
49DA
  8
3
 10
287.5942035719
 20
-11.55471426139991
 30
0.0
  0
VERTEX
  5
49DB
  8
3
 10
287.4649965005
 20
-11.32721459859988
 30
0.0
  0
VERTEX
  5
49DC
  8
3
 10
287.4413892584
 20
-11.14345243449986
 30
0.0
  0
VERTEX
  5
49DD
  8
3
 10
287.4873066879
 20
-10.95165245479996
 30
0.0
  0
VERTEX
  5
49DE
  8
3
 10
287.6771154607
 20
-10.6106926926999
 30
0.0
  0
VERTEX
  5
49DF
  8
3
 10
288.2265238451
 20
-9.84239505289986
 30
0.0
  0
VERTEX
  5
49E0
  8
3
 10
288.6214913441
 20
-9.22155508670005
 30
0.0
  0
VERTEX
  5
49E1
  8
3
 10
288.8274313366001
 20
-8.783500904499874
 30
0.0
  0
VERTEX
  5
49E2
  8
3
 10
288.8998083939
 20
-8.42973822149986
 30
0.0
  0
VERTEX
  5
49E3
  8
3
 10
288.8339491164
 20
-8.242638408299968
 30
0.0
  0
VERTEX
  5
49E4
  8
3
 10
288.6672328854
 20
-8.176300128200069
 30
0.0
  0
VERTEX
  5
49E5
  8
3
 10
288.2996433485
 20
-8.266377161599962
 30
0.0
  0
VERTEX
  5
49E6
  8
3
 10
287.7235376401
 20
-8.65642717849994
 30
0.0
  0
VERTEX
  5
49E7
  8
3
 10
287.5331917126
 20
-8.88255606209998
 30
0.0
  0
VERTEX
  5
49E8
  8
3
 10
287.4500050133
 20
-9.0805132111999
 30
0.0
  0
VERTEX
  5
49E9
  8
3
 10
287.4483785218
 20
-9.265393811799981
 30
0.0
  0
VERTEX
  5
49EA
  8
3
 10
287.5332199998001
 20
-9.50124742419996
 30
0.0
  0
VERTEX
  5
49EB
  8
3
 10
287.9145471951
 20
-10.07592391669994
 30
0.0
  0
VERTEX
  5
49EC
  8
3
 10
287.9874342087001
 20
-10.17579849449987
 30
0.0
  0
SEQEND
  5
4E92
  8
3
  0
POLYLINE
  5
D5F
  8
3
 66
     1
 10
0.0
 20
0.0
 30
0.0
  0
VERTEX
  5
49ED
  8
3
 10
289.425
 20
29.37991182339999
 30
0.0
  0
VERTEX
  5
49EE
  8
3
 10
289.3083786152
 20
28.99304565700015
 30
0.0
  0
VERTEX
  5
49EF
  8
3
 10
288.9688767826
 20
28.64055424719993
 30
0.0
  0
VERTEX
  5
49F0
  8
3
 10
288.4366607299
 20
28.3537580026001
 30
0.0
  0
VERTEX
  5
49F1
  8
3
 10
287.759020189
 20
28.15814002829995
 30
0.0
  0
VERTEX
  5
49F2
  8
3
 10
286.9961664957
 20
28.07108183959997
 30
0.0
  0
VERTEX
  5
49F3
  8
3
 10
286.2158825484
 20
28.10031893860003
 30
0.0
  0
VERTEX
  5
49F4
  8
3
 10
285.4875
 20
28.24325348090008
 30
0.0
  0
VERTEX
  5
49F5
  8
3
 10
284.8757388365
 20
28.48718510500009
 30
0.0
  0
VERTEX
  5
49F6
  8
3
 10
284.4349567218
 20
28.81043941580003
 30
0.0
  0
VERTEX
  5
49F7
  8
3
 10
284.2043190812
 20
29.18429384900003
 30
0.0
  0
VERTEX
  5
49F8
  8
3
 10
284.2043190812
 20
29.57552979770014
 30
0.0
  0
VERTEX
  5
49F9
  8
3
 10
284.4349567218
 20
29.94938423099995
 30
0.0
  0
VERTEX
  5
49FA
  8
3
 10
284.8757388365
 20
30.27263854170008
 30
0.0
  0
VERTEX
  5
49FB
  8
3
 10
285.4875
 20
30.51657016580009
 30
0.0
  0
VERTEX
  5
49FC
  8
3
 10
286.2158825484
 20
30.65950470810014
 30
0.0
  0
VERTEX
  5
49FD
  8
3
 10
286.9961664957
 20
30.68874180720002
 30
0.0
  0
VERTEX
  5
49FE
  8
3
 10
287.759020189
 20
30.60168361850003
 30
0.0
  0
VERTEX
  5
49FF
  8
3
 10
288.4366607299
 20
30.40606564410007
 30
0.0
  0
VERTEX
  5
4A00
  8
3
 10
288.9688767826
 20
30.11926939960006
 30
0.0
  0
VERTEX
  5
4A01
  8
3
 10
289.3083786152
 20
29.76677798980006
 30
0.0
  0
VERTEX
  5
4A02
  8
3
 10
289.425
 20
29.37991182339999
 30
0.0
  0
SEQEND
  5
4E91
  8
3
  0
POLYLINE
  5
D60
  8
3
 66
     1
 10
0.0
 20
0.0
 30
0.0
  0
VERTEX
  5
4A03
  8
3
 10
289.425
 20
-29.37991182339999
 30
0.0
  0
VERTEX
  5
4A04
  8
3
 10
289.3083786152
 20
-29.76677798980006
 30
0.0
  0
VERTEX
  5
4A05
  8
3
 10
288.9688767826
 20
-30.11926939960006
 30
0.0
  0
VERTEX
  5
4A06
  8
3
 10
288.4366607299
 20
-30.40606564410007
 30
0.0
  0
VERTEX
  5
4A07
  8
3
 10
287.759020189
 20
-30.60168361850003
 30
0.0
  0
VERTEX
  5
4A08
  8
3
 10
286.9961664957
 20
-30.68874180720002
 30
0.0
  0
VERTEX
  5
4A09
  8
3
 10
286.2158825484
 20
-30.65950470809992
 30
0.0
  0
VERTEX
  5
4A0A
  8
3
 10
285.4875
 20
-30.51657016589991
 30
0.0
  0
VERTEX
  5
4A0B
  8
3
 10
284.8757388365
 20
-30.27263854169985
 30
0.0
  0
VERTEX
  5
4A0C
  8
3
 10
284.4349567218
 20
-29.94938423099995
 30
0.0
  0
VERTEX
  5
4A0D
  8
3
 10
284.2043190812
 20
-29.57552979779996
 30
0.0
  0
VERTEX
  5
4A0E
  8
3
 10
284.2043190812
 20
-29.18429384900003
 30
0.0
  0
VERTEX
  5
4A0F
  8
3
 10
284.4349567218
 20
-28.81043941580003
 30
0.0
  0
VERTEX
  5
4A10
  8
3
 10
284.8757388365
 20
-28.48718510509991
 30
0.0
  0
VERTEX
  5
4A11
  8
3
 10
285.4875
 20
-28.24325348089985
 30
0.0
  0
VERTEX
  5
4A12
  8
3
 10
286.2158825484
 20
-28.10031893870007
 30
0.0
  0
VERTEX
  5
4A13
  8
3
 10
286.9961664957
 20
-28.07108183959997
 30
0.0
  0
VERTEX
  5
4A14
  8
3
 10
287.759020189
 20
-28.15814002829995
 30
0.0
  0
VERTEX
  5
4A15
  8
3
 10
288.4366607299
 20
-28.35375800269992
 30
0.0
  0
VERTEX
  5
4A16
  8
3
 10
288.9688767826
 20
-28.64055424719993
 30
0.0
  0
VERTEX
  5
4A17
  8
3
 10
289.3083786152
 20
-28.99304565699993
 30
0.0
  0
VERTEX
  5
4A18
  8
3
 10
289.425
 20
-29.37991182339999
 30
0.0
  0
SEQEND
  5
4E90
  8
3
  0
POLYLINE
  5
D61
  8
3
 66
     1
 10
0.0
 20
0.0
 30
0.0
  0
VERTEX
  5
4A19
  8
3
 10
286.8
 20
30.64241182340004
 30
0.0
  0
VERTEX
  5
4A1A
  8
3
 10
287.5802679108
 20
30.58062067520007
 30
0.0
  0
VERTEX
  5
4A1B
  8
3
 10
288.2841577621
 20
30.40129577880009
 30
0.0
  0
VERTEX
  5
4A1C
  8
3
 10
288.8427679108
 20
30.12199070439999
 30
0.0
  0
VERTEX
  5
4A1D
  8
3
 10
289.2014177037
 20
29.77004577879995
 30
0.0
  0
VERTEX
  5
4A1E
  8
3
 10
289.325
 20
29.37991182339999
 30
0.0
  0
VERTEX
  5
4A1F
  8
3
 10
289.2014177037
 20
28.98977786800003
 30
0.0
  0
VERTEX
  5
4A20
  8
3
 10
288.8427679108
 20
28.6378329424
 30
0.0
  0
VERTEX
  5
4A21
  8
3
 10
288.2841577621
 20
28.35852786800012
 30
0.0
  0
VERTEX
  5
4A22
  8
3
 10
287.5802679108
 20
28.17920297160015
 30
0.0
  0
VERTEX
  5
4A23
  8
3
 10
286.8
 20
28.11741182339995
 30
0.0
  0
VERTEX
  5
4A24
  8
3
 10
286.0197320892
 20
28.17920297160015
 30
0.0
  0
VERTEX
  5
4A25
  8
3
 10
285.315842238
 20
28.35852786800012
 30
0.0
  0
VERTEX
  5
4A26
  8
3
 10
284.7572320892
 20
28.6378329424
 30
0.0
  0
VERTEX
  5
4A27
  8
3
 10
284.3985822964
 20
28.98977786800003
 30
0.0
  0
VERTEX
  5
4A28
  8
3
 10
284.275
 20
29.37991182339999
 30
0.0
  0
VERTEX
  5
4A29
  8
3
 10
284.3985822964
 20
29.77004577879995
 30
0.0
  0
VERTEX
  5
4A2A
  8
3
 10
284.7572320892
 20
30.12199070439999
 30
0.0
  0
VERTEX
  5
4A2B
  8
3
 10
285.315842238
 20
30.40129577880009
 30
0.0
  0
VERTEX
  5
4A2C
  8
3
 10
286.0197320892
 20
30.58062067520007
 30
0.0
  0
VERTEX
  5
4A2D
  8
3
 10
286.8
 20
30.64241182340004
 30
0.0
  0
SEQEND
  5
4E8F
  8
3
  0
POLYLINE
  5
D62
  8
3
 66
     1
 10
0.0
 20
0.0
 30
0.0
  0
VERTEX
  5
4A2E
  8
3
 10
286.8
 20
-28.11741182339995
 30
0.0
  0
VERTEX
  5
4A2F
  8
3
 10
287.5802679108
 20
-28.17920297159992
 30
0.0
  0
VERTEX
  5
4A30
  8
3
 10
288.2841577621
 20
-28.3585278679999
 30
0.0
  0
VERTEX
  5
4A31
  8
3
 10
288.8427679108
 20
-28.6378329424
 30
0.0
  0
VERTEX
  5
4A32
  8
3
 10
289.2014177037
 20
-28.98977786800003
 30
0.0
  0
VERTEX
  5
4A33
  8
3
 10
289.325
 20
-29.37991182339999
 30
0.0
  0
VERTEX
  5
4A34
  8
3
 10
289.2014177037
 20
-29.77004577879995
 30
0.0
  0
VERTEX
  5
4A35
  8
3
 10
288.8427679108
 20
-30.12199070439999
 30
0.0
  0
VERTEX
  5
4A36
  8
3
 10
288.2841577621
 20
-30.40129577879986
 30
0.0
  0
VERTEX
  5
4A37
  8
3
 10
287.5802679108
 20
-30.58062067520007
 30
0.0
  0
VERTEX
  5
4A38
  8
3
 10
286.8
 20
-30.64241182340004
 30
0.0
  0
VERTEX
  5
4A39
  8
3
 10
286.0197320892
 20
-30.58062067520007
 30
0.0
  0
VERTEX
  5
4A3A
  8
3
 10
285.315842238
 20
-30.40129577879986
 30
0.0
  0
VERTEX
  5
4A3B
  8
3
 10
284.7572320892
 20
-30.12199070439999
 30
0.0
  0
VERTEX
  5
4A3C
  8
3
 10
284.3985822964
 20
-29.77004577879995
 30
0.0
  0
VERTEX
  5
4A3D
  8
3
 10
284.275
 20
-29.37991182339999
 30
0.0
  0
VERTEX
  5
4A3E
  8
3
 10
284.3985822964
 20
-28.98977786800003
 30
0.0
  0
VERTEX
  5
4A3F
  8
3
 10
284.7572320892
 20
-28.6378329424
 30
0.0
  0
VERTEX
  5
4A40
  8
3
 10
285.315842238
 20
-28.3585278679999
 30
0.0
  0
VERTEX
  5
4A41
  8
3
 10
286.0197320892
 20
-28.17920297159992
 30
0.0
  0
VERTEX
  5
4A42
  8
3
 10
286.8
 20
-28.11741182339995
 30
0.0
  0
SEQEND
  5
4E8E
  8
3
  0
CIRCLE
  5
D63
  8
3
 10
286.8
 20
0.0000000000001137
 30
0.0
 40
2.31673274345232
  0
CIRCLE
  5
D64
  8
3
 10
286.8
 20
0.0000000000001137
 30
0.0
 40
1.75
  0
POLYLINE
  5
D65
  8
3
 66
     1
 10
0.0
 20
0.0
 30
0.0
  0
VERTEX
  5
4A43
  8
3
 10
286.8
 20
25.92478480450006
 30
0.0
  0
VERTEX
  5
4A44
  8
3
 10
287.4321729159
 20
25.86569800519999
 30
0.0
  0
VERTEX
  5
4A45
  8
3
 10
287.9789673764
 20
25.69641760699994
 30
0.0
  0
VERTEX
  5
4A46
  8
3
 10
288.3665357599
 20
25.43980586579994
 30
0.0
  0
VERTEX
  5
4A47
  8
3
 10
288.5425348086
 20
25.13051961899998
 30
0.0
  0
VERTEX
  5
4A48
  8
3
 10
288.4831948756
 20
24.81032968810007
 30
0.0
  0
VERTEX
  5
4A49
  8
3
 10
288.1965301478
 20
24.5224794976001
 30
0.0
  0
VERTEX
  5
4A4A
  8
3
 10
287.7212562851
 20
24.30584481070002
 30
0.0
  0
VERTEX
  5
4A4B
  8
3
 10
287.1215616562
 20
24.18968334220006
 30
0.0
  0
VERTEX
  5
4A4C
  8
3
 10
286.4784383439001
 20
24.18968334220006
 30
0.0
  0
VERTEX
  5
4A4D
  8
3
 10
285.878743715
 20
24.30584481070002
 30
0.0
  0
VERTEX
  5
4A4E
  8
3
 10
285.4034698523
 20
24.5224794976001
 30
0.0
  0
VERTEX
  5
4A4F
  8
3
 10
285.1168051245
 20
24.81032968810007
 30
0.0
  0
VERTEX
  5
4A50
  8
3
 10
285.0574651915
 20
25.13051961899998
 30
0.0
  0
VERTEX
  5
4A51
  8
3
 10
285.2334642402
 20
25.43980586579994
 30
0.0
  0
VERTEX
  5
4A52
  8
3
 10
285.6210326237
 20
25.69641760699994
 30
0.0
  0
VERTEX
  5
4A53
  8
3
 10
286.1678270842
 20
25.86569800519999
 30
0.0
  0
VERTEX
  5
4A54
  8
3
 10
286.8
 20
25.92478480450006
 30
0.0
  0
SEQEND
  5
4E8D
  8
3
  0
POLYLINE
  5
D66
  8
3
 66
     1
 10
0.0
 20
0.0
 30
0.0
  0
VERTEX
  5
4A55
  8
3
 10
289.1167327435001
 20
25.54058975739997
 30
0.0
  0
VERTEX
  5
4A56
  8
3
 10
288.9912057732
 20
25.16446881140007
 30
0.0
  0
VERTEX
  5
4A57
  8
3
 10
288.6282276573
 20
24.82910640600005
 30
0.0
  0
VERTEX
  5
4A58
  8
3
 10
288.0671327069
 20
24.57084426150016
 30
0.0
  0
VERTEX
  5
4A59
  8
3
 10
287.3687242661
 20
24.41766908860006
 30
0.0
  0
VERTEX
  5
4A5A
  8
3
 10
286.6086857265
 20
24.38617979420007
 30
0.0
  0
VERTEX
  5
4A5B
  8
3
 10
285.8693790569
 20
24.47978873170007
 30
0.0
  0
VERTEX
  5
4A5C
  8
3
 10
285.2309196065
 20
24.68835192040012
 30
0.0
  0
VERTEX
  5
4A5D
  8
3
 10
284.7624943636
 20
24.98926830259995
 30
0.0
  0
VERTEX
  5
4A5E
  8
3
 10
284.5148644716
 20
25.34992891910008
 30
0.0
  0
VERTEX
  5
4A5F
  8
3
 10
284.5148644716
 20
25.73125059580013
 30
0.0
  0
VERTEX
  5
4A60
  8
3
 10
284.7624943636
 20
26.09191121219999
 30
0.0
  0
VERTEX
  5
4A61
  8
3
 10
285.2309196065
 20
26.39282759440005
 30
0.0
  0
VERTEX
  5
4A62
  8
3
 10
285.8693790569
 20
26.60139078320015
 30
0.0
  0
VERTEX
  5
4A63
  8
3
 10
286.6086857265
 20
26.69499972070014
 30
0.0
  0
VERTEX
  5
4A64
  8
3
 10
287.3687242661
 20
26.66351042620011
 30
0.0
  0
VERTEX
  5
4A65
  8
3
 10
288.0671327069
 20
26.51033525340006
 30
0.0
  0
VERTEX
  5
4A66
  8
3
 10
288.6282276573
 20
26.25207310889994
 30
0.0
  0
VERTEX
  5
4A67
  8
3
 10
288.9912057732
 20
25.91671070350014
 30
0.0
  0
VERTEX
  5
4A68
  8
3
 10
289.1167327435001
 20
25.54058975739997
 30
0.0
  0
SEQEND
  5
4E8C
  8
3
  0
POLYLINE
  5
D67
  8
3
 66
     1
 10
0.0
 20
0.0
 30
0.0
  0
VERTEX
  5
4A69
  8
3
 10
284.745
 20
25.69930384290012
 30
0.0
  0
VERTEX
  5
4A6A
  8
3
 10
284.8689316643
 20
26.0507295402
 30
0.0
  0
VERTEX
  5
4A6B
  8
3
 10
285.2257786694
 20
26.35976811190005
 30
0.0
  0
VERTEX
  5
4A6C
  8
3
 10
285.7725
 20
26.58914494530006
 30
0.0
  0
VERTEX
  5
4A6D
  8
3
 10
286.4431529949
 20
26.71119380910011
 30
0.0
  0
VERTEX
  5
4A6E
  8
3
 10
287.1568470051
 20
26.71119380910011
 30
0.0
  0
VERTEX
  5
4A6F
  8
3
 10
287.8275
 20
26.58914494530006
 30
0.0
  0
VERTEX
  5
4A70
  8
3
 10
288.3742213307
 20
26.35976811190005
 30
0.0
  0
VERTEX
  5
4A71
  8
3
 10
288.7310683358
 20
26.0507295402
 30
0.0
  0
VERTEX
  5
4A72
  8
3
 10
288.855
 20
25.69930384290012
 30
0.0
  0
VERTEX
  5
4A73
  8
3
 10
288.7310683358
 20
25.34787814570007
 30
0.0
  0
VERTEX
  5
4A74
  8
3
 10
288.3742213307
 20
25.03883957400001
 30
0.0
  0
VERTEX
  5
4A75
  8
3
 10
287.8275
 20
24.80946274049995
 30
0.0
  0
VERTEX
  5
4A76
  8
3
 10
287.1568470051
 20
24.68741387670013
 30
0.0
  0
VERTEX
  5
4A77
  8
3
 10
286.4431529949
 20
24.68741387670013
 30
0.0
  0
VERTEX
  5
4A78
  8
3
 10
285.7725
 20
24.80946274049995
 30
0.0
  0
VERTEX
  5
4A79
  8
3
 10
285.2257786694
 20
25.03883957400001
 30
0.0
  0
VERTEX
  5
4A7A
  8
3
 10
284.8689316643
 20
25.34787814570007
 30
0.0
  0
VERTEX
  5
4A7B
  8
3
 10
284.745
 20
25.69930384290012
 30
0.0
  0
SEQEND
  5
4E8B
  8
3
  0
POLYLINE
  5
D68
  8
3
 66
     1
 10
0.0
 20
0.0
 30
0.0
  0
VERTEX
  5
4A7C
  8
3
 10
284.3
 20
25.96915073759999
 30
0.0
  0
VERTEX
  5
4A7D
  8
3
 10
284.4223587093001
 20
26.35542198049995
 30
0.0
  0
VERTEX
  5
4A7E
  8
3
 10
284.7774575141
 20
26.70388230290007
 30
0.0
  0
VERTEX
  5
4A7F
  8
3
 10
285.3305368693
 20
26.98042198049995
 30
0.0
  0
VERTEX
  5
4A80
  8
3
 10
286.0274575141
 20
27.15797138289997
 30
0.0
  0
VERTEX
  5
4A81
  8
3
 10
286.8
 20
27.21915073759999
 30
0.0
  0
VERTEX
  5
4A82
  8
3
 10
287.572542486
 20
27.15797138289997
 30
0.0
  0
VERTEX
  5
4A83
  8
3
 10
288.2694631308
 20
26.98042198049995
 30
0.0
  0
VERTEX
  5
4A84
  8
3
 10
288.822542486
 20
26.70388230290007
 30
0.0
  0
VERTEX
  5
4A85
  8
3
 10
289.1776412908
 20
26.35542198049995
 30
0.0
  0
VERTEX
  5
4A86
  8
3
 10
289.3
 20
25.96915073759999
 30
0.0
  0
VERTEX
  5
4A87
  8
3
 10
289.1776412908
 20
25.58287949459998
 30
0.0
  0
VERTEX
  5
4A88
  8
3
 10
288.822542486
 20
25.23441917220009
 30
0.0
  0
VERTEX
  5
4A89
  8
3
 10
288.2694631308
 20
24.95787949459998
 30
0.0
  0
VERTEX
  5
4A8A
  8
3
 10
287.572542486
 20
24.78033009219996
 30
0.0
  0
VERTEX
  5
4A8B
  8
3
 10
286.8
 20
24.71915073759999
 30
0.0
  0
VERTEX
  5
4A8C
  8
3
 10
286.0274575141
 20
24.78033009219996
 30
0.0
  0
VERTEX
  5
4A8D
  8
3
 10
285.3305368693
 20
24.95787949459998
 30
0.0
  0
VERTEX
  5
4A8E
  8
3
 10
284.7774575141
 20
25.23441917220009
 30
0.0
  0
VERTEX
  5
4A8F
  8
3
 10
284.4223587093001
 20
25.58287949459998
 30
0.0
  0
VERTEX
  5
4A90
  8
3
 10
284.3
 20
25.96915073759999
 30
0.0
  0
SEQEND
  5
4E8A
  8
3
  0
POLYLINE
  5
D69
  8
3
 66
     1
 10
0.0
 20
0.0
 30
0.0
  0
VERTEX
  5
4A91
  8
3
 10
284.3
 20
26.04719028889997
 30
0.0
  0
VERTEX
  5
4A92
  8
3
 10
284.4223587093001
 20
26.43346153189998
 30
0.0
  0
VERTEX
  5
4A93
  8
3
 10
284.7774575141
 20
26.78192185430009
 30
0.0
  0
VERTEX
  5
4A94
  8
3
 10
285.3305368693
 20
27.05846153189998
 30
0.0
  0
VERTEX
  5
4A95
  8
3
 10
286.0274575141
 20
27.2360109343
 30
0.0
  0
VERTEX
  5
4A96
  8
3
 10
286.8
 20
27.29719028889997
 30
0.0
  0
VERTEX
  5
4A97
  8
3
 10
287.572542486
 20
27.2360109343
 30
0.0
  0
VERTEX
  5
4A98
  8
3
 10
288.2694631308
 20
27.05846153189998
 30
0.0
  0
VERTEX
  5
4A99
  8
3
 10
288.822542486
 20
26.78192185430009
 30
0.0
  0
VERTEX
  5
4A9A
  8
3
 10
289.1776412908
 20
26.43346153189998
 30
0.0
  0
VERTEX
  5
4A9B
  8
3
 10
289.3
 20
26.04719028889997
 30
0.0
  0
VERTEX
  5
4A9C
  8
3
 10
289.1776412908
 20
25.66091904589996
 30
0.0
  0
VERTEX
  5
4A9D
  8
3
 10
288.822542486
 20
25.31245872350007
 30
0.0
  0
VERTEX
  5
4A9E
  8
3
 10
288.2694631308
 20
25.03591904589996
 30
0.0
  0
VERTEX
  5
4A9F
  8
3
 10
287.572542486
 20
24.85836964349994
 30
0.0
  0
VERTEX
  5
4AA0
  8
3
 10
286.8
 20
24.79719028889997
 30
0.0
  0
VERTEX
  5
4AA1
  8
3
 10
286.0274575141
 20
24.85836964349994
 30
0.0
  0
VERTEX
  5
4AA2
  8
3
 10
285.3305368693
 20
25.03591904589996
 30
0.0
  0
VERTEX
  5
4AA3
  8
3
 10
284.7774575141
 20
25.31245872350007
 30
0.0
  0
VERTEX
  5
4AA4
  8
3
 10
284.4223587093001
 20
25.66091904589996
 30
0.0
  0
VERTEX
  5
4AA5
  8
3
 10
284.3
 20
26.04719028889997
 30
0.0
  0
SEQEND
  5
4E89
  8
3
  0
POLYLINE
  5
D6A
  8
3
 66
     1
 10
0.0
 20
0.0
 30
0.0
  0
VERTEX
  5
4AA6
  8
3
 10
284.7450000001
 20
26.31703718350002
 30
0.0
  0
VERTEX
  5
4AA7
  8
3
 10
284.8689316643
 20
26.66846288080012
 30
0.0
  0
VERTEX
  5
4AA8
  8
3
 10
285.2257786694
 20
26.97750145249995
 30
0.0
  0
VERTEX
  5
4AA9
  8
3
 10
285.7725000001
 20
27.20687828589996
 30
0.0
  0
VERTEX
  5
4AAA
  8
3
 10
286.4431529949
 20
27.32892714980005
 30
0.0
  0
VERTEX
  5
4AAB
  8
3
 10
287.1568470052
 20
27.32892714980005
 30
0.0
  0
VERTEX
  5
4AAC
  8
3
 10
287.8275000001
 20
27.20687828589996
 30
0.0
  0
VERTEX
  5
4AAD
  8
3
 10
288.3742213307
 20
26.97750145249995
 30
0.0
  0
VERTEX
  5
4AAE
  8
3
 10
288.7310683358
 20
26.66846288080012
 30
0.0
  0
VERTEX
  5
4AAF
  8
3
 10
288.8550000001
 20
26.31703718350002
 30
0.0
  0
VERTEX
  5
4AB0
  8
3
 10
288.7310683358
 20
25.96561148629996
 30
0.0
  0
VERTEX
  5
4AB1
  8
3
 10
288.3742213307
 20
25.65657291460013
 30
0.0
  0
VERTEX
  5
4AB2
  8
3
 10
287.8275000001
 20
25.42719608110008
 30
0.0
  0
VERTEX
  5
4AB3
  8
3
 10
287.1568470052
 20
25.30514721730003
 30
0.0
  0
VERTEX
  5
4AB4
  8
3
 10
286.4431529949
 20
25.30514721730003
 30
0.0
  0
VERTEX
  5
4AB5
  8
3
 10
285.7725000001
 20
25.42719608110008
 30
0.0
  0
VERTEX
  5
4AB6
  8
3
 10
285.2257786694
 20
25.65657291460013
 30
0.0
  0
VERTEX
  5
4AB7
  8
3
 10
284.8689316643
 20
25.96561148629996
 30
0.0
  0
VERTEX
  5
4AB8
  8
3
 10
284.7450000001
 20
26.31703718350002
 30
0.0
  0
SEQEND
  5
4E88
  8
3
  0
POLYLINE
  5
D6B
  8
3
 66
     1
 10
0.0
 20
0.0
 30
0.0
  0
VERTEX
  5
4AB9
  8
3
 10
284.3
 20
26.58688407820011
 30
0.0
  0
VERTEX
  5
4ABA
  8
3
 10
284.4223587093001
 20
26.97315532110008
 30
0.0
  0
VERTEX
  5
4ABB
  8
3
 10
284.7774575141
 20
27.32161564349997
 30
0.0
  0
VERTEX
  5
4ABC
  8
3
 10
285.3305368693
 20
27.59815532110008
 30
0.0
  0
VERTEX
  5
4ABD
  8
3
 10
286.0274575141
 20
27.7757047235001
 30
0.0
  0
VERTEX
  5
4ABE
  8
3
 10
286.8
 20
27.83688407820011
 30
0.0
  0
VERTEX
  5
4ABF
  8
3
 10
287.572542486
 20
27.7757047235001
 30
0.0
  0
VERTEX
  5
4AC0
  8
3
 10
288.2694631308
 20
27.59815532110008
 30
0.0
  0
VERTEX
  5
4AC1
  8
3
 10
288.822542486
 20
27.32161564349997
 30
0.0
  0
VERTEX
  5
4AC2
  8
3
 10
289.1776412908
 20
26.97315532110008
 30
0.0
  0
VERTEX
  5
4AC3
  8
3
 10
289.3
 20
26.58688407820011
 30
0.0
  0
VERTEX
  5
4AC4
  8
3
 10
289.1776412908
 20
26.2006128352001
 30
0.0
  0
VERTEX
  5
4AC5
  8
3
 10
288.822542486
 20
25.85215251279999
 30
0.0
  0
VERTEX
  5
4AC6
  8
3
 10
288.2694631308
 20
25.5756128352001
 30
0.0
  0
VERTEX
  5
4AC7
  8
3
 10
287.572542486
 20
25.39806343280009
 30
0.0
  0
VERTEX
  5
4AC8
  8
3
 10
286.8
 20
25.33688407820011
 30
0.0
  0
VERTEX
  5
4AC9
  8
3
 10
286.0274575141
 20
25.39806343280009
 30
0.0
  0
VERTEX
  5
4ACA
  8
3
 10
285.3305368693
 20
25.5756128352001
 30
0.0
  0
VERTEX
  5
4ACB
  8
3
 10
284.7774575141
 20
25.85215251279999
 30
0.0
  0
VERTEX
  5
4ACC
  8
3
 10
284.4223587093001
 20
26.2006128352001
 30
0.0
  0
VERTEX
  5
4ACD
  8
3
 10
284.3
 20
26.58688407820011
 30
0.0
  0
SEQEND
  5
4E87
  8
3
  0
POLYLINE
  5
D6C
  8
3
 66
     1
 10
0.0
 20
0.0
 30
0.0
  0
VERTEX
  5
4ACE
  8
3
 10
284.3
 20
26.66492362950009
 30
0.0
  0
VERTEX
  5
4ACF
  8
3
 10
284.4223587093001
 20
27.0511948725001
 30
0.0
  0
VERTEX
  5
4AD0
  8
3
 10
284.7774575141
 20
27.39965519489999
 30
0.0
  0
VERTEX
  5
4AD1
  8
3
 10
285.3305368693
 20
27.6761948725001
 30
0.0
  0
VERTEX
  5
4AD2
  8
3
 10
286.0274575141
 20
27.85374427490012
 30
0.0
  0
VERTEX
  5
4AD3
  8
3
 10
286.8
 20
27.91492362950009
 30
0.0
  0
VERTEX
  5
4AD4
  8
3
 10
287.572542486
 20
27.85374427490012
 30
0.0
  0
VERTEX
  5
4AD5
  8
3
 10
288.2694631308
 20
27.6761948725001
 30
0.0
  0
VERTEX
  5
4AD6
  8
3
 10
288.822542486
 20
27.39965519489999
 30
0.0
  0
VERTEX
  5
4AD7
  8
3
 10
289.1776412908
 20
27.0511948725001
 30
0.0
  0
VERTEX
  5
4AD8
  8
3
 10
289.3
 20
26.66492362950009
 30
0.0
  0
VERTEX
  5
4AD9
  8
3
 10
289.1776412908
 20
26.27865238650008
 30
0.0
  0
VERTEX
  5
4ADA
  8
3
 10
288.822542486
 20
25.93019206409997
 30
0.0
  0
VERTEX
  5
4ADB
  8
3
 10
288.2694631308
 20
25.65365238650008
 30
0.0
  0
VERTEX
  5
4ADC
  8
3
 10
287.572542486
 20
25.47610298410007
 30
0.0
  0
VERTEX
  5
4ADD
  8
3
 10
286.8
 20
25.41492362950009
 30
0.0
  0
VERTEX
  5
4ADE
  8
3
 10
286.0274575141
 20
25.47610298410007
 30
0.0
  0
VERTEX
  5
4ADF
  8
3
 10
285.3305368693
 20
25.65365238650008
 30
0.0
  0
VERTEX
  5
4AE0
  8
3
 10
284.7774575141
 20
25.93019206409997
 30
0.0
  0
VERTEX
  5
4AE1
  8
3
 10
284.4223587093001
 20
26.27865238650008
 30
0.0
  0
VERTEX
  5
4AE2
  8
3
 10
284.3
 20
26.66492362950009
 30
0.0
  0
SEQEND
  5
4E86
  8
3
  0
POLYLINE
  5
D6D
  8
3
 66
     1
 10
0.0
 20
0.0
 30
0.0
  0
VERTEX
  5
4AE3
  8
3
 10
284.745
 20
26.93477052410014
 30
0.0
  0
VERTEX
  5
4AE4
  8
3
 10
284.8689316643
 20
27.28619622140002
 30
0.0
  0
VERTEX
  5
4AE5
  8
3
 10
285.2257786694
 20
27.59523479310008
 30
0.0
  0
VERTEX
  5
4AE6
  8
3
 10
285.7725
 20
27.82461162650009
 30
0.0
  0
VERTEX
  5
4AE7
  8
3
 10
286.4431529949
 20
27.94666049039995
 30
0.0
  0
VERTEX
  5
4AE8
  8
3
 10
287.1568470052
 20
27.94666049039995
 30
0.0
  0
VERTEX
  5
4AE9
  8
3
 10
287.8275
 20
27.82461162650009
 30
0.0
  0
VERTEX
  5
4AEA
  8
3
 10
288.3742213307
 20
27.59523479310008
 30
0.0
  0
VERTEX
  5
4AEB
  8
3
 10
288.7310683358
 20
27.28619622140002
 30
0.0
  0
VERTEX
  5
4AEC
  8
3
 10
288.855
 20
26.93477052410014
 30
0.0
  0
VERTEX
  5
4AED
  8
3
 10
288.7310683358
 20
26.58334482690009
 30
0.0
  0
VERTEX
  5
4AEE
  8
3
 10
288.3742213307
 20
26.27430625520003
 30
0.0
  0
VERTEX
  5
4AEF
  8
3
 10
287.8275
 20
26.04492942169998
 30
0.0
  0
VERTEX
  5
4AF0
  8
3
 10
287.1568470052
 20
25.92288055789993
 30
0.0
  0
VERTEX
  5
4AF1
  8
3
 10
286.4431529949
 20
25.92288055789993
 30
0.0
  0
VERTEX
  5
4AF2
  8
3
 10
285.7725
 20
26.04492942169998
 30
0.0
  0
VERTEX
  5
4AF3
  8
3
 10
285.2257786694
 20
26.27430625520003
 30
0.0
  0
VERTEX
  5
4AF4
  8
3
 10
284.8689316643
 20
26.58334482690009
 30
0.0
  0
VERTEX
  5
4AF5
  8
3
 10
284.745
 20
26.93477052410014
 30
0.0
  0
SEQEND
  5
4E85
  8
3
  0
POLYLINE
  5
D6E
  8
3
 66
     1
 10
0.0
 20
0.0
 30
0.0
  0
VERTEX
  5
4AF6
  8
3
 10
284.3
 20
27.20461741880001
 30
0.0
  0
VERTEX
  5
4AF7
  8
3
 10
284.4223587093001
 20
27.59088866169998
 30
0.0
  0
VERTEX
  5
4AF8
  8
3
 10
284.7774575141
 20
27.93934898410009
 30
0.0
  0
VERTEX
  5
4AF9
  8
3
 10
285.3305368693
 20
28.21588866169998
 30
0.0
  0
VERTEX
  5
4AFA
  8
3
 10
286.0274575141
 20
28.3934380641
 30
0.0
  0
VERTEX
  5
4AFB
  8
3
 10
286.8
 20
28.45461741880001
 30
0.0
  0
VERTEX
  5
4AFC
  8
3
 10
287.572542486
 20
28.3934380641
 30
0.0
  0
VERTEX
  5
4AFD
  8
3
 10
288.2694631308
 20
28.21588866169998
 30
0.0
  0
VERTEX
  5
4AFE
  8
3
 10
288.822542486
 20
27.93934898410009
 30
0.0
  0
VERTEX
  5
4AFF
  8
3
 10
289.1776412908
 20
27.59088866169998
 30
0.0
  0
VERTEX
  5
4B00
  8
3
 10
289.3
 20
27.20461741880001
 30
0.0
  0
VERTEX
  5
4B01
  8
3
 10
289.1776412908
 20
26.8183461758
 30
0.0
  0
VERTEX
  5
4B02
  8
3
 10
288.822542486
 20
26.46988585340011
 30
0.0
  0
VERTEX
  5
4B03
  8
3
 10
288.2694631308
 20
26.1933461758
 30
0.0
  0
VERTEX
  5
4B04
  8
3
 10
287.572542486
 20
26.01579677339998
 30
0.0
  0
VERTEX
  5
4B05
  8
3
 10
286.8
 20
25.95461741880001
 30
0.0
  0
VERTEX
  5
4B06
  8
3
 10
286.0274575141
 20
26.01579677339998
 30
0.0
  0
VERTEX
  5
4B07
  8
3
 10
285.3305368693
 20
26.1933461758
 30
0.0
  0
VERTEX
  5
4B08
  8
3
 10
284.7774575141
 20
26.46988585340011
 30
0.0
  0
VERTEX
  5
4B09
  8
3
 10
284.4223587093001
 20
26.8183461758
 30
0.0
  0
VERTEX
  5
4B0A
  8
3
 10
284.3
 20
27.20461741880001
 30
0.0
  0
SEQEND
  5
4E84
  8
3
  0
POLYLINE
  5
D6F
  8
3
 66
     1
 10
0.0
 20
0.0
 30
0.0
  0
VERTEX
  5
4B0B
  8
3
 10
284.3
 20
27.28265697009999
 30
0.0
  0
VERTEX
  5
4B0C
  8
3
 10
284.4223587093001
 20
27.6689282131
 30
0.0
  0
VERTEX
  5
4B0D
  8
3
 10
284.7774575141
 20
28.01738853550012
 30
0.0
  0
VERTEX
  5
4B0E
  8
3
 10
285.3305368693
 20
28.2939282131
 30
0.0
  0
VERTEX
  5
4B0F
  8
3
 10
286.0274575141
 20
28.47147761550002
 30
0.0
  0
VERTEX
  5
4B10
  8
3
 10
286.8
 20
28.53265697009999
 30
0.0
  0
VERTEX
  5
4B11
  8
3
 10
287.572542486
 20
28.47147761550002
 30
0.0
  0
VERTEX
  5
4B12
  8
3
 10
288.2694631308
 20
28.2939282131
 30
0.0
  0
VERTEX
  5
4B13
  8
3
 10
288.822542486
 20
28.01738853550012
 30
0.0
  0
VERTEX
  5
4B14
  8
3
 10
289.1776412908
 20
27.6689282131
 30
0.0
  0
VERTEX
  5
4B15
  8
3
 10
289.3
 20
27.28265697009999
 30
0.0
  0
VERTEX
  5
4B16
  8
3
 10
289.1776412908
 20
26.89638572709998
 30
0.0
  0
VERTEX
  5
4B17
  8
3
 10
288.822542486
 20
26.54792540470009
 30
0.0
  0
VERTEX
  5
4B18
  8
3
 10
288.2694631308
 20
26.27138572709998
 30
0.0
  0
VERTEX
  5
4B19
  8
3
 10
287.572542486
 20
26.09383632469996
 30
0.0
  0
VERTEX
  5
4B1A
  8
3
 10
286.8
 20
26.03265697009999
 30
0.0
  0
VERTEX
  5
4B1B
  8
3
 10
286.0274575141
 20
26.09383632469996
 30
0.0
  0
VERTEX
  5
4B1C
  8
3
 10
285.3305368693
 20
26.27138572709998
 30
0.0
  0
VERTEX
  5
4B1D
  8
3
 10
284.7774575141
 20
26.54792540470009
 30
0.0
  0
VERTEX
  5
4B1E
  8
3
 10
284.4223587093001
 20
26.89638572709998
 30
0.0
  0
VERTEX
  5
4B1F
  8
3
 10
284.3
 20
27.28265697009999
 30
0.0
  0
SEQEND
  5
4E83
  8
3
  0
POLYLINE
  5
D70
  8
3
 66
     1
 10
0.0
 20
0.0
 30
0.0
  0
VERTEX
  5
4B20
  8
3
 10
284.745
 20
27.55250386470004
 30
0.0
  0
VERTEX
  5
4B21
  8
3
 10
284.8689316643
 20
27.90392956200014
 30
0.0
  0
VERTEX
  5
4B22
  8
3
 10
285.2257786694
 20
28.21296813369997
 30
0.0
  0
VERTEX
  5
4B23
  8
3
 10
285.7725
 20
28.44234496709998
 30
0.0
  0
VERTEX
  5
4B24
  8
3
 10
286.4431529949
 20
28.56439383100007
 30
0.0
  0
VERTEX
  5
4B25
  8
3
 10
287.1568470051
 20
28.56439383100007
 30
0.0
  0
VERTEX
  5
4B26
  8
3
 10
287.8275
 20
28.44234496709998
 30
0.0
  0
VERTEX
  5
4B27
  8
3
 10
288.3742213307
 20
28.21296813369997
 30
0.0
  0
VERTEX
  5
4B28
  8
3
 10
288.7310683358
 20
27.90392956200014
 30
0.0
  0
VERTEX
  5
4B29
  8
3
 10
288.855
 20
27.55250386470004
 30
0.0
  0
VERTEX
  5
4B2A
  8
3
 10
288.7310683358
 20
27.20107816749999
 30
0.0
  0
VERTEX
  5
4B2B
  8
3
 10
288.3742213307
 20
26.89203959579993
 30
0.0
  0
VERTEX
  5
4B2C
  8
3
 10
287.8275
 20
26.66266276240015
 30
0.0
  0
VERTEX
  5
4B2D
  8
3
 10
287.1568470051
 20
26.54061389850006
 30
0.0
  0
VERTEX
  5
4B2E
  8
3
 10
286.4431529949
 20
26.54061389850006
 30
0.0
  0
VERTEX
  5
4B2F
  8
3
 10
285.7725
 20
26.66266276240015
 30
0.0
  0
VERTEX
  5
4B30
  8
3
 10
285.2257786694
 20
26.89203959579993
 30
0.0
  0
VERTEX
  5
4B31
  8
3
 10
284.8689316643
 20
27.20107816749999
 30
0.0
  0
VERTEX
  5
4B32
  8
3
 10
284.745
 20
27.55250386470004
 30
0.0
  0
SEQEND
  5
4E82
  8
3
  0
POLYLINE
  5
D71
  8
3
 66
     1
 10
0.0
 20
0.0
 30
0.0
  0
VERTEX
  5
4B33
  8
3
 10
284.3
 20
27.82235075940014
 30
0.0
  0
VERTEX
  5
4B34
  8
3
 10
284.4223587093001
 20
28.2086220023001
 30
0.0
  0
VERTEX
  5
4B35
  8
3
 10
284.7774575141
 20
28.55708232469999
 30
0.0
  0
VERTEX
  5
4B36
  8
3
 10
285.3305368693
 20
28.8336220023001
 30
0.0
  0
VERTEX
  5
4B37
  8
3
 10
286.0274575141
 20
29.01117140470012
 30
0.0
  0
VERTEX
  5
4B38
  8
3
 10
286.8
 20
29.07235075940014
 30
0.0
  0
VERTEX
  5
4B39
  8
3
 10
287.572542486
 20
29.01117140470012
 30
0.0
  0
VERTEX
  5
4B3A
  8
3
 10
288.2694631308
 20
28.8336220023001
 30
0.0
  0
VERTEX
  5
4B3B
  8
3
 10
288.822542486
 20
28.55708232469999
 30
0.0
  0
VERTEX
  5
4B3C
  8
3
 10
289.1776412908
 20
28.2086220023001
 30
0.0
  0
VERTEX
  5
4B3D
  8
3
 10
289.3
 20
27.82235075940014
 30
0.0
  0
VERTEX
  5
4B3E
  8
3
 10
289.1776412908
 20
27.43607951640013
 30
0.0
  0
VERTEX
  5
4B3F
  8
3
 10
288.822542486
 20
27.08761919400001
 30
0.0
  0
VERTEX
  5
4B40
  8
3
 10
288.2694631308
 20
26.81107951640013
 30
0.0
  0
VERTEX
  5
4B41
  8
3
 10
287.572542486
 20
26.63353011400011
 30
0.0
  0
VERTEX
  5
4B42
  8
3
 10
286.8
 20
26.57235075940014
 30
0.0
  0
VERTEX
  5
4B43
  8
3
 10
286.0274575141
 20
26.63353011400011
 30
0.0
  0
VERTEX
  5
4B44
  8
3
 10
285.3305368693
 20
26.81107951640013
 30
0.0
  0
VERTEX
  5
4B45
  8
3
 10
284.7774575141
 20
27.08761919400001
 30
0.0
  0
VERTEX
  5
4B46
  8
3
 10
284.4223587093001
 20
27.43607951640013
 30
0.0
  0
VERTEX
  5
4B47
  8
3
 10
284.3
 20
27.82235075940014
 30
0.0
  0
SEQEND
  5
4E81
  8
3
  0
POLYLINE
  5
D72
  8
3
 66
     1
 10
0.0
 20
0.0
 30
0.0
  0
VERTEX
  5
4B48
  8
3
 10
284.3
 20
27.90039031070012
 30
0.0
  0
VERTEX
  5
4B49
  8
3
 10
284.4223587093001
 20
28.28666155370013
 30
0.0
  0
VERTEX
  5
4B4A
  8
3
 10
284.7774575141
 20
28.63512187610002
 30
0.0
  0
VERTEX
  5
4B4B
  8
3
 10
285.3305368693
 20
28.91166155370013
 30
0.0
  0
VERTEX
  5
4B4C
  8
3
 10
286.0274575141
 20
29.08921095610015
 30
0.0
  0
VERTEX
  5
4B4D
  8
3
 10
286.8
 20
29.15039031070012
 30
0.0
  0
VERTEX
  5
4B4E
  8
3
 10
287.572542486
 20
29.08921095610015
 30
0.0
  0
VERTEX
  5
4B4F
  8
3
 10
288.2694631308
 20
28.91166155370013
 30
0.0
  0
VERTEX
  5
4B50
  8
3
 10
288.822542486
 20
28.63512187610002
 30
0.0
  0
VERTEX
  5
4B51
  8
3
 10
289.1776412908
 20
28.28666155370013
 30
0.0
  0
VERTEX
  5
4B52
  8
3
 10
289.3
 20
27.90039031070012
 30
0.0
  0
VERTEX
  5
4B53
  8
3
 10
289.1776412908
 20
27.51411906780015
 30
0.0
  0
VERTEX
  5
4B54
  8
3
 10
288.822542486
 20
27.16565874540004
 30
0.0
  0
VERTEX
  5
4B55
  8
3
 10
288.2694631308
 20
26.88911906780015
 30
0.0
  0
VERTEX
  5
4B56
  8
3
 10
287.572542486
 20
26.71156966540013
 30
0.0
  0
VERTEX
  5
4B57
  8
3
 10
286.8
 20
26.65039031070012
 30
0.0
  0
VERTEX
  5
4B58
  8
3
 10
286.0274575141
 20
26.71156966540013
 30
0.0
  0
VERTEX
  5
4B59
  8
3
 10
285.3305368693
 20
26.88911906780015
 30
0.0
  0
VERTEX
  5
4B5A
  8
3
 10
284.7774575141
 20
27.16565874540004
 30
0.0
  0
VERTEX
  5
4B5B
  8
3
 10
284.4223587093001
 20
27.51411906780015
 30
0.0
  0
VERTEX
  5
4B5C
  8
3
 10
284.3
 20
27.90039031070012
 30
0.0
  0
SEQEND
  5
4E80
  8
3
  0
POLYLINE
  5
D73
  8
3
 66
     1
 10
0.0
 20
0.0
 30
0.0
  0
VERTEX
  5
4B5D
  8
3
 10
284.745
 20
28.17023720529994
 30
0.0
  0
VERTEX
  5
4B5E
  8
3
 10
284.8689316643
 20
28.52166290260004
 30
0.0
  0
VERTEX
  5
4B5F
  8
3
 10
285.2257786694
 20
28.8307014743001
 30
0.0
  0
VERTEX
  5
4B60
  8
3
 10
285.7725
 20
29.06007830770011
 30
0.0
  0
VERTEX
  5
4B61
  8
3
 10
286.4431529949
 20
29.18212717159997
 30
0.0
  0
VERTEX
  5
4B62
  8
3
 10
287.1568470051
 20
29.18212717159997
 30
0.0
  0
VERTEX
  5
4B63
  8
3
 10
287.8275
 20
29.06007830770011
 30
0.0
  0
VERTEX
  5
4B64
  8
3
 10
288.3742213306
 20
28.8307014743001
 30
0.0
  0
VERTEX
  5
4B65
  8
3
 10
288.7310683358
 20
28.52166290260004
 30
0.0
  0
VERTEX
  5
4B66
  8
3
 10
288.855
 20
28.17023720529994
 30
0.0
  0
VERTEX
  5
4B67
  8
3
 10
288.7310683358
 20
27.81881150810011
 30
0.0
  0
VERTEX
  5
4B68
  8
3
 10
288.3742213306
 20
27.50977293640005
 30
0.0
  0
VERTEX
  5
4B69
  8
3
 10
287.8275
 20
27.28039610300004
 30
0.0
  0
VERTEX
  5
4B6A
  8
3
 10
287.1568470051
 20
27.15834723909995
 30
0.0
  0
VERTEX
  5
4B6B
  8
3
 10
286.4431529949
 20
27.15834723909995
 30
0.0
  0
VERTEX
  5
4B6C
  8
3
 10
285.7725
 20
27.28039610300004
 30
0.0
  0
VERTEX
  5
4B6D
  8
3
 10
285.2257786694
 20
27.50977293640005
 30
0.0
  0
VERTEX
  5
4B6E
  8
3
 10
284.8689316643
 20
27.81881150810011
 30
0.0
  0
VERTEX
  5
4B6F
  8
3
 10
284.745
 20
28.17023720529994
 30
0.0
  0
SEQEND
  5
4E7F
  8
3
  0
POLYLINE
  5
D74
  8
3
 66
     1
 10
0.0
 20
0.0
 30
0.0
  0
VERTEX
  5
4B70
  8
3
 10
284.3
 20
28.44008410000004
 30
0.0
  0
VERTEX
  5
4B71
  8
3
 10
284.4223587093001
 20
28.8263553429
 30
0.0
  0
VERTEX
  5
4B72
  8
3
 10
284.7774575141
 20
29.17481566530012
 30
0.0
  0
VERTEX
  5
4B73
  8
3
 10
285.3305368693
 20
29.4513553429
 30
0.0
  0
VERTEX
  5
4B74
  8
3
 10
286.0274575141
 20
29.62890474530002
 30
0.0
  0
VERTEX
  5
4B75
  8
3
 10
286.8
 20
29.69008410000004
 30
0.0
  0
VERTEX
  5
4B76
  8
3
 10
287.572542486
 20
29.62890474530002
 30
0.0
  0
VERTEX
  5
4B77
  8
3
 10
288.2694631308
 20
29.4513553429
 30
0.0
  0
VERTEX
  5
4B78
  8
3
 10
288.822542486
 20
29.17481566530012
 30
0.0
  0
VERTEX
  5
4B79
  8
3
 10
289.1776412908
 20
28.8263553429
 30
0.0
  0
VERTEX
  5
4B7A
  8
3
 10
289.3
 20
28.44008410000004
 30
0.0
  0
VERTEX
  5
4B7B
  8
3
 10
289.1776412908
 20
28.05381285700003
 30
0.0
  0
VERTEX
  5
4B7C
  8
3
 10
288.822542486
 20
27.70535253460014
 30
0.0
  0
VERTEX
  5
4B7D
  8
3
 10
288.2694631308
 20
27.42881285700003
 30
0.0
  0
VERTEX
  5
4B7E
  8
3
 10
287.572542486
 20
27.25126345460001
 30
0.0
  0
VERTEX
  5
4B7F
  8
3
 10
286.8
 20
27.19008410000004
 30
0.0
  0
VERTEX
  5
4B80
  8
3
 10
286.0274575141
 20
27.25126345460001
 30
0.0
  0
VERTEX
  5
4B81
  8
3
 10
285.3305368693
 20
27.42881285700003
 30
0.0
  0
VERTEX
  5
4B82
  8
3
 10
284.7774575141
 20
27.70535253460014
 30
0.0
  0
VERTEX
  5
4B83
  8
3
 10
284.4223587093001
 20
28.05381285700003
 30
0.0
  0
VERTEX
  5
4B84
  8
3
 10
284.3
 20
28.44008410000004
 30
0.0
  0
SEQEND
  5
4E7E
  8
3
  0
POLYLINE
  5
D75
  8
3
 66
     1
 10
0.0
 20
0.0
 30
0.0
  0
VERTEX
  5
4B85
  8
3
 10
284.3
 20
28.51812365130002
 30
0.0
  0
VERTEX
  5
4B86
  8
3
 10
284.4223587093001
 20
28.90439489430003
 30
0.0
  0
VERTEX
  5
4B87
  8
3
 10
284.7774575141
 20
29.25285521670014
 30
0.0
  0
VERTEX
  5
4B88
  8
3
 10
285.3305368693
 20
29.52939489430003
 30
0.0
  0
VERTEX
  5
4B89
  8
3
 10
286.0274575141
 20
29.70694429670004
 30
0.0
  0
VERTEX
  5
4B8A
  8
3
 10
286.8
 20
29.76812365130002
 30
0.0
  0
VERTEX
  5
4B8B
  8
3
 10
287.572542486
 20
29.70694429670004
 30
0.0
  0
VERTEX
  5
4B8C
  8
3
 10
288.2694631308
 20
29.52939489430003
 30
0.0
  0
VERTEX
  5
4B8D
  8
3
 10
288.822542486
 20
29.25285521670014
 30
0.0
  0
VERTEX
  5
4B8E
  8
3
 10
289.1776412908
 20
28.90439489430003
 30
0.0
  0
VERTEX
  5
4B8F
  8
3
 10
289.3
 20
28.51812365130002
 30
0.0
  0
VERTEX
  5
4B90
  8
3
 10
289.1776412908
 20
28.13185240840005
 30
0.0
  0
VERTEX
  5
4B91
  8
3
 10
288.822542486
 20
27.78339208599994
 30
0.0
  0
VERTEX
  5
4B92
  8
3
 10
288.2694631308
 20
27.50685240840005
 30
0.0
  0
VERTEX
  5
4B93
  8
3
 10
287.572542486
 20
27.32930300600003
 30
0.0
  0
VERTEX
  5
4B94
  8
3
 10
286.8
 20
27.26812365130002
 30
0.0
  0
VERTEX
  5
4B95
  8
3
 10
286.0274575141
 20
27.32930300600003
 30
0.0
  0
VERTEX
  5
4B96
  8
3
 10
285.3305368693
 20
27.50685240840005
 30
0.0
  0
VERTEX
  5
4B97
  8
3
 10
284.7774575141
 20
27.78339208599994
 30
0.0
  0
VERTEX
  5
4B98
  8
3
 10
284.4223587093001
 20
28.13185240840005
 30
0.0
  0
VERTEX
  5
4B99
  8
3
 10
284.3
 20
28.51812365130002
 30
0.0
  0
SEQEND
  5
4E7D
  8
3
  0
POLYLINE
  5
D76
  8
3
 66
     1
 10
0.0
 20
0.0
 30
0.0
  0
VERTEX
  5
4B9A
  8
3
 10
284.745
 20
28.78797054590007
 30
0.0
  0
VERTEX
  5
4B9B
  8
3
 10
284.8689316643
 20
29.13939624319994
 30
0.0
  0
VERTEX
  5
4B9C
  8
3
 10
285.2257786694
 20
29.4484348149
 30
0.0
  0
VERTEX
  5
4B9D
  8
3
 10
285.7725
 20
29.67781164830001
 30
0.0
  0
VERTEX
  5
4B9E
  8
3
 10
286.4431529949
 20
29.7998605122001
 30
0.0
  0
VERTEX
  5
4B9F
  8
3
 10
287.1568470051
 20
29.7998605122001
 30
0.0
  0
VERTEX
  5
4BA0
  8
3
 10
287.8275
 20
29.67781164830001
 30
0.0
  0
VERTEX
  5
4BA1
  8
3
 10
288.3742213306
 20
29.4484348149
 30
0.0
  0
VERTEX
  5
4BA2
  8
3
 10
288.7310683358
 20
29.13939624319994
 30
0.0
  0
VERTEX
  5
4BA3
  8
3
 10
288.855
 20
28.78797054590007
 30
0.0
  0
VERTEX
  5
4BA4
  8
3
 10
288.7310683358
 20
28.43654484870001
 30
0.0
  0
VERTEX
  5
4BA5
  8
3
 10
288.3742213306
 20
28.12750627699995
 30
0.0
  0
VERTEX
  5
4BA6
  8
3
 10
287.8275
 20
27.89812944359994
 30
0.0
  0
VERTEX
  5
4BA7
  8
3
 10
287.1568470051
 20
27.77608057970008
 30
0.0
  0
VERTEX
  5
4BA8
  8
3
 10
286.4431529949
 20
27.77608057970008
 30
0.0
  0
VERTEX
  5
4BA9
  8
3
 10
285.7725
 20
27.89812944359994
 30
0.0
  0
VERTEX
  5
4BAA
  8
3
 10
285.2257786694
 20
28.12750627699995
 30
0.0
  0
VERTEX
  5
4BAB
  8
3
 10
284.8689316643
 20
28.43654484870001
 30
0.0
  0
VERTEX
  5
4BAC
  8
3
 10
284.745
 20
28.78797054590007
 30
0.0
  0
SEQEND
  5
4E7C
  8
3
  0
POLYLINE
  5
D77
  8
3
 66
     1
 10
0.0
 20
0.0
 30
0.0
  0
VERTEX
  5
4BAD
  8
3
 10
284.3
 20
29.05781744059993
 30
0.0
  0
VERTEX
  5
4BAE
  8
3
 10
284.4223587093001
 20
29.44408868350013
 30
0.0
  0
VERTEX
  5
4BAF
  8
3
 10
284.7774575141
 20
29.79254900590001
 30
0.0
  0
VERTEX
  5
4BB0
  8
3
 10
285.3305368693
 20
30.06908868350013
 30
0.0
  0
VERTEX
  5
4BB1
  8
3
 10
286.0274575141
 20
30.24663808590014
 30
0.0
  0
VERTEX
  5
4BB2
  8
3
 10
286.8
 20
30.30781744059993
 30
0.0
  0
VERTEX
  5
4BB3
  8
3
 10
287.572542486
 20
30.24663808590014
 30
0.0
  0
VERTEX
  5
4BB4
  8
3
 10
288.2694631308
 20
30.06908868350013
 30
0.0
  0
VERTEX
  5
4BB5
  8
3
 10
288.822542486
 20
29.79254900590001
 30
0.0
  0
VERTEX
  5
4BB6
  8
3
 10
289.1776412908
 20
29.44408868350013
 30
0.0
  0
VERTEX
  5
4BB7
  8
3
 10
289.3
 20
29.05781744059993
 30
0.0
  0
VERTEX
  5
4BB8
  8
3
 10
289.1776412908
 20
28.67154619760015
 30
0.0
  0
VERTEX
  5
4BB9
  8
3
 10
288.822542486
 20
28.32308587520004
 30
0.0
  0
VERTEX
  5
4BBA
  8
3
 10
288.2694631308
 20
28.04654619760015
 30
0.0
  0
VERTEX
  5
4BBB
  8
3
 10
287.572542486
 20
27.86899679520013
 30
0.0
  0
VERTEX
  5
4BBC
  8
3
 10
286.8
 20
27.80781744059993
 30
0.0
  0
VERTEX
  5
4BBD
  8
3
 10
286.0274575141
 20
27.86899679520013
 30
0.0
  0
VERTEX
  5
4BBE
  8
3
 10
285.3305368693
 20
28.04654619760015
 30
0.0
  0
VERTEX
  5
4BBF
  8
3
 10
284.7774575141
 20
28.32308587520004
 30
0.0
  0
VERTEX
  5
4BC0
  8
3
 10
284.4223587093001
 20
28.67154619760015
 30
0.0
  0
VERTEX
  5
4BC1
  8
3
 10
284.3
 20
29.05781744059993
 30
0.0
  0
SEQEND
  5
4E7B
  8
3
  0
POLYLINE
  5
D78
  8
3
 66
     1
 10
0.0
 20
0.0
 30
0.0
  0
VERTEX
  5
4BC2
  8
3
 10
284.3
 20
29.13585699190014
 30
0.0
  0
VERTEX
  5
4BC3
  8
3
 10
284.4223587093001
 20
29.52212823490015
 30
0.0
  0
VERTEX
  5
4BC4
  8
3
 10
284.7774575141
 20
29.87058855730004
 30
0.0
  0
VERTEX
  5
4BC5
  8
3
 10
285.3305368693
 20
30.14712823490015
 30
0.0
  0
VERTEX
  5
4BC6
  8
3
 10
286.0274575141
 20
30.32467763729994
 30
0.0
  0
VERTEX
  5
4BC7
  8
3
 10
286.8
 20
30.38585699190014
 30
0.0
  0
VERTEX
  5
4BC8
  8
3
 10
287.572542486
 20
30.32467763729994
 30
0.0
  0
VERTEX
  5
4BC9
  8
3
 10
288.2694631308
 20
30.14712823490015
 30
0.0
  0
VERTEX
  5
4BCA
  8
3
 10
288.822542486
 20
29.87058855730004
 30
0.0
  0
VERTEX
  5
4BCB
  8
3
 10
289.1776412908
 20
29.52212823490015
 30
0.0
  0
VERTEX
  5
4BCC
  8
3
 10
289.3
 20
29.13585699190014
 30
0.0
  0
VERTEX
  5
4BCD
  8
3
 10
289.1776412908
 20
28.74958574899995
 30
0.0
  0
VERTEX
  5
4BCE
  8
3
 10
288.822542486
 20
28.40112542660006
 30
0.0
  0
VERTEX
  5
4BCF
  8
3
 10
288.2694631308
 20
28.12458574899995
 30
0.0
  0
VERTEX
  5
4BD0
  8
3
 10
287.572542486
 20
27.94703634659993
 30
0.0
  0
VERTEX
  5
4BD1
  8
3
 10
286.8
 20
27.88585699190014
 30
0.0
  0
VERTEX
  5
4BD2
  8
3
 10
286.0274575141
 20
27.94703634659993
 30
0.0
  0
VERTEX
  5
4BD3
  8
3
 10
285.3305368693
 20
28.12458574899995
 30
0.0
  0
VERTEX
  5
4BD4
  8
3
 10
284.7774575141
 20
28.40112542660006
 30
0.0
  0
VERTEX
  5
4BD5
  8
3
 10
284.4223587093001
 20
28.74958574899995
 30
0.0
  0
VERTEX
  5
4BD6
  8
3
 10
284.3
 20
29.13585699190014
 30
0.0
  0
SEQEND
  5
4E7A
  8
3
  0
POLYLINE
  5
D79
  8
3
 66
     1
 10
0.0
 20
0.0
 30
0.0
  0
VERTEX
  5
4BD7
  8
3
 10
284.745
 20
29.40570388660001
 30
0.0
  0
VERTEX
  5
4BD8
  8
3
 10
284.8689316643
 20
29.75712958380007
 30
0.0
  0
VERTEX
  5
4BD9
  8
3
 10
285.2257786694
 20
30.06616815550012
 30
0.0
  0
VERTEX
  5
4BDA
  8
3
 10
285.7725
 20
30.29554498890013
 30
0.0
  0
VERTEX
  5
4BDB
  8
3
 10
286.4431529949
 20
30.4175938528
 30
0.0
  0
VERTEX
  5
4BDC
  8
3
 10
287.1568470051
 20
30.4175938528
 30
0.0
  0
VERTEX
  5
4BDD
  8
3
 10
287.8275
 20
30.29554498890013
 30
0.0
  0
VERTEX
  5
4BDE
  8
3
 10
288.3742213306
 20
30.06616815550012
 30
0.0
  0
VERTEX
  5
4BDF
  8
3
 10
288.7310683357
 20
29.75712958380007
 30
0.0
  0
VERTEX
  5
4BE0
  8
3
 10
288.855
 20
29.40570388660001
 30
0.0
  0
VERTEX
  5
4BE1
  8
3
 10
288.7310683357
 20
29.05427818930013
 30
0.0
  0
VERTEX
  5
4BE2
  8
3
 10
288.3742213306
 20
28.74523961760008
 30
0.0
  0
VERTEX
  5
4BE3
  8
3
 10
287.8275
 20
28.51586278420007
 30
0.0
  0
VERTEX
  5
4BE4
  8
3
 10
287.1568470051
 20
28.39381392029998
 30
0.0
  0
VERTEX
  5
4BE5
  8
3
 10
286.4431529949
 20
28.39381392029998
 30
0.0
  0
VERTEX
  5
4BE6
  8
3
 10
285.7725
 20
28.51586278420007
 30
0.0
  0
VERTEX
  5
4BE7
  8
3
 10
285.2257786694
 20
28.74523961760008
 30
0.0
  0
VERTEX
  5
4BE8
  8
3
 10
284.8689316643
 20
29.05427818930013
 30
0.0
  0
VERTEX
  5
4BE9
  8
3
 10
284.745
 20
29.40570388660001
 30
0.0
  0
SEQEND
  5
4E79
  8
3
  0
POLYLINE
  5
D7A
  8
3
 66
     1
 10
0.0
 20
0.0
 30
0.0
  0
VERTEX
  5
4BEA
  8
3
 10
284.3
 20
29.67555078120006
 30
0.0
  0
VERTEX
  5
4BEB
  8
3
 10
284.4223587093001
 20
30.06182202410002
 30
0.0
  0
VERTEX
  5
4BEC
  8
3
 10
284.7774575141
 20
30.41028234650014
 30
0.0
  0
VERTEX
  5
4BED
  8
3
 10
285.3305368693
 20
30.68682202410002
 30
0.0
  0
VERTEX
  5
4BEE
  8
3
 10
286.0274575141
 20
30.86437142650004
 30
0.0
  0
VERTEX
  5
4BEF
  8
3
 10
286.8
 20
30.92555078120006
 30
0.0
  0
VERTEX
  5
4BF0
  8
3
 10
287.572542486
 20
30.86437142650004
 30
0.0
  0
VERTEX
  5
4BF1
  8
3
 10
288.2694631308
 20
30.68682202410002
 30
0.0
  0
VERTEX
  5
4BF2
  8
3
 10
288.822542486
 20
30.41028234650014
 30
0.0
  0
VERTEX
  5
4BF3
  8
3
 10
289.1776412908
 20
30.06182202410002
 30
0.0
  0
VERTEX
  5
4BF4
  8
3
 10
289.3
 20
29.67555078120006
 30
0.0
  0
VERTEX
  5
4BF5
  8
3
 10
289.1776412908
 20
29.28927953820005
 30
0.0
  0
VERTEX
  5
4BF6
  8
3
 10
288.822542486
 20
28.94081921579993
 30
0.0
  0
VERTEX
  5
4BF7
  8
3
 10
288.2694631308
 20
28.66427953820005
 30
0.0
  0
VERTEX
  5
4BF8
  8
3
 10
287.572542486
 20
28.48673013580003
 30
0.0
  0
VERTEX
  5
4BF9
  8
3
 10
286.8
 20
28.42555078120006
 30
0.0
  0
VERTEX
  5
4BFA
  8
3
 10
286.0274575141
 20
28.48673013580003
 30
0.0
  0
VERTEX
  5
4BFB
  8
3
 10
285.3305368693
 20
28.66427953820005
 30
0.0
  0
VERTEX
  5
4BFC
  8
3
 10
284.7774575141
 20
28.94081921579993
 30
0.0
  0
VERTEX
  5
4BFD
  8
3
 10
284.4223587093001
 20
29.28927953820005
 30
0.0
  0
VERTEX
  5
4BFE
  8
3
 10
284.3
 20
29.67555078120006
 30
0.0
  0
SEQEND
  5
4E78
  8
3
  0
LINE
  5
D7B
  8
3
 10
286.8
 20
28.62935647339998
 30
0.0
 11
286.8
 21
30.96762506359994
 31
0.0
  0
LINE
  5
D7C
  8
3
 10
285.55
 20
28.26851255520012
 30
0.0
 11
286.8
 21
28.62935647339998
 31
0.0
  0
LINE
  5
D7D
  8
3
 10
288.05
 20
28.26851255520012
 30
0.0
 11
286.8
 21
28.62935647339998
 31
0.0
  0
POLYLINE
  5
D7E
  8
3
 66
     1
 10
0.0
 20
0.0
 30
0.0
  0
VERTEX
  5
4BFF
  8
3
 10
284.3
 20
29.75359033250004
 30
0.0
  0
VERTEX
  5
4C00
  8
3
 10
284.4223587093001
 20
30.13986157550005
 30
0.0
  0
VERTEX
  5
4C01
  8
3
 10
284.7774575141
 20
30.48832189789994
 30
0.0
  0
VERTEX
  5
4C02
  8
3
 10
285.3305368693
 20
30.76486157550005
 30
0.0
  0
VERTEX
  5
4C03
  8
3
 10
286.0274575141
 20
30.94241097790007
 30
0.0
  0
VERTEX
  5
4C04
  8
3
 10
286.8
 20
31.00359033250004
 30
0.0
  0
VERTEX
  5
4C05
  8
3
 10
287.572542486
 20
30.94241097790007
 30
0.0
  0
VERTEX
  5
4C06
  8
3
 10
288.2694631308
 20
30.76486157550005
 30
0.0
  0
VERTEX
  5
4C07
  8
3
 10
288.822542486
 20
30.48832189789994
 30
0.0
  0
VERTEX
  5
4C08
  8
3
 10
289.1776412908
 20
30.13986157550005
 30
0.0
  0
VERTEX
  5
4C09
  8
3
 10
289.3
 20
29.75359033250004
 30
0.0
  0
VERTEX
  5
4C0A
  8
3
 10
289.1776412908
 20
29.36731908960007
 30
0.0
  0
VERTEX
  5
4C0B
  8
3
 10
288.822542486
 20
29.01885876719996
 30
0.0
  0
VERTEX
  5
4C0C
  8
3
 10
288.2694631308
 20
28.74231908960007
 30
0.0
  0
VERTEX
  5
4C0D
  8
3
 10
287.572542486
 20
28.56476968720006
 30
0.0
  0
VERTEX
  5
4C0E
  8
3
 10
286.8
 20
28.50359033250004
 30
0.0
  0
VERTEX
  5
4C0F
  8
3
 10
286.0274575141
 20
28.56476968720006
 30
0.0
  0
VERTEX
  5
4C10
  8
3
 10
285.3305368693
 20
28.74231908960007
 30
0.0
  0
VERTEX
  5
4C11
  8
3
 10
284.7774575141
 20
29.01885876719996
 30
0.0
  0
VERTEX
  5
4C12
  8
3
 10
284.4223587093001
 20
29.36731908960007
 30
0.0
  0
VERTEX
  5
4C13
  8
3
 10
284.3
 20
29.75359033250004
 30
0.0
  0
SEQEND
  5
4E77
  8
3
  0
POLYLINE
  5
D7F
  8
3
 66
     1
 10
0.0
 20
0.0
 30
0.0
  0
VERTEX
  5
4C14
  8
3
 10
284.745
 20
30.02343722720013
 30
0.0
  0
VERTEX
  5
4C15
  8
3
 10
284.8689316643
 20
30.37486292439996
 30
0.0
  0
VERTEX
  5
4C16
  8
3
 10
285.2257786694
 20
30.68390149610002
 30
0.0
  0
VERTEX
  5
4C17
  8
3
 10
285.7725
 20
30.91327832950003
 30
0.0
  0
VERTEX
  5
4C18
  8
3
 10
286.4431529949
 20
31.03532719340012
 30
0.0
  0
VERTEX
  5
4C19
  8
3
 10
287.1568470051
 20
31.03532719340012
 30
0.0
  0
VERTEX
  5
4C1A
  8
3
 10
287.8275
 20
30.91327832950003
 30
0.0
  0
VERTEX
  5
4C1B
  8
3
 10
288.3742213306
 20
30.68390149610002
 30
0.0
  0
VERTEX
  5
4C1C
  8
3
 10
288.7310683357
 20
30.37486292439996
 30
0.0
  0
VERTEX
  5
4C1D
  8
3
 10
288.855
 20
30.02343722720013
 30
0.0
  0
VERTEX
  5
4C1E
  8
3
 10
288.7310683357
 20
29.67201152990003
 30
0.0
  0
VERTEX
  5
4C1F
  8
3
 10
288.3742213306
 20
29.36297295819998
 30
0.0
  0
VERTEX
  5
4C20
  8
3
 10
287.8275
 20
29.13359612479996
 30
0.0
  0
VERTEX
  5
4C21
  8
3
 10
287.1568470051
 20
29.0115472609001
 30
0.0
  0
VERTEX
  5
4C22
  8
3
 10
286.4431529949
 20
29.0115472609001
 30
0.0
  0
VERTEX
  5
4C23
  8
3
 10
285.7725
 20
29.13359612479996
 30
0.0
  0
VERTEX
  5
4C24
  8
3
 10
285.2257786694
 20
29.36297295819998
 30
0.0
  0
VERTEX
  5
4C25
  8
3
 10
284.8689316643
 20
29.67201152990003
 30
0.0
  0
VERTEX
  5
4C26
  8
3
 10
284.745
 20
30.02343722720013
 30
0.0
  0
SEQEND
  5
4E76
  8
3
  0
POLYLINE
  5
D80
  8
3
 66
     1
 10
0.0
 20
0.0
 30
0.0
  0
VERTEX
  5
4C27
  8
3
 10
284.5438968732
 20
30.14538566370004
 30
0.0
  0
VERTEX
  5
4C28
  8
3
 10
284.6661387636
 20
29.77910791989996
 30
0.0
  0
VERTEX
  5
4C29
  8
3
 10
285.0196176293
 20
29.45252205290001
 30
0.0
  0
VERTEX
  5
4C2A
  8
3
 10
285.5660285503
 20
29.20101870910014
 30
0.0
  0
VERTEX
  5
4C2B
  8
3
 10
286.2461594249
 20
29.05185217819997
 30
0.0
  0
VERTEX
  5
4C2C
  8
3
 10
286.9863075196
 20
29.02118696829996
 30
0.0
  0
VERTEX
  5
4C2D
  8
3
 10
287.7062663036
 20
29.11234613089994
 30
0.0
  0
VERTEX
  5
4C2E
  8
3
 10
288.3280170715
 20
29.31545115610004
 30
0.0
  0
VERTEX
  5
4C2F
  8
3
 10
288.7841834801
 20
29.60849246290002
 30
0.0
  0
VERTEX
  5
4C30
  8
3
 10
289.0253328208
 20
29.95971447880004
 30
0.0
  0
VERTEX
  5
4C31
  8
3
 10
289.0253328208
 20
30.33105684860004
 30
0.0
  0
VERTEX
  5
4C32
  8
3
 10
288.7841834801
 20
30.68227886460011
 30
0.0
  0
VERTEX
  5
4C33
  8
3
 10
288.3280170715
 20
30.97532017140009
 30
0.0
  0
VERTEX
  5
4C34
  8
3
 10
287.7062663036
 20
31.17842519659996
 30
0.0
  0
VERTEX
  5
4C35
  8
3
 10
286.9863075196
 20
31.26958435919994
 30
0.0
  0
VERTEX
  5
4C36
  8
3
 10
286.2461594249
 20
31.23891914929993
 30
0.0
  0
VERTEX
  5
4C37
  8
3
 10
285.5660285503
 20
31.08975261839998
 30
0.0
  0
VERTEX
  5
4C38
  8
3
 10
285.0196176293
 20
30.83824927460012
 30
0.0
  0
VERTEX
  5
4C39
  8
3
 10
284.6661387636
 20
30.51166340759994
 30
0.0
  0
VERTEX
  5
4C3A
  8
3
 10
284.5438968732
 20
30.14538566370004
 30
0.0
  0
SEQEND
  5
4E75
  8
3
  0
LINE
  5
D81
  8
3
 10
285.55
 20
28.26851255520012
 30
0.0
 11
285.55
 21
27.54682471870012
 31
0.0
  0
LINE
  5
D82
  8
3
 10
285.55
 20
28.26851255520012
 30
0.0
 11
285.55
 21
30.60678114540008
 31
0.0
  0
LINE
  5
D83
  8
3
 10
288.05
 20
28.26851255520012
 30
0.0
 11
288.05
 21
27.54682471870012
 31
0.0
  0
LINE
  5
D84
  8
3
 10
288.05
 20
28.26851255520012
 30
0.0
 11
288.05
 21
30.60678114540008
 31
0.0
  0
POLYLINE
  5
D85
  8
3
 66
     1
 10
0.0
 20
0.0
 30
0.0
  0
VERTEX
  5
4C3B
  8
3
 10
286.8
 20
31.27343722720013
 30
0.0
  0
VERTEX
  5
4C3C
  8
3
 10
287.5028513946
 20
31.2114713950001
 30
0.0
  0
VERTEX
  5
4C3D
  8
3
 10
288.1209285379
 20
31.03304789250012
 30
0.0
  0
VERTEX
  5
4C3E
  8
3
 10
288.5796822048
 20
30.75968722720006
 30
0.0
  0
VERTEX
  5
4C3F
  8
3
 10
288.8237799325
 20
30.42436072969997
 30
0.0
  0
VERTEX
  5
4C40
  8
3
 10
288.8237799325
 20
30.06751372459996
 30
0.0
  0
VERTEX
  5
4C41
  8
3
 10
288.5796822048
 20
29.73218722720014
 30
0.0
  0
VERTEX
  5
4C42
  8
3
 10
288.1209285379
 20
29.45882656190008
 30
0.0
  0
VERTEX
  5
4C43
  8
3
 10
287.5028513946
 20
29.28040305930006
 30
0.0
  0
VERTEX
  5
4C44
  8
3
 10
286.8
 20
29.21843722720007
 30
0.0
  0
VERTEX
  5
4C45
  8
3
 10
286.0971486055
 20
29.28040305930006
 30
0.0
  0
VERTEX
  5
4C46
  8
3
 10
285.4790714621
 20
29.45882656190008
 30
0.0
  0
VERTEX
  5
4C47
  8
3
 10
285.0203177953
 20
29.73218722720014
 30
0.0
  0
VERTEX
  5
4C48
  8
3
 10
284.7762200676
 20
30.06751372459996
 30
0.0
  0
VERTEX
  5
4C49
  8
3
 10
284.7762200676
 20
30.42436072969997
 30
0.0
  0
VERTEX
  5
4C4A
  8
3
 10
285.0203177953
 20
30.75968722720006
 30
0.0
  0
VERTEX
  5
4C4B
  8
3
 10
285.4790714621
 20
31.03304789250012
 30
0.0
  0
VERTEX
  5
4C4C
  8
3
 10
286.0971486055
 20
31.2114713950001
 30
0.0
  0
VERTEX
  5
4C4D
  8
3
 10
286.8
 20
31.27343722720013
 30
0.0
  0
SEQEND
  5
4E74
  8
3
  0
LINE
  5
D86
  8
3
 10
285.55
 20
30.60678114540008
 30
0.0
 11
286.8
 21
30.96762506359994
 31
0.0
  0
LINE
  5
D87
  8
3
 10
288.05
 20
30.60678114540008
 30
0.0
 11
286.8
 21
30.96762506359994
 31
0.0
  0
LINE
  5
D88
  8
3
 10
286.8
 20
27.18598080050003
 30
0.0
 11
286.8
 21
28.62935647339998
 31
0.0
  0
LINE
  5
D89
  8
3
 10
288.05
 20
29.88509330890008
 30
0.0
 11
286.8
 21
29.52424939069999
 31
0.0
  0
LINE
  5
D8A
  8
3
 10
288.05
 20
27.54682471870012
 30
0.0
 11
286.8
 21
27.18598080050003
 31
0.0
  0
LINE
  5
D8B
  8
3
 10
285.55
 20
29.88509330890008
 30
0.0
 11
286.8
 21
29.52424939069999
 31
0.0
  0
LINE
  5
D8C
  8
3
 10
285.55
 20
27.54682471870012
 30
0.0
 11
286.8
 21
27.18598080050003
 31
0.0
  0
POLYLINE
  5
D8D
  8
3
 66
     1
 10
0.0
 20
0.0
 30
0.0
  0
VERTEX
  5
4C4E
  8
3
 10
286.8
 20
-25.92478480450006
 30
0.0
  0
VERTEX
  5
4C4F
  8
3
 10
286.1678270842
 20
-25.86569800519999
 30
0.0
  0
VERTEX
  5
4C50
  8
3
 10
285.6210326236
 20
-25.69641760699994
 30
0.0
  0
VERTEX
  5
4C51
  8
3
 10
285.2334642402
 20
-25.43980586579994
 30
0.0
  0
VERTEX
  5
4C52
  8
3
 10
285.0574651915
 20
-25.13051961899998
 30
0.0
  0
VERTEX
  5
4C53
  8
3
 10
285.1168051245
 20
-24.81032968819989
 30
0.0
  0
VERTEX
  5
4C54
  8
3
 10
285.4034698523
 20
-24.52247949759987
 30
0.0
  0
VERTEX
  5
4C55
  8
3
 10
285.878743715
 20
-24.30584481070002
 30
0.0
  0
VERTEX
  5
4C56
  8
3
 10
286.4784383438
 20
-24.18968334229987
 30
0.0
  0
VERTEX
  5
4C57
  8
3
 10
287.1215616562
 20
-24.18968334229987
 30
0.0
  0
VERTEX
  5
4C58
  8
3
 10
287.7212562851
 20
-24.30584481070002
 30
0.0
  0
VERTEX
  5
4C59
  8
3
 10
288.1965301478
 20
-24.52247949759987
 30
0.0
  0
VERTEX
  5
4C5A
  8
3
 10
288.4831948756
 20
-24.81032968819989
 30
0.0
  0
VERTEX
  5
4C5B
  8
3
 10
288.5425348085
 20
-25.13051961899998
 30
0.0
  0
VERTEX
  5
4C5C
  8
3
 10
288.3665357599
 20
-25.43980586579994
 30
0.0
  0
VERTEX
  5
4C5D
  8
3
 10
287.9789673764
 20
-25.69641760699994
 30
0.0
  0
VERTEX
  5
4C5E
  8
3
 10
287.4321729159
 20
-25.86569800519999
 30
0.0
  0
VERTEX
  5
4C5F
  8
3
 10
286.8
 20
-25.92478480450006
 30
0.0
  0
SEQEND
  5
4E73
  8
3
  0
POLYLINE
  5
D8E
  8
3
 66
     1
 10
0.0
 20
0.0
 30
0.0
  0
VERTEX
  5
4C60
  8
3
 10
284.4832672566
 20
-25.54058975750002
 30
0.0
  0
VERTEX
  5
4C61
  8
3
 10
284.6087942269
 20
-25.16446881140007
 30
0.0
  0
VERTEX
  5
4C62
  8
3
 10
284.9717723427
 20
-24.82910640600005
 30
0.0
  0
VERTEX
  5
4C63
  8
3
 10
285.5328672931
 20
-24.57084426149993
 30
0.0
  0
VERTEX
  5
4C64
  8
3
 10
286.2312757339
 20
-24.41766908869988
 30
0.0
  0
VERTEX
  5
4C65
  8
3
 10
286.9913142736
 20
-24.38617979419985
 30
0.0
  0
VERTEX
  5
4C66
  8
3
 10
287.7306209432001
 20
-24.47978873170007
 30
0.0
  0
VERTEX
  5
4C67
  8
3
 10
288.3690803935
 20
-24.68835192049994
 30
0.0
  0
VERTEX
  5
4C68
  8
3
 10
288.8375056365001
 20
-24.9892683027
 30
0.0
  0
VERTEX
  5
4C69
  8
3
 10
289.0851355285
 20
-25.34992891909985
 30
0.0
  0
VERTEX
  5
4C6A
  8
3
 10
289.0851355285
 20
-25.73125059579991
 30
0.0
  0
VERTEX
  5
4C6B
  8
3
 10
288.8375056365001
 20
-26.09191121230003
 30
0.0
  0
VERTEX
  5
4C6C
  8
3
 10
288.3690803935
 20
-26.39282759449986
 30
0.0
  0
VERTEX
  5
4C6D
  8
3
 10
287.7306209432001
 20
-26.60139078319992
 30
0.0
  0
VERTEX
  5
4C6E
  8
3
 10
286.9913142736
 20
-26.69499972069991
 30
0.0
  0
VERTEX
  5
4C6F
  8
3
 10
286.2312757339
 20
-26.66351042629992
 30
0.0
  0
VERTEX
  5
4C70
  8
3
 10
285.5328672931
 20
-26.51033525340006
 30
0.0
  0
VERTEX
  5
4C71
  8
3
 10
284.9717723427
 20
-26.25207310889994
 30
0.0
  0
VERTEX
  5
4C72
  8
3
 10
284.6087942269
 20
-25.91671070349992
 30
0.0
  0
VERTEX
  5
4C73
  8
3
 10
284.4832672566
 20
-25.54058975750002
 30
0.0
  0
SEQEND
  5
4E72
  8
3
  0
POLYLINE
  5
D8F
  8
3
 66
     1
 10
0.0
 20
0.0
 30
0.0
  0
VERTEX
  5
4C74
  8
3
 10
288.855
 20
-25.69930384299994
 30
0.0
  0
VERTEX
  5
4C75
  8
3
 10
288.7310683357
 20
-26.0507295402
 30
0.0
  0
VERTEX
  5
4C76
  8
3
 10
288.3742213306
 20
-26.35976811190005
 30
0.0
  0
VERTEX
  5
4C77
  8
3
 10
287.8275
 20
-26.58914494530006
 30
0.0
  0
VERTEX
  5
4C78
  8
3
 10
287.1568470051
 20
-26.71119380919993
 30
0.0
  0
VERTEX
  5
4C79
  8
3
 10
286.4431529949
 20
-26.71119380919993
 30
0.0
  0
VERTEX
  5
4C7A
  8
3
 10
285.7725
 20
-26.58914494530006
 30
0.0
  0
VERTEX
  5
4C7B
  8
3
 10
285.2257786694
 20
-26.35976811190005
 30
0.0
  0
VERTEX
  5
4C7C
  8
3
 10
284.8689316643
 20
-26.0507295402
 30
0.0
  0
VERTEX
  5
4C7D
  8
3
 10
284.745
 20
-25.69930384299994
 30
0.0
  0
VERTEX
  5
4C7E
  8
3
 10
284.8689316643
 20
-25.34787814570007
 30
0.0
  0
VERTEX
  5
4C7F
  8
3
 10
285.2257786694
 20
-25.03883957400001
 30
0.0
  0
VERTEX
  5
4C80
  8
3
 10
285.7725
 20
-24.8094627406
 30
0.0
  0
VERTEX
  5
4C81
  8
3
 10
286.4431529949
 20
-24.68741387669991
 30
0.0
  0
VERTEX
  5
4C82
  8
3
 10
287.1568470051
 20
-24.68741387669991
 30
0.0
  0
VERTEX
  5
4C83
  8
3
 10
287.8275
 20
-24.8094627406
 30
0.0
  0
VERTEX
  5
4C84
  8
3
 10
288.3742213306
 20
-25.03883957400001
 30
0.0
  0
VERTEX
  5
4C85
  8
3
 10
288.7310683357
 20
-25.34787814570007
 30
0.0
  0
VERTEX
  5
4C86
  8
3
 10
288.855
 20
-25.69930384299994
 30
0.0
  0
SEQEND
  5
4E71
  8
3
  0
POLYLINE
  5
D90
  8
3
 66
     1
 10
0.0
 20
0.0
 30
0.0
  0
VERTEX
  5
4C87
  8
3
 10
289.3
 20
-25.96915073759999
 30
0.0
  0
VERTEX
  5
4C88
  8
3
 10
289.1776412908
 20
-26.35542198049995
 30
0.0
  0
VERTEX
  5
4C89
  8
3
 10
288.822542486
 20
-26.70388230290007
 30
0.0
  0
VERTEX
  5
4C8A
  8
3
 10
288.2694631308
 20
-26.98042198049995
 30
0.0
  0
VERTEX
  5
4C8B
  8
3
 10
287.572542486
 20
-27.15797138289997
 30
0.0
  0
VERTEX
  5
4C8C
  8
3
 10
286.8
 20
-27.21915073759999
 30
0.0
  0
VERTEX
  5
4C8D
  8
3
 10
286.0274575141
 20
-27.15797138289997
 30
0.0
  0
VERTEX
  5
4C8E
  8
3
 10
285.3305368693
 20
-26.98042198049995
 30
0.0
  0
VERTEX
  5
4C8F
  8
3
 10
284.7774575141
 20
-26.70388230290007
 30
0.0
  0
VERTEX
  5
4C90
  8
3
 10
284.4223587093001
 20
-26.35542198049995
 30
0.0
  0
VERTEX
  5
4C91
  8
3
 10
284.3
 20
-25.96915073759999
 30
0.0
  0
VERTEX
  5
4C92
  8
3
 10
284.4223587093001
 20
-25.58287949459998
 30
0.0
  0
VERTEX
  5
4C93
  8
3
 10
284.7774575141
 20
-25.23441917219986
 30
0.0
  0
VERTEX
  5
4C94
  8
3
 10
285.3305368693
 20
-24.95787949459998
 30
0.0
  0
VERTEX
  5
4C95
  8
3
 10
286.0274575141
 20
-24.78033009219996
 30
0.0
  0
VERTEX
  5
4C96
  8
3
 10
286.8
 20
-24.71915073759999
 30
0.0
  0
VERTEX
  5
4C97
  8
3
 10
287.572542486
 20
-24.78033009219996
 30
0.0
  0
VERTEX
  5
4C98
  8
3
 10
288.2694631308
 20
-24.95787949459998
 30
0.0
  0
VERTEX
  5
4C99
  8
3
 10
288.822542486
 20
-25.23441917219986
 30
0.0
  0
VERTEX
  5
4C9A
  8
3
 10
289.1776412908
 20
-25.58287949459998
 30
0.0
  0
VERTEX
  5
4C9B
  8
3
 10
289.3
 20
-25.96915073759999
 30
0.0
  0
SEQEND
  5
4E70
  8
3
  0
POLYLINE
  5
D91
  8
3
 66
     1
 10
0.0
 20
0.0
 30
0.0
  0
VERTEX
  5
4C9C
  8
3
 10
289.3
 20
-26.04719028889997
 30
0.0
  0
VERTEX
  5
4C9D
  8
3
 10
289.1776412908
 20
-26.43346153189998
 30
0.0
  0
VERTEX
  5
4C9E
  8
3
 10
288.822542486
 20
-26.78192185429987
 30
0.0
  0
VERTEX
  5
4C9F
  8
3
 10
288.2694631308
 20
-27.05846153189998
 30
0.0
  0
VERTEX
  5
4CA0
  8
3
 10
287.572542486
 20
-27.2360109343
 30
0.0
  0
VERTEX
  5
4CA1
  8
3
 10
286.8
 20
-27.29719028889997
 30
0.0
  0
VERTEX
  5
4CA2
  8
3
 10
286.0274575141
 20
-27.2360109343
 30
0.0
  0
VERTEX
  5
4CA3
  8
3
 10
285.3305368693
 20
-27.05846153189998
 30
0.0
  0
VERTEX
  5
4CA4
  8
3
 10
284.7774575141
 20
-26.78192185429987
 30
0.0
  0
VERTEX
  5
4CA5
  8
3
 10
284.4223587093001
 20
-26.43346153189998
 30
0.0
  0
VERTEX
  5
4CA6
  8
3
 10
284.3
 20
-26.04719028889997
 30
0.0
  0
VERTEX
  5
4CA7
  8
3
 10
284.4223587093001
 20
-25.660919046
 30
0.0
  0
VERTEX
  5
4CA8
  8
3
 10
284.7774575141
 20
-25.31245872359989
 30
0.0
  0
VERTEX
  5
4CA9
  8
3
 10
285.3305368693
 20
-25.035919046
 30
0.0
  0
VERTEX
  5
4CAA
  8
3
 10
286.0274575141
 20
-24.85836964359999
 30
0.0
  0
VERTEX
  5
4CAB
  8
3
 10
286.8
 20
-24.79719028889997
 30
0.0
  0
VERTEX
  5
4CAC
  8
3
 10
287.572542486
 20
-24.85836964359999
 30
0.0
  0
VERTEX
  5
4CAD
  8
3
 10
288.2694631308
 20
-25.035919046
 30
0.0
  0
VERTEX
  5
4CAE
  8
3
 10
288.822542486
 20
-25.31245872359989
 30
0.0
  0
VERTEX
  5
4CAF
  8
3
 10
289.1776412908
 20
-25.660919046
 30
0.0
  0
VERTEX
  5
4CB0
  8
3
 10
289.3
 20
-26.04719028889997
 30
0.0
  0
SEQEND
  5
4E6F
  8
3
  0
POLYLINE
  5
D92
  8
3
 66
     1
 10
0.0
 20
0.0
 30
0.0
  0
VERTEX
  5
4CB1
  8
3
 10
288.855
 20
-26.31703718360006
 30
0.0
  0
VERTEX
  5
4CB2
  8
3
 10
288.7310683357
 20
-26.66846288079989
 30
0.0
  0
VERTEX
  5
4CB3
  8
3
 10
288.3742213306
 20
-26.97750145249995
 30
0.0
  0
VERTEX
  5
4CB4
  8
3
 10
287.8275
 20
-27.20687828589996
 30
0.0
  0
VERTEX
  5
4CB5
  8
3
 10
287.1568470051
 20
-27.32892714980005
 30
0.0
  0
VERTEX
  5
4CB6
  8
3
 10
286.4431529949
 20
-27.32892714980005
 30
0.0
  0
VERTEX
  5
4CB7
  8
3
 10
285.7725
 20
-27.20687828589996
 30
0.0
  0
VERTEX
  5
4CB8
  8
3
 10
285.2257786694
 20
-26.97750145249995
 30
0.0
  0
VERTEX
  5
4CB9
  8
3
 10
284.8689316643
 20
-26.66846288079989
 30
0.0
  0
VERTEX
  5
4CBA
  8
3
 10
284.745
 20
-26.31703718360006
 30
0.0
  0
VERTEX
  5
4CBB
  8
3
 10
284.8689316643
 20
-25.96561148629996
 30
0.0
  0
VERTEX
  5
4CBC
  8
3
 10
285.2257786694
 20
-25.65657291459991
 30
0.0
  0
VERTEX
  5
4CBD
  8
3
 10
285.7725
 20
-25.4271960811999
 30
0.0
  0
VERTEX
  5
4CBE
  8
3
 10
286.4431529949
 20
-25.30514721730003
 30
0.0
  0
VERTEX
  5
4CBF
  8
3
 10
287.1568470051
 20
-25.30514721730003
 30
0.0
  0
VERTEX
  5
4CC0
  8
3
 10
287.8275
 20
-25.4271960811999
 30
0.0
  0
VERTEX
  5
4CC1
  8
3
 10
288.3742213306
 20
-25.65657291459991
 30
0.0
  0
VERTEX
  5
4CC2
  8
3
 10
288.7310683357
 20
-25.96561148629996
 30
0.0
  0
VERTEX
  5
4CC3
  8
3
 10
288.855
 20
-26.31703718360006
 30
0.0
  0
SEQEND
  5
4E6E
  8
3
  0
POLYLINE
  5
D93
  8
3
 66
     1
 10
0.0
 20
0.0
 30
0.0
  0
VERTEX
  5
4CC4
  8
3
 10
289.3
 20
-26.58688407819989
 30
0.0
  0
VERTEX
  5
4CC5
  8
3
 10
289.1776412908
 20
-26.97315532109985
 30
0.0
  0
VERTEX
  5
4CC6
  8
3
 10
288.822542486
 20
-27.32161564349997
 30
0.0
  0
VERTEX
  5
4CC7
  8
3
 10
288.2694631307
 20
-27.59815532109985
 30
0.0
  0
VERTEX
  5
4CC8
  8
3
 10
287.572542486
 20
-27.77570472359992
 30
0.0
  0
VERTEX
  5
4CC9
  8
3
 10
286.8
 20
-27.83688407819989
 30
0.0
  0
VERTEX
  5
4CCA
  8
3
 10
286.0274575141
 20
-27.77570472359992
 30
0.0
  0
VERTEX
  5
4CCB
  8
3
 10
285.3305368693
 20
-27.59815532109985
 30
0.0
  0
VERTEX
  5
4CCC
  8
3
 10
284.7774575141
 20
-27.32161564349997
 30
0.0
  0
VERTEX
  5
4CCD
  8
3
 10
284.4223587093001
 20
-26.97315532109985
 30
0.0
  0
VERTEX
  5
4CCE
  8
3
 10
284.3
 20
-26.58688407819989
 30
0.0
  0
VERTEX
  5
4CCF
  8
3
 10
284.4223587093001
 20
-26.20061283519988
 30
0.0
  0
VERTEX
  5
4CD0
  8
3
 10
284.7774575141
 20
-25.85215251279999
 30
0.0
  0
VERTEX
  5
4CD1
  8
3
 10
285.3305368693
 20
-25.57561283519988
 30
0.0
  0
VERTEX
  5
4CD2
  8
3
 10
286.0274575141
 20
-25.39806343279986
 30
0.0
  0
VERTEX
  5
4CD3
  8
3
 10
286.8
 20
-25.33688407819989
 30
0.0
  0
VERTEX
  5
4CD4
  8
3
 10
287.572542486
 20
-25.39806343279986
 30
0.0
  0
VERTEX
  5
4CD5
  8
3
 10
288.2694631307
 20
-25.57561283519988
 30
0.0
  0
VERTEX
  5
4CD6
  8
3
 10
288.822542486
 20
-25.85215251279999
 30
0.0
  0
VERTEX
  5
4CD7
  8
3
 10
289.1776412908
 20
-26.20061283519988
 30
0.0
  0
VERTEX
  5
4CD8
  8
3
 10
289.3
 20
-26.58688407819989
 30
0.0
  0
SEQEND
  5
4E6D
  8
3
  0
POLYLINE
  5
D94
  8
3
 66
     1
 10
0.0
 20
0.0
 30
0.0
  0
VERTEX
  5
4CD9
  8
3
 10
289.3
 20
-26.66492362949987
 30
0.0
  0
VERTEX
  5
4CDA
  8
3
 10
289.1776412908
 20
-27.05119487249988
 30
0.0
  0
VERTEX
  5
4CDB
  8
3
 10
288.822542486
 20
-27.39965519489999
 30
0.0
  0
VERTEX
  5
4CDC
  8
3
 10
288.2694631307
 20
-27.67619487249988
 30
0.0
  0
VERTEX
  5
4CDD
  8
3
 10
287.572542486
 20
-27.8537442748999
 30
0.0
  0
VERTEX
  5
4CDE
  8
3
 10
286.8
 20
-27.91492362949987
 30
0.0
  0
VERTEX
  5
4CDF
  8
3
 10
286.0274575141
 20
-27.8537442748999
 30
0.0
  0
VERTEX
  5
4CE0
  8
3
 10
285.3305368693
 20
-27.67619487249988
 30
0.0
  0
VERTEX
  5
4CE1
  8
3
 10
284.7774575141
 20
-27.39965519489999
 30
0.0
  0
VERTEX
  5
4CE2
  8
3
 10
284.4223587093001
 20
-27.05119487249988
 30
0.0
  0
VERTEX
  5
4CE3
  8
3
 10
284.3
 20
-26.66492362949987
 30
0.0
  0
VERTEX
  5
4CE4
  8
3
 10
284.4223587093001
 20
-26.2786523865999
 30
0.0
  0
VERTEX
  5
4CE5
  8
3
 10
284.7774575141
 20
-25.93019206420001
 30
0.0
  0
VERTEX
  5
4CE6
  8
3
 10
285.3305368693
 20
-25.6536523865999
 30
0.0
  0
VERTEX
  5
4CE7
  8
3
 10
286.0274575141
 20
-25.47610298419988
 30
0.0
  0
VERTEX
  5
4CE8
  8
3
 10
286.8
 20
-25.41492362949987
 30
0.0
  0
VERTEX
  5
4CE9
  8
3
 10
287.572542486
 20
-25.47610298419988
 30
0.0
  0
VERTEX
  5
4CEA
  8
3
 10
288.2694631307
 20
-25.6536523865999
 30
0.0
  0
VERTEX
  5
4CEB
  8
3
 10
288.822542486
 20
-25.93019206420001
 30
0.0
  0
VERTEX
  5
4CEC
  8
3
 10
289.1776412908
 20
-26.2786523865999
 30
0.0
  0
VERTEX
  5
4CED
  8
3
 10
289.3
 20
-26.66492362949987
 30
0.0
  0
SEQEND
  5
4E6C
  8
3
  0
POLYLINE
  5
D95
  8
3
 66
     1
 10
0.0
 20
0.0
 30
0.0
  0
VERTEX
  5
4CEE
  8
3
 10
288.855
 20
-26.93477052419996
 30
0.0
  0
VERTEX
  5
4CEF
  8
3
 10
288.7310683357
 20
-27.28619622140002
 30
0.0
  0
VERTEX
  5
4CF0
  8
3
 10
288.3742213306
 20
-27.59523479309985
 30
0.0
  0
VERTEX
  5
4CF1
  8
3
 10
287.8275
 20
-27.82461162649986
 30
0.0
  0
VERTEX
  5
4CF2
  8
3
 10
287.1568470051
 20
-27.94666049039995
 30
0.0
  0
VERTEX
  5
4CF3
  8
3
 10
286.4431529949
 20
-27.94666049039995
 30
0.0
  0
VERTEX
  5
4CF4
  8
3
 10
285.7725
 20
-27.82461162649986
 30
0.0
  0
VERTEX
  5
4CF5
  8
3
 10
285.2257786694
 20
-27.59523479309985
 30
0.0
  0
VERTEX
  5
4CF6
  8
3
 10
284.8689316643
 20
-27.28619622140002
 30
0.0
  0
VERTEX
  5
4CF7
  8
3
 10
284.745
 20
-26.93477052419996
 30
0.0
  0
VERTEX
  5
4CF8
  8
3
 10
284.8689316643
 20
-26.58334482689986
 30
0.0
  0
VERTEX
  5
4CF9
  8
3
 10
285.2257786694
 20
-26.27430625520003
 30
0.0
  0
VERTEX
  5
4CFA
  8
3
 10
285.7725
 20
-26.04492942180002
 30
0.0
  0
VERTEX
  5
4CFB
  8
3
 10
286.4431529949
 20
-25.92288055789993
 30
0.0
  0
VERTEX
  5
4CFC
  8
3
 10
287.1568470051
 20
-25.92288055789993
 30
0.0
  0
VERTEX
  5
4CFD
  8
3
 10
287.8275
 20
-26.04492942180002
 30
0.0
  0
VERTEX
  5
4CFE
  8
3
 10
288.3742213306
 20
-26.27430625520003
 30
0.0
  0
VERTEX
  5
4CFF
  8
3
 10
288.7310683357
 20
-26.58334482689986
 30
0.0
  0
VERTEX
  5
4D00
  8
3
 10
288.855
 20
-26.93477052419996
 30
0.0
  0
SEQEND
  5
4E6B
  8
3
  0
POLYLINE
  5
D96
  8
3
 66
     1
 10
0.0
 20
0.0
 30
0.0
  0
VERTEX
  5
4D01
  8
3
 10
289.3
 20
-27.20461741880001
 30
0.0
  0
VERTEX
  5
4D02
  8
3
 10
289.1776412908
 20
-27.59088866180002
 30
0.0
  0
VERTEX
  5
4D03
  8
3
 10
288.822542486
 20
-27.93934898419991
 30
0.0
  0
VERTEX
  5
4D04
  8
3
 10
288.2694631308
 20
-28.21588866180002
 30
0.0
  0
VERTEX
  5
4D05
  8
3
 10
287.572542486
 20
-28.39343806420004
 30
0.0
  0
VERTEX
  5
4D06
  8
3
 10
286.8
 20
-28.45461741880001
 30
0.0
  0
VERTEX
  5
4D07
  8
3
 10
286.0274575141
 20
-28.39343806420004
 30
0.0
  0
VERTEX
  5
4D08
  8
3
 10
285.3305368693
 20
-28.21588866180002
 30
0.0
  0
VERTEX
  5
4D09
  8
3
 10
284.7774575141
 20
-27.93934898419991
 30
0.0
  0
VERTEX
  5
4D0A
  8
3
 10
284.4223587093001
 20
-27.59088866180002
 30
0.0
  0
VERTEX
  5
4D0B
  8
3
 10
284.3
 20
-27.20461741880001
 30
0.0
  0
VERTEX
  5
4D0C
  8
3
 10
284.4223587093001
 20
-26.8183461758
 30
0.0
  0
VERTEX
  5
4D0D
  8
3
 10
284.7774575141
 20
-26.46988585339989
 30
0.0
  0
VERTEX
  5
4D0E
  8
3
 10
285.3305368693
 20
-26.1933461758
 30
0.0
  0
VERTEX
  5
4D0F
  8
3
 10
286.0274575141
 20
-26.01579677339998
 30
0.0
  0
VERTEX
  5
4D10
  8
3
 10
286.8
 20
-25.95461741880001
 30
0.0
  0
VERTEX
  5
4D11
  8
3
 10
287.572542486
 20
-26.01579677339998
 30
0.0
  0
VERTEX
  5
4D12
  8
3
 10
288.2694631308
 20
-26.1933461758
 30
0.0
  0
VERTEX
  5
4D13
  8
3
 10
288.822542486
 20
-26.46988585339989
 30
0.0
  0
VERTEX
  5
4D14
  8
3
 10
289.1776412908
 20
-26.8183461758
 30
0.0
  0
VERTEX
  5
4D15
  8
3
 10
289.3
 20
-27.20461741880001
 30
0.0
  0
SEQEND
  5
4E6A
  8
3
  0
POLYLINE
  5
D97
  8
3
 66
     1
 10
0.0
 20
0.0
 30
0.0
  0
VERTEX
  5
4D16
  8
3
 10
289.3
 20
-27.28265697009999
 30
0.0
  0
VERTEX
  5
4D17
  8
3
 10
289.1776412908
 20
-27.6689282131
 30
0.0
  0
VERTEX
  5
4D18
  8
3
 10
288.822542486
 20
-28.01738853549989
 30
0.0
  0
VERTEX
  5
4D19
  8
3
 10
288.2694631308
 20
-28.2939282131
 30
0.0
  0
VERTEX
  5
4D1A
  8
3
 10
287.572542486
 20
-28.47147761550002
 30
0.0
  0
VERTEX
  5
4D1B
  8
3
 10
286.8
 20
-28.53265697009999
 30
0.0
  0
VERTEX
  5
4D1C
  8
3
 10
286.0274575141
 20
-28.47147761550002
 30
0.0
  0
VERTEX
  5
4D1D
  8
3
 10
285.3305368693
 20
-28.2939282131
 30
0.0
  0
VERTEX
  5
4D1E
  8
3
 10
284.7774575141
 20
-28.01738853549989
 30
0.0
  0
VERTEX
  5
4D1F
  8
3
 10
284.4223587093001
 20
-27.6689282131
 30
0.0
  0
VERTEX
  5
4D20
  8
3
 10
284.3
 20
-27.28265697009999
 30
0.0
  0
VERTEX
  5
4D21
  8
3
 10
284.4223587093001
 20
-26.89638572720003
 30
0.0
  0
VERTEX
  5
4D22
  8
3
 10
284.7774575141
 20
-26.54792540479991
 30
0.0
  0
VERTEX
  5
4D23
  8
3
 10
285.3305368693
 20
-26.27138572720003
 30
0.0
  0
VERTEX
  5
4D24
  8
3
 10
286.0274575141
 20
-26.09383632480001
 30
0.0
  0
VERTEX
  5
4D25
  8
3
 10
286.8
 20
-26.03265697009999
 30
0.0
  0
VERTEX
  5
4D26
  8
3
 10
287.572542486
 20
-26.09383632480001
 30
0.0
  0
VERTEX
  5
4D27
  8
3
 10
288.2694631308
 20
-26.27138572720003
 30
0.0
  0
VERTEX
  5
4D28
  8
3
 10
288.822542486
 20
-26.54792540479991
 30
0.0
  0
VERTEX
  5
4D29
  8
3
 10
289.1776412908
 20
-26.89638572720003
 30
0.0
  0
VERTEX
  5
4D2A
  8
3
 10
289.3
 20
-27.28265697009999
 30
0.0
  0
SEQEND
  5
4E69
  8
3
  0
POLYLINE
  5
D98
  8
3
 66
     1
 10
0.0
 20
0.0
 30
0.0
  0
VERTEX
  5
4D2B
  8
3
 10
288.855
 20
-27.55250386479986
 30
0.0
  0
VERTEX
  5
4D2C
  8
3
 10
288.7310683357
 20
-27.90392956199992
 30
0.0
  0
VERTEX
  5
4D2D
  8
3
 10
288.3742213306
 20
-28.21296813369997
 30
0.0
  0
VERTEX
  5
4D2E
  8
3
 10
287.8275
 20
-28.44234496720003
 30
0.0
  0
VERTEX
  5
4D2F
  8
3
 10
287.1568470051
 20
-28.56439383099985
 30
0.0
  0
VERTEX
  5
4D30
  8
3
 10
286.4431529949
 20
-28.56439383099985
 30
0.0
  0
VERTEX
  5
4D31
  8
3
 10
285.7725
 20
-28.44234496720003
 30
0.0
  0
VERTEX
  5
4D32
  8
3
 10
285.2257786694
 20
-28.21296813369997
 30
0.0
  0
VERTEX
  5
4D33
  8
3
 10
284.8689316643
 20
-27.90392956199992
 30
0.0
  0
VERTEX
  5
4D34
  8
3
 10
284.745
 20
-27.55250386479986
 30
0.0
  0
VERTEX
  5
4D35
  8
3
 10
284.8689316643
 20
-27.20107816749999
 30
0.0
  0
VERTEX
  5
4D36
  8
3
 10
285.2257786694
 20
-26.89203959579993
 30
0.0
  0
VERTEX
  5
4D37
  8
3
 10
285.7725
 20
-26.66266276239992
 30
0.0
  0
VERTEX
  5
4D38
  8
3
 10
286.4431529949
 20
-26.54061389850006
 30
0.0
  0
VERTEX
  5
4D39
  8
3
 10
287.1568470051
 20
-26.54061389850006
 30
0.0
  0
VERTEX
  5
4D3A
  8
3
 10
287.8275
 20
-26.66266276239992
 30
0.0
  0
VERTEX
  5
4D3B
  8
3
 10
288.3742213306
 20
-26.89203959579993
 30
0.0
  0
VERTEX
  5
4D3C
  8
3
 10
288.7310683357
 20
-27.20107816749999
 30
0.0
  0
VERTEX
  5
4D3D
  8
3
 10
288.855
 20
-27.55250386479986
 30
0.0
  0
SEQEND
  5
4E68
  8
3
  0
POLYLINE
  5
D99
  8
3
 66
     1
 10
0.0
 20
0.0
 30
0.0
  0
VERTEX
  5
4D3E
  8
3
 10
289.3
 20
-27.82235075939991
 30
0.0
  0
VERTEX
  5
4D3F
  8
3
 10
289.1776412908
 20
-28.20862200239992
 30
0.0
  0
VERTEX
  5
4D40
  8
3
 10
288.822542486
 20
-28.55708232480004
 30
0.0
  0
VERTEX
  5
4D41
  8
3
 10
288.2694631308
 20
-28.83362200239992
 30
0.0
  0
VERTEX
  5
4D42
  8
3
 10
287.572542486
 20
-29.01117140479994
 30
0.0
  0
VERTEX
  5
4D43
  8
3
 10
286.8
 20
-29.07235075939991
 30
0.0
  0
VERTEX
  5
4D44
  8
3
 10
286.0274575141
 20
-29.01117140479994
 30
0.0
  0
VERTEX
  5
4D45
  8
3
 10
285.3305368693
 20
-28.83362200239992
 30
0.0
  0
VERTEX
  5
4D46
  8
3
 10
284.7774575141
 20
-28.55708232480004
 30
0.0
  0
VERTEX
  5
4D47
  8
3
 10
284.4223587093001
 20
-28.20862200239992
 30
0.0
  0
VERTEX
  5
4D48
  8
3
 10
284.3
 20
-27.82235075939991
 30
0.0
  0
VERTEX
  5
4D49
  8
3
 10
284.4223587093001
 20
-27.4360795163999
 30
0.0
  0
VERTEX
  5
4D4A
  8
3
 10
284.7774575141
 20
-27.08761919400001
 30
0.0
  0
VERTEX
  5
4D4B
  8
3
 10
285.3305368693
 20
-26.8110795163999
 30
0.0
  0
VERTEX
  5
4D4C
  8
3
 10
286.0274575141
 20
-26.63353011399988
 30
0.0
  0
VERTEX
  5
4D4D
  8
3
 10
286.8
 20
-26.57235075939991
 30
0.0
  0
VERTEX
  5
4D4E
  8
3
 10
287.572542486
 20
-26.63353011399988
 30
0.0
  0
VERTEX
  5
4D4F
  8
3
 10
288.2694631308
 20
-26.8110795163999
 30
0.0
  0
VERTEX
  5
4D50
  8
3
 10
288.822542486
 20
-27.08761919400001
 30
0.0
  0
VERTEX
  5
4D51
  8
3
 10
289.1776412908
 20
-27.4360795163999
 30
0.0
  0
VERTEX
  5
4D52
  8
3
 10
289.3
 20
-27.82235075939991
 30
0.0
  0
SEQEND
  5
4E67
  8
3
  0
POLYLINE
  5
D9A
  8
3
 66
     1
 10
0.0
 20
0.0
 30
0.0
  0
VERTEX
  5
4D53
  8
3
 10
289.3
 20
-27.90039031069989
 30
0.0
  0
VERTEX
  5
4D54
  8
3
 10
289.1776412908
 20
-28.2866615536999
 30
0.0
  0
VERTEX
  5
4D55
  8
3
 10
288.822542486
 20
-28.63512187610002
 30
0.0
  0
VERTEX
  5
4D56
  8
3
 10
288.2694631308
 20
-28.9116615536999
 30
0.0
  0
VERTEX
  5
4D57
  8
3
 10
287.572542486
 20
-29.08921095609992
 30
0.0
  0
VERTEX
  5
4D58
  8
3
 10
286.8
 20
-29.15039031069989
 30
0.0
  0
VERTEX
  5
4D59
  8
3
 10
286.0274575141
 20
-29.08921095609992
 30
0.0
  0
VERTEX
  5
4D5A
  8
3
 10
285.3305368693
 20
-28.9116615536999
 30
0.0
  0
VERTEX
  5
4D5B
  8
3
 10
284.7774575141
 20
-28.63512187610002
 30
0.0
  0
VERTEX
  5
4D5C
  8
3
 10
284.4223587093001
 20
-28.2866615536999
 30
0.0
  0
VERTEX
  5
4D5D
  8
3
 10
284.3
 20
-27.90039031069989
 30
0.0
  0
VERTEX
  5
4D5E
  8
3
 10
284.4223587093001
 20
-27.51411906779992
 30
0.0
  0
VERTEX
  5
4D5F
  8
3
 10
284.7774575141
 20
-27.16565874540004
 30
0.0
  0
VERTEX
  5
4D60
  8
3
 10
285.3305368693
 20
-26.88911906779992
 30
0.0
  0
VERTEX
  5
4D61
  8
3
 10
286.0274575141
 20
-26.71156966539991
 30
0.0
  0
VERTEX
  5
4D62
  8
3
 10
286.8
 20
-26.65039031069989
 30
0.0
  0
VERTEX
  5
4D63
  8
3
 10
287.572542486
 20
-26.71156966539991
 30
0.0
  0
VERTEX
  5
4D64
  8
3
 10
288.2694631308
 20
-26.88911906779992
 30
0.0
  0
VERTEX
  5
4D65
  8
3
 10
288.822542486
 20
-27.16565874540004
 30
0.0
  0
VERTEX
  5
4D66
  8
3
 10
289.1776412908
 20
-27.51411906779992
 30
0.0
  0
VERTEX
  5
4D67
  8
3
 10
289.3
 20
-27.90039031069989
 30
0.0
  0
SEQEND
  5
4E66
  8
3
  0
POLYLINE
  5
D9B
  8
3
 66
     1
 10
0.0
 20
0.0
 30
0.0
  0
VERTEX
  5
4D68
  8
3
 10
288.855
 20
-28.17023720539999
 30
0.0
  0
VERTEX
  5
4D69
  8
3
 10
288.7310683357
 20
-28.52166290260004
 30
0.0
  0
VERTEX
  5
4D6A
  8
3
 10
288.3742213306
 20
-28.83070147429987
 30
0.0
  0
VERTEX
  5
4D6B
  8
3
 10
287.8275
 20
-29.06007830779993
 30
0.0
  0
VERTEX
  5
4D6C
  8
3
 10
287.1568470051
 20
-29.18212717159997
 30
0.0
  0
VERTEX
  5
4D6D
  8
3
 10
286.4431529949
 20
-29.18212717159997
 30
0.0
  0
VERTEX
  5
4D6E
  8
3
 10
285.7725
 20
-29.06007830779993
 30
0.0
  0
VERTEX
  5
4D6F
  8
3
 10
285.2257786694
 20
-28.83070147429987
 30
0.0
  0
VERTEX
  5
4D70
  8
3
 10
284.8689316643
 20
-28.52166290260004
 30
0.0
  0
VERTEX
  5
4D71
  8
3
 10
284.745
 20
-28.17023720539999
 30
0.0
  0
VERTEX
  5
4D72
  8
3
 10
284.8689316643
 20
-27.81881150809988
 30
0.0
  0
VERTEX
  5
4D73
  8
3
 10
285.2257786694
 20
-27.50977293640005
 30
0.0
  0
VERTEX
  5
4D74
  8
3
 10
285.7725
 20
-27.28039610300004
 30
0.0
  0
VERTEX
  5
4D75
  8
3
 10
286.4431529949
 20
-27.1583472392
 30
0.0
  0
VERTEX
  5
4D76
  8
3
 10
287.1568470051
 20
-27.1583472392
 30
0.0
  0
VERTEX
  5
4D77
  8
3
 10
287.8275
 20
-27.28039610300004
 30
0.0
  0
VERTEX
  5
4D78
  8
3
 10
288.3742213306
 20
-27.50977293640005
 30
0.0
  0
VERTEX
  5
4D79
  8
3
 10
288.7310683357
 20
-27.81881150809988
 30
0.0
  0
VERTEX
  5
4D7A
  8
3
 10
288.855
 20
-28.17023720539999
 30
0.0
  0
SEQEND
  5
4E65
  8
3
  0
POLYLINE
  5
D9C
  8
3
 66
     1
 10
0.0
 20
0.0
 30
0.0
  0
VERTEX
  5
4D7B
  8
3
 10
289.3
 20
-28.44008410000004
 30
0.0
  0
VERTEX
  5
4D7C
  8
3
 10
289.1776412908
 20
-28.82635534300005
 30
0.0
  0
VERTEX
  5
4D7D
  8
3
 10
288.822542486
 20
-29.17481566539993
 30
0.0
  0
VERTEX
  5
4D7E
  8
3
 10
288.2694631308
 20
-29.45135534300005
 30
0.0
  0
VERTEX
  5
4D7F
  8
3
 10
287.572542486
 20
-29.62890474540006
 30
0.0
  0
VERTEX
  5
4D80
  8
3
 10
286.8
 20
-29.69008410000004
 30
0.0
  0
VERTEX
  5
4D81
  8
3
 10
286.0274575141
 20
-29.62890474540006
 30
0.0
  0
VERTEX
  5
4D82
  8
3
 10
285.3305368693
 20
-29.45135534300005
 30
0.0
  0
VERTEX
  5
4D83
  8
3
 10
284.7774575141
 20
-29.17481566539993
 30
0.0
  0
VERTEX
  5
4D84
  8
3
 10
284.4223587093001
 20
-28.82635534300005
 30
0.0
  0
VERTEX
  5
4D85
  8
3
 10
284.3
 20
-28.44008410000004
 30
0.0
  0
VERTEX
  5
4D86
  8
3
 10
284.4223587093001
 20
-28.05381285700003
 30
0.0
  0
VERTEX
  5
4D87
  8
3
 10
284.7774575141
 20
-27.70535253459991
 30
0.0
  0
VERTEX
  5
4D88
  8
3
 10
285.3305368693
 20
-27.42881285700003
 30
0.0
  0
VERTEX
  5
4D89
  8
3
 10
286.0274575141
 20
-27.25126345460001
 30
0.0
  0
VERTEX
  5
4D8A
  8
3
 10
286.8
 20
-27.19008410000004
 30
0.0
  0
VERTEX
  5
4D8B
  8
3
 10
287.572542486
 20
-27.25126345460001
 30
0.0
  0
VERTEX
  5
4D8C
  8
3
 10
288.2694631308
 20
-27.42881285700003
 30
0.0
  0
VERTEX
  5
4D8D
  8
3
 10
288.822542486
 20
-27.70535253459991
 30
0.0
  0
VERTEX
  5
4D8E
  8
3
 10
289.1776412908
 20
-28.05381285700003
 30
0.0
  0
VERTEX
  5
4D8F
  8
3
 10
289.3
 20
-28.44008410000004
 30
0.0
  0
SEQEND
  5
4E64
  8
3
  0
POLYLINE
  5
D9D
  8
3
 66
     1
 10
0.0
 20
0.0
 30
0.0
  0
VERTEX
  5
4D90
  8
3
 10
289.3
 20
-28.51812365130002
 30
0.0
  0
VERTEX
  5
4D91
  8
3
 10
289.1776412908
 20
-28.90439489430003
 30
0.0
  0
VERTEX
  5
4D92
  8
3
 10
288.822542486
 20
-29.25285521669991
 30
0.0
  0
VERTEX
  5
4D93
  8
3
 10
288.2694631308
 20
-29.52939489430003
 30
0.0
  0
VERTEX
  5
4D94
  8
3
 10
287.572542486
 20
-29.70694429670004
 30
0.0
  0
VERTEX
  5
4D95
  8
3
 10
286.8
 20
-29.76812365140006
 30
0.0
  0
VERTEX
  5
4D96
  8
3
 10
286.0274575141
 20
-29.70694429670004
 30
0.0
  0
VERTEX
  5
4D97
  8
3
 10
285.3305368693
 20
-29.52939489430003
 30
0.0
  0
VERTEX
  5
4D98
  8
3
 10
284.7774575141
 20
-29.25285521669991
 30
0.0
  0
VERTEX
  5
4D99
  8
3
 10
284.4223587093001
 20
-28.90439489430003
 30
0.0
  0
VERTEX
  5
4D9A
  8
3
 10
284.3
 20
-28.51812365130002
 30
0.0
  0
VERTEX
  5
4D9B
  8
3
 10
284.4223587093001
 20
-28.13185240840005
 30
0.0
  0
VERTEX
  5
4D9C
  8
3
 10
284.7774575141
 20
-27.78339208599994
 30
0.0
  0
VERTEX
  5
4D9D
  8
3
 10
285.3305368693
 20
-27.50685240840005
 30
0.0
  0
VERTEX
  5
4D9E
  8
3
 10
286.0274575141
 20
-27.32930300600003
 30
0.0
  0
VERTEX
  5
4D9F
  8
3
 10
286.8
 20
-27.26812365130002
 30
0.0
  0
VERTEX
  5
4DA0
  8
3
 10
287.572542486
 20
-27.32930300600003
 30
0.0
  0
VERTEX
  5
4DA1
  8
3
 10
288.2694631308
 20
-27.50685240840005
 30
0.0
  0
VERTEX
  5
4DA2
  8
3
 10
288.822542486
 20
-27.78339208599994
 30
0.0
  0
VERTEX
  5
4DA3
  8
3
 10
289.1776412908
 20
-28.13185240840005
 30
0.0
  0
VERTEX
  5
4DA4
  8
3
 10
289.3
 20
-28.51812365130002
 30
0.0
  0
SEQEND
  5
4E63
  8
3
  0
POLYLINE
  5
D9E
  8
3
 66
     1
 10
0.0
 20
0.0
 30
0.0
  0
VERTEX
  5
4DA5
  8
3
 10
288.855
 20
-28.78797054599988
 30
0.0
  0
VERTEX
  5
4DA6
  8
3
 10
288.7310683357
 20
-29.13939624319994
 30
0.0
  0
VERTEX
  5
4DA7
  8
3
 10
288.3742213306
 20
-29.4484348149
 30
0.0
  0
VERTEX
  5
4DA8
  8
3
 10
287.8275
 20
-29.67781164840005
 30
0.0
  0
VERTEX
  5
4DA9
  8
3
 10
287.1568470051
 20
-29.79986051219987
 30
0.0
  0
VERTEX
  5
4DAA
  8
3
 10
286.4431529949
 20
-29.79986051219987
 30
0.0
  0
VERTEX
  5
4DAB
  8
3
 10
285.7725
 20
-29.67781164840005
 30
0.0
  0
VERTEX
  5
4DAC
  8
3
 10
285.2257786694
 20
-29.4484348149
 30
0.0
  0
VERTEX
  5
4DAD
  8
3
 10
284.8689316643
 20
-29.13939624319994
 30
0.0
  0
VERTEX
  5
4DAE
  8
3
 10
284.745
 20
-28.78797054599988
 30
0.0
  0
VERTEX
  5
4DAF
  8
3
 10
284.8689316643
 20
-28.43654484870001
 30
0.0
  0
VERTEX
  5
4DB0
  8
3
 10
285.2257786694
 20
-28.12750627699995
 30
0.0
  0
VERTEX
  5
4DB1
  8
3
 10
285.7725
 20
-27.89812944359994
 30
0.0
  0
VERTEX
  5
4DB2
  8
3
 10
286.4431529949
 20
-27.7760805797999
 30
0.0
  0
VERTEX
  5
4DB3
  8
3
 10
287.1568470051
 20
-27.7760805797999
 30
0.0
  0
VERTEX
  5
4DB4
  8
3
 10
287.8275
 20
-27.89812944359994
 30
0.0
  0
VERTEX
  5
4DB5
  8
3
 10
288.3742213306
 20
-28.12750627699995
 30
0.0
  0
VERTEX
  5
4DB6
  8
3
 10
288.7310683357
 20
-28.43654484870001
 30
0.0
  0
VERTEX
  5
4DB7
  8
3
 10
288.855
 20
-28.78797054599988
 30
0.0
  0
SEQEND
  5
4E62
  8
3
  0
POLYLINE
  5
D9F
  8
3
 66
     1
 10
0.0
 20
0.0
 30
0.0
  0
VERTEX
  5
4DB8
  8
3
 10
289.3
 20
-29.05781744059993
 30
0.0
  0
VERTEX
  5
4DB9
  8
3
 10
289.1776412908
 20
-29.44408868359994
 30
0.0
  0
VERTEX
  5
4DBA
  8
3
 10
288.822542486
 20
-29.79254900600006
 30
0.0
  0
VERTEX
  5
4DBB
  8
3
 10
288.2694631308
 20
-30.06908868359994
 30
0.0
  0
VERTEX
  5
4DBC
  8
3
 10
287.572542486
 20
-30.24663808599996
 30
0.0
  0
VERTEX
  5
4DBD
  8
3
 10
286.8
 20
-30.30781744059993
 30
0.0
  0
VERTEX
  5
4DBE
  8
3
 10
286.0274575141
 20
-30.24663808599996
 30
0.0
  0
VERTEX
  5
4DBF
  8
3
 10
285.3305368693
 20
-30.06908868359994
 30
0.0
  0
VERTEX
  5
4DC0
  8
3
 10
284.7774575141
 20
-29.79254900600006
 30
0.0
  0
VERTEX
  5
4DC1
  8
3
 10
284.4223587093001
 20
-29.44408868359994
 30
0.0
  0
VERTEX
  5
4DC2
  8
3
 10
284.3
 20
-29.05781744059993
 30
0.0
  0
VERTEX
  5
4DC3
  8
3
 10
284.4223587093001
 20
-28.67154619759992
 30
0.0
  0
VERTEX
  5
4DC4
  8
3
 10
284.7774575141
 20
-28.32308587520004
 30
0.0
  0
VERTEX
  5
4DC5
  8
3
 10
285.3305368693
 20
-28.04654619759992
 30
0.0
  0
VERTEX
  5
4DC6
  8
3
 10
286.0274575141
 20
-27.86899679519991
 30
0.0
  0
VERTEX
  5
4DC7
  8
3
 10
286.8
 20
-27.80781744059993
 30
0.0
  0
VERTEX
  5
4DC8
  8
3
 10
287.572542486
 20
-27.86899679519991
 30
0.0
  0
VERTEX
  5
4DC9
  8
3
 10
288.2694631308
 20
-28.04654619759992
 30
0.0
  0
VERTEX
  5
4DCA
  8
3
 10
288.822542486
 20
-28.32308587520004
 30
0.0
  0
VERTEX
  5
4DCB
  8
3
 10
289.1776412908
 20
-28.67154619759992
 30
0.0
  0
VERTEX
  5
4DCC
  8
3
 10
289.3
 20
-29.05781744059993
 30
0.0
  0
SEQEND
  5
4E61
  8
3
  0
POLYLINE
  5
DA0
  8
3
 66
     1
 10
0.0
 20
0.0
 30
0.0
  0
VERTEX
  5
4DCD
  8
3
 10
289.3
 20
-29.13585699199996
 30
0.0
  0
VERTEX
  5
4DCE
  8
3
 10
289.1776412908
 20
-29.52212823489992
 30
0.0
  0
VERTEX
  5
4DCF
  8
3
 10
288.822542486
 20
-29.87058855730004
 30
0.0
  0
VERTEX
  5
4DD0
  8
3
 10
288.2694631308
 20
-30.14712823489992
 30
0.0
  0
VERTEX
  5
4DD1
  8
3
 10
287.572542486
 20
-30.32467763729994
 30
0.0
  0
VERTEX
  5
4DD2
  8
3
 10
286.8
 20
-30.38585699199996
 30
0.0
  0
VERTEX
  5
4DD3
  8
3
 10
286.0274575141
 20
-30.32467763729994
 30
0.0
  0
VERTEX
  5
4DD4
  8
3
 10
285.3305368693
 20
-30.14712823489992
 30
0.0
  0
VERTEX
  5
4DD5
  8
3
 10
284.7774575141
 20
-29.87058855730004
 30
0.0
  0
VERTEX
  5
4DD6
  8
3
 10
284.4223587093001
 20
-29.52212823489992
 30
0.0
  0
VERTEX
  5
4DD7
  8
3
 10
284.3
 20
-29.13585699199996
 30
0.0
  0
VERTEX
  5
4DD8
  8
3
 10
284.4223587093001
 20
-28.74958574899995
 30
0.0
  0
VERTEX
  5
4DD9
  8
3
 10
284.7774575141
 20
-28.40112542660006
 30
0.0
  0
VERTEX
  5
4DDA
  8
3
 10
285.3305368693
 20
-28.12458574899995
 30
0.0
  0
VERTEX
  5
4DDB
  8
3
 10
286.0274575141
 20
-27.94703634659993
 30
0.0
  0
VERTEX
  5
4DDC
  8
3
 10
286.8
 20
-27.88585699199996
 30
0.0
  0
VERTEX
  5
4DDD
  8
3
 10
287.572542486
 20
-27.94703634659993
 30
0.0
  0
VERTEX
  5
4DDE
  8
3
 10
288.2694631308
 20
-28.12458574899995
 30
0.0
  0
VERTEX
  5
4DDF
  8
3
 10
288.822542486
 20
-28.40112542660006
 30
0.0
  0
VERTEX
  5
4DE0
  8
3
 10
289.1776412908
 20
-28.74958574899995
 30
0.0
  0
VERTEX
  5
4DE1
  8
3
 10
289.3
 20
-29.13585699199996
 30
0.0
  0
SEQEND
  5
4E60
  8
3
  0
POLYLINE
  5
DA1
  8
3
 66
     1
 10
0.0
 20
0.0
 30
0.0
  0
VERTEX
  5
4DE2
  8
3
 10
288.855
 20
-29.40570388660001
 30
0.0
  0
VERTEX
  5
4DE3
  8
3
 10
288.7310683357
 20
-29.75712958380007
 30
0.0
  0
VERTEX
  5
4DE4
  8
3
 10
288.3742213306
 20
-30.06616815549989
 30
0.0
  0
VERTEX
  5
4DE5
  8
3
 10
287.8275
 20
-30.29554498899995
 30
0.0
  0
VERTEX
  5
4DE6
  8
3
 10
287.1568470051
 20
-30.4175938528
 30
0.0
  0
VERTEX
  5
4DE7
  8
3
 10
286.4431529949
 20
-30.4175938528
 30
0.0
  0
VERTEX
  5
4DE8
  8
3
 10
285.7725
 20
-30.29554498899995
 30
0.0
  0
VERTEX
  5
4DE9
  8
3
 10
285.2257786694
 20
-30.06616815549989
 30
0.0
  0
VERTEX
  5
4DEA
  8
3
 10
284.8689316643
 20
-29.75712958380007
 30
0.0
  0
VERTEX
  5
4DEB
  8
3
 10
284.745
 20
-29.40570388660001
 30
0.0
  0
VERTEX
  5
4DEC
  8
3
 10
284.8689316643
 20
-29.05427818929991
 30
0.0
  0
VERTEX
  5
4DED
  8
3
 10
285.2257786694
 20
-28.74523961759985
 30
0.0
  0
VERTEX
  5
4DEE
  8
3
 10
285.7725
 20
-28.51586278420007
 30
0.0
  0
VERTEX
  5
4DEF
  8
3
 10
286.4431529949
 20
-28.39381392040002
 30
0.0
  0
VERTEX
  5
4DF0
  8
3
 10
287.1568470051
 20
-28.39381392040002
 30
0.0
  0
VERTEX
  5
4DF1
  8
3
 10
287.8275
 20
-28.51586278420007
 30
0.0
  0
VERTEX
  5
4DF2
  8
3
 10
288.3742213306
 20
-28.74523961759985
 30
0.0
  0
VERTEX
  5
4DF3
  8
3
 10
288.7310683357
 20
-29.05427818929991
 30
0.0
  0
VERTEX
  5
4DF4
  8
3
 10
288.855
 20
-29.40570388660001
 30
0.0
  0
SEQEND
  5
4E5F
  8
3
  0
POLYLINE
  5
DA2
  8
3
 66
     1
 10
0.0
 20
0.0
 30
0.0
  0
VERTEX
  5
4DF5
  8
3
 10
289.3
 20
-29.67555078120006
 30
0.0
  0
VERTEX
  5
4DF6
  8
3
 10
289.1776412908
 20
-30.06182202420007
 30
0.0
  0
VERTEX
  5
4DF7
  8
3
 10
288.822542486
 20
-30.41028234659996
 30
0.0
  0
VERTEX
  5
4DF8
  8
3
 10
288.2694631308
 20
-30.68682202420007
 30
0.0
  0
VERTEX
  5
4DF9
  8
3
 10
287.572542486
 20
-30.86437142659986
 30
0.0
  0
VERTEX
  5
4DFA
  8
3
 10
286.8
 20
-30.92555078120006
 30
0.0
  0
VERTEX
  5
4DFB
  8
3
 10
286.0274575141
 20
-30.86437142659986
 30
0.0
  0
VERTEX
  5
4DFC
  8
3
 10
285.3305368693
 20
-30.68682202420007
 30
0.0
  0
VERTEX
  5
4DFD
  8
3
 10
284.7774575141
 20
-30.41028234659996
 30
0.0
  0
VERTEX
  5
4DFE
  8
3
 10
284.4223587093001
 20
-30.06182202420007
 30
0.0
  0
VERTEX
  5
4DFF
  8
3
 10
284.3
 20
-29.67555078120006
 30
0.0
  0
VERTEX
  5
4E00
  8
3
 10
284.4223587093001
 20
-29.28927953820005
 30
0.0
  0
VERTEX
  5
4E01
  8
3
 10
284.7774575141
 20
-28.94081921579993
 30
0.0
  0
VERTEX
  5
4E02
  8
3
 10
285.3305368693
 20
-28.66427953820005
 30
0.0
  0
VERTEX
  5
4E03
  8
3
 10
286.0274575141
 20
-28.48673013580003
 30
0.0
  0
VERTEX
  5
4E04
  8
3
 10
286.8
 20
-28.42555078120006
 30
0.0
  0
VERTEX
  5
4E05
  8
3
 10
287.572542486
 20
-28.48673013580003
 30
0.0
  0
VERTEX
  5
4E06
  8
3
 10
288.2694631308
 20
-28.66427953820005
 30
0.0
  0
VERTEX
  5
4E07
  8
3
 10
288.822542486
 20
-28.94081921579993
 30
0.0
  0
VERTEX
  5
4E08
  8
3
 10
289.1776412908
 20
-29.28927953820005
 30
0.0
  0
VERTEX
  5
4E09
  8
3
 10
289.3
 20
-29.67555078120006
 30
0.0
  0
SEQEND
  5
4E5E
  8
3
  0
LINE
  5
DA3
  8
3
 10
286.8
 20
-28.62935647350002
 30
0.0
 11
286.8
 21
-30.96762506369998
 31
0.0
  0
LINE
  5
DA4
  8
3
 10
288.05
 20
-28.26851255519989
 30
0.0
 11
286.8
 21
-28.62935647350002
 31
0.0
  0
LINE
  5
DA5
  8
3
 10
285.55
 20
-28.26851255519989
 30
0.0
 11
286.8
 21
-28.62935647350002
 31
0.0
  0
POLYLINE
  5
DA6
  8
3
 66
     1
 10
0.0
 20
0.0
 30
0.0
  0
VERTEX
  5
4E0A
  8
3
 10
289.3
 20
-29.75359033259986
 30
0.0
  0
VERTEX
  5
4E0B
  8
3
 10
289.1776412908
 20
-30.13986157550005
 30
0.0
  0
VERTEX
  5
4E0C
  8
3
 10
288.822542486
 20
-30.48832189789994
 30
0.0
  0
VERTEX
  5
4E0D
  8
3
 10
288.2694631308
 20
-30.76486157550005
 30
0.0
  0
VERTEX
  5
4E0E
  8
3
 10
287.572542486
 20
-30.94241097790007
 30
0.0
  0
VERTEX
  5
4E0F
  8
3
 10
286.8
 20
-31.00359033259986
 30
0.0
  0
VERTEX
  5
4E10
  8
3
 10
286.0274575141
 20
-30.94241097790007
 30
0.0
  0
VERTEX
  5
4E11
  8
3
 10
285.3305368693
 20
-30.76486157550005
 30
0.0
  0
VERTEX
  5
4E12
  8
3
 10
284.7774575141
 20
-30.48832189789994
 30
0.0
  0
VERTEX
  5
4E13
  8
3
 10
284.4223587093001
 20
-30.13986157550005
 30
0.0
  0
VERTEX
  5
4E14
  8
3
 10
284.3
 20
-29.75359033259986
 30
0.0
  0
VERTEX
  5
4E15
  8
3
 10
284.4223587093001
 20
-29.36731908959985
 30
0.0
  0
VERTEX
  5
4E16
  8
3
 10
284.7774575141
 20
-29.01885876719996
 30
0.0
  0
VERTEX
  5
4E17
  8
3
 10
285.3305368693
 20
-28.74231908959985
 30
0.0
  0
VERTEX
  5
4E18
  8
3
 10
286.0274575141
 20
-28.56476968720006
 30
0.0
  0
VERTEX
  5
4E19
  8
3
 10
286.8
 20
-28.50359033259986
 30
0.0
  0
VERTEX
  5
4E1A
  8
3
 10
287.572542486
 20
-28.56476968720006
 30
0.0
  0
VERTEX
  5
4E1B
  8
3
 10
288.2694631308
 20
-28.74231908959985
 30
0.0
  0
VERTEX
  5
4E1C
  8
3
 10
288.822542486
 20
-29.01885876719996
 30
0.0
  0
VERTEX
  5
4E1D
  8
3
 10
289.1776412908
 20
-29.36731908959985
 30
0.0
  0
VERTEX
  5
4E1E
  8
3
 10
289.3
 20
-29.75359033259986
 30
0.0
  0
SEQEND
  5
4E5D
  8
3
  0
POLYLINE
  5
DA7
  8
3
 66
     1
 10
0.0
 20
0.0
 30
0.0
  0
VERTEX
  5
4E1F
  8
3
 10
288.855
 20
-30.02343722719991
 30
0.0
  0
VERTEX
  5
4E20
  8
3
 10
288.7310683357
 20
-30.37486292450001
 30
0.0
  0
VERTEX
  5
4E21
  8
3
 10
288.3742213306
 20
-30.68390149610002
 30
0.0
  0
VERTEX
  5
4E22
  8
3
 10
287.8275
 20
-30.91327832959985
 30
0.0
  0
VERTEX
  5
4E23
  8
3
 10
287.1568470051
 20
-31.03532719339989
 30
0.0
  0
VERTEX
  5
4E24
  8
3
 10
286.4431529949
 20
-31.03532719339989
 30
0.0
  0
VERTEX
  5
4E25
  8
3
 10
285.7725
 20
-30.91327832959985
 30
0.0
  0
VERTEX
  5
4E26
  8
3
 10
285.2257786694
 20
-30.68390149610002
 30
0.0
  0
VERTEX
  5
4E27
  8
3
 10
284.8689316643
 20
-30.37486292450001
 30
0.0
  0
VERTEX
  5
4E28
  8
3
 10
284.745
 20
-30.02343722719991
 30
0.0
  0
VERTEX
  5
4E29
  8
3
 10
284.8689316643
 20
-29.67201152990003
 30
0.0
  0
VERTEX
  5
4E2A
  8
3
 10
285.2257786694
 20
-29.36297295819998
 30
0.0
  0
VERTEX
  5
4E2B
  8
3
 10
285.7725
 20
-29.13359612479996
 30
0.0
  0
VERTEX
  5
4E2C
  8
3
 10
286.4431529949
 20
-29.01154726099992
 30
0.0
  0
VERTEX
  5
4E2D
  8
3
 10
287.1568470051
 20
-29.01154726099992
 30
0.0
  0
VERTEX
  5
4E2E
  8
3
 10
287.8275
 20
-29.13359612479996
 30
0.0
  0
VERTEX
  5
4E2F
  8
3
 10
288.3742213306
 20
-29.36297295819998
 30
0.0
  0
VERTEX
  5
4E30
  8
3
 10
288.7310683357
 20
-29.67201152990003
 30
0.0
  0
VERTEX
  5
4E31
  8
3
 10
288.855
 20
-30.02343722719991
 30
0.0
  0
SEQEND
  5
4E5C
  8
3
  0
POLYLINE
  5
DA8
  8
3
 66
     1
 10
0.0
 20
0.0
 30
0.0
  0
VERTEX
  5
4E32
  8
3
 10
289.0561031269
 20
-30.14538566379986
 30
0.0
  0
VERTEX
  5
4E33
  8
3
 10
288.9338612365
 20
-29.77910791989996
 30
0.0
  0
VERTEX
  5
4E34
  8
3
 10
288.5803823708
 20
-29.45252205290001
 30
0.0
  0
VERTEX
  5
4E35
  8
3
 10
288.0339714498
 20
-29.20101870909991
 30
0.0
  0
VERTEX
  5
4E36
  8
3
 10
287.3538405752
 20
-29.05185217819997
 30
0.0
  0
VERTEX
  5
4E37
  8
3
 10
286.6136924805
 20
-29.02118696829996
 30
0.0
  0
VERTEX
  5
4E38
  8
3
 10
285.8937336964
 20
-29.11234613089994
 30
0.0
  0
VERTEX
  5
4E39
  8
3
 10
285.2719829285001
 20
-29.31545115610004
 30
0.0
  0
VERTEX
  5
4E3A
  8
3
 10
284.81581652
 20
-29.60849246290002
 30
0.0
  0
VERTEX
  5
4E3B
  8
3
 10
284.5746671792
 20
-29.95971447889985
 30
0.0
  0
VERTEX
  5
4E3C
  8
3
 10
284.5746671792
 20
-30.33105684869986
 30
0.0
  0
VERTEX
  5
4E3D
  8
3
 10
284.81581652
 20
-30.68227886459988
 30
0.0
  0
VERTEX
  5
4E3E
  8
3
 10
285.2719829285001
 20
-30.97532017139986
 30
0.0
  0
VERTEX
  5
4E3F
  8
3
 10
285.8937336964
 20
-31.17842519659996
 30
0.0
  0
VERTEX
  5
4E40
  8
3
 10
286.6136924805
 20
-31.26958435919994
 30
0.0
  0
VERTEX
  5
4E41
  8
3
 10
287.3538405752
 20
-31.23891914929993
 30
0.0
  0
VERTEX
  5
4E42
  8
3
 10
288.0339714498
 20
-31.08975261839998
 30
0.0
  0
VERTEX
  5
4E43
  8
3
 10
288.5803823708
 20
-30.83824927459989
 30
0.0
  0
VERTEX
  5
4E44
  8
3
 10
288.9338612365
 20
-30.51166340759994
 30
0.0
  0
VERTEX
  5
4E45
  8
3
 10
289.0561031269
 20
-30.14538566379986
 30
0.0
  0
SEQEND
  5
4E5B
  8
3
  0
LINE
  5
DA9
  8
3
 10
288.05
 20
-28.26851255519989
 30
0.0
 11
288.05
 21
-27.5468247186999
 31
0.0
  0
LINE
  5
DAA
  8
3
 10
288.05
 20
-28.26851255519989
 30
0.0
 11
288.05
 21
-30.60678114539985
 31
0.0
  0
LINE
  5
DAB
  8
3
 10
285.55
 20
-28.26851255519989
 30
0.0
 11
285.55
 21
-27.5468247186999
 31
0.0
  0
LINE
  5
DAC
  8
3
 10
285.55
 20
-28.26851255519989
 30
0.0
 11
285.55
 21
-30.60678114539985
 31
0.0
  0
POLYLINE
  5
DAD
  8
3
 66
     1
 10
0.0
 20
0.0
 30
0.0
  0
VERTEX
  5
4E46
  8
3
 10
286.8
 20
-31.27343722719991
 30
0.0
  0
VERTEX
  5
4E47
  8
3
 10
286.0971486055
 20
-31.21147139499988
 30
0.0
  0
VERTEX
  5
4E48
  8
3
 10
285.4790714621
 20
-31.03304789249989
 30
0.0
  0
VERTEX
  5
4E49
  8
3
 10
285.0203177953
 20
-30.75968722720006
 30
0.0
  0
VERTEX
  5
4E4A
  8
3
 10
284.7762200676
 20
-30.42436072969997
 30
0.0
  0
VERTEX
  5
4E4B
  8
3
 10
284.7762200676
 20
-30.06751372459996
 30
0.0
  0
VERTEX
  5
4E4C
  8
3
 10
285.0203177953
 20
-29.73218722719992
 30
0.0
  0
VERTEX
  5
4E4D
  8
3
 10
285.4790714621
 20
-29.45882656189985
 30
0.0
  0
VERTEX
  5
4E4E
  8
3
 10
286.0971486055
 20
-29.28040305930006
 30
0.0
  0
VERTEX
  5
4E4F
  8
3
 10
286.8
 20
-29.21843722720007
 30
0.0
  0
VERTEX
  5
4E50
  8
3
 10
287.5028513946
 20
-29.28040305930006
 30
0.0
  0
VERTEX
  5
4E51
  8
3
 10
288.1209285379
 20
-29.45882656189985
 30
0.0
  0
VERTEX
  5
4E52
  8
3
 10
288.5796822048
 20
-29.73218722719992
 30
0.0
  0
VERTEX
  5
4E53
  8
3
 10
288.8237799325
 20
-30.06751372459996
 30
0.0
  0
VERTEX
  5
4E54
  8
3
 10
288.8237799325
 20
-30.42436072969997
 30
0.0
  0
VERTEX
  5
4E55
  8
3
 10
288.5796822048
 20
-30.75968722720006
 30
0.0
  0
VERTEX
  5
4E56
  8
3
 10
288.1209285379
 20
-31.03304789249989
 30
0.0
  0
VERTEX
  5
4E57
  8
3
 10
287.5028513946
 20
-31.21147139499988
 30
0.0
  0
VERTEX
  5
4E58
  8
3
 10
286.8
 20
-31.27343722719991
 30
0.0
  0
SEQEND
  5
4E5A
  8
3
  0
LINE
  5
DAE
  8
3
 10
288.05
 20
-30.60678114539985
 30
0.0
 11
286.8
 21
-30.96762506369998
 31
0.0
  0
LINE
  5
DAF
  8
3
 10
285.55
 20
-30.60678114539985
 30
0.0
 11
286.8
 21
-30.96762506369998
 31
0.0
  0
LINE
  5
DB0
  8
3
 10
286.8
 20
-27.18598080050003
 30
0.0
 11
286.8
 21
-28.62935647350002
 31
0.0
  0
LINE
  5
DB1
  8
3
 10
285.55
 20
-29.88509330889985
 30
0.0
 11
286.8
 21
-29.52424939069999
 31
0.0
  0
LINE
  5
DB2
  8
3
 10
285.55
 20
-27.5468247186999
 30
0.0
 11
286.8
 21
-27.18598080050003
 31
0.0
  0
LINE
  5
DB3
  8
3
 10
288.05
 20
-29.88509330889985
 30
0.0
 11
286.8
 21
-29.52424939069999
 31
0.0
  0
LINE
  5
DB4
  8
3
 10
288.05
 20
-27.5468247186999
 30
0.0
 11
286.8
 21
-27.18598080050003
 31
0.0
  0
LINE
  5
DB6
  8
3
 10
304.60019979
 20
7.098029999999994
 30
0.0
 11
304.60019979
 21
-7.098029999999994
 31
0.0
  0
LINE
  5
DBF
  8
3
 10
293.197760305
 20
-19.04618999999991
 30
0.0
 11
293.197760305
 21
-31.75381000000004
 31
0.0
  0
LINE
  5
DC0
  8
3
 10
291.1348
 20
-19.30399999999997
 30
0.0
 11
291.1348
 21
-31.49599999999998
 31
0.0
  0
LINE
  5
DC1
  8
3
 10
292.0596395107
 20
-19.0561899999999
 30
0.0
 11
292.0596395107
 21
-31.74381000000005
 31
0.0
  0
LINE
  5
DC2
  8
3
 10
293.197760305
 20
31.75381000000004
 30
0.0
 11
293.197760305
 21
19.04619000000014
 31
0.0
  0
LINE
  5
DC3
  8
3
 10
291.1348
 20
31.49599999999998
 30
0.0
 11
291.1348
 21
19.30399999999997
 31
0.0
  0
LINE
  5
DC4
  8
3
 10
292.0596395107
 20
31.74381000000005
 30
0.0
 11
292.0596395107
 21
19.05619000000013
 31
0.0
  0
LINE
  5
DC8
  8
3
 10
304.8
 20
16.87407116049997
 30
0.0
 11
304.6136296695
 21
16.17852761799998
 31
0.0
  0
LINE
  5
DC9
  8
3
 10
304.6136296695
 20
-16.17852761810002
 30
0.0
 11
304.8
 21
-16.87407116060001
 31
0.0
  0
ARC
  5
DCA
  8
3
 10
305.0
 20
-16.07499999999993
 30
0.0
 40
0.4000000000000283
 50
166.8750000000059
 51
194.9999999999931
  0
ARC
  5
DCB
  8
3
 10
305.0
 20
-16.07499999999993
 30
0.0
 40
0.4000000000000807
 50
120.0000000000008
 51
166.8750000000085
  0
ARC
  5
DCC
  8
3
 10
305.0
 20
16.07499999999993
 30
0.0
 40
0.4000000000000263
 50
165.0000000000069
 51
180.0
  0
ARC
  5
DCD
  8
3
 10
305.0
 20
16.07499999999993
 30
0.0
 40
0.3999999999999773
 50
180.0
 51
240.0000000000188
  0
LINE
  5
DCE
  8
3
 10
304.6
 20
16.07499999999993
 30
0.0
 11
304.6
 21
-16.07499999999993
 31
0.0
  0
LINE
  5
DD1
  8
3
 10
304.8
 20
2.000000000000114
 30
0.0
 11
287.4468979737
 21
2.000000000000114
 31
0.0
  0
LINE
  5
DD2
  8
3
 10
287.4501266855
 20
-1.999999999999886
 30
0.0
 11
304.8
 21
-1.999999999999886
 31
0.0
  0
LINE
  5
DD9
  8
SK3
 10
-40.09999999999999
 20
-11.11250000000007
 30
0.0
 11
-37.834376924
 21
-7.341869999999858
 31
0.0
  0
LINE
  5
DDA
  8
SK3
 10
-37.834376924
 20
7.341870000000085
 30
0.0
 11
-40.09999999999999
 21
11.11250000000007
 31
0.0
  0
LINE
  5
DDF
  8
3
 10
304.8440397900001
 20
7.341870000000085
 30
0.0
 11
0.0
 21
7.341870000000085
 31
0.0
  0
LINE
  5
DE0
  8
3
 10
0.0000000000000142
 20
-7.341869999999858
 30
0.0
 11
304.8440397899999
 21
-7.341869999999858
 31
0.0
  0
LINE
  5
DE1
  8
3
 10
304.8
 20
31.75049999999999
 30
0.0
 11
289.8
 21
31.75049999999999
 31
0.0
  0
LINE
  5
DE2
  8
3
 10
289.8
 20
19.04949999999997
 30
0.0
 11
304.8
 21
19.04949999999997
 31
0.0
  0
LINE
  5
DE3
  8
3
 10
304.8
 20
-19.04949999999997
 30
0.0
 11
289.8
 21
-19.04949999999997
 31
0.0
  0
LINE
  5
DE4
  8
3
 10
289.8
 20
-31.75049999999999
 30
0.0
 11
304.8
 21
-31.75049999999999
 31
0.0
  0
LINE
  5
DE5
  8
3
 10
289.8
 20
-19.04949999999997
 30
0.0
 11
285.9842346389
 21
-25.39999999999998
 31
0.0
  0
LINE
  5
DE6
  8
3
 10
285.9842346389
 20
-25.39999999999998
 30
0.0
 11
289.8
 21
-31.75049999999999
 31
0.0
  0
LINE
  5
DE7
  8
3
 10
289.8
 20
31.75049999999999
 30
0.0
 11
285.9842346389
 21
25.39999999999998
 31
0.0
  0
LINE
  5
DE8
  8
3
 10
285.9842346389
 20
25.39999999999998
 30
0.0
 11
289.8
 21
19.04949999999997
 31
0.0
  0
LINE
  5
DEF
  8
3
 10
284.7
 20
29.01185102679995
 30
0.0
 11
284.7
 21
6.354557527900056
 31
0.0
  0
LINE
  5
DF0
  8
3
 10
288.9
 20
11.90303384810011
 30
0.0
 11
288.9
 21
29.01185102679995
 31
0.0
  0
LINE
  5
DF1
  8
3
 10
288.9
 20
6.35234756579996
 30
0.0
 11
288.9
 21
8.450111038200134
 31
0.0
  0
LINE
  5
DF2
  8
3
 10
288.9
 20
-8.447117866799886
 30
0.0
 11
288.9
 21
-6.352347565900004
 31
0.0
  0
LINE
  5
DF3
  8
3
 10
288.9
 20
-29.01185102679995
 30
0.0
 11
288.9
 21
-11.89983538059994
 31
0.0
  0
LINE
  5
DF4
  8
3
 10
284.7
 20
-6.354557527900056
 30
0.0
 11
284.7
 21
-29.01185102679995
 31
0.0
  0
LINE
  5
DF5
  8
3
 10
304.8
 20
12.1757984945001
 30
0.0
 11
288.6429309105
 21
12.1757984945001
 31
0.0
  0
LINE
  5
DF6
  8
3
 10
288.6335497759
 20
8.1757984945001
 30
0.0
 11
304.8
 21
8.1757984945001
 31
0.0
  0
LINE
  5
DF7
  8
3
 10
304.8
 20
-8.175798494499873
 30
0.0
 11
288.6420407841
 21
-8.175798494499873
 31
0.0
  0
LINE
  5
DF8
  8
3
 10
288.6341813471
 20
-12.17579849449987
 30
0.0
 11
304.8
 21
-12.17579849449987
 31
0.0
  0
LINE
  5
DF9
  8
3
 10
284.175
 20
30.24576628110015
 30
0.0
 11
284.175
 21
29.37991182339999
 31
0.0
  0
LINE
  5
DFA
  8
3
 10
289.425
 20
29.37991182339999
 30
0.0
 11
289.425
 21
30.24378634679999
 31
0.0
  0
LINE
  5
DFB
  8
3
 10
289.425
 20
-30.24378634690004
 30
0.0
 11
289.425
 21
-29.37991182339999
 31
0.0
  0
LINE
  5
DFC
  8
3
 10
284.175
 20
-29.37991182339999
 30
0.0
 11
284.175
 21
-30.24576628119996
 31
0.0
  0
LINE
  5
DFD
  8
3
 10
284.7383461332
 20
28.65100710850004
 30
0.0
 11
285.0853571801
 21
28.40563324409993
 31
0.0
  0
LINE
  5
DFE
  8
3
 10
288.51464282
 20
28.40563324409993
 30
0.0
 11
288.8616538669
 21
28.65100710850004
 31
0.0
  0
LINE
  5
DFF
  8
3
 10
288.8616538669
 20
-28.65100710850004
 30
0.0
 11
288.51464282
 21
-28.40563324409993
 31
0.0
  0
LINE
  5
E00
  8
3
 10
285.0853571801
 20
-28.40563324409993
 30
0.0
 11
284.7383461332
 21
-28.65100710850004
 31
0.0
  0
LINE
  5
E01
  8
3
 10
284.9083956361
 20
24.87180662089997
 30
0.0
 11
285.3711309834
 21
24.54460331889993
 31
0.0
  0
LINE
  5
E02
  8
3
 10
288.2288690167
 20
24.54460331889993
 30
0.0
 11
288.691604364
 21
24.87180662089997
 31
0.0
  0
LINE
  5
E03
  8
3
 10
285.385496796
 20
24.93847369239995
 30
0.0
 11
285.6372783663001
 21
24.85208731180012
 31
0.0
  0
LINE
  5
E04
  8
3
 10
287.9627216338
 20
24.85208731180012
 30
0.0
 11
288.2145032041
 21
24.93847369239995
 31
0.0
  0
LINE
  5
E05
  8
3
 10
288.1108103555
 20
26.49571106080009
 30
0.0
 11
287.9627216338
 21
26.54652037409994
 31
0.0
  0
LINE
  5
E06
  8
3
 10
285.6372783663001
 20
26.54652037409994
 30
0.0
 11
285.4891896446
 21
26.49571106080009
 31
0.0
  0
LINE
  5
E07
  8
3
 10
284.3
 20
26.04719028889997
 30
0.0
 11
284.3
 21
25.96915073759999
 31
0.0
  0
LINE
  5
E08
  8
3
 10
289.3
 20
25.96915073759999
 30
0.0
 11
289.3
 21
26.04719028889997
 31
0.0
  0
LINE
  5
E09
  8
3
 10
288.2145032041
 20
27.07786733410001
 30
0.0
 11
287.9627216338
 21
27.16425371470007
 31
0.0
  0
LINE
  5
E0A
  8
3
 10
285.6372783663001
 20
27.16425371470007
 30
0.0
 11
285.385496796
 21
27.07786733410001
 31
0.0
  0
LINE
  5
E0B
  8
3
 10
285.385496796
 20
25.55620703300008
 30
0.0
 11
285.6372783663001
 21
25.46982065240002
 31
0.0
  0
LINE
  5
E0C
  8
3
 10
287.9627216338
 20
25.46982065240002
 30
0.0
 11
288.2145032041
 21
25.55620703300008
 31
0.0
  0
LINE
  5
E0D
  8
3
 10
284.3
 20
26.66492362950009
 30
0.0
 11
284.3
 21
26.58688407820011
 31
0.0
  0
LINE
  5
E0E
  8
3
 10
289.3
 20
26.58688407820011
 30
0.0
 11
289.3
 21
26.66492362950009
 31
0.0
  0
LINE
  5
E0F
  8
3
 10
288.2145032041
 20
27.69560067470013
 30
0.0
 11
287.9627216338
 21
27.78198705529996
 31
0.0
  0
LINE
  5
E10
  8
3
 10
285.6372783663001
 20
27.78198705529996
 30
0.0
 11
285.385496796
 21
27.69560067470013
 31
0.0
  0
LINE
  5
E11
  8
3
 10
285.385496796
 20
26.17394037359998
 30
0.0
 11
285.6372783663001
 21
26.08755399300014
 31
0.0
  0
LINE
  5
E12
  8
3
 10
287.9627216338
 20
26.08755399300014
 30
0.0
 11
288.2145032041
 21
26.17394037359998
 31
0.0
  0
LINE
  5
E13
  8
3
 10
284.3
 20
27.28265697009999
 30
0.0
 11
284.3
 21
27.20461741880001
 31
0.0
  0
LINE
  5
E14
  8
3
 10
289.3
 20
27.20461741880001
 30
0.0
 11
289.3
 21
27.28265697009999
 31
0.0
  0
LINE
  5
E15
  8
3
 10
288.2145032041
 20
28.31333401530003
 30
0.0
 11
287.9627216338
 21
28.39972039590009
 31
0.0
  0
LINE
  5
E16
  8
3
 10
285.6372783663001
 20
28.39972039590009
 30
0.0
 11
285.385496796
 21
28.31333401530003
 31
0.0
  0
LINE
  5
E17
  8
3
 10
285.385496796
 20
26.7916737142001
 30
0.0
 11
285.6372783663001
 21
26.70528733360004
 31
0.0
  0
LINE
  5
E18
  8
3
 10
287.9627216338
 20
26.70528733360004
 30
0.0
 11
288.2145032041
 21
26.7916737142001
 31
0.0
  0
LINE
  5
E19
  8
3
 10
284.3
 20
27.90039031070012
 30
0.0
 11
284.3
 21
27.82235075940014
 31
0.0
  0
LINE
  5
E1A
  8
3
 10
289.3
 20
27.82235075940014
 30
0.0
 11
289.3
 21
27.90039031070012
 31
0.0
  0
LINE
  5
E1B
  8
3
 10
288.2145032041
 20
28.93106735590015
 30
0.0
 11
287.9627216338
 21
29.01745373649999
 31
0.0
  0
LINE
  5
E1C
  8
3
 10
285.6372783663001
 20
29.01745373649999
 30
0.0
 11
285.385496796
 21
28.93106735590015
 31
0.0
  0
LINE
  5
E1D
  8
3
 10
285.385496796
 20
27.4094070548
 30
0.0
 11
285.6372783663001
 21
27.32302067419994
 31
0.0
  0
LINE
  5
E1E
  8
3
 10
287.9627216338
 20
27.32302067419994
 30
0.0
 11
288.2145032041
 21
27.4094070548
 31
0.0
  0
LINE
  5
E1F
  8
3
 10
284.3
 20
28.51812365130002
 30
0.0
 11
284.3
 21
28.44008410000004
 31
0.0
  0
LINE
  5
E20
  8
3
 10
289.3
 20
28.44008410000004
 30
0.0
 11
289.3
 21
28.51812365130002
 31
0.0
  0
LINE
  5
E21
  8
3
 10
288.2145032041
 20
29.54880069650005
 30
0.0
 11
287.9627216338
 21
29.63518707710011
 31
0.0
  0
LINE
  5
E22
  8
3
 10
285.6372783663001
 20
29.63518707710011
 30
0.0
 11
285.385496796
 21
29.54880069650005
 31
0.0
  0
LINE
  5
E23
  8
3
 10
285.385496796
 20
28.02714039540012
 30
0.0
 11
285.6372783663001
 21
27.94075401480006
 31
0.0
  0
LINE
  5
E24
  8
3
 10
287.9627216338
 20
27.94075401480006
 30
0.0
 11
288.2145032041
 21
28.02714039540012
 31
0.0
  0
LINE
  5
E25
  8
3
 10
284.3
 20
29.13585699190014
 30
0.0
 11
284.3
 21
29.05781744059993
 31
0.0
  0
LINE
  5
E26
  8
3
 10
289.3
 20
29.05781744059993
 30
0.0
 11
289.3
 21
29.13585699190014
 31
0.0
  0
LINE
  5
E27
  8
3
 10
288.2145032041
 20
30.16653403709995
 30
0.0
 11
287.9627216338
 21
30.25292041770001
 31
0.0
  0
LINE
  5
E28
  8
3
 10
285.6372783663001
 20
30.25292041770001
 30
0.0
 11
285.385496796
 21
30.16653403709995
 31
0.0
  0
LINE
  5
E29
  8
3
 10
285.385496796
 20
28.64487373600002
 30
0.0
 11
285.6372783663001
 21
28.55848735539996
 31
0.0
  0
LINE
  5
E2A
  8
3
 10
287.9627216338
 20
28.55848735539996
 30
0.0
 11
288.2145032041
 21
28.64487373600002
 31
0.0
  0
LINE
  5
E2B
  8
3
 10
284.3
 20
29.75359033250004
 30
0.0
 11
284.3
 21
29.67555078120006
 31
0.0
  0
LINE
  5
E2C
  8
3
 10
289.3
 20
29.67555078120006
 30
0.0
 11
289.3
 21
29.75359033250004
 31
0.0
  0
LINE
  5
E2D
  8
3
 10
288.2145032041
 20
30.78426737770008
 30
0.0
 11
287.9627216338
 21
30.87065375830014
 31
0.0
  0
LINE
  5
E2E
  8
3
 10
285.6372783663001
 20
30.87065375830014
 30
0.0
 11
285.385496796
 21
30.78426737770008
 31
0.0
  0
LINE
  5
E2F
  8
3
 10
285.5234939594
 20
29.21526018199995
 30
0.0
 11
285.6372783663001
 21
29.17622069600009
 31
0.0
  0
LINE
  5
E30
  8
3
 10
287.9627216338
 20
29.17622069600009
 30
0.0
 11
288.0765060407
 21
29.21526018199995
 31
0.0
  0
LINE
  5
E31
  8
3
 10
288.691604364
 20
-24.87180662089997
 30
0.0
 11
288.2288690166
 21
-24.54460331889993
 31
0.0
  0
LINE
  5
E32
  8
3
 10
285.3711309834
 20
-24.54460331889993
 30
0.0
 11
284.9083956361
 21
-24.87180662089997
 31
0.0
  0
LINE
  5
E33
  8
3
 10
288.2145032041
 20
-24.93847369239995
 30
0.0
 11
287.9627216337
 21
-24.85208731179989
 31
0.0
  0
LINE
  5
E34
  8
3
 10
285.6372783663001
 20
-24.85208731179989
 30
0.0
 11
285.385496796
 21
-24.93847369239995
 31
0.0
  0
LINE
  5
E35
  8
3
 10
285.4891896446
 20
-26.49571106089991
 30
0.0
 11
285.6372783663001
 21
-26.54652037409994
 31
0.0
  0
LINE
  5
E36
  8
3
 10
287.9627216337
 20
-26.54652037409994
 30
0.0
 11
288.1108103554
 21
-26.49571106089991
 31
0.0
  0
LINE
  5
E37
  8
3
 10
289.3
 20
-26.04719028889997
 30
0.0
 11
289.3
 21
-25.96915073759999
 31
0.0
  0
LINE
  5
E38
  8
3
 10
284.3
 20
-25.96915073759999
 30
0.0
 11
284.3
 21
-26.04719028889997
 31
0.0
  0
LINE
  5
E39
  8
3
 10
285.385496796
 20
-27.07786733410001
 30
0.0
 11
285.6372783663001
 21
-27.16425371470007
 31
0.0
  0
LINE
  5
E3A
  8
3
 10
287.9627216337
 20
-27.16425371470007
 30
0.0
 11
288.2145032041
 21
-27.07786733410001
 31
0.0
  0
LINE
  5
E3B
  8
3
 10
288.2145032041
 20
-25.55620703299985
 30
0.0
 11
287.9627216337
 21
-25.46982065240002
 31
0.0
  0
LINE
  5
E3C
  8
3
 10
285.6372783663001
 20
-25.46982065240002
 30
0.0
 11
285.385496796
 21
-25.55620703299985
 31
0.0
  0
LINE
  5
E3D
  8
3
 10
289.3
 20
-26.66492362949987
 30
0.0
 11
289.3
 21
-26.58688407819989
 31
0.0
  0
LINE
  5
E3E
  8
3
 10
284.3
 20
-26.58688407819989
 30
0.0
 11
284.3
 21
-26.66492362949987
 31
0.0
  0
LINE
  5
E3F
  8
3
 10
285.385496796
 20
-27.6956006746999
 30
0.0
 11
285.6372783663001
 21
-27.78198705529996
 31
0.0
  0
LINE
  5
E40
  8
3
 10
287.9627216337
 20
-27.78198705529996
 30
0.0
 11
288.2145032041
 21
-27.6956006746999
 31
0.0
  0
LINE
  5
E41
  8
3
 10
288.2145032041
 20
-26.17394037359998
 30
0.0
 11
287.9627216337
 21
-26.08755399299991
 31
0.0
  0
LINE
  5
E42
  8
3
 10
285.6372783663001
 20
-26.08755399299991
 30
0.0
 11
285.385496796
 21
-26.17394037359998
 31
0.0
  0
LINE
  5
E43
  8
3
 10
289.3
 20
-27.28265697009999
 30
0.0
 11
289.3
 21
-27.20461741880001
 31
0.0
  0
LINE
  5
E44
  8
3
 10
284.3
 20
-27.20461741880001
 30
0.0
 11
284.3
 21
-27.28265697009999
 31
0.0
  0
LINE
  5
E45
  8
3
 10
285.385496796
 20
-28.31333401530003
 30
0.0
 11
285.6372783663001
 21
-28.39972039589986
 31
0.0
  0
LINE
  5
E46
  8
3
 10
287.9627216337
 20
-28.39972039589986
 30
0.0
 11
288.2145032041
 21
-28.31333401530003
 31
0.0
  0
LINE
  5
E47
  8
3
 10
288.2145032041
 20
-26.79167371419987
 30
0.0
 11
287.9627216337
 21
-26.70528733360004
 31
0.0
  0
LINE
  5
E48
  8
3
 10
285.6372783663001
 20
-26.70528733360004
 30
0.0
 11
285.385496796
 21
-26.79167371419987
 31
0.0
  0
LINE
  5
E49
  8
3
 10
289.3
 20
-27.90039031069989
 30
0.0
 11
289.3
 21
-27.82235075939991
 31
0.0
  0
LINE
  5
E4A
  8
3
 10
284.3
 20
-27.82235075939991
 30
0.0
 11
284.3
 21
-27.90039031069989
 31
0.0
  0
LINE
  5
E4B
  8
3
 10
285.385496796
 20
-28.93106735589993
 30
0.0
 11
285.6372783663001
 21
-29.01745373649999
 31
0.0
  0
LINE
  5
E4C
  8
3
 10
287.9627216337
 20
-29.01745373649999
 30
0.0
 11
288.2145032041
 21
-28.93106735589993
 31
0.0
  0
LINE
  5
E4D
  8
3
 10
288.2145032041
 20
-27.4094070548
 30
0.0
 11
287.9627216338
 21
-27.32302067419994
 31
0.0
  0
LINE
  5
E4E
  8
3
 10
285.6372783663001
 20
-27.32302067419994
 30
0.0
 11
285.385496796
 21
-27.4094070548
 31
0.0
  0
LINE
  5
E4F
  8
3
 10
289.3
 20
-28.51812365140006
 30
0.0
 11
289.3
 21
-28.44008410000004
 31
0.0
  0
LINE
  5
E50
  8
3
 10
284.3
 20
-28.44008410000004
 30
0.0
 11
284.3
 21
-28.51812365140006
 31
0.0
  0
LINE
  5
E51
  8
3
 10
285.385496796
 20
-29.54880069650005
 30
0.0
 11
285.6372783663001
 21
-29.63518707709989
 31
0.0
  0
LINE
  5
E52
  8
3
 10
287.9627216338
 20
-29.63518707709989
 30
0.0
 11
288.2145032041
 21
-29.54880069650005
 31
0.0
  0
LINE
  5
E53
  8
3
 10
288.2145032041
 20
-28.0271403953999
 30
0.0
 11
287.9627216338
 21
-27.94075401480006
 31
0.0
  0
LINE
  5
E54
  8
3
 10
285.6372783663001
 20
-27.94075401480006
 30
0.0
 11
285.385496796
 21
-28.0271403953999
 31
0.0
  0
LINE
  5
E55
  8
3
 10
289.3
 20
-29.13585699199996
 30
0.0
 11
289.3
 21
-29.05781744059993
 31
0.0
  0
LINE
  5
E56
  8
3
 10
284.3
 20
-29.05781744059993
 30
0.0
 11
284.3
 21
-29.13585699199996
 31
0.0
  0
LINE
  5
E57
  8
3
 10
285.385496796
 20
-30.16653403709995
 30
0.0
 11
285.6372783663001
 21
-30.25292041770001
 31
0.0
  0
LINE
  5
E58
  8
3
 10
287.9627216338
 20
-30.25292041770001
 30
0.0
 11
288.2145032041
 21
-30.16653403709995
 31
0.0
  0
LINE
  5
E59
  8
3
 10
288.2145032041
 20
-28.64487373600002
 30
0.0
 11
287.9627216338
 21
-28.55848735550001
 31
0.0
  0
LINE
  5
E5A
  8
3
 10
285.6372783663001
 20
-28.55848735550001
 30
0.0
 11
285.385496796
 21
-28.64487373600002
 31
0.0
  0
LINE
  5
E5B
  8
3
 10
289.3
 20
-29.75359033259986
 30
0.0
 11
289.3
 21
-29.67555078120006
 31
0.0
  0
LINE
  5
E5C
  8
3
 10
284.3
 20
-29.67555078120006
 30
0.0
 11
284.3
 21
-29.75359033259986
 31
0.0
  0
LINE
  5
E5D
  8
3
 10
285.385496796
 20
-30.78426737769985
 30
0.0
 11
285.6372783663001
 21
-30.87065375829991
 31
0.0
  0
LINE
  5
E5E
  8
3
 10
287.9627216338
 20
-30.87065375829991
 30
0.0
 11
288.2145032041
 21
-30.78426737769985
 31
0.0
  0
LINE
  5
E5F
  8
3
 10
288.0765060407
 20
-29.21526018199995
 30
0.0
 11
287.9627216338
 21
-29.1762206960999
 31
0.0
  0
LINE
  5
E60
  8
3
 10
285.6372783663001
 20
-29.1762206960999
 30
0.0
 11
285.5234939594
 21
-29.21526018199995
 31
0.0
  0
LINE
  5
E63
  8
3
 10
304.8
 20
7.297830210000001
 30
0.0
 11
304.60019979
 21
7.098029999999994
 31
0.0
  0
LINE
  5
E64
  8
3
 10
304.60019979
 20
-7.098029999999994
 30
0.0
 11
304.8
 21
-7.297830209999944
 31
0.0
  0
LINE
  5
E69
  8
3
 10
304.8
 20
-19.04618999999991
 30
0.0
 11
293.197760305
 21
-19.04618999999991
 31
0.0
  0
LINE
  5
E6A
  8
3
 10
293.197760305
 20
-31.75381000000004
 30
0.0
 11
304.8
 21
-31.75381000000004
 31
0.0
  0
ARC
  5
E6B
  8
3
 10
293.1348
 20
-18.85298999999998
 30
0.0
 40
0.2031999999999312
 50
270.0
 51
288.0498306932985
  0
ARC
  5
E6C
  8
3
 10
293.1348
 20
-31.94700999999998
 30
0.0
 40
0.2032000000001517
 50
71.9501693067052
 51
90.0
  0
LINE
  5
E6D
  8
3
 10
292.0596395107
 20
-19.0561899999999
 30
0.0
 11
291.1348
 21
-19.30399999999997
 31
0.0
  0
LINE
  5
E6E
  8
3
 10
291.1348
 20
-31.49599999999998
 30
0.0
 11
292.0596395107
 21
-31.74381000000005
 31
0.0
  0
LINE
  5
E6F
  8
3
 10
293.1348
 20
-19.0561899999999
 30
0.0
 11
292.0596395107
 21
-19.0561899999999
 31
0.0
  0
LINE
  5
E70
  8
3
 10
292.0596395107
 20
-31.74381000000005
 30
0.0
 11
293.1348
 21
-31.74381000000005
 31
0.0
  0
LINE
  5
E71
  8
3
 10
304.8
 20
31.75381000000004
 30
0.0
 11
293.197760305
 21
31.75381000000004
 31
0.0
  0
LINE
  5
E72
  8
3
 10
293.197760305
 20
19.04619000000014
 30
0.0
 11
304.8
 21
19.04619000000014
 31
0.0
  0
ARC
  5
E73
  8
3
 10
293.1348
 20
31.94700999999998
 30
0.0
 40
0.2031999999999312
 50
270.0
 51
288.0498306932985
  0
ARC
  5
E74
  8
3
 10
293.1348
 20
18.85298999999998
 30
0.0
 40
0.2031999999999243
 50
71.95016930670089
 51
90.0
  0
LINE
  5
E75
  8
3
 10
292.0596395107
 20
31.74381000000005
 30
0.0
 11
291.1348
 21
31.49599999999998
 31
0.0
  0
LINE
  5
E76
  8
3
 10
291.1348
 20
19.30399999999997
 30
0.0
 11
292.0596395107
 21
19.05619000000013
 31
0.0
  0
LINE
  5
E77
  8
3
 10
293.1348
 20
31.74381000000005
 30
0.0
 11
292.0596395107
 21
31.74381000000005
 31
0.0
  0
LINE
  5
E78
  8
3
 10
292.0596395107
 20
19.05619000000013
 30
0.0
 11
293.1348
 21
19.05619000000013
 31
0.0
  0
ARC
  5
E8B
  8
SK1
 10
305.0
 20
-16.07499999999993
 30
0.0
 40
0.4000000000000807
 50
74.99999999999179
 51
120.0000000000008
  0
ARC
  5
E8C
  8
SK1
 10
305.0
 20
16.07499999999993
 30
0.0
 40
0.3999999999999199
 50
239.9999999999951
 51
285.000000000006
  0
LINE
  5
E8D
  8
SK1
 10
305.7990711606
 20
-15.87499999999989
 30
0.0
 11
320.8
 21
-15.87499999999989
 31
0.0
  0
LINE
  5
E8E
  8
SK1
 10
320.8
 20
15.87500000000011
 30
0.0
 11
305.7990711606
 21
15.87500000000011
 31
0.0
  0
LINE
  5
E8F
  8
SK1
 10
305.7990711606
 20
15.87500000000011
 30
0.0
 11
305.1035276181
 21
15.68862966950007
 31
0.0
  0
LINE
  5
E90
  8
SK1
 10
305.1035276181
 20
-15.68862966949985
 30
0.0
 11
305.7990711606
 21
-15.87499999999989
 31
0.0
  0
ARC
  5
E91
  8
SK1
 10
320.8
 20
-14.37499999999989
 30
0.0
 40
1.5
 50
270.0
 51
0.0
  0
ARC
  5
E92
  8
SK1
 10
320.8
 20
14.37500000000011
 30
0.0
 40
1.5
 50
0.0
 51
90.0
  0
LINE
  5
E93
  8
SK1
 10
340.33799979
 20
19.05000000000007
 30
0.0
 11
329.16199979
 21
19.05000000000007
 31
0.0
  0
LINE
  5
E94
  8
SK1
 10
329.16199979
 20
-19.05000000000007
 30
0.0
 11
340.33799979
 21
-19.05000000000007
 31
0.0
  0
LINE
  5
E95
  8
SK1
 10
329.16199979
 20
19.05000000000007
 30
0.0
 11
328.39999979
 21
18.28800000000012
 31
0.0
  0
LINE
  5
E96
  8
SK1
 10
328.39999979
 20
-18.2879999999999
 30
0.0
 11
329.16199979
 21
-19.05000000000007
 31
0.0
  0
LINE
  5
E97
  8
SK1
 10
340.33799979
 20
-19.05000000000007
 30
0.0
 11
341.09999979
 21
-18.2879999999999
 31
0.0
  0
LINE
  5
E98
  8
SK1
 10
341.09999979
 20
18.28800000000012
 30
0.0
 11
340.33799979
 21
19.05000000000007
 31
0.0
  0
ARC
  5
E99
  8
SK1
 10
327.58719979
 20
-8.750300000000038
 30
0.0
 40
0.81280000000001
 50
0.0
 51
90.0
  0
ARC
  5
E9A
  8
SK1
 10
327.58719979
 20
8.750300000000038
 30
0.0
 40
0.81280000000001
 50
270.0
 51
359.9999999999038
  0
LINE
  5
E9B
  8
SK1
 10
327.58719979
 20
7.937500000000114
 30
0.0
 11
322.3
 21
7.937500000000114
 31
0.0
  0
LINE
  5
E9C
  8
SK1
 10
322.3
 20
-7.937499999999886
 30
0.0
 11
327.58719979
 21
-7.937499999999886
 31
0.0
  0
LINE
  5
E9D
  8
SK1
 10
304.8283378126
 20
-19.04618999999991
 30
0.0
 11
304.8
 21
-19.04618999999991
 31
0.0
  0
LINE
  5
EA0
  8
SK1
 10
304.8
 20
19.04619000000014
 30
0.0
 11
304.8283378126
 21
19.04619000000014
 31
0.0
  0
LINE
  5
EC7
  8
SK1
 10
305.7990711606
 20
0.0000000000001137
 30
0.0
 11
305.7990711606
 21
15.87500000000011
 31
0.0
  0
LINE
  5
EC8
  8
SK1
 10
305.7990711606
 20
-15.87499999999989
 30
0.0
 11
305.7990711606
 21
0.0000000000001137
 31
0.0
  0
LINE
  5
EC9
  8
SK1
 10
322.3
 20
0.0000000000001137
 30
0.0
 11
322.3
 21
14.37500000000011
 31
0.0
  0
LINE
  5
ECA
  8
SK1
 10
322.3
 20
-14.37499999999989
 30
0.0
 11
322.3
 21
0.0000000000001137
 31
0.0
  0
LINE
  5
ED4
  8
SK1
 10
340.33799979
 20
19.05000000000007
 30
0.0
 11
340.33799979
 21
-19.05000000000007
 31
0.0
  0
LINE
  5
ED5
  8
SK1
 10
329.16199979
 20
19.05000000000007
 30
0.0
 11
329.16199979
 21
-19.05000000000007
 31
0.0
  0
LINE
  5
ED6
  8
SK1
 10
328.39999979
 20
18.28800000000012
 30
0.0
 11
328.39999979
 21
-18.2879999999999
 31
0.0
  0
LINE
  5
ED7
  8
SK1
 10
341.09999979
 20
18.28800000000012
 30
0.0
 11
341.09999979
 21
-18.2879999999999
 31
0.0
  0
LINE
  5
ED8
  8
SK1
 10
311.2008
 20
-19.05000000000007
 30
0.0
 11
304.8
 21
-19.05000000000007
 31
0.0
  0
LINE
  5
ED9
  8
SK1
 10
311.2008
 20
-19.05000000000007
 30
0.0
 11
311.2008
 21
-31.74999999999989
 31
0.0
  0
LINE
  5
EDA
  8
SK1
 10
311.2008
 20
-31.74999999999989
 30
0.0
 11
304.8
 21
-31.74999999999989
 31
0.0
  0
LINE
  5
EDB
  8
SK1
 10
311.2008
 20
31.75000000000011
 30
0.0
 11
304.8
 21
31.75000000000011
 31
0.0
  0
LINE
  5
EDC
  8
SK1
 10
311.2008
 20
31.75000000000011
 30
0.0
 11
311.2008
 21
19.05000000000007
 31
0.0
  0
LINE
  5
EDD
  8
SK1
 10
311.2008
 20
19.05000000000007
 30
0.0
 11
304.8
 21
19.05000000000007
 31
0.0
  0
LINE
  5
EF4
  8
SK3
 10
321.4339745374
 20
-8.499999999999886
 30
0.0
 11
321.4339745374
 21
8.500000000000114
 31
0.0
  0
LINE
  5
EF5
  8
SK3
 10
319.3
 20
8.500000000000114
 30
0.0
 11
319.3
 21
-8.499999999999886
 31
0.0
  0
LINE
  5
F58
  8
SK3
 10
305.43966979
 20
7.937500000000114
 30
0.0
 11
305.43966979
 21
-7.937499999999886
 31
0.0
  0
LINE
  5
F59
  8
SK3
 10
304.60019979
 20
7.098029999999994
 30
0.0
 11
304.60019979
 21
-7.098029999999994
 31
0.0
  0
LINE
  5
F5A
  8
SK3
 10
333.16249979
 20
0.0000000000001137
 30
0.0
 11
341.09999979
 21
0.0000000000001137
 31
0.0
  0
LINE
  5
F5B
  8
SK3
 10
333.16249979
 20
0.0000000000001137
 30
0.0
 11
333.16249979
 21
-2.006600000000049
 31
0.0
  0
LINE
  5
F5C
  8
SK3
 10
333.16249979
 20
2.006600000000049
 30
0.0
 11
333.16249979
 21
0.0000000000001137
 31
0.0
  0
LINE
  5
F5D
  8
SK3
 10
332.20999979
 20
4.013199999999983
 30
0.0
 11
332.20999979
 21
-4.013199999999983
 31
0.0
  0
LINE
  5
F5E
  8
SK3
 10
333.16249979
 20
4.013199999999983
 30
0.0
 11
333.16249979
 21
2.006600000000049
 31
0.0
  0
LINE
  5
F5F
  8
SK3
 10
333.16249979
 20
-2.006600000000049
 30
0.0
 11
333.16249979
 21
-4.013199999999983
 31
0.0
  0
LINE
  5
F60
  8
SK3
 10
333.16249979
 20
4.013199999999983
 30
0.0
 11
341.09999979
 21
4.013199999999983
 31
0.0
  0
LINE
  5
F61
  8
SK3
 10
333.16249979
 20
-4.013199999999983
 30
0.0
 11
341.09999979
 21
-4.013199999999983
 31
0.0
  0
LINE
  5
F74
  8
SK3
 10
322.3
 20
2.000000000000114
 30
0.0
 11
304.8
 21
2.000000000000114
 31
0.0
  0
LINE
  5
F75
  8
SK3
 10
304.8
 20
-1.999999999999886
 30
0.0
 11
322.3
 21
-1.999999999999886
 31
0.0
  0
LINE
  5
F7E
  8
SK3
 10
322.3
 20
9.000000033999981
 30
0.0
 11
321.4339745374
 21
8.500000000000114
 31
0.0
  0
LINE
  5
F7F
  8
SK3
 10
321.4339745374
 20
-8.499999999999886
 30
0.0
 11
322.3
 21
-9.000000033999981
 31
0.0
  0
LINE
  5
F80
  8
SK3
 10
321.4339745374
 20
8.500000000000114
 30
0.0
 11
319.3
 21
8.500000000000114
 31
0.0
  0
LINE
  5
F81
  8
SK3
 10
319.3
 20
-8.499999999999886
 30
0.0
 11
321.4339745374
 21
-8.499999999999886
 31
0.0
  0
LINE
  5
F82
  8
SK3
 10
319.3
 20
7.341870000000085
 30
0.0
 11
304.8
 21
7.341870000000085
 31
0.0
  0
LINE
  5
F83
  8
SK3
 10
304.8
 20
-7.341869999999858
 30
0.0
 11
319.3
 21
-7.341869999999858
 31
0.0
  0
LINE
  5
F98
  8
SK3
 10
322.3
 20
12.1757984945001
 30
0.0
 11
304.8
 21
12.1757984945001
 31
0.0
  0
LINE
  5
F99
  8
SK3
 10
304.8
 20
8.1757984945001
 30
0.0
 11
322.3
 21
8.1757984945001
 31
0.0
  0
LINE
  5
F9A
  8
SK3
 10
322.3
 20
-8.175798494499873
 30
0.0
 11
304.8
 21
-8.175798494499873
 31
0.0
  0
LINE
  5
F9B
  8
SK3
 10
304.8
 20
-12.17579849449987
 30
0.0
 11
322.3
 21
-12.17579849449987
 31
0.0
  0
LINE
  5
1004
  8
SK3
 10
322.3
 20
7.937500000000114
 30
0.0
 11
305.43966979
 21
7.937500000000114
 31
0.0
  0
LINE
  5
1005
  8
SK3
 10
305.43966979
 20
-7.937499999999886
 30
0.0
 11
322.3
 21
-7.937499999999886
 31
0.0
  0
LINE
  5
1006
  8
SK3
 10
305.43966979
 20
7.937500000000114
 30
0.0
 11
304.60019979
 21
7.098029999999994
 31
0.0
  0
LINE
  5
1007
  8
SK3
 10
304.60019979
 20
-7.098029999999994
 30
0.0
 11
305.43966979
 21
-7.937499999999886
 31
0.0
  0
LINE
  5
1008
  8
SK3
 10
333.16249979
 20
4.013199999999983
 30
0.0
 11
332.20999979
 21
4.013199999999983
 31
0.0
  0
LINE
  5
1009
  8
SK3
 10
332.20999979
 20
-4.013199999999983
 30
0.0
 11
333.16249979
 21
-4.013199999999983
 31
0.0
  0
LINE
  5
100A
  8
SK3
 10
332.20999979
 20
4.013199999999983
 30
0.0
 11
329.7986259538
 21
0.0000000000001137
 31
0.0
  0
LINE
  5
100B
  8
SK3
 10
329.7986259538
 20
0.0000000000001137
 30
0.0
 11
332.20999979
 21
-4.013199999999983
 31
0.0
  0
LINE
  5
1022
  8
SK3
 10
-37.834376924
 20
7.341870000000085
 30
0.0
 11
-0.0000000000000071
 21
7.341870000000085
 31
0.0
  0
LINE
  5
1023
  8
SK3
 10
-37.834376924
 20
-7.341869999999858
 30
0.0
 11
0.0
 21
-7.341869999999858
 31
0.0
  0
LINE
  5
1029
  8
1
 10
303.8
 20
-34.9250000000003
 30
0.0
 11
20.04999999999995
 21
-34.9249999999993
 31
0.0
  0
LINE
  5
102A
  8
NOCUT
 10
304.8
 20
0.0000000000001137
 30
0.0
 11
304.8
 21
33.92500000000007
 31
0.0
  0
ARC
  5
102C
  8
NOCUT
 10
303.8
 20
33.92500000000007
 30
0.0
 40
1.0
 50
0.0
 51
90.0
  0
LINE
  5
103A
  8
SK4
 10
304.8
 20
0.0000000000001137
 30
0.0
 11
341.09999979
 21
0.0000000000001137
 31
0.0
  0
DIMENSION
  5
103C
  8
SK2
  2
*D10
 10
353.1529545597058
 20
-15.87499999999989
 30
0.0
 11
351.2779545597058
 21
0.0000000000001119
 31
0.0
 70
    32
  3
ISO-25
 13
320.8
 23
15.87500000000011
 33
0.0
 14
320.8
 24
-15.87499999999989
 34
0.0
 50
90.0
1001
ACAD
1000
DSTYLE
1002
{
1070
   287
1070
     5
1070
   271
1070
     3
1070
   272
1070
     3
1070
   279
1070
     2
1002
}
  0
DIMENSION
  5
104B
  8
SK2
  2
*D11
 10
369.9478316052353
 20
-34.9250000000003
 30
0.0
 11
368.0728316052353
 21
-0.0000000000001208
 31
0.0
 70
    32
  3
ISO-25
 13
303.8
 23
34.92500000000007
 33
0.0
 14
303.8
 24
-34.9250000000003
 34
0.0
 50
90.0
1001
ACAD
1000
DSTYLE
1002
{
1070
   287
1070
     5
1070
   271
1070
     3
1070
   272
1070
     3
1070
   279
1070
     2
1002
}
  0
ENDSEC
  0
EOF
