  0
SECTION
  2
HEADER
  9
$ACADVER
  1
AC1009
  9
$DWGCODEPAGE
  3
ansi_1251
  9
$INSBASE
 10
0.0
 20
0.0
 30
0.0
  9
$EXTMIN
 10
-68.25000000000001
 20
-30.5409271246
 30
0.0
  9
$EXTMAX
 10
88.90000000000003
 20
30.50275418977125
 30
0.0
  9
$LIMMIN
 10
0.0
 20
0.0
  9
$LIMMAX
 10
420.0
 20
297.0
  9
$ORTHOMODE
 70
     1
  9
$REGENMODE
 70
     1
  9
$FILLMODE
 70
     1
  9
$QTEXTMODE
 70
     0
  9
$MIRRTEXT
 70
     0
  9
$DRAGMODE
 70
     2
  9
$LTSCALE
 40
1.0
  9
$OSMODE
 70
   279
  9
$ATTMODE
 70
     1
  9
$TEXTSIZE
 40
2.5
  9
$TRACEWID
 40
1.0
  9
$TEXTSTYLE
  7
STANDARD
  9
$CLAYER
  8
0
  9
$CELTYPE
  6
BYLAYER
  9
$CECOLOR
 62
   256
  9
$DIMSCALE
 40
1.0
  9
$DIMASZ
 40
2.5
  9
$DIMEXO
 40
0.625
  9
$DIMDLI
 40
3.75
  9
$DIMRND
 40
0.0
  9
$DIMDLE
 40
0.0
  9
$DIMEXE
 40
1.25
  9
$DIMTP
 40
0.0
  9
$DIMTM
 40
0.0
  9
$DIMTXT
 40
2.5
  9
$DIMCEN
 40
2.5
  9
$DIMTSZ
 40
0.0
  9
$DIMTOL
 70
     0
  9
$DIMLIM
 70
     0
  9
$DIMTIH
 70
     0
  9
$DIMTOH
 70
     0
  9
$DIMSE1
 70
     0
  9
$DIMSE2
 70
     0
  9
$DIMTAD
 70
     1
  9
$DIMZIN
 70
     8
  9
$DIMBLK
  1

  9
$DIMASO
 70
     1
  9
$DIMSHO
 70
     1
  9
$DIMPOST
  1

  9
$DIMAPOST
  1

  9
$DIMALT
 70
     0
  9
$DIMALTD
 70
     3
  9
$DIMALTF
 40
0.03937007874016
  9
$DIMLFAC
 40
1.0
  9
$DIMTOFL
 70
     1
  9
$DIMTVP
 40
0.0
  9
$DIMTIX
 70
     0
  9
$DIMSOXD
 70
     0
  9
$DIMSAH
 70
     0
  9
$DIMBLK1
  1

  9
$DIMBLK2
  1

  9
$DIMSTYLE
  2
ISO-25
  9
$DIMCLRD
 70
     0
  9
$DIMCLRE
 70
     0
  9
$DIMCLRT
 70
     0
  9
$DIMTFAC
 40
1.0
  9
$DIMGAP
 40
0.625
  9
$LUNITS
 70
     2
  9
$LUPREC
 70
     3
  9
$SKETCHINC
 40
1.0
  9
$FILLETRAD
 40
10.0
  9
$AUNITS
 70
     0
  9
$AUPREC
 70
     0
  9
$MENU
  1
.
  9
$ELEVATION
 40
0.0
  9
$PELEVATION
 40
0.0
  9
$THICKNESS
 40
0.0
  9
$LIMCHECK
 70
     0
  9
$CHAMFERA
 40
10.0
  9
$CHAMFERB
 40
10.0
  9
$SKPOLY
 70
     0
  9
$TDCREATE
 40
2455022.429026158
  9
$TDUPDATE
 40
2458659.538982558
  9
$TDINDWG
 40
0.1506771181
  9
$TDUSRTIMER
 40
2458702.67764213
  9
$USRTIMER
 70
     1
  9
$ANGBASE
 50
0.0
  9
$ANGDIR
 70
     0
  9
$PDMODE
 70
     0
  9
$PDSIZE
 40
0.0
  9
$PLINEWID
 40
0.0
  9
$COORDS
 70
     1
  9
$SPLFRAME
 70
     0
  9
$SPLINETYPE
 70
     6
  9
$SPLINESEGS
 70
     8
  9
$ATTDIA
 70
     0
  9
$ATTREQ
 70
     1
  9
$HANDLING
 70
     1
  9
$HANDSEED
  5
4346
  9
$SURFTAB1
 70
     6
  9
$SURFTAB2
 70
     6
  9
$SURFTYPE
 70
     6
  9
$SURFU
 70
     6
  9
$SURFV
 70
     6
  9
$UCSNAME
  2

  9
$UCSORG
 10
0.0
 20
0.0
 30
0.0
  9
$UCSXDIR
 10
1.0
 20
0.0
 30
0.0
  9
$UCSYDIR
 10
0.0
 20
1.0
 30
0.0
  9
$PUCSNAME
  2

  9
$PUCSORG
 10
0.0
 20
0.0
 30
0.0
  9
$PUCSXDIR
 10
1.0
 20
0.0
 30
0.0
  9
$PUCSYDIR
 10
0.0
 20
1.0
 30
0.0
  9
$USERI1
 70
     0
  9
$USERI2
 70
     0
  9
$USERI3
 70
     0
  9
$USERI4
 70
     0
  9
$USERI5
 70
     0
  9
$USERR1
 40
0.0
  9
$USERR2
 40
0.0
  9
$USERR3
 40
0.0
  9
$USERR4
 40
0.0
  9
$USERR5
 40
0.0
  9
$WORLDVIEW
 70
     1
  9
$SHADEDGE
 70
     3
  9
$SHADEDIF
 70
    70
  9
$TILEMODE
 70
     1
  9
$MAXACTVP
 70
    64
  9
$PLIMCHECK
 70
     0
  9
$PEXTMIN
 10
1.000000000000000E+20
 20
1.000000000000000E+20
 30
1.000000000000000E+20
  9
$PEXTMAX
 10
-1.000000000000000E+20
 20
-1.000000000000000E+20
 30
-1.000000000000000E+20
  9
$PLIMMIN
 10
0.0
 20
0.0
  9
$PLIMMAX
 10
420.0
 20
297.0
  9
$UNITMODE
 70
     0
  9
$VISRETAIN
 70
     1
  9
$PLINEGEN
 70
     0
  9
$PSLTSCALE
 70
     1
  0
ENDSEC
  0
SECTION
  2
TABLES
  0
TABLE
  2
VPORT
 70
     1
  0
VPORT
  2
*ACTIVE
 70
     0
 10
0.0
 20
0.0
 11
1.0
 21
1.0
 12
109.3989158026177
 22
-2.020325411445
 13
0.0
 23
0.0
 14
10.0
 24
10.0
 15
10.0
 25
10.0
 16
0.0
 26
0.0
 36
1.0
 17
0.0
 27
0.0
 37
0.0
 40
322.9380348039575
 41
1.332880434782609
 42
50.0
 43
0.0
 44
0.0
 50
0.0
 51
0.0
 71
    16
 72
  1000
 73
     1
 74
     3
 75
     0
 76
     0
 77
     0
 78
     0
  0
ENDTAB
  0
TABLE
  2
LTYPE
 70
     6
  0
LTYPE
  2
CONTINUOUS
 70
     0
  3
Solid line
 72
    65
 73
     0
 40
0.0
  0
LTYPE
  2
CENTER
 70
     0
  3
 Center _____  _  _____  _  _____  _  _____  _ 
 72
    65
 73
     4
 40
50.8
 49
31.75
 49
-6.35
 49
6.35
 49
-6.35
  0
LTYPE
  2
DASHED
 70
     0
  3
Dashed __  __  __  __  __  __  __  __  __  __  
 72
    65
 73
     2
 40
19.05
 49
12.7
 49
-6.35
  0
LTYPE
  2
HIDDEN
 70
     0
  3
Hidden __ __ __ __ __ __ __ __ __ __ __ __ __ __
 72
    65
 73
     2
 40
1.905
 49
1.27
 49
-0.635
  0
LTYPE
  2
CENTERX2
 70
     0
  3
Center (2x) ________  __  ________  __  _____
 72
    65
 73
     4
 40
20.32
 49
12.7
 49
-2.54
 49
2.54
 49
-2.54
  0
LTYPE
  2
PHANTOM
 70
     0
  3
Phantom ______  __  __  ______  __  __  ______
 72
    65
 73
     6
 40
12.7
 49
6.35
 49
-1.27
 49
1.27
 49
-1.27
 49
1.27
 49
-1.27
  0
ENDTAB
  0
TABLE
  2
LAYER
 70
    26
  0
LAYER
  2
0
 70
     0
 62
     7
  6
CONTINUOUS
  0
LAYER
  2
1
 70
     0
 62
     4
  6
CONTINUOUS
  0
LAYER
  2
2
 70
     0
 62
     7
  6
CONTINUOUS
  0
LAYER
  2
3
 70
     0
 62
     1
  6
DASHED
  0
LAYER
  2
4
 70
     0
 62
     2
  6
CENTER
  0
LAYER
  2
6
 70
     0
 62
     5
  6
CONTINUOUS
  0
LAYER
  2
7
 70
     0
 62
     5
  6
CONTINUOUS
  0
LAYER
  2
11
 70
     0
 62
     4
  6
CONTINUOUS
  0
LAYER
  2
SK1
 70
     0
 62
     4
  6
CONTINUOUS
  0
LAYER
  2
SK2
 70
     0
 62
     7
  6
CONTINUOUS
  0
LAYER
  2
SK3
 70
     0
 62
     1
  6
DASHED
  0
LAYER
  2
SK4
 70
     0
 62
     2
  6
CENTER
  0
LAYER
  2
SK6
 70
     0
 62
     5
  6
CONTINUOUS
  0
LAYER
  2
SK7
 70
     0
 62
     5
  6
CONTINUOUS
  0
LAYER
  2
SK11
 70
     0
 62
     4
  6
CONTINUOUS
  0
LAYER
  2
CUT
 70
     0
 62
     1
  6
CONTINUOUS
  0
LAYER
  2
NOCUT
 70
     0
 62
    -7
  6
CONTINUOUS
  0
LAYER
  2
SKVIEW1
 70
     0
 62
     4
  6
CONTINUOUS
  0
LAYER
  2
SKVIEW2
 70
     0
 62
     7
  6
CONTINUOUS
  0
LAYER
  2
SKVIEW3
 70
     0
 62
     1
  6
DASHED
  0
LAYER
  2
SKVIEW4
 70
     0
 62
     2
  6
CENTER
  0
LAYER
  2
SKVIEW6
 70
     0
 62
     5
  6
CONTINUOUS
  0
LAYER
  2
SKVIEW7
 70
     0
 62
     5
  6
CONTINUOUS
  0
LAYER
  2
SKVIEW11
 70
     0
 62
     4
  6
CONTINUOUS
  0
LAYER
  2
INFTOTAL
 70
     0
 62
     9
  6
CONTINUOUS
  0
LAYER
  2
DEFPOINTS
 70
     0
 62
     7
  6
CONTINUOUS
  0
ENDTAB
  0
TABLE
  2
STYLE
 70
     1
  0
STYLE
  2
STANDARD
 70
     0
 40
0.0
 41
1.0
 50
0.0
 71
     0
 42
2.5
  3
txt
  4

  0
ENDTAB
  0
TABLE
  2
VIEW
 70
     0
  0
ENDTAB
  0
TABLE
  2
UCS
 70
     0
  0
ENDTAB
  0
TABLE
  2
APPID
 70
     2
  0
APPID
  2
ACAD
 70
     0
  0
APPID
  2
ACAECLAYERSTANDARD
 70
     0
  0
ENDTAB
  0
TABLE
  2
DIMSTYLE
 70
     1
  0
DIMSTYLE
  2
ISO-25
 70
     0
  3

  4

  5

  6

  7

 40
1.0
 41
2.5
 42
0.625
 43
3.75
 44
1.25
 45
0.0
 46
0.0
 47
0.0
 48
0.0
140
2.5
141
2.5
142
0.0
143
0.03937007874016
144
1.0
145
0.0
146
1.0
147
0.625
 71
     0
 72
     0
 73
     0
 74
     0
 75
     0
 76
     0
 77
     1
 78
     8
170
     0
171
     3
172
     1
173
     0
174
     0
175
     0
176
     0
177
     0
178
     0
  0
ENDTAB
  0
ENDSEC
  0
SECTION
  2
BLOCKS
  0
BLOCK
  8
0
  2
$MODEL_SPACE
 70
     0
 10
0.0
 20
0.0
 30
0.0
  3
$MODEL_SPACE
  1

  0
ENDBLK
  5
21
  8
0
  0
BLOCK
 67
     1
  8
0
  2
$PAPER_SPACE
 70
     0
 10
0.0
 20
0.0
 30
0.0
  3
$PAPER_SPACE
  1

  0
ENDBLK
  5
1D
 67
     1
  8
0
  0
BLOCK
  8
0
  2
*U2
 70
     1
 10
0.0
 20
0.0
 30
0.0
  3
*U2
  1

  0
TEXT
  5
77E
  8
SK6
 10
-50.0
 20
78.25
 30
0.0
 40
3.5
  1
BIG KAISER
 41
0.85
  0
TEXT
  5
781
  8
SK6
 10
-50.0
 20
73.0
 30
0.0
 40
3.5
  1
BCV50-SMC1.250-10
 41
0.85
  0
ENDBLK
  5
782
  8
0
  0
BLOCK
  8
0
  2
_FILLED
 70
     0
 10
0.0
 20
0.0
 30
0.0
  3
_FILLED
  1

  0
SOLID
  5
789
  8
0
  6
BYBLOCK
 62
     0
 10
0.0
 20
0.0
 30
0.0
 11
-1.0
 21
0.2142857143
 31
0.0
 12
-1.0
 22
-0.2142857143
 32
0.0
 13
-1.0
 23
-0.2142857143
 33
0.0
  0
ENDBLK
  5
78A
  8
0
  6
BYBLOCK
 62
     0
  0
BLOCK
  8
0
  2
*U5
 70
     1
 10
0.0
 20
0.0
 30
0.0
  3
*U5
  1

  0
TEXT
  5
790
  8
SK6
 10
-85.96178542556666
 20
-67.06748653279999
 30
0.0
 40
3.5
  1
BCV50
 41
0.85
  0
ENDBLK
  5
791
  8
0
  0
BLOCK
  8
0
  2
*D8
 70
     1
 10
0.0
 20
0.0
 30
0.0
  3
*D8
  1

  0
LINE
  5
808
  8
SK2
 62
     0
 10
0.0
 20
35.54999999999998
 30
0.0
 11
0.0
 21
63.71215670356074
 31
0.0
  0
LINE
  5
809
  8
SK2
 62
     0
 10
254.0
 20
34.55000000000007
 30
0.0
 11
254.0
 21
63.71215670356074
 31
0.0
  0
LINE
  5
80A
  8
SK2
 62
     0
 10
2.5
 20
62.46215670356074
 30
0.0
 11
251.5
 21
62.46215670356074
 31
0.0
  0
SOLID
  5
80B
  8
SK2
 62
     0
 10
2.5
 20
62.8788233702274
 30
0.0
 11
2.5
 21
62.04549003689407
 31
0.0
 12
0.0
 22
62.46215670356074
 32
0.0
 13
0.0
 23
62.46215670356074
 33
0.0
  0
SOLID
  5
80C
  8
SK2
 62
     0
 10
251.5
 20
62.04549003689407
 30
0.0
 11
251.5
 21
62.8788233702274
 31
0.0
 12
254.0
 22
62.46215670356074
 32
0.0
 13
254.0
 23
62.46215670356074
 33
0.0
  0
TEXT
  5
80D
  8
SK2
  6
CONTINUOUS
 62
     0
 10
123.6666666666667
 20
63.08715670356074
 30
0.0
 40
2.5
  1
254
  0
POINT
  5
80E
  8
DEFPOINTS
 62
     0
 10
0.0
 20
34.92499999999998
 30
0.0
  0
POINT
  5
80F
  8
DEFPOINTS
 62
     0
 10
254.0
 20
33.92500000000007
 30
0.0
  0
POINT
  5
810
  8
DEFPOINTS
 62
     0
 10
254.0
 20
62.46215670356074
 30
0.0
  0
ENDBLK
  5
812
  8
0
  0
BLOCK
  8
0
  2
*D10
 70
     1
 10
0.0
 20
0.0
 30
0.0
  3
*D10
  1

  0
LINE
  5
1040
  8
SK2
 62
     0
 10
270.625
 20
15.87500000000011
 30
0.0
 11
303.6029545597058
 21
15.87500000000011
 31
0.0
  0
LINE
  5
1041
  8
SK2
 62
     0
 10
270.625
 20
-15.87499999999989
 30
0.0
 11
303.6029545597058
 21
-15.87499999999989
 31
0.0
  0
LINE
  5
1042
  8
SK2
 62
     0
 10
302.3529545597058
 20
13.37500000000011
 30
0.0
 11
302.3529545597058
 21
-13.37499999999989
 31
0.0
  0
SOLID
  5
1043
  8
SK2
 62
     0
 10
302.7696212263725
 20
13.37500000000011
 30
0.0
 11
301.9362878930391
 21
13.37500000000011
 31
0.0
 12
302.3529545597058
 22
15.87500000000011
 32
0.0
 13
302.3529545597058
 23
15.87500000000011
 33
0.0
  0
SOLID
  5
1044
  8
SK2
 62
     0
 10
301.9362878930391
 20
-13.37499999999989
 30
0.0
 11
302.7696212263725
 21
-13.37499999999989
 31
0.0
 12
302.3529545597058
 22
-15.87499999999989
 32
0.0
 13
302.3529545597058
 23
-15.87499999999989
 33
0.0
  0
TEXT
  5
1045
  8
SK2
  6
CONTINUOUS
 62
     0
 10
301.7279545597058
 20
-4.583333333333201
 30
0.0
 40
2.5
  1
31.75
 50
90.0
  0
POINT
  5
1046
  8
DEFPOINTS
 62
     0
 10
270.0
 20
15.87500000000011
 30
0.0
  0
POINT
  5
1047
  8
DEFPOINTS
 62
     0
 10
270.0
 20
-15.87499999999989
 30
0.0
  0
POINT
  5
1048
  8
DEFPOINTS
 62
     0
 10
302.3529545597058
 20
-15.87499999999989
 30
0.0
  0
ENDBLK
  5
104A
  8
0
  0
BLOCK
  8
0
  2
*D11
 70
     1
 10
0.0
 20
0.0
 30
0.0
  3
*D11
  1

  0
LINE
  5
104F
  8
SK2
 62
     0
 10
253.625
 20
34.92500000000007
 30
0.0
 11
320.3978316052353
 21
34.92500000000006
 31
0.0
  0
LINE
  5
1050
  8
SK2
 62
     0
 10
253.625
 20
-34.9250000000003
 30
0.0
 11
320.3978316052353
 21
-34.9250000000003
 31
0.0
  0
LINE
  5
1051
  8
SK2
 62
     0
 10
319.1478316052353
 20
32.42500000000006
 30
0.0
 11
319.1478316052353
 21
-32.4250000000003
 31
0.0
  0
SOLID
  5
1052
  8
SK2
 62
     0
 10
319.564498271902
 20
32.42500000000006
 30
0.0
 11
318.7311649385686
 21
32.42500000000006
 31
0.0
 12
319.1478316052353
 22
34.92500000000006
 32
0.0
 13
319.1478316052353
 23
34.92500000000006
 33
0.0
  0
SOLID
  5
1053
  8
SK2
 62
     0
 10
318.7311649385686
 20
-32.4250000000003
 30
0.0
 11
319.564498271902
 21
-32.4250000000003
 31
0.0
 12
319.1478316052353
 22
-34.9250000000003
 32
0.0
 13
319.1478316052353
 23
-34.9250000000003
 33
0.0
  0
TEXT
  5
1054
  8
SK2
  6
CONTINUOUS
 62
     0
 10
318.5228316052353
 20
-5.000000000000114
 30
0.0
 40
2.5
  1
69.85
 50
90.0
  0
POINT
  5
1055
  8
DEFPOINTS
 62
     0
 10
253.0
 20
34.92500000000007
 30
0.0
  0
POINT
  5
1056
  8
DEFPOINTS
 62
     0
 10
253.0
 20
-34.9250000000003
 30
0.0
  0
POINT
  5
1057
  8
DEFPOINTS
 62
     0
 10
319.1478316052353
 20
-34.9250000000003
 30
0.0
  0
ENDBLK
  5
1059
  8
0
  0
ENDSEC
  0
SECTION
  2
ENTITIES
  0
LINE
  5
685
  8
SK1
 10
0.0
 20
34.92499999999998
 30
0.0
 11
-99.6319088344
 21
20.3952133832
 31
0.0
  0
LINE
  5
686
  8
SK1
 10
-99.6319088344
 20
-20.3952133832
 30
0.0
 11
0.0
 21
-34.92500000000001
 31
0.0
  0
ARC
  5
68D
  8
SK1
 10
-99.3
 20
18.1192879614
 30
0.0
 40
2.299999999999995
 50
98.29722000000018
 51
180.0
  0
ARC
  5
68E
  8
SK1
 10
-99.3
 20
-18.1192879614
 30
0.0
 40
2.299999999999995
 50
180.0
 51
261.7027799999998
  0
LINE
  5
6F6
  8
SK1
 10
-101.6
 20
0.0
 30
0.0
 11
-101.6
 21
-18.1192879614
 31
0.0
  0
LINE
  5
6F7
  8
SK1
 10
-101.6
 20
18.1192879614
 30
0.0
 11
-101.6
 21
0.0
 31
0.0
  0
LINE
  5
71A
  8
SK3
 10
-99.5215390309
 20
-13.10000000000002
 30
0.0
 11
-99.5215390309
 21
13.09999999999999
 31
0.0
  0
LINE
  5
71B
  8
SK3
 10
-95.25
 20
-13.10000000000002
 30
0.0
 11
-95.25
 21
13.09999999999999
 31
0.0
  0
LINE
  5
72A
  8
SK3
 10
-101.6
 20
-14.30000000000001
 30
0.0
 11
-99.5215390309
 21
-13.10000000000002
 31
0.0
  0
LINE
  5
72B
  8
SK3
 10
-99.5215390309
 20
13.09999999999999
 30
0.0
 11
-101.6
 21
14.3
 31
0.0
  0
LINE
  5
72C
  8
SK3
 10
-99.5215390309
 20
-13.10000000000002
 30
0.0
 11
-95.25
 21
-13.10000000000002
 31
0.0
  0
LINE
  5
72D
  8
SK3
 10
-95.25
 20
13.09999999999999
 30
0.0
 11
-99.5215390309
 21
13.09999999999999
 31
0.0
  0
LINE
  5
72E
  8
SK3
 10
-95.25
 20
-11.09980000000002
 30
0.0
 11
-40.09999999999999
 21
-11.09980000000002
 31
0.0
  0
LINE
  5
72F
  8
SK3
 10
-40.09999999999999
 20
11.09979999999999
 30
0.0
 11
-95.25
 21
11.09979999999999
 31
0.0
  0
LINE
  5
760
  8
SK3
 10
-57.1
 20
12.69999999999999
 30
0.0
 11
-95.25
 21
12.69999999999999
 31
0.0
  0
LINE
  5
761
  8
SK3
 10
-95.25
 20
-12.69999999999999
 30
0.0
 11
-57.1
 21
-12.69999999999999
 31
0.0
  0
LINE
  5
774
  8
SK3
 10
-57.1
 20
12.69999999999999
 30
0.0
 11
-57.1
 21
-12.69999999999999
 31
0.0
  0
LINE
  5
777
  8
SK4
 10
0.0
 20
0.0
 30
0.0
 11
-101.6
 21
0.0
 31
0.0
  0
LINE
  5
779
  8
4
 10
0.0
 20
0.0
 30
0.0
 11
254.0
 21
0.0
 31
0.0
  0
INSERT
  5
77B
  8
SK6
  2
*U2
 10
-44.10380399683656
 20
-23.39313954296377
 30
0.0
  0
INSERT
  5
78D
  8
SK6
  2
*U5
 10
17.55665382414153
 20
-2.560320993650734
 30
0.0
  0
LINE
  5
793
  8
0
 10
3.0
 20
3.0
 30
0.0
 11
-3.0
 21
-3.0
 31
0.0
  0
LINE
  5
794
  8
0
 10
-3.0
 20
3.0
 30
0.0
 11
3.0
 21
-3.0
 31
0.0
  0
CIRCLE
  5
795
  8
0
 10
0.0
 20
0.0
 30
0.0
 40
2.5
  0
LINE
  5
796
  8
0
 10
257.0
 20
-3.0
 30
0.0
 11
251.0
 21
3.0
 31
0.0
  0
CIRCLE
  5
797
  8
0
 10
254.0
 20
0.0
 30
0.0
 40
2.5
  0
LINE
  5
798
  8
0
 10
251.0
 20
-3.0
 30
0.0
 11
257.0
 21
3.0
 31
0.0
  0
LINE
  5
799
  8
NOCUT
 10
0.7999999999999972
 20
34.62500000000001
 30
0.0
 11
0.2999999999999972
 21
34.62500000000001
 31
0.0
  0
LINE
  5
79C
  8
NOCUT
 10
0.2999999999999972
 20
34.62500000000001
 30
0.0
 11
0.0
 21
34.92499999999999
 31
0.0
  0
LINE
  5
79D
  8
NOCUT
 10
253.0
 20
34.92500000000007
 30
0.0
 11
70.84999999999998
 21
34.92499999999989
 31
0.0
  0
ARC
  5
79E
  8
NOCUT
 10
0.7999999999999972
 20
35.62500000000001
 30
0.0
 40
1.0
 50
270.0
 51
314.4270040008
  0
ARC
  5
79F
  8
NOCUT
 10
20.05
 20
35.92499999999999
 30
0.0
 40
1.0
 50
180.0
 51
270.0
  0
LINE
  5
7A0
  8
NOCUT
 10
12.55499999999999
 20
45.64499999999999
 30
0.0
 11
9.704999999999998
 21
45.64499999999999
 31
0.0
  0
ARC
  5
7A1
  8
NOCUT
 10
12.55499999999999
 20
46.14499999999999
 30
0.0
 40
0.5
 50
270.0
 51
0.0
  0
ARC
  5
7A2
  8
NOCUT
 10
9.704999999999998
 20
46.14499999999999
 30
0.0
 40
0.5
 50
180.0
 51
270.0
  0
ARC
  5
7A3
  8
NOCUT
 10
2.299999999999997
 20
48.4125
 30
0.0
 40
0.7999999999999972
 50
90.0
 51
180.0
  0
ARC
  5
7A4
  8
NOCUT
 10
18.24999999999999
 20
48.4125
 30
0.0
 40
0.799999999999983
 50
0.0
 51
90.0
  0
LINE
  5
7A5
  8
NOCUT
 10
9.204999999999998
 20
46.43919780459999
 30
0.0
 11
7.603833230999996
 21
49.21250000000001
 31
0.0
  0
LINE
  5
7A6
  8
NOCUT
 10
14.65616676910001
 20
49.21250000000001
 30
0.0
 11
13.05499999999999
 21
46.43919780459999
 31
0.0
  0
LINE
  5
7A7
  8
NOCUT
 10
18.24999999999999
 20
49.21250000000001
 30
0.0
 11
14.65616676910001
 21
49.21250000000001
 31
0.0
  0
LINE
  5
7A8
  8
NOCUT
 10
7.603833230999996
 20
49.21250000000001
 30
0.0
 11
2.299999999999997
 21
49.21250000000001
 31
0.0
  0
LINE
  5
7AC
  8
NOCUT
 10
1.5
 20
48.4125
 30
0.0
 11
1.499999999999929
 21
34.91085715714565
 31
0.0
  0
LINE
  5
7AD
  8
NOCUT
 10
19.04999999999997
 20
48.4125
 30
0.0
 11
19.05
 21
35.92499999999999
 31
0.0
  0
LINE
  5
7AE
  8
NOCUT
 10
9.204999999999998
 20
46.43919780459999
 30
0.0
 11
9.204999999999998
 21
46.14499999999999
 31
0.0
  0
LINE
  5
7AF
  8
NOCUT
 10
13.05499999999999
 20
46.43919780459999
 30
0.0
 11
13.05499999999999
 21
46.14499999999999
 31
0.0
  0
DIMENSION
  5
804
  8
SK2
  2
*D8
 10
254.0
 20
62.46215670356074
 30
0.0
 11
127.0
 21
64.33715670356074
 31
0.0
 70
    32
  3
ISO-25
 13
0.0
 23
34.92499999999998
 33
0.0
 14
254.0
 24
33.92500000000007
 34
0.0
1001
ACAD
1000
DSTYLE
1002
{
1070
   287
1070
     5
1070
   271
1070
     3
1070
   272
1070
     3
1070
   279
1070
     2
1002
}
  0
LINE
  5
8BF
  8
NOCUT
 10
0.0
 20
34.92499999999999
 30
0.0
 11
0.0
 21
0.0
 31
0.0
  0
LINE
  5
8C0
  8
NOCUT
 10
0.0
 20
0.0
 30
0.0
 11
254.0
 21
0.0
 31
0.0
  0
INSERT
  5
A17
  8
SK6
  2
_FILLED
 10
-20.78186483605847
 20
-31.89428358495073
 30
0.0
 41
3.5
 42
3.5
 43
3.5
 50
52.86965044919886
  0
POLYLINE
  5
A18
  8
SK6
 66
     1
 10
0.0
 20
0.0
 30
0.0
  0
VERTEX
  5
3DDF
  8
SK6
 10
-22.89457117648658
 20
-34.68470862768434
 30
0.0
  0
VERTEX
  5
3DE0
  8
SK6
 10
-48.02596493475846
 20
-67.87780752645074
 30
0.0
  0
VERTEX
  5
3DE1
  8
SK6
 10
-49.90096493475846
 20
-66.12780752645074
 30
0.0
  0
VERTEX
  5
3DE2
  8
SK6
 10
-53.40096493475846
 20
-66.12780752645074
 30
0.0
  0
SEQEND
  5
4345
  8
SK6
  0
ARC
  5
AC7
  8
1
 10
20.04999999999998
 20
35.92499999999998
 30
0.0
 40
1.0
 50
180.0
 51
270.0
  0
ARC
  5
AC9
  8
1
 10
20.04999999999998
 20
-35.92500000000001
 30
0.0
 40
1.0
 50
90.0
 51
180.0
  0
ARC
  5
ACA
  8
1
 10
1.299999999999983
 20
35.125
 30
0.0
 40
0.5
 50
270.0
 51
293.5781784781994
  0
ARC
  5
ACB
  8
1
 10
1.299999999999983
 20
-35.125
 30
0.0
 40
0.500000000000009
 50
66.42182152180017
 51
90.0
  0
LINE
  5
ACF
  8
1
 10
0.0
 20
-34.92500000000001
 30
0.0
 11
0.2999999999999829
 21
-34.625
 31
0.0
  0
LINE
  5
AD0
  8
1
 10
0.2999999999999829
 20
34.625
 30
0.0
 11
0.0
 21
34.92499999999998
 31
0.0
  0
LINE
  5
AD5
  8
1
 10
1.299999999999983
 20
34.625
 30
0.0
 11
0.2999999999999829
 21
34.625
 31
0.0
  0
LINE
  5
AD6
  8
1
 10
0.2999999999999829
 20
-34.625
 30
0.0
 11
1.299999999999983
 21
-34.625
 31
0.0
  0
LINE
  5
ADB
  8
1
 10
14.65616694409999
 20
-47.282880439
 30
0.0
 11
14.68806954659999
 21
-47.29184187660002
 31
0.0
  0
LINE
  5
ADC
  8
1
 10
14.6561667691
 20
47.30816788690001
 30
0.0
 11
14.6561667691
 21
-47.2826327523
 31
0.0
  0
LINE
  5
ADD
  8
1
 10
14.7615962207
 20
47.3314147463
 30
0.0
 11
14.6561668942
 21
47.30816788690001
 31
0.0
  0
LINE
  5
ADE
  8
1
 10
18.25
 20
47.3314147463
 30
0.0
 11
14.7615962207
 21
47.3314147463
 31
0.0
  0
LINE
  5
ADF
  8
1
 10
14.68806954659999
 20
-47.29184187660002
 30
0.0
 11
18.25
 21
-47.29184187660002
 31
0.0
  0
LINE
  5
AE0
  8
1
 10
7.498403779400007
 20
47.3314147463
 30
0.0
 11
4.006414746699988
 21
47.3314147463
 31
0.0
  0
LINE
  5
AE1
  8
1
 10
7.603833105900009
 20
47.30816788690001
 30
0.0
 11
7.498403779400007
 21
47.3314147463
 31
0.0
  0
LINE
  5
AE2
  8
1
 10
7.603833230899994
 20
47.30844201400001
 30
0.0
 11
7.603833230899994
 21
-47.28288044160001
 31
0.0
  0
LINE
  5
AE3
  8
1
 10
7.571930453299984
 20
-47.29184187660002
 30
0.0
 11
7.603833055899997
 21
-47.282880439
 31
0.0
  0
LINE
  5
AE4
  8
1
 10
4.040356993800003
 20
-47.29184187660002
 30
0.0
 11
7.571930453299984
 21
-47.29184187660002
 31
0.0
  0
LINE
  5
AE5
  8
1
 10
2.300001405499984
 20
-46.74795901499999
 30
0.0
 11
4.040356993800003
 21
-47.29184189310001
 31
0.0
  0
LINE
  5
AE6
  8
1
 10
4.006414746699988
 20
47.33141476029999
 30
0.0
 11
2.299999765199999
 21
46.80267569
 31
0.0
  0
ARC
  5
AE7
  8
1
 10
2.557435939599998
 20
-45.59355264690001
 30
0.0
 40
1.184053137363273
 50
207.7147598986998
 51
257.3157095984005
  0
LINE
  5
AE8
  8
1
 10
1.50922466130001
 20
-46.14422037630001
 30
0.0
 11
1.5
 21
-46.01377680920001
 31
0.0
  0
LINE
  5
AE9
  8
1
 10
1.5
 20
-46.01377680920001
 30
0.0
 11
1.5
 21
46.01377680919998
 31
0.0
  0
ARC
  5
AEA
  8
1
 10
2.572884962100005
 20
45.72649004249999
 30
0.0
 40
1.111555736593689
 50
104.3436511600003
 51
164.8417645594994
  0
LINE
  5
AEB
  8
1
 10
9.204999995999998
 20
44.41431970880001
 30
0.0
 11
7.60383322749999
 21
47.3081678945
 31
0.0
  0
LINE
  5
AEC
  8
1
 10
9.204999999999984
 20
44.4143196734
 30
0.0
 11
9.204999999999984
 21
-44.387299867
 31
0.0
  0
LINE
  5
AED
  8
1
 10
7.603833226399985
 20
-47.28288044990001
 30
0.0
 11
9.2049999921
 21
-44.38762367050001
 31
0.0
  0
LINE
  5
AEE
  8
1
 10
14.65616677259999
 20
47.3081678945
 30
0.0
 11
13.05500000399999
 21
44.41431970880001
 31
0.0
  0
LINE
  5
AEF
  8
1
 10
13.05500000800001
 20
-44.38762367050001
 30
0.0
 11
14.65616677360001
 21
-47.28288044990001
 31
0.0
  0
LINE
  5
AF0
  8
1
 10
13.05500000000001
 20
44.41459195280001
 30
0.0
 11
13.05500000000001
 21
-44.38762365650001
 31
0.0
  0
ARC
  5
AF1
  8
1
 10
17.92302328310001
 20
46.41895288640001
 30
0.0
 40
1.127359624435328
 50
1.493363825500091
 51
43.53750291790048
  0
LINE
  5
AF2
  8
1
 10
19.04999999999998
 20
46.44833319130001
 30
0.0
 11
19.04999999999998
 21
-46.44833319130001
 31
0.0
  0
ARC
  5
AF3
  8
1
 10
17.91824827779999
 20
-46.4157978575
 30
0.0
 40
1.1322192847622
 50
319.2464850235001
 51
358.3533278529993
  0
ARC
  5
AF4
  8
1
 10
18.2616113983
 20
-46.25791326929999
 30
0.0
 40
1.033993805426882
 50
269.3565743835002
 51
299.8289453780985
  0
ARC
  5
AF5
  8
1
 10
18.2610591033
 20
46.41902767409999
 30
0.0
 40
0.9124540938653742
 50
58.31881226410037
 51
90.69445187719943
  0
ARC
  5
AF6
  8
1
 10
12.5158206966
 20
-44.1073442162
 30
0.0
 40
0.5397579791454132
 50
357.3466499737992
 51
85.83742202690154
  0
ARC
  5
AF7
  8
1
 10
12.54139279200001
 20
44.09944295630001
 30
0.0
 40
0.4858431210597904
 50
271.6049163143007
 51
333.441972537701
  0
POLYLINE
  5
AF8
  8
1
 66
     1
 10
0.0
 20
0.0
 30
0.0
  0
VERTEX
  5
3DE3
  8
1
 10
13.05500000000001
 20
44.14662312639999
 30
0.0
  0
VERTEX
  5
3DE4
  8
1
 10
13.03542892280001
 20
44.01594229719998
 30
0.0
  0
VERTEX
  5
3DE5
  8
1
 10
12.97787844319998
 20
43.88571451269999
 30
0.0
  0
SEQEND
  5
4344
  8
1
  0
ARC
  5
AF9
  8
1
 10
9.744214343399989
 20
-44.10737531749999
 30
0.0
 40
0.5397915428070933
 50
94.16604783349855
 51
182.6498801657025
  0
POLYLINE
  5
AFA
  8
1
 66
     1
 10
0.0
 20
0.0
 30
0.0
  0
VERTEX
  5
3DE6
  8
1
 10
9.280099379399985
 20
43.88913247470001
 30
0.0
  0
VERTEX
  5
3DE7
  8
1
 10
9.224055884099982
 20
44.0177026321
 30
0.0
  0
VERTEX
  5
3DE8
  8
1
 10
9.204999999999984
 20
44.14662312639999
 30
0.0
  0
SEQEND
  5
4343
  8
1
  0
ARC
  5
AFB
  8
1
 10
9.721350266000002
 20
44.10422581969999
 30
0.0
 40
0.4907078648052702
 50
206.0244317763009
 51
268.0905652222996
  0
LINE
  5
AFC
  8
1
 10
12.55500000000001
 20
43.613790424
 30
0.0
 11
9.704999999999984
 21
43.613790424
 31
0.0
  0
LINE
  5
AFD
  8
1
 10
9.704999999999984
 20
-43.5690100651
 30
0.0
 11
12.55500000000001
 21
-43.5690100651
 31
0.0
  0
LINE
  5
B00
  8
1
 10
0.2999999999999829
 20
34.625
 30
0.0
 11
0.2999999999999829
 21
-34.625
 31
0.0
  0
LINE
  5
B01
  8
1
 10
0.0
 20
34.92499999999998
 30
0.0
 11
0.0
 21
-34.92500000000001
 31
0.0
  0
LINE
  5
B04
  8
1
 10
14.68806954670001
 20
-47.29184187660002
 30
0.0
 11
14.65616694420001
 21
-47.282880439
 31
0.0
  0
LINE
  5
B1A
  8
3
 10
1.500000000000004
 20
37.72
 30
0.0
 11
19.04999999999998
 21
37.72
 31
0.0
  0
LINE
  5
B3B
  8
3
 10
1.5
 20
-35.30000000000001
 30
0.0
 11
19.26937525020018
 21
-35.30000000000001
 31
0.0
  0
LINE
  5
B42
  8
3
 10
26.97499999999999
 20
28.32499999999999
 30
0.0
 11
33.32499999999999
 21
28.32499999999999
 31
0.0
  0
LINE
  5
B43
  8
3
 10
20.625
 20
28.32499999999999
 30
0.0
 11
26.97499999999999
 21
28.32499999999999
 31
0.0
  0
LINE
  5
B44
  8
3
 10
11.375
 20
37.31999999999999
 30
0.0
 11
16.125
 21
37.31999999999999
 31
0.0
  0
LINE
  5
B45
  8
3
 10
6.625
 20
37.31999999999999
 30
0.0
 11
11.375
 21
37.31999999999999
 31
0.0
  0
LINE
  5
B55
  8
3
 10
20.625
 20
28.32499999999999
 30
0.0
 11
26.97499999999999
 21
24.50953506919998
 31
0.0
  0
LINE
  5
B56
  8
3
 10
26.97499999999999
 20
24.50953506919998
 30
0.0
 11
33.32499999999999
 21
28.32499999999999
 31
0.0
  0
LINE
  5
B57
  8
3
 10
20.625
 20
34.92499999999998
 30
0.0
 11
20.625
 21
28.32499999999999
 31
0.0
  0
LINE
  5
B58
  8
3
 10
33.32499999999999
 20
28.32499999999999
 30
0.0
 11
33.32499999999999
 21
34.92499999999998
 31
0.0
  0
LINE
  5
B59
  8
3
 10
6.625
 20
37.72
 30
0.0
 11
6.625
 21
37.31999999999999
 31
0.0
  0
LINE
  5
B5A
  8
3
 10
16.125
 20
37.31999999999999
 30
0.0
 11
16.125
 21
37.72
 31
0.0
  0
LINE
  5
B5B
  8
1
 10
20.04999999999998
 20
-34.92500000000001
 30
0.0
 11
20.04999999999998
 21
34.92499999999998
 31
0.0
  0
LINE
  5
B5C
  8
1
 10
1.299999999999983
 20
-34.625
 30
0.0
 11
1.299999999999983
 21
34.625
 31
0.0
  0
LINE
  5
B5F
  8
1
 10
12.55500000000001
 20
-43.00413183130001
 30
0.0
 11
12.55500000000001
 21
42.79577481850001
 31
0.0
  0
LINE
  5
B60
  8
1
 10
9.704999999999984
 20
-43.00421493109999
 30
0.0
 11
9.704999999999984
 21
42.7957705776
 31
0.0
  0
LINE
  5
B62
  8
1
 10
18.25
 20
47.3314147463
 30
0.0
 11
18.25
 21
-47.29184187660002
 31
0.0
  0
LINE
  5
B64
  8
1
 10
2.299999999999983
 20
-46.74795854910002
 30
0.0
 11
2.299999999999983
 21
46.80267576719999
 31
0.0
  0
LINE
  5
CE0
  8
1
 10
253.0
 20
34.92500000000007
 30
0.0
 11
20.0499999999999
 21
34.92500000000007
 31
0.0
  0
ARC
  5
CE2
  8
1
 10
253.0
 20
-33.92500000000007
 30
0.0
 40
1.000000000000227
 50
270.0
 51
0.0
  0
ARC
  5
CE3
  8
1
 10
253.0
 20
33.92500000000007
 30
0.0
 40
1.0
 50
0.0
 51
90.0
  0
LINE
  5
CFB
  8
1
 10
254.0
 20
-31.75381000000004
 30
0.0
 11
254.0283378126
 21
-31.75381000000004
 31
0.0
  0
CIRCLE
  5
D1F
  8
1
 10
236.0
 20
0.0000000000001137
 30
0.0
 40
2.624999999999545
  0
LINE
  5
D20
  8
1
 10
254.0
 20
0.0000000000001137
 30
0.0
 11
254.0
 21
33.92500000000007
 31
0.0
  0
LINE
  5
D21
  8
1
 10
254.0
 20
-33.92500000000007
 30
0.0
 11
254.0
 21
0.0000000000001137
 31
0.0
  0
CIRCLE
  5
D22
  8
1
 10
236.0
 20
0.0000000000001137
 30
0.0
 40
2.525000000000006
  0
LINE
  5
D28
  8
1
 10
234.75
 20
-0.721687836499882
 30
0.0
 11
236.0
 21
-1.443375672999878
 31
0.0
  0
LINE
  5
D29
  8
1
 10
237.25
 20
-0.721687836499882
 30
0.0
 11
236.0
 21
-1.443375672999878
 31
0.0
  0
LINE
  5
D2A
  8
1
 10
237.25
 20
0.7216878365001094
 30
0.0
 11
237.25
 21
-0.721687836499882
 31
0.0
  0
LINE
  5
D2B
  8
1
 10
237.25
 20
0.7216878365001094
 30
0.0
 11
236.0
 21
1.443375673000105
 31
0.0
  0
LINE
  5
D2C
  8
1
 10
234.75
 20
0.7216878365001094
 30
0.0
 11
236.0
 21
1.443375673000105
 31
0.0
  0
LINE
  5
D2D
  8
1
 10
234.75
 20
0.7216878365001094
 30
0.0
 11
234.75
 21
-0.721687836499882
 31
0.0
  0
CIRCLE
  5
D2E
  8
1
 10
236.0
 20
0.0000000000001137
 30
0.0
 40
2.054999999999836
  0
CIRCLE
  5
D2F
  8
1
 10
236.0
 20
0.0000000000001137
 30
0.0
 40
2.256103126842049
  0
CIRCLE
  5
D30
  8
1
 10
236.0
 20
0.0000000000001137
 30
0.0
 40
2.500000000000085
  0
POLYLINE
  5
D3E
  8
3
 66
     1
 10
0.0
 20
0.0
 30
0.0
  0
VERTEX
  5
3DE9
  8
3
 10
236.0
 20
-28.84788378399992
 30
0.0
  0
VERTEX
  5
3DEA
  8
3
 10
236.8674984817
 20
-28.93098265750007
 30
0.0
  0
VERTEX
  5
3DEB
  8
3
 10
237.6371754239
 20
-29.16774297809991
 30
0.0
  0
VERTEX
  5
3DEC
  8
3
 10
238.2238158074
 20
-29.52444509919985
 30
0.0
  0
VERTEX
  5
3DED
  8
3
 10
238.560307759
 20
-29.9521880481999
 30
0.0
  0
VERTEX
  5
3DEE
  8
3
 10
238.6077571143
 20
-30.39500826999995
 30
0.0
  0
VERTEX
  5
3DEF
  8
3
 10
238.3624298798
 20
-30.80187446539992
 30
0.0
  0
VERTEX
  5
3DF0
  8
3
 10
237.8518724712
 20
-31.13320775749992
 30
0.0
  0
VERTEX
  5
3DF1
  8
3
 10
237.1314689166
 20
-31.3606117354999
 30
0.0
  0
VERTEX
  5
3DF2
  8
3
 10
236.2830058601
 20
-31.46622946299988
 30
0.0
  0
VERTEX
  5
3DF3
  8
3
 10
235.4045645979
 20
-31.44307976840003
 30
0.0
  0
VERTEX
  5
3DF4
  8
3
 10
234.59416225
 20
-31.29335200349999
 30
0.0
  0
VERTEX
  5
3DF5
  8
3
 10
233.940409202
 20
-31.02682272200002
 30
0.0
  0
VERTEX
  5
3DF6
  8
3
 10
233.5175743299
 20
-30.66357714589992
 30
0.0
  0
VERTEX
  5
3DF7
  8
3
 10
233.3750524153
 20
-30.23763957640006
 30
0.0
  0
VERTEX
  5
3DF8
  8
3
 10
233.5278161119
 20
-29.79499263650007
 30
0.0
  0
VERTEX
  5
3DF9
  8
3
 10
233.9577583493
 20
-29.38759440029992
 30
0.0
  0
VERTEX
  5
3DFA
  8
3
 10
234.6183925845
 20
-29.06811232050006
 30
0.0
  0
VERTEX
  5
3DFB
  8
3
 10
235.4359086638
 20
-28.88250270679998
 30
0.0
  0
VERTEX
  5
3DFC
  8
3
 10
236.0
 20
-28.84788378399992
 30
0.0
  0
SEQEND
  5
4342
  8
3
  0
POLYLINE
  5
D3F
  8
3
 66
     1
 10
0.0
 20
0.0
 30
0.0
  0
VERTEX
  5
3DFD
  8
3
 10
236.0
 20
31.47288378400015
 30
0.0
  0
VERTEX
  5
3DFE
  8
3
 10
236.8674984817
 20
31.40849580259999
 30
0.0
  0
VERTEX
  5
3DFF
  8
3
 10
237.6371754239
 20
31.21964005920006
 30
0.0
  0
VERTEX
  5
3E00
  8
3
 10
238.2238158074
 20
30.91917383800012
 30
0.0
  0
VERTEX
  5
3E01
  8
3
 10
238.560307759
 20
30.53136779520003
 30
0.0
  0
VERTEX
  5
3E02
  8
3
 10
238.6077571143
 20
30.09462878880015
 30
0.0
  0
VERTEX
  5
3E03
  8
3
 10
238.3624298798
 20
29.65751872390013
 30
0.0
  0
VERTEX
  5
3E04
  8
3
 10
237.8518724712
 20
29.27277948669996
 30
0.0
  0
VERTEX
  5
3E05
  8
3
 10
237.1314689166
 20
28.99198278799997
 30
0.0
  0
VERTEX
  5
3E06
  8
3
 10
236.9708600341
 20
28.96634235060003
 30
0.0
  0
SEQEND
  5
4341
  8
3
  0
POLYLINE
  5
D40
  8
3
 66
     1
 10
0.0
 20
0.0
 30
0.0
  0
VERTEX
  5
3E07
  8
3
 10
235.0444933061
 20
28.97094003550012
 30
0.0
  0
VERTEX
  5
3E08
  8
3
 10
234.59416225
 20
29.07654230929995
 30
0.0
  0
VERTEX
  5
3E09
  8
3
 10
233.940409202
 20
29.3993367022
 30
0.0
  0
VERTEX
  5
3E0A
  8
3
 10
233.5175743299
 20
29.81023794479995
 30
0.0
  0
VERTEX
  5
3E0B
  8
3
 10
233.3750524153
 20
30.2542280545
 30
0.0
  0
VERTEX
  5
3E0C
  8
3
 10
233.5278161119
 20
30.67756377989997
 30
0.0
  0
VERTEX
  5
3E0D
  8
3
 10
233.9577583493
 20
31.03679846279999
 30
0.0
  0
VERTEX
  5
3E0E
  8
3
 10
234.6183925845
 20
31.30010379650014
 30
0.0
  0
VERTEX
  5
3E0F
  8
3
 10
235.4359086638
 20
31.44617701610002
 30
0.0
  0
VERTEX
  5
3E10
  8
3
 10
236.0
 20
31.47288378400015
 30
0.0
  0
SEQEND
  5
4340
  8
3
  0
CIRCLE
  5
D41
  8
3
 10
236.0
 20
0.0000000000001137
 30
0.0
 40
2.099999999999994
  0
LINE
  5
D4D
  8
SK3
 10
-40.09999999999999
 20
0.0000000000001137
 30
0.0
 11
-40.09999999999999
 21
11.11250000000007
 31
0.0
  0
LINE
  5
D4E
  8
SK3
 10
-40.09999999999999
 20
-11.11250000000007
 30
0.0
 11
-40.09999999999999
 21
0.0000000000001137
 31
0.0
  0
LINE
  5
D4F
  8
SK3
 10
-37.834376924
 20
0.0000000000001137
 30
0.0
 11
-37.834376924
 21
-7.341869999999858
 31
0.0
  0
LINE
  5
D50
  8
SK3
 10
-37.834376924
 20
7.341870000000085
 30
0.0
 11
-37.834376924
 21
0.0000000000001137
 31
0.0
  0
POLYLINE
  5
D53
  8
3
 66
     1
 10
0.0
 20
0.0
 30
0.0
  0
VERTEX
  5
3E11
  8
3
 10
236.0
 20
7.142601359200057
 30
0.0
  0
VERTEX
  5
3E12
  8
3
 10
236.6788114707
 20
7.11452859489998
 30
0.0
  0
VERTEX
  5
3E13
  8
3
 10
237.2807739407
 20
7.024852442100041
 30
0.0
  0
VERTEX
  5
3E14
  8
3
 10
237.7560423335
 20
6.855363423699941
 30
0.0
  0
VERTEX
  5
3E15
  8
3
 10
238.0406959173
 20
6.591516763100003
 30
0.0
  0
VERTEX
  5
3E16
  8
3
 10
238.09019915
 20
6.254497762500137
 30
0.0
  0
VERTEX
  5
3E17
  8
3
 10
237.9165702344
 20
5.885470292800051
 30
0.0
  0
VERTEX
  5
3E18
  8
3
 10
237.5406196151
 20
5.523451856700035
 30
0.0
  0
VERTEX
  5
3E19
  8
3
 10
236.9815982434
 20
5.223388291400056
 30
0.0
  0
VERTEX
  5
3E1A
  8
3
 10
236.3023388719
 20
5.059163961699937
 30
0.0
  0
VERTEX
  5
3E1B
  8
3
 10
235.6098814051
 20
5.070238859900087
 30
0.0
  0
VERTEX
  5
3E1C
  8
3
 10
234.9762875327
 20
5.23997753569995
 30
0.0
  0
VERTEX
  5
3E1D
  8
3
 10
234.4392323398
 20
5.538239863000058
 30
0.0
  0
VERTEX
  5
3E1E
  8
3
 10
234.0597170241
 20
5.918418927000062
 30
0.0
  0
VERTEX
  5
3E1F
  8
3
 10
233.9029203487
 20
6.30216747040015
 30
0.0
  0
VERTEX
  5
3E20
  8
3
 10
233.979171346
 20
6.624567060700087
 30
0.0
  0
VERTEX
  5
3E21
  8
3
 10
234.2656411802
 20
6.867043579300002
 30
0.0
  0
VERTEX
  5
3E22
  8
3
 10
234.7461186494
 20
7.030900774799989
 30
0.0
  0
VERTEX
  5
3E23
  8
3
 10
235.3831681338
 20
7.119658210600051
 30
0.0
  0
VERTEX
  5
3E24
  8
3
 10
236.0
 20
7.142601359200057
 30
0.0
  0
SEQEND
  5
433F
  8
3
  0
POLYLINE
  5
D54
  8
3
 66
     1
 10
0.0
 20
0.0
 30
0.0
  0
VERTEX
  5
3E25
  8
3
 10
236.0
 20
-5.042601359299965
 30
0.0
  0
VERTEX
  5
3E26
  8
3
 10
236.6788114707
 20
-5.12726540469987
 30
0.0
  0
VERTEX
  5
3E27
  8
3
 10
237.2807739407
 20
-5.360635475300001
 30
0.0
  0
VERTEX
  5
3E28
  8
3
 10
237.7560423335
 20
-5.703705782300062
 30
0.0
  0
VERTEX
  5
3E29
  8
3
 10
238.0406959173
 20
-6.095976479099932
 30
0.0
  0
VERTEX
  5
3E2A
  8
3
 10
238.09019915
 20
-6.457148973899962
 30
0.0
  0
VERTEX
  5
3E2B
  8
3
 10
237.9165702344
 20
-6.743816689500022
 30
0.0
  0
VERTEX
  5
3E2C
  8
3
 10
237.5406196151
 20
-6.950508688600053
 30
0.0
  0
VERTEX
  5
3E2D
  8
3
 10
236.9815982434
 20
-7.079853989599883
 30
0.0
  0
VERTEX
  5
3E2E
  8
3
 10
236.3023388719
 20
-7.137286000100062
 30
0.0
  0
VERTEX
  5
3E2F
  8
3
 10
235.6098814051
 20
-7.133684396399872
 30
0.0
  0
VERTEX
  5
3E30
  8
3
 10
234.9762875327
 20
-7.073556763500051
 30
0.0
  0
VERTEX
  5
3E31
  8
3
 10
234.4392323398
 20
-6.943232500399859
 30
0.0
  0
VERTEX
  5
3E32
  8
3
 10
234.0597170241
 20
-6.721725825699991
 30
0.0
  0
VERTEX
  5
3E33
  8
3
 10
233.9029203487
 20
-6.412878517799868
 30
0.0
  0
VERTEX
  5
3E34
  8
3
 10
233.979171346
 20
-6.053382719900014
 30
0.0
  0
VERTEX
  5
3E35
  8
3
 10
234.2656411802
 20
-5.682982987999935
 30
0.0
  0
VERTEX
  5
3E36
  8
3
 10
234.7461186494
 20
-5.346329150199949
 30
0.0
  0
VERTEX
  5
3E37
  8
3
 10
235.3831681338
 20
-5.112292163100051
 30
0.0
  0
VERTEX
  5
3E38
  8
3
 10
236.0
 20
-5.042601359299965
 30
0.0
  0
SEQEND
  5
433E
  8
3
  0
LINE
  5
D55
  8
3
 10
239.0
 20
31.75049999999999
 30
0.0
 11
239.0
 21
19.04949999999997
 31
0.0
  0
LINE
  5
D56
  8
3
 10
239.0
 20
-19.04949999999997
 30
0.0
 11
239.0
 21
-31.75049999999999
 31
0.0
  0
POLYLINE
  5
D5B
  8
3
 66
     1
 10
0.0
 20
0.0
 30
0.0
  0
VERTEX
  5
3E39
  8
3
 10
236.0
 20
30.06185102680013
 30
0.0
  0
VERTEX
  5
3E3A
  8
3
 10
236.718242301
 20
29.99852827860002
 30
0.0
  0
VERTEX
  5
3E3B
  8
3
 10
237.3498539804
 20
29.81619769199995
 30
0.0
  0
VERTEX
  5
3E3C
  8
3
 10
237.818653348
 20
29.53685102680004
 30
0.0
  0
VERTEX
  5
3E3D
  8
3
 10
238.0680962814
 20
29.19418161329997
 30
0.0
  0
VERTEX
  5
3E3E
  8
3
 10
238.0680962814
 20
28.8295204402001
 30
0.0
  0
VERTEX
  5
3E3F
  8
3
 10
237.818653348
 20
28.48685102680008
 30
0.0
  0
VERTEX
  5
3E40
  8
3
 10
237.3498539804
 20
28.20750436150013
 30
0.0
  0
VERTEX
  5
3E41
  8
3
 10
236.718242301
 20
28.02517377490005
 30
0.0
  0
VERTEX
  5
3E42
  8
3
 10
236.0
 20
27.96185102679999
 30
0.0
  0
VERTEX
  5
3E43
  8
3
 10
235.281757699
 20
28.02517377490005
 30
0.0
  0
VERTEX
  5
3E44
  8
3
 10
234.6501460197
 20
28.20750436150013
 30
0.0
  0
VERTEX
  5
3E45
  8
3
 10
234.1813466521
 20
28.48685102680008
 30
0.0
  0
VERTEX
  5
3E46
  8
3
 10
233.9319037187
 20
28.8295204402001
 30
0.0
  0
VERTEX
  5
3E47
  8
3
 10
233.9319037187
 20
29.19418161329997
 30
0.0
  0
VERTEX
  5
3E48
  8
3
 10
234.1813466521
 20
29.53685102680004
 30
0.0
  0
VERTEX
  5
3E49
  8
3
 10
234.6501460197
 20
29.81619769199995
 30
0.0
  0
VERTEX
  5
3E4A
  8
3
 10
235.281757699
 20
29.99852827860002
 30
0.0
  0
VERTEX
  5
3E4B
  8
3
 10
236.0
 20
30.06185102680013
 30
0.0
  0
SEQEND
  5
433D
  8
3
  0
POLYLINE
  5
D5C
  8
3
 66
     1
 10
0.0
 20
0.0
 30
0.0
  0
VERTEX
  5
3E4C
  8
3
 10
237.1874342087
 20
10.1757984945001
 30
0.0
  0
VERTEX
  5
3E4D
  8
3
 10
236.8307135081
 20
9.66977149310003
 30
0.0
  0
VERTEX
  5
3E4E
  8
3
 10
236.6930665581
 20
9.414316763800002
 30
0.0
  0
VERTEX
  5
3E4F
  8
3
 10
236.641457207
 20
9.209155885299992
 30
0.0
  0
VERTEX
  5
3E50
  8
3
 10
236.6692654754
 20
9.011915962300122
 30
0.0
  0
VERTEX
  5
3E51
  8
3
 10
236.8124097565
 20
8.774532872500117
 30
0.0
  0
VERTEX
  5
3E52
  8
3
 10
237.2612023873
 20
8.395253660000094
 30
0.0
  0
VERTEX
  5
3E53
  8
3
 10
237.762449691
 20
8.182853683999951
 30
0.0
  0
VERTEX
  5
3E54
  8
3
 10
237.9967185942
 20
8.212678140000094
 30
0.0
  0
VERTEX
  5
3E55
  8
3
 10
238.0989640743
 20
8.41171314159999
 30
0.0
  0
VERTEX
  5
3E56
  8
3
 10
238.0524341615
 20
8.709264812000015
 30
0.0
  0
VERTEX
  5
3E57
  8
3
 10
237.9027405741
 20
9.068375611500073
 30
0.0
  0
VERTEX
  5
3E58
  8
3
 10
237.5654809665
 20
9.638514827300128
 30
0.0
  0
VERTEX
  5
3E59
  8
3
 10
237.0087797991
 20
10.42164103419998
 30
0.0
  0
VERTEX
  5
3E5A
  8
3
 10
236.7826480156
 20
10.76040447870002
 30
0.0
  0
VERTEX
  5
3E5B
  8
3
 10
236.6623756697
 20
11.02537921250007
 30
0.0
  0
VERTEX
  5
3E5C
  8
3
 10
236.6419854699
 20
11.21564272800003
 30
0.0
  0
VERTEX
  5
3E5D
  8
3
 10
236.6899948735
 20
11.39014499200005
 30
0.0
  0
VERTEX
  5
3E5E
  8
3
 10
236.8867697775
 20
11.65888278659997
 30
0.0
  0
VERTEX
  5
3E5F
  8
3
 10
237.4437809255
 20
12.05893686470006
 30
0.0
  0
VERTEX
  5
3E60
  8
3
 10
237.8302357267
 20
12.17550193290015
 30
0.0
  0
VERTEX
  5
3E61
  8
3
 10
238.0315862227
 20
12.11135876740002
 30
0.0
  0
VERTEX
  5
3E62
  8
3
 10
238.0995856547
 20
11.88661539700013
 30
0.0
  0
VERTEX
  5
3E63
  8
3
 10
238.0310524638
 20
11.57819859829999
 30
0.0
  0
VERTEX
  5
3E64
  8
3
 10
237.8618425502
 20
11.20416659449995
 30
0.0
  0
VERTEX
  5
3E65
  8
3
 10
237.4897946255
 20
10.60073280660015
 30
0.0
  0
VERTEX
  5
3E66
  8
3
 10
237.1874342087
 20
10.1757984945001
 30
0.0
  0
SEQEND
  5
433C
  8
3
  0
POLYLINE
  5
D5D
  8
3
 66
     1
 10
0.0
 20
0.0
 30
0.0
  0
VERTEX
  5
3E67
  8
3
 10
236.0
 20
-27.96185102679999
 30
0.0
  0
VERTEX
  5
3E68
  8
3
 10
236.718242301
 20
-28.02517377499987
 30
0.0
  0
VERTEX
  5
3E69
  8
3
 10
237.3498539804
 20
-28.2075043614999
 30
0.0
  0
VERTEX
  5
3E6A
  8
3
 10
237.818653348
 20
-28.48685102679985
 30
0.0
  0
VERTEX
  5
3E6B
  8
3
 10
238.0680962814
 20
-28.82952044019987
 30
0.0
  0
VERTEX
  5
3E6C
  8
3
 10
238.0680962814
 20
-29.19418161329997
 30
0.0
  0
VERTEX
  5
3E6D
  8
3
 10
237.818653348
 20
-29.53685102680004
 30
0.0
  0
VERTEX
  5
3E6E
  8
3
 10
237.3498539804
 20
-29.81619769209999
 30
0.0
  0
VERTEX
  5
3E6F
  8
3
 10
236.718242301
 20
-29.99852827860002
 30
0.0
  0
VERTEX
  5
3E70
  8
3
 10
236.0
 20
-30.0618510267999
 30
0.0
  0
VERTEX
  5
3E71
  8
3
 10
235.281757699
 20
-29.99852827860002
 30
0.0
  0
VERTEX
  5
3E72
  8
3
 10
234.6501460197
 20
-29.81619769209999
 30
0.0
  0
VERTEX
  5
3E73
  8
3
 10
234.1813466521
 20
-29.53685102680004
 30
0.0
  0
VERTEX
  5
3E74
  8
3
 10
233.9319037187
 20
-29.19418161329997
 30
0.0
  0
VERTEX
  5
3E75
  8
3
 10
233.9319037187
 20
-28.82952044019987
 30
0.0
  0
VERTEX
  5
3E76
  8
3
 10
234.1813466521
 20
-28.48685102679985
 30
0.0
  0
VERTEX
  5
3E77
  8
3
 10
234.6501460197
 20
-28.2075043614999
 30
0.0
  0
VERTEX
  5
3E78
  8
3
 10
235.281757699
 20
-28.02517377499987
 30
0.0
  0
VERTEX
  5
3E79
  8
3
 10
236.0
 20
-27.96185102679999
 30
0.0
  0
SEQEND
  5
433B
  8
3
  0
POLYLINE
  5
D5E
  8
3
 66
     1
 10
0.0
 20
0.0
 30
0.0
  0
VERTEX
  5
3E7A
  8
3
 10
237.1874342087
 20
-10.17579849449987
 30
0.0
  0
VERTEX
  5
3E7B
  8
3
 10
237.7489098361
 20
-11.00400580190001
 30
0.0
  0
VERTEX
  5
3E7C
  8
3
 10
237.9893771506
 20
-11.47067319020005
 30
0.0
  0
VERTEX
  5
3E7D
  8
3
 10
238.0982281394
 20
-11.86311415459988
 30
0.0
  0
VERTEX
  5
3E7E
  8
3
 10
238.0559499552
 20
-12.08168261339995
 30
0.0
  0
VERTEX
  5
3E7F
  8
3
 10
237.9097723244
 20
-12.17066122909989
 30
0.0
  0
VERTEX
  5
3E80
  8
3
 10
237.5787290787
 20
-12.11790390530007
 30
0.0
  0
VERTEX
  5
3E81
  8
3
 10
237.0272776947
 20
-11.78727340240005
 30
0.0
  0
VERTEX
  5
3E82
  8
3
 10
236.7942035719
 20
-11.55471426139991
 30
0.0
  0
VERTEX
  5
3E83
  8
3
 10
236.6649965005
 20
-11.32721459859988
 30
0.0
  0
VERTEX
  5
3E84
  8
3
 10
236.6413892584
 20
-11.14345243449986
 30
0.0
  0
VERTEX
  5
3E85
  8
3
 10
236.6873066879
 20
-10.95165245479996
 30
0.0
  0
VERTEX
  5
3E86
  8
3
 10
236.8771154607
 20
-10.6106926926999
 30
0.0
  0
VERTEX
  5
3E87
  8
3
 10
237.4265238451
 20
-9.84239505289986
 30
0.0
  0
VERTEX
  5
3E88
  8
3
 10
237.8214913441
 20
-9.22155508670005
 30
0.0
  0
VERTEX
  5
3E89
  8
3
 10
238.0274313366
 20
-8.783500904499874
 30
0.0
  0
VERTEX
  5
3E8A
  8
3
 10
238.0998083939
 20
-8.42973822149986
 30
0.0
  0
VERTEX
  5
3E8B
  8
3
 10
238.0339491164
 20
-8.242638408299968
 30
0.0
  0
VERTEX
  5
3E8C
  8
3
 10
237.8672328854
 20
-8.176300128200069
 30
0.0
  0
VERTEX
  5
3E8D
  8
3
 10
237.4996433485
 20
-8.266377161599962
 30
0.0
  0
VERTEX
  5
3E8E
  8
3
 10
236.9235376401
 20
-8.65642717849994
 30
0.0
  0
VERTEX
  5
3E8F
  8
3
 10
236.7331917126
 20
-8.88255606209998
 30
0.0
  0
VERTEX
  5
3E90
  8
3
 10
236.6500050133
 20
-9.0805132111999
 30
0.0
  0
VERTEX
  5
3E91
  8
3
 10
236.6483785218
 20
-9.265393811799981
 30
0.0
  0
VERTEX
  5
3E92
  8
3
 10
236.7332199998
 20
-9.50124742419996
 30
0.0
  0
VERTEX
  5
3E93
  8
3
 10
237.1145471951
 20
-10.07592391669994
 30
0.0
  0
VERTEX
  5
3E94
  8
3
 10
237.1874342087
 20
-10.17579849449987
 30
0.0
  0
SEQEND
  5
433A
  8
3
  0
POLYLINE
  5
D5F
  8
3
 66
     1
 10
0.0
 20
0.0
 30
0.0
  0
VERTEX
  5
3E95
  8
3
 10
238.625
 20
29.37991182339999
 30
0.0
  0
VERTEX
  5
3E96
  8
3
 10
238.5083786152
 20
28.99304565700015
 30
0.0
  0
VERTEX
  5
3E97
  8
3
 10
238.1688767826
 20
28.64055424719993
 30
0.0
  0
VERTEX
  5
3E98
  8
3
 10
237.6366607299
 20
28.3537580026001
 30
0.0
  0
VERTEX
  5
3E99
  8
3
 10
236.959020189
 20
28.15814002829995
 30
0.0
  0
VERTEX
  5
3E9A
  8
3
 10
236.1961664957
 20
28.07108183959997
 30
0.0
  0
VERTEX
  5
3E9B
  8
3
 10
235.4158825484
 20
28.10031893860003
 30
0.0
  0
VERTEX
  5
3E9C
  8
3
 10
234.6875
 20
28.24325348090008
 30
0.0
  0
VERTEX
  5
3E9D
  8
3
 10
234.0757388365
 20
28.48718510500009
 30
0.0
  0
VERTEX
  5
3E9E
  8
3
 10
233.6349567218
 20
28.81043941580003
 30
0.0
  0
VERTEX
  5
3E9F
  8
3
 10
233.4043190812
 20
29.18429384900003
 30
0.0
  0
VERTEX
  5
3EA0
  8
3
 10
233.4043190812
 20
29.57552979770014
 30
0.0
  0
VERTEX
  5
3EA1
  8
3
 10
233.6349567218
 20
29.94938423099995
 30
0.0
  0
VERTEX
  5
3EA2
  8
3
 10
234.0757388365
 20
30.27263854170008
 30
0.0
  0
VERTEX
  5
3EA3
  8
3
 10
234.6875
 20
30.51657016580009
 30
0.0
  0
VERTEX
  5
3EA4
  8
3
 10
235.4158825484
 20
30.65950470810014
 30
0.0
  0
VERTEX
  5
3EA5
  8
3
 10
236.1961664957
 20
30.68874180720002
 30
0.0
  0
VERTEX
  5
3EA6
  8
3
 10
236.959020189
 20
30.60168361850003
 30
0.0
  0
VERTEX
  5
3EA7
  8
3
 10
237.6366607299
 20
30.40606564410007
 30
0.0
  0
VERTEX
  5
3EA8
  8
3
 10
238.1688767826
 20
30.11926939960006
 30
0.0
  0
VERTEX
  5
3EA9
  8
3
 10
238.5083786152
 20
29.76677798980006
 30
0.0
  0
VERTEX
  5
3EAA
  8
3
 10
238.625
 20
29.37991182339999
 30
0.0
  0
SEQEND
  5
4339
  8
3
  0
POLYLINE
  5
D60
  8
3
 66
     1
 10
0.0
 20
0.0
 30
0.0
  0
VERTEX
  5
3EAB
  8
3
 10
238.625
 20
-29.37991182339999
 30
0.0
  0
VERTEX
  5
3EAC
  8
3
 10
238.5083786152
 20
-29.76677798980006
 30
0.0
  0
VERTEX
  5
3EAD
  8
3
 10
238.1688767826
 20
-30.11926939960006
 30
0.0
  0
VERTEX
  5
3EAE
  8
3
 10
237.6366607299
 20
-30.40606564410007
 30
0.0
  0
VERTEX
  5
3EAF
  8
3
 10
236.959020189
 20
-30.60168361850003
 30
0.0
  0
VERTEX
  5
3EB0
  8
3
 10
236.1961664957
 20
-30.68874180720002
 30
0.0
  0
VERTEX
  5
3EB1
  8
3
 10
235.4158825484
 20
-30.65950470809992
 30
0.0
  0
VERTEX
  5
3EB2
  8
3
 10
234.6875
 20
-30.51657016589991
 30
0.0
  0
VERTEX
  5
3EB3
  8
3
 10
234.0757388365
 20
-30.27263854169985
 30
0.0
  0
VERTEX
  5
3EB4
  8
3
 10
233.6349567218
 20
-29.94938423099995
 30
0.0
  0
VERTEX
  5
3EB5
  8
3
 10
233.4043190812
 20
-29.57552979779996
 30
0.0
  0
VERTEX
  5
3EB6
  8
3
 10
233.4043190812
 20
-29.18429384900003
 30
0.0
  0
VERTEX
  5
3EB7
  8
3
 10
233.6349567218
 20
-28.81043941580003
 30
0.0
  0
VERTEX
  5
3EB8
  8
3
 10
234.0757388365
 20
-28.48718510509991
 30
0.0
  0
VERTEX
  5
3EB9
  8
3
 10
234.6875
 20
-28.24325348089985
 30
0.0
  0
VERTEX
  5
3EBA
  8
3
 10
235.4158825484
 20
-28.10031893870007
 30
0.0
  0
VERTEX
  5
3EBB
  8
3
 10
236.1961664957
 20
-28.07108183959997
 30
0.0
  0
VERTEX
  5
3EBC
  8
3
 10
236.959020189
 20
-28.15814002829995
 30
0.0
  0
VERTEX
  5
3EBD
  8
3
 10
237.6366607299
 20
-28.35375800269992
 30
0.0
  0
VERTEX
  5
3EBE
  8
3
 10
238.1688767826
 20
-28.64055424719993
 30
0.0
  0
VERTEX
  5
3EBF
  8
3
 10
238.5083786152
 20
-28.99304565699993
 30
0.0
  0
VERTEX
  5
3EC0
  8
3
 10
238.625
 20
-29.37991182339999
 30
0.0
  0
SEQEND
  5
4338
  8
3
  0
POLYLINE
  5
D61
  8
3
 66
     1
 10
0.0
 20
0.0
 30
0.0
  0
VERTEX
  5
3EC1
  8
3
 10
236.0
 20
30.64241182340004
 30
0.0
  0
VERTEX
  5
3EC2
  8
3
 10
236.7802679108
 20
30.58062067520007
 30
0.0
  0
VERTEX
  5
3EC3
  8
3
 10
237.4841577621
 20
30.40129577880009
 30
0.0
  0
VERTEX
  5
3EC4
  8
3
 10
238.0427679108
 20
30.12199070439999
 30
0.0
  0
VERTEX
  5
3EC5
  8
3
 10
238.4014177037
 20
29.77004577879995
 30
0.0
  0
VERTEX
  5
3EC6
  8
3
 10
238.525
 20
29.37991182339999
 30
0.0
  0
VERTEX
  5
3EC7
  8
3
 10
238.4014177037
 20
28.98977786800003
 30
0.0
  0
VERTEX
  5
3EC8
  8
3
 10
238.0427679108
 20
28.6378329424
 30
0.0
  0
VERTEX
  5
3EC9
  8
3
 10
237.4841577621
 20
28.35852786800012
 30
0.0
  0
VERTEX
  5
3ECA
  8
3
 10
236.7802679108
 20
28.17920297160015
 30
0.0
  0
VERTEX
  5
3ECB
  8
3
 10
236.0
 20
28.11741182339995
 30
0.0
  0
VERTEX
  5
3ECC
  8
3
 10
235.2197320892
 20
28.17920297160015
 30
0.0
  0
VERTEX
  5
3ECD
  8
3
 10
234.515842238
 20
28.35852786800012
 30
0.0
  0
VERTEX
  5
3ECE
  8
3
 10
233.9572320892
 20
28.6378329424
 30
0.0
  0
VERTEX
  5
3ECF
  8
3
 10
233.5985822964
 20
28.98977786800003
 30
0.0
  0
VERTEX
  5
3ED0
  8
3
 10
233.475
 20
29.37991182339999
 30
0.0
  0
VERTEX
  5
3ED1
  8
3
 10
233.5985822964
 20
29.77004577879995
 30
0.0
  0
VERTEX
  5
3ED2
  8
3
 10
233.9572320892
 20
30.12199070439999
 30
0.0
  0
VERTEX
  5
3ED3
  8
3
 10
234.515842238
 20
30.40129577880009
 30
0.0
  0
VERTEX
  5
3ED4
  8
3
 10
235.2197320892
 20
30.58062067520007
 30
0.0
  0
VERTEX
  5
3ED5
  8
3
 10
236.0
 20
30.64241182340004
 30
0.0
  0
SEQEND
  5
4337
  8
3
  0
POLYLINE
  5
D62
  8
3
 66
     1
 10
0.0
 20
0.0
 30
0.0
  0
VERTEX
  5
3ED6
  8
3
 10
236.0
 20
-28.11741182339995
 30
0.0
  0
VERTEX
  5
3ED7
  8
3
 10
236.7802679108
 20
-28.17920297159992
 30
0.0
  0
VERTEX
  5
3ED8
  8
3
 10
237.4841577621
 20
-28.3585278679999
 30
0.0
  0
VERTEX
  5
3ED9
  8
3
 10
238.0427679108
 20
-28.6378329424
 30
0.0
  0
VERTEX
  5
3EDA
  8
3
 10
238.4014177037
 20
-28.98977786800003
 30
0.0
  0
VERTEX
  5
3EDB
  8
3
 10
238.525
 20
-29.37991182339999
 30
0.0
  0
VERTEX
  5
3EDC
  8
3
 10
238.4014177037
 20
-29.77004577879995
 30
0.0
  0
VERTEX
  5
3EDD
  8
3
 10
238.0427679108
 20
-30.12199070439999
 30
0.0
  0
VERTEX
  5
3EDE
  8
3
 10
237.4841577621
 20
-30.40129577879986
 30
0.0
  0
VERTEX
  5
3EDF
  8
3
 10
236.7802679108
 20
-30.58062067520007
 30
0.0
  0
VERTEX
  5
3EE0
  8
3
 10
236.0
 20
-30.64241182340004
 30
0.0
  0
VERTEX
  5
3EE1
  8
3
 10
235.2197320892
 20
-30.58062067520007
 30
0.0
  0
VERTEX
  5
3EE2
  8
3
 10
234.515842238
 20
-30.40129577879986
 30
0.0
  0
VERTEX
  5
3EE3
  8
3
 10
233.9572320892
 20
-30.12199070439999
 30
0.0
  0
VERTEX
  5
3EE4
  8
3
 10
233.5985822964
 20
-29.77004577879995
 30
0.0
  0
VERTEX
  5
3EE5
  8
3
 10
233.475
 20
-29.37991182339999
 30
0.0
  0
VERTEX
  5
3EE6
  8
3
 10
233.5985822964
 20
-28.98977786800003
 30
0.0
  0
VERTEX
  5
3EE7
  8
3
 10
233.9572320892
 20
-28.6378329424
 30
0.0
  0
VERTEX
  5
3EE8
  8
3
 10
234.515842238
 20
-28.3585278679999
 30
0.0
  0
VERTEX
  5
3EE9
  8
3
 10
235.2197320892
 20
-28.17920297159992
 30
0.0
  0
VERTEX
  5
3EEA
  8
3
 10
236.0
 20
-28.11741182339995
 30
0.0
  0
SEQEND
  5
4336
  8
3
  0
CIRCLE
  5
D63
  8
3
 10
236.0
 20
0.0000000000001137
 30
0.0
 40
2.31673274345232
  0
CIRCLE
  5
D64
  8
3
 10
236.0
 20
0.0000000000001137
 30
0.0
 40
1.75
  0
POLYLINE
  5
D65
  8
3
 66
     1
 10
0.0
 20
0.0
 30
0.0
  0
VERTEX
  5
3EEB
  8
3
 10
236.0
 20
25.92478480450006
 30
0.0
  0
VERTEX
  5
3EEC
  8
3
 10
236.6321729159
 20
25.86569800519999
 30
0.0
  0
VERTEX
  5
3EED
  8
3
 10
237.1789673764
 20
25.69641760699994
 30
0.0
  0
VERTEX
  5
3EEE
  8
3
 10
237.5665357599
 20
25.43980586579994
 30
0.0
  0
VERTEX
  5
3EEF
  8
3
 10
237.7425348086
 20
25.13051961899998
 30
0.0
  0
VERTEX
  5
3EF0
  8
3
 10
237.6831948756
 20
24.81032968810007
 30
0.0
  0
VERTEX
  5
3EF1
  8
3
 10
237.3965301478
 20
24.5224794976001
 30
0.0
  0
VERTEX
  5
3EF2
  8
3
 10
236.9212562851
 20
24.30584481070002
 30
0.0
  0
VERTEX
  5
3EF3
  8
3
 10
236.3215616562
 20
24.18968334220006
 30
0.0
  0
VERTEX
  5
3EF4
  8
3
 10
235.6784383439
 20
24.18968334220006
 30
0.0
  0
VERTEX
  5
3EF5
  8
3
 10
235.078743715
 20
24.30584481070002
 30
0.0
  0
VERTEX
  5
3EF6
  8
3
 10
234.6034698523
 20
24.5224794976001
 30
0.0
  0
VERTEX
  5
3EF7
  8
3
 10
234.3168051245
 20
24.81032968810007
 30
0.0
  0
VERTEX
  5
3EF8
  8
3
 10
234.2574651915
 20
25.13051961899998
 30
0.0
  0
VERTEX
  5
3EF9
  8
3
 10
234.4334642402
 20
25.43980586579994
 30
0.0
  0
VERTEX
  5
3EFA
  8
3
 10
234.8210326237
 20
25.69641760699994
 30
0.0
  0
VERTEX
  5
3EFB
  8
3
 10
235.3678270842
 20
25.86569800519999
 30
0.0
  0
VERTEX
  5
3EFC
  8
3
 10
236.0
 20
25.92478480450006
 30
0.0
  0
SEQEND
  5
4335
  8
3
  0
POLYLINE
  5
D66
  8
3
 66
     1
 10
0.0
 20
0.0
 30
0.0
  0
VERTEX
  5
3EFD
  8
3
 10
238.3167327435
 20
25.54058975739997
 30
0.0
  0
VERTEX
  5
3EFE
  8
3
 10
238.1912057732
 20
25.16446881140007
 30
0.0
  0
VERTEX
  5
3EFF
  8
3
 10
237.8282276573
 20
24.82910640600005
 30
0.0
  0
VERTEX
  5
3F00
  8
3
 10
237.2671327069
 20
24.57084426150016
 30
0.0
  0
VERTEX
  5
3F01
  8
3
 10
236.5687242661
 20
24.41766908860006
 30
0.0
  0
VERTEX
  5
3F02
  8
3
 10
235.8086857265
 20
24.38617979420007
 30
0.0
  0
VERTEX
  5
3F03
  8
3
 10
235.0693790569
 20
24.47978873170007
 30
0.0
  0
VERTEX
  5
3F04
  8
3
 10
234.4309196065
 20
24.68835192040012
 30
0.0
  0
VERTEX
  5
3F05
  8
3
 10
233.9624943636
 20
24.98926830259995
 30
0.0
  0
VERTEX
  5
3F06
  8
3
 10
233.7148644716
 20
25.34992891910008
 30
0.0
  0
VERTEX
  5
3F07
  8
3
 10
233.7148644716
 20
25.73125059580013
 30
0.0
  0
VERTEX
  5
3F08
  8
3
 10
233.9624943636
 20
26.09191121219999
 30
0.0
  0
VERTEX
  5
3F09
  8
3
 10
234.4309196065
 20
26.39282759440005
 30
0.0
  0
VERTEX
  5
3F0A
  8
3
 10
235.0693790569
 20
26.60139078320015
 30
0.0
  0
VERTEX
  5
3F0B
  8
3
 10
235.8086857265
 20
26.69499972070014
 30
0.0
  0
VERTEX
  5
3F0C
  8
3
 10
236.5687242661
 20
26.66351042620011
 30
0.0
  0
VERTEX
  5
3F0D
  8
3
 10
237.2671327069
 20
26.51033525340006
 30
0.0
  0
VERTEX
  5
3F0E
  8
3
 10
237.8282276573
 20
26.25207310889994
 30
0.0
  0
VERTEX
  5
3F0F
  8
3
 10
238.1912057732
 20
25.91671070350014
 30
0.0
  0
VERTEX
  5
3F10
  8
3
 10
238.3167327435
 20
25.54058975739997
 30
0.0
  0
SEQEND
  5
4334
  8
3
  0
POLYLINE
  5
D67
  8
3
 66
     1
 10
0.0
 20
0.0
 30
0.0
  0
VERTEX
  5
3F11
  8
3
 10
233.945
 20
25.69930384290012
 30
0.0
  0
VERTEX
  5
3F12
  8
3
 10
234.0689316643
 20
26.0507295402
 30
0.0
  0
VERTEX
  5
3F13
  8
3
 10
234.4257786694
 20
26.35976811190005
 30
0.0
  0
VERTEX
  5
3F14
  8
3
 10
234.9725
 20
26.58914494530006
 30
0.0
  0
VERTEX
  5
3F15
  8
3
 10
235.6431529949
 20
26.71119380910011
 30
0.0
  0
VERTEX
  5
3F16
  8
3
 10
236.3568470051
 20
26.71119380910011
 30
0.0
  0
VERTEX
  5
3F17
  8
3
 10
237.0275
 20
26.58914494530006
 30
0.0
  0
VERTEX
  5
3F18
  8
3
 10
237.5742213307
 20
26.35976811190005
 30
0.0
  0
VERTEX
  5
3F19
  8
3
 10
237.9310683358
 20
26.0507295402
 30
0.0
  0
VERTEX
  5
3F1A
  8
3
 10
238.055
 20
25.69930384290012
 30
0.0
  0
VERTEX
  5
3F1B
  8
3
 10
237.9310683358
 20
25.34787814570007
 30
0.0
  0
VERTEX
  5
3F1C
  8
3
 10
237.5742213307
 20
25.03883957400001
 30
0.0
  0
VERTEX
  5
3F1D
  8
3
 10
237.0275
 20
24.80946274049995
 30
0.0
  0
VERTEX
  5
3F1E
  8
3
 10
236.3568470051
 20
24.68741387670013
 30
0.0
  0
VERTEX
  5
3F1F
  8
3
 10
235.6431529949
 20
24.68741387670013
 30
0.0
  0
VERTEX
  5
3F20
  8
3
 10
234.9725
 20
24.80946274049995
 30
0.0
  0
VERTEX
  5
3F21
  8
3
 10
234.4257786694
 20
25.03883957400001
 30
0.0
  0
VERTEX
  5
3F22
  8
3
 10
234.0689316643
 20
25.34787814570007
 30
0.0
  0
VERTEX
  5
3F23
  8
3
 10
233.945
 20
25.69930384290012
 30
0.0
  0
SEQEND
  5
4333
  8
3
  0
POLYLINE
  5
D68
  8
3
 66
     1
 10
0.0
 20
0.0
 30
0.0
  0
VERTEX
  5
3F24
  8
3
 10
233.5
 20
25.96915073759999
 30
0.0
  0
VERTEX
  5
3F25
  8
3
 10
233.6223587093
 20
26.35542198049995
 30
0.0
  0
VERTEX
  5
3F26
  8
3
 10
233.9774575141
 20
26.70388230290007
 30
0.0
  0
VERTEX
  5
3F27
  8
3
 10
234.5305368693
 20
26.98042198049995
 30
0.0
  0
VERTEX
  5
3F28
  8
3
 10
235.2274575141
 20
27.15797138289997
 30
0.0
  0
VERTEX
  5
3F29
  8
3
 10
236.0
 20
27.21915073759999
 30
0.0
  0
VERTEX
  5
3F2A
  8
3
 10
236.772542486
 20
27.15797138289997
 30
0.0
  0
VERTEX
  5
3F2B
  8
3
 10
237.4694631308
 20
26.98042198049995
 30
0.0
  0
VERTEX
  5
3F2C
  8
3
 10
238.022542486
 20
26.70388230290007
 30
0.0
  0
VERTEX
  5
3F2D
  8
3
 10
238.3776412908
 20
26.35542198049995
 30
0.0
  0
VERTEX
  5
3F2E
  8
3
 10
238.5
 20
25.96915073759999
 30
0.0
  0
VERTEX
  5
3F2F
  8
3
 10
238.3776412908
 20
25.58287949459998
 30
0.0
  0
VERTEX
  5
3F30
  8
3
 10
238.022542486
 20
25.23441917220009
 30
0.0
  0
VERTEX
  5
3F31
  8
3
 10
237.4694631308
 20
24.95787949459998
 30
0.0
  0
VERTEX
  5
3F32
  8
3
 10
236.772542486
 20
24.78033009219996
 30
0.0
  0
VERTEX
  5
3F33
  8
3
 10
236.0
 20
24.71915073759999
 30
0.0
  0
VERTEX
  5
3F34
  8
3
 10
235.2274575141
 20
24.78033009219996
 30
0.0
  0
VERTEX
  5
3F35
  8
3
 10
234.5305368693
 20
24.95787949459998
 30
0.0
  0
VERTEX
  5
3F36
  8
3
 10
233.9774575141
 20
25.23441917220009
 30
0.0
  0
VERTEX
  5
3F37
  8
3
 10
233.6223587093
 20
25.58287949459998
 30
0.0
  0
VERTEX
  5
3F38
  8
3
 10
233.5
 20
25.96915073759999
 30
0.0
  0
SEQEND
  5
4332
  8
3
  0
POLYLINE
  5
D69
  8
3
 66
     1
 10
0.0
 20
0.0
 30
0.0
  0
VERTEX
  5
3F39
  8
3
 10
233.5
 20
26.04719028889997
 30
0.0
  0
VERTEX
  5
3F3A
  8
3
 10
233.6223587093
 20
26.43346153189998
 30
0.0
  0
VERTEX
  5
3F3B
  8
3
 10
233.9774575141
 20
26.78192185430009
 30
0.0
  0
VERTEX
  5
3F3C
  8
3
 10
234.5305368693
 20
27.05846153189998
 30
0.0
  0
VERTEX
  5
3F3D
  8
3
 10
235.2274575141
 20
27.2360109343
 30
0.0
  0
VERTEX
  5
3F3E
  8
3
 10
236.0
 20
27.29719028889997
 30
0.0
  0
VERTEX
  5
3F3F
  8
3
 10
236.772542486
 20
27.2360109343
 30
0.0
  0
VERTEX
  5
3F40
  8
3
 10
237.4694631308
 20
27.05846153189998
 30
0.0
  0
VERTEX
  5
3F41
  8
3
 10
238.022542486
 20
26.78192185430009
 30
0.0
  0
VERTEX
  5
3F42
  8
3
 10
238.3776412908
 20
26.43346153189998
 30
0.0
  0
VERTEX
  5
3F43
  8
3
 10
238.5
 20
26.04719028889997
 30
0.0
  0
VERTEX
  5
3F44
  8
3
 10
238.3776412908
 20
25.66091904589996
 30
0.0
  0
VERTEX
  5
3F45
  8
3
 10
238.022542486
 20
25.31245872350007
 30
0.0
  0
VERTEX
  5
3F46
  8
3
 10
237.4694631308
 20
25.03591904589996
 30
0.0
  0
VERTEX
  5
3F47
  8
3
 10
236.772542486
 20
24.85836964349994
 30
0.0
  0
VERTEX
  5
3F48
  8
3
 10
236.0
 20
24.79719028889997
 30
0.0
  0
VERTEX
  5
3F49
  8
3
 10
235.2274575141
 20
24.85836964349994
 30
0.0
  0
VERTEX
  5
3F4A
  8
3
 10
234.5305368693
 20
25.03591904589996
 30
0.0
  0
VERTEX
  5
3F4B
  8
3
 10
233.9774575141
 20
25.31245872350007
 30
0.0
  0
VERTEX
  5
3F4C
  8
3
 10
233.6223587093
 20
25.66091904589996
 30
0.0
  0
VERTEX
  5
3F4D
  8
3
 10
233.5
 20
26.04719028889997
 30
0.0
  0
SEQEND
  5
4331
  8
3
  0
POLYLINE
  5
D6A
  8
3
 66
     1
 10
0.0
 20
0.0
 30
0.0
  0
VERTEX
  5
3F4E
  8
3
 10
233.9450000001
 20
26.31703718350002
 30
0.0
  0
VERTEX
  5
3F4F
  8
3
 10
234.0689316643
 20
26.66846288080012
 30
0.0
  0
VERTEX
  5
3F50
  8
3
 10
234.4257786694
 20
26.97750145249995
 30
0.0
  0
VERTEX
  5
3F51
  8
3
 10
234.9725000001
 20
27.20687828589996
 30
0.0
  0
VERTEX
  5
3F52
  8
3
 10
235.6431529949
 20
27.32892714980005
 30
0.0
  0
VERTEX
  5
3F53
  8
3
 10
236.3568470052
 20
27.32892714980005
 30
0.0
  0
VERTEX
  5
3F54
  8
3
 10
237.0275000001
 20
27.20687828589996
 30
0.0
  0
VERTEX
  5
3F55
  8
3
 10
237.5742213307
 20
26.97750145249995
 30
0.0
  0
VERTEX
  5
3F56
  8
3
 10
237.9310683358
 20
26.66846288080012
 30
0.0
  0
VERTEX
  5
3F57
  8
3
 10
238.0550000001
 20
26.31703718350002
 30
0.0
  0
VERTEX
  5
3F58
  8
3
 10
237.9310683358
 20
25.96561148629996
 30
0.0
  0
VERTEX
  5
3F59
  8
3
 10
237.5742213307
 20
25.65657291460013
 30
0.0
  0
VERTEX
  5
3F5A
  8
3
 10
237.0275000001
 20
25.42719608110008
 30
0.0
  0
VERTEX
  5
3F5B
  8
3
 10
236.3568470052
 20
25.30514721730003
 30
0.0
  0
VERTEX
  5
3F5C
  8
3
 10
235.6431529949
 20
25.30514721730003
 30
0.0
  0
VERTEX
  5
3F5D
  8
3
 10
234.9725000001
 20
25.42719608110008
 30
0.0
  0
VERTEX
  5
3F5E
  8
3
 10
234.4257786694
 20
25.65657291460013
 30
0.0
  0
VERTEX
  5
3F5F
  8
3
 10
234.0689316643
 20
25.96561148629996
 30
0.0
  0
VERTEX
  5
3F60
  8
3
 10
233.9450000001
 20
26.31703718350002
 30
0.0
  0
SEQEND
  5
4330
  8
3
  0
POLYLINE
  5
D6B
  8
3
 66
     1
 10
0.0
 20
0.0
 30
0.0
  0
VERTEX
  5
3F61
  8
3
 10
233.5
 20
26.58688407820011
 30
0.0
  0
VERTEX
  5
3F62
  8
3
 10
233.6223587093
 20
26.97315532110008
 30
0.0
  0
VERTEX
  5
3F63
  8
3
 10
233.9774575141
 20
27.32161564349997
 30
0.0
  0
VERTEX
  5
3F64
  8
3
 10
234.5305368693
 20
27.59815532110008
 30
0.0
  0
VERTEX
  5
3F65
  8
3
 10
235.2274575141
 20
27.7757047235001
 30
0.0
  0
VERTEX
  5
3F66
  8
3
 10
236.0
 20
27.83688407820011
 30
0.0
  0
VERTEX
  5
3F67
  8
3
 10
236.772542486
 20
27.7757047235001
 30
0.0
  0
VERTEX
  5
3F68
  8
3
 10
237.4694631308
 20
27.59815532110008
 30
0.0
  0
VERTEX
  5
3F69
  8
3
 10
238.022542486
 20
27.32161564349997
 30
0.0
  0
VERTEX
  5
3F6A
  8
3
 10
238.3776412908
 20
26.97315532110008
 30
0.0
  0
VERTEX
  5
3F6B
  8
3
 10
238.5
 20
26.58688407820011
 30
0.0
  0
VERTEX
  5
3F6C
  8
3
 10
238.3776412908
 20
26.2006128352001
 30
0.0
  0
VERTEX
  5
3F6D
  8
3
 10
238.022542486
 20
25.85215251279999
 30
0.0
  0
VERTEX
  5
3F6E
  8
3
 10
237.4694631308
 20
25.5756128352001
 30
0.0
  0
VERTEX
  5
3F6F
  8
3
 10
236.772542486
 20
25.39806343280009
 30
0.0
  0
VERTEX
  5
3F70
  8
3
 10
236.0
 20
25.33688407820011
 30
0.0
  0
VERTEX
  5
3F71
  8
3
 10
235.2274575141
 20
25.39806343280009
 30
0.0
  0
VERTEX
  5
3F72
  8
3
 10
234.5305368693
 20
25.5756128352001
 30
0.0
  0
VERTEX
  5
3F73
  8
3
 10
233.9774575141
 20
25.85215251279999
 30
0.0
  0
VERTEX
  5
3F74
  8
3
 10
233.6223587093
 20
26.2006128352001
 30
0.0
  0
VERTEX
  5
3F75
  8
3
 10
233.5
 20
26.58688407820011
 30
0.0
  0
SEQEND
  5
432F
  8
3
  0
POLYLINE
  5
D6C
  8
3
 66
     1
 10
0.0
 20
0.0
 30
0.0
  0
VERTEX
  5
3F76
  8
3
 10
233.5
 20
26.66492362950009
 30
0.0
  0
VERTEX
  5
3F77
  8
3
 10
233.6223587093
 20
27.0511948725001
 30
0.0
  0
VERTEX
  5
3F78
  8
3
 10
233.9774575141
 20
27.39965519489999
 30
0.0
  0
VERTEX
  5
3F79
  8
3
 10
234.5305368693
 20
27.6761948725001
 30
0.0
  0
VERTEX
  5
3F7A
  8
3
 10
235.2274575141
 20
27.85374427490012
 30
0.0
  0
VERTEX
  5
3F7B
  8
3
 10
236.0
 20
27.91492362950009
 30
0.0
  0
VERTEX
  5
3F7C
  8
3
 10
236.772542486
 20
27.85374427490012
 30
0.0
  0
VERTEX
  5
3F7D
  8
3
 10
237.4694631308
 20
27.6761948725001
 30
0.0
  0
VERTEX
  5
3F7E
  8
3
 10
238.022542486
 20
27.39965519489999
 30
0.0
  0
VERTEX
  5
3F7F
  8
3
 10
238.3776412908
 20
27.0511948725001
 30
0.0
  0
VERTEX
  5
3F80
  8
3
 10
238.5
 20
26.66492362950009
 30
0.0
  0
VERTEX
  5
3F81
  8
3
 10
238.3776412908
 20
26.27865238650008
 30
0.0
  0
VERTEX
  5
3F82
  8
3
 10
238.022542486
 20
25.93019206409997
 30
0.0
  0
VERTEX
  5
3F83
  8
3
 10
237.4694631308
 20
25.65365238650008
 30
0.0
  0
VERTEX
  5
3F84
  8
3
 10
236.772542486
 20
25.47610298410007
 30
0.0
  0
VERTEX
  5
3F85
  8
3
 10
236.0
 20
25.41492362950009
 30
0.0
  0
VERTEX
  5
3F86
  8
3
 10
235.2274575141
 20
25.47610298410007
 30
0.0
  0
VERTEX
  5
3F87
  8
3
 10
234.5305368693
 20
25.65365238650008
 30
0.0
  0
VERTEX
  5
3F88
  8
3
 10
233.9774575141
 20
25.93019206409997
 30
0.0
  0
VERTEX
  5
3F89
  8
3
 10
233.6223587093
 20
26.27865238650008
 30
0.0
  0
VERTEX
  5
3F8A
  8
3
 10
233.5
 20
26.66492362950009
 30
0.0
  0
SEQEND
  5
432E
  8
3
  0
POLYLINE
  5
D6D
  8
3
 66
     1
 10
0.0
 20
0.0
 30
0.0
  0
VERTEX
  5
3F8B
  8
3
 10
233.945
 20
26.93477052410014
 30
0.0
  0
VERTEX
  5
3F8C
  8
3
 10
234.0689316643
 20
27.28619622140002
 30
0.0
  0
VERTEX
  5
3F8D
  8
3
 10
234.4257786694
 20
27.59523479310008
 30
0.0
  0
VERTEX
  5
3F8E
  8
3
 10
234.9725
 20
27.82461162650009
 30
0.0
  0
VERTEX
  5
3F8F
  8
3
 10
235.6431529949
 20
27.94666049039995
 30
0.0
  0
VERTEX
  5
3F90
  8
3
 10
236.3568470052
 20
27.94666049039995
 30
0.0
  0
VERTEX
  5
3F91
  8
3
 10
237.0275
 20
27.82461162650009
 30
0.0
  0
VERTEX
  5
3F92
  8
3
 10
237.5742213307
 20
27.59523479310008
 30
0.0
  0
VERTEX
  5
3F93
  8
3
 10
237.9310683358
 20
27.28619622140002
 30
0.0
  0
VERTEX
  5
3F94
  8
3
 10
238.055
 20
26.93477052410014
 30
0.0
  0
VERTEX
  5
3F95
  8
3
 10
237.9310683358
 20
26.58334482690009
 30
0.0
  0
VERTEX
  5
3F96
  8
3
 10
237.5742213307
 20
26.27430625520003
 30
0.0
  0
VERTEX
  5
3F97
  8
3
 10
237.0275
 20
26.04492942169998
 30
0.0
  0
VERTEX
  5
3F98
  8
3
 10
236.3568470052
 20
25.92288055789993
 30
0.0
  0
VERTEX
  5
3F99
  8
3
 10
235.6431529949
 20
25.92288055789993
 30
0.0
  0
VERTEX
  5
3F9A
  8
3
 10
234.9725
 20
26.04492942169998
 30
0.0
  0
VERTEX
  5
3F9B
  8
3
 10
234.4257786694
 20
26.27430625520003
 30
0.0
  0
VERTEX
  5
3F9C
  8
3
 10
234.0689316643
 20
26.58334482690009
 30
0.0
  0
VERTEX
  5
3F9D
  8
3
 10
233.945
 20
26.93477052410014
 30
0.0
  0
SEQEND
  5
432D
  8
3
  0
POLYLINE
  5
D6E
  8
3
 66
     1
 10
0.0
 20
0.0
 30
0.0
  0
VERTEX
  5
3F9E
  8
3
 10
233.5
 20
27.20461741880001
 30
0.0
  0
VERTEX
  5
3F9F
  8
3
 10
233.6223587093
 20
27.59088866169998
 30
0.0
  0
VERTEX
  5
3FA0
  8
3
 10
233.9774575141
 20
27.93934898410009
 30
0.0
  0
VERTEX
  5
3FA1
  8
3
 10
234.5305368693
 20
28.21588866169998
 30
0.0
  0
VERTEX
  5
3FA2
  8
3
 10
235.2274575141
 20
28.3934380641
 30
0.0
  0
VERTEX
  5
3FA3
  8
3
 10
236.0
 20
28.45461741880001
 30
0.0
  0
VERTEX
  5
3FA4
  8
3
 10
236.772542486
 20
28.3934380641
 30
0.0
  0
VERTEX
  5
3FA5
  8
3
 10
237.4694631308
 20
28.21588866169998
 30
0.0
  0
VERTEX
  5
3FA6
  8
3
 10
238.022542486
 20
27.93934898410009
 30
0.0
  0
VERTEX
  5
3FA7
  8
3
 10
238.3776412908
 20
27.59088866169998
 30
0.0
  0
VERTEX
  5
3FA8
  8
3
 10
238.5
 20
27.20461741880001
 30
0.0
  0
VERTEX
  5
3FA9
  8
3
 10
238.3776412908
 20
26.8183461758
 30
0.0
  0
VERTEX
  5
3FAA
  8
3
 10
238.022542486
 20
26.46988585340011
 30
0.0
  0
VERTEX
  5
3FAB
  8
3
 10
237.4694631308
 20
26.1933461758
 30
0.0
  0
VERTEX
  5
3FAC
  8
3
 10
236.772542486
 20
26.01579677339998
 30
0.0
  0
VERTEX
  5
3FAD
  8
3
 10
236.0
 20
25.95461741880001
 30
0.0
  0
VERTEX
  5
3FAE
  8
3
 10
235.2274575141
 20
26.01579677339998
 30
0.0
  0
VERTEX
  5
3FAF
  8
3
 10
234.5305368693
 20
26.1933461758
 30
0.0
  0
VERTEX
  5
3FB0
  8
3
 10
233.9774575141
 20
26.46988585340011
 30
0.0
  0
VERTEX
  5
3FB1
  8
3
 10
233.6223587093
 20
26.8183461758
 30
0.0
  0
VERTEX
  5
3FB2
  8
3
 10
233.5
 20
27.20461741880001
 30
0.0
  0
SEQEND
  5
432C
  8
3
  0
POLYLINE
  5
D6F
  8
3
 66
     1
 10
0.0
 20
0.0
 30
0.0
  0
VERTEX
  5
3FB3
  8
3
 10
233.5
 20
27.28265697009999
 30
0.0
  0
VERTEX
  5
3FB4
  8
3
 10
233.6223587093
 20
27.6689282131
 30
0.0
  0
VERTEX
  5
3FB5
  8
3
 10
233.9774575141
 20
28.01738853550012
 30
0.0
  0
VERTEX
  5
3FB6
  8
3
 10
234.5305368693
 20
28.2939282131
 30
0.0
  0
VERTEX
  5
3FB7
  8
3
 10
235.2274575141
 20
28.47147761550002
 30
0.0
  0
VERTEX
  5
3FB8
  8
3
 10
236.0
 20
28.53265697009999
 30
0.0
  0
VERTEX
  5
3FB9
  8
3
 10
236.772542486
 20
28.47147761550002
 30
0.0
  0
VERTEX
  5
3FBA
  8
3
 10
237.4694631308
 20
28.2939282131
 30
0.0
  0
VERTEX
  5
3FBB
  8
3
 10
238.022542486
 20
28.01738853550012
 30
0.0
  0
VERTEX
  5
3FBC
  8
3
 10
238.3776412908
 20
27.6689282131
 30
0.0
  0
VERTEX
  5
3FBD
  8
3
 10
238.5
 20
27.28265697009999
 30
0.0
  0
VERTEX
  5
3FBE
  8
3
 10
238.3776412908
 20
26.89638572709998
 30
0.0
  0
VERTEX
  5
3FBF
  8
3
 10
238.022542486
 20
26.54792540470009
 30
0.0
  0
VERTEX
  5
3FC0
  8
3
 10
237.4694631308
 20
26.27138572709998
 30
0.0
  0
VERTEX
  5
3FC1
  8
3
 10
236.772542486
 20
26.09383632469996
 30
0.0
  0
VERTEX
  5
3FC2
  8
3
 10
236.0
 20
26.03265697009999
 30
0.0
  0
VERTEX
  5
3FC3
  8
3
 10
235.2274575141
 20
26.09383632469996
 30
0.0
  0
VERTEX
  5
3FC4
  8
3
 10
234.5305368693
 20
26.27138572709998
 30
0.0
  0
VERTEX
  5
3FC5
  8
3
 10
233.9774575141
 20
26.54792540470009
 30
0.0
  0
VERTEX
  5
3FC6
  8
3
 10
233.6223587093
 20
26.89638572709998
 30
0.0
  0
VERTEX
  5
3FC7
  8
3
 10
233.5
 20
27.28265697009999
 30
0.0
  0
SEQEND
  5
432B
  8
3
  0
POLYLINE
  5
D70
  8
3
 66
     1
 10
0.0
 20
0.0
 30
0.0
  0
VERTEX
  5
3FC8
  8
3
 10
233.945
 20
27.55250386470004
 30
0.0
  0
VERTEX
  5
3FC9
  8
3
 10
234.0689316643
 20
27.90392956200014
 30
0.0
  0
VERTEX
  5
3FCA
  8
3
 10
234.4257786694
 20
28.21296813369997
 30
0.0
  0
VERTEX
  5
3FCB
  8
3
 10
234.9725
 20
28.44234496709998
 30
0.0
  0
VERTEX
  5
3FCC
  8
3
 10
235.6431529949
 20
28.56439383100007
 30
0.0
  0
VERTEX
  5
3FCD
  8
3
 10
236.3568470051
 20
28.56439383100007
 30
0.0
  0
VERTEX
  5
3FCE
  8
3
 10
237.0275
 20
28.44234496709998
 30
0.0
  0
VERTEX
  5
3FCF
  8
3
 10
237.5742213307
 20
28.21296813369997
 30
0.0
  0
VERTEX
  5
3FD0
  8
3
 10
237.9310683358
 20
27.90392956200014
 30
0.0
  0
VERTEX
  5
3FD1
  8
3
 10
238.055
 20
27.55250386470004
 30
0.0
  0
VERTEX
  5
3FD2
  8
3
 10
237.9310683358
 20
27.20107816749999
 30
0.0
  0
VERTEX
  5
3FD3
  8
3
 10
237.5742213307
 20
26.89203959579993
 30
0.0
  0
VERTEX
  5
3FD4
  8
3
 10
237.0275
 20
26.66266276240015
 30
0.0
  0
VERTEX
  5
3FD5
  8
3
 10
236.3568470051
 20
26.54061389850006
 30
0.0
  0
VERTEX
  5
3FD6
  8
3
 10
235.6431529949
 20
26.54061389850006
 30
0.0
  0
VERTEX
  5
3FD7
  8
3
 10
234.9725
 20
26.66266276240015
 30
0.0
  0
VERTEX
  5
3FD8
  8
3
 10
234.4257786694
 20
26.89203959579993
 30
0.0
  0
VERTEX
  5
3FD9
  8
3
 10
234.0689316643
 20
27.20107816749999
 30
0.0
  0
VERTEX
  5
3FDA
  8
3
 10
233.945
 20
27.55250386470004
 30
0.0
  0
SEQEND
  5
432A
  8
3
  0
POLYLINE
  5
D71
  8
3
 66
     1
 10
0.0
 20
0.0
 30
0.0
  0
VERTEX
  5
3FDB
  8
3
 10
233.5
 20
27.82235075940014
 30
0.0
  0
VERTEX
  5
3FDC
  8
3
 10
233.6223587093
 20
28.2086220023001
 30
0.0
  0
VERTEX
  5
3FDD
  8
3
 10
233.9774575141
 20
28.55708232469999
 30
0.0
  0
VERTEX
  5
3FDE
  8
3
 10
234.5305368693
 20
28.8336220023001
 30
0.0
  0
VERTEX
  5
3FDF
  8
3
 10
235.2274575141
 20
29.01117140470012
 30
0.0
  0
VERTEX
  5
3FE0
  8
3
 10
236.0
 20
29.07235075940014
 30
0.0
  0
VERTEX
  5
3FE1
  8
3
 10
236.772542486
 20
29.01117140470012
 30
0.0
  0
VERTEX
  5
3FE2
  8
3
 10
237.4694631308
 20
28.8336220023001
 30
0.0
  0
VERTEX
  5
3FE3
  8
3
 10
238.022542486
 20
28.55708232469999
 30
0.0
  0
VERTEX
  5
3FE4
  8
3
 10
238.3776412908
 20
28.2086220023001
 30
0.0
  0
VERTEX
  5
3FE5
  8
3
 10
238.5
 20
27.82235075940014
 30
0.0
  0
VERTEX
  5
3FE6
  8
3
 10
238.3776412908
 20
27.43607951640013
 30
0.0
  0
VERTEX
  5
3FE7
  8
3
 10
238.022542486
 20
27.08761919400001
 30
0.0
  0
VERTEX
  5
3FE8
  8
3
 10
237.4694631308
 20
26.81107951640013
 30
0.0
  0
VERTEX
  5
3FE9
  8
3
 10
236.772542486
 20
26.63353011400011
 30
0.0
  0
VERTEX
  5
3FEA
  8
3
 10
236.0
 20
26.57235075940014
 30
0.0
  0
VERTEX
  5
3FEB
  8
3
 10
235.2274575141
 20
26.63353011400011
 30
0.0
  0
VERTEX
  5
3FEC
  8
3
 10
234.5305368693
 20
26.81107951640013
 30
0.0
  0
VERTEX
  5
3FED
  8
3
 10
233.9774575141
 20
27.08761919400001
 30
0.0
  0
VERTEX
  5
3FEE
  8
3
 10
233.6223587093
 20
27.43607951640013
 30
0.0
  0
VERTEX
  5
3FEF
  8
3
 10
233.5
 20
27.82235075940014
 30
0.0
  0
SEQEND
  5
4329
  8
3
  0
POLYLINE
  5
D72
  8
3
 66
     1
 10
0.0
 20
0.0
 30
0.0
  0
VERTEX
  5
3FF0
  8
3
 10
233.5
 20
27.90039031070012
 30
0.0
  0
VERTEX
  5
3FF1
  8
3
 10
233.6223587093
 20
28.28666155370013
 30
0.0
  0
VERTEX
  5
3FF2
  8
3
 10
233.9774575141
 20
28.63512187610002
 30
0.0
  0
VERTEX
  5
3FF3
  8
3
 10
234.5305368693
 20
28.91166155370013
 30
0.0
  0
VERTEX
  5
3FF4
  8
3
 10
235.2274575141
 20
29.08921095610015
 30
0.0
  0
VERTEX
  5
3FF5
  8
3
 10
236.0
 20
29.15039031070012
 30
0.0
  0
VERTEX
  5
3FF6
  8
3
 10
236.772542486
 20
29.08921095610015
 30
0.0
  0
VERTEX
  5
3FF7
  8
3
 10
237.4694631308
 20
28.91166155370013
 30
0.0
  0
VERTEX
  5
3FF8
  8
3
 10
238.022542486
 20
28.63512187610002
 30
0.0
  0
VERTEX
  5
3FF9
  8
3
 10
238.3776412908
 20
28.28666155370013
 30
0.0
  0
VERTEX
  5
3FFA
  8
3
 10
238.5
 20
27.90039031070012
 30
0.0
  0
VERTEX
  5
3FFB
  8
3
 10
238.3776412908
 20
27.51411906780015
 30
0.0
  0
VERTEX
  5
3FFC
  8
3
 10
238.022542486
 20
27.16565874540004
 30
0.0
  0
VERTEX
  5
3FFD
  8
3
 10
237.4694631308
 20
26.88911906780015
 30
0.0
  0
VERTEX
  5
3FFE
  8
3
 10
236.772542486
 20
26.71156966540013
 30
0.0
  0
VERTEX
  5
3FFF
  8
3
 10
236.0
 20
26.65039031070012
 30
0.0
  0
VERTEX
  5
4000
  8
3
 10
235.2274575141
 20
26.71156966540013
 30
0.0
  0
VERTEX
  5
4001
  8
3
 10
234.5305368693
 20
26.88911906780015
 30
0.0
  0
VERTEX
  5
4002
  8
3
 10
233.9774575141
 20
27.16565874540004
 30
0.0
  0
VERTEX
  5
4003
  8
3
 10
233.6223587093
 20
27.51411906780015
 30
0.0
  0
VERTEX
  5
4004
  8
3
 10
233.5
 20
27.90039031070012
 30
0.0
  0
SEQEND
  5
4328
  8
3
  0
POLYLINE
  5
D73
  8
3
 66
     1
 10
0.0
 20
0.0
 30
0.0
  0
VERTEX
  5
4005
  8
3
 10
233.945
 20
28.17023720529994
 30
0.0
  0
VERTEX
  5
4006
  8
3
 10
234.0689316643
 20
28.52166290260004
 30
0.0
  0
VERTEX
  5
4007
  8
3
 10
234.4257786694
 20
28.8307014743001
 30
0.0
  0
VERTEX
  5
4008
  8
3
 10
234.9725
 20
29.06007830770011
 30
0.0
  0
VERTEX
  5
4009
  8
3
 10
235.6431529949
 20
29.18212717159997
 30
0.0
  0
VERTEX
  5
400A
  8
3
 10
236.3568470051
 20
29.18212717159997
 30
0.0
  0
VERTEX
  5
400B
  8
3
 10
237.0275
 20
29.06007830770011
 30
0.0
  0
VERTEX
  5
400C
  8
3
 10
237.5742213306
 20
28.8307014743001
 30
0.0
  0
VERTEX
  5
400D
  8
3
 10
237.9310683358
 20
28.52166290260004
 30
0.0
  0
VERTEX
  5
400E
  8
3
 10
238.055
 20
28.17023720529994
 30
0.0
  0
VERTEX
  5
400F
  8
3
 10
237.9310683358
 20
27.81881150810011
 30
0.0
  0
VERTEX
  5
4010
  8
3
 10
237.5742213306
 20
27.50977293640005
 30
0.0
  0
VERTEX
  5
4011
  8
3
 10
237.0275
 20
27.28039610300004
 30
0.0
  0
VERTEX
  5
4012
  8
3
 10
236.3568470051
 20
27.15834723909995
 30
0.0
  0
VERTEX
  5
4013
  8
3
 10
235.6431529949
 20
27.15834723909995
 30
0.0
  0
VERTEX
  5
4014
  8
3
 10
234.9725
 20
27.28039610300004
 30
0.0
  0
VERTEX
  5
4015
  8
3
 10
234.4257786694
 20
27.50977293640005
 30
0.0
  0
VERTEX
  5
4016
  8
3
 10
234.0689316643
 20
27.81881150810011
 30
0.0
  0
VERTEX
  5
4017
  8
3
 10
233.945
 20
28.17023720529994
 30
0.0
  0
SEQEND
  5
4327
  8
3
  0
POLYLINE
  5
D74
  8
3
 66
     1
 10
0.0
 20
0.0
 30
0.0
  0
VERTEX
  5
4018
  8
3
 10
233.5
 20
28.44008410000004
 30
0.0
  0
VERTEX
  5
4019
  8
3
 10
233.6223587093
 20
28.8263553429
 30
0.0
  0
VERTEX
  5
401A
  8
3
 10
233.9774575141
 20
29.17481566530012
 30
0.0
  0
VERTEX
  5
401B
  8
3
 10
234.5305368693
 20
29.4513553429
 30
0.0
  0
VERTEX
  5
401C
  8
3
 10
235.2274575141
 20
29.62890474530002
 30
0.0
  0
VERTEX
  5
401D
  8
3
 10
236.0
 20
29.69008410000004
 30
0.0
  0
VERTEX
  5
401E
  8
3
 10
236.772542486
 20
29.62890474530002
 30
0.0
  0
VERTEX
  5
401F
  8
3
 10
237.4694631308
 20
29.4513553429
 30
0.0
  0
VERTEX
  5
4020
  8
3
 10
238.022542486
 20
29.17481566530012
 30
0.0
  0
VERTEX
  5
4021
  8
3
 10
238.3776412908
 20
28.8263553429
 30
0.0
  0
VERTEX
  5
4022
  8
3
 10
238.5
 20
28.44008410000004
 30
0.0
  0
VERTEX
  5
4023
  8
3
 10
238.3776412908
 20
28.05381285700003
 30
0.0
  0
VERTEX
  5
4024
  8
3
 10
238.022542486
 20
27.70535253460014
 30
0.0
  0
VERTEX
  5
4025
  8
3
 10
237.4694631308
 20
27.42881285700003
 30
0.0
  0
VERTEX
  5
4026
  8
3
 10
236.772542486
 20
27.25126345460001
 30
0.0
  0
VERTEX
  5
4027
  8
3
 10
236.0
 20
27.19008410000004
 30
0.0
  0
VERTEX
  5
4028
  8
3
 10
235.2274575141
 20
27.25126345460001
 30
0.0
  0
VERTEX
  5
4029
  8
3
 10
234.5305368693
 20
27.42881285700003
 30
0.0
  0
VERTEX
  5
402A
  8
3
 10
233.9774575141
 20
27.70535253460014
 30
0.0
  0
VERTEX
  5
402B
  8
3
 10
233.6223587093
 20
28.05381285700003
 30
0.0
  0
VERTEX
  5
402C
  8
3
 10
233.5
 20
28.44008410000004
 30
0.0
  0
SEQEND
  5
4326
  8
3
  0
POLYLINE
  5
D75
  8
3
 66
     1
 10
0.0
 20
0.0
 30
0.0
  0
VERTEX
  5
402D
  8
3
 10
233.5
 20
28.51812365130002
 30
0.0
  0
VERTEX
  5
402E
  8
3
 10
233.6223587093
 20
28.90439489430003
 30
0.0
  0
VERTEX
  5
402F
  8
3
 10
233.9774575141
 20
29.25285521670014
 30
0.0
  0
VERTEX
  5
4030
  8
3
 10
234.5305368693
 20
29.52939489430003
 30
0.0
  0
VERTEX
  5
4031
  8
3
 10
235.2274575141
 20
29.70694429670004
 30
0.0
  0
VERTEX
  5
4032
  8
3
 10
236.0
 20
29.76812365130002
 30
0.0
  0
VERTEX
  5
4033
  8
3
 10
236.772542486
 20
29.70694429670004
 30
0.0
  0
VERTEX
  5
4034
  8
3
 10
237.4694631308
 20
29.52939489430003
 30
0.0
  0
VERTEX
  5
4035
  8
3
 10
238.022542486
 20
29.25285521670014
 30
0.0
  0
VERTEX
  5
4036
  8
3
 10
238.3776412908
 20
28.90439489430003
 30
0.0
  0
VERTEX
  5
4037
  8
3
 10
238.5
 20
28.51812365130002
 30
0.0
  0
VERTEX
  5
4038
  8
3
 10
238.3776412908
 20
28.13185240840005
 30
0.0
  0
VERTEX
  5
4039
  8
3
 10
238.022542486
 20
27.78339208599994
 30
0.0
  0
VERTEX
  5
403A
  8
3
 10
237.4694631308
 20
27.50685240840005
 30
0.0
  0
VERTEX
  5
403B
  8
3
 10
236.772542486
 20
27.32930300600003
 30
0.0
  0
VERTEX
  5
403C
  8
3
 10
236.0
 20
27.26812365130002
 30
0.0
  0
VERTEX
  5
403D
  8
3
 10
235.2274575141
 20
27.32930300600003
 30
0.0
  0
VERTEX
  5
403E
  8
3
 10
234.5305368693
 20
27.50685240840005
 30
0.0
  0
VERTEX
  5
403F
  8
3
 10
233.9774575141
 20
27.78339208599994
 30
0.0
  0
VERTEX
  5
4040
  8
3
 10
233.6223587093
 20
28.13185240840005
 30
0.0
  0
VERTEX
  5
4041
  8
3
 10
233.5
 20
28.51812365130002
 30
0.0
  0
SEQEND
  5
4325
  8
3
  0
POLYLINE
  5
D76
  8
3
 66
     1
 10
0.0
 20
0.0
 30
0.0
  0
VERTEX
  5
4042
  8
3
 10
233.945
 20
28.78797054590007
 30
0.0
  0
VERTEX
  5
4043
  8
3
 10
234.0689316643
 20
29.13939624319994
 30
0.0
  0
VERTEX
  5
4044
  8
3
 10
234.4257786694
 20
29.4484348149
 30
0.0
  0
VERTEX
  5
4045
  8
3
 10
234.9725
 20
29.67781164830001
 30
0.0
  0
VERTEX
  5
4046
  8
3
 10
235.6431529949
 20
29.7998605122001
 30
0.0
  0
VERTEX
  5
4047
  8
3
 10
236.3568470051
 20
29.7998605122001
 30
0.0
  0
VERTEX
  5
4048
  8
3
 10
237.0275
 20
29.67781164830001
 30
0.0
  0
VERTEX
  5
4049
  8
3
 10
237.5742213306
 20
29.4484348149
 30
0.0
  0
VERTEX
  5
404A
  8
3
 10
237.9310683358
 20
29.13939624319994
 30
0.0
  0
VERTEX
  5
404B
  8
3
 10
238.055
 20
28.78797054590007
 30
0.0
  0
VERTEX
  5
404C
  8
3
 10
237.9310683358
 20
28.43654484870001
 30
0.0
  0
VERTEX
  5
404D
  8
3
 10
237.5742213306
 20
28.12750627699995
 30
0.0
  0
VERTEX
  5
404E
  8
3
 10
237.0275
 20
27.89812944359994
 30
0.0
  0
VERTEX
  5
404F
  8
3
 10
236.3568470051
 20
27.77608057970008
 30
0.0
  0
VERTEX
  5
4050
  8
3
 10
235.6431529949
 20
27.77608057970008
 30
0.0
  0
VERTEX
  5
4051
  8
3
 10
234.9725
 20
27.89812944359994
 30
0.0
  0
VERTEX
  5
4052
  8
3
 10
234.4257786694
 20
28.12750627699995
 30
0.0
  0
VERTEX
  5
4053
  8
3
 10
234.0689316643
 20
28.43654484870001
 30
0.0
  0
VERTEX
  5
4054
  8
3
 10
233.945
 20
28.78797054590007
 30
0.0
  0
SEQEND
  5
4324
  8
3
  0
POLYLINE
  5
D77
  8
3
 66
     1
 10
0.0
 20
0.0
 30
0.0
  0
VERTEX
  5
4055
  8
3
 10
233.5
 20
29.05781744059993
 30
0.0
  0
VERTEX
  5
4056
  8
3
 10
233.6223587093
 20
29.44408868350013
 30
0.0
  0
VERTEX
  5
4057
  8
3
 10
233.9774575141
 20
29.79254900590001
 30
0.0
  0
VERTEX
  5
4058
  8
3
 10
234.5305368693
 20
30.06908868350013
 30
0.0
  0
VERTEX
  5
4059
  8
3
 10
235.2274575141
 20
30.24663808590014
 30
0.0
  0
VERTEX
  5
405A
  8
3
 10
236.0
 20
30.30781744059993
 30
0.0
  0
VERTEX
  5
405B
  8
3
 10
236.772542486
 20
30.24663808590014
 30
0.0
  0
VERTEX
  5
405C
  8
3
 10
237.4694631308
 20
30.06908868350013
 30
0.0
  0
VERTEX
  5
405D
  8
3
 10
238.022542486
 20
29.79254900590001
 30
0.0
  0
VERTEX
  5
405E
  8
3
 10
238.3776412908
 20
29.44408868350013
 30
0.0
  0
VERTEX
  5
405F
  8
3
 10
238.5
 20
29.05781744059993
 30
0.0
  0
VERTEX
  5
4060
  8
3
 10
238.3776412908
 20
28.67154619760015
 30
0.0
  0
VERTEX
  5
4061
  8
3
 10
238.022542486
 20
28.32308587520004
 30
0.0
  0
VERTEX
  5
4062
  8
3
 10
237.4694631308
 20
28.04654619760015
 30
0.0
  0
VERTEX
  5
4063
  8
3
 10
236.772542486
 20
27.86899679520013
 30
0.0
  0
VERTEX
  5
4064
  8
3
 10
236.0
 20
27.80781744059993
 30
0.0
  0
VERTEX
  5
4065
  8
3
 10
235.2274575141
 20
27.86899679520013
 30
0.0
  0
VERTEX
  5
4066
  8
3
 10
234.5305368693
 20
28.04654619760015
 30
0.0
  0
VERTEX
  5
4067
  8
3
 10
233.9774575141
 20
28.32308587520004
 30
0.0
  0
VERTEX
  5
4068
  8
3
 10
233.6223587093
 20
28.67154619760015
 30
0.0
  0
VERTEX
  5
4069
  8
3
 10
233.5
 20
29.05781744059993
 30
0.0
  0
SEQEND
  5
4323
  8
3
  0
POLYLINE
  5
D78
  8
3
 66
     1
 10
0.0
 20
0.0
 30
0.0
  0
VERTEX
  5
406A
  8
3
 10
233.5
 20
29.13585699190014
 30
0.0
  0
VERTEX
  5
406B
  8
3
 10
233.6223587093
 20
29.52212823490015
 30
0.0
  0
VERTEX
  5
406C
  8
3
 10
233.9774575141
 20
29.87058855730004
 30
0.0
  0
VERTEX
  5
406D
  8
3
 10
234.5305368693
 20
30.14712823490015
 30
0.0
  0
VERTEX
  5
406E
  8
3
 10
235.2274575141
 20
30.32467763729994
 30
0.0
  0
VERTEX
  5
406F
  8
3
 10
236.0
 20
30.38585699190014
 30
0.0
  0
VERTEX
  5
4070
  8
3
 10
236.772542486
 20
30.32467763729994
 30
0.0
  0
VERTEX
  5
4071
  8
3
 10
237.4694631308
 20
30.14712823490015
 30
0.0
  0
VERTEX
  5
4072
  8
3
 10
238.022542486
 20
29.87058855730004
 30
0.0
  0
VERTEX
  5
4073
  8
3
 10
238.3776412908
 20
29.52212823490015
 30
0.0
  0
VERTEX
  5
4074
  8
3
 10
238.5
 20
29.13585699190014
 30
0.0
  0
VERTEX
  5
4075
  8
3
 10
238.3776412908
 20
28.74958574899995
 30
0.0
  0
VERTEX
  5
4076
  8
3
 10
238.022542486
 20
28.40112542660006
 30
0.0
  0
VERTEX
  5
4077
  8
3
 10
237.4694631308
 20
28.12458574899995
 30
0.0
  0
VERTEX
  5
4078
  8
3
 10
236.772542486
 20
27.94703634659993
 30
0.0
  0
VERTEX
  5
4079
  8
3
 10
236.0
 20
27.88585699190014
 30
0.0
  0
VERTEX
  5
407A
  8
3
 10
235.2274575141
 20
27.94703634659993
 30
0.0
  0
VERTEX
  5
407B
  8
3
 10
234.5305368693
 20
28.12458574899995
 30
0.0
  0
VERTEX
  5
407C
  8
3
 10
233.9774575141
 20
28.40112542660006
 30
0.0
  0
VERTEX
  5
407D
  8
3
 10
233.6223587093
 20
28.74958574899995
 30
0.0
  0
VERTEX
  5
407E
  8
3
 10
233.5
 20
29.13585699190014
 30
0.0
  0
SEQEND
  5
4322
  8
3
  0
POLYLINE
  5
D79
  8
3
 66
     1
 10
0.0
 20
0.0
 30
0.0
  0
VERTEX
  5
407F
  8
3
 10
233.945
 20
29.40570388660001
 30
0.0
  0
VERTEX
  5
4080
  8
3
 10
234.0689316643
 20
29.75712958380007
 30
0.0
  0
VERTEX
  5
4081
  8
3
 10
234.4257786694
 20
30.06616815550012
 30
0.0
  0
VERTEX
  5
4082
  8
3
 10
234.9725
 20
30.29554498890013
 30
0.0
  0
VERTEX
  5
4083
  8
3
 10
235.6431529949
 20
30.4175938528
 30
0.0
  0
VERTEX
  5
4084
  8
3
 10
236.3568470051
 20
30.4175938528
 30
0.0
  0
VERTEX
  5
4085
  8
3
 10
237.0275
 20
30.29554498890013
 30
0.0
  0
VERTEX
  5
4086
  8
3
 10
237.5742213306
 20
30.06616815550012
 30
0.0
  0
VERTEX
  5
4087
  8
3
 10
237.9310683357
 20
29.75712958380007
 30
0.0
  0
VERTEX
  5
4088
  8
3
 10
238.055
 20
29.40570388660001
 30
0.0
  0
VERTEX
  5
4089
  8
3
 10
237.9310683357
 20
29.05427818930013
 30
0.0
  0
VERTEX
  5
408A
  8
3
 10
237.5742213306
 20
28.74523961760008
 30
0.0
  0
VERTEX
  5
408B
  8
3
 10
237.0275
 20
28.51586278420007
 30
0.0
  0
VERTEX
  5
408C
  8
3
 10
236.3568470051
 20
28.39381392029998
 30
0.0
  0
VERTEX
  5
408D
  8
3
 10
235.6431529949
 20
28.39381392029998
 30
0.0
  0
VERTEX
  5
408E
  8
3
 10
234.9725
 20
28.51586278420007
 30
0.0
  0
VERTEX
  5
408F
  8
3
 10
234.4257786694
 20
28.74523961760008
 30
0.0
  0
VERTEX
  5
4090
  8
3
 10
234.0689316643
 20
29.05427818930013
 30
0.0
  0
VERTEX
  5
4091
  8
3
 10
233.945
 20
29.40570388660001
 30
0.0
  0
SEQEND
  5
4321
  8
3
  0
POLYLINE
  5
D7A
  8
3
 66
     1
 10
0.0
 20
0.0
 30
0.0
  0
VERTEX
  5
4092
  8
3
 10
233.5
 20
29.67555078120006
 30
0.0
  0
VERTEX
  5
4093
  8
3
 10
233.6223587093
 20
30.06182202410002
 30
0.0
  0
VERTEX
  5
4094
  8
3
 10
233.9774575141
 20
30.41028234650014
 30
0.0
  0
VERTEX
  5
4095
  8
3
 10
234.5305368693
 20
30.68682202410002
 30
0.0
  0
VERTEX
  5
4096
  8
3
 10
235.2274575141
 20
30.86437142650004
 30
0.0
  0
VERTEX
  5
4097
  8
3
 10
236.0
 20
30.92555078120006
 30
0.0
  0
VERTEX
  5
4098
  8
3
 10
236.772542486
 20
30.86437142650004
 30
0.0
  0
VERTEX
  5
4099
  8
3
 10
237.4694631308
 20
30.68682202410002
 30
0.0
  0
VERTEX
  5
409A
  8
3
 10
238.022542486
 20
30.41028234650014
 30
0.0
  0
VERTEX
  5
409B
  8
3
 10
238.3776412908
 20
30.06182202410002
 30
0.0
  0
VERTEX
  5
409C
  8
3
 10
238.5
 20
29.67555078120006
 30
0.0
  0
VERTEX
  5
409D
  8
3
 10
238.3776412908
 20
29.28927953820005
 30
0.0
  0
VERTEX
  5
409E
  8
3
 10
238.022542486
 20
28.94081921579993
 30
0.0
  0
VERTEX
  5
409F
  8
3
 10
237.4694631308
 20
28.66427953820005
 30
0.0
  0
VERTEX
  5
40A0
  8
3
 10
236.772542486
 20
28.48673013580003
 30
0.0
  0
VERTEX
  5
40A1
  8
3
 10
236.0
 20
28.42555078120006
 30
0.0
  0
VERTEX
  5
40A2
  8
3
 10
235.2274575141
 20
28.48673013580003
 30
0.0
  0
VERTEX
  5
40A3
  8
3
 10
234.5305368693
 20
28.66427953820005
 30
0.0
  0
VERTEX
  5
40A4
  8
3
 10
233.9774575141
 20
28.94081921579993
 30
0.0
  0
VERTEX
  5
40A5
  8
3
 10
233.6223587093
 20
29.28927953820005
 30
0.0
  0
VERTEX
  5
40A6
  8
3
 10
233.5
 20
29.67555078120006
 30
0.0
  0
SEQEND
  5
4320
  8
3
  0
LINE
  5
D7B
  8
3
 10
236.0
 20
28.62935647339998
 30
0.0
 11
236.0
 21
30.96762506359994
 31
0.0
  0
LINE
  5
D7C
  8
3
 10
234.75
 20
28.26851255520012
 30
0.0
 11
236.0
 21
28.62935647339998
 31
0.0
  0
LINE
  5
D7D
  8
3
 10
237.25
 20
28.26851255520012
 30
0.0
 11
236.0
 21
28.62935647339998
 31
0.0
  0
POLYLINE
  5
D7E
  8
3
 66
     1
 10
0.0
 20
0.0
 30
0.0
  0
VERTEX
  5
40A7
  8
3
 10
233.5
 20
29.75359033250004
 30
0.0
  0
VERTEX
  5
40A8
  8
3
 10
233.6223587093
 20
30.13986157550005
 30
0.0
  0
VERTEX
  5
40A9
  8
3
 10
233.9774575141
 20
30.48832189789994
 30
0.0
  0
VERTEX
  5
40AA
  8
3
 10
234.5305368693
 20
30.76486157550005
 30
0.0
  0
VERTEX
  5
40AB
  8
3
 10
235.2274575141
 20
30.94241097790007
 30
0.0
  0
VERTEX
  5
40AC
  8
3
 10
236.0
 20
31.00359033250004
 30
0.0
  0
VERTEX
  5
40AD
  8
3
 10
236.772542486
 20
30.94241097790007
 30
0.0
  0
VERTEX
  5
40AE
  8
3
 10
237.4694631308
 20
30.76486157550005
 30
0.0
  0
VERTEX
  5
40AF
  8
3
 10
238.022542486
 20
30.48832189789994
 30
0.0
  0
VERTEX
  5
40B0
  8
3
 10
238.3776412908
 20
30.13986157550005
 30
0.0
  0
VERTEX
  5
40B1
  8
3
 10
238.5
 20
29.75359033250004
 30
0.0
  0
VERTEX
  5
40B2
  8
3
 10
238.3776412908
 20
29.36731908960007
 30
0.0
  0
VERTEX
  5
40B3
  8
3
 10
238.022542486
 20
29.01885876719996
 30
0.0
  0
VERTEX
  5
40B4
  8
3
 10
237.4694631308
 20
28.74231908960007
 30
0.0
  0
VERTEX
  5
40B5
  8
3
 10
236.772542486
 20
28.56476968720006
 30
0.0
  0
VERTEX
  5
40B6
  8
3
 10
236.0
 20
28.50359033250004
 30
0.0
  0
VERTEX
  5
40B7
  8
3
 10
235.2274575141
 20
28.56476968720006
 30
0.0
  0
VERTEX
  5
40B8
  8
3
 10
234.5305368693
 20
28.74231908960007
 30
0.0
  0
VERTEX
  5
40B9
  8
3
 10
233.9774575141
 20
29.01885876719996
 30
0.0
  0
VERTEX
  5
40BA
  8
3
 10
233.6223587093
 20
29.36731908960007
 30
0.0
  0
VERTEX
  5
40BB
  8
3
 10
233.5
 20
29.75359033250004
 30
0.0
  0
SEQEND
  5
431F
  8
3
  0
POLYLINE
  5
D7F
  8
3
 66
     1
 10
0.0
 20
0.0
 30
0.0
  0
VERTEX
  5
40BC
  8
3
 10
233.945
 20
30.02343722720013
 30
0.0
  0
VERTEX
  5
40BD
  8
3
 10
234.0689316643
 20
30.37486292439996
 30
0.0
  0
VERTEX
  5
40BE
  8
3
 10
234.4257786694
 20
30.68390149610002
 30
0.0
  0
VERTEX
  5
40BF
  8
3
 10
234.9725
 20
30.91327832950003
 30
0.0
  0
VERTEX
  5
40C0
  8
3
 10
235.6431529949
 20
31.03532719340012
 30
0.0
  0
VERTEX
  5
40C1
  8
3
 10
236.3568470051
 20
31.03532719340012
 30
0.0
  0
VERTEX
  5
40C2
  8
3
 10
237.0275
 20
30.91327832950003
 30
0.0
  0
VERTEX
  5
40C3
  8
3
 10
237.5742213306
 20
30.68390149610002
 30
0.0
  0
VERTEX
  5
40C4
  8
3
 10
237.9310683357
 20
30.37486292439996
 30
0.0
  0
VERTEX
  5
40C5
  8
3
 10
238.055
 20
30.02343722720013
 30
0.0
  0
VERTEX
  5
40C6
  8
3
 10
237.9310683357
 20
29.67201152990003
 30
0.0
  0
VERTEX
  5
40C7
  8
3
 10
237.5742213306
 20
29.36297295819998
 30
0.0
  0
VERTEX
  5
40C8
  8
3
 10
237.0275
 20
29.13359612479996
 30
0.0
  0
VERTEX
  5
40C9
  8
3
 10
236.3568470051
 20
29.0115472609001
 30
0.0
  0
VERTEX
  5
40CA
  8
3
 10
235.6431529949
 20
29.0115472609001
 30
0.0
  0
VERTEX
  5
40CB
  8
3
 10
234.9725
 20
29.13359612479996
 30
0.0
  0
VERTEX
  5
40CC
  8
3
 10
234.4257786694
 20
29.36297295819998
 30
0.0
  0
VERTEX
  5
40CD
  8
3
 10
234.0689316643
 20
29.67201152990003
 30
0.0
  0
VERTEX
  5
40CE
  8
3
 10
233.945
 20
30.02343722720013
 30
0.0
  0
SEQEND
  5
431E
  8
3
  0
POLYLINE
  5
D80
  8
3
 66
     1
 10
0.0
 20
0.0
 30
0.0
  0
VERTEX
  5
40CF
  8
3
 10
233.7438968732
 20
30.14538566370004
 30
0.0
  0
VERTEX
  5
40D0
  8
3
 10
233.8661387636
 20
29.77910791989996
 30
0.0
  0
VERTEX
  5
40D1
  8
3
 10
234.2196176293
 20
29.45252205290001
 30
0.0
  0
VERTEX
  5
40D2
  8
3
 10
234.7660285503
 20
29.20101870910014
 30
0.0
  0
VERTEX
  5
40D3
  8
3
 10
235.4461594249
 20
29.05185217819997
 30
0.0
  0
VERTEX
  5
40D4
  8
3
 10
236.1863075196
 20
29.02118696829996
 30
0.0
  0
VERTEX
  5
40D5
  8
3
 10
236.9062663036
 20
29.11234613089994
 30
0.0
  0
VERTEX
  5
40D6
  8
3
 10
237.5280170715
 20
29.31545115610004
 30
0.0
  0
VERTEX
  5
40D7
  8
3
 10
237.9841834801
 20
29.60849246290002
 30
0.0
  0
VERTEX
  5
40D8
  8
3
 10
238.2253328208
 20
29.95971447880004
 30
0.0
  0
VERTEX
  5
40D9
  8
3
 10
238.2253328208
 20
30.33105684860004
 30
0.0
  0
VERTEX
  5
40DA
  8
3
 10
237.9841834801
 20
30.68227886460011
 30
0.0
  0
VERTEX
  5
40DB
  8
3
 10
237.5280170715
 20
30.97532017140009
 30
0.0
  0
VERTEX
  5
40DC
  8
3
 10
236.9062663036
 20
31.17842519659996
 30
0.0
  0
VERTEX
  5
40DD
  8
3
 10
236.1863075196
 20
31.26958435919994
 30
0.0
  0
VERTEX
  5
40DE
  8
3
 10
235.4461594249
 20
31.23891914929993
 30
0.0
  0
VERTEX
  5
40DF
  8
3
 10
234.7660285503
 20
31.08975261839998
 30
0.0
  0
VERTEX
  5
40E0
  8
3
 10
234.2196176293
 20
30.83824927460012
 30
0.0
  0
VERTEX
  5
40E1
  8
3
 10
233.8661387636
 20
30.51166340759994
 30
0.0
  0
VERTEX
  5
40E2
  8
3
 10
233.7438968732
 20
30.14538566370004
 30
0.0
  0
SEQEND
  5
431D
  8
3
  0
LINE
  5
D81
  8
3
 10
234.75
 20
28.26851255520012
 30
0.0
 11
234.75
 21
27.54682471870012
 31
0.0
  0
LINE
  5
D82
  8
3
 10
234.75
 20
28.26851255520012
 30
0.0
 11
234.75
 21
30.60678114540008
 31
0.0
  0
LINE
  5
D83
  8
3
 10
237.25
 20
28.26851255520012
 30
0.0
 11
237.25
 21
27.54682471870012
 31
0.0
  0
LINE
  5
D84
  8
3
 10
237.25
 20
28.26851255520012
 30
0.0
 11
237.25
 21
30.60678114540008
 31
0.0
  0
POLYLINE
  5
D85
  8
3
 66
     1
 10
0.0
 20
0.0
 30
0.0
  0
VERTEX
  5
40E3
  8
3
 10
236.0
 20
31.27343722720013
 30
0.0
  0
VERTEX
  5
40E4
  8
3
 10
236.7028513946
 20
31.2114713950001
 30
0.0
  0
VERTEX
  5
40E5
  8
3
 10
237.3209285379
 20
31.03304789250012
 30
0.0
  0
VERTEX
  5
40E6
  8
3
 10
237.7796822048
 20
30.75968722720006
 30
0.0
  0
VERTEX
  5
40E7
  8
3
 10
238.0237799325
 20
30.42436072969997
 30
0.0
  0
VERTEX
  5
40E8
  8
3
 10
238.0237799325
 20
30.06751372459996
 30
0.0
  0
VERTEX
  5
40E9
  8
3
 10
237.7796822048
 20
29.73218722720014
 30
0.0
  0
VERTEX
  5
40EA
  8
3
 10
237.3209285379
 20
29.45882656190008
 30
0.0
  0
VERTEX
  5
40EB
  8
3
 10
236.7028513946
 20
29.28040305930006
 30
0.0
  0
VERTEX
  5
40EC
  8
3
 10
236.0
 20
29.21843722720007
 30
0.0
  0
VERTEX
  5
40ED
  8
3
 10
235.2971486055
 20
29.28040305930006
 30
0.0
  0
VERTEX
  5
40EE
  8
3
 10
234.6790714621
 20
29.45882656190008
 30
0.0
  0
VERTEX
  5
40EF
  8
3
 10
234.2203177953
 20
29.73218722720014
 30
0.0
  0
VERTEX
  5
40F0
  8
3
 10
233.9762200676
 20
30.06751372459996
 30
0.0
  0
VERTEX
  5
40F1
  8
3
 10
233.9762200676
 20
30.42436072969997
 30
0.0
  0
VERTEX
  5
40F2
  8
3
 10
234.2203177953
 20
30.75968722720006
 30
0.0
  0
VERTEX
  5
40F3
  8
3
 10
234.6790714621
 20
31.03304789250012
 30
0.0
  0
VERTEX
  5
40F4
  8
3
 10
235.2971486055
 20
31.2114713950001
 30
0.0
  0
VERTEX
  5
40F5
  8
3
 10
236.0
 20
31.27343722720013
 30
0.0
  0
SEQEND
  5
431C
  8
3
  0
LINE
  5
D86
  8
3
 10
234.75
 20
30.60678114540008
 30
0.0
 11
236.0
 21
30.96762506359994
 31
0.0
  0
LINE
  5
D87
  8
3
 10
237.25
 20
30.60678114540008
 30
0.0
 11
236.0
 21
30.96762506359994
 31
0.0
  0
LINE
  5
D88
  8
3
 10
236.0
 20
27.18598080050003
 30
0.0
 11
236.0
 21
28.62935647339998
 31
0.0
  0
LINE
  5
D89
  8
3
 10
237.25
 20
29.88509330890008
 30
0.0
 11
236.0
 21
29.52424939069999
 31
0.0
  0
LINE
  5
D8A
  8
3
 10
237.25
 20
27.54682471870012
 30
0.0
 11
236.0
 21
27.18598080050003
 31
0.0
  0
LINE
  5
D8B
  8
3
 10
234.75
 20
29.88509330890008
 30
0.0
 11
236.0
 21
29.52424939069999
 31
0.0
  0
LINE
  5
D8C
  8
3
 10
234.75
 20
27.54682471870012
 30
0.0
 11
236.0
 21
27.18598080050003
 31
0.0
  0
POLYLINE
  5
D8D
  8
3
 66
     1
 10
0.0
 20
0.0
 30
0.0
  0
VERTEX
  5
40F6
  8
3
 10
236.0
 20
-25.92478480450006
 30
0.0
  0
VERTEX
  5
40F7
  8
3
 10
235.3678270842
 20
-25.86569800519999
 30
0.0
  0
VERTEX
  5
40F8
  8
3
 10
234.8210326236
 20
-25.69641760699994
 30
0.0
  0
VERTEX
  5
40F9
  8
3
 10
234.4334642402
 20
-25.43980586579994
 30
0.0
  0
VERTEX
  5
40FA
  8
3
 10
234.2574651915
 20
-25.13051961899998
 30
0.0
  0
VERTEX
  5
40FB
  8
3
 10
234.3168051245
 20
-24.81032968819989
 30
0.0
  0
VERTEX
  5
40FC
  8
3
 10
234.6034698523
 20
-24.52247949759987
 30
0.0
  0
VERTEX
  5
40FD
  8
3
 10
235.078743715
 20
-24.30584481070002
 30
0.0
  0
VERTEX
  5
40FE
  8
3
 10
235.6784383438
 20
-24.18968334229987
 30
0.0
  0
VERTEX
  5
40FF
  8
3
 10
236.3215616562
 20
-24.18968334229987
 30
0.0
  0
VERTEX
  5
4100
  8
3
 10
236.9212562851
 20
-24.30584481070002
 30
0.0
  0
VERTEX
  5
4101
  8
3
 10
237.3965301478
 20
-24.52247949759987
 30
0.0
  0
VERTEX
  5
4102
  8
3
 10
237.6831948756
 20
-24.81032968819989
 30
0.0
  0
VERTEX
  5
4103
  8
3
 10
237.7425348085
 20
-25.13051961899998
 30
0.0
  0
VERTEX
  5
4104
  8
3
 10
237.5665357599
 20
-25.43980586579994
 30
0.0
  0
VERTEX
  5
4105
  8
3
 10
237.1789673764
 20
-25.69641760699994
 30
0.0
  0
VERTEX
  5
4106
  8
3
 10
236.6321729159
 20
-25.86569800519999
 30
0.0
  0
VERTEX
  5
4107
  8
3
 10
236.0
 20
-25.92478480450006
 30
0.0
  0
SEQEND
  5
431B
  8
3
  0
POLYLINE
  5
D8E
  8
3
 66
     1
 10
0.0
 20
0.0
 30
0.0
  0
VERTEX
  5
4108
  8
3
 10
233.6832672566
 20
-25.54058975750002
 30
0.0
  0
VERTEX
  5
4109
  8
3
 10
233.8087942269
 20
-25.16446881140007
 30
0.0
  0
VERTEX
  5
410A
  8
3
 10
234.1717723427
 20
-24.82910640600005
 30
0.0
  0
VERTEX
  5
410B
  8
3
 10
234.7328672931
 20
-24.57084426149993
 30
0.0
  0
VERTEX
  5
410C
  8
3
 10
235.4312757339
 20
-24.41766908869988
 30
0.0
  0
VERTEX
  5
410D
  8
3
 10
236.1913142736
 20
-24.38617979419985
 30
0.0
  0
VERTEX
  5
410E
  8
3
 10
236.9306209432
 20
-24.47978873170007
 30
0.0
  0
VERTEX
  5
410F
  8
3
 10
237.5690803935
 20
-24.68835192049994
 30
0.0
  0
VERTEX
  5
4110
  8
3
 10
238.0375056365
 20
-24.9892683027
 30
0.0
  0
VERTEX
  5
4111
  8
3
 10
238.2851355285
 20
-25.34992891909985
 30
0.0
  0
VERTEX
  5
4112
  8
3
 10
238.2851355285
 20
-25.73125059579991
 30
0.0
  0
VERTEX
  5
4113
  8
3
 10
238.0375056365
 20
-26.09191121230003
 30
0.0
  0
VERTEX
  5
4114
  8
3
 10
237.5690803935
 20
-26.39282759449986
 30
0.0
  0
VERTEX
  5
4115
  8
3
 10
236.9306209432
 20
-26.60139078319992
 30
0.0
  0
VERTEX
  5
4116
  8
3
 10
236.1913142736
 20
-26.69499972069991
 30
0.0
  0
VERTEX
  5
4117
  8
3
 10
235.4312757339
 20
-26.66351042629992
 30
0.0
  0
VERTEX
  5
4118
  8
3
 10
234.7328672931
 20
-26.51033525340006
 30
0.0
  0
VERTEX
  5
4119
  8
3
 10
234.1717723427
 20
-26.25207310889994
 30
0.0
  0
VERTEX
  5
411A
  8
3
 10
233.8087942269
 20
-25.91671070349992
 30
0.0
  0
VERTEX
  5
411B
  8
3
 10
233.6832672566
 20
-25.54058975750002
 30
0.0
  0
SEQEND
  5
431A
  8
3
  0
POLYLINE
  5
D8F
  8
3
 66
     1
 10
0.0
 20
0.0
 30
0.0
  0
VERTEX
  5
411C
  8
3
 10
238.055
 20
-25.69930384299994
 30
0.0
  0
VERTEX
  5
411D
  8
3
 10
237.9310683357
 20
-26.0507295402
 30
0.0
  0
VERTEX
  5
411E
  8
3
 10
237.5742213306
 20
-26.35976811190005
 30
0.0
  0
VERTEX
  5
411F
  8
3
 10
237.0275
 20
-26.58914494530006
 30
0.0
  0
VERTEX
  5
4120
  8
3
 10
236.3568470051
 20
-26.71119380919993
 30
0.0
  0
VERTEX
  5
4121
  8
3
 10
235.6431529949
 20
-26.71119380919993
 30
0.0
  0
VERTEX
  5
4122
  8
3
 10
234.9725
 20
-26.58914494530006
 30
0.0
  0
VERTEX
  5
4123
  8
3
 10
234.4257786694
 20
-26.35976811190005
 30
0.0
  0
VERTEX
  5
4124
  8
3
 10
234.0689316643
 20
-26.0507295402
 30
0.0
  0
VERTEX
  5
4125
  8
3
 10
233.945
 20
-25.69930384299994
 30
0.0
  0
VERTEX
  5
4126
  8
3
 10
234.0689316643
 20
-25.34787814570007
 30
0.0
  0
VERTEX
  5
4127
  8
3
 10
234.4257786694
 20
-25.03883957400001
 30
0.0
  0
VERTEX
  5
4128
  8
3
 10
234.9725
 20
-24.8094627406
 30
0.0
  0
VERTEX
  5
4129
  8
3
 10
235.6431529949
 20
-24.68741387669991
 30
0.0
  0
VERTEX
  5
412A
  8
3
 10
236.3568470051
 20
-24.68741387669991
 30
0.0
  0
VERTEX
  5
412B
  8
3
 10
237.0275
 20
-24.8094627406
 30
0.0
  0
VERTEX
  5
412C
  8
3
 10
237.5742213306
 20
-25.03883957400001
 30
0.0
  0
VERTEX
  5
412D
  8
3
 10
237.9310683357
 20
-25.34787814570007
 30
0.0
  0
VERTEX
  5
412E
  8
3
 10
238.055
 20
-25.69930384299994
 30
0.0
  0
SEQEND
  5
4319
  8
3
  0
POLYLINE
  5
D90
  8
3
 66
     1
 10
0.0
 20
0.0
 30
0.0
  0
VERTEX
  5
412F
  8
3
 10
238.5
 20
-25.96915073759999
 30
0.0
  0
VERTEX
  5
4130
  8
3
 10
238.3776412908
 20
-26.35542198049995
 30
0.0
  0
VERTEX
  5
4131
  8
3
 10
238.022542486
 20
-26.70388230290007
 30
0.0
  0
VERTEX
  5
4132
  8
3
 10
237.4694631308
 20
-26.98042198049995
 30
0.0
  0
VERTEX
  5
4133
  8
3
 10
236.772542486
 20
-27.15797138289997
 30
0.0
  0
VERTEX
  5
4134
  8
3
 10
236.0
 20
-27.21915073759999
 30
0.0
  0
VERTEX
  5
4135
  8
3
 10
235.2274575141
 20
-27.15797138289997
 30
0.0
  0
VERTEX
  5
4136
  8
3
 10
234.5305368693
 20
-26.98042198049995
 30
0.0
  0
VERTEX
  5
4137
  8
3
 10
233.9774575141
 20
-26.70388230290007
 30
0.0
  0
VERTEX
  5
4138
  8
3
 10
233.6223587093
 20
-26.35542198049995
 30
0.0
  0
VERTEX
  5
4139
  8
3
 10
233.5
 20
-25.96915073759999
 30
0.0
  0
VERTEX
  5
413A
  8
3
 10
233.6223587093
 20
-25.58287949459998
 30
0.0
  0
VERTEX
  5
413B
  8
3
 10
233.9774575141
 20
-25.23441917219986
 30
0.0
  0
VERTEX
  5
413C
  8
3
 10
234.5305368693
 20
-24.95787949459998
 30
0.0
  0
VERTEX
  5
413D
  8
3
 10
235.2274575141
 20
-24.78033009219996
 30
0.0
  0
VERTEX
  5
413E
  8
3
 10
236.0
 20
-24.71915073759999
 30
0.0
  0
VERTEX
  5
413F
  8
3
 10
236.772542486
 20
-24.78033009219996
 30
0.0
  0
VERTEX
  5
4140
  8
3
 10
237.4694631308
 20
-24.95787949459998
 30
0.0
  0
VERTEX
  5
4141
  8
3
 10
238.022542486
 20
-25.23441917219986
 30
0.0
  0
VERTEX
  5
4142
  8
3
 10
238.3776412908
 20
-25.58287949459998
 30
0.0
  0
VERTEX
  5
4143
  8
3
 10
238.5
 20
-25.96915073759999
 30
0.0
  0
SEQEND
  5
4318
  8
3
  0
POLYLINE
  5
D91
  8
3
 66
     1
 10
0.0
 20
0.0
 30
0.0
  0
VERTEX
  5
4144
  8
3
 10
238.5
 20
-26.04719028889997
 30
0.0
  0
VERTEX
  5
4145
  8
3
 10
238.3776412908
 20
-26.43346153189998
 30
0.0
  0
VERTEX
  5
4146
  8
3
 10
238.022542486
 20
-26.78192185429987
 30
0.0
  0
VERTEX
  5
4147
  8
3
 10
237.4694631308
 20
-27.05846153189998
 30
0.0
  0
VERTEX
  5
4148
  8
3
 10
236.772542486
 20
-27.2360109343
 30
0.0
  0
VERTEX
  5
4149
  8
3
 10
236.0
 20
-27.29719028889997
 30
0.0
  0
VERTEX
  5
414A
  8
3
 10
235.2274575141
 20
-27.2360109343
 30
0.0
  0
VERTEX
  5
414B
  8
3
 10
234.5305368693
 20
-27.05846153189998
 30
0.0
  0
VERTEX
  5
414C
  8
3
 10
233.9774575141
 20
-26.78192185429987
 30
0.0
  0
VERTEX
  5
414D
  8
3
 10
233.6223587093
 20
-26.43346153189998
 30
0.0
  0
VERTEX
  5
414E
  8
3
 10
233.5
 20
-26.04719028889997
 30
0.0
  0
VERTEX
  5
414F
  8
3
 10
233.6223587093
 20
-25.660919046
 30
0.0
  0
VERTEX
  5
4150
  8
3
 10
233.9774575141
 20
-25.31245872359989
 30
0.0
  0
VERTEX
  5
4151
  8
3
 10
234.5305368693
 20
-25.035919046
 30
0.0
  0
VERTEX
  5
4152
  8
3
 10
235.2274575141
 20
-24.85836964359999
 30
0.0
  0
VERTEX
  5
4153
  8
3
 10
236.0
 20
-24.79719028889997
 30
0.0
  0
VERTEX
  5
4154
  8
3
 10
236.772542486
 20
-24.85836964359999
 30
0.0
  0
VERTEX
  5
4155
  8
3
 10
237.4694631308
 20
-25.035919046
 30
0.0
  0
VERTEX
  5
4156
  8
3
 10
238.022542486
 20
-25.31245872359989
 30
0.0
  0
VERTEX
  5
4157
  8
3
 10
238.3776412908
 20
-25.660919046
 30
0.0
  0
VERTEX
  5
4158
  8
3
 10
238.5
 20
-26.04719028889997
 30
0.0
  0
SEQEND
  5
4317
  8
3
  0
POLYLINE
  5
D92
  8
3
 66
     1
 10
0.0
 20
0.0
 30
0.0
  0
VERTEX
  5
4159
  8
3
 10
238.055
 20
-26.31703718360006
 30
0.0
  0
VERTEX
  5
415A
  8
3
 10
237.9310683357
 20
-26.66846288079989
 30
0.0
  0
VERTEX
  5
415B
  8
3
 10
237.5742213306
 20
-26.97750145249995
 30
0.0
  0
VERTEX
  5
415C
  8
3
 10
237.0275
 20
-27.20687828589996
 30
0.0
  0
VERTEX
  5
415D
  8
3
 10
236.3568470051
 20
-27.32892714980005
 30
0.0
  0
VERTEX
  5
415E
  8
3
 10
235.6431529949
 20
-27.32892714980005
 30
0.0
  0
VERTEX
  5
415F
  8
3
 10
234.9725
 20
-27.20687828589996
 30
0.0
  0
VERTEX
  5
4160
  8
3
 10
234.4257786694
 20
-26.97750145249995
 30
0.0
  0
VERTEX
  5
4161
  8
3
 10
234.0689316643
 20
-26.66846288079989
 30
0.0
  0
VERTEX
  5
4162
  8
3
 10
233.945
 20
-26.31703718360006
 30
0.0
  0
VERTEX
  5
4163
  8
3
 10
234.0689316643
 20
-25.96561148629996
 30
0.0
  0
VERTEX
  5
4164
  8
3
 10
234.4257786694
 20
-25.65657291459991
 30
0.0
  0
VERTEX
  5
4165
  8
3
 10
234.9725
 20
-25.4271960811999
 30
0.0
  0
VERTEX
  5
4166
  8
3
 10
235.6431529949
 20
-25.30514721730003
 30
0.0
  0
VERTEX
  5
4167
  8
3
 10
236.3568470051
 20
-25.30514721730003
 30
0.0
  0
VERTEX
  5
4168
  8
3
 10
237.0275
 20
-25.4271960811999
 30
0.0
  0
VERTEX
  5
4169
  8
3
 10
237.5742213306
 20
-25.65657291459991
 30
0.0
  0
VERTEX
  5
416A
  8
3
 10
237.9310683357
 20
-25.96561148629996
 30
0.0
  0
VERTEX
  5
416B
  8
3
 10
238.055
 20
-26.31703718360006
 30
0.0
  0
SEQEND
  5
4316
  8
3
  0
POLYLINE
  5
D93
  8
3
 66
     1
 10
0.0
 20
0.0
 30
0.0
  0
VERTEX
  5
416C
  8
3
 10
238.5
 20
-26.58688407819989
 30
0.0
  0
VERTEX
  5
416D
  8
3
 10
238.3776412908
 20
-26.97315532109985
 30
0.0
  0
VERTEX
  5
416E
  8
3
 10
238.022542486
 20
-27.32161564349997
 30
0.0
  0
VERTEX
  5
416F
  8
3
 10
237.4694631307
 20
-27.59815532109985
 30
0.0
  0
VERTEX
  5
4170
  8
3
 10
236.772542486
 20
-27.77570472359992
 30
0.0
  0
VERTEX
  5
4171
  8
3
 10
236.0
 20
-27.83688407819989
 30
0.0
  0
VERTEX
  5
4172
  8
3
 10
235.2274575141
 20
-27.77570472359992
 30
0.0
  0
VERTEX
  5
4173
  8
3
 10
234.5305368693
 20
-27.59815532109985
 30
0.0
  0
VERTEX
  5
4174
  8
3
 10
233.9774575141
 20
-27.32161564349997
 30
0.0
  0
VERTEX
  5
4175
  8
3
 10
233.6223587093
 20
-26.97315532109985
 30
0.0
  0
VERTEX
  5
4176
  8
3
 10
233.5
 20
-26.58688407819989
 30
0.0
  0
VERTEX
  5
4177
  8
3
 10
233.6223587093
 20
-26.20061283519988
 30
0.0
  0
VERTEX
  5
4178
  8
3
 10
233.9774575141
 20
-25.85215251279999
 30
0.0
  0
VERTEX
  5
4179
  8
3
 10
234.5305368693
 20
-25.57561283519988
 30
0.0
  0
VERTEX
  5
417A
  8
3
 10
235.2274575141
 20
-25.39806343279986
 30
0.0
  0
VERTEX
  5
417B
  8
3
 10
236.0
 20
-25.33688407819989
 30
0.0
  0
VERTEX
  5
417C
  8
3
 10
236.772542486
 20
-25.39806343279986
 30
0.0
  0
VERTEX
  5
417D
  8
3
 10
237.4694631307
 20
-25.57561283519988
 30
0.0
  0
VERTEX
  5
417E
  8
3
 10
238.022542486
 20
-25.85215251279999
 30
0.0
  0
VERTEX
  5
417F
  8
3
 10
238.3776412908
 20
-26.20061283519988
 30
0.0
  0
VERTEX
  5
4180
  8
3
 10
238.5
 20
-26.58688407819989
 30
0.0
  0
SEQEND
  5
4315
  8
3
  0
POLYLINE
  5
D94
  8
3
 66
     1
 10
0.0
 20
0.0
 30
0.0
  0
VERTEX
  5
4181
  8
3
 10
238.5
 20
-26.66492362949987
 30
0.0
  0
VERTEX
  5
4182
  8
3
 10
238.3776412908
 20
-27.05119487249988
 30
0.0
  0
VERTEX
  5
4183
  8
3
 10
238.022542486
 20
-27.39965519489999
 30
0.0
  0
VERTEX
  5
4184
  8
3
 10
237.4694631307
 20
-27.67619487249988
 30
0.0
  0
VERTEX
  5
4185
  8
3
 10
236.772542486
 20
-27.8537442748999
 30
0.0
  0
VERTEX
  5
4186
  8
3
 10
236.0
 20
-27.91492362949987
 30
0.0
  0
VERTEX
  5
4187
  8
3
 10
235.2274575141
 20
-27.8537442748999
 30
0.0
  0
VERTEX
  5
4188
  8
3
 10
234.5305368693
 20
-27.67619487249988
 30
0.0
  0
VERTEX
  5
4189
  8
3
 10
233.9774575141
 20
-27.39965519489999
 30
0.0
  0
VERTEX
  5
418A
  8
3
 10
233.6223587093
 20
-27.05119487249988
 30
0.0
  0
VERTEX
  5
418B
  8
3
 10
233.5
 20
-26.66492362949987
 30
0.0
  0
VERTEX
  5
418C
  8
3
 10
233.6223587093
 20
-26.2786523865999
 30
0.0
  0
VERTEX
  5
418D
  8
3
 10
233.9774575141
 20
-25.93019206420001
 30
0.0
  0
VERTEX
  5
418E
  8
3
 10
234.5305368693
 20
-25.6536523865999
 30
0.0
  0
VERTEX
  5
418F
  8
3
 10
235.2274575141
 20
-25.47610298419988
 30
0.0
  0
VERTEX
  5
4190
  8
3
 10
236.0
 20
-25.41492362949987
 30
0.0
  0
VERTEX
  5
4191
  8
3
 10
236.772542486
 20
-25.47610298419988
 30
0.0
  0
VERTEX
  5
4192
  8
3
 10
237.4694631307
 20
-25.6536523865999
 30
0.0
  0
VERTEX
  5
4193
  8
3
 10
238.022542486
 20
-25.93019206420001
 30
0.0
  0
VERTEX
  5
4194
  8
3
 10
238.3776412908
 20
-26.2786523865999
 30
0.0
  0
VERTEX
  5
4195
  8
3
 10
238.5
 20
-26.66492362949987
 30
0.0
  0
SEQEND
  5
4314
  8
3
  0
POLYLINE
  5
D95
  8
3
 66
     1
 10
0.0
 20
0.0
 30
0.0
  0
VERTEX
  5
4196
  8
3
 10
238.055
 20
-26.93477052419996
 30
0.0
  0
VERTEX
  5
4197
  8
3
 10
237.9310683357
 20
-27.28619622140002
 30
0.0
  0
VERTEX
  5
4198
  8
3
 10
237.5742213306
 20
-27.59523479309985
 30
0.0
  0
VERTEX
  5
4199
  8
3
 10
237.0275
 20
-27.82461162649986
 30
0.0
  0
VERTEX
  5
419A
  8
3
 10
236.3568470051
 20
-27.94666049039995
 30
0.0
  0
VERTEX
  5
419B
  8
3
 10
235.6431529949
 20
-27.94666049039995
 30
0.0
  0
VERTEX
  5
419C
  8
3
 10
234.9725
 20
-27.82461162649986
 30
0.0
  0
VERTEX
  5
419D
  8
3
 10
234.4257786694
 20
-27.59523479309985
 30
0.0
  0
VERTEX
  5
419E
  8
3
 10
234.0689316643
 20
-27.28619622140002
 30
0.0
  0
VERTEX
  5
419F
  8
3
 10
233.945
 20
-26.93477052419996
 30
0.0
  0
VERTEX
  5
41A0
  8
3
 10
234.0689316643
 20
-26.58334482689986
 30
0.0
  0
VERTEX
  5
41A1
  8
3
 10
234.4257786694
 20
-26.27430625520003
 30
0.0
  0
VERTEX
  5
41A2
  8
3
 10
234.9725
 20
-26.04492942180002
 30
0.0
  0
VERTEX
  5
41A3
  8
3
 10
235.6431529949
 20
-25.92288055789993
 30
0.0
  0
VERTEX
  5
41A4
  8
3
 10
236.3568470051
 20
-25.92288055789993
 30
0.0
  0
VERTEX
  5
41A5
  8
3
 10
237.0275
 20
-26.04492942180002
 30
0.0
  0
VERTEX
  5
41A6
  8
3
 10
237.5742213306
 20
-26.27430625520003
 30
0.0
  0
VERTEX
  5
41A7
  8
3
 10
237.9310683357
 20
-26.58334482689986
 30
0.0
  0
VERTEX
  5
41A8
  8
3
 10
238.055
 20
-26.93477052419996
 30
0.0
  0
SEQEND
  5
4313
  8
3
  0
POLYLINE
  5
D96
  8
3
 66
     1
 10
0.0
 20
0.0
 30
0.0
  0
VERTEX
  5
41A9
  8
3
 10
238.5
 20
-27.20461741880001
 30
0.0
  0
VERTEX
  5
41AA
  8
3
 10
238.3776412908
 20
-27.59088866180002
 30
0.0
  0
VERTEX
  5
41AB
  8
3
 10
238.022542486
 20
-27.93934898419991
 30
0.0
  0
VERTEX
  5
41AC
  8
3
 10
237.4694631308
 20
-28.21588866180002
 30
0.0
  0
VERTEX
  5
41AD
  8
3
 10
236.772542486
 20
-28.39343806420004
 30
0.0
  0
VERTEX
  5
41AE
  8
3
 10
236.0
 20
-28.45461741880001
 30
0.0
  0
VERTEX
  5
41AF
  8
3
 10
235.2274575141
 20
-28.39343806420004
 30
0.0
  0
VERTEX
  5
41B0
  8
3
 10
234.5305368693
 20
-28.21588866180002
 30
0.0
  0
VERTEX
  5
41B1
  8
3
 10
233.9774575141
 20
-27.93934898419991
 30
0.0
  0
VERTEX
  5
41B2
  8
3
 10
233.6223587093
 20
-27.59088866180002
 30
0.0
  0
VERTEX
  5
41B3
  8
3
 10
233.5
 20
-27.20461741880001
 30
0.0
  0
VERTEX
  5
41B4
  8
3
 10
233.6223587093
 20
-26.8183461758
 30
0.0
  0
VERTEX
  5
41B5
  8
3
 10
233.9774575141
 20
-26.46988585339989
 30
0.0
  0
VERTEX
  5
41B6
  8
3
 10
234.5305368693
 20
-26.1933461758
 30
0.0
  0
VERTEX
  5
41B7
  8
3
 10
235.2274575141
 20
-26.01579677339998
 30
0.0
  0
VERTEX
  5
41B8
  8
3
 10
236.0
 20
-25.95461741880001
 30
0.0
  0
VERTEX
  5
41B9
  8
3
 10
236.772542486
 20
-26.01579677339998
 30
0.0
  0
VERTEX
  5
41BA
  8
3
 10
237.4694631308
 20
-26.1933461758
 30
0.0
  0
VERTEX
  5
41BB
  8
3
 10
238.022542486
 20
-26.46988585339989
 30
0.0
  0
VERTEX
  5
41BC
  8
3
 10
238.3776412908
 20
-26.8183461758
 30
0.0
  0
VERTEX
  5
41BD
  8
3
 10
238.5
 20
-27.20461741880001
 30
0.0
  0
SEQEND
  5
4312
  8
3
  0
POLYLINE
  5
D97
  8
3
 66
     1
 10
0.0
 20
0.0
 30
0.0
  0
VERTEX
  5
41BE
  8
3
 10
238.5
 20
-27.28265697009999
 30
0.0
  0
VERTEX
  5
41BF
  8
3
 10
238.3776412908
 20
-27.6689282131
 30
0.0
  0
VERTEX
  5
41C0
  8
3
 10
238.022542486
 20
-28.01738853549989
 30
0.0
  0
VERTEX
  5
41C1
  8
3
 10
237.4694631308
 20
-28.2939282131
 30
0.0
  0
VERTEX
  5
41C2
  8
3
 10
236.772542486
 20
-28.47147761550002
 30
0.0
  0
VERTEX
  5
41C3
  8
3
 10
236.0
 20
-28.53265697009999
 30
0.0
  0
VERTEX
  5
41C4
  8
3
 10
235.2274575141
 20
-28.47147761550002
 30
0.0
  0
VERTEX
  5
41C5
  8
3
 10
234.5305368693
 20
-28.2939282131
 30
0.0
  0
VERTEX
  5
41C6
  8
3
 10
233.9774575141
 20
-28.01738853549989
 30
0.0
  0
VERTEX
  5
41C7
  8
3
 10
233.6223587093
 20
-27.6689282131
 30
0.0
  0
VERTEX
  5
41C8
  8
3
 10
233.5
 20
-27.28265697009999
 30
0.0
  0
VERTEX
  5
41C9
  8
3
 10
233.6223587093
 20
-26.89638572720003
 30
0.0
  0
VERTEX
  5
41CA
  8
3
 10
233.9774575141
 20
-26.54792540479991
 30
0.0
  0
VERTEX
  5
41CB
  8
3
 10
234.5305368693
 20
-26.27138572720003
 30
0.0
  0
VERTEX
  5
41CC
  8
3
 10
235.2274575141
 20
-26.09383632480001
 30
0.0
  0
VERTEX
  5
41CD
  8
3
 10
236.0
 20
-26.03265697009999
 30
0.0
  0
VERTEX
  5
41CE
  8
3
 10
236.772542486
 20
-26.09383632480001
 30
0.0
  0
VERTEX
  5
41CF
  8
3
 10
237.4694631308
 20
-26.27138572720003
 30
0.0
  0
VERTEX
  5
41D0
  8
3
 10
238.022542486
 20
-26.54792540479991
 30
0.0
  0
VERTEX
  5
41D1
  8
3
 10
238.3776412908
 20
-26.89638572720003
 30
0.0
  0
VERTEX
  5
41D2
  8
3
 10
238.5
 20
-27.28265697009999
 30
0.0
  0
SEQEND
  5
4311
  8
3
  0
POLYLINE
  5
D98
  8
3
 66
     1
 10
0.0
 20
0.0
 30
0.0
  0
VERTEX
  5
41D3
  8
3
 10
238.055
 20
-27.55250386479986
 30
0.0
  0
VERTEX
  5
41D4
  8
3
 10
237.9310683357
 20
-27.90392956199992
 30
0.0
  0
VERTEX
  5
41D5
  8
3
 10
237.5742213306
 20
-28.21296813369997
 30
0.0
  0
VERTEX
  5
41D6
  8
3
 10
237.0275
 20
-28.44234496720003
 30
0.0
  0
VERTEX
  5
41D7
  8
3
 10
236.3568470051
 20
-28.56439383099985
 30
0.0
  0
VERTEX
  5
41D8
  8
3
 10
235.6431529949
 20
-28.56439383099985
 30
0.0
  0
VERTEX
  5
41D9
  8
3
 10
234.9725
 20
-28.44234496720003
 30
0.0
  0
VERTEX
  5
41DA
  8
3
 10
234.4257786694
 20
-28.21296813369997
 30
0.0
  0
VERTEX
  5
41DB
  8
3
 10
234.0689316643
 20
-27.90392956199992
 30
0.0
  0
VERTEX
  5
41DC
  8
3
 10
233.945
 20
-27.55250386479986
 30
0.0
  0
VERTEX
  5
41DD
  8
3
 10
234.0689316643
 20
-27.20107816749999
 30
0.0
  0
VERTEX
  5
41DE
  8
3
 10
234.4257786694
 20
-26.89203959579993
 30
0.0
  0
VERTEX
  5
41DF
  8
3
 10
234.9725
 20
-26.66266276239992
 30
0.0
  0
VERTEX
  5
41E0
  8
3
 10
235.6431529949
 20
-26.54061389850006
 30
0.0
  0
VERTEX
  5
41E1
  8
3
 10
236.3568470051
 20
-26.54061389850006
 30
0.0
  0
VERTEX
  5
41E2
  8
3
 10
237.0275
 20
-26.66266276239992
 30
0.0
  0
VERTEX
  5
41E3
  8
3
 10
237.5742213306
 20
-26.89203959579993
 30
0.0
  0
VERTEX
  5
41E4
  8
3
 10
237.9310683357
 20
-27.20107816749999
 30
0.0
  0
VERTEX
  5
41E5
  8
3
 10
238.055
 20
-27.55250386479986
 30
0.0
  0
SEQEND
  5
4310
  8
3
  0
POLYLINE
  5
D99
  8
3
 66
     1
 10
0.0
 20
0.0
 30
0.0
  0
VERTEX
  5
41E6
  8
3
 10
238.5
 20
-27.82235075939991
 30
0.0
  0
VERTEX
  5
41E7
  8
3
 10
238.3776412908
 20
-28.20862200239992
 30
0.0
  0
VERTEX
  5
41E8
  8
3
 10
238.022542486
 20
-28.55708232480004
 30
0.0
  0
VERTEX
  5
41E9
  8
3
 10
237.4694631308
 20
-28.83362200239992
 30
0.0
  0
VERTEX
  5
41EA
  8
3
 10
236.772542486
 20
-29.01117140479994
 30
0.0
  0
VERTEX
  5
41EB
  8
3
 10
236.0
 20
-29.07235075939991
 30
0.0
  0
VERTEX
  5
41EC
  8
3
 10
235.2274575141
 20
-29.01117140479994
 30
0.0
  0
VERTEX
  5
41ED
  8
3
 10
234.5305368693
 20
-28.83362200239992
 30
0.0
  0
VERTEX
  5
41EE
  8
3
 10
233.9774575141
 20
-28.55708232480004
 30
0.0
  0
VERTEX
  5
41EF
  8
3
 10
233.6223587093
 20
-28.20862200239992
 30
0.0
  0
VERTEX
  5
41F0
  8
3
 10
233.5
 20
-27.82235075939991
 30
0.0
  0
VERTEX
  5
41F1
  8
3
 10
233.6223587093
 20
-27.4360795163999
 30
0.0
  0
VERTEX
  5
41F2
  8
3
 10
233.9774575141
 20
-27.08761919400001
 30
0.0
  0
VERTEX
  5
41F3
  8
3
 10
234.5305368693
 20
-26.8110795163999
 30
0.0
  0
VERTEX
  5
41F4
  8
3
 10
235.2274575141
 20
-26.63353011399988
 30
0.0
  0
VERTEX
  5
41F5
  8
3
 10
236.0
 20
-26.57235075939991
 30
0.0
  0
VERTEX
  5
41F6
  8
3
 10
236.772542486
 20
-26.63353011399988
 30
0.0
  0
VERTEX
  5
41F7
  8
3
 10
237.4694631308
 20
-26.8110795163999
 30
0.0
  0
VERTEX
  5
41F8
  8
3
 10
238.022542486
 20
-27.08761919400001
 30
0.0
  0
VERTEX
  5
41F9
  8
3
 10
238.3776412908
 20
-27.4360795163999
 30
0.0
  0
VERTEX
  5
41FA
  8
3
 10
238.5
 20
-27.82235075939991
 30
0.0
  0
SEQEND
  5
430F
  8
3
  0
POLYLINE
  5
D9A
  8
3
 66
     1
 10
0.0
 20
0.0
 30
0.0
  0
VERTEX
  5
41FB
  8
3
 10
238.5
 20
-27.90039031069989
 30
0.0
  0
VERTEX
  5
41FC
  8
3
 10
238.3776412908
 20
-28.2866615536999
 30
0.0
  0
VERTEX
  5
41FD
  8
3
 10
238.022542486
 20
-28.63512187610002
 30
0.0
  0
VERTEX
  5
41FE
  8
3
 10
237.4694631308
 20
-28.9116615536999
 30
0.0
  0
VERTEX
  5
41FF
  8
3
 10
236.772542486
 20
-29.08921095609992
 30
0.0
  0
VERTEX
  5
4200
  8
3
 10
236.0
 20
-29.15039031069989
 30
0.0
  0
VERTEX
  5
4201
  8
3
 10
235.2274575141
 20
-29.08921095609992
 30
0.0
  0
VERTEX
  5
4202
  8
3
 10
234.5305368693
 20
-28.9116615536999
 30
0.0
  0
VERTEX
  5
4203
  8
3
 10
233.9774575141
 20
-28.63512187610002
 30
0.0
  0
VERTEX
  5
4204
  8
3
 10
233.6223587093
 20
-28.2866615536999
 30
0.0
  0
VERTEX
  5
4205
  8
3
 10
233.5
 20
-27.90039031069989
 30
0.0
  0
VERTEX
  5
4206
  8
3
 10
233.6223587093
 20
-27.51411906779992
 30
0.0
  0
VERTEX
  5
4207
  8
3
 10
233.9774575141
 20
-27.16565874540004
 30
0.0
  0
VERTEX
  5
4208
  8
3
 10
234.5305368693
 20
-26.88911906779992
 30
0.0
  0
VERTEX
  5
4209
  8
3
 10
235.2274575141
 20
-26.71156966539991
 30
0.0
  0
VERTEX
  5
420A
  8
3
 10
236.0
 20
-26.65039031069989
 30
0.0
  0
VERTEX
  5
420B
  8
3
 10
236.772542486
 20
-26.71156966539991
 30
0.0
  0
VERTEX
  5
420C
  8
3
 10
237.4694631308
 20
-26.88911906779992
 30
0.0
  0
VERTEX
  5
420D
  8
3
 10
238.022542486
 20
-27.16565874540004
 30
0.0
  0
VERTEX
  5
420E
  8
3
 10
238.3776412908
 20
-27.51411906779992
 30
0.0
  0
VERTEX
  5
420F
  8
3
 10
238.5
 20
-27.90039031069989
 30
0.0
  0
SEQEND
  5
430E
  8
3
  0
POLYLINE
  5
D9B
  8
3
 66
     1
 10
0.0
 20
0.0
 30
0.0
  0
VERTEX
  5
4210
  8
3
 10
238.055
 20
-28.17023720539999
 30
0.0
  0
VERTEX
  5
4211
  8
3
 10
237.9310683357
 20
-28.52166290260004
 30
0.0
  0
VERTEX
  5
4212
  8
3
 10
237.5742213306
 20
-28.83070147429987
 30
0.0
  0
VERTEX
  5
4213
  8
3
 10
237.0275
 20
-29.06007830779993
 30
0.0
  0
VERTEX
  5
4214
  8
3
 10
236.3568470051
 20
-29.18212717159997
 30
0.0
  0
VERTEX
  5
4215
  8
3
 10
235.6431529949
 20
-29.18212717159997
 30
0.0
  0
VERTEX
  5
4216
  8
3
 10
234.9725
 20
-29.06007830779993
 30
0.0
  0
VERTEX
  5
4217
  8
3
 10
234.4257786694
 20
-28.83070147429987
 30
0.0
  0
VERTEX
  5
4218
  8
3
 10
234.0689316643
 20
-28.52166290260004
 30
0.0
  0
VERTEX
  5
4219
  8
3
 10
233.945
 20
-28.17023720539999
 30
0.0
  0
VERTEX
  5
421A
  8
3
 10
234.0689316643
 20
-27.81881150809988
 30
0.0
  0
VERTEX
  5
421B
  8
3
 10
234.4257786694
 20
-27.50977293640005
 30
0.0
  0
VERTEX
  5
421C
  8
3
 10
234.9725
 20
-27.28039610300004
 30
0.0
  0
VERTEX
  5
421D
  8
3
 10
235.6431529949
 20
-27.1583472392
 30
0.0
  0
VERTEX
  5
421E
  8
3
 10
236.3568470051
 20
-27.1583472392
 30
0.0
  0
VERTEX
  5
421F
  8
3
 10
237.0275
 20
-27.28039610300004
 30
0.0
  0
VERTEX
  5
4220
  8
3
 10
237.5742213306
 20
-27.50977293640005
 30
0.0
  0
VERTEX
  5
4221
  8
3
 10
237.9310683357
 20
-27.81881150809988
 30
0.0
  0
VERTEX
  5
4222
  8
3
 10
238.055
 20
-28.17023720539999
 30
0.0
  0
SEQEND
  5
430D
  8
3
  0
POLYLINE
  5
D9C
  8
3
 66
     1
 10
0.0
 20
0.0
 30
0.0
  0
VERTEX
  5
4223
  8
3
 10
238.5
 20
-28.44008410000004
 30
0.0
  0
VERTEX
  5
4224
  8
3
 10
238.3776412908
 20
-28.82635534300005
 30
0.0
  0
VERTEX
  5
4225
  8
3
 10
238.022542486
 20
-29.17481566539993
 30
0.0
  0
VERTEX
  5
4226
  8
3
 10
237.4694631308
 20
-29.45135534300005
 30
0.0
  0
VERTEX
  5
4227
  8
3
 10
236.772542486
 20
-29.62890474540006
 30
0.0
  0
VERTEX
  5
4228
  8
3
 10
236.0
 20
-29.69008410000004
 30
0.0
  0
VERTEX
  5
4229
  8
3
 10
235.2274575141
 20
-29.62890474540006
 30
0.0
  0
VERTEX
  5
422A
  8
3
 10
234.5305368693
 20
-29.45135534300005
 30
0.0
  0
VERTEX
  5
422B
  8
3
 10
233.9774575141
 20
-29.17481566539993
 30
0.0
  0
VERTEX
  5
422C
  8
3
 10
233.6223587093
 20
-28.82635534300005
 30
0.0
  0
VERTEX
  5
422D
  8
3
 10
233.5
 20
-28.44008410000004
 30
0.0
  0
VERTEX
  5
422E
  8
3
 10
233.6223587093
 20
-28.05381285700003
 30
0.0
  0
VERTEX
  5
422F
  8
3
 10
233.9774575141
 20
-27.70535253459991
 30
0.0
  0
VERTEX
  5
4230
  8
3
 10
234.5305368693
 20
-27.42881285700003
 30
0.0
  0
VERTEX
  5
4231
  8
3
 10
235.2274575141
 20
-27.25126345460001
 30
0.0
  0
VERTEX
  5
4232
  8
3
 10
236.0
 20
-27.19008410000004
 30
0.0
  0
VERTEX
  5
4233
  8
3
 10
236.772542486
 20
-27.25126345460001
 30
0.0
  0
VERTEX
  5
4234
  8
3
 10
237.4694631308
 20
-27.42881285700003
 30
0.0
  0
VERTEX
  5
4235
  8
3
 10
238.022542486
 20
-27.70535253459991
 30
0.0
  0
VERTEX
  5
4236
  8
3
 10
238.3776412908
 20
-28.05381285700003
 30
0.0
  0
VERTEX
  5
4237
  8
3
 10
238.5
 20
-28.44008410000004
 30
0.0
  0
SEQEND
  5
430C
  8
3
  0
POLYLINE
  5
D9D
  8
3
 66
     1
 10
0.0
 20
0.0
 30
0.0
  0
VERTEX
  5
4238
  8
3
 10
238.5
 20
-28.51812365130002
 30
0.0
  0
VERTEX
  5
4239
  8
3
 10
238.3776412908
 20
-28.90439489430003
 30
0.0
  0
VERTEX
  5
423A
  8
3
 10
238.022542486
 20
-29.25285521669991
 30
0.0
  0
VERTEX
  5
423B
  8
3
 10
237.4694631308
 20
-29.52939489430003
 30
0.0
  0
VERTEX
  5
423C
  8
3
 10
236.772542486
 20
-29.70694429670004
 30
0.0
  0
VERTEX
  5
423D
  8
3
 10
236.0
 20
-29.76812365140006
 30
0.0
  0
VERTEX
  5
423E
  8
3
 10
235.2274575141
 20
-29.70694429670004
 30
0.0
  0
VERTEX
  5
423F
  8
3
 10
234.5305368693
 20
-29.52939489430003
 30
0.0
  0
VERTEX
  5
4240
  8
3
 10
233.9774575141
 20
-29.25285521669991
 30
0.0
  0
VERTEX
  5
4241
  8
3
 10
233.6223587093
 20
-28.90439489430003
 30
0.0
  0
VERTEX
  5
4242
  8
3
 10
233.5
 20
-28.51812365130002
 30
0.0
  0
VERTEX
  5
4243
  8
3
 10
233.6223587093
 20
-28.13185240840005
 30
0.0
  0
VERTEX
  5
4244
  8
3
 10
233.9774575141
 20
-27.78339208599994
 30
0.0
  0
VERTEX
  5
4245
  8
3
 10
234.5305368693
 20
-27.50685240840005
 30
0.0
  0
VERTEX
  5
4246
  8
3
 10
235.2274575141
 20
-27.32930300600003
 30
0.0
  0
VERTEX
  5
4247
  8
3
 10
236.0
 20
-27.26812365130002
 30
0.0
  0
VERTEX
  5
4248
  8
3
 10
236.772542486
 20
-27.32930300600003
 30
0.0
  0
VERTEX
  5
4249
  8
3
 10
237.4694631308
 20
-27.50685240840005
 30
0.0
  0
VERTEX
  5
424A
  8
3
 10
238.022542486
 20
-27.78339208599994
 30
0.0
  0
VERTEX
  5
424B
  8
3
 10
238.3776412908
 20
-28.13185240840005
 30
0.0
  0
VERTEX
  5
424C
  8
3
 10
238.5
 20
-28.51812365130002
 30
0.0
  0
SEQEND
  5
430B
  8
3
  0
POLYLINE
  5
D9E
  8
3
 66
     1
 10
0.0
 20
0.0
 30
0.0
  0
VERTEX
  5
424D
  8
3
 10
238.055
 20
-28.78797054599988
 30
0.0
  0
VERTEX
  5
424E
  8
3
 10
237.9310683357
 20
-29.13939624319994
 30
0.0
  0
VERTEX
  5
424F
  8
3
 10
237.5742213306
 20
-29.4484348149
 30
0.0
  0
VERTEX
  5
4250
  8
3
 10
237.0275
 20
-29.67781164840005
 30
0.0
  0
VERTEX
  5
4251
  8
3
 10
236.3568470051
 20
-29.79986051219987
 30
0.0
  0
VERTEX
  5
4252
  8
3
 10
235.6431529949
 20
-29.79986051219987
 30
0.0
  0
VERTEX
  5
4253
  8
3
 10
234.9725
 20
-29.67781164840005
 30
0.0
  0
VERTEX
  5
4254
  8
3
 10
234.4257786694
 20
-29.4484348149
 30
0.0
  0
VERTEX
  5
4255
  8
3
 10
234.0689316643
 20
-29.13939624319994
 30
0.0
  0
VERTEX
  5
4256
  8
3
 10
233.945
 20
-28.78797054599988
 30
0.0
  0
VERTEX
  5
4257
  8
3
 10
234.0689316643
 20
-28.43654484870001
 30
0.0
  0
VERTEX
  5
4258
  8
3
 10
234.4257786694
 20
-28.12750627699995
 30
0.0
  0
VERTEX
  5
4259
  8
3
 10
234.9725
 20
-27.89812944359994
 30
0.0
  0
VERTEX
  5
425A
  8
3
 10
235.6431529949
 20
-27.7760805797999
 30
0.0
  0
VERTEX
  5
425B
  8
3
 10
236.3568470051
 20
-27.7760805797999
 30
0.0
  0
VERTEX
  5
425C
  8
3
 10
237.0275
 20
-27.89812944359994
 30
0.0
  0
VERTEX
  5
425D
  8
3
 10
237.5742213306
 20
-28.12750627699995
 30
0.0
  0
VERTEX
  5
425E
  8
3
 10
237.9310683357
 20
-28.43654484870001
 30
0.0
  0
VERTEX
  5
425F
  8
3
 10
238.055
 20
-28.78797054599988
 30
0.0
  0
SEQEND
  5
430A
  8
3
  0
POLYLINE
  5
D9F
  8
3
 66
     1
 10
0.0
 20
0.0
 30
0.0
  0
VERTEX
  5
4260
  8
3
 10
238.5
 20
-29.05781744059993
 30
0.0
  0
VERTEX
  5
4261
  8
3
 10
238.3776412908
 20
-29.44408868359994
 30
0.0
  0
VERTEX
  5
4262
  8
3
 10
238.022542486
 20
-29.79254900600006
 30
0.0
  0
VERTEX
  5
4263
  8
3
 10
237.4694631308
 20
-30.06908868359994
 30
0.0
  0
VERTEX
  5
4264
  8
3
 10
236.772542486
 20
-30.24663808599996
 30
0.0
  0
VERTEX
  5
4265
  8
3
 10
236.0
 20
-30.30781744059993
 30
0.0
  0
VERTEX
  5
4266
  8
3
 10
235.2274575141
 20
-30.24663808599996
 30
0.0
  0
VERTEX
  5
4267
  8
3
 10
234.5305368693
 20
-30.06908868359994
 30
0.0
  0
VERTEX
  5
4268
  8
3
 10
233.9774575141
 20
-29.79254900600006
 30
0.0
  0
VERTEX
  5
4269
  8
3
 10
233.6223587093
 20
-29.44408868359994
 30
0.0
  0
VERTEX
  5
426A
  8
3
 10
233.5
 20
-29.05781744059993
 30
0.0
  0
VERTEX
  5
426B
  8
3
 10
233.6223587093
 20
-28.67154619759992
 30
0.0
  0
VERTEX
  5
426C
  8
3
 10
233.9774575141
 20
-28.32308587520004
 30
0.0
  0
VERTEX
  5
426D
  8
3
 10
234.5305368693
 20
-28.04654619759992
 30
0.0
  0
VERTEX
  5
426E
  8
3
 10
235.2274575141
 20
-27.86899679519991
 30
0.0
  0
VERTEX
  5
426F
  8
3
 10
236.0
 20
-27.80781744059993
 30
0.0
  0
VERTEX
  5
4270
  8
3
 10
236.772542486
 20
-27.86899679519991
 30
0.0
  0
VERTEX
  5
4271
  8
3
 10
237.4694631308
 20
-28.04654619759992
 30
0.0
  0
VERTEX
  5
4272
  8
3
 10
238.022542486
 20
-28.32308587520004
 30
0.0
  0
VERTEX
  5
4273
  8
3
 10
238.3776412908
 20
-28.67154619759992
 30
0.0
  0
VERTEX
  5
4274
  8
3
 10
238.5
 20
-29.05781744059993
 30
0.0
  0
SEQEND
  5
4309
  8
3
  0
POLYLINE
  5
DA0
  8
3
 66
     1
 10
0.0
 20
0.0
 30
0.0
  0
VERTEX
  5
4275
  8
3
 10
238.5
 20
-29.13585699199996
 30
0.0
  0
VERTEX
  5
4276
  8
3
 10
238.3776412908
 20
-29.52212823489992
 30
0.0
  0
VERTEX
  5
4277
  8
3
 10
238.022542486
 20
-29.87058855730004
 30
0.0
  0
VERTEX
  5
4278
  8
3
 10
237.4694631308
 20
-30.14712823489992
 30
0.0
  0
VERTEX
  5
4279
  8
3
 10
236.772542486
 20
-30.32467763729994
 30
0.0
  0
VERTEX
  5
427A
  8
3
 10
236.0
 20
-30.38585699199996
 30
0.0
  0
VERTEX
  5
427B
  8
3
 10
235.2274575141
 20
-30.32467763729994
 30
0.0
  0
VERTEX
  5
427C
  8
3
 10
234.5305368693
 20
-30.14712823489992
 30
0.0
  0
VERTEX
  5
427D
  8
3
 10
233.9774575141
 20
-29.87058855730004
 30
0.0
  0
VERTEX
  5
427E
  8
3
 10
233.6223587093
 20
-29.52212823489992
 30
0.0
  0
VERTEX
  5
427F
  8
3
 10
233.5
 20
-29.13585699199996
 30
0.0
  0
VERTEX
  5
4280
  8
3
 10
233.6223587093
 20
-28.74958574899995
 30
0.0
  0
VERTEX
  5
4281
  8
3
 10
233.9774575141
 20
-28.40112542660006
 30
0.0
  0
VERTEX
  5
4282
  8
3
 10
234.5305368693
 20
-28.12458574899995
 30
0.0
  0
VERTEX
  5
4283
  8
3
 10
235.2274575141
 20
-27.94703634659993
 30
0.0
  0
VERTEX
  5
4284
  8
3
 10
236.0
 20
-27.88585699199996
 30
0.0
  0
VERTEX
  5
4285
  8
3
 10
236.772542486
 20
-27.94703634659993
 30
0.0
  0
VERTEX
  5
4286
  8
3
 10
237.4694631308
 20
-28.12458574899995
 30
0.0
  0
VERTEX
  5
4287
  8
3
 10
238.022542486
 20
-28.40112542660006
 30
0.0
  0
VERTEX
  5
4288
  8
3
 10
238.3776412908
 20
-28.74958574899995
 30
0.0
  0
VERTEX
  5
4289
  8
3
 10
238.5
 20
-29.13585699199996
 30
0.0
  0
SEQEND
  5
4308
  8
3
  0
POLYLINE
  5
DA1
  8
3
 66
     1
 10
0.0
 20
0.0
 30
0.0
  0
VERTEX
  5
428A
  8
3
 10
238.055
 20
-29.40570388660001
 30
0.0
  0
VERTEX
  5
428B
  8
3
 10
237.9310683357
 20
-29.75712958380007
 30
0.0
  0
VERTEX
  5
428C
  8
3
 10
237.5742213306
 20
-30.06616815549989
 30
0.0
  0
VERTEX
  5
428D
  8
3
 10
237.0275
 20
-30.29554498899995
 30
0.0
  0
VERTEX
  5
428E
  8
3
 10
236.3568470051
 20
-30.4175938528
 30
0.0
  0
VERTEX
  5
428F
  8
3
 10
235.6431529949
 20
-30.4175938528
 30
0.0
  0
VERTEX
  5
4290
  8
3
 10
234.9725
 20
-30.29554498899995
 30
0.0
  0
VERTEX
  5
4291
  8
3
 10
234.4257786694
 20
-30.06616815549989
 30
0.0
  0
VERTEX
  5
4292
  8
3
 10
234.0689316643
 20
-29.75712958380007
 30
0.0
  0
VERTEX
  5
4293
  8
3
 10
233.945
 20
-29.40570388660001
 30
0.0
  0
VERTEX
  5
4294
  8
3
 10
234.0689316643
 20
-29.05427818929991
 30
0.0
  0
VERTEX
  5
4295
  8
3
 10
234.4257786694
 20
-28.74523961759985
 30
0.0
  0
VERTEX
  5
4296
  8
3
 10
234.9725
 20
-28.51586278420007
 30
0.0
  0
VERTEX
  5
4297
  8
3
 10
235.6431529949
 20
-28.39381392040002
 30
0.0
  0
VERTEX
  5
4298
  8
3
 10
236.3568470051
 20
-28.39381392040002
 30
0.0
  0
VERTEX
  5
4299
  8
3
 10
237.0275
 20
-28.51586278420007
 30
0.0
  0
VERTEX
  5
429A
  8
3
 10
237.5742213306
 20
-28.74523961759985
 30
0.0
  0
VERTEX
  5
429B
  8
3
 10
237.9310683357
 20
-29.05427818929991
 30
0.0
  0
VERTEX
  5
429C
  8
3
 10
238.055
 20
-29.40570388660001
 30
0.0
  0
SEQEND
  5
4307
  8
3
  0
POLYLINE
  5
DA2
  8
3
 66
     1
 10
0.0
 20
0.0
 30
0.0
  0
VERTEX
  5
429D
  8
3
 10
238.5
 20
-29.67555078120006
 30
0.0
  0
VERTEX
  5
429E
  8
3
 10
238.3776412908
 20
-30.06182202420007
 30
0.0
  0
VERTEX
  5
429F
  8
3
 10
238.022542486
 20
-30.41028234659996
 30
0.0
  0
VERTEX
  5
42A0
  8
3
 10
237.4694631308
 20
-30.68682202420007
 30
0.0
  0
VERTEX
  5
42A1
  8
3
 10
236.772542486
 20
-30.86437142659986
 30
0.0
  0
VERTEX
  5
42A2
  8
3
 10
236.0
 20
-30.92555078120006
 30
0.0
  0
VERTEX
  5
42A3
  8
3
 10
235.2274575141
 20
-30.86437142659986
 30
0.0
  0
VERTEX
  5
42A4
  8
3
 10
234.5305368693
 20
-30.68682202420007
 30
0.0
  0
VERTEX
  5
42A5
  8
3
 10
233.9774575141
 20
-30.41028234659996
 30
0.0
  0
VERTEX
  5
42A6
  8
3
 10
233.6223587093
 20
-30.06182202420007
 30
0.0
  0
VERTEX
  5
42A7
  8
3
 10
233.5
 20
-29.67555078120006
 30
0.0
  0
VERTEX
  5
42A8
  8
3
 10
233.6223587093
 20
-29.28927953820005
 30
0.0
  0
VERTEX
  5
42A9
  8
3
 10
233.9774575141
 20
-28.94081921579993
 30
0.0
  0
VERTEX
  5
42AA
  8
3
 10
234.5305368693
 20
-28.66427953820005
 30
0.0
  0
VERTEX
  5
42AB
  8
3
 10
235.2274575141
 20
-28.48673013580003
 30
0.0
  0
VERTEX
  5
42AC
  8
3
 10
236.0
 20
-28.42555078120006
 30
0.0
  0
VERTEX
  5
42AD
  8
3
 10
236.772542486
 20
-28.48673013580003
 30
0.0
  0
VERTEX
  5
42AE
  8
3
 10
237.4694631308
 20
-28.66427953820005
 30
0.0
  0
VERTEX
  5
42AF
  8
3
 10
238.022542486
 20
-28.94081921579993
 30
0.0
  0
VERTEX
  5
42B0
  8
3
 10
238.3776412908
 20
-29.28927953820005
 30
0.0
  0
VERTEX
  5
42B1
  8
3
 10
238.5
 20
-29.67555078120006
 30
0.0
  0
SEQEND
  5
4306
  8
3
  0
LINE
  5
DA3
  8
3
 10
236.0
 20
-28.62935647350002
 30
0.0
 11
236.0
 21
-30.96762506369998
 31
0.0
  0
LINE
  5
DA4
  8
3
 10
237.25
 20
-28.26851255519989
 30
0.0
 11
236.0
 21
-28.62935647350002
 31
0.0
  0
LINE
  5
DA5
  8
3
 10
234.75
 20
-28.26851255519989
 30
0.0
 11
236.0
 21
-28.62935647350002
 31
0.0
  0
POLYLINE
  5
DA6
  8
3
 66
     1
 10
0.0
 20
0.0
 30
0.0
  0
VERTEX
  5
42B2
  8
3
 10
238.5
 20
-29.75359033259986
 30
0.0
  0
VERTEX
  5
42B3
  8
3
 10
238.3776412908
 20
-30.13986157550005
 30
0.0
  0
VERTEX
  5
42B4
  8
3
 10
238.022542486
 20
-30.48832189789994
 30
0.0
  0
VERTEX
  5
42B5
  8
3
 10
237.4694631308
 20
-30.76486157550005
 30
0.0
  0
VERTEX
  5
42B6
  8
3
 10
236.772542486
 20
-30.94241097790007
 30
0.0
  0
VERTEX
  5
42B7
  8
3
 10
236.0
 20
-31.00359033259986
 30
0.0
  0
VERTEX
  5
42B8
  8
3
 10
235.2274575141
 20
-30.94241097790007
 30
0.0
  0
VERTEX
  5
42B9
  8
3
 10
234.5305368693
 20
-30.76486157550005
 30
0.0
  0
VERTEX
  5
42BA
  8
3
 10
233.9774575141
 20
-30.48832189789994
 30
0.0
  0
VERTEX
  5
42BB
  8
3
 10
233.6223587093
 20
-30.13986157550005
 30
0.0
  0
VERTEX
  5
42BC
  8
3
 10
233.5
 20
-29.75359033259986
 30
0.0
  0
VERTEX
  5
42BD
  8
3
 10
233.6223587093
 20
-29.36731908959985
 30
0.0
  0
VERTEX
  5
42BE
  8
3
 10
233.9774575141
 20
-29.01885876719996
 30
0.0
  0
VERTEX
  5
42BF
  8
3
 10
234.5305368693
 20
-28.74231908959985
 30
0.0
  0
VERTEX
  5
42C0
  8
3
 10
235.2274575141
 20
-28.56476968720006
 30
0.0
  0
VERTEX
  5
42C1
  8
3
 10
236.0
 20
-28.50359033259986
 30
0.0
  0
VERTEX
  5
42C2
  8
3
 10
236.772542486
 20
-28.56476968720006
 30
0.0
  0
VERTEX
  5
42C3
  8
3
 10
237.4694631308
 20
-28.74231908959985
 30
0.0
  0
VERTEX
  5
42C4
  8
3
 10
238.022542486
 20
-29.01885876719996
 30
0.0
  0
VERTEX
  5
42C5
  8
3
 10
238.3776412908
 20
-29.36731908959985
 30
0.0
  0
VERTEX
  5
42C6
  8
3
 10
238.5
 20
-29.75359033259986
 30
0.0
  0
SEQEND
  5
4305
  8
3
  0
POLYLINE
  5
DA7
  8
3
 66
     1
 10
0.0
 20
0.0
 30
0.0
  0
VERTEX
  5
42C7
  8
3
 10
238.055
 20
-30.02343722719991
 30
0.0
  0
VERTEX
  5
42C8
  8
3
 10
237.9310683357
 20
-30.37486292450001
 30
0.0
  0
VERTEX
  5
42C9
  8
3
 10
237.5742213306
 20
-30.68390149610002
 30
0.0
  0
VERTEX
  5
42CA
  8
3
 10
237.0275
 20
-30.91327832959985
 30
0.0
  0
VERTEX
  5
42CB
  8
3
 10
236.3568470051
 20
-31.03532719339989
 30
0.0
  0
VERTEX
  5
42CC
  8
3
 10
235.6431529949
 20
-31.03532719339989
 30
0.0
  0
VERTEX
  5
42CD
  8
3
 10
234.9725
 20
-30.91327832959985
 30
0.0
  0
VERTEX
  5
42CE
  8
3
 10
234.4257786694
 20
-30.68390149610002
 30
0.0
  0
VERTEX
  5
42CF
  8
3
 10
234.0689316643
 20
-30.37486292450001
 30
0.0
  0
VERTEX
  5
42D0
  8
3
 10
233.945
 20
-30.02343722719991
 30
0.0
  0
VERTEX
  5
42D1
  8
3
 10
234.0689316643
 20
-29.67201152990003
 30
0.0
  0
VERTEX
  5
42D2
  8
3
 10
234.4257786694
 20
-29.36297295819998
 30
0.0
  0
VERTEX
  5
42D3
  8
3
 10
234.9725
 20
-29.13359612479996
 30
0.0
  0
VERTEX
  5
42D4
  8
3
 10
235.6431529949
 20
-29.01154726099992
 30
0.0
  0
VERTEX
  5
42D5
  8
3
 10
236.3568470051
 20
-29.01154726099992
 30
0.0
  0
VERTEX
  5
42D6
  8
3
 10
237.0275
 20
-29.13359612479996
 30
0.0
  0
VERTEX
  5
42D7
  8
3
 10
237.5742213306
 20
-29.36297295819998
 30
0.0
  0
VERTEX
  5
42D8
  8
3
 10
237.9310683357
 20
-29.67201152990003
 30
0.0
  0
VERTEX
  5
42D9
  8
3
 10
238.055
 20
-30.02343722719991
 30
0.0
  0
SEQEND
  5
4304
  8
3
  0
POLYLINE
  5
DA8
  8
3
 66
     1
 10
0.0
 20
0.0
 30
0.0
  0
VERTEX
  5
42DA
  8
3
 10
238.2561031269
 20
-30.14538566379986
 30
0.0
  0
VERTEX
  5
42DB
  8
3
 10
238.1338612365
 20
-29.77910791989996
 30
0.0
  0
VERTEX
  5
42DC
  8
3
 10
237.7803823708
 20
-29.45252205290001
 30
0.0
  0
VERTEX
  5
42DD
  8
3
 10
237.2339714498
 20
-29.20101870909991
 30
0.0
  0
VERTEX
  5
42DE
  8
3
 10
236.5538405752
 20
-29.05185217819997
 30
0.0
  0
VERTEX
  5
42DF
  8
3
 10
235.8136924805
 20
-29.02118696829996
 30
0.0
  0
VERTEX
  5
42E0
  8
3
 10
235.0937336964
 20
-29.11234613089994
 30
0.0
  0
VERTEX
  5
42E1
  8
3
 10
234.4719829285
 20
-29.31545115610004
 30
0.0
  0
VERTEX
  5
42E2
  8
3
 10
234.01581652
 20
-29.60849246290002
 30
0.0
  0
VERTEX
  5
42E3
  8
3
 10
233.7746671792
 20
-29.95971447889985
 30
0.0
  0
VERTEX
  5
42E4
  8
3
 10
233.7746671792
 20
-30.33105684869986
 30
0.0
  0
VERTEX
  5
42E5
  8
3
 10
234.01581652
 20
-30.68227886459988
 30
0.0
  0
VERTEX
  5
42E6
  8
3
 10
234.4719829285
 20
-30.97532017139986
 30
0.0
  0
VERTEX
  5
42E7
  8
3
 10
235.0937336964
 20
-31.17842519659996
 30
0.0
  0
VERTEX
  5
42E8
  8
3
 10
235.8136924805
 20
-31.26958435919994
 30
0.0
  0
VERTEX
  5
42E9
  8
3
 10
236.5538405752
 20
-31.23891914929993
 30
0.0
  0
VERTEX
  5
42EA
  8
3
 10
237.2339714498
 20
-31.08975261839998
 30
0.0
  0
VERTEX
  5
42EB
  8
3
 10
237.7803823708
 20
-30.83824927459989
 30
0.0
  0
VERTEX
  5
42EC
  8
3
 10
238.1338612365
 20
-30.51166340759994
 30
0.0
  0
VERTEX
  5
42ED
  8
3
 10
238.2561031269
 20
-30.14538566379986
 30
0.0
  0
SEQEND
  5
4303
  8
3
  0
LINE
  5
DA9
  8
3
 10
237.25
 20
-28.26851255519989
 30
0.0
 11
237.25
 21
-27.5468247186999
 31
0.0
  0
LINE
  5
DAA
  8
3
 10
237.25
 20
-28.26851255519989
 30
0.0
 11
237.25
 21
-30.60678114539985
 31
0.0
  0
LINE
  5
DAB
  8
3
 10
234.75
 20
-28.26851255519989
 30
0.0
 11
234.75
 21
-27.5468247186999
 31
0.0
  0
LINE
  5
DAC
  8
3
 10
234.75
 20
-28.26851255519989
 30
0.0
 11
234.75
 21
-30.60678114539985
 31
0.0
  0
POLYLINE
  5
DAD
  8
3
 66
     1
 10
0.0
 20
0.0
 30
0.0
  0
VERTEX
  5
42EE
  8
3
 10
236.0
 20
-31.27343722719991
 30
0.0
  0
VERTEX
  5
42EF
  8
3
 10
235.2971486055
 20
-31.21147139499988
 30
0.0
  0
VERTEX
  5
42F0
  8
3
 10
234.6790714621
 20
-31.03304789249989
 30
0.0
  0
VERTEX
  5
42F1
  8
3
 10
234.2203177953
 20
-30.75968722720006
 30
0.0
  0
VERTEX
  5
42F2
  8
3
 10
233.9762200676
 20
-30.42436072969997
 30
0.0
  0
VERTEX
  5
42F3
  8
3
 10
233.9762200676
 20
-30.06751372459996
 30
0.0
  0
VERTEX
  5
42F4
  8
3
 10
234.2203177953
 20
-29.73218722719992
 30
0.0
  0
VERTEX
  5
42F5
  8
3
 10
234.6790714621
 20
-29.45882656189985
 30
0.0
  0
VERTEX
  5
42F6
  8
3
 10
235.2971486055
 20
-29.28040305930006
 30
0.0
  0
VERTEX
  5
42F7
  8
3
 10
236.0
 20
-29.21843722720007
 30
0.0
  0
VERTEX
  5
42F8
  8
3
 10
236.7028513946
 20
-29.28040305930006
 30
0.0
  0
VERTEX
  5
42F9
  8
3
 10
237.3209285379
 20
-29.45882656189985
 30
0.0
  0
VERTEX
  5
42FA
  8
3
 10
237.7796822048
 20
-29.73218722719992
 30
0.0
  0
VERTEX
  5
42FB
  8
3
 10
238.0237799325
 20
-30.06751372459996
 30
0.0
  0
VERTEX
  5
42FC
  8
3
 10
238.0237799325
 20
-30.42436072969997
 30
0.0
  0
VERTEX
  5
42FD
  8
3
 10
237.7796822048
 20
-30.75968722720006
 30
0.0
  0
VERTEX
  5
42FE
  8
3
 10
237.3209285379
 20
-31.03304789249989
 30
0.0
  0
VERTEX
  5
42FF
  8
3
 10
236.7028513946
 20
-31.21147139499988
 30
0.0
  0
VERTEX
  5
4300
  8
3
 10
236.0
 20
-31.27343722719991
 30
0.0
  0
SEQEND
  5
4302
  8
3
  0
LINE
  5
DAE
  8
3
 10
237.25
 20
-30.60678114539985
 30
0.0
 11
236.0
 21
-30.96762506369998
 31
0.0
  0
LINE
  5
DAF
  8
3
 10
234.75
 20
-30.60678114539985
 30
0.0
 11
236.0
 21
-30.96762506369998
 31
0.0
  0
LINE
  5
DB0
  8
3
 10
236.0
 20
-27.18598080050003
 30
0.0
 11
236.0
 21
-28.62935647350002
 31
0.0
  0
LINE
  5
DB1
  8
3
 10
234.75
 20
-29.88509330889985
 30
0.0
 11
236.0
 21
-29.52424939069999
 31
0.0
  0
LINE
  5
DB2
  8
3
 10
234.75
 20
-27.5468247186999
 30
0.0
 11
236.0
 21
-27.18598080050003
 31
0.0
  0
LINE
  5
DB3
  8
3
 10
237.25
 20
-29.88509330889985
 30
0.0
 11
236.0
 21
-29.52424939069999
 31
0.0
  0
LINE
  5
DB4
  8
3
 10
237.25
 20
-27.5468247186999
 30
0.0
 11
236.0
 21
-27.18598080050003
 31
0.0
  0
LINE
  5
DB6
  8
3
 10
253.80019979
 20
7.098029999999994
 30
0.0
 11
253.80019979
 21
-7.098029999999994
 31
0.0
  0
LINE
  5
DBF
  8
3
 10
242.397760305
 20
-19.04618999999991
 30
0.0
 11
242.397760305
 21
-31.75381000000004
 31
0.0
  0
LINE
  5
DC0
  8
3
 10
240.3348
 20
-19.30399999999997
 30
0.0
 11
240.3348
 21
-31.49599999999998
 31
0.0
  0
LINE
  5
DC1
  8
3
 10
241.2596395107
 20
-19.0561899999999
 30
0.0
 11
241.2596395107
 21
-31.74381000000005
 31
0.0
  0
LINE
  5
DC2
  8
3
 10
242.397760305
 20
31.75381000000004
 30
0.0
 11
242.397760305
 21
19.04619000000014
 31
0.0
  0
LINE
  5
DC3
  8
3
 10
240.3348
 20
31.49599999999998
 30
0.0
 11
240.3348
 21
19.30399999999997
 31
0.0
  0
LINE
  5
DC4
  8
3
 10
241.2596395107
 20
31.74381000000005
 30
0.0
 11
241.2596395107
 21
19.05619000000013
 31
0.0
  0
LINE
  5
DC8
  8
3
 10
254.0
 20
16.87407116049997
 30
0.0
 11
253.8136296695
 21
16.17852761799998
 31
0.0
  0
LINE
  5
DC9
  8
3
 10
253.8136296695
 20
-16.17852761810002
 30
0.0
 11
254.0
 21
-16.87407116060001
 31
0.0
  0
ARC
  5
DCA
  8
3
 10
254.2
 20
-16.07499999999993
 30
0.0
 40
0.4000000000000283
 50
166.8750000000059
 51
194.9999999999931
  0
ARC
  5
DCB
  8
3
 10
254.2
 20
-16.07499999999993
 30
0.0
 40
0.4000000000000807
 50
120.0000000000008
 51
166.8750000000082
  0
ARC
  5
DCC
  8
3
 10
254.2
 20
16.07499999999993
 30
0.0
 40
0.4000000000000263
 50
165.0000000000069
 51
180.0
  0
ARC
  5
DCD
  8
3
 10
254.2
 20
16.07499999999993
 30
0.0
 40
0.3999999999999773
 50
180.0
 51
240.0000000000188
  0
LINE
  5
DCE
  8
3
 10
253.8
 20
16.07499999999993
 30
0.0
 11
253.8
 21
-16.07499999999993
 31
0.0
  0
LINE
  5
DD1
  8
3
 10
254.0
 20
2.000000000000114
 30
0.0
 11
236.6468979737
 21
2.000000000000114
 31
0.0
  0
LINE
  5
DD2
  8
3
 10
236.6501266855
 20
-1.999999999999886
 30
0.0
 11
254.0
 21
-1.999999999999886
 31
0.0
  0
LINE
  5
DD9
  8
SK3
 10
-40.09999999999999
 20
-11.11250000000007
 30
0.0
 11
-37.834376924
 21
-7.341869999999858
 31
0.0
  0
LINE
  5
DDA
  8
SK3
 10
-37.834376924
 20
7.341870000000085
 30
0.0
 11
-40.09999999999999
 21
11.11250000000007
 31
0.0
  0
LINE
  5
DDF
  8
3
 10
254.0440397900001
 20
7.341870000000085
 30
0.0
 11
0.0000000000000284
 21
7.341870000000085
 31
0.0
  0
LINE
  5
DE0
  8
3
 10
0.0
 20
-7.341869999999858
 30
0.0
 11
254.0440397899999
 21
-7.341869999999858
 31
0.0
  0
LINE
  5
DE1
  8
3
 10
254.0
 20
31.75049999999999
 30
0.0
 11
239.0
 21
31.75049999999999
 31
0.0
  0
LINE
  5
DE2
  8
3
 10
239.0
 20
19.04949999999997
 30
0.0
 11
254.0
 21
19.04949999999997
 31
0.0
  0
LINE
  5
DE3
  8
3
 10
254.0
 20
-19.04949999999997
 30
0.0
 11
239.0
 21
-19.04949999999997
 31
0.0
  0
LINE
  5
DE4
  8
3
 10
239.0
 20
-31.75049999999999
 30
0.0
 11
254.0
 21
-31.75049999999999
 31
0.0
  0
LINE
  5
DE5
  8
3
 10
239.0
 20
-19.04949999999997
 30
0.0
 11
235.1842346389
 21
-25.39999999999998
 31
0.0
  0
LINE
  5
DE6
  8
3
 10
235.1842346389
 20
-25.39999999999998
 30
0.0
 11
239.0
 21
-31.75049999999999
 31
0.0
  0
LINE
  5
DE7
  8
3
 10
239.0
 20
31.75049999999999
 30
0.0
 11
235.1842346389
 21
25.39999999999998
 31
0.0
  0
LINE
  5
DE8
  8
3
 10
235.1842346389
 20
25.39999999999998
 30
0.0
 11
239.0
 21
19.04949999999997
 31
0.0
  0
LINE
  5
DEF
  8
3
 10
233.9
 20
29.01185102679995
 30
0.0
 11
233.9
 21
6.354557527900056
 31
0.0
  0
LINE
  5
DF0
  8
3
 10
238.1
 20
11.90303384810011
 30
0.0
 11
238.1
 21
29.01185102679995
 31
0.0
  0
LINE
  5
DF1
  8
3
 10
238.1
 20
6.35234756579996
 30
0.0
 11
238.1
 21
8.450111038200134
 31
0.0
  0
LINE
  5
DF2
  8
3
 10
238.1
 20
-8.447117866799886
 30
0.0
 11
238.1
 21
-6.352347565900004
 31
0.0
  0
LINE
  5
DF3
  8
3
 10
238.1
 20
-29.01185102679995
 30
0.0
 11
238.1
 21
-11.89983538059994
 31
0.0
  0
LINE
  5
DF4
  8
3
 10
233.9
 20
-6.354557527900056
 30
0.0
 11
233.9
 21
-29.01185102679995
 31
0.0
  0
LINE
  5
DF5
  8
3
 10
254.0
 20
12.1757984945001
 30
0.0
 11
237.8429309105
 21
12.1757984945001
 31
0.0
  0
LINE
  5
DF6
  8
3
 10
237.8335497759
 20
8.1757984945001
 30
0.0
 11
254.0
 21
8.1757984945001
 31
0.0
  0
LINE
  5
DF7
  8
3
 10
254.0
 20
-8.175798494499873
 30
0.0
 11
237.8420407841
 21
-8.175798494499873
 31
0.0
  0
LINE
  5
DF8
  8
3
 10
237.8341813471
 20
-12.17579849449987
 30
0.0
 11
254.0
 21
-12.17579849449987
 31
0.0
  0
LINE
  5
DF9
  8
3
 10
233.375
 20
30.24576628110015
 30
0.0
 11
233.375
 21
29.37991182339999
 31
0.0
  0
LINE
  5
DFA
  8
3
 10
238.625
 20
29.37991182339999
 30
0.0
 11
238.625
 21
30.24378634679999
 31
0.0
  0
LINE
  5
DFB
  8
3
 10
238.625
 20
-30.24378634690004
 30
0.0
 11
238.625
 21
-29.37991182339999
 31
0.0
  0
LINE
  5
DFC
  8
3
 10
233.375
 20
-29.37991182339999
 30
0.0
 11
233.375
 21
-30.24576628119996
 31
0.0
  0
LINE
  5
DFD
  8
3
 10
233.9383461332
 20
28.65100710850004
 30
0.0
 11
234.2853571801
 21
28.40563324409993
 31
0.0
  0
LINE
  5
DFE
  8
3
 10
237.71464282
 20
28.40563324409993
 30
0.0
 11
238.0616538669
 21
28.65100710850004
 31
0.0
  0
LINE
  5
DFF
  8
3
 10
238.0616538669
 20
-28.65100710850004
 30
0.0
 11
237.71464282
 21
-28.40563324409993
 31
0.0
  0
LINE
  5
E00
  8
3
 10
234.2853571801
 20
-28.40563324409993
 30
0.0
 11
233.9383461332
 21
-28.65100710850004
 31
0.0
  0
LINE
  5
E01
  8
3
 10
234.1083956361
 20
24.87180662089997
 30
0.0
 11
234.5711309834
 21
24.54460331889993
 31
0.0
  0
LINE
  5
E02
  8
3
 10
237.4288690167
 20
24.54460331889993
 30
0.0
 11
237.891604364
 21
24.87180662089997
 31
0.0
  0
LINE
  5
E03
  8
3
 10
234.585496796
 20
24.93847369239995
 30
0.0
 11
234.8372783663
 21
24.85208731180012
 31
0.0
  0
LINE
  5
E04
  8
3
 10
237.1627216338
 20
24.85208731180012
 30
0.0
 11
237.4145032041
 21
24.93847369239995
 31
0.0
  0
LINE
  5
E05
  8
3
 10
237.3108103555
 20
26.49571106080009
 30
0.0
 11
237.1627216338
 21
26.54652037409994
 31
0.0
  0
LINE
  5
E06
  8
3
 10
234.8372783663
 20
26.54652037409994
 30
0.0
 11
234.6891896446
 21
26.49571106080009
 31
0.0
  0
LINE
  5
E07
  8
3
 10
233.5
 20
26.04719028889997
 30
0.0
 11
233.5
 21
25.96915073759999
 31
0.0
  0
LINE
  5
E08
  8
3
 10
238.5
 20
25.96915073759999
 30
0.0
 11
238.5
 21
26.04719028889997
 31
0.0
  0
LINE
  5
E09
  8
3
 10
237.4145032041
 20
27.07786733410001
 30
0.0
 11
237.1627216338
 21
27.16425371470007
 31
0.0
  0
LINE
  5
E0A
  8
3
 10
234.8372783663
 20
27.16425371470007
 30
0.0
 11
234.585496796
 21
27.07786733410001
 31
0.0
  0
LINE
  5
E0B
  8
3
 10
234.585496796
 20
25.55620703300008
 30
0.0
 11
234.8372783663
 21
25.46982065240002
 31
0.0
  0
LINE
  5
E0C
  8
3
 10
237.1627216338
 20
25.46982065240002
 30
0.0
 11
237.4145032041
 21
25.55620703300008
 31
0.0
  0
LINE
  5
E0D
  8
3
 10
233.5
 20
26.66492362950009
 30
0.0
 11
233.5
 21
26.58688407820011
 31
0.0
  0
LINE
  5
E0E
  8
3
 10
238.5
 20
26.58688407820011
 30
0.0
 11
238.5
 21
26.66492362950009
 31
0.0
  0
LINE
  5
E0F
  8
3
 10
237.4145032041
 20
27.69560067470013
 30
0.0
 11
237.1627216338
 21
27.78198705529996
 31
0.0
  0
LINE
  5
E10
  8
3
 10
234.8372783663
 20
27.78198705529996
 30
0.0
 11
234.585496796
 21
27.69560067470013
 31
0.0
  0
LINE
  5
E11
  8
3
 10
234.585496796
 20
26.17394037359998
 30
0.0
 11
234.8372783663
 21
26.08755399300014
 31
0.0
  0
LINE
  5
E12
  8
3
 10
237.1627216338
 20
26.08755399300014
 30
0.0
 11
237.4145032041
 21
26.17394037359998
 31
0.0
  0
LINE
  5
E13
  8
3
 10
233.5
 20
27.28265697009999
 30
0.0
 11
233.5
 21
27.20461741880001
 31
0.0
  0
LINE
  5
E14
  8
3
 10
238.5
 20
27.20461741880001
 30
0.0
 11
238.5
 21
27.28265697009999
 31
0.0
  0
LINE
  5
E15
  8
3
 10
237.4145032041
 20
28.31333401530003
 30
0.0
 11
237.1627216338
 21
28.39972039590009
 31
0.0
  0
LINE
  5
E16
  8
3
 10
234.8372783663
 20
28.39972039590009
 30
0.0
 11
234.585496796
 21
28.31333401530003
 31
0.0
  0
LINE
  5
E17
  8
3
 10
234.585496796
 20
26.7916737142001
 30
0.0
 11
234.8372783663
 21
26.70528733360004
 31
0.0
  0
LINE
  5
E18
  8
3
 10
237.1627216338
 20
26.70528733360004
 30
0.0
 11
237.4145032041
 21
26.7916737142001
 31
0.0
  0
LINE
  5
E19
  8
3
 10
233.5
 20
27.90039031070012
 30
0.0
 11
233.5
 21
27.82235075940014
 31
0.0
  0
LINE
  5
E1A
  8
3
 10
238.5
 20
27.82235075940014
 30
0.0
 11
238.5
 21
27.90039031070012
 31
0.0
  0
LINE
  5
E1B
  8
3
 10
237.4145032041
 20
28.93106735590015
 30
0.0
 11
237.1627216338
 21
29.01745373649999
 31
0.0
  0
LINE
  5
E1C
  8
3
 10
234.8372783663
 20
29.01745373649999
 30
0.0
 11
234.585496796
 21
28.93106735590015
 31
0.0
  0
LINE
  5
E1D
  8
3
 10
234.585496796
 20
27.4094070548
 30
0.0
 11
234.8372783663
 21
27.32302067419994
 31
0.0
  0
LINE
  5
E1E
  8
3
 10
237.1627216338
 20
27.32302067419994
 30
0.0
 11
237.4145032041
 21
27.4094070548
 31
0.0
  0
LINE
  5
E1F
  8
3
 10
233.5
 20
28.51812365130002
 30
0.0
 11
233.5
 21
28.44008410000004
 31
0.0
  0
LINE
  5
E20
  8
3
 10
238.5
 20
28.44008410000004
 30
0.0
 11
238.5
 21
28.51812365130002
 31
0.0
  0
LINE
  5
E21
  8
3
 10
237.4145032041
 20
29.54880069650005
 30
0.0
 11
237.1627216338
 21
29.63518707710011
 31
0.0
  0
LINE
  5
E22
  8
3
 10
234.8372783663
 20
29.63518707710011
 30
0.0
 11
234.585496796
 21
29.54880069650005
 31
0.0
  0
LINE
  5
E23
  8
3
 10
234.585496796
 20
28.02714039540012
 30
0.0
 11
234.8372783663
 21
27.94075401480006
 31
0.0
  0
LINE
  5
E24
  8
3
 10
237.1627216338
 20
27.94075401480006
 30
0.0
 11
237.4145032041
 21
28.02714039540012
 31
0.0
  0
LINE
  5
E25
  8
3
 10
233.5
 20
29.13585699190014
 30
0.0
 11
233.5
 21
29.05781744059993
 31
0.0
  0
LINE
  5
E26
  8
3
 10
238.5
 20
29.05781744059993
 30
0.0
 11
238.5
 21
29.13585699190014
 31
0.0
  0
LINE
  5
E27
  8
3
 10
237.4145032041
 20
30.16653403709995
 30
0.0
 11
237.1627216338
 21
30.25292041770001
 31
0.0
  0
LINE
  5
E28
  8
3
 10
234.8372783663
 20
30.25292041770001
 30
0.0
 11
234.585496796
 21
30.16653403709995
 31
0.0
  0
LINE
  5
E29
  8
3
 10
234.585496796
 20
28.64487373600002
 30
0.0
 11
234.8372783663
 21
28.55848735539996
 31
0.0
  0
LINE
  5
E2A
  8
3
 10
237.1627216338
 20
28.55848735539996
 30
0.0
 11
237.4145032041
 21
28.64487373600002
 31
0.0
  0
LINE
  5
E2B
  8
3
 10
233.5
 20
29.75359033250004
 30
0.0
 11
233.5
 21
29.67555078120006
 31
0.0
  0
LINE
  5
E2C
  8
3
 10
238.5
 20
29.67555078120006
 30
0.0
 11
238.5
 21
29.75359033250004
 31
0.0
  0
LINE
  5
E2D
  8
3
 10
237.4145032041
 20
30.78426737770008
 30
0.0
 11
237.1627216338
 21
30.87065375830014
 31
0.0
  0
LINE
  5
E2E
  8
3
 10
234.8372783663
 20
30.87065375830014
 30
0.0
 11
234.585496796
 21
30.78426737770008
 31
0.0
  0
LINE
  5
E2F
  8
3
 10
234.7234939594
 20
29.21526018199995
 30
0.0
 11
234.8372783663
 21
29.17622069600009
 31
0.0
  0
LINE
  5
E30
  8
3
 10
237.1627216338
 20
29.17622069600009
 30
0.0
 11
237.2765060407
 21
29.21526018199995
 31
0.0
  0
LINE
  5
E31
  8
3
 10
237.891604364
 20
-24.87180662089997
 30
0.0
 11
237.4288690166
 21
-24.54460331889993
 31
0.0
  0
LINE
  5
E32
  8
3
 10
234.5711309834
 20
-24.54460331889993
 30
0.0
 11
234.1083956361
 21
-24.87180662089997
 31
0.0
  0
LINE
  5
E33
  8
3
 10
237.4145032041
 20
-24.93847369239995
 30
0.0
 11
237.1627216337
 21
-24.85208731179989
 31
0.0
  0
LINE
  5
E34
  8
3
 10
234.8372783663
 20
-24.85208731179989
 30
0.0
 11
234.585496796
 21
-24.93847369239995
 31
0.0
  0
LINE
  5
E35
  8
3
 10
234.6891896446
 20
-26.49571106089991
 30
0.0
 11
234.8372783663
 21
-26.54652037409994
 31
0.0
  0
LINE
  5
E36
  8
3
 10
237.1627216337
 20
-26.54652037409994
 30
0.0
 11
237.3108103554
 21
-26.49571106089991
 31
0.0
  0
LINE
  5
E37
  8
3
 10
238.5
 20
-26.04719028889997
 30
0.0
 11
238.5
 21
-25.96915073759999
 31
0.0
  0
LINE
  5
E38
  8
3
 10
233.5
 20
-25.96915073759999
 30
0.0
 11
233.5
 21
-26.04719028889997
 31
0.0
  0
LINE
  5
E39
  8
3
 10
234.585496796
 20
-27.07786733410001
 30
0.0
 11
234.8372783663
 21
-27.16425371470007
 31
0.0
  0
LINE
  5
E3A
  8
3
 10
237.1627216337
 20
-27.16425371470007
 30
0.0
 11
237.4145032041
 21
-27.07786733410001
 31
0.0
  0
LINE
  5
E3B
  8
3
 10
237.4145032041
 20
-25.55620703299985
 30
0.0
 11
237.1627216337
 21
-25.46982065240002
 31
0.0
  0
LINE
  5
E3C
  8
3
 10
234.8372783663
 20
-25.46982065240002
 30
0.0
 11
234.585496796
 21
-25.55620703299985
 31
0.0
  0
LINE
  5
E3D
  8
3
 10
238.5
 20
-26.66492362949987
 30
0.0
 11
238.5
 21
-26.58688407819989
 31
0.0
  0
LINE
  5
E3E
  8
3
 10
233.5
 20
-26.58688407819989
 30
0.0
 11
233.5
 21
-26.66492362949987
 31
0.0
  0
LINE
  5
E3F
  8
3
 10
234.585496796
 20
-27.6956006746999
 30
0.0
 11
234.8372783663
 21
-27.78198705529996
 31
0.0
  0
LINE
  5
E40
  8
3
 10
237.1627216337
 20
-27.78198705529996
 30
0.0
 11
237.4145032041
 21
-27.6956006746999
 31
0.0
  0
LINE
  5
E41
  8
3
 10
237.4145032041
 20
-26.17394037359998
 30
0.0
 11
237.1627216337
 21
-26.08755399299991
 31
0.0
  0
LINE
  5
E42
  8
3
 10
234.8372783663
 20
-26.08755399299991
 30
0.0
 11
234.585496796
 21
-26.17394037359998
 31
0.0
  0
LINE
  5
E43
  8
3
 10
238.5
 20
-27.28265697009999
 30
0.0
 11
238.5
 21
-27.20461741880001
 31
0.0
  0
LINE
  5
E44
  8
3
 10
233.5
 20
-27.20461741880001
 30
0.0
 11
233.5
 21
-27.28265697009999
 31
0.0
  0
LINE
  5
E45
  8
3
 10
234.585496796
 20
-28.31333401530003
 30
0.0
 11
234.8372783663
 21
-28.39972039589986
 31
0.0
  0
LINE
  5
E46
  8
3
 10
237.1627216337
 20
-28.39972039589986
 30
0.0
 11
237.4145032041
 21
-28.31333401530003
 31
0.0
  0
LINE
  5
E47
  8
3
 10
237.4145032041
 20
-26.79167371419987
 30
0.0
 11
237.1627216337
 21
-26.70528733360004
 31
0.0
  0
LINE
  5
E48
  8
3
 10
234.8372783663
 20
-26.70528733360004
 30
0.0
 11
234.585496796
 21
-26.79167371419987
 31
0.0
  0
LINE
  5
E49
  8
3
 10
238.5
 20
-27.90039031069989
 30
0.0
 11
238.5
 21
-27.82235075939991
 31
0.0
  0
LINE
  5
E4A
  8
3
 10
233.5
 20
-27.82235075939991
 30
0.0
 11
233.5
 21
-27.90039031069989
 31
0.0
  0
LINE
  5
E4B
  8
3
 10
234.585496796
 20
-28.93106735589993
 30
0.0
 11
234.8372783663
 21
-29.01745373649999
 31
0.0
  0
LINE
  5
E4C
  8
3
 10
237.1627216337
 20
-29.01745373649999
 30
0.0
 11
237.4145032041
 21
-28.93106735589993
 31
0.0
  0
LINE
  5
E4D
  8
3
 10
237.4145032041
 20
-27.4094070548
 30
0.0
 11
237.1627216338
 21
-27.32302067419994
 31
0.0
  0
LINE
  5
E4E
  8
3
 10
234.8372783663
 20
-27.32302067419994
 30
0.0
 11
234.585496796
 21
-27.4094070548
 31
0.0
  0
LINE
  5
E4F
  8
3
 10
238.5
 20
-28.51812365140006
 30
0.0
 11
238.5
 21
-28.44008410000004
 31
0.0
  0
LINE
  5
E50
  8
3
 10
233.5
 20
-28.44008410000004
 30
0.0
 11
233.5
 21
-28.51812365140006
 31
0.0
  0
LINE
  5
E51
  8
3
 10
234.585496796
 20
-29.54880069650005
 30
0.0
 11
234.8372783663
 21
-29.63518707709989
 31
0.0
  0
LINE
  5
E52
  8
3
 10
237.1627216338
 20
-29.63518707709989
 30
0.0
 11
237.4145032041
 21
-29.54880069650005
 31
0.0
  0
LINE
  5
E53
  8
3
 10
237.4145032041
 20
-28.0271403953999
 30
0.0
 11
237.1627216338
 21
-27.94075401480006
 31
0.0
  0
LINE
  5
E54
  8
3
 10
234.8372783663
 20
-27.94075401480006
 30
0.0
 11
234.585496796
 21
-28.0271403953999
 31
0.0
  0
LINE
  5
E55
  8
3
 10
238.5
 20
-29.13585699199996
 30
0.0
 11
238.5
 21
-29.05781744059993
 31
0.0
  0
LINE
  5
E56
  8
3
 10
233.5
 20
-29.05781744059993
 30
0.0
 11
233.5
 21
-29.13585699199996
 31
0.0
  0
LINE
  5
E57
  8
3
 10
234.585496796
 20
-30.16653403709995
 30
0.0
 11
234.8372783663
 21
-30.25292041770001
 31
0.0
  0
LINE
  5
E58
  8
3
 10
237.1627216338
 20
-30.25292041770001
 30
0.0
 11
237.4145032041
 21
-30.16653403709995
 31
0.0
  0
LINE
  5
E59
  8
3
 10
237.4145032041
 20
-28.64487373600002
 30
0.0
 11
237.1627216338
 21
-28.55848735550001
 31
0.0
  0
LINE
  5
E5A
  8
3
 10
234.8372783663
 20
-28.55848735550001
 30
0.0
 11
234.585496796
 21
-28.64487373600002
 31
0.0
  0
LINE
  5
E5B
  8
3
 10
238.5
 20
-29.75359033259986
 30
0.0
 11
238.5
 21
-29.67555078120006
 31
0.0
  0
LINE
  5
E5C
  8
3
 10
233.5
 20
-29.67555078120006
 30
0.0
 11
233.5
 21
-29.75359033259986
 31
0.0
  0
LINE
  5
E5D
  8
3
 10
234.585496796
 20
-30.78426737769985
 30
0.0
 11
234.8372783663
 21
-30.87065375829991
 31
0.0
  0
LINE
  5
E5E
  8
3
 10
237.1627216338
 20
-30.87065375829991
 30
0.0
 11
237.4145032041
 21
-30.78426737769985
 31
0.0
  0
LINE
  5
E5F
  8
3
 10
237.2765060407
 20
-29.21526018199995
 30
0.0
 11
237.1627216338
 21
-29.1762206960999
 31
0.0
  0
LINE
  5
E60
  8
3
 10
234.8372783663
 20
-29.1762206960999
 30
0.0
 11
234.7234939594
 21
-29.21526018199995
 31
0.0
  0
LINE
  5
E63
  8
3
 10
254.0
 20
7.297830210000001
 30
0.0
 11
253.80019979
 21
7.098029999999994
 31
0.0
  0
LINE
  5
E64
  8
3
 10
253.80019979
 20
-7.098029999999994
 30
0.0
 11
254.0
 21
-7.297830209999944
 31
0.0
  0
LINE
  5
E69
  8
3
 10
254.0
 20
-19.04618999999991
 30
0.0
 11
242.397760305
 21
-19.04618999999991
 31
0.0
  0
LINE
  5
E6A
  8
3
 10
242.397760305
 20
-31.75381000000004
 30
0.0
 11
254.0
 21
-31.75381000000004
 31
0.0
  0
ARC
  5
E6B
  8
3
 10
242.3348
 20
-18.85298999999998
 30
0.0
 40
0.2031999999999312
 50
270.0
 51
288.0498306932985
  0
ARC
  5
E6C
  8
3
 10
242.3348
 20
-31.94700999999998
 30
0.0
 40
0.2032000000001517
 50
71.9501693067052
 51
90.0
  0
LINE
  5
E6D
  8
3
 10
241.2596395107
 20
-19.0561899999999
 30
0.0
 11
240.3348
 21
-19.30399999999997
 31
0.0
  0
LINE
  5
E6E
  8
3
 10
240.3348
 20
-31.49599999999998
 30
0.0
 11
241.2596395107
 21
-31.74381000000005
 31
0.0
  0
LINE
  5
E6F
  8
3
 10
242.3348
 20
-19.0561899999999
 30
0.0
 11
241.2596395107
 21
-19.0561899999999
 31
0.0
  0
LINE
  5
E70
  8
3
 10
241.2596395107
 20
-31.74381000000005
 30
0.0
 11
242.3348
 21
-31.74381000000005
 31
0.0
  0
LINE
  5
E71
  8
3
 10
254.0
 20
31.75381000000004
 30
0.0
 11
242.397760305
 21
31.75381000000004
 31
0.0
  0
LINE
  5
E72
  8
3
 10
242.397760305
 20
19.04619000000014
 30
0.0
 11
254.0
 21
19.04619000000014
 31
0.0
  0
ARC
  5
E73
  8
3
 10
242.3348
 20
31.94700999999998
 30
0.0
 40
0.2031999999999312
 50
270.0
 51
288.0498306932985
  0
ARC
  5
E74
  8
3
 10
242.3348
 20
18.85298999999998
 30
0.0
 40
0.2031999999999243
 50
71.95016930670089
 51
90.0
  0
LINE
  5
E75
  8
3
 10
241.2596395107
 20
31.74381000000005
 30
0.0
 11
240.3348
 21
31.49599999999998
 31
0.0
  0
LINE
  5
E76
  8
3
 10
240.3348
 20
19.30399999999997
 30
0.0
 11
241.2596395107
 21
19.05619000000013
 31
0.0
  0
LINE
  5
E77
  8
3
 10
242.3348
 20
31.74381000000005
 30
0.0
 11
241.2596395107
 21
31.74381000000005
 31
0.0
  0
LINE
  5
E78
  8
3
 10
241.2596395107
 20
19.05619000000013
 30
0.0
 11
242.3348
 21
19.05619000000013
 31
0.0
  0
ARC
  5
E8B
  8
SK1
 10
254.2
 20
-16.07499999999993
 30
0.0
 40
0.4000000000000807
 50
74.99999999999179
 51
120.0000000000008
  0
ARC
  5
E8C
  8
SK1
 10
254.2
 20
16.07499999999993
 30
0.0
 40
0.3999999999999199
 50
239.9999999999951
 51
285.000000000006
  0
LINE
  5
E8D
  8
SK1
 10
254.9990711606
 20
-15.87499999999989
 30
0.0
 11
270.0
 21
-15.87499999999989
 31
0.0
  0
LINE
  5
E8E
  8
SK1
 10
270.0
 20
15.87500000000011
 30
0.0
 11
254.9990711606
 21
15.87500000000011
 31
0.0
  0
LINE
  5
E8F
  8
SK1
 10
254.9990711606
 20
15.87500000000011
 30
0.0
 11
254.3035276181
 21
15.68862966950007
 31
0.0
  0
LINE
  5
E90
  8
SK1
 10
254.3035276181
 20
-15.68862966949985
 30
0.0
 11
254.9990711606
 21
-15.87499999999989
 31
0.0
  0
ARC
  5
E91
  8
SK1
 10
270.0
 20
-14.37499999999989
 30
0.0
 40
1.5
 50
270.0
 51
0.0
  0
ARC
  5
E92
  8
SK1
 10
270.0
 20
14.37500000000011
 30
0.0
 40
1.5
 50
0.0
 51
90.0
  0
LINE
  5
E93
  8
SK1
 10
289.53799979
 20
19.05000000000007
 30
0.0
 11
278.36199979
 21
19.05000000000007
 31
0.0
  0
LINE
  5
E94
  8
SK1
 10
278.36199979
 20
-19.05000000000007
 30
0.0
 11
289.53799979
 21
-19.05000000000007
 31
0.0
  0
LINE
  5
E95
  8
SK1
 10
278.36199979
 20
19.05000000000007
 30
0.0
 11
277.59999979
 21
18.28800000000012
 31
0.0
  0
LINE
  5
E96
  8
SK1
 10
277.59999979
 20
-18.2879999999999
 30
0.0
 11
278.36199979
 21
-19.05000000000007
 31
0.0
  0
LINE
  5
E97
  8
SK1
 10
289.53799979
 20
-19.05000000000007
 30
0.0
 11
290.29999979
 21
-18.2879999999999
 31
0.0
  0
LINE
  5
E98
  8
SK1
 10
290.29999979
 20
18.28800000000012
 30
0.0
 11
289.53799979
 21
19.05000000000007
 31
0.0
  0
ARC
  5
E99
  8
SK1
 10
276.78719979
 20
-8.750300000000038
 30
0.0
 40
0.81280000000001
 50
0.0
 51
90.0
  0
ARC
  5
E9A
  8
SK1
 10
276.78719979
 20
8.750300000000038
 30
0.0
 40
0.81280000000001
 50
270.0
 51
359.9999999999038
  0
LINE
  5
E9B
  8
SK1
 10
276.78719979
 20
7.937500000000114
 30
0.0
 11
271.5
 21
7.937500000000114
 31
0.0
  0
LINE
  5
E9C
  8
SK1
 10
271.5
 20
-7.937499999999886
 30
0.0
 11
276.78719979
 21
-7.937499999999886
 31
0.0
  0
LINE
  5
E9D
  8
SK1
 10
254.0283378126
 20
-19.04618999999991
 30
0.0
 11
254.0
 21
-19.04618999999991
 31
0.0
  0
LINE
  5
EA0
  8
SK1
 10
254.0
 20
19.04619000000014
 30
0.0
 11
254.0283378126
 21
19.04619000000014
 31
0.0
  0
LINE
  5
EC7
  8
SK1
 10
254.9990711606
 20
0.0000000000001137
 30
0.0
 11
254.9990711606
 21
15.87500000000011
 31
0.0
  0
LINE
  5
EC8
  8
SK1
 10
254.9990711606
 20
-15.87499999999989
 30
0.0
 11
254.9990711606
 21
0.0000000000001137
 31
0.0
  0
LINE
  5
EC9
  8
SK1
 10
271.5
 20
0.0000000000001137
 30
0.0
 11
271.5
 21
14.37500000000011
 31
0.0
  0
LINE
  5
ECA
  8
SK1
 10
271.5
 20
-14.37499999999989
 30
0.0
 11
271.5
 21
0.0000000000001137
 31
0.0
  0
LINE
  5
ED4
  8
SK1
 10
289.53799979
 20
19.05000000000007
 30
0.0
 11
289.53799979
 21
-19.05000000000007
 31
0.0
  0
LINE
  5
ED5
  8
SK1
 10
278.36199979
 20
19.05000000000007
 30
0.0
 11
278.36199979
 21
-19.05000000000007
 31
0.0
  0
LINE
  5
ED6
  8
SK1
 10
277.59999979
 20
18.28800000000012
 30
0.0
 11
277.59999979
 21
-18.2879999999999
 31
0.0
  0
LINE
  5
ED7
  8
SK1
 10
290.29999979
 20
18.28800000000012
 30
0.0
 11
290.29999979
 21
-18.2879999999999
 31
0.0
  0
LINE
  5
ED8
  8
SK1
 10
260.4008
 20
-19.05000000000007
 30
0.0
 11
254.0
 21
-19.05000000000007
 31
0.0
  0
LINE
  5
ED9
  8
SK1
 10
260.4008
 20
-19.05000000000007
 30
0.0
 11
260.4008
 21
-31.74999999999989
 31
0.0
  0
LINE
  5
EDA
  8
SK1
 10
260.4008
 20
-31.74999999999989
 30
0.0
 11
254.0
 21
-31.74999999999989
 31
0.0
  0
LINE
  5
EDB
  8
SK1
 10
260.4008
 20
31.75000000000011
 30
0.0
 11
254.0
 21
31.75000000000011
 31
0.0
  0
LINE
  5
EDC
  8
SK1
 10
260.4008
 20
31.75000000000011
 30
0.0
 11
260.4008
 21
19.05000000000007
 31
0.0
  0
LINE
  5
EDD
  8
SK1
 10
260.4008
 20
19.05000000000007
 30
0.0
 11
254.0
 21
19.05000000000007
 31
0.0
  0
LINE
  5
EF4
  8
SK3
 10
270.6339745374
 20
-8.499999999999886
 30
0.0
 11
270.6339745374
 21
8.500000000000114
 31
0.0
  0
LINE
  5
EF5
  8
SK3
 10
268.5
 20
8.500000000000114
 30
0.0
 11
268.5
 21
-8.499999999999886
 31
0.0
  0
LINE
  5
F58
  8
SK3
 10
254.63966979
 20
7.937500000000114
 30
0.0
 11
254.63966979
 21
-7.937499999999886
 31
0.0
  0
LINE
  5
F59
  8
SK3
 10
253.80019979
 20
7.098029999999994
 30
0.0
 11
253.80019979
 21
-7.098029999999994
 31
0.0
  0
LINE
  5
F5A
  8
SK3
 10
282.36249979
 20
0.0000000000001137
 30
0.0
 11
290.29999979
 21
0.0000000000001137
 31
0.0
  0
LINE
  5
F5B
  8
SK3
 10
282.36249979
 20
0.0000000000001137
 30
0.0
 11
282.36249979
 21
-2.006600000000049
 31
0.0
  0
LINE
  5
F5C
  8
SK3
 10
282.36249979
 20
2.006600000000049
 30
0.0
 11
282.36249979
 21
0.0000000000001137
 31
0.0
  0
LINE
  5
F5D
  8
SK3
 10
281.40999979
 20
4.013199999999983
 30
0.0
 11
281.40999979
 21
-4.013199999999983
 31
0.0
  0
LINE
  5
F5E
  8
SK3
 10
282.36249979
 20
4.013199999999983
 30
0.0
 11
282.36249979
 21
2.006600000000049
 31
0.0
  0
LINE
  5
F5F
  8
SK3
 10
282.36249979
 20
-2.006600000000049
 30
0.0
 11
282.36249979
 21
-4.013199999999983
 31
0.0
  0
LINE
  5
F60
  8
SK3
 10
282.36249979
 20
4.013199999999983
 30
0.0
 11
290.29999979
 21
4.013199999999983
 31
0.0
  0
LINE
  5
F61
  8
SK3
 10
282.36249979
 20
-4.013199999999983
 30
0.0
 11
290.29999979
 21
-4.013199999999983
 31
0.0
  0
LINE
  5
F74
  8
SK3
 10
271.5
 20
2.000000000000114
 30
0.0
 11
254.0
 21
2.000000000000114
 31
0.0
  0
LINE
  5
F75
  8
SK3
 10
254.0
 20
-1.999999999999886
 30
0.0
 11
271.5
 21
-1.999999999999886
 31
0.0
  0
LINE
  5
F7E
  8
SK3
 10
271.5
 20
9.000000033999981
 30
0.0
 11
270.6339745374
 21
8.500000000000114
 31
0.0
  0
LINE
  5
F7F
  8
SK3
 10
270.6339745374
 20
-8.499999999999886
 30
0.0
 11
271.5
 21
-9.000000033999981
 31
0.0
  0
LINE
  5
F80
  8
SK3
 10
270.6339745374
 20
8.500000000000114
 30
0.0
 11
268.5
 21
8.500000000000114
 31
0.0
  0
LINE
  5
F81
  8
SK3
 10
268.5
 20
-8.499999999999886
 30
0.0
 11
270.6339745374
 21
-8.499999999999886
 31
0.0
  0
LINE
  5
F82
  8
SK3
 10
268.5
 20
7.341870000000085
 30
0.0
 11
254.0
 21
7.341870000000085
 31
0.0
  0
LINE
  5
F83
  8
SK3
 10
254.0
 20
-7.341869999999858
 30
0.0
 11
268.5
 21
-7.341869999999858
 31
0.0
  0
LINE
  5
F98
  8
SK3
 10
271.5
 20
12.1757984945001
 30
0.0
 11
254.0
 21
12.1757984945001
 31
0.0
  0
LINE
  5
F99
  8
SK3
 10
254.0
 20
8.1757984945001
 30
0.0
 11
271.5
 21
8.1757984945001
 31
0.0
  0
LINE
  5
F9A
  8
SK3
 10
271.5
 20
-8.175798494499873
 30
0.0
 11
254.0
 21
-8.175798494499873
 31
0.0
  0
LINE
  5
F9B
  8
SK3
 10
254.0
 20
-12.17579849449987
 30
0.0
 11
271.5
 21
-12.17579849449987
 31
0.0
  0
LINE
  5
1004
  8
SK3
 10
271.5
 20
7.937500000000114
 30
0.0
 11
254.63966979
 21
7.937500000000114
 31
0.0
  0
LINE
  5
1005
  8
SK3
 10
254.63966979
 20
-7.937499999999886
 30
0.0
 11
271.5
 21
-7.937499999999886
 31
0.0
  0
LINE
  5
1006
  8
SK3
 10
254.63966979
 20
7.937500000000114
 30
0.0
 11
253.80019979
 21
7.098029999999994
 31
0.0
  0
LINE
  5
1007
  8
SK3
 10
253.80019979
 20
-7.098029999999994
 30
0.0
 11
254.63966979
 21
-7.937499999999886
 31
0.0
  0
LINE
  5
1008
  8
SK3
 10
282.36249979
 20
4.013199999999983
 30
0.0
 11
281.40999979
 21
4.013199999999983
 31
0.0
  0
LINE
  5
1009
  8
SK3
 10
281.40999979
 20
-4.013199999999983
 30
0.0
 11
282.36249979
 21
-4.013199999999983
 31
0.0
  0
LINE
  5
100A
  8
SK3
 10
281.40999979
 20
4.013199999999983
 30
0.0
 11
278.9986259538
 21
0.0000000000001137
 31
0.0
  0
LINE
  5
100B
  8
SK3
 10
278.9986259538
 20
0.0000000000001137
 30
0.0
 11
281.40999979
 21
-4.013199999999983
 31
0.0
  0
LINE
  5
1022
  8
SK3
 10
-37.834376924
 20
7.341870000000085
 30
0.0
 11
-0.0000000000000071
 21
7.341870000000085
 31
0.0
  0
LINE
  5
1023
  8
SK3
 10
-37.834376924
 20
-7.341869999999858
 30
0.0
 11
0.0
 21
-7.341869999999858
 31
0.0
  0
LINE
  5
1029
  8
1
 10
253.0
 20
-34.9250000000003
 30
0.0
 11
20.0499999999999
 21
-34.92499999999948
 31
0.0
  0
LINE
  5
102A
  8
NOCUT
 10
254.0
 20
0.0000000000001137
 30
0.0
 11
254.0
 21
33.92500000000007
 31
0.0
  0
ARC
  5
102C
  8
NOCUT
 10
253.0
 20
33.92500000000007
 30
0.0
 40
1.0
 50
0.0
 51
90.0
  0
LINE
  5
103A
  8
SK4
 10
254.0
 20
0.0000000000001137
 30
0.0
 11
290.29999979
 21
0.0000000000001137
 31
0.0
  0
DIMENSION
  5
103C
  8
SK2
  2
*D10
 10
302.3529545597058
 20
-15.87499999999989
 30
0.0
 11
300.4779545597058
 21
0.0000000000001119
 31
0.0
 70
    32
  3
ISO-25
 13
270.0
 23
15.87500000000011
 33
0.0
 14
270.0
 24
-15.87499999999989
 34
0.0
 50
90.0
1001
ACAD
1000
DSTYLE
1002
{
1070
   287
1070
     5
1070
   271
1070
     3
1070
   272
1070
     3
1070
   279
1070
     2
1002
}
  0
DIMENSION
  5
104B
  8
SK2
  2
*D11
 10
319.1478316052353
 20
-34.9250000000003
 30
0.0
 11
317.2728316052353
 21
-0.0000000000001208
 31
0.0
 70
    32
  3
ISO-25
 13
253.0
 23
34.92500000000007
 33
0.0
 14
253.0
 24
-34.9250000000003
 34
0.0
 50
90.0
1001
ACAD
1000
DSTYLE
1002
{
1070
   287
1070
     5
1070
   271
1070
     3
1070
   272
1070
     3
1070
   279
1070
     2
1002
}
  0
ENDSEC
  0
EOF
