  0
SECTION
  2
HEADER
  9
$ACADVER
  1
AC1009
  9
$DWGCODEPAGE
  3
ansi_1251
  9
$INSBASE
 10
0.0
 20
0.0
 30
0.0
  9
$EXTMIN
 10
-68.25000000000001
 20
-30.5409271246
 30
0.0
  9
$EXTMAX
 10
88.90000000000003
 20
30.50275418977125
 30
0.0
  9
$LIMMIN
 10
0.0
 20
0.0
  9
$LIMMAX
 10
420.0
 20
297.0
  9
$ORTHOMODE
 70
     1
  9
$REGENMODE
 70
     1
  9
$FILLMODE
 70
     1
  9
$QTEXTMODE
 70
     0
  9
$MIRRTEXT
 70
     0
  9
$DRAGMODE
 70
     2
  9
$LTSCALE
 40
1.0
  9
$OSMODE
 70
   279
  9
$ATTMODE
 70
     1
  9
$TEXTSIZE
 40
2.5
  9
$TRACEWID
 40
1.0
  9
$TEXTSTYLE
  7
STANDARD
  9
$CLAYER
  8
0
  9
$CELTYPE
  6
BYLAYER
  9
$CECOLOR
 62
   256
  9
$DIMSCALE
 40
1.0
  9
$DIMASZ
 40
2.5
  9
$DIMEXO
 40
0.625
  9
$DIMDLI
 40
3.75
  9
$DIMRND
 40
0.0
  9
$DIMDLE
 40
0.0
  9
$DIMEXE
 40
1.25
  9
$DIMTP
 40
0.0
  9
$DIMTM
 40
0.0
  9
$DIMTXT
 40
2.5
  9
$DIMCEN
 40
2.5
  9
$DIMTSZ
 40
0.0
  9
$DIMTOL
 70
     0
  9
$DIMLIM
 70
     0
  9
$DIMTIH
 70
     0
  9
$DIMTOH
 70
     0
  9
$DIMSE1
 70
     0
  9
$DIMSE2
 70
     0
  9
$DIMTAD
 70
     1
  9
$DIMZIN
 70
     8
  9
$DIMBLK
  1

  9
$DIMASO
 70
     1
  9
$DIMSHO
 70
     1
  9
$DIMPOST
  1

  9
$DIMAPOST
  1

  9
$DIMALT
 70
     0
  9
$DIMALTD
 70
     3
  9
$DIMALTF
 40
0.03937007874016
  9
$DIMLFAC
 40
1.0
  9
$DIMTOFL
 70
     1
  9
$DIMTVP
 40
0.0
  9
$DIMTIX
 70
     0
  9
$DIMSOXD
 70
     0
  9
$DIMSAH
 70
     0
  9
$DIMBLK1
  1

  9
$DIMBLK2
  1

  9
$DIMSTYLE
  2
ISO-25
  9
$DIMCLRD
 70
     0
  9
$DIMCLRE
 70
     0
  9
$DIMCLRT
 70
     0
  9
$DIMTFAC
 40
1.0
  9
$DIMGAP
 40
0.625
  9
$LUNITS
 70
     2
  9
$LUPREC
 70
     3
  9
$SKETCHINC
 40
1.0
  9
$FILLETRAD
 40
10.0
  9
$AUNITS
 70
     0
  9
$AUPREC
 70
     0
  9
$MENU
  1
.
  9
$ELEVATION
 40
0.0
  9
$PELEVATION
 40
0.0
  9
$THICKNESS
 40
0.0
  9
$LIMCHECK
 70
     0
  9
$CHAMFERA
 40
10.0
  9
$CHAMFERB
 40
10.0
  9
$SKPOLY
 70
     0
  9
$TDCREATE
 40
2455022.429026158
  9
$TDUPDATE
 40
2458659.538982558
  9
$TDINDWG
 40
0.1506771181
  9
$TDUSRTIMER
 40
2458702.663922257
  9
$USRTIMER
 70
     1
  9
$ANGBASE
 50
0.0
  9
$ANGDIR
 70
     0
  9
$PDMODE
 70
     0
  9
$PDSIZE
 40
0.0
  9
$PLINEWID
 40
0.0
  9
$COORDS
 70
     1
  9
$SPLFRAME
 70
     0
  9
$SPLINETYPE
 70
     6
  9
$SPLINESEGS
 70
     8
  9
$ATTDIA
 70
     0
  9
$ATTREQ
 70
     1
  9
$HANDLING
 70
     1
  9
$HANDSEED
  5
16DE
  9
$SURFTAB1
 70
     6
  9
$SURFTAB2
 70
     6
  9
$SURFTYPE
 70
     6
  9
$SURFU
 70
     6
  9
$SURFV
 70
     6
  9
$UCSNAME
  2

  9
$UCSORG
 10
0.0
 20
0.0
 30
0.0
  9
$UCSXDIR
 10
1.0
 20
0.0
 30
0.0
  9
$UCSYDIR
 10
0.0
 20
1.0
 30
0.0
  9
$PUCSNAME
  2

  9
$PUCSORG
 10
0.0
 20
0.0
 30
0.0
  9
$PUCSXDIR
 10
1.0
 20
0.0
 30
0.0
  9
$PUCSYDIR
 10
0.0
 20
1.0
 30
0.0
  9
$USERI1
 70
     0
  9
$USERI2
 70
     0
  9
$USERI3
 70
     0
  9
$USERI4
 70
     0
  9
$USERI5
 70
     0
  9
$USERR1
 40
0.0
  9
$USERR2
 40
0.0
  9
$USERR3
 40
0.0
  9
$USERR4
 40
0.0
  9
$USERR5
 40
0.0
  9
$WORLDVIEW
 70
     1
  9
$SHADEDGE
 70
     3
  9
$SHADEDIF
 70
    70
  9
$TILEMODE
 70
     1
  9
$MAXACTVP
 70
    64
  9
$PLIMCHECK
 70
     0
  9
$PEXTMIN
 10
1.000000000000000E+20
 20
1.000000000000000E+20
 30
1.000000000000000E+20
  9
$PEXTMAX
 10
-1.000000000000000E+20
 20
-1.000000000000000E+20
 30
-1.000000000000000E+20
  9
$PLIMMIN
 10
0.0
 20
0.0
  9
$PLIMMAX
 10
420.0
 20
297.0
  9
$UNITMODE
 70
     0
  9
$VISRETAIN
 70
     1
  9
$PLINEGEN
 70
     0
  9
$PSLTSCALE
 70
     1
  0
ENDSEC
  0
SECTION
  2
TABLES
  0
TABLE
  2
VPORT
 70
     1
  0
VPORT
  2
*ACTIVE
 70
     0
 10
0.0
 20
0.0
 11
1.0
 21
1.0
 12
28.29919815662956
 22
-4.409747193426497
 13
0.0
 23
0.0
 14
10.0
 24
10.0
 15
10.0
 25
10.0
 16
0.0
 26
0.0
 36
1.0
 17
0.0
 27
0.0
 37
0.0
 40
198.8133048728745
 41
1.332880434782609
 42
50.0
 43
0.0
 44
0.0
 50
0.0
 51
0.0
 71
    16
 72
  1000
 73
     1
 74
     3
 75
     0
 76
     0
 77
     0
 78
     0
  0
ENDTAB
  0
TABLE
  2
LTYPE
 70
     6
  0
LTYPE
  2
CONTINUOUS
 70
     0
  3
Solid line
 72
    65
 73
     0
 40
0.0
  0
LTYPE
  2
CENTER
 70
     0
  3
 Center _____  _  _____  _  _____  _  _____  _ 
 72
    65
 73
     4
 40
50.8
 49
31.75
 49
-6.35
 49
6.35
 49
-6.35
  0
LTYPE
  2
DASHED
 70
     0
  3
Dashed __  __  __  __  __  __  __  __  __  __  
 72
    65
 73
     2
 40
19.05
 49
12.7
 49
-6.35
  0
LTYPE
  2
HIDDEN
 70
     0
  3
Hidden __ __ __ __ __ __ __ __ __ __ __ __ __ __
 72
    65
 73
     2
 40
1.905
 49
1.27
 49
-0.635
  0
LTYPE
  2
CENTERX2
 70
     0
  3
Center (2x) ________  __  ________  __  _____
 72
    65
 73
     4
 40
20.32
 49
12.7
 49
-2.54
 49
2.54
 49
-2.54
  0
LTYPE
  2
PHANTOM
 70
     0
  3
Phantom ______  __  __  ______  __  __  ______
 72
    65
 73
     6
 40
12.7
 49
6.35
 49
-1.27
 49
1.27
 49
-1.27
 49
1.27
 49
-1.27
  0
ENDTAB
  0
TABLE
  2
LAYER
 70
    26
  0
LAYER
  2
0
 70
     0
 62
     7
  6
CONTINUOUS
  0
LAYER
  2
1
 70
     0
 62
     4
  6
CONTINUOUS
  0
LAYER
  2
2
 70
     0
 62
     7
  6
CONTINUOUS
  0
LAYER
  2
3
 70
     0
 62
     1
  6
DASHED
  0
LAYER
  2
4
 70
     0
 62
     2
  6
CENTER
  0
LAYER
  2
6
 70
     0
 62
     5
  6
CONTINUOUS
  0
LAYER
  2
7
 70
     0
 62
     5
  6
CONTINUOUS
  0
LAYER
  2
11
 70
     0
 62
     4
  6
CONTINUOUS
  0
LAYER
  2
SK1
 70
     0
 62
     4
  6
CONTINUOUS
  0
LAYER
  2
SK2
 70
     0
 62
     7
  6
CONTINUOUS
  0
LAYER
  2
SK3
 70
     0
 62
     1
  6
DASHED
  0
LAYER
  2
SK4
 70
     0
 62
     2
  6
CENTER
  0
LAYER
  2
SK6
 70
     0
 62
     5
  6
CONTINUOUS
  0
LAYER
  2
SK7
 70
     0
 62
     5
  6
CONTINUOUS
  0
LAYER
  2
SK11
 70
     0
 62
     4
  6
CONTINUOUS
  0
LAYER
  2
CUT
 70
     0
 62
     1
  6
CONTINUOUS
  0
LAYER
  2
NOCUT
 70
     0
 62
    -7
  6
CONTINUOUS
  0
LAYER
  2
SKVIEW1
 70
     0
 62
     4
  6
CONTINUOUS
  0
LAYER
  2
SKVIEW2
 70
     0
 62
     7
  6
CONTINUOUS
  0
LAYER
  2
SKVIEW3
 70
     0
 62
     1
  6
DASHED
  0
LAYER
  2
SKVIEW4
 70
     0
 62
     2
  6
CENTER
  0
LAYER
  2
SKVIEW6
 70
     0
 62
     5
  6
CONTINUOUS
  0
LAYER
  2
SKVIEW7
 70
     0
 62
     5
  6
CONTINUOUS
  0
LAYER
  2
SKVIEW11
 70
     0
 62
     4
  6
CONTINUOUS
  0
LAYER
  2
INFTOTAL
 70
     0
 62
     9
  6
CONTINUOUS
  0
LAYER
  2
DEFPOINTS
 70
     0
 62
     7
  6
CONTINUOUS
  0
ENDTAB
  0
TABLE
  2
STYLE
 70
     1
  0
STYLE
  2
STANDARD
 70
     0
 40
0.0
 41
1.0
 50
0.0
 71
     0
 42
2.5
  3
txt
  4

  0
ENDTAB
  0
TABLE
  2
VIEW
 70
     0
  0
ENDTAB
  0
TABLE
  2
UCS
 70
     0
  0
ENDTAB
  0
TABLE
  2
APPID
 70
     2
  0
APPID
  2
ACAD
 70
     0
  0
APPID
  2
ACAECLAYERSTANDARD
 70
     0
  0
ENDTAB
  0
TABLE
  2
DIMSTYLE
 70
     1
  0
DIMSTYLE
  2
ISO-25
 70
     0
  3

  4

  5

  6

  7

 40
1.0
 41
2.5
 42
0.625
 43
3.75
 44
1.25
 45
0.0
 46
0.0
 47
0.0
 48
0.0
140
2.5
141
2.5
142
0.0
143
0.03937007874016
144
1.0
145
0.0
146
1.0
147
0.625
 71
     0
 72
     0
 73
     0
 74
     0
 75
     0
 76
     0
 77
     1
 78
     8
170
     0
171
     3
172
     1
173
     0
174
     0
175
     0
176
     0
177
     0
178
     0
  0
ENDTAB
  0
ENDSEC
  0
SECTION
  2
BLOCKS
  0
BLOCK
  8
0
  2
$MODEL_SPACE
 70
     0
 10
0.0
 20
0.0
 30
0.0
  3
$MODEL_SPACE
  1

  0
ENDBLK
  5
21
  8
0
  0
BLOCK
 67
     1
  8
0
  2
$PAPER_SPACE
 70
     0
 10
0.0
 20
0.0
 30
0.0
  3
$PAPER_SPACE
  1

  0
ENDBLK
  5
1D
 67
     1
  8
0
  0
BLOCK
  8
0
  2
*U2
 70
     1
 10
0.0
 20
0.0
 30
0.0
  3
*U2
  1

  0
TEXT
  5
77E
  8
SK6
 10
-50.0
 20
78.25
 30
0.0
 40
3.5
  1
BIG KAISER
 41
0.85
  0
TEXT
  5
781
  8
SK6
 10
-50.0
 20
73.0
 30
0.0
 40
3.5
  1
BCV50-SMC1.000-4
 41
0.85
  0
ENDBLK
  5
782
  8
0
  0
BLOCK
  8
0
  2
_FILLED
 70
     0
 10
0.0
 20
0.0
 30
0.0
  3
_FILLED
  1

  0
SOLID
  5
789
  8
0
  6
BYBLOCK
 62
     0
 10
0.0
 20
0.0
 30
0.0
 11
-1.0
 21
0.2142857143
 31
0.0
 12
-1.0
 22
-0.2142857143
 32
0.0
 13
-1.0
 23
-0.2142857143
 33
0.0
  0
ENDBLK
  5
78A
  8
0
  6
BYBLOCK
 62
     0
  0
BLOCK
  8
0
  2
*U5
 70
     1
 10
0.0
 20
0.0
 30
0.0
  3
*U5
  1

  0
TEXT
  5
790
  8
SK6
 10
-85.96178542556666
 20
-67.06748653279999
 30
0.0
 40
3.5
  1
BCV50
 41
0.85
  0
ENDBLK
  5
791
  8
0
  0
BLOCK
  8
0
  2
*D6
 70
     1
 10
0.0
 20
0.0
 30
0.0
  3
*D6
  1

  0
LINE
  5
7EA
  8
SK2
 62
     0
 10
35.125
 20
34.92499999999998
 30
0.0
 11
158.1983963132591
 21
34.92499999999998
 31
0.0
  0
LINE
  5
7EB
  8
SK2
 62
     0
 10
35.125
 20
-34.92500000000001
 30
0.0
 11
158.1983963132591
 21
-34.92500000000002
 31
0.0
  0
LINE
  5
7EC
  8
SK2
 62
     0
 10
156.9483963132591
 20
32.42499999999998
 30
0.0
 11
156.9483963132591
 21
-32.42500000000002
 31
0.0
  0
SOLID
  5
7ED
  8
SK2
 62
     0
 10
157.3650629799258
 20
32.42499999999998
 30
0.0
 11
156.5317296465925
 21
32.42499999999998
 31
0.0
 12
156.9483963132591
 22
34.92499999999998
 32
0.0
 13
156.9483963132591
 23
34.92499999999998
 33
0.0
  0
SOLID
  5
7EE
  8
SK2
 62
     0
 10
156.5317296465925
 20
-32.42500000000002
 30
0.0
 11
157.3650629799258
 21
-32.42500000000002
 31
0.0
 12
156.9483963132591
 22
-34.92500000000002
 32
0.0
 13
156.9483963132591
 23
-34.92500000000002
 33
0.0
  0
TEXT
  5
7EF
  8
SK2
  6
CONTINUOUS
 62
     0
 10
156.3233963132591
 20
-5.000000000000028
 30
0.0
 40
2.5
  1
69.85
 50
90.0
  0
POINT
  5
7F0
  8
DEFPOINTS
 62
     0
 10
34.5
 20
34.92499999999998
 30
0.0
  0
POINT
  5
7F1
  8
DEFPOINTS
 62
     0
 10
34.5
 20
-34.92500000000001
 30
0.0
  0
POINT
  5
7F2
  8
DEFPOINTS
 62
     0
 10
156.9483963132591
 20
-34.92500000000002
 30
0.0
  0
ENDBLK
  5
7F4
  8
0
  0
BLOCK
  8
0
  2
*D7
 70
     1
 10
0.0
 20
0.0
 30
0.0
  3
*D7
  1

  0
LINE
  5
7F9
  8
SK2
 62
     0
 10
0.0
 20
-35.55000000000001
 30
0.0
 11
0.0
 21
-74.40665109041375
 31
0.0
  0
LINE
  5
7FA
  8
SK2
 62
     0
 10
35.05
 20
-35.05000000000001
 30
0.0
 11
35.05
 21
-74.40665109041375
 31
0.0
  0
LINE
  5
7FB
  8
SK2
 62
     0
 10
2.5
 20
-73.15665109041375
 30
0.0
 11
32.55
 21
-73.15665109041375
 31
0.0
  0
SOLID
  5
7FC
  8
SK2
 62
     0
 10
2.5
 20
-72.73998442374707
 30
0.0
 11
2.5
 21
-73.57331775708042
 31
0.0
 12
0.0
 22
-73.15665109041375
 32
0.0
 13
0.0
 23
-73.15665109041375
 33
0.0
  0
SOLID
  5
7FD
  8
SK2
 62
     0
 10
32.55
 20
-73.57331775708042
 30
0.0
 11
32.55
 21
-72.73998442374707
 31
0.0
 12
35.05
 22
-73.15665109041375
 32
0.0
 13
35.05
 23
-73.15665109041375
 33
0.0
  0
TEXT
  5
7FE
  8
SK2
  6
CONTINUOUS
 62
     0
 10
12.73333333333333
 20
-72.53165109041375
 30
0.0
 40
2.5
  1
35.05
  0
POINT
  5
7FF
  8
DEFPOINTS
 62
     0
 10
0.0
 20
-34.92500000000001
 30
0.0
  0
POINT
  5
800
  8
DEFPOINTS
 62
     0
 10
35.05
 20
-34.42500000000001
 30
0.0
  0
POINT
  5
801
  8
DEFPOINTS
 62
     0
 10
35.05
 20
-73.15665109041375
 30
0.0
  0
ENDBLK
  5
803
  8
0
  0
BLOCK
  8
0
  2
*D8
 70
     1
 10
0.0
 20
0.0
 30
0.0
  3
*D8
  1

  0
LINE
  5
808
  8
SK2
 62
     0
 10
0.0
 20
35.54999999999998
 30
0.0
 11
0.0
 21
63.71215670356074
 31
0.0
  0
LINE
  5
809
  8
SK2
 62
     0
 10
101.6000000000001
 20
27.42529999999999
 30
0.0
 11
101.6000000000001
 21
63.71215670356074
 31
0.0
  0
LINE
  5
80A
  8
SK2
 62
     0
 10
2.5
 20
62.46215670356074
 30
0.0
 11
99.10000000000005
 21
62.46215670356074
 31
0.0
  0
SOLID
  5
80B
  8
SK2
 62
     0
 10
2.5
 20
62.8788233702274
 30
0.0
 11
2.5
 21
62.04549003689407
 31
0.0
 12
0.0
 22
62.46215670356074
 32
0.0
 13
0.0
 23
62.46215670356074
 33
0.0
  0
SOLID
  5
80C
  8
SK2
 62
     0
 10
99.10000000000005
 20
62.04549003689407
 30
0.0
 11
99.10000000000005
 21
62.8788233702274
 31
0.0
 12
101.6000000000001
 22
62.46215670356074
 32
0.0
 13
101.6000000000001
 23
62.46215670356074
 33
0.0
  0
TEXT
  5
80D
  8
SK2
  6
CONTINUOUS
 62
     0
 10
46.84166666666669
 20
63.08715670356074
 30
0.0
 40
2.5
  1
101.6
  0
POINT
  5
80E
  8
DEFPOINTS
 62
     0
 10
0.0
 20
34.92499999999998
 30
0.0
  0
POINT
  5
80F
  8
DEFPOINTS
 62
     0
 10
101.6000000000001
 20
26.80029999999999
 30
0.0
  0
POINT
  5
810
  8
DEFPOINTS
 62
     0
 10
101.6000000000001
 20
62.46215670356074
 30
0.0
  0
ENDBLK
  5
812
  8
0
  0
BLOCK
  8
0
  2
*D10
 70
     1
 10
0.0
 20
0.0
 30
0.0
  3
*D10
  1

  0
LINE
  5
F6F
  8
SK2
 62
     0
 10
101.2250000000001
 20
27.80029999999999
 30
0.0
 11
148.8449924291873
 21
27.80029999999999
 31
0.0
  0
LINE
  5
F70
  8
SK2
 62
     0
 10
101.2250000000001
 20
-27.80029999999999
 30
0.0
 11
148.8449924291873
 21
-27.8003
 31
0.0
  0
LINE
  5
F71
  8
SK2
 62
     0
 10
147.5949924291873
 20
25.30029999999999
 30
0.0
 11
147.5949924291873
 21
-25.3003
 31
0.0
  0
SOLID
  5
F72
  8
SK2
 62
     0
 10
148.011659095854
 20
25.30029999999999
 30
0.0
 11
147.1783257625207
 21
25.30029999999999
 31
0.0
 12
147.5949924291873
 22
27.80029999999999
 32
0.0
 13
147.5949924291873
 23
27.80029999999999
 33
0.0
  0
SOLID
  5
F73
  8
SK2
 62
     0
 10
147.1783257625207
 20
-25.3003
 30
0.0
 11
148.011659095854
 21
-25.3003
 31
0.0
 12
147.5949924291873
 22
-27.8003
 32
0.0
 13
147.5949924291873
 23
-27.8003
 33
0.0
  0
TEXT
  5
F74
  8
SK2
  6
CONTINUOUS
 62
     0
 10
146.9699924291873
 20
-3.75
 30
0.0
 40
2.5
  1
55.6
 50
90.0
  0
POINT
  5
F75
  8
DEFPOINTS
 62
     0
 10
100.6000000000001
 20
27.80029999999999
 30
0.0
  0
POINT
  5
F76
  8
DEFPOINTS
 62
     0
 10
100.6000000000001
 20
-27.80029999999999
 30
0.0
  0
POINT
  5
F77
  8
DEFPOINTS
 62
     0
 10
147.5949924291873
 20
-27.8003
 30
0.0
  0
ENDBLK
  5
F79
  8
0
  0
BLOCK
  8
0
  2
*D11
 70
     1
 10
0.0
 20
0.0
 30
0.0
  3
*D11
  1

  0
LINE
  5
F7E
  8
SK2
 62
     0
 10
118.2250000000001
 20
12.69999999999999
 30
0.0
 11
140.1047291998209
 21
12.69999999999999
 31
0.0
  0
LINE
  5
F7F
  8
SK2
 62
     0
 10
118.2250000000001
 20
-12.69999999999999
 30
0.0
 11
140.1047291998209
 21
-12.69999999999999
 31
0.0
  0
LINE
  5
F80
  8
SK2
 62
     0
 10
138.8547291998209
 20
10.19999999999999
 30
0.0
 11
138.8547291998209
 21
-10.19999999999999
 31
0.0
  0
SOLID
  5
F81
  8
SK2
 62
     0
 10
139.2713958664876
 20
10.19999999999999
 30
0.0
 11
138.4380625331543
 21
10.19999999999999
 31
0.0
 12
138.8547291998209
 22
12.69999999999999
 32
0.0
 13
138.8547291998209
 23
12.69999999999999
 33
0.0
  0
SOLID
  5
F82
  8
SK2
 62
     0
 10
138.4380625331543
 20
-10.19999999999999
 30
0.0
 11
139.2713958664876
 21
-10.19999999999999
 31
0.0
 12
138.8547291998209
 22
-12.69999999999999
 32
0.0
 13
138.8547291998209
 23
-12.69999999999999
 33
0.0
  0
TEXT
  5
F83
  8
SK2
  6
CONTINUOUS
 62
     0
 10
138.2297291998209
 20
-3.75
 30
0.0
 40
2.5
  1
25.4
 50
90.0
  0
POINT
  5
F84
  8
DEFPOINTS
 62
     0
 10
117.6000000000001
 20
12.69999999999999
 30
0.0
  0
POINT
  5
F85
  8
DEFPOINTS
 62
     0
 10
117.6000000000001
 20
-12.69999999999999
 30
0.0
  0
POINT
  5
F86
  8
DEFPOINTS
 62
     0
 10
138.8547291998209
 20
-12.69999999999999
 30
0.0
  0
ENDBLK
  5
F88
  8
0
  0
ENDSEC
  0
SECTION
  2
ENTITIES
  0
LINE
  5
685
  8
SK1
 10
0.0
 20
34.92499999999998
 30
0.0
 11
-99.6319088344
 21
20.3952133832
 31
0.0
  0
LINE
  5
686
  8
SK1
 10
-99.6319088344
 20
-20.3952133832
 30
0.0
 11
0.0
 21
-34.92500000000001
 31
0.0
  0
ARC
  5
68D
  8
SK1
 10
-99.3
 20
18.1192879614
 30
0.0
 40
2.299999999999995
 50
98.29722000000018
 51
180.0
  0
ARC
  5
68E
  8
SK1
 10
-99.3
 20
-18.1192879614
 30
0.0
 40
2.299999999999995
 50
180.0
 51
261.7027799999998
  0
LINE
  5
6F6
  8
SK1
 10
-101.6
 20
0.0
 30
0.0
 11
-101.6
 21
-18.1192879614
 31
0.0
  0
LINE
  5
6F7
  8
SK1
 10
-101.6
 20
18.1192879614
 30
0.0
 11
-101.6
 21
0.0
 31
0.0
  0
LINE
  5
71A
  8
SK3
 10
-99.5215390309
 20
-13.10000000000002
 30
0.0
 11
-99.5215390309
 21
13.09999999999999
 31
0.0
  0
LINE
  5
71B
  8
SK3
 10
-95.25
 20
-13.10000000000002
 30
0.0
 11
-95.25
 21
13.09999999999999
 31
0.0
  0
LINE
  5
72A
  8
SK3
 10
-101.6
 20
-14.30000000000001
 30
0.0
 11
-99.5215390309
 21
-13.10000000000002
 31
0.0
  0
LINE
  5
72B
  8
SK3
 10
-99.5215390309
 20
13.09999999999999
 30
0.0
 11
-101.6
 21
14.3
 31
0.0
  0
LINE
  5
72C
  8
SK3
 10
-99.5215390309
 20
-13.10000000000002
 30
0.0
 11
-95.25
 21
-13.10000000000002
 31
0.0
  0
LINE
  5
72D
  8
SK3
 10
-95.25
 20
13.09999999999999
 30
0.0
 11
-99.5215390309
 21
13.09999999999999
 31
0.0
  0
LINE
  5
72E
  8
SK3
 10
-95.25
 20
-11.09980000000002
 30
0.0
 11
-5.249999999999986
 21
-11.09980000000002
 31
0.0
  0
LINE
  5
72F
  8
SK3
 10
-5.250000000000001
 20
11.09979999999999
 30
0.0
 11
-95.25
 21
11.09979999999999
 31
0.0
  0
LINE
  5
760
  8
SK3
 10
-57.1
 20
12.69999999999999
 30
0.0
 11
-95.25
 21
12.69999999999999
 31
0.0
  0
LINE
  5
761
  8
SK3
 10
-95.25
 20
-12.69999999999999
 30
0.0
 11
-57.1
 21
-12.69999999999999
 31
0.0
  0
LINE
  5
774
  8
SK3
 10
-57.1
 20
12.69999999999999
 30
0.0
 11
-57.1
 21
-12.69999999999999
 31
0.0
  0
LINE
  5
777
  8
SK4
 10
0.0
 20
0.0
 30
0.0
 11
-101.6
 21
0.0
 31
0.0
  0
LINE
  5
779
  8
4
 10
0.0
 20
0.0
 30
0.0
 11
101.6000000000001
 21
0.0
 31
0.0
  0
INSERT
  5
77B
  8
SK6
  2
*U2
 10
-44.10380399683656
 20
-23.39313954296377
 30
0.0
  0
INSERT
  5
78D
  8
SK6
  2
*U5
 10
17.55665382414153
 20
-2.560320993650734
 30
0.0
  0
LINE
  5
793
  8
0
 10
3.0
 20
3.0
 30
0.0
 11
-3.0
 21
-3.0
 31
0.0
  0
LINE
  5
794
  8
0
 10
-3.0
 20
3.0
 30
0.0
 11
3.0
 21
-3.0
 31
0.0
  0
CIRCLE
  5
795
  8
0
 10
0.0
 20
0.0
 30
0.0
 40
2.5
  0
LINE
  5
796
  8
0
 10
104.6000000000001
 20
-3.0
 30
0.0
 11
98.60000000000005
 21
3.0
 31
0.0
  0
CIRCLE
  5
797
  8
0
 10
101.6000000000001
 20
0.0
 30
0.0
 40
2.5
  0
LINE
  5
798
  8
0
 10
98.60000000000005
 20
-3.0
 30
0.0
 11
104.6000000000001
 21
3.0
 31
0.0
  0
LINE
  5
799
  8
NOCUT
 10
0.7999999999999972
 20
34.62500000000001
 30
0.0
 11
0.2999999999999972
 21
34.62500000000001
 31
0.0
  0
LINE
  5
79B
  8
NOCUT
 10
35.05
 20
34.42499999999999
 30
0.0
 11
34.55
 21
34.92499999999999
 31
0.0
  0
LINE
  5
79C
  8
NOCUT
 10
0.2999999999999972
 20
34.62500000000001
 30
0.0
 11
0.0
 21
34.92499999999999
 31
0.0
  0
LINE
  5
79D
  8
NOCUT
 10
34.55
 20
34.92499999999999
 30
0.0
 11
20.05
 21
34.92499999999999
 31
0.0
  0
ARC
  5
79E
  8
NOCUT
 10
0.7999999999999972
 20
35.62500000000001
 30
0.0
 40
1.0
 50
270.0
 51
314.4270040008
  0
ARC
  5
79F
  8
NOCUT
 10
20.05
 20
35.92499999999999
 30
0.0
 40
1.0
 50
180.0
 51
270.0
  0
LINE
  5
7A0
  8
NOCUT
 10
12.55499999999999
 20
45.64499999999999
 30
0.0
 11
9.704999999999998
 21
45.64499999999999
 31
0.0
  0
ARC
  5
7A1
  8
NOCUT
 10
12.55499999999999
 20
46.14499999999999
 30
0.0
 40
0.5
 50
270.0
 51
0.0
  0
ARC
  5
7A2
  8
NOCUT
 10
9.704999999999998
 20
46.14499999999999
 30
0.0
 40
0.5
 50
180.0
 51
270.0
  0
ARC
  5
7A3
  8
NOCUT
 10
2.299999999999997
 20
48.4125
 30
0.0
 40
0.7999999999999972
 50
90.0
 51
180.0
  0
ARC
  5
7A4
  8
NOCUT
 10
18.24999999999999
 20
48.4125
 30
0.0
 40
0.799999999999983
 50
0.0
 51
90.0
  0
LINE
  5
7A5
  8
NOCUT
 10
9.204999999999998
 20
46.43919780459999
 30
0.0
 11
7.603833230999996
 21
49.21250000000001
 31
0.0
  0
LINE
  5
7A6
  8
NOCUT
 10
14.65616676910001
 20
49.21250000000001
 30
0.0
 11
13.05499999999999
 21
46.43919780459999
 31
0.0
  0
LINE
  5
7A7
  8
NOCUT
 10
18.24999999999999
 20
49.21250000000001
 30
0.0
 11
14.65616676910001
 21
49.21250000000001
 31
0.0
  0
LINE
  5
7A8
  8
NOCUT
 10
7.603833230999996
 20
49.21250000000001
 30
0.0
 11
2.299999999999997
 21
49.21250000000001
 31
0.0
  0
LINE
  5
7AC
  8
NOCUT
 10
1.5
 20
48.4125
 30
0.0
 11
1.499999999999929
 21
34.91085715714565
 31
0.0
  0
LINE
  5
7AD
  8
NOCUT
 10
19.04999999999997
 20
48.4125
 30
0.0
 11
19.05
 21
35.92499999999999
 31
0.0
  0
LINE
  5
7AE
  8
NOCUT
 10
9.204999999999998
 20
46.43919780459999
 30
0.0
 11
9.204999999999998
 21
46.14499999999999
 31
0.0
  0
LINE
  5
7AF
  8
NOCUT
 10
13.05499999999999
 20
46.43919780459999
 30
0.0
 11
13.05499999999999
 21
46.14499999999999
 31
0.0
  0
DIMENSION
  5
7E6
  8
SK2
  2
*D6
 10
156.9483963132591
 20
-34.92500000000002
 30
0.0
 11
155.0733963132591
 21
-0.0000000000000213
 31
0.0
 70
    32
  3
ISO-25
 13
34.5
 23
34.92499999999998
 33
0.0
 14
34.5
 24
-34.92500000000001
 34
0.0
 50
90.0
1001
ACAD
1000
DSTYLE
1002
{
1070
   287
1070
     5
1070
   271
1070
     3
1070
   272
1070
     3
1070
   279
1070
     2
1002
}
  0
DIMENSION
  5
7F5
  8
SK2
  2
*D7
 10
35.05
 20
-73.15665109041375
 30
0.0
 11
17.525
 21
-71.28165109041375
 31
0.0
 70
    32
  3
ISO-25
 13
0.0
 23
-34.92500000000001
 33
0.0
 14
35.05
 24
-34.42500000000001
 34
0.0
1001
ACAD
1000
DSTYLE
1002
{
1070
   287
1070
     5
1070
   271
1070
     3
1070
   272
1070
     3
1070
   279
1070
     2
1002
}
  0
DIMENSION
  5
804
  8
SK2
  2
*D8
 10
101.6000000000001
 20
62.46215670356074
 30
0.0
 11
50.80000000000003
 21
64.33715670356074
 31
0.0
 70
    32
  3
ISO-25
 13
0.0
 23
34.92499999999998
 33
0.0
 14
101.6000000000001
 24
26.80029999999999
 34
0.0
1001
ACAD
1000
DSTYLE
1002
{
1070
   287
1070
     5
1070
   271
1070
     3
1070
   272
1070
     3
1070
   279
1070
     2
1002
}
  0
LINE
  5
8BF
  8
NOCUT
 10
0.0
 20
34.92499999999999
 30
0.0
 11
0.0
 21
0.0
 31
0.0
  0
LINE
  5
8C0
  8
NOCUT
 10
0.0
 20
0.0
 30
0.0
 11
101.6000000000001
 21
0.0
 31
0.0
  0
INSERT
  5
A17
  8
SK6
  2
_FILLED
 10
-20.78186483605847
 20
-31.89428358495073
 30
0.0
 41
3.5
 42
3.5
 43
3.5
 50
52.86965044919886
  0
POLYLINE
  5
A18
  8
SK6
 66
     1
 10
0.0
 20
0.0
 30
0.0
  0
VERTEX
  5
1524
  8
SK6
 10
-22.89457117648658
 20
-34.68470862768434
 30
0.0
  0
VERTEX
  5
1525
  8
SK6
 10
-48.02596493475846
 20
-67.87780752645074
 30
0.0
  0
VERTEX
  5
1526
  8
SK6
 10
-49.90096493475846
 20
-66.12780752645074
 30
0.0
  0
VERTEX
  5
1527
  8
SK6
 10
-53.40096493475846
 20
-66.12780752645074
 30
0.0
  0
SEQEND
  5
16DD
  8
SK6
  0
ARC
  5
AC7
  8
1
 10
20.04999999999998
 20
35.92499999999998
 30
0.0
 40
1.0
 50
180.0
 51
270.0
  0
ARC
  5
AC9
  8
1
 10
20.04999999999998
 20
-35.92500000000001
 30
0.0
 40
1.0
 50
90.0
 51
180.0
  0
ARC
  5
ACA
  8
1
 10
1.299999999999983
 20
35.125
 30
0.0
 40
0.5
 50
270.0
 51
293.5781784781994
  0
ARC
  5
ACB
  8
1
 10
1.299999999999983
 20
-35.125
 30
0.0
 40
0.500000000000009
 50
66.42182152180017
 51
90.0
  0
LINE
  5
ACC
  8
1
 10
34.55
 20
34.92499999999998
 30
0.0
 11
20.04999999999998
 21
34.92499999999998
 31
0.0
  0
LINE
  5
ACE
  8
1
 10
20.04999999999998
 20
-34.92500000000001
 30
0.0
 11
34.55
 21
-34.92500000000001
 31
0.0
  0
LINE
  5
ACF
  8
1
 10
0.0
 20
-34.92500000000001
 30
0.0
 11
0.2999999999999829
 21
-34.625
 31
0.0
  0
LINE
  5
AD0
  8
1
 10
0.2999999999999829
 20
34.625
 30
0.0
 11
0.0
 21
34.92499999999998
 31
0.0
  0
LINE
  5
AD3
  8
1
 10
34.55
 20
-34.92500000000001
 30
0.0
 11
35.05
 21
-34.42500000000001
 31
0.0
  0
LINE
  5
AD4
  8
1
 10
35.05
 20
34.42499999999998
 30
0.0
 11
34.55
 21
34.92499999999998
 31
0.0
  0
LINE
  5
AD5
  8
1
 10
1.299999999999983
 20
34.625
 30
0.0
 11
0.2999999999999829
 21
34.625
 31
0.0
  0
LINE
  5
AD6
  8
1
 10
0.2999999999999829
 20
-34.625
 30
0.0
 11
1.299999999999983
 21
-34.625
 31
0.0
  0
LINE
  5
ADB
  8
1
 10
14.65616694409999
 20
-47.282880439
 30
0.0
 11
14.68806954659999
 21
-47.29184187660002
 31
0.0
  0
LINE
  5
ADC
  8
1
 10
14.6561667691
 20
47.30816788690001
 30
0.0
 11
14.6561667691
 21
-47.2826327523
 31
0.0
  0
LINE
  5
ADD
  8
1
 10
14.7615962207
 20
47.3314147463
 30
0.0
 11
14.6561668942
 21
47.30816788690001
 31
0.0
  0
LINE
  5
ADE
  8
1
 10
18.25
 20
47.3314147463
 30
0.0
 11
14.7615962207
 21
47.3314147463
 31
0.0
  0
LINE
  5
ADF
  8
1
 10
14.68806954659999
 20
-47.29184187660002
 30
0.0
 11
18.25
 21
-47.29184187660002
 31
0.0
  0
LINE
  5
AE0
  8
1
 10
7.498403779400007
 20
47.3314147463
 30
0.0
 11
4.006414746699988
 21
47.3314147463
 31
0.0
  0
LINE
  5
AE1
  8
1
 10
7.603833105900009
 20
47.30816788690001
 30
0.0
 11
7.498403779400007
 21
47.3314147463
 31
0.0
  0
LINE
  5
AE2
  8
1
 10
7.603833230899994
 20
47.30844201400001
 30
0.0
 11
7.603833230899994
 21
-47.28288044160001
 31
0.0
  0
LINE
  5
AE3
  8
1
 10
7.571930453299984
 20
-47.29184187660002
 30
0.0
 11
7.603833055899997
 21
-47.282880439
 31
0.0
  0
LINE
  5
AE4
  8
1
 10
4.040356993800003
 20
-47.29184187660002
 30
0.0
 11
7.571930453299984
 21
-47.29184187660002
 31
0.0
  0
LINE
  5
AE5
  8
1
 10
2.300001405499984
 20
-46.74795901499999
 30
0.0
 11
4.040356993800003
 21
-47.29184189310001
 31
0.0
  0
LINE
  5
AE6
  8
1
 10
4.006414746699988
 20
47.33141476029999
 30
0.0
 11
2.299999765199999
 21
46.80267569
 31
0.0
  0
ARC
  5
AE7
  8
1
 10
2.557435939599998
 20
-45.59355264690001
 30
0.0
 40
1.184053137363273
 50
207.7147598986998
 51
257.3157095984005
  0
LINE
  5
AE8
  8
1
 10
1.50922466130001
 20
-46.14422037630001
 30
0.0
 11
1.5
 21
-46.01377680920001
 31
0.0
  0
LINE
  5
AE9
  8
1
 10
1.5
 20
-46.01377680920001
 30
0.0
 11
1.5
 21
46.01377680919998
 31
0.0
  0
ARC
  5
AEA
  8
1
 10
2.572884962100005
 20
45.72649004249999
 30
0.0
 40
1.111555736593689
 50
104.3436511600003
 51
164.8417645594994
  0
LINE
  5
AEB
  8
1
 10
9.204999995999998
 20
44.41431970880001
 30
0.0
 11
7.60383322749999
 21
47.3081678945
 31
0.0
  0
LINE
  5
AEC
  8
1
 10
9.204999999999984
 20
44.4143196734
 30
0.0
 11
9.204999999999984
 21
-44.387299867
 31
0.0
  0
LINE
  5
AED
  8
1
 10
7.603833226399985
 20
-47.28288044990001
 30
0.0
 11
9.2049999921
 21
-44.38762367050001
 31
0.0
  0
LINE
  5
AEE
  8
1
 10
14.65616677259999
 20
47.3081678945
 30
0.0
 11
13.05500000399999
 21
44.41431970880001
 31
0.0
  0
LINE
  5
AEF
  8
1
 10
13.05500000800001
 20
-44.38762367050001
 30
0.0
 11
14.65616677360001
 21
-47.28288044990001
 31
0.0
  0
LINE
  5
AF0
  8
1
 10
13.05500000000001
 20
44.41459195280001
 30
0.0
 11
13.05500000000001
 21
-44.38762365650001
 31
0.0
  0
ARC
  5
AF1
  8
1
 10
17.92302328310001
 20
46.41895288640001
 30
0.0
 40
1.127359624435328
 50
1.493363825500091
 51
43.53750291790048
  0
LINE
  5
AF2
  8
1
 10
19.04999999999998
 20
46.44833319130001
 30
0.0
 11
19.04999999999998
 21
-46.44833319130001
 31
0.0
  0
ARC
  5
AF3
  8
1
 10
17.91824827779999
 20
-46.4157978575
 30
0.0
 40
1.1322192847622
 50
319.2464850235001
 51
358.3533278529993
  0
ARC
  5
AF4
  8
1
 10
18.2616113983
 20
-46.25791326929999
 30
0.0
 40
1.033993805426882
 50
269.3565743835002
 51
299.8289453780985
  0
ARC
  5
AF5
  8
1
 10
18.2610591033
 20
46.41902767409999
 30
0.0
 40
0.9124540938653742
 50
58.31881226410037
 51
90.69445187719943
  0
ARC
  5
AF6
  8
1
 10
12.5158206966
 20
-44.1073442162
 30
0.0
 40
0.5397579791454132
 50
357.3466499737992
 51
85.83742202690154
  0
ARC
  5
AF7
  8
1
 10
12.54139279200001
 20
44.09944295630001
 30
0.0
 40
0.4858431210597904
 50
271.6049163143007
 51
333.441972537701
  0
POLYLINE
  5
AF8
  8
1
 66
     1
 10
0.0
 20
0.0
 30
0.0
  0
VERTEX
  5
1528
  8
1
 10
13.05500000000001
 20
44.14662312639999
 30
0.0
  0
VERTEX
  5
1529
  8
1
 10
13.03542892280001
 20
44.01594229719998
 30
0.0
  0
VERTEX
  5
152A
  8
1
 10
12.97787844319998
 20
43.88571451269999
 30
0.0
  0
SEQEND
  5
16DC
  8
1
  0
ARC
  5
AF9
  8
1
 10
9.744214343399989
 20
-44.10737531749999
 30
0.0
 40
0.5397915428070933
 50
94.16604783349855
 51
182.6498801657025
  0
POLYLINE
  5
AFA
  8
1
 66
     1
 10
0.0
 20
0.0
 30
0.0
  0
VERTEX
  5
152B
  8
1
 10
9.280099379399985
 20
43.88913247470001
 30
0.0
  0
VERTEX
  5
152C
  8
1
 10
9.224055884099982
 20
44.0177026321
 30
0.0
  0
VERTEX
  5
152D
  8
1
 10
9.204999999999984
 20
44.14662312639999
 30
0.0
  0
SEQEND
  5
16DB
  8
1
  0
ARC
  5
AFB
  8
1
 10
9.721350266000002
 20
44.10422581969999
 30
0.0
 40
0.4907078648052702
 50
206.0244317763009
 51
268.0905652222996
  0
LINE
  5
AFC
  8
1
 10
12.55500000000001
 20
43.613790424
 30
0.0
 11
9.704999999999984
 21
43.613790424
 31
0.0
  0
LINE
  5
AFD
  8
1
 10
9.704999999999984
 20
-43.5690100651
 30
0.0
 11
12.55500000000001
 21
-43.5690100651
 31
0.0
  0
LINE
  5
AFF
  8
1
 10
34.55
 20
-34.92500000000001
 30
0.0
 11
34.55
 21
34.92499999999998
 31
0.0
  0
LINE
  5
B00
  8
1
 10
0.2999999999999829
 20
34.625
 30
0.0
 11
0.2999999999999829
 21
-34.625
 31
0.0
  0
LINE
  5
B01
  8
1
 10
0.0
 20
34.92499999999998
 30
0.0
 11
0.0
 21
-34.92500000000001
 31
0.0
  0
LINE
  5
B02
  8
1
 10
35.05
 20
34.42499999999998
 30
0.0
 11
35.05
 21
-34.42500000000001
 31
0.0
  0
LINE
  5
B04
  8
1
 10
14.68806954670001
 20
-47.29184187660002
 30
0.0
 11
14.65616694420001
 21
-47.282880439
 31
0.0
  0
LINE
  5
B1A
  8
3
 10
1.500000000000004
 20
37.72
 30
0.0
 11
19.04999999999998
 21
37.72
 31
0.0
  0
LINE
  5
B3B
  8
3
 10
1.5
 20
-35.30000000000001
 30
0.0
 11
19.26937525020018
 21
-35.30000000000001
 31
0.0
  0
LINE
  5
B42
  8
3
 10
26.97499999999999
 20
28.32499999999999
 30
0.0
 11
33.32499999999999
 21
28.32499999999999
 31
0.0
  0
LINE
  5
B43
  8
3
 10
20.625
 20
28.32499999999999
 30
0.0
 11
26.97499999999999
 21
28.32499999999999
 31
0.0
  0
LINE
  5
B44
  8
3
 10
11.375
 20
37.31999999999999
 30
0.0
 11
16.125
 21
37.31999999999999
 31
0.0
  0
LINE
  5
B45
  8
3
 10
6.625
 20
37.31999999999999
 30
0.0
 11
11.375
 21
37.31999999999999
 31
0.0
  0
LINE
  5
B55
  8
3
 10
20.625
 20
28.32499999999999
 30
0.0
 11
26.97499999999999
 21
24.50953506919998
 31
0.0
  0
LINE
  5
B56
  8
3
 10
26.97499999999999
 20
24.50953506919998
 30
0.0
 11
33.32499999999999
 21
28.32499999999999
 31
0.0
  0
LINE
  5
B57
  8
3
 10
20.625
 20
34.92499999999998
 30
0.0
 11
20.625
 21
28.32499999999999
 31
0.0
  0
LINE
  5
B58
  8
3
 10
33.32499999999999
 20
28.32499999999999
 30
0.0
 11
33.32499999999999
 21
34.92499999999998
 31
0.0
  0
LINE
  5
B59
  8
3
 10
6.625
 20
37.72
 30
0.0
 11
6.625
 21
37.31999999999999
 31
0.0
  0
LINE
  5
B5A
  8
3
 10
16.125
 20
37.31999999999999
 30
0.0
 11
16.125
 21
37.72
 31
0.0
  0
LINE
  5
B5B
  8
1
 10
20.04999999999998
 20
-34.92500000000001
 30
0.0
 11
20.04999999999998
 21
34.92499999999998
 31
0.0
  0
LINE
  5
B5C
  8
1
 10
1.299999999999983
 20
-34.625
 30
0.0
 11
1.299999999999983
 21
34.625
 31
0.0
  0
LINE
  5
B5F
  8
1
 10
12.55500000000001
 20
-43.00413183130001
 30
0.0
 11
12.55500000000001
 21
42.79577481850001
 31
0.0
  0
LINE
  5
B60
  8
1
 10
9.704999999999984
 20
-43.00421493109999
 30
0.0
 11
9.704999999999984
 21
42.7957705776
 31
0.0
  0
LINE
  5
B62
  8
1
 10
18.25
 20
47.3314147463
 30
0.0
 11
18.25
 21
-47.29184187660002
 31
0.0
  0
LINE
  5
B64
  8
1
 10
2.299999999999983
 20
-46.74795854910002
 30
0.0
 11
2.299999999999983
 21
46.80267576719999
 31
0.0
  0
LINE
  5
CD6
  8
1
 10
101.6285053027
 20
26.20931000000002
 30
0.0
 11
101.6000000000001
 21
26.20931000000002
 31
0.0
  0
LINE
  5
CD8
  8
1
 10
101.6000000000001
 20
16.67669000000001
 30
0.0
 11
101.6285053027
 21
16.67669000000001
 31
0.0
  0
LINE
  5
CDA
  8
1
 10
101.6000000000001
 20
-26.20931000000002
 30
0.0
 11
101.6285053027
 21
-26.20931000000002
 31
0.0
  0
ARC
  5
CF4
  8
1
 10
37.05000000000001
 20
29.80029999999999
 30
0.0
 40
2.0
 50
180.0
 51
270.0
  0
ARC
  5
CF5
  8
1
 10
37.05000000000001
 20
-29.80029999999999
 30
0.0
 40
2.0
 50
90.0
 51
180.0
  0
ARC
  5
CF6
  8
1
 10
100.6000000000001
 20
-26.80029999999999
 30
0.0
 40
1.0
 50
270.0
 51
0.0
  0
ARC
  5
CF7
  8
1
 10
100.6000000000001
 20
26.80029999999999
 30
0.0
 40
1.0
 50
0.0
 51
90.0
  0
LINE
  5
CF8
  8
1
 10
37.05000000000001
 20
-27.80029999999999
 30
0.0
 11
100.6000000000001
 21
-27.80029999999999
 31
0.0
  0
LINE
  5
CF9
  8
1
 10
100.6000000000001
 20
27.80029999999999
 30
0.0
 11
37.05000000000001
 21
27.80029999999999
 31
0.0
  0
LINE
  5
D04
  8
1
 10
90.02264973080003
 20
-1.0
 30
0.0
 11
89.4452994616
 21
0.0
 31
0.0
  0
LINE
  5
D05
  8
1
 10
91.17735026920002
 20
-1.0
 30
0.0
 11
90.02264973080003
 21
-1.0
 31
0.0
  0
LINE
  5
D06
  8
1
 10
91.17735026920002
 20
-1.0
 30
0.0
 11
91.75470053840002
 21
0.0
 31
0.0
  0
LINE
  5
D07
  8
1
 10
91.17735026920002
 20
1.0
 30
0.0
 11
91.75470053840002
 21
0.0
 31
0.0
  0
LINE
  5
D08
  8
1
 10
91.17735026920002
 20
1.0
 30
0.0
 11
90.02264973080003
 21
1.0
 31
0.0
  0
CIRCLE
  5
D09
  8
1
 10
90.60000000000002
 20
0.0
 30
0.0
 40
1.610000000000127
  0
LINE
  5
D0A
  8
1
 10
90.02264973080003
 20
1.0
 30
0.0
 11
89.4452994616
 21
0.0
 31
0.0
  0
LINE
  5
D37
  8
1
 10
101.6000000000001
 20
0.0
 30
0.0
 11
101.6000000000001
 21
26.80029999999999
 31
0.0
  0
LINE
  5
D38
  8
1
 10
101.6000000000001
 20
-26.80029999999999
 30
0.0
 11
101.6000000000001
 21
0.0
 31
0.0
  0
CIRCLE
  5
D39
  8
1
 10
90.60000000000002
 20
0.0
 30
0.0
 40
2.250000000000171
  0
CIRCLE
  5
D3A
  8
1
 10
90.60000000000002
 20
0.0
 30
0.0
 40
2.124999999999972
  0
POLYLINE
  5
D40
  8
3
 66
     1
 10
0.0
 20
0.0
 30
0.0
  0
VERTEX
  5
152E
  8
3
 10
92.60000000000002
 20
16.9333947202
 30
0.0
  0
VERTEX
  5
152F
  8
3
 10
92.4793852416
 20
16.59137457690002
 30
0.0
  0
VERTEX
  5
1530
  8
3
 10
92.13208888630001
 20
16.29060711049999
 30
0.0
  0
VERTEX
  5
1531
  8
3
 10
91.60000000000002
 20
16.0673693164
 30
0.0
  0
VERTEX
  5
1532
  8
3
 10
90.94729635530001
 20
15.94858696720001
 30
0.0
  0
VERTEX
  5
1533
  8
3
 10
90.2527036447
 20
15.94858696720001
 30
0.0
  0
VERTEX
  5
1534
  8
3
 10
89.60000000000002
 20
16.0673693164
 30
0.0
  0
VERTEX
  5
1535
  8
3
 10
89.06791111380002
 20
16.29060711049999
 30
0.0
  0
VERTEX
  5
1536
  8
3
 10
88.72061475840002
 20
16.59137457690002
 30
0.0
  0
VERTEX
  5
1537
  8
3
 10
88.60000000000002
 20
16.9333947202
 30
0.0
  0
VERTEX
  5
1538
  8
3
 10
88.72061475840002
 20
17.27541486360002
 30
0.0
  0
VERTEX
  5
1539
  8
3
 10
89.06791111380002
 20
17.57618232990001
 30
0.0
  0
VERTEX
  5
153A
  8
3
 10
89.60000000000002
 20
17.79942012399999
 30
0.0
  0
VERTEX
  5
153B
  8
3
 10
90.2527036447
 20
17.91820247319998
 30
0.0
  0
VERTEX
  5
153C
  8
3
 10
90.94729635530001
 20
17.91820247319998
 30
0.0
  0
VERTEX
  5
153D
  8
3
 10
91.60000000000002
 20
17.79942012399999
 30
0.0
  0
VERTEX
  5
153E
  8
3
 10
92.13208888630001
 20
17.57618232990001
 30
0.0
  0
VERTEX
  5
153F
  8
3
 10
92.4793852416
 20
17.27541486360002
 30
0.0
  0
VERTEX
  5
1540
  8
3
 10
92.60000000000002
 20
16.9333947202
 30
0.0
  0
SEQEND
  5
16DA
  8
3
  0
POLYLINE
  5
D43
  8
3
 66
     1
 10
0.0
 20
0.0
 30
0.0
  0
VERTEX
  5
1541
  8
3
 10
91.85000000000002
 20
16.28387566739997
 30
0.0
  0
VERTEX
  5
1542
  8
3
 10
91.75484941570002
 20
16.04469852220001
 30
0.0
  0
VERTEX
  5
1543
  8
3
 10
91.48388347650001
 20
15.84193392919997
 30
0.0
  0
VERTEX
  5
1544
  8
3
 10
91.07835429050002
 20
15.70645095959998
 30
0.0
  0
VERTEX
  5
1545
  8
3
 10
90.60000000000002
 20
15.65887566739997
 30
0.0
  0
VERTEX
  5
1546
  8
3
 10
90.12164570960002
 20
15.70645095959998
 30
0.0
  0
VERTEX
  5
1547
  8
3
 10
89.7161165235
 20
15.84193392919997
 30
0.0
  0
VERTEX
  5
1548
  8
3
 10
89.44515058440001
 20
16.04469852220001
 30
0.0
  0
VERTEX
  5
1549
  8
3
 10
89.35000000000002
 20
16.28387566739997
 30
0.0
  0
VERTEX
  5
154A
  8
3
 10
89.44515058440001
 20
16.52305281259999
 30
0.0
  0
VERTEX
  5
154B
  8
3
 10
89.7161165235
 20
16.72581740559997
 30
0.0
  0
VERTEX
  5
154C
  8
3
 10
90.12164570960002
 20
16.86130037520002
 30
0.0
  0
VERTEX
  5
154D
  8
3
 10
90.60000000000002
 20
16.90887566739997
 30
0.0
  0
VERTEX
  5
154E
  8
3
 10
91.07835429050002
 20
16.86130037520002
 30
0.0
  0
VERTEX
  5
154F
  8
3
 10
91.48388347650001
 20
16.72581740559997
 30
0.0
  0
VERTEX
  5
1550
  8
3
 10
91.75484941570002
 20
16.52305281259999
 30
0.0
  0
VERTEX
  5
1551
  8
3
 10
91.85000000000002
 20
16.28387566739997
 30
0.0
  0
SEQEND
  5
16D9
  8
3
  0
POLYLINE
  5
D44
  8
3
 66
     1
 10
0.0
 20
0.0
 30
0.0
  0
VERTEX
  5
1552
  8
3
 10
92.60000000000002
 20
23.0170788977
 30
0.0
  0
VERTEX
  5
1553
  8
3
 10
92.4793852416
 20
22.67505875429998
 30
0.0
  0
VERTEX
  5
1554
  8
3
 10
92.13208888630001
 20
22.37429128799999
 30
0.0
  0
VERTEX
  5
1555
  8
3
 10
91.60000000000002
 20
22.15105349390001
 30
0.0
  0
VERTEX
  5
1556
  8
3
 10
90.94729635530001
 20
22.03227114470002
 30
0.0
  0
VERTEX
  5
1557
  8
3
 10
90.2527036447
 20
22.03227114470002
 30
0.0
  0
VERTEX
  5
1558
  8
3
 10
89.60000000000002
 20
22.15105349390001
 30
0.0
  0
VERTEX
  5
1559
  8
3
 10
89.06791111380002
 20
22.37429128799999
 30
0.0
  0
VERTEX
  5
155A
  8
3
 10
88.72061475840002
 20
22.67505875429998
 30
0.0
  0
VERTEX
  5
155B
  8
3
 10
88.60000000000002
 20
23.0170788977
 30
0.0
  0
VERTEX
  5
155C
  8
3
 10
88.72061475840002
 20
23.35909904099998
 30
0.0
  0
VERTEX
  5
155D
  8
3
 10
89.06791111380002
 20
23.65986650740001
 30
0.0
  0
VERTEX
  5
155E
  8
3
 10
89.60000000000002
 20
23.8831043015
 30
0.0
  0
VERTEX
  5
155F
  8
3
 10
90.2527036447
 20
24.00188665069999
 30
0.0
  0
VERTEX
  5
1560
  8
3
 10
90.94729635530001
 20
24.00188665069999
 30
0.0
  0
VERTEX
  5
1561
  8
3
 10
91.60000000000002
 20
23.8831043015
 30
0.0
  0
VERTEX
  5
1562
  8
3
 10
92.13208888630001
 20
23.65986650740001
 30
0.0
  0
VERTEX
  5
1563
  8
3
 10
92.4793852416
 20
23.35909904099998
 30
0.0
  0
VERTEX
  5
1564
  8
3
 10
92.60000000000002
 20
23.0170788977
 30
0.0
  0
SEQEND
  5
16D8
  8
3
  0
LINE
  5
D45
  8
3
 10
91.17735026920002
 20
21.72022046899997
 30
0.0
 11
90.02264973080003
 21
21.72022046899997
 31
0.0
  0
LINE
  5
D46
  8
3
 10
91.17735026920002
 20
21.72022046899997
 30
0.0
 11
91.17735026920002
 21
23.7120788977
 31
0.0
  0
LINE
  5
D47
  8
3
 10
91.17735026920002
 20
21.72022046899997
 30
0.0
 11
91.75470053840002
 21
21.22022046899997
 31
0.0
  0
LINE
  5
D48
  8
3
 10
90.02264973080003
 20
21.72022046899997
 30
0.0
 11
90.02264973080003
 21
23.7120788977
 31
0.0
  0
LINE
  5
D49
  8
3
 10
90.02264973080003
 20
21.72022046899997
 30
0.0
 11
89.4452994616
 21
21.22022046899997
 31
0.0
  0
POLYLINE
  5
D4A
  8
3
 66
     1
 10
0.0
 20
0.0
 30
0.0
  0
VERTEX
  5
1565
  8
3
 10
92.21000000000001
 20
23.2120788977
 30
0.0
  0
VERTEX
  5
1566
  8
3
 10
92.08744604740002
 20
22.90401873460002
 30
0.0
  0
VERTEX
  5
1567
  8
3
 10
91.73844191770002
 20
22.64285793879998
 30
0.0
  0
VERTEX
  5
1568
  8
3
 10
91.21612032610003
 20
22.468355874
 30
0.0
  0
VERTEX
  5
1569
  8
3
 10
90.60000000000002
 20
22.40707889769999
 30
0.0
  0
VERTEX
  5
156A
  8
3
 10
89.98387967390002
 20
22.468355874
 30
0.0
  0
VERTEX
  5
156B
  8
3
 10
89.4615580823
 20
22.64285793879998
 30
0.0
  0
VERTEX
  5
156C
  8
3
 10
89.11255395270001
 20
22.90401873460002
 30
0.0
  0
VERTEX
  5
156D
  8
3
 10
88.99000000000001
 20
23.2120788977
 30
0.0
  0
VERTEX
  5
156E
  8
3
 10
89.11255395270001
 20
23.52013906069999
 30
0.0
  0
VERTEX
  5
156F
  8
3
 10
89.4615580823
 20
23.78129985649997
 30
0.0
  0
VERTEX
  5
1570
  8
3
 10
89.98387967390002
 20
23.95580192130001
 30
0.0
  0
VERTEX
  5
1571
  8
3
 10
90.60000000000002
 20
24.0170788977
 30
0.0
  0
VERTEX
  5
1572
  8
3
 10
91.21612032610003
 20
23.95580192130001
 30
0.0
  0
VERTEX
  5
1573
  8
3
 10
91.73844191770002
 20
23.78129985649997
 30
0.0
  0
VERTEX
  5
1574
  8
3
 10
92.08744604740002
 20
23.52013906069999
 30
0.0
  0
VERTEX
  5
1575
  8
3
 10
92.21000000000001
 20
23.2120788977
 30
0.0
  0
SEQEND
  5
16D7
  8
3
  0
LINE
  5
D4B
  8
3
 10
90.02264973080003
 20
23.7120788977
 30
0.0
 11
89.4452994616
 21
23.2120788977
 31
0.0
  0
LINE
  5
D4C
  8
3
 10
91.17735026920002
 20
23.7120788977
 30
0.0
 11
91.75470053840002
 21
23.2120788977
 31
0.0
  0
LINE
  5
D4D
  8
3
 10
91.17735026920002
 20
23.7120788977
 30
0.0
 11
90.02264973080003
 21
23.7120788977
 31
0.0
  0
LINE
  5
D4E
  8
3
 10
90.02264973080003
 20
20.72022046899997
 30
0.0
 11
90.02264973080003
 21
21.72022046899997
 31
0.0
  0
LINE
  5
D4F
  8
3
 10
90.02264973080003
 20
22.7120788977
 30
0.0
 11
89.4452994616
 21
23.2120788977
 31
0.0
  0
LINE
  5
D50
  8
3
 10
89.4452994616
 20
21.22022046899997
 30
0.0
 11
89.4452994616
 21
23.2120788977
 31
0.0
  0
LINE
  5
D51
  8
3
 10
90.02264973080003
 20
20.72022046899997
 30
0.0
 11
89.4452994616
 21
21.22022046899997
 31
0.0
  0
LINE
  5
D52
  8
3
 10
91.17735026920002
 20
20.72022046899997
 30
0.0
 11
91.17735026920002
 21
21.72022046899997
 31
0.0
  0
LINE
  5
D53
  8
3
 10
91.17735026920002
 20
22.7120788977
 30
0.0
 11
91.75470053840002
 21
23.2120788977
 31
0.0
  0
LINE
  5
D54
  8
3
 10
91.75470053840002
 20
21.22022046899997
 30
0.0
 11
91.75470053840002
 21
23.2120788977
 31
0.0
  0
LINE
  5
D55
  8
3
 10
91.17735026920002
 20
20.72022046899997
 30
0.0
 11
91.75470053840002
 21
21.22022046899997
 31
0.0
  0
LINE
  5
D56
  8
3
 10
91.17735026920002
 20
22.7120788977
 30
0.0
 11
90.02264973080003
 21
22.7120788977
 31
0.0
  0
LINE
  5
D57
  8
3
 10
91.17735026920002
 20
20.72022046899997
 30
0.0
 11
90.02264973080003
 21
20.72022046899997
 31
0.0
  0
POLYLINE
  5
D58
  8
3
 66
     1
 10
0.0
 20
0.0
 30
0.0
  0
VERTEX
  5
1576
  8
3
 10
92.60000000000002
 20
-16.9333947202
 30
0.0
  0
VERTEX
  5
1577
  8
3
 10
92.4793852416
 20
-17.27541486350003
 30
0.0
  0
VERTEX
  5
1578
  8
3
 10
92.13208888630001
 20
-17.57618232980002
 30
0.0
  0
VERTEX
  5
1579
  8
3
 10
91.60000000000002
 20
-17.79942012390001
 30
0.0
  0
VERTEX
  5
157A
  8
3
 10
90.94729635530001
 20
-17.91820247319998
 30
0.0
  0
VERTEX
  5
157B
  8
3
 10
90.2527036447
 20
-17.91820247319998
 30
0.0
  0
VERTEX
  5
157C
  8
3
 10
89.60000000000002
 20
-17.79942012390001
 30
0.0
  0
VERTEX
  5
157D
  8
3
 10
89.06791111380002
 20
-17.57618232980002
 30
0.0
  0
VERTEX
  5
157E
  8
3
 10
88.72061475840002
 20
-17.27541486350003
 30
0.0
  0
VERTEX
  5
157F
  8
3
 10
88.60000000000002
 20
-16.9333947202
 30
0.0
  0
VERTEX
  5
1580
  8
3
 10
88.72061475840002
 20
-16.59137457679998
 30
0.0
  0
VERTEX
  5
1581
  8
3
 10
89.06791111380002
 20
-16.29060711049999
 30
0.0
  0
VERTEX
  5
1582
  8
3
 10
89.60000000000002
 20
-16.0673693164
 30
0.0
  0
VERTEX
  5
1583
  8
3
 10
90.2527036447
 20
-15.94858696710003
 30
0.0
  0
VERTEX
  5
1584
  8
3
 10
90.94729635530001
 20
-15.94858696710003
 30
0.0
  0
VERTEX
  5
1585
  8
3
 10
91.60000000000002
 20
-16.0673693164
 30
0.0
  0
VERTEX
  5
1586
  8
3
 10
92.13208888630001
 20
-16.29060711049999
 30
0.0
  0
VERTEX
  5
1587
  8
3
 10
92.4793852416
 20
-16.59137457679998
 30
0.0
  0
VERTEX
  5
1588
  8
3
 10
92.60000000000002
 20
-16.9333947202
 30
0.0
  0
SEQEND
  5
16D6
  8
3
  0
POLYLINE
  5
D59
  8
3
 66
     1
 10
0.0
 20
0.0
 30
0.0
  0
VERTEX
  5
1589
  8
3
 10
91.85000000000002
 20
-16.28387566729998
 30
0.0
  0
VERTEX
  5
158A
  8
3
 10
91.75484941570002
 20
-16.52305281259999
 30
0.0
  0
VERTEX
  5
158B
  8
3
 10
91.48388347650001
 20
-16.72581740560003
 30
0.0
  0
VERTEX
  5
158C
  8
3
 10
91.07835429050002
 20
-16.86130037510003
 30
0.0
  0
VERTEX
  5
158D
  8
3
 10
90.60000000000002
 20
-16.90887566729998
 30
0.0
  0
VERTEX
  5
158E
  8
3
 10
90.12164570960002
 20
-16.86130037510003
 30
0.0
  0
VERTEX
  5
158F
  8
3
 10
89.7161165235
 20
-16.72581740560003
 30
0.0
  0
VERTEX
  5
1590
  8
3
 10
89.44515058440001
 20
-16.52305281259999
 30
0.0
  0
VERTEX
  5
1591
  8
3
 10
89.35000000000002
 20
-16.28387566729998
 30
0.0
  0
VERTEX
  5
1592
  8
3
 10
89.44515058440001
 20
-16.04469852210002
 30
0.0
  0
VERTEX
  5
1593
  8
3
 10
89.7161165235
 20
-15.84193392909998
 30
0.0
  0
VERTEX
  5
1594
  8
3
 10
90.12164570960002
 20
-15.70645095949999
 30
0.0
  0
VERTEX
  5
1595
  8
3
 10
90.60000000000002
 20
-15.65887566729998
 30
0.0
  0
VERTEX
  5
1596
  8
3
 10
91.07835429050002
 20
-15.70645095949999
 30
0.0
  0
VERTEX
  5
1597
  8
3
 10
91.48388347650001
 20
-15.84193392909998
 30
0.0
  0
VERTEX
  5
1598
  8
3
 10
91.75484941570002
 20
-16.04469852210002
 30
0.0
  0
VERTEX
  5
1599
  8
3
 10
91.85000000000002
 20
-16.28387566729998
 30
0.0
  0
SEQEND
  5
16D5
  8
3
  0
POLYLINE
  5
D5A
  8
3
 66
     1
 10
0.0
 20
0.0
 30
0.0
  0
VERTEX
  5
159A
  8
3
 10
92.60000000000002
 20
-23.01707889760002
 30
0.0
  0
VERTEX
  5
159B
  8
3
 10
92.4793852416
 20
-23.35909904089999
 30
0.0
  0
VERTEX
  5
159C
  8
3
 10
92.13208888630001
 20
-23.65986650730002
 30
0.0
  0
VERTEX
  5
159D
  8
3
 10
91.60000000000002
 20
-23.88310430140001
 30
0.0
  0
VERTEX
  5
159E
  8
3
 10
90.94729635530001
 20
-24.0018866506
 30
0.0
  0
VERTEX
  5
159F
  8
3
 10
90.2527036447
 20
-24.0018866506
 30
0.0
  0
VERTEX
  5
15A0
  8
3
 10
89.60000000000002
 20
-23.88310430140001
 30
0.0
  0
VERTEX
  5
15A1
  8
3
 10
89.06791111380002
 20
-23.65986650730002
 30
0.0
  0
VERTEX
  5
15A2
  8
3
 10
88.72061475840002
 20
-23.35909904089999
 30
0.0
  0
VERTEX
  5
15A3
  8
3
 10
88.60000000000002
 20
-23.01707889760002
 30
0.0
  0
VERTEX
  5
15A4
  8
3
 10
88.72061475840002
 20
-22.67505875429998
 30
0.0
  0
VERTEX
  5
15A5
  8
3
 10
89.06791111380002
 20
-22.37429128790001
 30
0.0
  0
VERTEX
  5
15A6
  8
3
 10
89.60000000000002
 20
-22.15105349380002
 30
0.0
  0
VERTEX
  5
15A7
  8
3
 10
90.2527036447
 20
-22.03227114460003
 30
0.0
  0
VERTEX
  5
15A8
  8
3
 10
90.94729635530001
 20
-22.03227114460003
 30
0.0
  0
VERTEX
  5
15A9
  8
3
 10
91.60000000000002
 20
-22.15105349380002
 30
0.0
  0
VERTEX
  5
15AA
  8
3
 10
92.13208888630001
 20
-22.37429128790001
 30
0.0
  0
VERTEX
  5
15AB
  8
3
 10
92.4793852416
 20
-22.67505875429998
 30
0.0
  0
VERTEX
  5
15AC
  8
3
 10
92.60000000000002
 20
-23.01707889760002
 30
0.0
  0
SEQEND
  5
16D4
  8
3
  0
LINE
  5
D5B
  8
3
 10
90.02264973080003
 20
-21.72022046889998
 30
0.0
 11
89.4452994616
 21
-21.22022046889998
 31
0.0
  0
LINE
  5
D5C
  8
3
 10
90.02264973080003
 20
-21.72022046889998
 30
0.0
 11
90.02264973080003
 21
-23.71207889760001
 31
0.0
  0
LINE
  5
D5D
  8
3
 10
91.17735026920002
 20
-21.72022046889998
 30
0.0
 11
90.02264973080003
 21
-21.72022046889998
 31
0.0
  0
LINE
  5
D5E
  8
3
 10
91.17735026920002
 20
-21.72022046889998
 30
0.0
 11
91.17735026920002
 21
-23.71207889760001
 31
0.0
  0
LINE
  5
D5F
  8
3
 10
91.17735026920002
 20
-21.72022046889998
 30
0.0
 11
91.75470053840002
 21
-21.22022046889998
 31
0.0
  0
POLYLINE
  5
D60
  8
3
 66
     1
 10
0.0
 20
0.0
 30
0.0
  0
VERTEX
  5
15AD
  8
3
 10
92.21000000000001
 20
-23.21207889760001
 30
0.0
  0
VERTEX
  5
15AE
  8
3
 10
92.08744604740002
 20
-23.52013906069999
 30
0.0
  0
VERTEX
  5
15AF
  8
3
 10
91.73844191770002
 20
-23.78129985650003
 30
0.0
  0
VERTEX
  5
15B0
  8
3
 10
91.21612032610003
 20
-23.95580192130001
 30
0.0
  0
VERTEX
  5
15B1
  8
3
 10
90.60000000000002
 20
-24.01707889760002
 30
0.0
  0
VERTEX
  5
15B2
  8
3
 10
89.98387967390002
 20
-23.95580192130001
 30
0.0
  0
VERTEX
  5
15B3
  8
3
 10
89.4615580823
 20
-23.78129985650003
 30
0.0
  0
VERTEX
  5
15B4
  8
3
 10
89.11255395270001
 20
-23.52013906069999
 30
0.0
  0
VERTEX
  5
15B5
  8
3
 10
88.99000000000001
 20
-23.21207889760001
 30
0.0
  0
VERTEX
  5
15B6
  8
3
 10
89.11255395270001
 20
-22.90401873450003
 30
0.0
  0
VERTEX
  5
15B7
  8
3
 10
89.4615580823
 20
-22.64285793869999
 30
0.0
  0
VERTEX
  5
15B8
  8
3
 10
89.98387967390002
 20
-22.46835587390001
 30
0.0
  0
VERTEX
  5
15B9
  8
3
 10
90.60000000000002
 20
-22.4070788976
 30
0.0
  0
VERTEX
  5
15BA
  8
3
 10
91.21612032610003
 20
-22.46835587390001
 30
0.0
  0
VERTEX
  5
15BB
  8
3
 10
91.73844191770002
 20
-22.64285793869999
 30
0.0
  0
VERTEX
  5
15BC
  8
3
 10
92.08744604740002
 20
-22.90401873450003
 30
0.0
  0
VERTEX
  5
15BD
  8
3
 10
92.21000000000001
 20
-23.21207889760001
 30
0.0
  0
SEQEND
  5
16D3
  8
3
  0
LINE
  5
D61
  8
3
 10
91.17735026920002
 20
-23.71207889760001
 30
0.0
 11
91.75470053840002
 21
-23.21207889760001
 31
0.0
  0
LINE
  5
D62
  8
3
 10
91.17735026920002
 20
-23.71207889760001
 30
0.0
 11
90.02264973080003
 21
-23.71207889760001
 31
0.0
  0
LINE
  5
D63
  8
3
 10
90.02264973080003
 20
-23.71207889760001
 30
0.0
 11
89.4452994616
 21
-23.21207889760001
 31
0.0
  0
LINE
  5
D64
  8
3
 10
91.17735026920002
 20
-20.72022046889998
 30
0.0
 11
91.17735026920002
 21
-21.72022046889998
 31
0.0
  0
LINE
  5
D65
  8
3
 10
91.17735026920002
 20
-22.71207889760001
 30
0.0
 11
91.75470053840002
 21
-23.21207889760001
 31
0.0
  0
LINE
  5
D66
  8
3
 10
91.75470053840002
 20
-21.22022046889998
 30
0.0
 11
91.75470053840002
 21
-23.21207889760001
 31
0.0
  0
LINE
  5
D67
  8
3
 10
91.17735026920002
 20
-20.72022046889998
 30
0.0
 11
91.75470053840002
 21
-21.22022046889998
 31
0.0
  0
LINE
  5
D68
  8
3
 10
90.02264973080003
 20
-20.72022046889998
 30
0.0
 11
90.02264973080003
 21
-21.72022046889998
 31
0.0
  0
LINE
  5
D69
  8
3
 10
90.02264973080003
 20
-22.71207889760001
 30
0.0
 11
89.4452994616
 21
-23.21207889760001
 31
0.0
  0
LINE
  5
D6A
  8
3
 10
89.4452994616
 20
-21.22022046889998
 30
0.0
 11
89.4452994616
 21
-23.21207889760001
 31
0.0
  0
LINE
  5
D6B
  8
3
 10
90.02264973080003
 20
-20.72022046889998
 30
0.0
 11
89.4452994616
 21
-21.22022046889998
 31
0.0
  0
LINE
  5
D6C
  8
3
 10
91.17735026920002
 20
-22.71207889760001
 30
0.0
 11
90.02264973080003
 21
-22.71207889760001
 31
0.0
  0
LINE
  5
D6D
  8
3
 10
91.17735026920002
 20
-20.72022046889998
 30
0.0
 11
90.02264973080003
 21
-20.72022046889998
 31
0.0
  0
CIRCLE
  5
D6E
  8
3
 10
90.60000000000002
 20
0.0
 30
0.0
 40
2.000000000000142
  0
CIRCLE
  5
D6F
  8
3
 10
90.60000000000002
 20
0.0
 30
0.0
 40
1.250000000000085
  0
LINE
  5
D70
  8
3
 10
93.07916030500002
 20
21.44299999999998
 30
0.0
 11
93.07916030500002
 21
16.67669000000001
 31
0.0
  0
LINE
  5
D71
  8
3
 10
93.07916030500002
 20
26.20931000000002
 30
0.0
 11
93.07916030500002
 21
21.44299999999998
 31
0.0
  0
LINE
  5
D72
  8
3
 10
92.4410395106
 20
21.44299999999998
 30
0.0
 11
92.4410395106
 21
16.68669
 31
0.0
  0
LINE
  5
D73
  8
3
 10
92.4410395106
 20
26.19930999999997
 30
0.0
 11
92.4410395106
 21
21.44299999999998
 31
0.0
  0
LINE
  5
D74
  8
3
 10
91.51620000000003
 20
21.44299999999998
 30
0.0
 11
91.51620000000003
 21
16.93450000000001
 31
0.0
  0
LINE
  5
D75
  8
3
 10
91.51620000000003
 20
25.95150000000001
 30
0.0
 11
91.51620000000003
 21
21.44299999999998
 31
0.0
  0
LINE
  5
D76
  8
3
 10
93.07916030500002
 20
-21.44299999999998
 30
0.0
 11
93.07916030500002
 21
-26.20931000000002
 31
0.0
  0
LINE
  5
D77
  8
3
 10
93.07916030500002
 20
-16.67669000000001
 30
0.0
 11
93.07916030500002
 21
-21.44299999999998
 31
0.0
  0
LINE
  5
D78
  8
3
 10
92.4410395106
 20
-21.44299999999998
 30
0.0
 11
92.4410395106
 21
-26.19931000000003
 31
0.0
  0
LINE
  5
D79
  8
3
 10
92.4410395106
 20
-16.68669
 30
0.0
 11
92.4410395106
 21
-21.44299999999998
 31
0.0
  0
LINE
  5
D7A
  8
3
 10
91.51620000000003
 20
-21.44299999999998
 30
0.0
 11
91.51620000000003
 21
-25.95150000000001
 31
0.0
  0
LINE
  5
D7B
  8
3
 10
91.51620000000003
 20
-16.93450000000001
 30
0.0
 11
91.51620000000003
 21
-21.44299999999998
 31
0.0
  0
LINE
  5
D7C
  8
3
 10
100.78085
 20
6.350000000000023
 30
0.0
 11
100.78085
 21
-6.350000000000023
 31
0.0
  0
LINE
  5
D7D
  8
3
 10
100.0252
 20
5.59435000000002
 30
0.0
 11
100.0252
 21
-5.59435000000002
 31
0.0
  0
POLYLINE
  5
D8A
  8
3
 66
     1
 10
0.0
 20
0.0
 30
0.0
  0
VERTEX
  5
15BE
  8
3
 10
90.60000000000002
 20
25.12178384840001
 30
0.0
  0
VERTEX
  5
15BF
  8
3
 10
89.8566202799
 20
25.06724271539997
 30
0.0
  0
VERTEX
  5
15C0
  8
3
 10
89.1970686537
 20
24.90705046419998
 30
0.0
  0
VERTEX
  5
15C1
  8
3
 10
88.69415395160001
 20
24.6514438506
 30
0.0
  0
VERTEX
  5
15C2
  8
3
 10
88.40554173750002
 20
24.32034227039998
 30
0.0
  0
VERTEX
  5
15C3
  8
3
 10
88.36472361210002
 20
23.94624666250002
 30
0.0
  0
VERTEX
  5
15C4
  8
3
 10
88.5746970449
 20
23.57073524700002
 30
0.0
  0
VERTEX
  5
15C5
  8
3
 10
89.01189786380002
 20
23.2392275629
 30
0.0
  0
VERTEX
  5
15C6
  8
3
 10
89.62919745550002
 20
22.99661282379998
 30
0.0
  0
VERTEX
  5
15C7
  8
3
 10
90.35644377190002
 20
22.87932131640002
 30
0.0
  0
VERTEX
  5
15C8
  8
3
 10
91.10923342730001
 20
22.90502783249997
 30
0.0
  0
VERTEX
  5
15C9
  8
3
 10
91.80370384320003
 20
23.06894213999999
 30
0.0
  0
VERTEX
  5
15CA
  8
3
 10
92.36430045750001
 20
23.34721182819999
 30
0.0
  0
VERTEX
  5
15CB
  8
3
 10
92.72726664090001
 20
23.70091453150002
 30
0.0
  0
VERTEX
  5
15CC
  8
3
 10
92.84996460020002
 20
24.08207421409998
 30
0.0
  0
VERTEX
  5
15CD
  8
3
 10
92.71964486800002
 20
24.44425342940002
 30
0.0
  0
VERTEX
  5
15CE
  8
3
 10
92.35188392030003
 20
24.75063666149998
 30
0.0
  0
VERTEX
  5
15CF
  8
3
 10
91.78617638030002
 20
24.97472754310002
 30
0.0
  0
VERTEX
  5
15D0
  8
3
 10
91.0856228632
 20
25.09895312859999
 30
0.0
  0
VERTEX
  5
15D1
  8
3
 10
90.60000000000002
 20
25.12178384840001
 30
0.0
  0
SEQEND
  5
16D2
  8
3
  0
POLYLINE
  5
D8B
  8
3
 66
     1
 10
0.0
 20
0.0
 30
0.0
  0
VERTEX
  5
15D2
  8
3
 10
90.60000000000002
 20
-22.87178384840001
 30
0.0
  0
VERTEX
  5
15D3
  8
3
 10
89.8566202799
 20
-22.94359335830001
 30
0.0
  0
VERTEX
  5
15D4
  8
3
 10
89.1970686537
 20
-23.1479928649
 30
0.0
  0
VERTEX
  5
15D5
  8
3
 10
88.69415395160001
 20
-23.45551289949998
 30
0.0
  0
VERTEX
  5
15D6
  8
3
 10
88.40554173750002
 20
-23.82349930319998
 30
0.0
  0
VERTEX
  5
15D7
  8
3
 10
88.36472361210002
 20
-24.20322812030003
 30
0.0
  0
VERTEX
  5
15D8
  8
3
 10
88.5746970449
 20
-24.55086173870001
 30
0.0
  0
VERTEX
  5
15D9
  8
3
 10
89.01189786380002
 20
-24.83310070869999
 30
0.0
  0
VERTEX
  5
15DA
  8
3
 10
89.62919745550002
 20
-25.02640158600002
 30
0.0
  0
VERTEX
  5
15DB
  8
3
 10
90.35644377190002
 20
-25.11610033170001
 30
0.0
  0
VERTEX
  5
15DC
  8
3
 10
91.10923342730001
 20
-25.09664397500001
 30
0.0
  0
VERTEX
  5
15DD
  8
3
 10
91.80370384320003
 20
-24.9698884984
 30
0.0
  0
VERTEX
  5
15DE
  8
3
 10
92.36430045750001
 20
-24.74354412949998
 30
0.0
  0
VERTEX
  5
15DF
  8
3
 10
92.72726664090001
 20
-24.4338788133
 30
0.0
  0
VERTEX
  5
15E0
  8
3
 10
92.84996460020002
 20
-24.06945288920002
 30
0.0
  0
VERTEX
  5
15E1
  8
3
 10
92.71964486800002
 20
-23.68953120639998
 30
0.0
  0
VERTEX
  5
15E2
  8
3
 10
92.35188392030003
 20
-23.33875751310001
 30
0.0
  0
VERTEX
  5
15E3
  8
3
 10
91.78617638030002
 20
-23.06279511880001
 30
0.0
  0
VERTEX
  5
15E4
  8
3
 10
91.0856228632
 20
-22.90198466390001
 30
0.0
  0
VERTEX
  5
15E5
  8
3
 10
90.60000000000002
 20
-22.87178384840001
 30
0.0
  0
SEQEND
  5
16D1
  8
3
  0
CIRCLE
  5
D8C
  8
3
 10
90.60000000000002
 20
0.0
 30
0.0
 40
1.649999999999977
  0
LINE
  5
D9A
  8
3
 10
90.60000000000002
 20
-1.649999999999977
 30
0.0
 11
90.60000000000002
 21
-1.75
 31
0.0
  0
LINE
  5
D9B
  8
3
 10
90.60000000000002
 20
1.75
 30
0.0
 11
90.60000000000002
 21
1.649999999999977
 31
0.0
  0
LINE
  5
D9C
  8
SK3
 10
-5.25
 20
0.0
 30
0.0
 11
-5.25
 21
11.09979999999999
 31
0.0
  0
LINE
  5
D9D
  8
SK3
 10
-5.25
 20
-11.09980000000002
 30
0.0
 11
-5.25
 21
0.0
 31
0.0
  0
LINE
  5
D9E
  8
SK3
 10
-4.074389157900015
 20
0.0
 30
0.0
 11
-4.074389157900015
 21
-5.754369999999994
 31
0.0
  0
LINE
  5
D9F
  8
SK3
 10
-4.074389157900015
 20
5.754369999999994
 30
0.0
 11
-4.074389157900015
 21
0.0
 31
0.0
  0
LINE
  5
DA1
  8
3
 10
93.70000000000002
 20
6.350000000000023
 30
0.0
 11
93.70000000000002
 21
-6.350000000000023
 31
0.0
  0
POLYLINE
  5
DA4
  8
3
 66
     1
 10
0.0
 20
0.0
 30
0.0
  0
VERTEX
  5
15E6
  8
3
 10
90.60000000000002
 20
5.599170668599982
 30
0.0
  0
VERTEX
  5
15E7
  8
3
 10
91.13328761080001
 20
5.577178781800001
 30
0.0
  0
VERTEX
  5
15E8
  8
3
 10
91.60619937540002
 20
5.506890582300002
 30
0.0
  0
VERTEX
  5
15E9
  8
3
 10
91.979647876
 20
5.373922949699988
 30
0.0
  0
VERTEX
  5
15EA
  8
3
 10
92.20337080660002
 20
5.166746755299982
 30
0.0
  0
VERTEX
  5
15EB
  8
3
 10
92.2423143078
 20
4.90199044389999
 30
0.0
  0
VERTEX
  5
15EC
  8
3
 10
92.10597994900002
 20
4.612017624600014
 30
0.0
  0
VERTEX
  5
15ED
  8
3
 10
91.81072289340003
 20
4.327451844099983
 30
0.0
  0
VERTEX
  5
15EE
  8
3
 10
91.3715742775
 20
4.09146383640001
 30
0.0
  0
VERTEX
  5
15EF
  8
3
 10
90.8378650509
 20
3.96223051559997
 30
0.0
  0
VERTEX
  5
15F0
  8
3
 10
90.29382359770003
 20
3.970856426099999
 30
0.0
  0
VERTEX
  5
15F1
  8
3
 10
89.79606914820002
 20
4.104218921999973
 30
0.0
  0
VERTEX
  5
15F2
  8
3
 10
89.37405813500001
 20
4.338628126300023
 30
0.0
  0
VERTEX
  5
15F3
  8
3
 10
89.07570082410001
 20
4.637477207199993
 30
0.0
  0
VERTEX
  5
15F4
  8
3
 10
88.95232165320002
 20
4.93910498309998
 30
0.0
  0
VERTEX
  5
15F5
  8
3
 10
89.0120518363
 20
5.192409302200019
 30
0.0
  0
VERTEX
  5
15F6
  8
3
 10
89.23690704910001
 20
5.382835439799976
 30
0.0
  0
VERTEX
  5
15F7
  8
3
 10
89.61420803280001
 20
5.511474322299989
 30
0.0
  0
VERTEX
  5
15F8
  8
3
 10
90.11465760380003
 20
5.581139607799969
 30
0.0
  0
VERTEX
  5
15F9
  8
3
 10
90.60000000000002
 20
5.599170668599982
 30
0.0
  0
SEQEND
  5
16D0
  8
3
  0
POLYLINE
  5
DA5
  8
3
 66
     1
 10
0.0
 20
0.0
 30
0.0
  0
VERTEX
  5
15FA
  8
3
 10
90.60000000000002
 20
-3.949170668500017
 30
0.0
  0
VERTEX
  5
15FB
  8
3
 10
91.13328761080001
 20
-4.015735755500032
 30
0.0
  0
VERTEX
  5
15FC
  8
3
 10
91.60619937540002
 20
-4.199196880700015
 30
0.0
  0
VERTEX
  5
15FD
  8
3
 10
91.979647876
 20
-4.468897127700018
 30
0.0
  0
VERTEX
  5
15FE
  8
3
 10
92.20337080660002
 20
-4.777257273299995
 30
0.0
  0
VERTEX
  5
15FF
  8
3
 10
92.2423143078
 20
-5.061061856799995
 30
0.0
  0
VERTEX
  5
1600
  8
3
 10
92.10597994900002
 20
-5.286201867399996
 30
0.0
  0
VERTEX
  5
1601
  8
3
 10
91.81072289340003
 20
-5.448455892000027
 30
0.0
  0
VERTEX
  5
1602
  8
3
 10
91.3715742775
 20
-5.549946998499991
 30
0.0
  0
VERTEX
  5
1603
  8
3
 10
90.8378650509
 20
-5.59499510889998
 30
0.0
  0
VERTEX
  5
1604
  8
3
 10
90.29382359770003
 20
-5.592200316300023
 30
0.0
  0
VERTEX
  5
1605
  8
3
 10
89.79606914820002
 20
-5.545119746199987
 30
0.0
  0
VERTEX
  5
1606
  8
3
 10
89.37405813500001
 20
-5.442967994000014
 30
0.0
  0
VERTEX
  5
1607
  8
3
 10
89.07570082410001
 20
-5.269151191200024
 30
0.0
  0
VERTEX
  5
1608
  8
3
 10
88.95232165320002
 20
-5.026603927700023
 30
0.0
  0
VERTEX
  5
1609
  8
3
 10
89.0120518363
 20
-4.744167593399993
 30
0.0
  0
VERTEX
  5
160A
  8
3
 10
89.23690704910001
 20
-4.453062560299998
 30
0.0
  0
VERTEX
  5
160B
  8
3
 10
89.61420803280001
 20
-4.188328753000008
 30
0.0
  0
VERTEX
  5
160C
  8
3
 10
90.11465760380003
 20
-4.004135245600025
 30
0.0
  0
VERTEX
  5
160D
  8
3
 10
90.60000000000002
 20
-3.949170668500017
 30
0.0
  0
SEQEND
  5
16CF
  8
3
  0
LINE
  5
DA6
  8
3
 10
90.4
 20
-16.68049999999999
 30
0.0
 11
90.4
 21
-26.20550000000003
 31
0.0
  0
LINE
  5
DA7
  8
3
 10
90.4
 20
26.20549999999997
 30
0.0
 11
90.4
 21
16.68049999999999
 31
0.0
  0
POLYLINE
  5
DAA
  8
3
 66
     1
 10
0.0
 20
0.0
 30
0.0
  0
VERTEX
  5
160E
  8
3
 10
90.60000000000002
 20
23.62571683089999
 30
0.0
  0
VERTEX
  5
160F
  8
3
 10
91.23142766340001
 20
23.56291744520001
 30
0.0
  0
VERTEX
  5
1610
  8
3
 10
91.76672618900002
 20
23.38407992539999
 30
0.0
  0
VERTEX
  5
1611
  8
3
 10
92.12440122870001
 20
23.11643066260001
 30
0.0
  0
VERTEX
  5
1612
  8
3
 10
92.25
 20
22.8007168309
 30
0.0
  0
VERTEX
  5
1613
  8
3
 10
92.12440122870001
 20
22.48500299919999
 30
0.0
  0
VERTEX
  5
1614
  8
3
 10
91.76672618900002
 20
22.21735373640001
 30
0.0
  0
VERTEX
  5
1615
  8
3
 10
91.23142766340001
 20
22.03851621659999
 30
0.0
  0
VERTEX
  5
1616
  8
3
 10
90.60000000000002
 20
21.97571683090001
 30
0.0
  0
VERTEX
  5
1617
  8
3
 10
89.9685723366
 20
22.03851621659999
 30
0.0
  0
VERTEX
  5
1618
  8
3
 10
89.43327381110001
 20
22.21735373640001
 30
0.0
  0
VERTEX
  5
1619
  8
3
 10
89.07559877140002
 20
22.48500299919999
 30
0.0
  0
VERTEX
  5
161A
  8
3
 10
88.95000000000002
 20
22.8007168309
 30
0.0
  0
VERTEX
  5
161B
  8
3
 10
89.07559877140002
 20
23.11643066260001
 30
0.0
  0
VERTEX
  5
161C
  8
3
 10
89.43327381110001
 20
23.38407992539999
 30
0.0
  0
VERTEX
  5
161D
  8
3
 10
89.9685723366
 20
23.56291744520001
 30
0.0
  0
VERTEX
  5
161E
  8
3
 10
90.60000000000002
 20
23.62571683089999
 30
0.0
  0
SEQEND
  5
16CE
  8
3
  0
POLYLINE
  5
DAB
  8
3
 66
     1
 10
0.0
 20
0.0
 30
0.0
  0
VERTEX
  5
161F
  8
3
 10
90.60000000000002
 20
6.680759738099994
 30
0.0
  0
VERTEX
  5
1620
  8
3
 10
90.8461558845
 20
6.646839144199987
 30
0.0
  0
VERTEX
  5
1621
  8
3
 10
91.18336586840002
 20
6.524710054799982
 30
0.0
  0
VERTEX
  5
1622
  8
3
 10
91.74374037450002
 20
6.304297793399996
 30
0.0
  0
VERTEX
  5
1623
  8
3
 10
92.05422504420002
 20
6.264086698699998
 30
0.0
  0
VERTEX
  5
1624
  8
3
 10
92.20869611520001
 20
6.345431610099979
 30
0.0
  0
VERTEX
  5
1625
  8
3
 10
92.24718134480003
 20
6.545693554799982
 30
0.0
  0
VERTEX
  5
1626
  8
3
 10
92.17411936830001
 20
6.804294692799999
 30
0.0
  0
VERTEX
  5
1627
  8
3
 10
92.0117241572
 20
7.115027796199968
 30
0.0
  0
VERTEX
  5
1628
  8
3
 10
91.65032751570001
 20
7.606615779899982
 30
0.0
  0
VERTEX
  5
1629
  8
3
 10
91.06199977010002
 20
8.158465788599983
 30
0.0
  0
VERTEX
  5
162A
  8
3
 10
90.81396131810001
 20
8.290870996000024
 30
0.0
  0
VERTEX
  5
162B
  8
3
 10
90.60000000000002
 20
8.330759738099971
 30
0.0
  0
SEQEND
  5
16CD
  8
3
  0
POLYLINE
  5
DAC
  8
3
 66
     1
 10
0.0
 20
0.0
 30
0.0
  0
VERTEX
  5
162C
  8
3
 10
90.60000000000002
 20
8.330759738099971
 30
0.0
  0
VERTEX
  5
162D
  8
3
 10
90.5394720246
 20
8.865640333700014
 30
0.0
  0
VERTEX
  5
162E
  8
3
 10
90.60000000000002
 20
9.340710231999992
 30
0.0
  0
SEQEND
  5
16CC
  8
3
  0
POLYLINE
  5
DAD
  8
3
 66
     1
 10
0.0
 20
0.0
 30
0.0
  0
VERTEX
  5
162F
  8
3
 10
90.60000000000002
 20
9.340710231999992
 30
0.0
  0
VERTEX
  5
1630
  8
3
 10
90.8461558845
 20
9.374630825899999
 30
0.0
  0
VERTEX
  5
1631
  8
3
 10
91.18336586840002
 20
9.496759915200016
 30
0.0
  0
VERTEX
  5
1632
  8
3
 10
91.74374037450002
 20
9.717172176600002
 30
0.0
  0
VERTEX
  5
1633
  8
3
 10
92.05422504420002
 20
9.7573832713
 30
0.0
  0
VERTEX
  5
1634
  8
3
 10
92.20869611520001
 20
9.67603835990002
 30
0.0
  0
VERTEX
  5
1635
  8
3
 10
92.24718134480003
 20
9.475776415300004
 30
0.0
  0
VERTEX
  5
1636
  8
3
 10
92.17411936830001
 20
9.217175277299987
 30
0.0
  0
VERTEX
  5
1637
  8
3
 10
92.0117241572
 20
8.906442173900018
 30
0.0
  0
VERTEX
  5
1638
  8
3
 10
91.65032751570001
 20
8.414854190200003
 30
0.0
  0
VERTEX
  5
1639
  8
3
 10
91.06199977010002
 20
7.863004181500003
 30
0.0
  0
VERTEX
  5
163A
  8
3
 10
90.81396131810001
 20
7.730598974100019
 30
0.0
  0
VERTEX
  5
163B
  8
3
 10
90.60000000000002
 20
7.690710232000015
 30
0.0
  0
SEQEND
  5
16CB
  8
3
  0
POLYLINE
  5
DAE
  8
3
 66
     1
 10
0.0
 20
0.0
 30
0.0
  0
VERTEX
  5
163C
  8
3
 10
90.60000000000002
 20
7.690710232000015
 30
0.0
  0
VERTEX
  5
163D
  8
3
 10
90.5394720246
 20
7.155829636399972
 30
0.0
  0
VERTEX
  5
163E
  8
3
 10
90.60000000000002
 20
6.680759738099994
 30
0.0
  0
SEQEND
  5
16CA
  8
3
  0
POLYLINE
  5
DAF
  8
3
 66
     1
 10
0.0
 20
0.0
 30
0.0
  0
VERTEX
  5
163F
  8
3
 10
90.60000000000002
 20
-21.97571683080002
 30
0.0
  0
VERTEX
  5
1640
  8
3
 10
91.23142766340001
 20
-22.0385162165
 30
0.0
  0
VERTEX
  5
1641
  8
3
 10
91.76672618900002
 20
-22.21735373630003
 30
0.0
  0
VERTEX
  5
1642
  8
3
 10
92.12440122870001
 20
-22.4850029991
 30
0.0
  0
VERTEX
  5
1643
  8
3
 10
92.25
 20
-22.80071683080001
 30
0.0
  0
VERTEX
  5
1644
  8
3
 10
92.12440122870001
 20
-23.11643066250002
 30
0.0
  0
VERTEX
  5
1645
  8
3
 10
91.76672618900002
 20
-23.3840799253
 30
0.0
  0
VERTEX
  5
1646
  8
3
 10
91.23142766340001
 20
-23.56291744510003
 30
0.0
  0
VERTEX
  5
1647
  8
3
 10
90.60000000000002
 20
-23.6257168308
 30
0.0
  0
VERTEX
  5
1648
  8
3
 10
89.9685723366
 20
-23.56291744510003
 30
0.0
  0
VERTEX
  5
1649
  8
3
 10
89.43327381110001
 20
-23.3840799253
 30
0.0
  0
VERTEX
  5
164A
  8
3
 10
89.07559877140002
 20
-23.11643066250002
 30
0.0
  0
VERTEX
  5
164B
  8
3
 10
88.95000000000002
 20
-22.80071683080001
 30
0.0
  0
VERTEX
  5
164C
  8
3
 10
89.07559877140002
 20
-22.4850029991
 30
0.0
  0
VERTEX
  5
164D
  8
3
 10
89.43327381110001
 20
-22.21735373630003
 30
0.0
  0
VERTEX
  5
164E
  8
3
 10
89.9685723366
 20
-22.0385162165
 30
0.0
  0
VERTEX
  5
164F
  8
3
 10
90.60000000000002
 20
-21.97571683080002
 30
0.0
  0
SEQEND
  5
16C9
  8
3
  0
POLYLINE
  5
DB0
  8
3
 66
     1
 10
0.0
 20
0.0
 30
0.0
  0
VERTEX
  5
1650
  8
3
 10
90.60000000000002
 20
-8.330759738100028
 30
0.0
  0
VERTEX
  5
1651
  8
3
 10
90.8461558845
 20
-8.27837439670003
 30
0.0
  0
VERTEX
  5
1652
  8
3
 10
91.18336586840002
 20
-8.068142678400022
 30
0.0
  0
VERTEX
  5
1653
  8
3
 10
91.74374037450002
 20
-7.493565616800026
 30
0.0
  0
VERTEX
  5
1654
  8
3
 10
92.05422504420002
 20
-7.043656785999985
 30
0.0
  0
VERTEX
  5
1655
  8
3
 10
92.20869611520001
 20
-6.712305987899981
 30
0.0
  0
VERTEX
  5
1656
  8
3
 10
92.24718134480003
 20
-6.449290144399981
 30
0.0
  0
VERTEX
  5
1657
  8
3
 10
92.17411936830001
 20
-6.309675430799984
 30
0.0
  0
VERTEX
  5
1658
  8
3
 10
92.0117241572
 20
-6.260899641899982
 30
0.0
  0
VERTEX
  5
1659
  8
3
 10
91.65032751570001
 20
-6.334093831199993
 30
0.0
  0
VERTEX
  5
165A
  8
3
 10
91.06199977010002
 20
-6.574465721500019
 30
0.0
  0
VERTEX
  5
165B
  8
3
 10
90.81396131810001
 20
-6.654802368300011
 30
0.0
  0
VERTEX
  5
165C
  8
3
 10
90.60000000000002
 20
-6.680759738099994
 30
0.0
  0
SEQEND
  5
16C8
  8
3
  0
POLYLINE
  5
DB1
  8
3
 66
     1
 10
0.0
 20
0.0
 30
0.0
  0
VERTEX
  5
165D
  8
3
 10
90.60000000000002
 20
-6.680759738099994
 30
0.0
  0
VERTEX
  5
165E
  8
3
 10
90.5394720246
 20
-7.21675090010001
 30
0.0
  0
VERTEX
  5
165F
  8
3
 10
90.60000000000002
 20
-7.690710231900027
 30
0.0
  0
SEQEND
  5
16C7
  8
3
  0
POLYLINE
  5
DB2
  8
3
 66
     1
 10
0.0
 20
0.0
 30
0.0
  0
VERTEX
  5
1660
  8
3
 10
90.60000000000002
 20
-7.690710231900027
 30
0.0
  0
VERTEX
  5
1661
  8
3
 10
90.8461558845
 20
-7.74309557319998
 30
0.0
  0
VERTEX
  5
1662
  8
3
 10
91.18336586840002
 20
-7.953327291599976
 30
0.0
  0
VERTEX
  5
1663
  8
3
 10
91.74374037450002
 20
-8.527904353200029
 30
0.0
  0
VERTEX
  5
1664
  8
3
 10
92.05422504420002
 20
-8.977813184000013
 30
0.0
  0
VERTEX
  5
1665
  8
3
 10
92.20869611520001
 20
-9.309163982100017
 30
0.0
  0
VERTEX
  5
1666
  8
3
 10
92.24718134480003
 20
-9.57217982550003
 30
0.0
  0
VERTEX
  5
1667
  8
3
 10
92.17411936830001
 20
-9.711794539200014
 30
0.0
  0
VERTEX
  5
1668
  8
3
 10
92.0117241572
 20
-9.760570328100016
 30
0.0
  0
VERTEX
  5
1669
  8
3
 10
91.65032751570001
 20
-9.687376138700017
 30
0.0
  0
VERTEX
  5
166A
  8
3
 10
91.06199977010002
 20
-9.44700424849998
 30
0.0
  0
VERTEX
  5
166B
  8
3
 10
90.81396131810001
 20
-9.366667601699987
 30
0.0
  0
VERTEX
  5
166C
  8
3
 10
90.60000000000002
 20
-9.340710231900005
 30
0.0
  0
SEQEND
  5
16C6
  8
3
  0
POLYLINE
  5
DB3
  8
3
 66
     1
 10
0.0
 20
0.0
 30
0.0
  0
VERTEX
  5
166D
  8
3
 10
90.60000000000002
 20
-9.340710231900005
 30
0.0
  0
VERTEX
  5
166E
  8
3
 10
90.5394720246
 20
-8.804719069899988
 30
0.0
  0
VERTEX
  5
166F
  8
3
 10
90.60000000000002
 20
-8.330759738100028
 30
0.0
  0
SEQEND
  5
16C5
  8
3
  0
LINE
  5
DB4
  8
3
 10
90.60000000000002
 20
-7.690710231900027
 30
0.0
 11
90.60000000000002
 21
-6.680759738099994
 31
0.0
  0
LINE
  5
DB5
  8
3
 10
90.60000000000002
 20
-8.330759738100028
 30
0.0
 11
90.60000000000002
 21
-9.340710231900005
 31
0.0
  0
LINE
  5
DB6
  8
3
 10
90.60000000000002
 20
9.340710231999992
 30
0.0
 11
90.60000000000002
 21
8.330759738099971
 31
0.0
  0
LINE
  5
DB7
  8
3
 10
90.60000000000002
 20
6.680759738099994
 30
0.0
 11
90.60000000000002
 21
7.690710232000015
 31
0.0
  0
POLYLINE
  5
DB8
  8
3
 66
     1
 10
0.0
 20
0.0
 30
0.0
  0
VERTEX
  5
1670
  8
3
 10
92.85000000000002
 20
-23.21207889760001
 30
0.0
  0
VERTEX
  5
1671
  8
3
 10
92.72808879380003
 20
-23.57736580049999
 30
0.0
  0
VERTEX
  5
1672
  8
3
 10
92.37556614620001
 20
-23.90306819940002
 30
0.0
  0
VERTEX
  5
1673
  8
3
 10
91.83063335580002
 20
-24.1538911856
 30
0.0
  0
VERTEX
  5
1674
  8
3
 10
91.1523423461
 20
-24.30265419680001
 30
0.0
  0
VERTEX
  5
1675
  8
3
 10
90.41419647270001
 20
-24.33323645220003
 30
0.0
  0
VERTEX
  5
1676
  8
3
 10
89.69618529450003
 20
-24.24232389010001
 30
0.0
  0
VERTEX
  5
1677
  8
3
 10
89.07611646390001
 20
-24.03976829710001
 30
0.0
  0
VERTEX
  5
1678
  8
3
 10
88.62118405980002
 20
-23.74751971479998
 30
0.0
  0
VERTEX
  5
1679
  8
3
 10
88.3806870674
 20
-23.39724781170003
 30
0.0
  0
VERTEX
  5
167A
  8
3
 10
88.3806870674
 20
-23.02690998349999
 30
0.0
  0
VERTEX
  5
167B
  8
3
 10
88.62118405980002
 20
-22.67663808039998
 30
0.0
  0
VERTEX
  5
167C
  8
3
 10
89.07611646390001
 20
-22.38438949810001
 30
0.0
  0
VERTEX
  5
167D
  8
3
 10
89.69618529450003
 20
-22.18183390510001
 30
0.0
  0
VERTEX
  5
167E
  8
3
 10
90.41419647270001
 20
-22.09092134299999
 30
0.0
  0
VERTEX
  5
167F
  8
3
 10
91.1523423461
 20
-22.12150359840001
 30
0.0
  0
VERTEX
  5
1680
  8
3
 10
91.83063335580002
 20
-22.27026660960001
 30
0.0
  0
VERTEX
  5
1681
  8
3
 10
92.37556614620001
 20
-22.52108959579999
 30
0.0
  0
VERTEX
  5
1682
  8
3
 10
92.72808879380003
 20
-22.84679199470003
 30
0.0
  0
VERTEX
  5
1683
  8
3
 10
92.85000000000002
 20
-23.21207889760001
 30
0.0
  0
SEQEND
  5
16C4
  8
3
  0
POLYLINE
  5
DB9
  8
3
 66
     1
 10
0.0
 20
0.0
 30
0.0
  0
VERTEX
  5
1684
  8
3
 10
92.85000000000002
 20
23.2120788977
 30
0.0
  0
VERTEX
  5
1685
  8
3
 10
92.72808879380003
 20
22.84679199480001
 30
0.0
  0
VERTEX
  5
1686
  8
3
 10
92.37556614620001
 20
22.52108959589998
 30
0.0
  0
VERTEX
  5
1687
  8
3
 10
91.83063335580002
 20
22.27026660960001
 30
0.0
  0
VERTEX
  5
1688
  8
3
 10
91.1523423461
 20
22.1215035985
 30
0.0
  0
VERTEX
  5
1689
  8
3
 10
90.41419647270001
 20
22.09092134299999
 30
0.0
  0
VERTEX
  5
168A
  8
3
 10
89.69618529450003
 20
22.18183390519999
 30
0.0
  0
VERTEX
  5
168B
  8
3
 10
89.07611646390001
 20
22.38438949819999
 30
0.0
  0
VERTEX
  5
168C
  8
3
 10
88.62118405980002
 20
22.67663808049997
 30
0.0
  0
VERTEX
  5
168D
  8
3
 10
88.3806870674
 20
23.02690998359998
 30
0.0
  0
VERTEX
  5
168E
  8
3
 10
88.3806870674
 20
23.39724781169997
 30
0.0
  0
VERTEX
  5
168F
  8
3
 10
88.62118405980002
 20
23.74751971479998
 30
0.0
  0
VERTEX
  5
1690
  8
3
 10
89.07611646390001
 20
24.0397682972
 30
0.0
  0
VERTEX
  5
1691
  8
3
 10
89.69618529450003
 20
24.2423238902
 30
0.0
  0
VERTEX
  5
1692
  8
3
 10
90.41419647270001
 20
24.33323645230001
 30
0.0
  0
VERTEX
  5
1693
  8
3
 10
91.1523423461
 20
24.30265419689999
 30
0.0
  0
VERTEX
  5
1694
  8
3
 10
91.83063335580002
 20
24.15389118569999
 30
0.0
  0
VERTEX
  5
1695
  8
3
 10
92.37556614620001
 20
23.90306819939997
 30
0.0
  0
VERTEX
  5
1696
  8
3
 10
92.72808879380003
 20
23.57736580049999
 30
0.0
  0
VERTEX
  5
1697
  8
3
 10
92.85000000000002
 20
23.2120788977
 30
0.0
  0
SEQEND
  5
16C3
  8
3
  0
POLYLINE
  5
DBA
  8
3
 66
     1
 10
0.0
 20
0.0
 30
0.0
  0
VERTEX
  5
1698
  8
3
 10
90.60000000000002
 20
-22.14957889760001
 30
0.0
  0
VERTEX
  5
1699
  8
3
 10
91.2899863721
 20
-22.20714807830001
 30
0.0
  0
VERTEX
  5
169A
  8
3
 10
91.90520201450002
 20
-22.37361710639999
 30
0.0
  0
VERTEX
  5
169B
  8
3
 10
92.37897876630001
 20
-22.63094647960003
 30
0.0
  0
VERTEX
  5
169C
  8
3
 10
92.65997556510001
 20
-22.95125056749998
 30
0.0
  0
VERTEX
  5
169D
  8
3
 10
92.7177420477
 20
-23.29981945219998
 30
0.0
  0
VERTEX
  5
169E
  8
3
 10
92.54601831920002
 20
-23.63888028629998
 30
0.0
  0
VERTEX
  5
169F
  8
3
 10
92.16341331020001
 20
-23.93169056750003
 30
0.0
  0
VERTEX
  5
16A0
  8
3
 10
91.6113882102
 20
-24.14651975830003
 30
0.0
  0
VERTEX
  5
16A1
  8
3
 10
90.94976350440001
 20
-24.26008778250002
 30
0.0
  0
VERTEX
  5
16A2
  8
3
 10
90.25023649570002
 20
-24.26008778250002
 30
0.0
  0
VERTEX
  5
16A3
  8
3
 10
89.58861178980001
 20
-24.14651975830003
 30
0.0
  0
VERTEX
  5
16A4
  8
3
 10
89.0365866898
 20
-23.93169056750003
 30
0.0
  0
VERTEX
  5
16A5
  8
3
 10
88.65398168090002
 20
-23.63888028629998
 30
0.0
  0
VERTEX
  5
16A6
  8
3
 10
88.4822579524
 20
-23.29981945219998
 30
0.0
  0
VERTEX
  5
16A7
  8
3
 10
88.5400244349
 20
-22.95125056749998
 30
0.0
  0
VERTEX
  5
16A8
  8
3
 10
88.82102123370001
 20
-22.63094647960003
 30
0.0
  0
VERTEX
  5
16A9
  8
3
 10
89.29479798550003
 20
-22.37361710639999
 30
0.0
  0
VERTEX
  5
16AA
  8
3
 10
89.910013628
 20
-22.20714807830001
 30
0.0
  0
VERTEX
  5
16AB
  8
3
 10
90.60000000000002
 20
-22.14957889760001
 30
0.0
  0
SEQEND
  5
16C2
  8
3
  0
POLYLINE
  5
DBB
  8
3
 66
     1
 10
0.0
 20
0.0
 30
0.0
  0
VERTEX
  5
16AC
  8
3
 10
90.60000000000002
 20
24.2745788977
 30
0.0
  0
VERTEX
  5
16AD
  8
3
 10
91.2899863721
 20
24.217009717
 30
0.0
  0
VERTEX
  5
16AE
  8
3
 10
91.90520201450002
 20
24.05054068890001
 30
0.0
  0
VERTEX
  5
16AF
  8
3
 10
92.37897876630001
 20
23.79321131569998
 30
0.0
  0
VERTEX
  5
16B0
  8
3
 10
92.65997556510001
 20
23.47290722780002
 30
0.0
  0
VERTEX
  5
16B1
  8
3
 10
92.7177420477
 20
23.12433834310002
 30
0.0
  0
VERTEX
  5
16B2
  8
3
 10
92.54601831920002
 20
22.78527750899997
 30
0.0
  0
VERTEX
  5
16B3
  8
3
 10
92.16341331020001
 20
22.49246722779998
 30
0.0
  0
VERTEX
  5
16B4
  8
3
 10
91.6113882102
 20
22.27763803699997
 30
0.0
  0
VERTEX
  5
16B5
  8
3
 10
90.94976350440001
 20
22.16407001279998
 30
0.0
  0
VERTEX
  5
16B6
  8
3
 10
90.25023649570002
 20
22.16407001279998
 30
0.0
  0
VERTEX
  5
16B7
  8
3
 10
89.58861178980001
 20
22.27763803699997
 30
0.0
  0
VERTEX
  5
16B8
  8
3
 10
89.0365866898
 20
22.49246722779998
 30
0.0
  0
VERTEX
  5
16B9
  8
3
 10
88.65398168090002
 20
22.78527750899997
 30
0.0
  0
VERTEX
  5
16BA
  8
3
 10
88.4822579524
 20
23.12433834310002
 30
0.0
  0
VERTEX
  5
16BB
  8
3
 10
88.5400244349
 20
23.47290722780002
 30
0.0
  0
VERTEX
  5
16BC
  8
3
 10
88.82102123370001
 20
23.79321131569998
 30
0.0
  0
VERTEX
  5
16BD
  8
3
 10
89.29479798550003
 20
24.05054068890001
 30
0.0
  0
VERTEX
  5
16BE
  8
3
 10
89.910013628
 20
24.217009717
 30
0.0
  0
VERTEX
  5
16BF
  8
3
 10
90.60000000000002
 20
24.2745788977
 30
0.0
  0
SEQEND
  5
16C1
  8
3
  0
LINE
  5
DBC
  8
3
 10
88.9670068382
 20
16.356044451
 30
0.0
 11
89.5793792739
 21
15.92303174919999
 31
0.0
  0
LINE
  5
DBD
  8
3
 10
91.6206207262
 20
15.92303174919999
 30
0.0
 11
92.23299316190003
 21
16.356044451
 31
0.0
  0
LINE
  5
DBE
  8
3
 10
88.60000000000002
 20
23.0170788977
 30
0.0
 11
88.60000000000002
 21
16.9333947202
 31
0.0
  0
LINE
  5
DBF
  8
3
 10
92.60000000000002
 20
16.9333947202
 30
0.0
 11
92.60000000000002
 21
23.0170788977
 31
0.0
  0
LINE
  5
DC0
  8
3
 10
92.23299316190003
 20
-16.356044451
 30
0.0
 11
91.6206207262
 21
-15.92303174910001
 31
0.0
  0
LINE
  5
DC1
  8
3
 10
89.5793792739
 20
-15.92303174910001
 30
0.0
 11
88.9670068382
 21
-16.356044451
 31
0.0
  0
LINE
  5
DC2
  8
3
 10
92.60000000000002
 20
-23.01707889760002
 30
0.0
 11
92.60000000000002
 21
-16.9333947202
 31
0.0
  0
LINE
  5
DC3
  8
3
 10
88.60000000000002
 20
-16.9333947202
 30
0.0
 11
88.60000000000002
 21
-23.01707889760002
 31
0.0
  0
LINE
  5
DC4
  8
3
 10
101.6000000000001
 20
26.20931000000002
 30
0.0
 11
93.07916030500002
 21
26.20931000000002
 31
0.0
  0
LINE
  5
DC5
  8
3
 10
93.07916030500002
 20
16.67669000000001
 30
0.0
 11
101.6000000000001
 21
16.67669000000001
 31
0.0
  0
ARC
  5
DC6
  8
3
 10
93.01620000000003
 20
26.40251000000001
 30
0.0
 40
0.203200000000038
 50
270.0
 51
288.0498306932971
  0
ARC
  5
DC7
  8
3
 10
93.01620000000003
 20
16.48349000000002
 30
0.0
 40
0.2031999999999312
 50
71.95016930670181
 51
90.0
  0
LINE
  5
DC8
  8
3
 10
93.01620000000003
 20
26.19930999999997
 30
0.0
 11
92.4410395106
 21
26.19930999999997
 31
0.0
  0
LINE
  5
DC9
  8
3
 10
92.4410395106
 20
16.68669
 30
0.0
 11
93.01620000000003
 21
16.68669
 31
0.0
  0
LINE
  5
DCA
  8
3
 10
92.4410395106
 20
26.19930999999997
 30
0.0
 11
91.51620000000003
 21
25.95150000000001
 31
0.0
  0
LINE
  5
DCB
  8
3
 10
91.51620000000003
 20
16.93450000000001
 30
0.0
 11
92.4410395106
 21
16.68669
 31
0.0
  0
LINE
  5
DCC
  8
3
 10
101.6000000000001
 20
-16.67669000000001
 30
0.0
 11
93.07916030500002
 21
-16.67669000000001
 31
0.0
  0
LINE
  5
DCD
  8
3
 10
93.07916030500002
 20
-26.20931000000002
 30
0.0
 11
101.6000000000001
 21
-26.20931000000002
 31
0.0
  0
ARC
  5
DCE
  8
3
 10
93.01620000000003
 20
-16.48349000000002
 30
0.0
 40
0.2032000000000393
 50
270.0
 51
288.0498306932968
  0
ARC
  5
DCF
  8
3
 10
93.01620000000003
 20
-26.40251000000001
 30
0.0
 40
0.2032000000000393
 50
71.9501693067032
 51
90.0
  0
LINE
  5
DD0
  8
3
 10
93.01620000000003
 20
-16.68669
 30
0.0
 11
92.4410395106
 21
-16.68669
 31
0.0
  0
LINE
  5
DD1
  8
3
 10
92.4410395106
 20
-26.19931000000003
 30
0.0
 11
93.01620000000003
 21
-26.19931000000003
 31
0.0
  0
LINE
  5
DD2
  8
3
 10
92.4410395106
 20
-16.68669
 30
0.0
 11
91.51620000000003
 21
-16.93450000000001
 31
0.0
  0
LINE
  5
DD3
  8
3
 10
91.51620000000003
 20
-25.95150000000001
 30
0.0
 11
92.4410395106
 21
-26.19931000000003
 31
0.0
  0
LINE
  5
DD4
  8
3
 10
101.6000000000001
 20
6.350000000000023
 30
0.0
 11
100.78085
 21
6.350000000000023
 31
0.0
  0
LINE
  5
DD5
  8
3
 10
100.78085
 20
-6.350000000000023
 30
0.0
 11
101.6000000000001
 21
-6.350000000000023
 31
0.0
  0
LINE
  5
DD6
  8
3
 10
100.78085
 20
6.350000000000023
 30
0.0
 11
100.0252
 21
5.59435000000002
 31
0.0
  0
LINE
  5
DD7
  8
3
 10
100.0252
 20
-5.59435000000002
 30
0.0
 11
100.78085
 21
-6.350000000000023
 31
0.0
  0
LINE
  5
DE0
  8
3
 10
101.6000000000001
 20
13.6990711606
 30
0.0
 11
101.4136296695
 21
13.00352761810001
 31
0.0
  0
LINE
  5
DE1
  8
3
 10
101.4136296695
 20
-13.00352761800002
 30
0.0
 11
101.6000000000001
 21
-13.69907116050001
 31
0.0
  0
ARC
  5
DE6
  8
3
 10
101.8
 20
-12.89999999999998
 30
0.0
 40
0.4000000000000224
 50
166.8749999999982
 51
195.000000000001
  0
ARC
  5
DE7
  8
3
 10
101.8
 20
-12.89999999999998
 30
0.0
 40
0.4000000000000315
 50
119.9999999999976
 51
166.8749999999984
  0
ARC
  5
DE8
  8
3
 10
101.8
 20
12.89999999999998
 30
0.0
 40
0.4000000000000341
 50
164.9999999999985
 51
180.0
  0
ARC
  5
DE9
  8
3
 10
101.8
 20
12.89999999999998
 30
0.0
 40
0.4000000000000341
 50
180.0
 51
240.0000000000048
  0
LINE
  5
DEA
  8
3
 10
101.4
 20
12.89999999999998
 30
0.0
 11
101.4
 21
-12.89999999999998
 31
0.0
  0
LINE
  5
DEB
  8
3
 10
101.6000000000001
 20
1.75
 30
0.0
 11
90.60000000000002
 21
1.75
 31
0.0
  0
LINE
  5
DEC
  8
3
 10
90.60000000000002
 20
-1.75
 30
0.0
 11
101.6000000000001
 21
-1.75
 31
0.0
  0
LINE
  5
DEF
  8
SK3
 10
-5.25
 20
-10.84649999999999
 30
0.0
 11
-4.074389157900015
 21
-5.754369999999994
 31
0.0
  0
LINE
  5
DF0
  8
SK3
 10
-4.074389157900015
 20
5.754369999999994
 30
0.0
 11
-5.25
 21
10.84649999999999
 31
0.0
  0
LINE
  5
DF1
  8
3
 10
90.49800490470003
 20
-1.580251655600023
 30
0.0
 11
90.60000000000002
 21
-1.75
 31
0.0
  0
LINE
  5
DF2
  8
3
 10
90.60000000000002
 20
1.75
 30
0.0
 11
90.49800490470003
 21
1.580251655600023
 31
0.0
  0
LINE
  5
DF5
  8
3
 10
101.6000000000001
 20
6.350000000000023
 30
0.0
 11
93.70000000000002
 21
6.350000000000023
 31
0.0
  0
LINE
  5
DF6
  8
3
 10
93.70000000000002
 20
-6.350000000000023
 30
0.0
 11
101.6000000000001
 21
-6.350000000000023
 31
0.0
  0
LINE
  5
DFB
  8
3
 10
93.70000000000002
 20
5.754369999999994
 30
0.0
 11
0.0
 21
5.754369999999994
 31
0.0
  0
LINE
  5
DFC
  8
3
 10
-0.0000000000000071
 20
-5.754369999999994
 30
0.0
 11
93.70000000000002
 21
-5.754369999999994
 31
0.0
  0
LINE
  5
DFD
  8
3
 10
101.6000000000001
 20
-16.68049999999999
 30
0.0
 11
90.4
 21
-16.68049999999999
 31
0.0
  0
LINE
  5
DFE
  8
3
 10
90.4
 20
-26.20550000000003
 30
0.0
 11
101.6000000000001
 21
-26.20550000000003
 31
0.0
  0
LINE
  5
DFF
  8
3
 10
90.4
 20
26.20549999999997
 30
0.0
 11
87.53840130190002
 21
21.44299999999998
 31
0.0
  0
LINE
  5
E00
  8
3
 10
87.53840130190002
 20
21.44299999999998
 30
0.0
 11
90.4
 21
16.68049999999999
 31
0.0
  0
LINE
  5
E01
  8
3
 10
90.4
 20
-16.68049999999999
 30
0.0
 11
87.53840130190002
 21
-21.44299999999998
 31
0.0
  0
LINE
  5
E02
  8
3
 10
87.53840130190002
 20
-21.44299999999998
 30
0.0
 11
90.4
 21
-26.20550000000003
 31
0.0
  0
LINE
  5
E03
  8
3
 10
101.6000000000001
 20
26.20549999999997
 30
0.0
 11
90.4
 21
26.20549999999997
 31
0.0
  0
LINE
  5
E04
  8
3
 10
90.4
 20
16.68049999999999
 30
0.0
 11
101.6000000000001
 21
16.68049999999999
 31
0.0
  0
LINE
  5
E07
  8
3
 10
88.95000000000002
 20
22.8007168309
 30
0.0
 11
88.95000000000002
 21
4.980511645799993
 31
0.0
  0
LINE
  5
E08
  8
3
 10
92.25
 20
9.517509394000001
 30
0.0
 11
92.25
 21
22.8007168309
 31
0.0
  0
LINE
  5
E09
  8
3
 10
92.25
 20
4.978787621200013
 30
0.0
 11
92.25
 21
6.503960576099985
 31
0.0
  0
LINE
  5
E0A
  8
3
 10
92.25
 20
-6.503960575999997
 30
0.0
 11
92.25
 21
-4.978787621100025
 31
0.0
  0
LINE
  5
E0B
  8
3
 10
92.25
 20
-22.80071683080001
 30
0.0
 11
92.25
 21
-9.517509393900013
 31
0.0
  0
LINE
  5
E0C
  8
3
 10
88.95000000000002
 20
-4.980511645799993
 30
0.0
 11
88.95000000000002
 21
-22.80071683080001
 31
0.0
  0
LINE
  5
E0D
  8
3
 10
101.6000000000001
 20
-6.260734984999999
 30
0.0
 11
91.99554104540002
 21
-6.260734984999999
 31
0.0
  0
LINE
  5
E0E
  8
3
 10
91.99554104540002
 20
-9.760734985
 30
0.0
 11
101.6000000000001
 21
-9.760734985
 31
0.0
  0
LINE
  5
E0F
  8
3
 10
101.6000000000001
 20
9.760734985
 30
0.0
 11
91.98710874320003
 21
9.760734985
 31
0.0
  0
LINE
  5
E10
  8
3
 10
91.98710874320003
 20
6.260734984999999
 30
0.0
 11
101.6000000000001
 21
6.260734984999999
 31
0.0
  0
LINE
  5
E11
  8
3
 10
92.85000000000002
 20
-24.07562571469998
 30
0.0
 11
92.85000000000002
 21
-23.21207889760001
 31
0.0
  0
LINE
  5
E12
  8
3
 10
88.35000000000002
 20
-23.21207889760001
 30
0.0
 11
88.35000000000002
 21
-24.073782978
 31
0.0
  0
LINE
  5
E13
  8
3
 10
88.35000000000002
 20
24.073782978
 30
0.0
 11
88.35000000000002
 21
23.2120788977
 31
0.0
  0
LINE
  5
E14
  8
3
 10
92.85000000000002
 20
23.2120788977
 30
0.0
 11
92.85000000000002
 21
24.07562571479997
 31
0.0
  0
LINE
  5
E15
  8
3
 10
92.3350552345
 20
-22.59864423660002
 30
0.0
 11
91.9472193585
 21
-22.32440285870001
 31
0.0
  0
LINE
  5
E16
  8
3
 10
89.25278064150001
 20
-22.32440285870001
 30
0.0
 11
88.86494476550001
 21
-22.59864423660002
 31
0.0
  0
LINE
  5
E17
  8
3
 10
88.86494476550001
 20
22.59864423670001
 30
0.0
 11
89.25278064150001
 21
22.3244028588
 31
0.0
  0
LINE
  5
E18
  8
3
 10
91.9472193585
 20
22.3244028588
 30
0.0
 11
92.3350552345
 21
22.59864423670001
 31
0.0
  0
LINE
  5
E1B
  8
SK1
 10
101.6000000000001
 20
16.67669000000001
 30
0.0
 11
101.6285053027
 21
16.67669000000001
 31
0.0
  0
LINE
  5
E1C
  8
SK1
 10
101.6285053027
 20
-16.67669000000001
 30
0.0
 11
101.6000000000001
 21
-16.67669000000001
 31
0.0
  0
LINE
  5
E1E
  8
SK1
 10
129.413
 20
-14.98599999999999
 30
0.0
 11
130.175
 21
-14.22399999999999
 31
0.0
  0
LINE
  5
E1F
  8
SK1
 10
130.175
 20
14.22399999999999
 30
0.0
 11
129.413
 21
14.98599999999999
 31
0.0
  0
LINE
  5
E20
  8
SK1
 10
121.412
 20
14.98599999999999
 30
0.0
 11
120.65
 21
14.22399999999999
 31
0.0
  0
LINE
  5
E21
  8
SK1
 10
120.65
 20
-14.22399999999999
 30
0.0
 11
121.412
 21
-14.98599999999999
 31
0.0
  0
LINE
  5
E22
  8
SK1
 10
129.413
 20
14.98599999999999
 30
0.0
 11
121.412
 21
14.98599999999999
 31
0.0
  0
LINE
  5
E23
  8
SK1
 10
121.412
 20
-14.98599999999999
 30
0.0
 11
129.413
 21
-14.98599999999999
 31
0.0
  0
ARC
  5
E24
  8
SK1
 10
119.9896
 20
-7.010400000000004
 30
0.0
 40
0.6604000000000099
 50
359.9999999999014
 51
90.0
  0
ARC
  5
E25
  8
SK1
 10
119.9896
 20
7.010400000000004
 30
0.0
 40
0.6604000000000383
 50
270.0
 51
0.0000000000986338
  0
LINE
  5
E26
  8
SK1
 10
119.9896
 20
6.350000000000023
 30
0.0
 11
119.1000000000001
 21
6.350000000000023
 31
0.0
  0
LINE
  5
E27
  8
SK1
 10
119.1000000000001
 20
-6.350000000000023
 30
0.0
 11
119.9896
 21
-6.350000000000023
 31
0.0
  0
ARC
  5
E3F
  8
SK1
 10
101.8
 20
-12.89999999999998
 30
0.0
 40
0.4000000000000315
 50
74.99999999999191
 51
119.9999999999976
  0
ARC
  5
E40
  8
SK1
 10
101.8
 20
12.89999999999998
 30
0.0
 40
0.4000000000000297
 50
240.0000000000023
 51
285.0000000000082
  0
LINE
  5
E41
  8
SK1
 10
102.5990711606
 20
-12.69999999999999
 30
0.0
 11
117.6000000000001
 21
-12.69999999999999
 31
0.0
  0
LINE
  5
E42
  8
SK1
 10
117.6000000000001
 20
12.69999999999999
 30
0.0
 11
102.5990711606
 21
12.69999999999999
 31
0.0
  0
ARC
  5
E43
  8
SK1
 10
117.6000000000001
 20
-11.19999999999999
 30
0.0
 40
1.5
 50
270.0
 51
0.0
  0
ARC
  5
E44
  8
SK1
 10
117.6000000000001
 20
11.19999999999999
 30
0.0
 40
1.5
 50
0.0
 51
90.0
  0
LINE
  5
E45
  8
SK1
 10
102.5990711606
 20
12.69999999999999
 30
0.0
 11
101.9035276181
 21
12.51362966950001
 31
0.0
  0
LINE
  5
E46
  8
SK1
 10
101.9035276181
 20
-12.51362966940002
 30
0.0
 11
102.5990711606
 21
-12.69999999999999
 31
0.0
  0
LINE
  5
E4E
  8
SK1
 10
106.5022
 20
26.20549999999997
 30
0.0
 11
101.6000000000001
 21
26.20549999999997
 31
0.0
  0
LINE
  5
E4F
  8
SK1
 10
106.5022
 20
26.20549999999997
 30
0.0
 11
106.5022
 21
16.68049999999999
 31
0.0
  0
LINE
  5
E50
  8
SK1
 10
106.5022
 20
16.68049999999999
 30
0.0
 11
101.6000000000001
 21
16.68049999999999
 31
0.0
  0
LINE
  5
E51
  8
SK1
 10
106.5022
 20
-16.68049999999999
 30
0.0
 11
101.6000000000001
 21
-16.68049999999999
 31
0.0
  0
LINE
  5
E52
  8
SK1
 10
106.5022
 20
-16.68049999999999
 30
0.0
 11
106.5022
 21
-26.20550000000003
 31
0.0
  0
LINE
  5
E53
  8
SK1
 10
106.5022
 20
-26.20550000000003
 30
0.0
 11
101.6000000000001
 21
-26.20550000000003
 31
0.0
  0
LINE
  5
E54
  8
SK1
 10
130.175
 20
14.22399999999999
 30
0.0
 11
130.175
 21
-14.22399999999999
 31
0.0
  0
LINE
  5
E55
  8
SK1
 10
129.413
 20
14.98599999999999
 30
0.0
 11
129.413
 21
-14.98599999999999
 31
0.0
  0
LINE
  5
E56
  8
SK1
 10
121.412
 20
14.98599999999999
 30
0.0
 11
121.412
 21
-14.98599999999999
 31
0.0
  0
LINE
  5
E57
  8
SK1
 10
120.65
 20
14.22399999999999
 30
0.0
 11
120.65
 21
-14.22399999999999
 31
0.0
  0
LINE
  5
E7F
  8
SK1
 10
102.5990711606
 20
0.0
 30
0.0
 11
102.5990711606
 21
12.69999999999999
 31
0.0
  0
LINE
  5
E80
  8
SK1
 10
102.5990711606
 20
-12.69999999999999
 30
0.0
 11
102.5990711606
 21
0.0
 31
0.0
  0
LINE
  5
E81
  8
SK1
 10
119.1000000000001
 20
0.0
 30
0.0
 11
119.1000000000001
 21
11.19999999999999
 31
0.0
  0
LINE
  5
E82
  8
SK1
 10
119.1000000000001
 20
-11.19999999999999
 30
0.0
 11
119.1000000000001
 21
0.0
 31
0.0
  0
LINE
  5
EC1
  8
SK3
 10
122.555
 20
4.013199999999983
 30
0.0
 11
122.555
 21
-4.013199999999983
 31
0.0
  0
LINE
  5
EC2
  8
SK3
 10
123.063
 20
2.317022100299994
 30
0.0
 11
123.063
 21
0.0
 31
0.0
  0
LINE
  5
EC3
  8
SK3
 10
123.063
 20
0.0
 30
0.0
 11
123.063
 21
-2.317022100299994
 31
0.0
  0
LINE
  5
EC4
  8
SK3
 10
123.063
 20
-2.317022100299994
 30
0.0
 11
130.175
 21
-2.317022100299994
 31
0.0
  0
LINE
  5
EC5
  8
SK3
 10
123.063
 20
-2.317022100299994
 30
0.0
 11
123.063
 21
-3.475533150399997
 31
0.0
  0
LINE
  5
EC6
  8
SK3
 10
123.063
 20
2.317022100299994
 30
0.0
 11
130.175
 21
2.317022100299994
 31
0.0
  0
LINE
  5
EC7
  8
SK3
 10
123.063
 20
3.475533150499984
 30
0.0
 11
123.063
 21
2.317022100299994
 31
0.0
  0
LINE
  5
EC8
  8
SK3
 10
123.063
 20
4.634044200699975
 30
0.0
 11
123.063
 21
3.475533150499984
 31
0.0
  0
LINE
  5
EC9
  8
SK3
 10
123.063
 20
-3.475533150399997
 30
0.0
 11
123.063
 21
-4.634044200599988
 31
0.0
  0
LINE
  5
ECA
  8
SK3
 10
123.063
 20
4.634044200699975
 30
0.0
 11
130.175
 21
4.634044200699975
 31
0.0
  0
LINE
  5
ECB
  8
SK3
 10
123.063
 20
-4.634044200599988
 30
0.0
 11
130.175
 21
-4.634044200599988
 31
0.0
  0
LINE
  5
EE3
  8
SK3
 10
117.5411543113
 20
6.350000000000023
 30
0.0
 11
117.5411543113
 21
-6.350000000000023
 31
0.0
  0
LINE
  5
F17
  8
SK3
 10
119.1000000000001
 20
6.350000000000023
 30
0.0
 11
101.6000000000001
 21
6.350000000000023
 31
0.0
  0
LINE
  5
F18
  8
SK3
 10
101.6000000000001
 20
-6.350000000000023
 30
0.0
 11
119.1000000000001
 21
-6.350000000000023
 31
0.0
  0
LINE
  5
F1B
  8
SK3
 10
123.063
 20
4.013199999999983
 30
0.0
 11
122.555
 21
4.013199999999983
 31
0.0
  0
LINE
  5
F1C
  8
SK3
 10
122.555
 20
-4.013199999999983
 30
0.0
 11
123.063
 21
-4.013199999999983
 31
0.0
  0
LINE
  5
F1D
  8
SK3
 10
122.555
 20
4.013199999999983
 30
0.0
 11
120.1436261637
 21
0.0
 31
0.0
  0
LINE
  5
F1E
  8
SK3
 10
120.1436261637
 20
0.0
 30
0.0
 11
122.555
 21
-4.013199999999983
 31
0.0
  0
LINE
  5
F2E
  8
SK3
 10
119.1000000000001
 20
1.75
 30
0.0
 11
101.6000000000001
 21
1.75
 31
0.0
  0
LINE
  5
F2F
  8
SK3
 10
101.6000000000001
 20
-1.75
 30
0.0
 11
119.1000000000001
 21
-1.75
 31
0.0
  0
LINE
  5
F36
  8
SK3
 10
119.1000000000001
 20
7.249999978000005
 30
0.0
 11
117.5411543113
 21
6.350000000000023
 31
0.0
  0
LINE
  5
F37
  8
SK3
 10
117.5411543113
 20
-6.350000000000023
 30
0.0
 11
119.1000000000001
 21
-7.249999978000005
 31
0.0
  0
LINE
  5
F38
  8
SK3
 10
117.5411543113
 20
6.350000000000023
 30
0.0
 11
101.6000000000001
 21
6.350000000000023
 31
0.0
  0
LINE
  5
F39
  8
SK3
 10
101.6000000000001
 20
-6.350000000000023
 30
0.0
 11
117.5411543113
 21
-6.350000000000023
 31
0.0
  0
LINE
  5
F50
  8
SK3
 10
119.1000000000001
 20
-6.260734984999999
 30
0.0
 11
101.6000000000001
 21
-6.260734984999999
 31
0.0
  0
LINE
  5
F51
  8
SK3
 10
101.6000000000001
 20
-9.760734985
 30
0.0
 11
119.1000000000001
 21
-9.760734985
 31
0.0
  0
LINE
  5
F52
  8
SK3
 10
119.1000000000001
 20
9.760734985
 30
0.0
 11
101.6000000000001
 21
9.760734985
 31
0.0
  0
LINE
  5
F53
  8
SK3
 10
101.6000000000001
 20
6.260734984999999
 30
0.0
 11
119.1000000000001
 21
6.260734984999999
 31
0.0
  0
LINE
  5
F62
  8
SK3
 10
-4.074389157900015
 20
5.754369999999994
 30
0.0
 11
0.0
 21
5.754369999999994
 31
0.0
  0
LINE
  5
F63
  8
SK3
 10
-4.074389157900015
 20
-5.754369999999994
 30
0.0
 11
0.0
 21
-5.754369999999994
 31
0.0
  0
LINE
  5
F69
  8
SK4
 10
101.6000000000001
 20
0.0
 30
0.0
 11
130.175
 21
0.0
 31
0.0
  0
DIMENSION
  5
F6B
  8
SK2
  2
*D10
 10
147.5949924291873
 20
-27.8003
 30
0.0
 11
145.7199924291873
 21
-0.0000000000000036
 31
0.0
 70
    32
  3
ISO-25
 13
100.6000000000001
 23
27.80029999999999
 33
0.0
 14
100.6000000000001
 24
-27.80029999999999
 34
0.0
 50
90.0
1001
ACAD
1000
DSTYLE
1002
{
1070
   287
1070
     5
1070
   271
1070
     2
1070
   272
1070
     3
1070
   279
1070
     2
1002
}
  0
DIMENSION
  5
F7A
  8
SK2
  2
*D11
 10
138.8547291998209
 20
-12.69999999999999
 30
0.0
 11
136.9797291998209
 21
-0.0000000000000018
 31
0.0
 70
    32
  3
ISO-25
 13
117.6000000000001
 23
12.69999999999999
 33
0.0
 14
117.6000000000001
 24
-12.69999999999999
 34
0.0
 50
90.0
1001
ACAD
1000
DSTYLE
1002
{
1070
   287
1070
     5
1070
   271
1070
     3
1070
   272
1070
     3
1070
   279
1070
     2
1002
}
  0
LINE
  5
F8D
  8
NOCUT
 10
100.6000000000001
 20
27.80029999999999
 30
0.0
 11
37.05000000000001
 21
27.80029999999999
 31
0.0
  0
ARC
  5
F8F
  8
NOCUT
 10
37.05000000000001
 20
29.80029999999999
 30
0.0
 40
2.0
 50
180.0
 51
270.0
  0
ARC
  5
F90
  8
NOCUT
 10
100.6000000000001
 20
26.80029999999999
 30
0.0
 40
1.0
 50
0.0
 51
90.0
  0
LINE
  5
F91
  8
NOCUT
 10
101.6285053027
 20
26.20931000000002
 30
0.0
 11
101.6000000000001
 21
26.20931000000002
 31
0.0
  0
LINE
  5
F92
  8
NOCUT
 10
101.6000000000001
 20
0.0
 30
0.0
 11
101.6000000000001
 21
26.80029999999999
 31
0.0
  0
LINE
  5
F94
  8
NOCUT
 10
35.05
 20
34.42499999999999
 30
0.0
 11
35.05000000000001
 21
29.80029999999998
 31
0.0
  0
ENDSEC
  0
EOF
