  0
SECTION
  2
HEADER
  9
$ACADVER
  1
AC1009
  9
$DWGCODEPAGE
  3
ansi_1251
  9
$INSBASE
 10
0.0
 20
0.0
 30
0.0
  9
$EXTMIN
 10
-68.25000000000001
 20
-30.5409271246
 30
0.0
  9
$EXTMAX
 10
88.90000000000003
 20
30.50275418977125
 30
0.0
  9
$LIMMIN
 10
0.0
 20
0.0
  9
$LIMMAX
 10
420.0
 20
297.0
  9
$ORTHOMODE
 70
     1
  9
$REGENMODE
 70
     1
  9
$FILLMODE
 70
     1
  9
$QTEXTMODE
 70
     0
  9
$MIRRTEXT
 70
     0
  9
$DRAGMODE
 70
     2
  9
$LTSCALE
 40
1.0
  9
$OSMODE
 70
   279
  9
$ATTMODE
 70
     1
  9
$TEXTSIZE
 40
2.5
  9
$TRACEWID
 40
1.0
  9
$TEXTSTYLE
  7
STANDARD
  9
$CLAYER
  8
0
  9
$CELTYPE
  6
BYLAYER
  9
$CECOLOR
 62
   256
  9
$DIMSCALE
 40
1.0
  9
$DIMASZ
 40
2.5
  9
$DIMEXO
 40
0.625
  9
$DIMDLI
 40
3.75
  9
$DIMRND
 40
0.0
  9
$DIMDLE
 40
0.0
  9
$DIMEXE
 40
1.25
  9
$DIMTP
 40
0.0
  9
$DIMTM
 40
0.0
  9
$DIMTXT
 40
2.5
  9
$DIMCEN
 40
2.5
  9
$DIMTSZ
 40
0.0
  9
$DIMTOL
 70
     0
  9
$DIMLIM
 70
     0
  9
$DIMTIH
 70
     0
  9
$DIMTOH
 70
     0
  9
$DIMSE1
 70
     0
  9
$DIMSE2
 70
     0
  9
$DIMTAD
 70
     1
  9
$DIMZIN
 70
     8
  9
$DIMBLK
  1

  9
$DIMASO
 70
     1
  9
$DIMSHO
 70
     1
  9
$DIMPOST
  1

  9
$DIMAPOST
  1

  9
$DIMALT
 70
     0
  9
$DIMALTD
 70
     3
  9
$DIMALTF
 40
0.03937007874016
  9
$DIMLFAC
 40
1.0
  9
$DIMTOFL
 70
     1
  9
$DIMTVP
 40
0.0
  9
$DIMTIX
 70
     0
  9
$DIMSOXD
 70
     0
  9
$DIMSAH
 70
     0
  9
$DIMBLK1
  1

  9
$DIMBLK2
  1

  9
$DIMSTYLE
  2
ISO-25
  9
$DIMCLRD
 70
     0
  9
$DIMCLRE
 70
     0
  9
$DIMCLRT
 70
     0
  9
$DIMTFAC
 40
1.0
  9
$DIMGAP
 40
0.625
  9
$LUNITS
 70
     2
  9
$LUPREC
 70
     3
  9
$SKETCHINC
 40
1.0
  9
$FILLETRAD
 40
10.0
  9
$AUNITS
 70
     0
  9
$AUPREC
 70
     0
  9
$MENU
  1
.
  9
$ELEVATION
 40
0.0
  9
$PELEVATION
 40
0.0
  9
$THICKNESS
 40
0.0
  9
$LIMCHECK
 70
     0
  9
$CHAMFERA
 40
10.0
  9
$CHAMFERB
 40
10.0
  9
$SKPOLY
 70
     0
  9
$TDCREATE
 40
2455022.429026158
  9
$TDUPDATE
 40
2458659.538982558
  9
$TDINDWG
 40
0.1506771181
  9
$TDUSRTIMER
 40
2458702.668912188
  9
$USRTIMER
 70
     1
  9
$ANGBASE
 50
0.0
  9
$ANGDIR
 70
     0
  9
$PDMODE
 70
     0
  9
$PDSIZE
 40
0.0
  9
$PLINEWID
 40
0.0
  9
$COORDS
 70
     1
  9
$SPLFRAME
 70
     0
  9
$SPLINETYPE
 70
     6
  9
$SPLINESEGS
 70
     8
  9
$ATTDIA
 70
     0
  9
$ATTREQ
 70
     1
  9
$HANDLING
 70
     1
  9
$HANDSEED
  5
21EE
  9
$SURFTAB1
 70
     6
  9
$SURFTAB2
 70
     6
  9
$SURFTYPE
 70
     6
  9
$SURFU
 70
     6
  9
$SURFV
 70
     6
  9
$UCSNAME
  2

  9
$UCSORG
 10
0.0
 20
0.0
 30
0.0
  9
$UCSXDIR
 10
1.0
 20
0.0
 30
0.0
  9
$UCSYDIR
 10
0.0
 20
1.0
 30
0.0
  9
$PUCSNAME
  2

  9
$PUCSORG
 10
0.0
 20
0.0
 30
0.0
  9
$PUCSXDIR
 10
1.0
 20
0.0
 30
0.0
  9
$PUCSYDIR
 10
0.0
 20
1.0
 30
0.0
  9
$USERI1
 70
     0
  9
$USERI2
 70
     0
  9
$USERI3
 70
     0
  9
$USERI4
 70
     0
  9
$USERI5
 70
     0
  9
$USERR1
 40
0.0
  9
$USERR2
 40
0.0
  9
$USERR3
 40
0.0
  9
$USERR4
 40
0.0
  9
$USERR5
 40
0.0
  9
$WORLDVIEW
 70
     1
  9
$SHADEDGE
 70
     3
  9
$SHADEDIF
 70
    70
  9
$TILEMODE
 70
     1
  9
$MAXACTVP
 70
    64
  9
$PLIMCHECK
 70
     0
  9
$PEXTMIN
 10
1.000000000000000E+20
 20
1.000000000000000E+20
 30
1.000000000000000E+20
  9
$PEXTMAX
 10
-1.000000000000000E+20
 20
-1.000000000000000E+20
 30
-1.000000000000000E+20
  9
$PLIMMIN
 10
0.0
 20
0.0
  9
$PLIMMAX
 10
420.0
 20
297.0
  9
$UNITMODE
 70
     0
  9
$VISRETAIN
 70
     1
  9
$PLINEGEN
 70
     0
  9
$PSLTSCALE
 70
     1
  0
ENDSEC
  0
SECTION
  2
TABLES
  0
TABLE
  2
VPORT
 70
     1
  0
VPORT
  2
*ACTIVE
 70
     0
 10
0.0
 20
0.0
 11
1.0
 21
1.0
 12
104.4991981566296
 22
-4.409747193426497
 13
0.0
 23
0.0
 14
10.0
 24
10.0
 15
10.0
 25
10.0
 16
0.0
 26
0.0
 36
1.0
 17
0.0
 27
0.0
 37
0.0
 40
315.4389195517737
 41
1.332880434782609
 42
50.0
 43
0.0
 44
0.0
 50
0.0
 51
0.0
 71
    16
 72
  1000
 73
     1
 74
     3
 75
     0
 76
     0
 77
     0
 78
     0
  0
ENDTAB
  0
TABLE
  2
LTYPE
 70
     6
  0
LTYPE
  2
CONTINUOUS
 70
     0
  3
Solid line
 72
    65
 73
     0
 40
0.0
  0
LTYPE
  2
CENTER
 70
     0
  3
 Center _____  _  _____  _  _____  _  _____  _ 
 72
    65
 73
     4
 40
50.8
 49
31.75
 49
-6.35
 49
6.35
 49
-6.35
  0
LTYPE
  2
DASHED
 70
     0
  3
Dashed __  __  __  __  __  __  __  __  __  __  
 72
    65
 73
     2
 40
19.05
 49
12.7
 49
-6.35
  0
LTYPE
  2
HIDDEN
 70
     0
  3
Hidden __ __ __ __ __ __ __ __ __ __ __ __ __ __
 72
    65
 73
     2
 40
1.905
 49
1.27
 49
-0.635
  0
LTYPE
  2
CENTERX2
 70
     0
  3
Center (2x) ________  __  ________  __  _____
 72
    65
 73
     4
 40
20.32
 49
12.7
 49
-2.54
 49
2.54
 49
-2.54
  0
LTYPE
  2
PHANTOM
 70
     0
  3
Phantom ______  __  __  ______  __  __  ______
 72
    65
 73
     6
 40
12.7
 49
6.35
 49
-1.27
 49
1.27
 49
-1.27
 49
1.27
 49
-1.27
  0
ENDTAB
  0
TABLE
  2
LAYER
 70
    26
  0
LAYER
  2
0
 70
     0
 62
     7
  6
CONTINUOUS
  0
LAYER
  2
1
 70
     0
 62
     4
  6
CONTINUOUS
  0
LAYER
  2
2
 70
     0
 62
     7
  6
CONTINUOUS
  0
LAYER
  2
3
 70
     0
 62
     1
  6
DASHED
  0
LAYER
  2
4
 70
     0
 62
     2
  6
CENTER
  0
LAYER
  2
6
 70
     0
 62
     5
  6
CONTINUOUS
  0
LAYER
  2
7
 70
     0
 62
     5
  6
CONTINUOUS
  0
LAYER
  2
11
 70
     0
 62
     4
  6
CONTINUOUS
  0
LAYER
  2
SK1
 70
     0
 62
     4
  6
CONTINUOUS
  0
LAYER
  2
SK2
 70
     0
 62
     7
  6
CONTINUOUS
  0
LAYER
  2
SK3
 70
     0
 62
     1
  6
DASHED
  0
LAYER
  2
SK4
 70
     0
 62
     2
  6
CENTER
  0
LAYER
  2
SK6
 70
     0
 62
     5
  6
CONTINUOUS
  0
LAYER
  2
SK7
 70
     0
 62
     5
  6
CONTINUOUS
  0
LAYER
  2
SK11
 70
     0
 62
     4
  6
CONTINUOUS
  0
LAYER
  2
CUT
 70
     0
 62
     1
  6
CONTINUOUS
  0
LAYER
  2
NOCUT
 70
     0
 62
    -7
  6
CONTINUOUS
  0
LAYER
  2
SKVIEW1
 70
     0
 62
     4
  6
CONTINUOUS
  0
LAYER
  2
SKVIEW2
 70
     0
 62
     7
  6
CONTINUOUS
  0
LAYER
  2
SKVIEW3
 70
     0
 62
     1
  6
DASHED
  0
LAYER
  2
SKVIEW4
 70
     0
 62
     2
  6
CENTER
  0
LAYER
  2
SKVIEW6
 70
     0
 62
     5
  6
CONTINUOUS
  0
LAYER
  2
SKVIEW7
 70
     0
 62
     5
  6
CONTINUOUS
  0
LAYER
  2
SKVIEW11
 70
     0
 62
     4
  6
CONTINUOUS
  0
LAYER
  2
INFTOTAL
 70
     0
 62
     9
  6
CONTINUOUS
  0
LAYER
  2
DEFPOINTS
 70
     0
 62
     7
  6
CONTINUOUS
  0
ENDTAB
  0
TABLE
  2
STYLE
 70
     1
  0
STYLE
  2
STANDARD
 70
     0
 40
0.0
 41
1.0
 50
0.0
 71
     0
 42
2.5
  3
txt
  4

  0
ENDTAB
  0
TABLE
  2
VIEW
 70
     0
  0
ENDTAB
  0
TABLE
  2
UCS
 70
     0
  0
ENDTAB
  0
TABLE
  2
APPID
 70
     2
  0
APPID
  2
ACAD
 70
     0
  0
APPID
  2
ACAECLAYERSTANDARD
 70
     0
  0
ENDTAB
  0
TABLE
  2
DIMSTYLE
 70
     1
  0
DIMSTYLE
  2
ISO-25
 70
     0
  3

  4

  5

  6

  7

 40
1.0
 41
2.5
 42
0.625
 43
3.75
 44
1.25
 45
0.0
 46
0.0
 47
0.0
 48
0.0
140
2.5
141
2.5
142
0.0
143
0.03937007874016
144
1.0
145
0.0
146
1.0
147
0.625
 71
     0
 72
     0
 73
     0
 74
     0
 75
     0
 76
     0
 77
     1
 78
     8
170
     0
171
     3
172
     1
173
     0
174
     0
175
     0
176
     0
177
     0
178
     0
  0
ENDTAB
  0
ENDSEC
  0
SECTION
  2
BLOCKS
  0
BLOCK
  8
0
  2
$MODEL_SPACE
 70
     0
 10
0.0
 20
0.0
 30
0.0
  3
$MODEL_SPACE
  1

  0
ENDBLK
  5
21
  8
0
  0
BLOCK
 67
     1
  8
0
  2
$PAPER_SPACE
 70
     0
 10
0.0
 20
0.0
 30
0.0
  3
$PAPER_SPACE
  1

  0
ENDBLK
  5
1D
 67
     1
  8
0
  0
BLOCK
  8
0
  2
*U2
 70
     1
 10
0.0
 20
0.0
 30
0.0
  3
*U2
  1

  0
TEXT
  5
77E
  8
SK6
 10
-50.0
 20
78.25
 30
0.0
 40
3.5
  1
BIG KAISER
 41
0.85
  0
TEXT
  5
781
  8
SK6
 10
-50.0
 20
73.0
 30
0.0
 40
3.5
  1
BCV50-SMC1.000-10
 41
0.85
  0
ENDBLK
  5
782
  8
0
  0
BLOCK
  8
0
  2
_FILLED
 70
     0
 10
0.0
 20
0.0
 30
0.0
  3
_FILLED
  1

  0
SOLID
  5
789
  8
0
  6
BYBLOCK
 62
     0
 10
0.0
 20
0.0
 30
0.0
 11
-1.0
 21
0.2142857143
 31
0.0
 12
-1.0
 22
-0.2142857143
 32
0.0
 13
-1.0
 23
-0.2142857143
 33
0.0
  0
ENDBLK
  5
78A
  8
0
  6
BYBLOCK
 62
     0
  0
BLOCK
  8
0
  2
*U5
 70
     1
 10
0.0
 20
0.0
 30
0.0
  3
*U5
  1

  0
TEXT
  5
790
  8
SK6
 10
-85.96178542556666
 20
-67.06748653279999
 30
0.0
 40
3.5
  1
BCV50
 41
0.85
  0
ENDBLK
  5
791
  8
0
  0
BLOCK
  8
0
  2
*D6
 70
     1
 10
0.0
 20
0.0
 30
0.0
  3
*D6
  1

  0
LINE
  5
7EA
  8
SK2
 62
     0
 10
35.125
 20
34.92499999999998
 30
0.0
 11
310.5983963132592
 21
34.92499999999998
 31
0.0
  0
LINE
  5
7EB
  8
SK2
 62
     0
 10
35.125
 20
-34.92500000000001
 30
0.0
 11
310.5983963132592
 21
-34.92500000000003
 31
0.0
  0
LINE
  5
7EC
  8
SK2
 62
     0
 10
309.3483963132592
 20
32.42499999999998
 30
0.0
 11
309.3483963132592
 21
-32.42500000000003
 31
0.0
  0
SOLID
  5
7ED
  8
SK2
 62
     0
 10
309.7650629799259
 20
32.42499999999998
 30
0.0
 11
308.9317296465925
 21
32.42499999999998
 31
0.0
 12
309.3483963132592
 22
34.92499999999998
 32
0.0
 13
309.3483963132592
 23
34.92499999999998
 33
0.0
  0
SOLID
  5
7EE
  8
SK2
 62
     0
 10
308.9317296465925
 20
-32.42500000000003
 30
0.0
 11
309.7650629799259
 21
-32.42500000000003
 31
0.0
 12
309.3483963132592
 22
-34.92500000000003
 32
0.0
 13
309.3483963132592
 23
-34.92500000000003
 33
0.0
  0
TEXT
  5
7EF
  8
SK2
  6
CONTINUOUS
 62
     0
 10
308.7233963132592
 20
-5.0
 30
0.0
 40
2.5
  1
69.85
 50
90.0
  0
POINT
  5
7F0
  8
DEFPOINTS
 62
     0
 10
34.5
 20
34.92499999999998
 30
0.0
  0
POINT
  5
7F1
  8
DEFPOINTS
 62
     0
 10
34.5
 20
-34.92500000000001
 30
0.0
  0
POINT
  5
7F2
  8
DEFPOINTS
 62
     0
 10
309.3483963132592
 20
-34.92500000000003
 30
0.0
  0
ENDBLK
  5
7F4
  8
0
  0
BLOCK
  8
0
  2
*D7
 70
     1
 10
0.0
 20
0.0
 30
0.0
  3
*D7
  1

  0
LINE
  5
7F9
  8
SK2
 62
     0
 10
0.0
 20
-35.55000000000001
 30
0.0
 11
0.0
 21
-74.40665109041375
 31
0.0
  0
LINE
  5
7FA
  8
SK2
 62
     0
 10
35.05
 20
-35.05000000000001
 30
0.0
 11
35.05
 21
-74.40665109041375
 31
0.0
  0
LINE
  5
7FB
  8
SK2
 62
     0
 10
2.5
 20
-73.15665109041375
 30
0.0
 11
32.55
 21
-73.15665109041375
 31
0.0
  0
SOLID
  5
7FC
  8
SK2
 62
     0
 10
2.5
 20
-72.73998442374707
 30
0.0
 11
2.5
 21
-73.57331775708042
 31
0.0
 12
0.0
 22
-73.15665109041375
 32
0.0
 13
0.0
 23
-73.15665109041375
 33
0.0
  0
SOLID
  5
7FD
  8
SK2
 62
     0
 10
32.55
 20
-73.57331775708042
 30
0.0
 11
32.55
 21
-72.73998442374707
 31
0.0
 12
35.05
 22
-73.15665109041375
 32
0.0
 13
35.05
 23
-73.15665109041375
 33
0.0
  0
TEXT
  5
7FE
  8
SK2
  6
CONTINUOUS
 62
     0
 10
12.73333333333333
 20
-72.53165109041375
 30
0.0
 40
2.5
  1
35.05
  0
POINT
  5
7FF
  8
DEFPOINTS
 62
     0
 10
0.0
 20
-34.92500000000001
 30
0.0
  0
POINT
  5
800
  8
DEFPOINTS
 62
     0
 10
35.05
 20
-34.42500000000001
 30
0.0
  0
POINT
  5
801
  8
DEFPOINTS
 62
     0
 10
35.05
 20
-73.15665109041375
 30
0.0
  0
ENDBLK
  5
803
  8
0
  0
BLOCK
  8
0
  2
*D8
 70
     1
 10
0.0
 20
0.0
 30
0.0
  3
*D8
  1

  0
LINE
  5
808
  8
SK2
 62
     0
 10
0.0
 20
35.54999999999998
 30
0.0
 11
0.0
 21
63.71215670356074
 31
0.0
  0
LINE
  5
809
  8
SK2
 62
     0
 10
254.0
 20
27.42529999999999
 30
0.0
 11
254.0
 21
63.71215670356074
 31
0.0
  0
LINE
  5
80A
  8
SK2
 62
     0
 10
2.5
 20
62.46215670356074
 30
0.0
 11
251.5
 21
62.46215670356074
 31
0.0
  0
SOLID
  5
80B
  8
SK2
 62
     0
 10
2.5
 20
62.8788233702274
 30
0.0
 11
2.5
 21
62.04549003689407
 31
0.0
 12
0.0
 22
62.46215670356074
 32
0.0
 13
0.0
 23
62.46215670356074
 33
0.0
  0
SOLID
  5
80C
  8
SK2
 62
     0
 10
251.5
 20
62.04549003689407
 30
0.0
 11
251.5
 21
62.8788233702274
 31
0.0
 12
254.0
 22
62.46215670356074
 32
0.0
 13
254.0
 23
62.46215670356074
 33
0.0
  0
TEXT
  5
80D
  8
SK2
  6
CONTINUOUS
 62
     0
 10
123.6666666666667
 20
63.08715670356074
 30
0.0
 40
2.5
  1
254
  0
POINT
  5
80E
  8
DEFPOINTS
 62
     0
 10
0.0
 20
34.92499999999998
 30
0.0
  0
POINT
  5
80F
  8
DEFPOINTS
 62
     0
 10
254.0
 20
26.80029999999999
 30
0.0
  0
POINT
  5
810
  8
DEFPOINTS
 62
     0
 10
254.0
 20
62.46215670356074
 30
0.0
  0
ENDBLK
  5
812
  8
0
  0
BLOCK
  8
0
  2
*D10
 70
     1
 10
0.0
 20
0.0
 30
0.0
  3
*D10
  1

  0
LINE
  5
F6F
  8
SK2
 62
     0
 10
253.625
 20
27.80029999999999
 30
0.0
 11
301.2449924291873
 21
27.80029999999999
 31
0.0
  0
LINE
  5
F70
  8
SK2
 62
     0
 10
253.625
 20
-27.80029999999999
 30
0.0
 11
301.2449924291873
 21
-27.8003
 31
0.0
  0
LINE
  5
F71
  8
SK2
 62
     0
 10
299.9949924291873
 20
25.30029999999999
 30
0.0
 11
299.9949924291873
 21
-25.3003
 31
0.0
  0
SOLID
  5
F72
  8
SK2
 62
     0
 10
300.411659095854
 20
25.30029999999999
 30
0.0
 11
299.5783257625206
 21
25.30029999999999
 31
0.0
 12
299.9949924291873
 22
27.80029999999999
 32
0.0
 13
299.9949924291873
 23
27.80029999999999
 33
0.0
  0
SOLID
  5
F73
  8
SK2
 62
     0
 10
299.5783257625206
 20
-25.3003
 30
0.0
 11
300.411659095854
 21
-25.3003
 31
0.0
 12
299.9949924291873
 22
-27.8003
 32
0.0
 13
299.9949924291873
 23
-27.8003
 33
0.0
  0
TEXT
  5
F74
  8
SK2
  6
CONTINUOUS
 62
     0
 10
299.3699924291873
 20
-3.75
 30
0.0
 40
2.5
  1
55.6
 50
90.0
  0
POINT
  5
F75
  8
DEFPOINTS
 62
     0
 10
253.0
 20
27.80029999999999
 30
0.0
  0
POINT
  5
F76
  8
DEFPOINTS
 62
     0
 10
253.0
 20
-27.80029999999999
 30
0.0
  0
POINT
  5
F77
  8
DEFPOINTS
 62
     0
 10
299.9949924291873
 20
-27.8003
 30
0.0
  0
ENDBLK
  5
F79
  8
0
  0
BLOCK
  8
0
  2
*D11
 70
     1
 10
0.0
 20
0.0
 30
0.0
  3
*D11
  1

  0
LINE
  5
F7E
  8
SK2
 62
     0
 10
270.625
 20
12.69999999999999
 30
0.0
 11
292.5047291998209
 21
12.69999999999999
 31
0.0
  0
LINE
  5
F7F
  8
SK2
 62
     0
 10
270.625
 20
-12.69999999999999
 30
0.0
 11
292.5047291998209
 21
-12.69999999999999
 31
0.0
  0
LINE
  5
F80
  8
SK2
 62
     0
 10
291.2547291998209
 20
10.19999999999999
 30
0.0
 11
291.2547291998209
 21
-10.19999999999999
 31
0.0
  0
SOLID
  5
F81
  8
SK2
 62
     0
 10
291.6713958664876
 20
10.19999999999999
 30
0.0
 11
290.8380625331542
 21
10.19999999999999
 31
0.0
 12
291.2547291998209
 22
12.69999999999999
 32
0.0
 13
291.2547291998209
 23
12.69999999999999
 33
0.0
  0
SOLID
  5
F82
  8
SK2
 62
     0
 10
290.8380625331542
 20
-10.19999999999999
 30
0.0
 11
291.6713958664876
 21
-10.19999999999999
 31
0.0
 12
291.2547291998209
 22
-12.69999999999999
 32
0.0
 13
291.2547291998209
 23
-12.69999999999999
 33
0.0
  0
TEXT
  5
F83
  8
SK2
  6
CONTINUOUS
 62
     0
 10
290.6297291998209
 20
-3.75
 30
0.0
 40
2.5
  1
25.4
 50
90.0
  0
POINT
  5
F84
  8
DEFPOINTS
 62
     0
 10
270.0
 20
12.69999999999999
 30
0.0
  0
POINT
  5
F85
  8
DEFPOINTS
 62
     0
 10
270.0
 20
-12.69999999999999
 30
0.0
  0
POINT
  5
F86
  8
DEFPOINTS
 62
     0
 10
291.2547291998209
 20
-12.69999999999999
 30
0.0
  0
ENDBLK
  5
F88
  8
0
  0
ENDSEC
  0
SECTION
  2
ENTITIES
  0
LINE
  5
685
  8
SK1
 10
0.0
 20
34.92499999999998
 30
0.0
 11
-99.6319088344
 21
20.3952133832
 31
0.0
  0
LINE
  5
686
  8
SK1
 10
-99.6319088344
 20
-20.3952133832
 30
0.0
 11
0.0
 21
-34.92500000000001
 31
0.0
  0
ARC
  5
68D
  8
SK1
 10
-99.3
 20
18.1192879614
 30
0.0
 40
2.299999999999995
 50
98.29722000000018
 51
180.0
  0
ARC
  5
68E
  8
SK1
 10
-99.3
 20
-18.1192879614
 30
0.0
 40
2.299999999999995
 50
180.0
 51
261.7027799999998
  0
LINE
  5
6F6
  8
SK1
 10
-101.6
 20
0.0
 30
0.0
 11
-101.6
 21
-18.1192879614
 31
0.0
  0
LINE
  5
6F7
  8
SK1
 10
-101.6
 20
18.1192879614
 30
0.0
 11
-101.6
 21
0.0
 31
0.0
  0
LINE
  5
71A
  8
SK3
 10
-99.5215390309
 20
-13.10000000000002
 30
0.0
 11
-99.5215390309
 21
13.09999999999999
 31
0.0
  0
LINE
  5
71B
  8
SK3
 10
-95.25
 20
-13.10000000000002
 30
0.0
 11
-95.25
 21
13.09999999999999
 31
0.0
  0
LINE
  5
72A
  8
SK3
 10
-101.6
 20
-14.30000000000001
 30
0.0
 11
-99.5215390309
 21
-13.10000000000002
 31
0.0
  0
LINE
  5
72B
  8
SK3
 10
-99.5215390309
 20
13.09999999999999
 30
0.0
 11
-101.6
 21
14.3
 31
0.0
  0
LINE
  5
72C
  8
SK3
 10
-99.5215390309
 20
-13.10000000000002
 30
0.0
 11
-95.25
 21
-13.10000000000002
 31
0.0
  0
LINE
  5
72D
  8
SK3
 10
-95.25
 20
13.09999999999999
 30
0.0
 11
-99.5215390309
 21
13.09999999999999
 31
0.0
  0
LINE
  5
72E
  8
SK3
 10
-95.25
 20
-11.09980000000002
 30
0.0
 11
-5.249999999999986
 21
-11.09980000000002
 31
0.0
  0
LINE
  5
72F
  8
SK3
 10
-5.250000000000001
 20
11.09979999999999
 30
0.0
 11
-95.25
 21
11.09979999999999
 31
0.0
  0
LINE
  5
760
  8
SK3
 10
-57.1
 20
12.69999999999999
 30
0.0
 11
-95.25
 21
12.69999999999999
 31
0.0
  0
LINE
  5
761
  8
SK3
 10
-95.25
 20
-12.69999999999999
 30
0.0
 11
-57.1
 21
-12.69999999999999
 31
0.0
  0
LINE
  5
774
  8
SK3
 10
-57.1
 20
12.69999999999999
 30
0.0
 11
-57.1
 21
-12.69999999999999
 31
0.0
  0
LINE
  5
777
  8
SK4
 10
0.0
 20
0.0
 30
0.0
 11
-101.6
 21
0.0
 31
0.0
  0
LINE
  5
779
  8
4
 10
0.0
 20
0.0
 30
0.0
 11
254.0
 21
0.0
 31
0.0
  0
INSERT
  5
77B
  8
SK6
  2
*U2
 10
-44.10380399683656
 20
-23.39313954296377
 30
0.0
  0
INSERT
  5
78D
  8
SK6
  2
*U5
 10
17.55665382414153
 20
-2.560320993650734
 30
0.0
  0
LINE
  5
793
  8
0
 10
3.0
 20
3.0
 30
0.0
 11
-3.0
 21
-3.0
 31
0.0
  0
LINE
  5
794
  8
0
 10
-3.0
 20
3.0
 30
0.0
 11
3.0
 21
-3.0
 31
0.0
  0
CIRCLE
  5
795
  8
0
 10
0.0
 20
0.0
 30
0.0
 40
2.5
  0
LINE
  5
796
  8
0
 10
257.0
 20
-3.0
 30
0.0
 11
251.0
 21
3.0
 31
0.0
  0
CIRCLE
  5
797
  8
0
 10
254.0
 20
0.0
 30
0.0
 40
2.5
  0
LINE
  5
798
  8
0
 10
251.0
 20
-3.0
 30
0.0
 11
257.0
 21
3.0
 31
0.0
  0
LINE
  5
799
  8
NOCUT
 10
0.7999999999999972
 20
34.62500000000001
 30
0.0
 11
0.2999999999999972
 21
34.62500000000001
 31
0.0
  0
LINE
  5
79B
  8
NOCUT
 10
35.05
 20
34.42499999999999
 30
0.0
 11
34.55
 21
34.92499999999999
 31
0.0
  0
LINE
  5
79C
  8
NOCUT
 10
0.2999999999999972
 20
34.62500000000001
 30
0.0
 11
0.0
 21
34.92499999999999
 31
0.0
  0
LINE
  5
79D
  8
NOCUT
 10
34.55
 20
34.92499999999999
 30
0.0
 11
20.05
 21
34.92499999999999
 31
0.0
  0
ARC
  5
79E
  8
NOCUT
 10
0.7999999999999972
 20
35.62500000000001
 30
0.0
 40
1.0
 50
270.0
 51
314.4270040008
  0
ARC
  5
79F
  8
NOCUT
 10
20.05
 20
35.92499999999999
 30
0.0
 40
1.0
 50
180.0
 51
270.0
  0
LINE
  5
7A0
  8
NOCUT
 10
12.55499999999999
 20
45.64499999999999
 30
0.0
 11
9.704999999999998
 21
45.64499999999999
 31
0.0
  0
ARC
  5
7A1
  8
NOCUT
 10
12.55499999999999
 20
46.14499999999999
 30
0.0
 40
0.5
 50
270.0
 51
0.0
  0
ARC
  5
7A2
  8
NOCUT
 10
9.704999999999998
 20
46.14499999999999
 30
0.0
 40
0.5
 50
180.0
 51
270.0
  0
ARC
  5
7A3
  8
NOCUT
 10
2.299999999999997
 20
48.4125
 30
0.0
 40
0.7999999999999972
 50
90.0
 51
180.0
  0
ARC
  5
7A4
  8
NOCUT
 10
18.24999999999999
 20
48.4125
 30
0.0
 40
0.799999999999983
 50
0.0
 51
90.0
  0
LINE
  5
7A5
  8
NOCUT
 10
9.204999999999998
 20
46.43919780459999
 30
0.0
 11
7.603833230999996
 21
49.21250000000001
 31
0.0
  0
LINE
  5
7A6
  8
NOCUT
 10
14.65616676910001
 20
49.21250000000001
 30
0.0
 11
13.05499999999999
 21
46.43919780459999
 31
0.0
  0
LINE
  5
7A7
  8
NOCUT
 10
18.24999999999999
 20
49.21250000000001
 30
0.0
 11
14.65616676910001
 21
49.21250000000001
 31
0.0
  0
LINE
  5
7A8
  8
NOCUT
 10
7.603833230999996
 20
49.21250000000001
 30
0.0
 11
2.299999999999997
 21
49.21250000000001
 31
0.0
  0
LINE
  5
7AC
  8
NOCUT
 10
1.5
 20
48.4125
 30
0.0
 11
1.499999999999929
 21
34.91085715714565
 31
0.0
  0
LINE
  5
7AD
  8
NOCUT
 10
19.04999999999997
 20
48.4125
 30
0.0
 11
19.05
 21
35.92499999999999
 31
0.0
  0
LINE
  5
7AE
  8
NOCUT
 10
9.204999999999998
 20
46.43919780459999
 30
0.0
 11
9.204999999999998
 21
46.14499999999999
 31
0.0
  0
LINE
  5
7AF
  8
NOCUT
 10
13.05499999999999
 20
46.43919780459999
 30
0.0
 11
13.05499999999999
 21
46.14499999999999
 31
0.0
  0
DIMENSION
  5
7E6
  8
SK2
  2
*D6
 10
309.3483963132592
 20
-34.92500000000003
 30
0.0
 11
307.4733963132592
 21
-0.0000000000000213
 31
0.0
 70
    32
  3
ISO-25
 13
34.5
 23
34.92499999999998
 33
0.0
 14
34.5
 24
-34.92500000000001
 34
0.0
 50
90.0
1001
ACAD
1000
DSTYLE
1002
{
1070
   287
1070
     5
1070
   271
1070
     3
1070
   272
1070
     3
1070
   279
1070
     2
1002
}
  0
DIMENSION
  5
7F5
  8
SK2
  2
*D7
 10
35.05
 20
-73.15665109041375
 30
0.0
 11
17.525
 21
-71.28165109041375
 31
0.0
 70
    32
  3
ISO-25
 13
0.0
 23
-34.92500000000001
 33
0.0
 14
35.05
 24
-34.42500000000001
 34
0.0
1001
ACAD
1000
DSTYLE
1002
{
1070
   287
1070
     5
1070
   271
1070
     3
1070
   272
1070
     3
1070
   279
1070
     2
1002
}
  0
DIMENSION
  5
804
  8
SK2
  2
*D8
 10
254.0
 20
62.46215670356074
 30
0.0
 11
127.0
 21
64.33715670356074
 31
0.0
 70
    32
  3
ISO-25
 13
0.0
 23
34.92499999999998
 33
0.0
 14
254.0
 24
26.80029999999999
 34
0.0
1001
ACAD
1000
DSTYLE
1002
{
1070
   287
1070
     5
1070
   271
1070
     3
1070
   272
1070
     3
1070
   279
1070
     2
1002
}
  0
LINE
  5
8BF
  8
NOCUT
 10
0.0
 20
34.92499999999999
 30
0.0
 11
0.0
 21
0.0
 31
0.0
  0
LINE
  5
8C0
  8
NOCUT
 10
0.0
 20
0.0
 30
0.0
 11
254.0
 21
0.0
 31
0.0
  0
INSERT
  5
A17
  8
SK6
  2
_FILLED
 10
-20.78186483605847
 20
-31.89428358495073
 30
0.0
 41
3.5
 42
3.5
 43
3.5
 50
52.86965044919886
  0
POLYLINE
  5
A18
  8
SK6
 66
     1
 10
0.0
 20
0.0
 30
0.0
  0
VERTEX
  5
2034
  8
SK6
 10
-22.89457117648658
 20
-34.68470862768434
 30
0.0
  0
VERTEX
  5
2035
  8
SK6
 10
-48.02596493475846
 20
-67.87780752645074
 30
0.0
  0
VERTEX
  5
2036
  8
SK6
 10
-49.90096493475846
 20
-66.12780752645074
 30
0.0
  0
VERTEX
  5
2037
  8
SK6
 10
-53.40096493475846
 20
-66.12780752645074
 30
0.0
  0
SEQEND
  5
21ED
  8
SK6
  0
ARC
  5
AC7
  8
1
 10
20.04999999999998
 20
35.92499999999998
 30
0.0
 40
1.0
 50
180.0
 51
270.0
  0
ARC
  5
AC9
  8
1
 10
20.04999999999998
 20
-35.92500000000001
 30
0.0
 40
1.0
 50
90.0
 51
180.0
  0
ARC
  5
ACA
  8
1
 10
1.299999999999983
 20
35.125
 30
0.0
 40
0.5
 50
270.0
 51
293.5781784781994
  0
ARC
  5
ACB
  8
1
 10
1.299999999999983
 20
-35.125
 30
0.0
 40
0.500000000000009
 50
66.42182152180017
 51
90.0
  0
LINE
  5
ACC
  8
1
 10
34.55
 20
34.92499999999998
 30
0.0
 11
20.04999999999998
 21
34.92499999999998
 31
0.0
  0
LINE
  5
ACE
  8
1
 10
20.04999999999998
 20
-34.92500000000001
 30
0.0
 11
34.55
 21
-34.92500000000001
 31
0.0
  0
LINE
  5
ACF
  8
1
 10
0.0
 20
-34.92500000000001
 30
0.0
 11
0.2999999999999829
 21
-34.625
 31
0.0
  0
LINE
  5
AD0
  8
1
 10
0.2999999999999829
 20
34.625
 30
0.0
 11
0.0
 21
34.92499999999998
 31
0.0
  0
LINE
  5
AD3
  8
1
 10
34.55
 20
-34.92500000000001
 30
0.0
 11
35.05
 21
-34.42500000000001
 31
0.0
  0
LINE
  5
AD4
  8
1
 10
35.05
 20
34.42499999999998
 30
0.0
 11
34.55
 21
34.92499999999998
 31
0.0
  0
LINE
  5
AD5
  8
1
 10
1.299999999999983
 20
34.625
 30
0.0
 11
0.2999999999999829
 21
34.625
 31
0.0
  0
LINE
  5
AD6
  8
1
 10
0.2999999999999829
 20
-34.625
 30
0.0
 11
1.299999999999983
 21
-34.625
 31
0.0
  0
LINE
  5
ADB
  8
1
 10
14.65616694409999
 20
-47.282880439
 30
0.0
 11
14.68806954659999
 21
-47.29184187660002
 31
0.0
  0
LINE
  5
ADC
  8
1
 10
14.6561667691
 20
47.30816788690001
 30
0.0
 11
14.6561667691
 21
-47.2826327523
 31
0.0
  0
LINE
  5
ADD
  8
1
 10
14.7615962207
 20
47.3314147463
 30
0.0
 11
14.6561668942
 21
47.30816788690001
 31
0.0
  0
LINE
  5
ADE
  8
1
 10
18.25
 20
47.3314147463
 30
0.0
 11
14.7615962207
 21
47.3314147463
 31
0.0
  0
LINE
  5
ADF
  8
1
 10
14.68806954659999
 20
-47.29184187660002
 30
0.0
 11
18.25
 21
-47.29184187660002
 31
0.0
  0
LINE
  5
AE0
  8
1
 10
7.498403779400007
 20
47.3314147463
 30
0.0
 11
4.006414746699988
 21
47.3314147463
 31
0.0
  0
LINE
  5
AE1
  8
1
 10
7.603833105900009
 20
47.30816788690001
 30
0.0
 11
7.498403779400007
 21
47.3314147463
 31
0.0
  0
LINE
  5
AE2
  8
1
 10
7.603833230899994
 20
47.30844201400001
 30
0.0
 11
7.603833230899994
 21
-47.28288044160001
 31
0.0
  0
LINE
  5
AE3
  8
1
 10
7.571930453299984
 20
-47.29184187660002
 30
0.0
 11
7.603833055899997
 21
-47.282880439
 31
0.0
  0
LINE
  5
AE4
  8
1
 10
4.040356993800003
 20
-47.29184187660002
 30
0.0
 11
7.571930453299984
 21
-47.29184187660002
 31
0.0
  0
LINE
  5
AE5
  8
1
 10
2.300001405499984
 20
-46.74795901499999
 30
0.0
 11
4.040356993800003
 21
-47.29184189310001
 31
0.0
  0
LINE
  5
AE6
  8
1
 10
4.006414746699988
 20
47.33141476029999
 30
0.0
 11
2.299999765199999
 21
46.80267569
 31
0.0
  0
ARC
  5
AE7
  8
1
 10
2.557435939599998
 20
-45.59355264690001
 30
0.0
 40
1.184053137363273
 50
207.7147598986998
 51
257.3157095984005
  0
LINE
  5
AE8
  8
1
 10
1.50922466130001
 20
-46.14422037630001
 30
0.0
 11
1.5
 21
-46.01377680920001
 31
0.0
  0
LINE
  5
AE9
  8
1
 10
1.5
 20
-46.01377680920001
 30
0.0
 11
1.5
 21
46.01377680919998
 31
0.0
  0
ARC
  5
AEA
  8
1
 10
2.572884962100005
 20
45.72649004249999
 30
0.0
 40
1.111555736593689
 50
104.3436511600003
 51
164.8417645594994
  0
LINE
  5
AEB
  8
1
 10
9.204999995999998
 20
44.41431970880001
 30
0.0
 11
7.60383322749999
 21
47.3081678945
 31
0.0
  0
LINE
  5
AEC
  8
1
 10
9.204999999999984
 20
44.4143196734
 30
0.0
 11
9.204999999999984
 21
-44.387299867
 31
0.0
  0
LINE
  5
AED
  8
1
 10
7.603833226399985
 20
-47.28288044990001
 30
0.0
 11
9.2049999921
 21
-44.38762367050001
 31
0.0
  0
LINE
  5
AEE
  8
1
 10
14.65616677259999
 20
47.3081678945
 30
0.0
 11
13.05500000399999
 21
44.41431970880001
 31
0.0
  0
LINE
  5
AEF
  8
1
 10
13.05500000800001
 20
-44.38762367050001
 30
0.0
 11
14.65616677360001
 21
-47.28288044990001
 31
0.0
  0
LINE
  5
AF0
  8
1
 10
13.05500000000001
 20
44.41459195280001
 30
0.0
 11
13.05500000000001
 21
-44.38762365650001
 31
0.0
  0
ARC
  5
AF1
  8
1
 10
17.92302328310001
 20
46.41895288640001
 30
0.0
 40
1.127359624435328
 50
1.493363825500091
 51
43.53750291790048
  0
LINE
  5
AF2
  8
1
 10
19.04999999999998
 20
46.44833319130001
 30
0.0
 11
19.04999999999998
 21
-46.44833319130001
 31
0.0
  0
ARC
  5
AF3
  8
1
 10
17.91824827779999
 20
-46.4157978575
 30
0.0
 40
1.1322192847622
 50
319.2464850235001
 51
358.3533278529993
  0
ARC
  5
AF4
  8
1
 10
18.2616113983
 20
-46.25791326929999
 30
0.0
 40
1.033993805426882
 50
269.3565743835002
 51
299.8289453780985
  0
ARC
  5
AF5
  8
1
 10
18.2610591033
 20
46.41902767409999
 30
0.0
 40
0.9124540938653742
 50
58.31881226410037
 51
90.69445187719943
  0
ARC
  5
AF6
  8
1
 10
12.5158206966
 20
-44.1073442162
 30
0.0
 40
0.5397579791454132
 50
357.3466499737992
 51
85.83742202690154
  0
ARC
  5
AF7
  8
1
 10
12.54139279200001
 20
44.09944295630001
 30
0.0
 40
0.4858431210597904
 50
271.6049163143007
 51
333.441972537701
  0
POLYLINE
  5
AF8
  8
1
 66
     1
 10
0.0
 20
0.0
 30
0.0
  0
VERTEX
  5
2038
  8
1
 10
13.05500000000001
 20
44.14662312639999
 30
0.0
  0
VERTEX
  5
2039
  8
1
 10
13.03542892280001
 20
44.01594229719998
 30
0.0
  0
VERTEX
  5
203A
  8
1
 10
12.97787844319998
 20
43.88571451269999
 30
0.0
  0
SEQEND
  5
21EC
  8
1
  0
ARC
  5
AF9
  8
1
 10
9.744214343399989
 20
-44.10737531749999
 30
0.0
 40
0.5397915428070933
 50
94.16604783349855
 51
182.6498801657025
  0
POLYLINE
  5
AFA
  8
1
 66
     1
 10
0.0
 20
0.0
 30
0.0
  0
VERTEX
  5
203B
  8
1
 10
9.280099379399985
 20
43.88913247470001
 30
0.0
  0
VERTEX
  5
203C
  8
1
 10
9.224055884099982
 20
44.0177026321
 30
0.0
  0
VERTEX
  5
203D
  8
1
 10
9.204999999999984
 20
44.14662312639999
 30
0.0
  0
SEQEND
  5
21EB
  8
1
  0
ARC
  5
AFB
  8
1
 10
9.721350266000002
 20
44.10422581969999
 30
0.0
 40
0.4907078648052702
 50
206.0244317763009
 51
268.0905652222996
  0
LINE
  5
AFC
  8
1
 10
12.55500000000001
 20
43.613790424
 30
0.0
 11
9.704999999999984
 21
43.613790424
 31
0.0
  0
LINE
  5
AFD
  8
1
 10
9.704999999999984
 20
-43.5690100651
 30
0.0
 11
12.55500000000001
 21
-43.5690100651
 31
0.0
  0
LINE
  5
AFF
  8
1
 10
34.55
 20
-34.92500000000001
 30
0.0
 11
34.55
 21
34.92499999999998
 31
0.0
  0
LINE
  5
B00
  8
1
 10
0.2999999999999829
 20
34.625
 30
0.0
 11
0.2999999999999829
 21
-34.625
 31
0.0
  0
LINE
  5
B01
  8
1
 10
0.0
 20
34.92499999999998
 30
0.0
 11
0.0
 21
-34.92500000000001
 31
0.0
  0
LINE
  5
B02
  8
1
 10
35.05
 20
34.42499999999998
 30
0.0
 11
35.05
 21
-34.42500000000001
 31
0.0
  0
LINE
  5
B04
  8
1
 10
14.68806954670001
 20
-47.29184187660002
 30
0.0
 11
14.65616694420001
 21
-47.282880439
 31
0.0
  0
LINE
  5
B1A
  8
3
 10
1.500000000000004
 20
37.72
 30
0.0
 11
19.04999999999998
 21
37.72
 31
0.0
  0
LINE
  5
B3B
  8
3
 10
1.5
 20
-35.30000000000001
 30
0.0
 11
19.26937525020018
 21
-35.30000000000001
 31
0.0
  0
LINE
  5
B42
  8
3
 10
26.97499999999999
 20
28.32499999999999
 30
0.0
 11
33.32499999999999
 21
28.32499999999999
 31
0.0
  0
LINE
  5
B43
  8
3
 10
20.625
 20
28.32499999999999
 30
0.0
 11
26.97499999999999
 21
28.32499999999999
 31
0.0
  0
LINE
  5
B44
  8
3
 10
11.375
 20
37.31999999999999
 30
0.0
 11
16.125
 21
37.31999999999999
 31
0.0
  0
LINE
  5
B45
  8
3
 10
6.625
 20
37.31999999999999
 30
0.0
 11
11.375
 21
37.31999999999999
 31
0.0
  0
LINE
  5
B55
  8
3
 10
20.625
 20
28.32499999999999
 30
0.0
 11
26.97499999999999
 21
24.50953506919998
 31
0.0
  0
LINE
  5
B56
  8
3
 10
26.97499999999999
 20
24.50953506919998
 30
0.0
 11
33.32499999999999
 21
28.32499999999999
 31
0.0
  0
LINE
  5
B57
  8
3
 10
20.625
 20
34.92499999999998
 30
0.0
 11
20.625
 21
28.32499999999999
 31
0.0
  0
LINE
  5
B58
  8
3
 10
33.32499999999999
 20
28.32499999999999
 30
0.0
 11
33.32499999999999
 21
34.92499999999998
 31
0.0
  0
LINE
  5
B59
  8
3
 10
6.625
 20
37.72
 30
0.0
 11
6.625
 21
37.31999999999999
 31
0.0
  0
LINE
  5
B5A
  8
3
 10
16.125
 20
37.31999999999999
 30
0.0
 11
16.125
 21
37.72
 31
0.0
  0
LINE
  5
B5B
  8
1
 10
20.04999999999998
 20
-34.92500000000001
 30
0.0
 11
20.04999999999998
 21
34.92499999999998
 31
0.0
  0
LINE
  5
B5C
  8
1
 10
1.299999999999983
 20
-34.625
 30
0.0
 11
1.299999999999983
 21
34.625
 31
0.0
  0
LINE
  5
B5F
  8
1
 10
12.55500000000001
 20
-43.00413183130001
 30
0.0
 11
12.55500000000001
 21
42.79577481850001
 31
0.0
  0
LINE
  5
B60
  8
1
 10
9.704999999999984
 20
-43.00421493109999
 30
0.0
 11
9.704999999999984
 21
42.7957705776
 31
0.0
  0
LINE
  5
B62
  8
1
 10
18.25
 20
47.3314147463
 30
0.0
 11
18.25
 21
-47.29184187660002
 31
0.0
  0
LINE
  5
B64
  8
1
 10
2.299999999999983
 20
-46.74795854910002
 30
0.0
 11
2.299999999999983
 21
46.80267576719999
 31
0.0
  0
LINE
  5
CD6
  8
1
 10
254.0285053027
 20
26.20931000000002
 30
0.0
 11
254.0
 21
26.20931000000002
 31
0.0
  0
LINE
  5
CD8
  8
1
 10
254.0
 20
16.67669000000001
 30
0.0
 11
254.0285053027
 21
16.67669000000001
 31
0.0
  0
LINE
  5
CDA
  8
1
 10
254.0
 20
-26.20931000000002
 30
0.0
 11
254.0285053027
 21
-26.20931000000002
 31
0.0
  0
ARC
  5
CF4
  8
1
 10
37.05000000000001
 20
29.80029999999999
 30
0.0
 40
2.0
 50
180.0
 51
270.0
  0
ARC
  5
CF5
  8
1
 10
37.05000000000001
 20
-29.80029999999999
 30
0.0
 40
2.0
 50
90.0
 51
180.0
  0
ARC
  5
CF6
  8
1
 10
253.0
 20
-26.80029999999999
 30
0.0
 40
1.0
 50
270.0
 51
0.0
  0
ARC
  5
CF7
  8
1
 10
253.0
 20
26.80029999999999
 30
0.0
 40
1.0
 50
0.0
 51
90.0
  0
LINE
  5
CF8
  8
1
 10
37.05000000000001
 20
-27.80029999999999
 30
0.0
 11
253.0
 21
-27.80029999999999
 31
0.0
  0
LINE
  5
CF9
  8
1
 10
253.0
 20
27.80029999999999
 30
0.0
 11
37.05000000000001
 21
27.80029999999999
 31
0.0
  0
LINE
  5
D04
  8
1
 10
242.4226497308
 20
-1.0
 30
0.0
 11
241.8452994616
 21
0.0
 31
0.0
  0
LINE
  5
D05
  8
1
 10
243.5773502692
 20
-1.0
 30
0.0
 11
242.4226497308
 21
-1.0
 31
0.0
  0
LINE
  5
D06
  8
1
 10
243.5773502692
 20
-1.0
 30
0.0
 11
244.1547005384
 21
0.0
 31
0.0
  0
LINE
  5
D07
  8
1
 10
243.5773502692
 20
1.0
 30
0.0
 11
244.1547005384
 21
0.0
 31
0.0
  0
LINE
  5
D08
  8
1
 10
243.5773502692
 20
1.0
 30
0.0
 11
242.4226497308
 21
1.0
 31
0.0
  0
CIRCLE
  5
D09
  8
1
 10
243.0
 20
0.0
 30
0.0
 40
1.610000000000127
  0
LINE
  5
D0A
  8
1
 10
242.4226497308
 20
1.0
 30
0.0
 11
241.8452994616
 21
0.0
 31
0.0
  0
LINE
  5
D37
  8
1
 10
254.0
 20
0.0
 30
0.0
 11
254.0
 21
26.80029999999999
 31
0.0
  0
LINE
  5
D38
  8
1
 10
254.0
 20
-26.80029999999999
 30
0.0
 11
254.0
 21
0.0
 31
0.0
  0
CIRCLE
  5
D39
  8
1
 10
243.0
 20
0.0
 30
0.0
 40
2.250000000000171
  0
CIRCLE
  5
D3A
  8
1
 10
243.0
 20
0.0
 30
0.0
 40
2.124999999999972
  0
POLYLINE
  5
D40
  8
3
 66
     1
 10
0.0
 20
0.0
 30
0.0
  0
VERTEX
  5
203E
  8
3
 10
245.0
 20
16.9333947202
 30
0.0
  0
VERTEX
  5
203F
  8
3
 10
244.8793852415999
 20
16.59137457690002
 30
0.0
  0
VERTEX
  5
2040
  8
3
 10
244.5320888863
 20
16.29060711049999
 30
0.0
  0
VERTEX
  5
2041
  8
3
 10
244.0
 20
16.0673693164
 30
0.0
  0
VERTEX
  5
2042
  8
3
 10
243.3472963553
 20
15.94858696720001
 30
0.0
  0
VERTEX
  5
2043
  8
3
 10
242.6527036447
 20
15.94858696720001
 30
0.0
  0
VERTEX
  5
2044
  8
3
 10
242.0
 20
16.0673693164
 30
0.0
  0
VERTEX
  5
2045
  8
3
 10
241.4679111138
 20
16.29060711049999
 30
0.0
  0
VERTEX
  5
2046
  8
3
 10
241.1206147584
 20
16.59137457690002
 30
0.0
  0
VERTEX
  5
2047
  8
3
 10
241.0
 20
16.9333947202
 30
0.0
  0
VERTEX
  5
2048
  8
3
 10
241.1206147584
 20
17.27541486360002
 30
0.0
  0
VERTEX
  5
2049
  8
3
 10
241.4679111138
 20
17.57618232990001
 30
0.0
  0
VERTEX
  5
204A
  8
3
 10
242.0
 20
17.79942012399999
 30
0.0
  0
VERTEX
  5
204B
  8
3
 10
242.6527036447
 20
17.91820247319998
 30
0.0
  0
VERTEX
  5
204C
  8
3
 10
243.3472963553
 20
17.91820247319998
 30
0.0
  0
VERTEX
  5
204D
  8
3
 10
244.0
 20
17.79942012399999
 30
0.0
  0
VERTEX
  5
204E
  8
3
 10
244.5320888863
 20
17.57618232990001
 30
0.0
  0
VERTEX
  5
204F
  8
3
 10
244.8793852415999
 20
17.27541486360002
 30
0.0
  0
VERTEX
  5
2050
  8
3
 10
245.0
 20
16.9333947202
 30
0.0
  0
SEQEND
  5
21EA
  8
3
  0
POLYLINE
  5
D43
  8
3
 66
     1
 10
0.0
 20
0.0
 30
0.0
  0
VERTEX
  5
2051
  8
3
 10
244.25
 20
16.28387566739997
 30
0.0
  0
VERTEX
  5
2052
  8
3
 10
244.1548494157
 20
16.04469852220001
 30
0.0
  0
VERTEX
  5
2053
  8
3
 10
243.8838834765
 20
15.84193392919997
 30
0.0
  0
VERTEX
  5
2054
  8
3
 10
243.4783542905
 20
15.70645095959998
 30
0.0
  0
VERTEX
  5
2055
  8
3
 10
243.0
 20
15.65887566739997
 30
0.0
  0
VERTEX
  5
2056
  8
3
 10
242.5216457096
 20
15.70645095959998
 30
0.0
  0
VERTEX
  5
2057
  8
3
 10
242.1161165235
 20
15.84193392919997
 30
0.0
  0
VERTEX
  5
2058
  8
3
 10
241.8451505844
 20
16.04469852220001
 30
0.0
  0
VERTEX
  5
2059
  8
3
 10
241.75
 20
16.28387566739997
 30
0.0
  0
VERTEX
  5
205A
  8
3
 10
241.8451505844
 20
16.52305281259999
 30
0.0
  0
VERTEX
  5
205B
  8
3
 10
242.1161165235
 20
16.72581740559997
 30
0.0
  0
VERTEX
  5
205C
  8
3
 10
242.5216457096
 20
16.86130037520002
 30
0.0
  0
VERTEX
  5
205D
  8
3
 10
243.0
 20
16.90887566739997
 30
0.0
  0
VERTEX
  5
205E
  8
3
 10
243.4783542905
 20
16.86130037520002
 30
0.0
  0
VERTEX
  5
205F
  8
3
 10
243.8838834765
 20
16.72581740559997
 30
0.0
  0
VERTEX
  5
2060
  8
3
 10
244.1548494157
 20
16.52305281259999
 30
0.0
  0
VERTEX
  5
2061
  8
3
 10
244.25
 20
16.28387566739997
 30
0.0
  0
SEQEND
  5
21E9
  8
3
  0
POLYLINE
  5
D44
  8
3
 66
     1
 10
0.0
 20
0.0
 30
0.0
  0
VERTEX
  5
2062
  8
3
 10
245.0
 20
23.0170788977
 30
0.0
  0
VERTEX
  5
2063
  8
3
 10
244.8793852415999
 20
22.67505875429998
 30
0.0
  0
VERTEX
  5
2064
  8
3
 10
244.5320888863
 20
22.37429128799999
 30
0.0
  0
VERTEX
  5
2065
  8
3
 10
244.0
 20
22.15105349390001
 30
0.0
  0
VERTEX
  5
2066
  8
3
 10
243.3472963553
 20
22.03227114470002
 30
0.0
  0
VERTEX
  5
2067
  8
3
 10
242.6527036447
 20
22.03227114470002
 30
0.0
  0
VERTEX
  5
2068
  8
3
 10
242.0
 20
22.15105349390001
 30
0.0
  0
VERTEX
  5
2069
  8
3
 10
241.4679111138
 20
22.37429128799999
 30
0.0
  0
VERTEX
  5
206A
  8
3
 10
241.1206147584
 20
22.67505875429998
 30
0.0
  0
VERTEX
  5
206B
  8
3
 10
241.0
 20
23.0170788977
 30
0.0
  0
VERTEX
  5
206C
  8
3
 10
241.1206147584
 20
23.35909904099998
 30
0.0
  0
VERTEX
  5
206D
  8
3
 10
241.4679111138
 20
23.65986650740001
 30
0.0
  0
VERTEX
  5
206E
  8
3
 10
242.0
 20
23.8831043015
 30
0.0
  0
VERTEX
  5
206F
  8
3
 10
242.6527036447
 20
24.00188665069999
 30
0.0
  0
VERTEX
  5
2070
  8
3
 10
243.3472963553
 20
24.00188665069999
 30
0.0
  0
VERTEX
  5
2071
  8
3
 10
244.0
 20
23.8831043015
 30
0.0
  0
VERTEX
  5
2072
  8
3
 10
244.5320888863
 20
23.65986650740001
 30
0.0
  0
VERTEX
  5
2073
  8
3
 10
244.8793852415999
 20
23.35909904099998
 30
0.0
  0
VERTEX
  5
2074
  8
3
 10
245.0
 20
23.0170788977
 30
0.0
  0
SEQEND
  5
21E8
  8
3
  0
LINE
  5
D45
  8
3
 10
243.5773502692
 20
21.72022046899997
 30
0.0
 11
242.4226497308
 21
21.72022046899997
 31
0.0
  0
LINE
  5
D46
  8
3
 10
243.5773502692
 20
21.72022046899997
 30
0.0
 11
243.5773502692
 21
23.7120788977
 31
0.0
  0
LINE
  5
D47
  8
3
 10
243.5773502692
 20
21.72022046899997
 30
0.0
 11
244.1547005384
 21
21.22022046899997
 31
0.0
  0
LINE
  5
D48
  8
3
 10
242.4226497308
 20
21.72022046899997
 30
0.0
 11
242.4226497308
 21
23.7120788977
 31
0.0
  0
LINE
  5
D49
  8
3
 10
242.4226497308
 20
21.72022046899997
 30
0.0
 11
241.8452994616
 21
21.22022046899997
 31
0.0
  0
POLYLINE
  5
D4A
  8
3
 66
     1
 10
0.0
 20
0.0
 30
0.0
  0
VERTEX
  5
2075
  8
3
 10
244.61
 20
23.2120788977
 30
0.0
  0
VERTEX
  5
2076
  8
3
 10
244.4874460474
 20
22.90401873460002
 30
0.0
  0
VERTEX
  5
2077
  8
3
 10
244.1384419177
 20
22.64285793879998
 30
0.0
  0
VERTEX
  5
2078
  8
3
 10
243.6161203261
 20
22.468355874
 30
0.0
  0
VERTEX
  5
2079
  8
3
 10
243.0
 20
22.40707889769999
 30
0.0
  0
VERTEX
  5
207A
  8
3
 10
242.3838796739
 20
22.468355874
 30
0.0
  0
VERTEX
  5
207B
  8
3
 10
241.8615580823
 20
22.64285793879998
 30
0.0
  0
VERTEX
  5
207C
  8
3
 10
241.5125539527
 20
22.90401873460002
 30
0.0
  0
VERTEX
  5
207D
  8
3
 10
241.39
 20
23.2120788977
 30
0.0
  0
VERTEX
  5
207E
  8
3
 10
241.5125539527
 20
23.52013906069999
 30
0.0
  0
VERTEX
  5
207F
  8
3
 10
241.8615580823
 20
23.78129985649997
 30
0.0
  0
VERTEX
  5
2080
  8
3
 10
242.3838796739
 20
23.95580192130001
 30
0.0
  0
VERTEX
  5
2081
  8
3
 10
243.0
 20
24.0170788977
 30
0.0
  0
VERTEX
  5
2082
  8
3
 10
243.6161203261
 20
23.95580192130001
 30
0.0
  0
VERTEX
  5
2083
  8
3
 10
244.1384419177
 20
23.78129985649997
 30
0.0
  0
VERTEX
  5
2084
  8
3
 10
244.4874460474
 20
23.52013906069999
 30
0.0
  0
VERTEX
  5
2085
  8
3
 10
244.61
 20
23.2120788977
 30
0.0
  0
SEQEND
  5
21E7
  8
3
  0
LINE
  5
D4B
  8
3
 10
242.4226497308
 20
23.7120788977
 30
0.0
 11
241.8452994616
 21
23.2120788977
 31
0.0
  0
LINE
  5
D4C
  8
3
 10
243.5773502692
 20
23.7120788977
 30
0.0
 11
244.1547005384
 21
23.2120788977
 31
0.0
  0
LINE
  5
D4D
  8
3
 10
243.5773502692
 20
23.7120788977
 30
0.0
 11
242.4226497308
 21
23.7120788977
 31
0.0
  0
LINE
  5
D4E
  8
3
 10
242.4226497308
 20
20.72022046899997
 30
0.0
 11
242.4226497308
 21
21.72022046899997
 31
0.0
  0
LINE
  5
D4F
  8
3
 10
242.4226497308
 20
22.7120788977
 30
0.0
 11
241.8452994616
 21
23.2120788977
 31
0.0
  0
LINE
  5
D50
  8
3
 10
241.8452994616
 20
21.22022046899997
 30
0.0
 11
241.8452994616
 21
23.2120788977
 31
0.0
  0
LINE
  5
D51
  8
3
 10
242.4226497308
 20
20.72022046899997
 30
0.0
 11
241.8452994616
 21
21.22022046899997
 31
0.0
  0
LINE
  5
D52
  8
3
 10
243.5773502692
 20
20.72022046899997
 30
0.0
 11
243.5773502692
 21
21.72022046899997
 31
0.0
  0
LINE
  5
D53
  8
3
 10
243.5773502692
 20
22.7120788977
 30
0.0
 11
244.1547005384
 21
23.2120788977
 31
0.0
  0
LINE
  5
D54
  8
3
 10
244.1547005384
 20
21.22022046899997
 30
0.0
 11
244.1547005384
 21
23.2120788977
 31
0.0
  0
LINE
  5
D55
  8
3
 10
243.5773502692
 20
20.72022046899997
 30
0.0
 11
244.1547005384
 21
21.22022046899997
 31
0.0
  0
LINE
  5
D56
  8
3
 10
243.5773502692
 20
22.7120788977
 30
0.0
 11
242.4226497308
 21
22.7120788977
 31
0.0
  0
LINE
  5
D57
  8
3
 10
243.5773502692
 20
20.72022046899997
 30
0.0
 11
242.4226497308
 21
20.72022046899997
 31
0.0
  0
POLYLINE
  5
D58
  8
3
 66
     1
 10
0.0
 20
0.0
 30
0.0
  0
VERTEX
  5
2086
  8
3
 10
245.0
 20
-16.9333947202
 30
0.0
  0
VERTEX
  5
2087
  8
3
 10
244.8793852415999
 20
-17.27541486350003
 30
0.0
  0
VERTEX
  5
2088
  8
3
 10
244.5320888863
 20
-17.57618232980002
 30
0.0
  0
VERTEX
  5
2089
  8
3
 10
244.0
 20
-17.79942012390001
 30
0.0
  0
VERTEX
  5
208A
  8
3
 10
243.3472963553
 20
-17.91820247319998
 30
0.0
  0
VERTEX
  5
208B
  8
3
 10
242.6527036447
 20
-17.91820247319998
 30
0.0
  0
VERTEX
  5
208C
  8
3
 10
242.0
 20
-17.79942012390001
 30
0.0
  0
VERTEX
  5
208D
  8
3
 10
241.4679111138
 20
-17.57618232980002
 30
0.0
  0
VERTEX
  5
208E
  8
3
 10
241.1206147584
 20
-17.27541486350003
 30
0.0
  0
VERTEX
  5
208F
  8
3
 10
241.0
 20
-16.9333947202
 30
0.0
  0
VERTEX
  5
2090
  8
3
 10
241.1206147584
 20
-16.59137457679998
 30
0.0
  0
VERTEX
  5
2091
  8
3
 10
241.4679111138
 20
-16.29060711049999
 30
0.0
  0
VERTEX
  5
2092
  8
3
 10
242.0
 20
-16.0673693164
 30
0.0
  0
VERTEX
  5
2093
  8
3
 10
242.6527036447
 20
-15.94858696710003
 30
0.0
  0
VERTEX
  5
2094
  8
3
 10
243.3472963553
 20
-15.94858696710003
 30
0.0
  0
VERTEX
  5
2095
  8
3
 10
244.0
 20
-16.0673693164
 30
0.0
  0
VERTEX
  5
2096
  8
3
 10
244.5320888863
 20
-16.29060711049999
 30
0.0
  0
VERTEX
  5
2097
  8
3
 10
244.8793852415999
 20
-16.59137457679998
 30
0.0
  0
VERTEX
  5
2098
  8
3
 10
245.0
 20
-16.9333947202
 30
0.0
  0
SEQEND
  5
21E6
  8
3
  0
POLYLINE
  5
D59
  8
3
 66
     1
 10
0.0
 20
0.0
 30
0.0
  0
VERTEX
  5
2099
  8
3
 10
244.25
 20
-16.28387566729998
 30
0.0
  0
VERTEX
  5
209A
  8
3
 10
244.1548494157
 20
-16.52305281259999
 30
0.0
  0
VERTEX
  5
209B
  8
3
 10
243.8838834765
 20
-16.72581740560003
 30
0.0
  0
VERTEX
  5
209C
  8
3
 10
243.4783542905
 20
-16.86130037510003
 30
0.0
  0
VERTEX
  5
209D
  8
3
 10
243.0
 20
-16.90887566729998
 30
0.0
  0
VERTEX
  5
209E
  8
3
 10
242.5216457096
 20
-16.86130037510003
 30
0.0
  0
VERTEX
  5
209F
  8
3
 10
242.1161165235
 20
-16.72581740560003
 30
0.0
  0
VERTEX
  5
20A0
  8
3
 10
241.8451505844
 20
-16.52305281259999
 30
0.0
  0
VERTEX
  5
20A1
  8
3
 10
241.75
 20
-16.28387566729998
 30
0.0
  0
VERTEX
  5
20A2
  8
3
 10
241.8451505844
 20
-16.04469852210002
 30
0.0
  0
VERTEX
  5
20A3
  8
3
 10
242.1161165235
 20
-15.84193392909998
 30
0.0
  0
VERTEX
  5
20A4
  8
3
 10
242.5216457096
 20
-15.70645095949999
 30
0.0
  0
VERTEX
  5
20A5
  8
3
 10
243.0
 20
-15.65887566729998
 30
0.0
  0
VERTEX
  5
20A6
  8
3
 10
243.4783542905
 20
-15.70645095949999
 30
0.0
  0
VERTEX
  5
20A7
  8
3
 10
243.8838834765
 20
-15.84193392909998
 30
0.0
  0
VERTEX
  5
20A8
  8
3
 10
244.1548494157
 20
-16.04469852210002
 30
0.0
  0
VERTEX
  5
20A9
  8
3
 10
244.25
 20
-16.28387566729998
 30
0.0
  0
SEQEND
  5
21E5
  8
3
  0
POLYLINE
  5
D5A
  8
3
 66
     1
 10
0.0
 20
0.0
 30
0.0
  0
VERTEX
  5
20AA
  8
3
 10
245.0
 20
-23.01707889760002
 30
0.0
  0
VERTEX
  5
20AB
  8
3
 10
244.8793852415999
 20
-23.35909904089999
 30
0.0
  0
VERTEX
  5
20AC
  8
3
 10
244.5320888863
 20
-23.65986650730002
 30
0.0
  0
VERTEX
  5
20AD
  8
3
 10
244.0
 20
-23.88310430140001
 30
0.0
  0
VERTEX
  5
20AE
  8
3
 10
243.3472963553
 20
-24.0018866506
 30
0.0
  0
VERTEX
  5
20AF
  8
3
 10
242.6527036447
 20
-24.0018866506
 30
0.0
  0
VERTEX
  5
20B0
  8
3
 10
242.0
 20
-23.88310430140001
 30
0.0
  0
VERTEX
  5
20B1
  8
3
 10
241.4679111138
 20
-23.65986650730002
 30
0.0
  0
VERTEX
  5
20B2
  8
3
 10
241.1206147584
 20
-23.35909904089999
 30
0.0
  0
VERTEX
  5
20B3
  8
3
 10
241.0
 20
-23.01707889760002
 30
0.0
  0
VERTEX
  5
20B4
  8
3
 10
241.1206147584
 20
-22.67505875429998
 30
0.0
  0
VERTEX
  5
20B5
  8
3
 10
241.4679111138
 20
-22.37429128790001
 30
0.0
  0
VERTEX
  5
20B6
  8
3
 10
242.0
 20
-22.15105349380002
 30
0.0
  0
VERTEX
  5
20B7
  8
3
 10
242.6527036447
 20
-22.03227114460003
 30
0.0
  0
VERTEX
  5
20B8
  8
3
 10
243.3472963553
 20
-22.03227114460003
 30
0.0
  0
VERTEX
  5
20B9
  8
3
 10
244.0
 20
-22.15105349380002
 30
0.0
  0
VERTEX
  5
20BA
  8
3
 10
244.5320888863
 20
-22.37429128790001
 30
0.0
  0
VERTEX
  5
20BB
  8
3
 10
244.8793852415999
 20
-22.67505875429998
 30
0.0
  0
VERTEX
  5
20BC
  8
3
 10
245.0
 20
-23.01707889760002
 30
0.0
  0
SEQEND
  5
21E4
  8
3
  0
LINE
  5
D5B
  8
3
 10
242.4226497308
 20
-21.72022046889998
 30
0.0
 11
241.8452994616
 21
-21.22022046889998
 31
0.0
  0
LINE
  5
D5C
  8
3
 10
242.4226497308
 20
-21.72022046889998
 30
0.0
 11
242.4226497308
 21
-23.71207889760001
 31
0.0
  0
LINE
  5
D5D
  8
3
 10
243.5773502692
 20
-21.72022046889998
 30
0.0
 11
242.4226497308
 21
-21.72022046889998
 31
0.0
  0
LINE
  5
D5E
  8
3
 10
243.5773502692
 20
-21.72022046889998
 30
0.0
 11
243.5773502692
 21
-23.71207889760001
 31
0.0
  0
LINE
  5
D5F
  8
3
 10
243.5773502692
 20
-21.72022046889998
 30
0.0
 11
244.1547005384
 21
-21.22022046889998
 31
0.0
  0
POLYLINE
  5
D60
  8
3
 66
     1
 10
0.0
 20
0.0
 30
0.0
  0
VERTEX
  5
20BD
  8
3
 10
244.61
 20
-23.21207889760001
 30
0.0
  0
VERTEX
  5
20BE
  8
3
 10
244.4874460474
 20
-23.52013906069999
 30
0.0
  0
VERTEX
  5
20BF
  8
3
 10
244.1384419177
 20
-23.78129985650003
 30
0.0
  0
VERTEX
  5
20C0
  8
3
 10
243.6161203261
 20
-23.95580192130001
 30
0.0
  0
VERTEX
  5
20C1
  8
3
 10
243.0
 20
-24.01707889760002
 30
0.0
  0
VERTEX
  5
20C2
  8
3
 10
242.3838796739
 20
-23.95580192130001
 30
0.0
  0
VERTEX
  5
20C3
  8
3
 10
241.8615580823
 20
-23.78129985650003
 30
0.0
  0
VERTEX
  5
20C4
  8
3
 10
241.5125539527
 20
-23.52013906069999
 30
0.0
  0
VERTEX
  5
20C5
  8
3
 10
241.39
 20
-23.21207889760001
 30
0.0
  0
VERTEX
  5
20C6
  8
3
 10
241.5125539527
 20
-22.90401873450003
 30
0.0
  0
VERTEX
  5
20C7
  8
3
 10
241.8615580823
 20
-22.64285793869999
 30
0.0
  0
VERTEX
  5
20C8
  8
3
 10
242.3838796739
 20
-22.46835587390001
 30
0.0
  0
VERTEX
  5
20C9
  8
3
 10
243.0
 20
-22.4070788976
 30
0.0
  0
VERTEX
  5
20CA
  8
3
 10
243.6161203261
 20
-22.46835587390001
 30
0.0
  0
VERTEX
  5
20CB
  8
3
 10
244.1384419177
 20
-22.64285793869999
 30
0.0
  0
VERTEX
  5
20CC
  8
3
 10
244.4874460474
 20
-22.90401873450003
 30
0.0
  0
VERTEX
  5
20CD
  8
3
 10
244.61
 20
-23.21207889760001
 30
0.0
  0
SEQEND
  5
21E3
  8
3
  0
LINE
  5
D61
  8
3
 10
243.5773502692
 20
-23.71207889760001
 30
0.0
 11
244.1547005384
 21
-23.21207889760001
 31
0.0
  0
LINE
  5
D62
  8
3
 10
243.5773502692
 20
-23.71207889760001
 30
0.0
 11
242.4226497308
 21
-23.71207889760001
 31
0.0
  0
LINE
  5
D63
  8
3
 10
242.4226497308
 20
-23.71207889760001
 30
0.0
 11
241.8452994616
 21
-23.21207889760001
 31
0.0
  0
LINE
  5
D64
  8
3
 10
243.5773502692
 20
-20.72022046889998
 30
0.0
 11
243.5773502692
 21
-21.72022046889998
 31
0.0
  0
LINE
  5
D65
  8
3
 10
243.5773502692
 20
-22.71207889760001
 30
0.0
 11
244.1547005384
 21
-23.21207889760001
 31
0.0
  0
LINE
  5
D66
  8
3
 10
244.1547005384
 20
-21.22022046889998
 30
0.0
 11
244.1547005384
 21
-23.21207889760001
 31
0.0
  0
LINE
  5
D67
  8
3
 10
243.5773502692
 20
-20.72022046889998
 30
0.0
 11
244.1547005384
 21
-21.22022046889998
 31
0.0
  0
LINE
  5
D68
  8
3
 10
242.4226497308
 20
-20.72022046889998
 30
0.0
 11
242.4226497308
 21
-21.72022046889998
 31
0.0
  0
LINE
  5
D69
  8
3
 10
242.4226497308
 20
-22.71207889760001
 30
0.0
 11
241.8452994616
 21
-23.21207889760001
 31
0.0
  0
LINE
  5
D6A
  8
3
 10
241.8452994616
 20
-21.22022046889998
 30
0.0
 11
241.8452994616
 21
-23.21207889760001
 31
0.0
  0
LINE
  5
D6B
  8
3
 10
242.4226497308
 20
-20.72022046889998
 30
0.0
 11
241.8452994616
 21
-21.22022046889998
 31
0.0
  0
LINE
  5
D6C
  8
3
 10
243.5773502692
 20
-22.71207889760001
 30
0.0
 11
242.4226497308
 21
-22.71207889760001
 31
0.0
  0
LINE
  5
D6D
  8
3
 10
243.5773502692
 20
-20.72022046889998
 30
0.0
 11
242.4226497308
 21
-20.72022046889998
 31
0.0
  0
CIRCLE
  5
D6E
  8
3
 10
243.0
 20
0.0
 30
0.0
 40
2.000000000000142
  0
CIRCLE
  5
D6F
  8
3
 10
243.0
 20
0.0
 30
0.0
 40
1.250000000000085
  0
LINE
  5
D70
  8
3
 10
245.479160305
 20
21.44299999999998
 30
0.0
 11
245.479160305
 21
16.67669000000001
 31
0.0
  0
LINE
  5
D71
  8
3
 10
245.479160305
 20
26.20931000000002
 30
0.0
 11
245.479160305
 21
21.44299999999998
 31
0.0
  0
LINE
  5
D72
  8
3
 10
244.8410395106
 20
21.44299999999998
 30
0.0
 11
244.8410395106
 21
16.68669
 31
0.0
  0
LINE
  5
D73
  8
3
 10
244.8410395106
 20
26.19930999999997
 30
0.0
 11
244.8410395106
 21
21.44299999999998
 31
0.0
  0
LINE
  5
D74
  8
3
 10
243.9162
 20
21.44299999999998
 30
0.0
 11
243.9162
 21
16.93450000000001
 31
0.0
  0
LINE
  5
D75
  8
3
 10
243.9162
 20
25.95150000000001
 30
0.0
 11
243.9162
 21
21.44299999999998
 31
0.0
  0
LINE
  5
D76
  8
3
 10
245.479160305
 20
-21.44299999999998
 30
0.0
 11
245.479160305
 21
-26.20931000000002
 31
0.0
  0
LINE
  5
D77
  8
3
 10
245.479160305
 20
-16.67669000000001
 30
0.0
 11
245.479160305
 21
-21.44299999999998
 31
0.0
  0
LINE
  5
D78
  8
3
 10
244.8410395106
 20
-21.44299999999998
 30
0.0
 11
244.8410395106
 21
-26.19931000000003
 31
0.0
  0
LINE
  5
D79
  8
3
 10
244.8410395106
 20
-16.68669
 30
0.0
 11
244.8410395106
 21
-21.44299999999998
 31
0.0
  0
LINE
  5
D7A
  8
3
 10
243.9162
 20
-21.44299999999998
 30
0.0
 11
243.9162
 21
-25.95150000000001
 31
0.0
  0
LINE
  5
D7B
  8
3
 10
243.9162
 20
-16.93450000000001
 30
0.0
 11
243.9162
 21
-21.44299999999998
 31
0.0
  0
LINE
  5
D7C
  8
3
 10
253.18085
 20
6.350000000000023
 30
0.0
 11
253.18085
 21
-6.350000000000023
 31
0.0
  0
LINE
  5
D7D
  8
3
 10
252.4252
 20
5.59435000000002
 30
0.0
 11
252.4252
 21
-5.59435000000002
 31
0.0
  0
POLYLINE
  5
D8A
  8
3
 66
     1
 10
0.0
 20
0.0
 30
0.0
  0
VERTEX
  5
20CE
  8
3
 10
243.0
 20
25.12178384840001
 30
0.0
  0
VERTEX
  5
20CF
  8
3
 10
242.2566202798999
 20
25.06724271539997
 30
0.0
  0
VERTEX
  5
20D0
  8
3
 10
241.5970686537
 20
24.90705046419998
 30
0.0
  0
VERTEX
  5
20D1
  8
3
 10
241.0941539516
 20
24.6514438506
 30
0.0
  0
VERTEX
  5
20D2
  8
3
 10
240.8055417375
 20
24.32034227039998
 30
0.0
  0
VERTEX
  5
20D3
  8
3
 10
240.7647236121
 20
23.94624666250002
 30
0.0
  0
VERTEX
  5
20D4
  8
3
 10
240.9746970449
 20
23.57073524700002
 30
0.0
  0
VERTEX
  5
20D5
  8
3
 10
241.4118978638
 20
23.2392275629
 30
0.0
  0
VERTEX
  5
20D6
  8
3
 10
242.0291974555
 20
22.99661282379998
 30
0.0
  0
VERTEX
  5
20D7
  8
3
 10
242.7564437719
 20
22.87932131640002
 30
0.0
  0
VERTEX
  5
20D8
  8
3
 10
243.5092334273
 20
22.90502783249997
 30
0.0
  0
VERTEX
  5
20D9
  8
3
 10
244.2037038432
 20
23.06894213999999
 30
0.0
  0
VERTEX
  5
20DA
  8
3
 10
244.7643004575
 20
23.34721182819999
 30
0.0
  0
VERTEX
  5
20DB
  8
3
 10
245.1272666409
 20
23.70091453150002
 30
0.0
  0
VERTEX
  5
20DC
  8
3
 10
245.2499646002
 20
24.08207421409998
 30
0.0
  0
VERTEX
  5
20DD
  8
3
 10
245.119644868
 20
24.44425342940002
 30
0.0
  0
VERTEX
  5
20DE
  8
3
 10
244.7518839203
 20
24.75063666149998
 30
0.0
  0
VERTEX
  5
20DF
  8
3
 10
244.1861763803
 20
24.97472754310002
 30
0.0
  0
VERTEX
  5
20E0
  8
3
 10
243.4856228632
 20
25.09895312859999
 30
0.0
  0
VERTEX
  5
20E1
  8
3
 10
243.0
 20
25.12178384840001
 30
0.0
  0
SEQEND
  5
21E2
  8
3
  0
POLYLINE
  5
D8B
  8
3
 66
     1
 10
0.0
 20
0.0
 30
0.0
  0
VERTEX
  5
20E2
  8
3
 10
243.0
 20
-22.87178384840001
 30
0.0
  0
VERTEX
  5
20E3
  8
3
 10
242.2566202798999
 20
-22.94359335830001
 30
0.0
  0
VERTEX
  5
20E4
  8
3
 10
241.5970686537
 20
-23.1479928649
 30
0.0
  0
VERTEX
  5
20E5
  8
3
 10
241.0941539516
 20
-23.45551289949998
 30
0.0
  0
VERTEX
  5
20E6
  8
3
 10
240.8055417375
 20
-23.82349930319998
 30
0.0
  0
VERTEX
  5
20E7
  8
3
 10
240.7647236121
 20
-24.20322812030003
 30
0.0
  0
VERTEX
  5
20E8
  8
3
 10
240.9746970449
 20
-24.55086173870001
 30
0.0
  0
VERTEX
  5
20E9
  8
3
 10
241.4118978638
 20
-24.83310070869999
 30
0.0
  0
VERTEX
  5
20EA
  8
3
 10
242.0291974555
 20
-25.02640158600002
 30
0.0
  0
VERTEX
  5
20EB
  8
3
 10
242.7564437719
 20
-25.11610033170001
 30
0.0
  0
VERTEX
  5
20EC
  8
3
 10
243.5092334273
 20
-25.09664397500001
 30
0.0
  0
VERTEX
  5
20ED
  8
3
 10
244.2037038432
 20
-24.9698884984
 30
0.0
  0
VERTEX
  5
20EE
  8
3
 10
244.7643004575
 20
-24.74354412949998
 30
0.0
  0
VERTEX
  5
20EF
  8
3
 10
245.1272666409
 20
-24.4338788133
 30
0.0
  0
VERTEX
  5
20F0
  8
3
 10
245.2499646002
 20
-24.06945288920002
 30
0.0
  0
VERTEX
  5
20F1
  8
3
 10
245.119644868
 20
-23.68953120639998
 30
0.0
  0
VERTEX
  5
20F2
  8
3
 10
244.7518839203
 20
-23.33875751310001
 30
0.0
  0
VERTEX
  5
20F3
  8
3
 10
244.1861763803
 20
-23.06279511880001
 30
0.0
  0
VERTEX
  5
20F4
  8
3
 10
243.4856228632
 20
-22.90198466390001
 30
0.0
  0
VERTEX
  5
20F5
  8
3
 10
243.0
 20
-22.87178384840001
 30
0.0
  0
SEQEND
  5
21E1
  8
3
  0
CIRCLE
  5
D8C
  8
3
 10
243.0
 20
0.0
 30
0.0
 40
1.649999999999977
  0
LINE
  5
D9A
  8
3
 10
243.0
 20
-1.649999999999977
 30
0.0
 11
243.0
 21
-1.75
 31
0.0
  0
LINE
  5
D9B
  8
3
 10
243.0
 20
1.75
 30
0.0
 11
243.0
 21
1.649999999999977
 31
0.0
  0
LINE
  5
D9C
  8
SK3
 10
-5.25
 20
0.0
 30
0.0
 11
-5.25
 21
11.09979999999999
 31
0.0
  0
LINE
  5
D9D
  8
SK3
 10
-5.25
 20
-11.09980000000002
 30
0.0
 11
-5.25
 21
0.0
 31
0.0
  0
LINE
  5
D9E
  8
SK3
 10
-4.074389157900015
 20
0.0
 30
0.0
 11
-4.074389157900015
 21
-5.754369999999994
 31
0.0
  0
LINE
  5
D9F
  8
SK3
 10
-4.074389157900015
 20
5.754369999999994
 30
0.0
 11
-4.074389157900015
 21
0.0
 31
0.0
  0
LINE
  5
DA1
  8
3
 10
246.1
 20
6.350000000000023
 30
0.0
 11
246.1
 21
-6.350000000000023
 31
0.0
  0
POLYLINE
  5
DA4
  8
3
 66
     1
 10
0.0
 20
0.0
 30
0.0
  0
VERTEX
  5
20F6
  8
3
 10
243.0
 20
5.599170668599982
 30
0.0
  0
VERTEX
  5
20F7
  8
3
 10
243.5332876108
 20
5.577178781800001
 30
0.0
  0
VERTEX
  5
20F8
  8
3
 10
244.0061993754
 20
5.506890582300002
 30
0.0
  0
VERTEX
  5
20F9
  8
3
 10
244.379647876
 20
5.373922949699988
 30
0.0
  0
VERTEX
  5
20FA
  8
3
 10
244.6033708066
 20
5.166746755299982
 30
0.0
  0
VERTEX
  5
20FB
  8
3
 10
244.6423143077999
 20
4.90199044389999
 30
0.0
  0
VERTEX
  5
20FC
  8
3
 10
244.505979949
 20
4.612017624600014
 30
0.0
  0
VERTEX
  5
20FD
  8
3
 10
244.2107228934
 20
4.327451844099983
 30
0.0
  0
VERTEX
  5
20FE
  8
3
 10
243.7715742775
 20
4.09146383640001
 30
0.0
  0
VERTEX
  5
20FF
  8
3
 10
243.2378650509
 20
3.96223051559997
 30
0.0
  0
VERTEX
  5
2100
  8
3
 10
242.6938235977
 20
3.970856426099999
 30
0.0
  0
VERTEX
  5
2101
  8
3
 10
242.1960691482
 20
4.104218921999973
 30
0.0
  0
VERTEX
  5
2102
  8
3
 10
241.774058135
 20
4.338628126300023
 30
0.0
  0
VERTEX
  5
2103
  8
3
 10
241.4757008241
 20
4.637477207199993
 30
0.0
  0
VERTEX
  5
2104
  8
3
 10
241.3523216532
 20
4.93910498309998
 30
0.0
  0
VERTEX
  5
2105
  8
3
 10
241.4120518363
 20
5.192409302200019
 30
0.0
  0
VERTEX
  5
2106
  8
3
 10
241.6369070491
 20
5.382835439799976
 30
0.0
  0
VERTEX
  5
2107
  8
3
 10
242.0142080328
 20
5.511474322299989
 30
0.0
  0
VERTEX
  5
2108
  8
3
 10
242.5146576038
 20
5.581139607799969
 30
0.0
  0
VERTEX
  5
2109
  8
3
 10
243.0
 20
5.599170668599982
 30
0.0
  0
SEQEND
  5
21E0
  8
3
  0
POLYLINE
  5
DA5
  8
3
 66
     1
 10
0.0
 20
0.0
 30
0.0
  0
VERTEX
  5
210A
  8
3
 10
243.0
 20
-3.949170668500017
 30
0.0
  0
VERTEX
  5
210B
  8
3
 10
243.5332876108
 20
-4.015735755500032
 30
0.0
  0
VERTEX
  5
210C
  8
3
 10
244.0061993754
 20
-4.199196880700015
 30
0.0
  0
VERTEX
  5
210D
  8
3
 10
244.379647876
 20
-4.468897127700018
 30
0.0
  0
VERTEX
  5
210E
  8
3
 10
244.6033708066
 20
-4.777257273299995
 30
0.0
  0
VERTEX
  5
210F
  8
3
 10
244.6423143077999
 20
-5.061061856799995
 30
0.0
  0
VERTEX
  5
2110
  8
3
 10
244.505979949
 20
-5.286201867399996
 30
0.0
  0
VERTEX
  5
2111
  8
3
 10
244.2107228934
 20
-5.448455892000027
 30
0.0
  0
VERTEX
  5
2112
  8
3
 10
243.7715742775
 20
-5.549946998499991
 30
0.0
  0
VERTEX
  5
2113
  8
3
 10
243.2378650509
 20
-5.59499510889998
 30
0.0
  0
VERTEX
  5
2114
  8
3
 10
242.6938235977
 20
-5.592200316300023
 30
0.0
  0
VERTEX
  5
2115
  8
3
 10
242.1960691482
 20
-5.545119746199987
 30
0.0
  0
VERTEX
  5
2116
  8
3
 10
241.774058135
 20
-5.442967994000014
 30
0.0
  0
VERTEX
  5
2117
  8
3
 10
241.4757008241
 20
-5.269151191200024
 30
0.0
  0
VERTEX
  5
2118
  8
3
 10
241.3523216532
 20
-5.026603927700023
 30
0.0
  0
VERTEX
  5
2119
  8
3
 10
241.4120518363
 20
-4.744167593399993
 30
0.0
  0
VERTEX
  5
211A
  8
3
 10
241.6369070491
 20
-4.453062560299998
 30
0.0
  0
VERTEX
  5
211B
  8
3
 10
242.0142080328
 20
-4.188328753000008
 30
0.0
  0
VERTEX
  5
211C
  8
3
 10
242.5146576038
 20
-4.004135245600025
 30
0.0
  0
VERTEX
  5
211D
  8
3
 10
243.0
 20
-3.949170668500017
 30
0.0
  0
SEQEND
  5
21DF
  8
3
  0
LINE
  5
DA6
  8
3
 10
242.8
 20
-16.68049999999999
 30
0.0
 11
242.8
 21
-26.20550000000003
 31
0.0
  0
LINE
  5
DA7
  8
3
 10
242.8
 20
26.20549999999997
 30
0.0
 11
242.8
 21
16.68049999999999
 31
0.0
  0
POLYLINE
  5
DAA
  8
3
 66
     1
 10
0.0
 20
0.0
 30
0.0
  0
VERTEX
  5
211E
  8
3
 10
243.0
 20
23.62571683089999
 30
0.0
  0
VERTEX
  5
211F
  8
3
 10
243.6314276634
 20
23.56291744520001
 30
0.0
  0
VERTEX
  5
2120
  8
3
 10
244.166726189
 20
23.38407992539999
 30
0.0
  0
VERTEX
  5
2121
  8
3
 10
244.5244012287
 20
23.11643066260001
 30
0.0
  0
VERTEX
  5
2122
  8
3
 10
244.65
 20
22.8007168309
 30
0.0
  0
VERTEX
  5
2123
  8
3
 10
244.5244012287
 20
22.48500299919999
 30
0.0
  0
VERTEX
  5
2124
  8
3
 10
244.166726189
 20
22.21735373640001
 30
0.0
  0
VERTEX
  5
2125
  8
3
 10
243.6314276634
 20
22.03851621659999
 30
0.0
  0
VERTEX
  5
2126
  8
3
 10
243.0
 20
21.97571683090001
 30
0.0
  0
VERTEX
  5
2127
  8
3
 10
242.3685723366
 20
22.03851621659999
 30
0.0
  0
VERTEX
  5
2128
  8
3
 10
241.8332738111
 20
22.21735373640001
 30
0.0
  0
VERTEX
  5
2129
  8
3
 10
241.4755987714
 20
22.48500299919999
 30
0.0
  0
VERTEX
  5
212A
  8
3
 10
241.35
 20
22.8007168309
 30
0.0
  0
VERTEX
  5
212B
  8
3
 10
241.4755987714
 20
23.11643066260001
 30
0.0
  0
VERTEX
  5
212C
  8
3
 10
241.8332738111
 20
23.38407992539999
 30
0.0
  0
VERTEX
  5
212D
  8
3
 10
242.3685723366
 20
23.56291744520001
 30
0.0
  0
VERTEX
  5
212E
  8
3
 10
243.0
 20
23.62571683089999
 30
0.0
  0
SEQEND
  5
21DE
  8
3
  0
POLYLINE
  5
DAB
  8
3
 66
     1
 10
0.0
 20
0.0
 30
0.0
  0
VERTEX
  5
212F
  8
3
 10
243.0
 20
6.680759738099994
 30
0.0
  0
VERTEX
  5
2130
  8
3
 10
243.2461558845
 20
6.646839144199987
 30
0.0
  0
VERTEX
  5
2131
  8
3
 10
243.5833658684
 20
6.524710054799982
 30
0.0
  0
VERTEX
  5
2132
  8
3
 10
244.1437403745
 20
6.304297793399996
 30
0.0
  0
VERTEX
  5
2133
  8
3
 10
244.4542250442
 20
6.264086698699998
 30
0.0
  0
VERTEX
  5
2134
  8
3
 10
244.6086961152
 20
6.345431610099979
 30
0.0
  0
VERTEX
  5
2135
  8
3
 10
244.6471813448
 20
6.545693554799982
 30
0.0
  0
VERTEX
  5
2136
  8
3
 10
244.5741193683
 20
6.804294692799999
 30
0.0
  0
VERTEX
  5
2137
  8
3
 10
244.4117241572
 20
7.115027796199968
 30
0.0
  0
VERTEX
  5
2138
  8
3
 10
244.0503275157
 20
7.606615779899982
 30
0.0
  0
VERTEX
  5
2139
  8
3
 10
243.4619997701
 20
8.158465788599983
 30
0.0
  0
VERTEX
  5
213A
  8
3
 10
243.2139613181
 20
8.290870996000024
 30
0.0
  0
VERTEX
  5
213B
  8
3
 10
243.0
 20
8.330759738099971
 30
0.0
  0
SEQEND
  5
21DD
  8
3
  0
POLYLINE
  5
DAC
  8
3
 66
     1
 10
0.0
 20
0.0
 30
0.0
  0
VERTEX
  5
213C
  8
3
 10
243.0
 20
8.330759738099971
 30
0.0
  0
VERTEX
  5
213D
  8
3
 10
242.9394720246
 20
8.865640333700014
 30
0.0
  0
VERTEX
  5
213E
  8
3
 10
243.0
 20
9.340710231999992
 30
0.0
  0
SEQEND
  5
21DC
  8
3
  0
POLYLINE
  5
DAD
  8
3
 66
     1
 10
0.0
 20
0.0
 30
0.0
  0
VERTEX
  5
213F
  8
3
 10
243.0
 20
9.340710231999992
 30
0.0
  0
VERTEX
  5
2140
  8
3
 10
243.2461558845
 20
9.374630825899999
 30
0.0
  0
VERTEX
  5
2141
  8
3
 10
243.5833658684
 20
9.496759915200016
 30
0.0
  0
VERTEX
  5
2142
  8
3
 10
244.1437403745
 20
9.717172176600002
 30
0.0
  0
VERTEX
  5
2143
  8
3
 10
244.4542250442
 20
9.7573832713
 30
0.0
  0
VERTEX
  5
2144
  8
3
 10
244.6086961152
 20
9.67603835990002
 30
0.0
  0
VERTEX
  5
2145
  8
3
 10
244.6471813448
 20
9.475776415300004
 30
0.0
  0
VERTEX
  5
2146
  8
3
 10
244.5741193683
 20
9.217175277299987
 30
0.0
  0
VERTEX
  5
2147
  8
3
 10
244.4117241572
 20
8.906442173900018
 30
0.0
  0
VERTEX
  5
2148
  8
3
 10
244.0503275157
 20
8.414854190200003
 30
0.0
  0
VERTEX
  5
2149
  8
3
 10
243.4619997701
 20
7.863004181500003
 30
0.0
  0
VERTEX
  5
214A
  8
3
 10
243.2139613181
 20
7.730598974100019
 30
0.0
  0
VERTEX
  5
214B
  8
3
 10
243.0
 20
7.690710232000015
 30
0.0
  0
SEQEND
  5
21DB
  8
3
  0
POLYLINE
  5
DAE
  8
3
 66
     1
 10
0.0
 20
0.0
 30
0.0
  0
VERTEX
  5
214C
  8
3
 10
243.0
 20
7.690710232000015
 30
0.0
  0
VERTEX
  5
214D
  8
3
 10
242.9394720246
 20
7.155829636399972
 30
0.0
  0
VERTEX
  5
214E
  8
3
 10
243.0
 20
6.680759738099994
 30
0.0
  0
SEQEND
  5
21DA
  8
3
  0
POLYLINE
  5
DAF
  8
3
 66
     1
 10
0.0
 20
0.0
 30
0.0
  0
VERTEX
  5
214F
  8
3
 10
243.0
 20
-21.97571683080002
 30
0.0
  0
VERTEX
  5
2150
  8
3
 10
243.6314276634
 20
-22.0385162165
 30
0.0
  0
VERTEX
  5
2151
  8
3
 10
244.166726189
 20
-22.21735373630003
 30
0.0
  0
VERTEX
  5
2152
  8
3
 10
244.5244012287
 20
-22.4850029991
 30
0.0
  0
VERTEX
  5
2153
  8
3
 10
244.65
 20
-22.80071683080001
 30
0.0
  0
VERTEX
  5
2154
  8
3
 10
244.5244012287
 20
-23.11643066250002
 30
0.0
  0
VERTEX
  5
2155
  8
3
 10
244.166726189
 20
-23.3840799253
 30
0.0
  0
VERTEX
  5
2156
  8
3
 10
243.6314276634
 20
-23.56291744510003
 30
0.0
  0
VERTEX
  5
2157
  8
3
 10
243.0
 20
-23.6257168308
 30
0.0
  0
VERTEX
  5
2158
  8
3
 10
242.3685723366
 20
-23.56291744510003
 30
0.0
  0
VERTEX
  5
2159
  8
3
 10
241.8332738111
 20
-23.3840799253
 30
0.0
  0
VERTEX
  5
215A
  8
3
 10
241.4755987714
 20
-23.11643066250002
 30
0.0
  0
VERTEX
  5
215B
  8
3
 10
241.35
 20
-22.80071683080001
 30
0.0
  0
VERTEX
  5
215C
  8
3
 10
241.4755987714
 20
-22.4850029991
 30
0.0
  0
VERTEX
  5
215D
  8
3
 10
241.8332738111
 20
-22.21735373630003
 30
0.0
  0
VERTEX
  5
215E
  8
3
 10
242.3685723366
 20
-22.0385162165
 30
0.0
  0
VERTEX
  5
215F
  8
3
 10
243.0
 20
-21.97571683080002
 30
0.0
  0
SEQEND
  5
21D9
  8
3
  0
POLYLINE
  5
DB0
  8
3
 66
     1
 10
0.0
 20
0.0
 30
0.0
  0
VERTEX
  5
2160
  8
3
 10
243.0
 20
-8.330759738100028
 30
0.0
  0
VERTEX
  5
2161
  8
3
 10
243.2461558845
 20
-8.27837439670003
 30
0.0
  0
VERTEX
  5
2162
  8
3
 10
243.5833658684
 20
-8.068142678400022
 30
0.0
  0
VERTEX
  5
2163
  8
3
 10
244.1437403745
 20
-7.493565616800026
 30
0.0
  0
VERTEX
  5
2164
  8
3
 10
244.4542250442
 20
-7.043656785999985
 30
0.0
  0
VERTEX
  5
2165
  8
3
 10
244.6086961152
 20
-6.712305987899981
 30
0.0
  0
VERTEX
  5
2166
  8
3
 10
244.6471813448
 20
-6.449290144399981
 30
0.0
  0
VERTEX
  5
2167
  8
3
 10
244.5741193683
 20
-6.309675430799984
 30
0.0
  0
VERTEX
  5
2168
  8
3
 10
244.4117241572
 20
-6.260899641899982
 30
0.0
  0
VERTEX
  5
2169
  8
3
 10
244.0503275157
 20
-6.334093831199993
 30
0.0
  0
VERTEX
  5
216A
  8
3
 10
243.4619997701
 20
-6.574465721500019
 30
0.0
  0
VERTEX
  5
216B
  8
3
 10
243.2139613181
 20
-6.654802368300011
 30
0.0
  0
VERTEX
  5
216C
  8
3
 10
243.0
 20
-6.680759738099994
 30
0.0
  0
SEQEND
  5
21D8
  8
3
  0
POLYLINE
  5
DB1
  8
3
 66
     1
 10
0.0
 20
0.0
 30
0.0
  0
VERTEX
  5
216D
  8
3
 10
243.0
 20
-6.680759738099994
 30
0.0
  0
VERTEX
  5
216E
  8
3
 10
242.9394720246
 20
-7.21675090010001
 30
0.0
  0
VERTEX
  5
216F
  8
3
 10
243.0
 20
-7.690710231900027
 30
0.0
  0
SEQEND
  5
21D7
  8
3
  0
POLYLINE
  5
DB2
  8
3
 66
     1
 10
0.0
 20
0.0
 30
0.0
  0
VERTEX
  5
2170
  8
3
 10
243.0
 20
-7.690710231900027
 30
0.0
  0
VERTEX
  5
2171
  8
3
 10
243.2461558845
 20
-7.74309557319998
 30
0.0
  0
VERTEX
  5
2172
  8
3
 10
243.5833658684
 20
-7.953327291599976
 30
0.0
  0
VERTEX
  5
2173
  8
3
 10
244.1437403745
 20
-8.527904353200029
 30
0.0
  0
VERTEX
  5
2174
  8
3
 10
244.4542250442
 20
-8.977813184000013
 30
0.0
  0
VERTEX
  5
2175
  8
3
 10
244.6086961152
 20
-9.309163982100017
 30
0.0
  0
VERTEX
  5
2176
  8
3
 10
244.6471813448
 20
-9.57217982550003
 30
0.0
  0
VERTEX
  5
2177
  8
3
 10
244.5741193683
 20
-9.711794539200014
 30
0.0
  0
VERTEX
  5
2178
  8
3
 10
244.4117241572
 20
-9.760570328100016
 30
0.0
  0
VERTEX
  5
2179
  8
3
 10
244.0503275157
 20
-9.687376138700017
 30
0.0
  0
VERTEX
  5
217A
  8
3
 10
243.4619997701
 20
-9.44700424849998
 30
0.0
  0
VERTEX
  5
217B
  8
3
 10
243.2139613181
 20
-9.366667601699987
 30
0.0
  0
VERTEX
  5
217C
  8
3
 10
243.0
 20
-9.340710231900005
 30
0.0
  0
SEQEND
  5
21D6
  8
3
  0
POLYLINE
  5
DB3
  8
3
 66
     1
 10
0.0
 20
0.0
 30
0.0
  0
VERTEX
  5
217D
  8
3
 10
243.0
 20
-9.340710231900005
 30
0.0
  0
VERTEX
  5
217E
  8
3
 10
242.9394720246
 20
-8.804719069899988
 30
0.0
  0
VERTEX
  5
217F
  8
3
 10
243.0
 20
-8.330759738100028
 30
0.0
  0
SEQEND
  5
21D5
  8
3
  0
LINE
  5
DB4
  8
3
 10
243.0
 20
-7.690710231900027
 30
0.0
 11
243.0
 21
-6.680759738099994
 31
0.0
  0
LINE
  5
DB5
  8
3
 10
243.0
 20
-8.330759738100028
 30
0.0
 11
243.0
 21
-9.340710231900005
 31
0.0
  0
LINE
  5
DB6
  8
3
 10
243.0
 20
9.340710231999992
 30
0.0
 11
243.0
 21
8.330759738099971
 31
0.0
  0
LINE
  5
DB7
  8
3
 10
243.0
 20
6.680759738099994
 30
0.0
 11
243.0
 21
7.690710232000015
 31
0.0
  0
POLYLINE
  5
DB8
  8
3
 66
     1
 10
0.0
 20
0.0
 30
0.0
  0
VERTEX
  5
2180
  8
3
 10
245.25
 20
-23.21207889760001
 30
0.0
  0
VERTEX
  5
2181
  8
3
 10
245.1280887938
 20
-23.57736580049999
 30
0.0
  0
VERTEX
  5
2182
  8
3
 10
244.7755661462
 20
-23.90306819940002
 30
0.0
  0
VERTEX
  5
2183
  8
3
 10
244.2306333558
 20
-24.1538911856
 30
0.0
  0
VERTEX
  5
2184
  8
3
 10
243.5523423461
 20
-24.30265419680001
 30
0.0
  0
VERTEX
  5
2185
  8
3
 10
242.8141964727
 20
-24.33323645220003
 30
0.0
  0
VERTEX
  5
2186
  8
3
 10
242.0961852945
 20
-24.24232389010001
 30
0.0
  0
VERTEX
  5
2187
  8
3
 10
241.4761164639
 20
-24.03976829710001
 30
0.0
  0
VERTEX
  5
2188
  8
3
 10
241.0211840598
 20
-23.74751971479998
 30
0.0
  0
VERTEX
  5
2189
  8
3
 10
240.7806870674
 20
-23.39724781170003
 30
0.0
  0
VERTEX
  5
218A
  8
3
 10
240.7806870674
 20
-23.02690998349999
 30
0.0
  0
VERTEX
  5
218B
  8
3
 10
241.0211840598
 20
-22.67663808039998
 30
0.0
  0
VERTEX
  5
218C
  8
3
 10
241.4761164639
 20
-22.38438949810001
 30
0.0
  0
VERTEX
  5
218D
  8
3
 10
242.0961852945
 20
-22.18183390510001
 30
0.0
  0
VERTEX
  5
218E
  8
3
 10
242.8141964727
 20
-22.09092134299999
 30
0.0
  0
VERTEX
  5
218F
  8
3
 10
243.5523423461
 20
-22.12150359840001
 30
0.0
  0
VERTEX
  5
2190
  8
3
 10
244.2306333558
 20
-22.27026660960001
 30
0.0
  0
VERTEX
  5
2191
  8
3
 10
244.7755661462
 20
-22.52108959579999
 30
0.0
  0
VERTEX
  5
2192
  8
3
 10
245.1280887938
 20
-22.84679199470003
 30
0.0
  0
VERTEX
  5
2193
  8
3
 10
245.25
 20
-23.21207889760001
 30
0.0
  0
SEQEND
  5
21D4
  8
3
  0
POLYLINE
  5
DB9
  8
3
 66
     1
 10
0.0
 20
0.0
 30
0.0
  0
VERTEX
  5
2194
  8
3
 10
245.25
 20
23.2120788977
 30
0.0
  0
VERTEX
  5
2195
  8
3
 10
245.1280887938
 20
22.84679199480001
 30
0.0
  0
VERTEX
  5
2196
  8
3
 10
244.7755661462
 20
22.52108959589998
 30
0.0
  0
VERTEX
  5
2197
  8
3
 10
244.2306333558
 20
22.27026660960001
 30
0.0
  0
VERTEX
  5
2198
  8
3
 10
243.5523423461
 20
22.1215035985
 30
0.0
  0
VERTEX
  5
2199
  8
3
 10
242.8141964727
 20
22.09092134299999
 30
0.0
  0
VERTEX
  5
219A
  8
3
 10
242.0961852945
 20
22.18183390519999
 30
0.0
  0
VERTEX
  5
219B
  8
3
 10
241.4761164639
 20
22.38438949819999
 30
0.0
  0
VERTEX
  5
219C
  8
3
 10
241.0211840598
 20
22.67663808049997
 30
0.0
  0
VERTEX
  5
219D
  8
3
 10
240.7806870674
 20
23.02690998359998
 30
0.0
  0
VERTEX
  5
219E
  8
3
 10
240.7806870674
 20
23.39724781169997
 30
0.0
  0
VERTEX
  5
219F
  8
3
 10
241.0211840598
 20
23.74751971479998
 30
0.0
  0
VERTEX
  5
21A0
  8
3
 10
241.4761164639
 20
24.0397682972
 30
0.0
  0
VERTEX
  5
21A1
  8
3
 10
242.0961852945
 20
24.2423238902
 30
0.0
  0
VERTEX
  5
21A2
  8
3
 10
242.8141964727
 20
24.33323645230001
 30
0.0
  0
VERTEX
  5
21A3
  8
3
 10
243.5523423461
 20
24.30265419689999
 30
0.0
  0
VERTEX
  5
21A4
  8
3
 10
244.2306333558
 20
24.15389118569999
 30
0.0
  0
VERTEX
  5
21A5
  8
3
 10
244.7755661462
 20
23.90306819939997
 30
0.0
  0
VERTEX
  5
21A6
  8
3
 10
245.1280887938
 20
23.57736580049999
 30
0.0
  0
VERTEX
  5
21A7
  8
3
 10
245.25
 20
23.2120788977
 30
0.0
  0
SEQEND
  5
21D3
  8
3
  0
POLYLINE
  5
DBA
  8
3
 66
     1
 10
0.0
 20
0.0
 30
0.0
  0
VERTEX
  5
21A8
  8
3
 10
243.0
 20
-22.14957889760001
 30
0.0
  0
VERTEX
  5
21A9
  8
3
 10
243.6899863721
 20
-22.20714807830001
 30
0.0
  0
VERTEX
  5
21AA
  8
3
 10
244.3052020145
 20
-22.37361710639999
 30
0.0
  0
VERTEX
  5
21AB
  8
3
 10
244.7789787663
 20
-22.63094647960003
 30
0.0
  0
VERTEX
  5
21AC
  8
3
 10
245.0599755651
 20
-22.95125056749998
 30
0.0
  0
VERTEX
  5
21AD
  8
3
 10
245.1177420476999
 20
-23.29981945219998
 30
0.0
  0
VERTEX
  5
21AE
  8
3
 10
244.9460183192
 20
-23.63888028629998
 30
0.0
  0
VERTEX
  5
21AF
  8
3
 10
244.5634133102
 20
-23.93169056750003
 30
0.0
  0
VERTEX
  5
21B0
  8
3
 10
244.0113882102
 20
-24.14651975830003
 30
0.0
  0
VERTEX
  5
21B1
  8
3
 10
243.3497635044
 20
-24.26008778250002
 30
0.0
  0
VERTEX
  5
21B2
  8
3
 10
242.6502364957
 20
-24.26008778250002
 30
0.0
  0
VERTEX
  5
21B3
  8
3
 10
241.9886117898
 20
-24.14651975830003
 30
0.0
  0
VERTEX
  5
21B4
  8
3
 10
241.4365866898
 20
-23.93169056750003
 30
0.0
  0
VERTEX
  5
21B5
  8
3
 10
241.0539816809
 20
-23.63888028629998
 30
0.0
  0
VERTEX
  5
21B6
  8
3
 10
240.8822579524
 20
-23.29981945219998
 30
0.0
  0
VERTEX
  5
21B7
  8
3
 10
240.9400244349
 20
-22.95125056749998
 30
0.0
  0
VERTEX
  5
21B8
  8
3
 10
241.2210212337
 20
-22.63094647960003
 30
0.0
  0
VERTEX
  5
21B9
  8
3
 10
241.6947979855
 20
-22.37361710639999
 30
0.0
  0
VERTEX
  5
21BA
  8
3
 10
242.310013628
 20
-22.20714807830001
 30
0.0
  0
VERTEX
  5
21BB
  8
3
 10
243.0
 20
-22.14957889760001
 30
0.0
  0
SEQEND
  5
21D2
  8
3
  0
POLYLINE
  5
DBB
  8
3
 66
     1
 10
0.0
 20
0.0
 30
0.0
  0
VERTEX
  5
21BC
  8
3
 10
243.0
 20
24.2745788977
 30
0.0
  0
VERTEX
  5
21BD
  8
3
 10
243.6899863721
 20
24.217009717
 30
0.0
  0
VERTEX
  5
21BE
  8
3
 10
244.3052020145
 20
24.05054068890001
 30
0.0
  0
VERTEX
  5
21BF
  8
3
 10
244.7789787663
 20
23.79321131569998
 30
0.0
  0
VERTEX
  5
21C0
  8
3
 10
245.0599755651
 20
23.47290722780002
 30
0.0
  0
VERTEX
  5
21C1
  8
3
 10
245.1177420476999
 20
23.12433834310002
 30
0.0
  0
VERTEX
  5
21C2
  8
3
 10
244.9460183192
 20
22.78527750899997
 30
0.0
  0
VERTEX
  5
21C3
  8
3
 10
244.5634133102
 20
22.49246722779998
 30
0.0
  0
VERTEX
  5
21C4
  8
3
 10
244.0113882102
 20
22.27763803699997
 30
0.0
  0
VERTEX
  5
21C5
  8
3
 10
243.3497635044
 20
22.16407001279998
 30
0.0
  0
VERTEX
  5
21C6
  8
3
 10
242.6502364957
 20
22.16407001279998
 30
0.0
  0
VERTEX
  5
21C7
  8
3
 10
241.9886117898
 20
22.27763803699997
 30
0.0
  0
VERTEX
  5
21C8
  8
3
 10
241.4365866898
 20
22.49246722779998
 30
0.0
  0
VERTEX
  5
21C9
  8
3
 10
241.0539816809
 20
22.78527750899997
 30
0.0
  0
VERTEX
  5
21CA
  8
3
 10
240.8822579524
 20
23.12433834310002
 30
0.0
  0
VERTEX
  5
21CB
  8
3
 10
240.9400244349
 20
23.47290722780002
 30
0.0
  0
VERTEX
  5
21CC
  8
3
 10
241.2210212337
 20
23.79321131569998
 30
0.0
  0
VERTEX
  5
21CD
  8
3
 10
241.6947979855
 20
24.05054068890001
 30
0.0
  0
VERTEX
  5
21CE
  8
3
 10
242.310013628
 20
24.217009717
 30
0.0
  0
VERTEX
  5
21CF
  8
3
 10
243.0
 20
24.2745788977
 30
0.0
  0
SEQEND
  5
21D1
  8
3
  0
LINE
  5
DBC
  8
3
 10
241.3670068382
 20
16.356044451
 30
0.0
 11
241.9793792739
 21
15.92303174919999
 31
0.0
  0
LINE
  5
DBD
  8
3
 10
244.0206207262
 20
15.92303174919999
 30
0.0
 11
244.6329931619
 21
16.356044451
 31
0.0
  0
LINE
  5
DBE
  8
3
 10
241.0
 20
23.0170788977
 30
0.0
 11
241.0
 21
16.9333947202
 31
0.0
  0
LINE
  5
DBF
  8
3
 10
245.0
 20
16.9333947202
 30
0.0
 11
245.0
 21
23.0170788977
 31
0.0
  0
LINE
  5
DC0
  8
3
 10
244.6329931619
 20
-16.356044451
 30
0.0
 11
244.0206207262
 21
-15.92303174910001
 31
0.0
  0
LINE
  5
DC1
  8
3
 10
241.9793792739
 20
-15.92303174910001
 30
0.0
 11
241.3670068382
 21
-16.356044451
 31
0.0
  0
LINE
  5
DC2
  8
3
 10
245.0
 20
-23.01707889760002
 30
0.0
 11
245.0
 21
-16.9333947202
 31
0.0
  0
LINE
  5
DC3
  8
3
 10
241.0
 20
-16.9333947202
 30
0.0
 11
241.0
 21
-23.01707889760002
 31
0.0
  0
LINE
  5
DC4
  8
3
 10
254.0
 20
26.20931000000002
 30
0.0
 11
245.479160305
 21
26.20931000000002
 31
0.0
  0
LINE
  5
DC5
  8
3
 10
245.479160305
 20
16.67669000000001
 30
0.0
 11
254.0
 21
16.67669000000001
 31
0.0
  0
ARC
  5
DC6
  8
3
 10
245.4162
 20
26.40251000000001
 30
0.0
 40
0.203200000000038
 50
270.0
 51
288.0498306932885
  0
ARC
  5
DC7
  8
3
 10
245.4162
 20
16.48349000000002
 30
0.0
 40
0.2031999999999312
 50
71.95016930670151
 51
90.0
  0
LINE
  5
DC8
  8
3
 10
245.4162
 20
26.19930999999997
 30
0.0
 11
244.8410395106
 21
26.19930999999997
 31
0.0
  0
LINE
  5
DC9
  8
3
 10
244.8410395106
 20
16.68669
 30
0.0
 11
245.4162
 21
16.68669
 31
0.0
  0
LINE
  5
DCA
  8
3
 10
244.8410395106
 20
26.19930999999997
 30
0.0
 11
243.9162
 21
25.95150000000001
 31
0.0
  0
LINE
  5
DCB
  8
3
 10
243.9162
 20
16.93450000000001
 30
0.0
 11
244.8410395106
 21
16.68669
 31
0.0
  0
LINE
  5
DCC
  8
3
 10
254.0
 20
-16.67669000000001
 30
0.0
 11
245.479160305
 21
-16.67669000000001
 31
0.0
  0
LINE
  5
DCD
  8
3
 10
245.479160305
 20
-26.20931000000002
 30
0.0
 11
254.0
 21
-26.20931000000002
 31
0.0
  0
ARC
  5
DCE
  8
3
 10
245.4162
 20
-16.48349000000002
 30
0.0
 40
0.2032000000000393
 50
270.0
 51
288.0498306932885
  0
ARC
  5
DCF
  8
3
 10
245.4162
 20
-26.40251000000001
 30
0.0
 40
0.2032000000000393
 50
71.95016930671143
 51
90.0
  0
LINE
  5
DD0
  8
3
 10
245.4162
 20
-16.68669
 30
0.0
 11
244.8410395106
 21
-16.68669
 31
0.0
  0
LINE
  5
DD1
  8
3
 10
244.8410395106
 20
-26.19931000000003
 30
0.0
 11
245.4162
 21
-26.19931000000003
 31
0.0
  0
LINE
  5
DD2
  8
3
 10
244.8410395106
 20
-16.68669
 30
0.0
 11
243.9162
 21
-16.93450000000001
 31
0.0
  0
LINE
  5
DD3
  8
3
 10
243.9162
 20
-25.95150000000001
 30
0.0
 11
244.8410395106
 21
-26.19931000000003
 31
0.0
  0
LINE
  5
DD4
  8
3
 10
254.0
 20
6.350000000000023
 30
0.0
 11
253.18085
 21
6.350000000000023
 31
0.0
  0
LINE
  5
DD5
  8
3
 10
253.18085
 20
-6.350000000000023
 30
0.0
 11
254.0
 21
-6.350000000000023
 31
0.0
  0
LINE
  5
DD6
  8
3
 10
253.18085
 20
6.350000000000023
 30
0.0
 11
252.4252
 21
5.59435000000002
 31
0.0
  0
LINE
  5
DD7
  8
3
 10
252.4252
 20
-5.59435000000002
 30
0.0
 11
253.18085
 21
-6.350000000000023
 31
0.0
  0
LINE
  5
DE0
  8
3
 10
254.0
 20
13.6990711606
 30
0.0
 11
253.8136296695
 21
13.00352761810001
 31
0.0
  0
LINE
  5
DE1
  8
3
 10
253.8136296695
 20
-13.00352761800002
 30
0.0
 11
254.0
 21
-13.69907116050001
 31
0.0
  0
ARC
  5
DE6
  8
3
 10
254.1999999999999
 20
-12.89999999999998
 30
0.0
 40
0.4000000000000224
 50
166.8749999999959
 51
195.0000000000036
  0
ARC
  5
DE7
  8
3
 10
254.1999999999999
 20
-12.89999999999998
 30
0.0
 40
0.4000000000000315
 50
119.9999999999955
 51
166.8749999999989
  0
ARC
  5
DE8
  8
3
 10
254.1999999999999
 20
12.89999999999998
 30
0.0
 40
0.4000000000000341
 50
164.9999999999985
 51
180.0
  0
ARC
  5
DE9
  8
3
 10
254.1999999999999
 20
12.89999999999998
 30
0.0
 40
0.4000000000000341
 50
180.0
 51
240.0000000000047
  0
LINE
  5
DEA
  8
3
 10
253.8
 20
12.89999999999998
 30
0.0
 11
253.8
 21
-12.89999999999998
 31
0.0
  0
LINE
  5
DEB
  8
3
 10
254.0
 20
1.75
 30
0.0
 11
243.0
 21
1.75
 31
0.0
  0
LINE
  5
DEC
  8
3
 10
243.0
 20
-1.75
 30
0.0
 11
254.0
 21
-1.75
 31
0.0
  0
LINE
  5
DEF
  8
SK3
 10
-5.25
 20
-10.84649999999999
 30
0.0
 11
-4.074389157900015
 21
-5.754369999999994
 31
0.0
  0
LINE
  5
DF0
  8
SK3
 10
-4.074389157900015
 20
5.754369999999994
 30
0.0
 11
-5.25
 21
10.84649999999999
 31
0.0
  0
LINE
  5
DF1
  8
3
 10
242.8980049047
 20
-1.580251655600023
 30
0.0
 11
243.0
 21
-1.75
 31
0.0
  0
LINE
  5
DF2
  8
3
 10
243.0
 20
1.75
 30
0.0
 11
242.8980049047
 21
1.580251655600023
 31
0.0
  0
LINE
  5
DF5
  8
3
 10
254.0
 20
6.350000000000023
 30
0.0
 11
246.1
 21
6.350000000000023
 31
0.0
  0
LINE
  5
DF6
  8
3
 10
246.1
 20
-6.350000000000023
 30
0.0
 11
254.0
 21
-6.350000000000023
 31
0.0
  0
LINE
  5
DFB
  8
3
 10
246.1
 20
5.754369999999994
 30
0.0
 11
0.0000000000000568
 21
5.754369999999994
 31
0.0
  0
LINE
  5
DFC
  8
3
 10
0.0
 20
-5.754369999999994
 30
0.0
 11
246.1
 21
-5.754369999999994
 31
0.0
  0
LINE
  5
DFD
  8
3
 10
254.0
 20
-16.68049999999999
 30
0.0
 11
242.8
 21
-16.68049999999999
 31
0.0
  0
LINE
  5
DFE
  8
3
 10
242.8
 20
-26.20550000000003
 30
0.0
 11
254.0
 21
-26.20550000000003
 31
0.0
  0
LINE
  5
DFF
  8
3
 10
242.8
 20
26.20549999999997
 30
0.0
 11
239.9384013019
 21
21.44299999999998
 31
0.0
  0
LINE
  5
E00
  8
3
 10
239.9384013019
 20
21.44299999999998
 30
0.0
 11
242.8
 21
16.68049999999999
 31
0.0
  0
LINE
  5
E01
  8
3
 10
242.8
 20
-16.68049999999999
 30
0.0
 11
239.9384013019
 21
-21.44299999999998
 31
0.0
  0
LINE
  5
E02
  8
3
 10
239.9384013019
 20
-21.44299999999998
 30
0.0
 11
242.8
 21
-26.20550000000003
 31
0.0
  0
LINE
  5
E03
  8
3
 10
254.0
 20
26.20549999999997
 30
0.0
 11
242.8
 21
26.20549999999997
 31
0.0
  0
LINE
  5
E04
  8
3
 10
242.8
 20
16.68049999999999
 30
0.0
 11
254.0
 21
16.68049999999999
 31
0.0
  0
LINE
  5
E07
  8
3
 10
241.35
 20
22.8007168309
 30
0.0
 11
241.35
 21
4.980511645799993
 31
0.0
  0
LINE
  5
E08
  8
3
 10
244.65
 20
9.517509394000001
 30
0.0
 11
244.65
 21
22.8007168309
 31
0.0
  0
LINE
  5
E09
  8
3
 10
244.65
 20
4.978787621200013
 30
0.0
 11
244.65
 21
6.503960576099985
 31
0.0
  0
LINE
  5
E0A
  8
3
 10
244.65
 20
-6.503960575999997
 30
0.0
 11
244.65
 21
-4.978787621100025
 31
0.0
  0
LINE
  5
E0B
  8
3
 10
244.65
 20
-22.80071683080001
 30
0.0
 11
244.65
 21
-9.517509393900013
 31
0.0
  0
LINE
  5
E0C
  8
3
 10
241.35
 20
-4.980511645799993
 30
0.0
 11
241.35
 21
-22.80071683080001
 31
0.0
  0
LINE
  5
E0D
  8
3
 10
254.0
 20
-6.260734984999999
 30
0.0
 11
244.3955410454
 21
-6.260734984999999
 31
0.0
  0
LINE
  5
E0E
  8
3
 10
244.3955410454
 20
-9.760734985
 30
0.0
 11
254.0
 21
-9.760734985
 31
0.0
  0
LINE
  5
E0F
  8
3
 10
254.0
 20
9.760734985
 30
0.0
 11
244.3871087432
 21
9.760734985
 31
0.0
  0
LINE
  5
E10
  8
3
 10
244.3871087432
 20
6.260734984999999
 30
0.0
 11
254.0
 21
6.260734984999999
 31
0.0
  0
LINE
  5
E11
  8
3
 10
245.25
 20
-24.07562571469998
 30
0.0
 11
245.25
 21
-23.21207889760001
 31
0.0
  0
LINE
  5
E12
  8
3
 10
240.75
 20
-23.21207889760001
 30
0.0
 11
240.75
 21
-24.073782978
 31
0.0
  0
LINE
  5
E13
  8
3
 10
240.75
 20
24.073782978
 30
0.0
 11
240.75
 21
23.2120788977
 31
0.0
  0
LINE
  5
E14
  8
3
 10
245.25
 20
23.2120788977
 30
0.0
 11
245.25
 21
24.07562571479997
 31
0.0
  0
LINE
  5
E15
  8
3
 10
244.7350552345
 20
-22.59864423660002
 30
0.0
 11
244.3472193585
 21
-22.32440285870001
 31
0.0
  0
LINE
  5
E16
  8
3
 10
241.6527806415
 20
-22.32440285870001
 30
0.0
 11
241.2649447655
 21
-22.59864423660002
 31
0.0
  0
LINE
  5
E17
  8
3
 10
241.2649447655
 20
22.59864423670001
 30
0.0
 11
241.6527806415
 21
22.3244028588
 31
0.0
  0
LINE
  5
E18
  8
3
 10
244.3472193585
 20
22.3244028588
 30
0.0
 11
244.7350552345
 21
22.59864423670001
 31
0.0
  0
LINE
  5
E1B
  8
SK1
 10
254.0
 20
16.67669000000001
 30
0.0
 11
254.0285053027
 21
16.67669000000001
 31
0.0
  0
LINE
  5
E1C
  8
SK1
 10
254.0285053027
 20
-16.67669000000001
 30
0.0
 11
254.0
 21
-16.67669000000001
 31
0.0
  0
LINE
  5
E1E
  8
SK1
 10
281.813
 20
-14.98599999999999
 30
0.0
 11
282.5749999999999
 21
-14.22399999999999
 31
0.0
  0
LINE
  5
E1F
  8
SK1
 10
282.5749999999999
 20
14.22399999999999
 30
0.0
 11
281.813
 21
14.98599999999999
 31
0.0
  0
LINE
  5
E20
  8
SK1
 10
273.812
 20
14.98599999999999
 30
0.0
 11
273.05
 21
14.22399999999999
 31
0.0
  0
LINE
  5
E21
  8
SK1
 10
273.05
 20
-14.22399999999999
 30
0.0
 11
273.812
 21
-14.98599999999999
 31
0.0
  0
LINE
  5
E22
  8
SK1
 10
281.813
 20
14.98599999999999
 30
0.0
 11
273.812
 21
14.98599999999999
 31
0.0
  0
LINE
  5
E23
  8
SK1
 10
273.812
 20
-14.98599999999999
 30
0.0
 11
281.813
 21
-14.98599999999999
 31
0.0
  0
ARC
  5
E24
  8
SK1
 10
272.3896
 20
-7.010400000000004
 30
0.0
 40
0.6604000000000099
 50
359.9999999999014
 51
90.0
  0
ARC
  5
E25
  8
SK1
 10
272.3896
 20
7.010400000000004
 30
0.0
 40
0.6604000000000383
 50
270.0
 51
0.0000000000986338
  0
LINE
  5
E26
  8
SK1
 10
272.3896
 20
6.350000000000023
 30
0.0
 11
271.5
 21
6.350000000000023
 31
0.0
  0
LINE
  5
E27
  8
SK1
 10
271.5
 20
-6.350000000000023
 30
0.0
 11
272.3896
 21
-6.350000000000023
 31
0.0
  0
ARC
  5
E3F
  8
SK1
 10
254.1999999999999
 20
-12.89999999999998
 30
0.0
 40
0.4000000000000315
 50
74.99999999998988
 51
119.9999999999955
  0
ARC
  5
E40
  8
SK1
 10
254.1999999999999
 20
12.89999999999998
 30
0.0
 40
0.4000000000000297
 50
240.0000000000043
 51
285.0000000000102
  0
LINE
  5
E41
  8
SK1
 10
254.9990711606
 20
-12.69999999999999
 30
0.0
 11
270.0
 21
-12.69999999999999
 31
0.0
  0
LINE
  5
E42
  8
SK1
 10
270.0
 20
12.69999999999999
 30
0.0
 11
254.9990711606
 21
12.69999999999999
 31
0.0
  0
ARC
  5
E43
  8
SK1
 10
270.0
 20
-11.19999999999999
 30
0.0
 40
1.5
 50
270.0
 51
0.0
  0
ARC
  5
E44
  8
SK1
 10
270.0
 20
11.19999999999999
 30
0.0
 40
1.5
 50
0.0
 51
90.0
  0
LINE
  5
E45
  8
SK1
 10
254.9990711606
 20
12.69999999999999
 30
0.0
 11
254.3035276181
 21
12.51362966950001
 31
0.0
  0
LINE
  5
E46
  8
SK1
 10
254.3035276181
 20
-12.51362966940002
 30
0.0
 11
254.9990711606
 21
-12.69999999999999
 31
0.0
  0
LINE
  5
E4E
  8
SK1
 10
258.9022
 20
26.20549999999997
 30
0.0
 11
254.0
 21
26.20549999999997
 31
0.0
  0
LINE
  5
E4F
  8
SK1
 10
258.9022
 20
26.20549999999997
 30
0.0
 11
258.9022
 21
16.68049999999999
 31
0.0
  0
LINE
  5
E50
  8
SK1
 10
258.9022
 20
16.68049999999999
 30
0.0
 11
254.0
 21
16.68049999999999
 31
0.0
  0
LINE
  5
E51
  8
SK1
 10
258.9022
 20
-16.68049999999999
 30
0.0
 11
254.0
 21
-16.68049999999999
 31
0.0
  0
LINE
  5
E52
  8
SK1
 10
258.9022
 20
-16.68049999999999
 30
0.0
 11
258.9022
 21
-26.20550000000003
 31
0.0
  0
LINE
  5
E53
  8
SK1
 10
258.9022
 20
-26.20550000000003
 30
0.0
 11
254.0
 21
-26.20550000000003
 31
0.0
  0
LINE
  5
E54
  8
SK1
 10
282.5749999999999
 20
14.22399999999999
 30
0.0
 11
282.5749999999999
 21
-14.22399999999999
 31
0.0
  0
LINE
  5
E55
  8
SK1
 10
281.813
 20
14.98599999999999
 30
0.0
 11
281.813
 21
-14.98599999999999
 31
0.0
  0
LINE
  5
E56
  8
SK1
 10
273.812
 20
14.98599999999999
 30
0.0
 11
273.812
 21
-14.98599999999999
 31
0.0
  0
LINE
  5
E57
  8
SK1
 10
273.05
 20
14.22399999999999
 30
0.0
 11
273.05
 21
-14.22399999999999
 31
0.0
  0
LINE
  5
E7F
  8
SK1
 10
254.9990711606
 20
0.0
 30
0.0
 11
254.9990711606
 21
12.69999999999999
 31
0.0
  0
LINE
  5
E80
  8
SK1
 10
254.9990711606
 20
-12.69999999999999
 30
0.0
 11
254.9990711606
 21
0.0
 31
0.0
  0
LINE
  5
E81
  8
SK1
 10
271.5
 20
0.0
 30
0.0
 11
271.5
 21
11.19999999999999
 31
0.0
  0
LINE
  5
E82
  8
SK1
 10
271.5
 20
-11.19999999999999
 30
0.0
 11
271.5
 21
0.0
 31
0.0
  0
LINE
  5
EC1
  8
SK3
 10
274.9549999999999
 20
4.013199999999983
 30
0.0
 11
274.9549999999999
 21
-4.013199999999983
 31
0.0
  0
LINE
  5
EC2
  8
SK3
 10
275.463
 20
2.317022100299994
 30
0.0
 11
275.463
 21
0.0
 31
0.0
  0
LINE
  5
EC3
  8
SK3
 10
275.463
 20
0.0
 30
0.0
 11
275.463
 21
-2.317022100299994
 31
0.0
  0
LINE
  5
EC4
  8
SK3
 10
275.463
 20
-2.317022100299994
 30
0.0
 11
282.5749999999999
 21
-2.317022100299994
 31
0.0
  0
LINE
  5
EC5
  8
SK3
 10
275.463
 20
-2.317022100299994
 30
0.0
 11
275.463
 21
-3.475533150399997
 31
0.0
  0
LINE
  5
EC6
  8
SK3
 10
275.463
 20
2.317022100299994
 30
0.0
 11
282.5749999999999
 21
2.317022100299994
 31
0.0
  0
LINE
  5
EC7
  8
SK3
 10
275.463
 20
3.475533150499984
 30
0.0
 11
275.463
 21
2.317022100299994
 31
0.0
  0
LINE
  5
EC8
  8
SK3
 10
275.463
 20
4.634044200699975
 30
0.0
 11
275.463
 21
3.475533150499984
 31
0.0
  0
LINE
  5
EC9
  8
SK3
 10
275.463
 20
-3.475533150399997
 30
0.0
 11
275.463
 21
-4.634044200599988
 31
0.0
  0
LINE
  5
ECA
  8
SK3
 10
275.463
 20
4.634044200699975
 30
0.0
 11
282.5749999999999
 21
4.634044200699975
 31
0.0
  0
LINE
  5
ECB
  8
SK3
 10
275.463
 20
-4.634044200599988
 30
0.0
 11
282.5749999999999
 21
-4.634044200599988
 31
0.0
  0
LINE
  5
EE3
  8
SK3
 10
269.9411543113
 20
6.350000000000023
 30
0.0
 11
269.9411543113
 21
-6.350000000000023
 31
0.0
  0
LINE
  5
F17
  8
SK3
 10
271.5
 20
6.350000000000023
 30
0.0
 11
254.0
 21
6.350000000000023
 31
0.0
  0
LINE
  5
F18
  8
SK3
 10
254.0
 20
-6.350000000000023
 30
0.0
 11
271.5
 21
-6.350000000000023
 31
0.0
  0
LINE
  5
F1B
  8
SK3
 10
275.463
 20
4.013199999999983
 30
0.0
 11
274.9549999999999
 21
4.013199999999983
 31
0.0
  0
LINE
  5
F1C
  8
SK3
 10
274.9549999999999
 20
-4.013199999999983
 30
0.0
 11
275.463
 21
-4.013199999999983
 31
0.0
  0
LINE
  5
F1D
  8
SK3
 10
274.9549999999999
 20
4.013199999999983
 30
0.0
 11
272.5436261637
 21
0.0
 31
0.0
  0
LINE
  5
F1E
  8
SK3
 10
272.5436261637
 20
0.0
 30
0.0
 11
274.9549999999999
 21
-4.013199999999983
 31
0.0
  0
LINE
  5
F2E
  8
SK3
 10
271.5
 20
1.75
 30
0.0
 11
254.0
 21
1.75
 31
0.0
  0
LINE
  5
F2F
  8
SK3
 10
254.0
 20
-1.75
 30
0.0
 11
271.5
 21
-1.75
 31
0.0
  0
LINE
  5
F36
  8
SK3
 10
271.5
 20
7.249999978000005
 30
0.0
 11
269.9411543113
 21
6.350000000000023
 31
0.0
  0
LINE
  5
F37
  8
SK3
 10
269.9411543113
 20
-6.350000000000023
 30
0.0
 11
271.5
 21
-7.249999978000005
 31
0.0
  0
LINE
  5
F38
  8
SK3
 10
269.9411543113
 20
6.350000000000023
 30
0.0
 11
254.0
 21
6.350000000000023
 31
0.0
  0
LINE
  5
F39
  8
SK3
 10
254.0
 20
-6.350000000000023
 30
0.0
 11
269.9411543113
 21
-6.350000000000023
 31
0.0
  0
LINE
  5
F50
  8
SK3
 10
271.5
 20
-6.260734984999999
 30
0.0
 11
254.0
 21
-6.260734984999999
 31
0.0
  0
LINE
  5
F51
  8
SK3
 10
254.0
 20
-9.760734985
 30
0.0
 11
271.5
 21
-9.760734985
 31
0.0
  0
LINE
  5
F52
  8
SK3
 10
271.5
 20
9.760734985
 30
0.0
 11
254.0
 21
9.760734985
 31
0.0
  0
LINE
  5
F53
  8
SK3
 10
254.0
 20
6.260734984999999
 30
0.0
 11
271.5
 21
6.260734984999999
 31
0.0
  0
LINE
  5
F62
  8
SK3
 10
-4.074389157900015
 20
5.754369999999994
 30
0.0
 11
0.0
 21
5.754369999999994
 31
0.0
  0
LINE
  5
F63
  8
SK3
 10
-4.074389157900015
 20
-5.754369999999994
 30
0.0
 11
0.0
 21
-5.754369999999994
 31
0.0
  0
LINE
  5
F69
  8
SK4
 10
254.0
 20
0.0
 30
0.0
 11
282.5749999999999
 21
0.0
 31
0.0
  0
DIMENSION
  5
F6B
  8
SK2
  2
*D10
 10
299.9949924291873
 20
-27.8003
 30
0.0
 11
298.1199924291873
 21
-0.0000000000000036
 31
0.0
 70
    32
  3
ISO-25
 13
253.0
 23
27.80029999999999
 33
0.0
 14
253.0
 24
-27.80029999999999
 34
0.0
 50
90.0
1001
ACAD
1000
DSTYLE
1002
{
1070
   287
1070
     5
1070
   271
1070
     2
1070
   272
1070
     3
1070
   279
1070
     2
1002
}
  0
DIMENSION
  5
F7A
  8
SK2
  2
*D11
 10
291.2547291998209
 20
-12.69999999999999
 30
0.0
 11
289.3797291998209
 21
-0.0000000000000018
 31
0.0
 70
    32
  3
ISO-25
 13
270.0
 23
12.69999999999999
 33
0.0
 14
270.0
 24
-12.69999999999999
 34
0.0
 50
90.0
1001
ACAD
1000
DSTYLE
1002
{
1070
   287
1070
     5
1070
   271
1070
     3
1070
   272
1070
     3
1070
   279
1070
     2
1002
}
  0
LINE
  5
F8D
  8
NOCUT
 10
253.0
 20
27.80029999999999
 30
0.0
 11
37.05000000000001
 21
27.80029999999999
 31
0.0
  0
ARC
  5
F8F
  8
NOCUT
 10
37.05000000000001
 20
29.80029999999999
 30
0.0
 40
2.0
 50
180.0
 51
270.0
  0
ARC
  5
F90
  8
NOCUT
 10
253.0
 20
26.80029999999999
 30
0.0
 40
1.0
 50
0.0
 51
90.0
  0
LINE
  5
F91
  8
NOCUT
 10
254.0285053027
 20
26.20931000000002
 30
0.0
 11
254.0
 21
26.20931000000002
 31
0.0
  0
LINE
  5
F92
  8
NOCUT
 10
254.0
 20
0.0
 30
0.0
 11
254.0
 21
26.80029999999999
 31
0.0
  0
LINE
  5
F94
  8
NOCUT
 10
35.05
 20
34.42499999999999
 30
0.0
 11
35.05000000000001
 21
29.80029999999998
 31
0.0
  0
ENDSEC
  0
EOF
