  0
SECTION
  2
HEADER
  9
$ACADVER
  1
AC1015
  9
$ACADMAINTVER
 70
    20
  9
$DWGCODEPAGE
  3
ANSI_932
  9
$INSBASE
 10
0.0
 20
0.0
 30
0.0
  9
$EXTMIN
 10
-102.6
 20
-49.21250000000004
 30
0.0
  9
$EXTMAX
 10
106.0
 20
92.49999999999998
 30
0.0
  9
$LIMMIN
 10
0.0
 20
0.0
  9
$LIMMAX
 10
420.0
 20
297.0
  9
$ORTHOMODE
 70
     1
  9
$REGENMODE
 70
     1
  9
$FILLMODE
 70
     1
  9
$QTEXTMODE
 70
     0
  9
$MIRRTEXT
 70
     1
  9
$LTSCALE
 40
10.0
  9
$ATTMODE
 70
     1
  9
$TEXTSIZE
 40
3.0
  9
$TRACEWID
 40
1.0
  9
$TEXTSTYLE
  7
YOKO
  9
$CLAYER
  8
245
  9
$CELTYPE
  6
BYLAYER
  9
$CECOLOR
 62
   256
  9
$CELTSCALE
 40
1.0
  9
$DISPSILH
 70
     0
  9
$DIMSCALE
 40
1.0
  9
$DIMASZ
 40
2.0
  9
$DIMEXO
 40
0.5
  9
$DIMDLI
 40
2.5
  9
$DIMRND
 40
0.0
  9
$DIMDLE
 40
0.0
  9
$DIMEXE
 40
1.0
  9
$DIMTP
 40
0.0
  9
$DIMTM
 40
0.0
  9
$DIMTXT
 40
2.799999999999998
  9
$DIMCEN
 40
0.0
  9
$DIMTSZ
 40
0.0
  9
$DIMTOL
 70
     0
  9
$DIMLIM
 70
     0
  9
$DIMTIH
 70
     0
  9
$DIMTOH
 70
     0
  9
$DIMSE1
 70
     0
  9
$DIMSE2
 70
     0
  9
$DIMTAD
 70
     3
  9
$DIMZIN
 70
     8
  9
$DIMBLK
  1

  9
$DIMASO
 70
     1
  9
$DIMSHO
 70
     1
  9
$DIMPOST
  1
<>
  9
$DIMAPOST
  1

  9
$DIMALT
 70
     0
  9
$DIMALTD
 70
     2
  9
$DIMALTF
 40
25.4
  9
$DIMLFAC
 40
1.0
  9
$DIMTOFL
 70
     1
  9
$DIMTVP
 40
0.0
  9
$DIMTIX
 70
     1
  9
$DIMSOXD
 70
     0
  9
$DIMSAH
 70
     1
  9
$DIMBLK1
  1
OPEN
  9
$DIMBLK2
  1
OPEN
  9
$DIMSTYLE
  2
BIGT
  9
$DIMCLRD
 70
   256
  9
$DIMCLRE
 70
   256
  9
$DIMCLRT
 70
    40
  9
$DIMTFAC
 40
1.0
  9
$DIMGAP
 40
1.0
  9
$DIMJUST
 70
     0
  9
$DIMSD1
 70
     0
  9
$DIMSD2
 70
     0
  9
$DIMTOLJ
 70
     1
  9
$DIMTZIN
 70
     8
  9
$DIMALTZ
 70
     0
  9
$DIMALTTZ
 70
     0
  9
$DIMUPT
 70
     1
  9
$DIMDEC
 70
     3
  9
$DIMTDEC
 70
     3
  9
$DIMALTU
 70
     2
  9
$DIMALTTD
 70
     2
  9
$DIMTXSTY
  7
STANDARD
  9
$DIMAUNIT
 70
     0
  9
$DIMADEC
 70
     3
  9
$DIMALTRND
 40
0.0
  9
$DIMAZIN
 70
     2
  9
$DIMDSEP
 70
    46
  9
$DIMATFIT
 70
     3
  9
$DIMFRAC
 70
     0
  9
$DIMLDRBLK
  1
OPEN
  9
$DIMLUNIT
 70
     2
  9
$DIMLWD
 70
    -1
  9
$DIMLWE
 70
    -1
  9
$DIMTMOVE
 70
     0
  9
$LUNITS
 70
     2
  9
$LUPREC
 70
     3
  9
$SKETCHINC
 40
1.0
  9
$FILLETRAD
 40
2.0
  9
$AUNITS
 70
     0
  9
$AUPREC
 70
     3
  9
$MENU
  1
.
  9
$ELEVATION
 40
0.0
  9
$PELEVATION
 40
0.0
  9
$THICKNESS
 40
0.0
  9
$LIMCHECK
 70
     0
  9
$CHAMFERA
 40
10.0
  9
$CHAMFERB
 40
10.0
  9
$CHAMFERC
 40
0.0
  9
$CHAMFERD
 40
0.0
  9
$SKPOLY
 70
     0
  9
$TDCREATE
 40
2455356.488344178
  9
$TDUCREATE
 40
2455356.113344178
  9
$TDUPDATE
 40
2457003.608711656
  9
$TDUUPDATE
 40
2457003.233711655
  9
$TDINDWG
 40
0.2328828704
  9
$TDUSRTIMER
 40
0.2328644213
  9
$USRTIMER
 70
     1
  9
$ANGBASE
 50
0.0
  9
$ANGDIR
 70
     0
  9
$PDMODE
 70
     0
  9
$PDSIZE
 40
-5.0
  9
$PLINEWID
 40
0.0
  9
$SPLFRAME
 70
     0
  9
$SPLINETYPE
 70
     6
  9
$SPLINESEGS
 70
     8
  9
$HANDSEED
  5
1B32
  9
$SURFTAB1
 70
     6
  9
$SURFTAB2
 70
     6
  9
$SURFTYPE
 70
     6
  9
$SURFU
 70
     6
  9
$SURFV
 70
     6
  9
$UCSBASE
  2

  9
$UCSNAME
  2

  9
$UCSORG
 10
0.0
 20
0.0
 30
0.0
  9
$UCSXDIR
 10
1.0
 20
0.0
 30
0.0
  9
$UCSYDIR
 10
0.0
 20
1.0
 30
0.0
  9
$UCSORTHOREF
  2

  9
$UCSORTHOVIEW
 70
     0
  9
$UCSORGTOP
 10
0.0
 20
0.0
 30
0.0
  9
$UCSORGBOTTOM
 10
0.0
 20
0.0
 30
0.0
  9
$UCSORGLEFT
 10
0.0
 20
0.0
 30
0.0
  9
$UCSORGRIGHT
 10
0.0
 20
0.0
 30
0.0
  9
$UCSORGFRONT
 10
0.0
 20
0.0
 30
0.0
  9
$UCSORGBACK
 10
0.0
 20
0.0
 30
0.0
  9
$PUCSBASE
  2

  9
$PUCSNAME
  2

  9
$PUCSORG
 10
0.0
 20
0.0
 30
0.0
  9
$PUCSXDIR
 10
1.0
 20
0.0
 30
0.0
  9
$PUCSYDIR
 10
0.0
 20
1.0
 30
0.0
  9
$PUCSORTHOREF
  2

  9
$PUCSORTHOVIEW
 70
     0
  9
$PUCSORGTOP
 10
0.0
 20
0.0
 30
0.0
  9
$PUCSORGBOTTOM
 10
0.0
 20
0.0
 30
0.0
  9
$PUCSORGLEFT
 10
0.0
 20
0.0
 30
0.0
  9
$PUCSORGRIGHT
 10
0.0
 20
0.0
 30
0.0
  9
$PUCSORGFRONT
 10
0.0
 20
0.0
 30
0.0
  9
$PUCSORGBACK
 10
0.0
 20
0.0
 30
0.0
  9
$USERI1
 70
     1
  9
$USERI2
 70
     0
  9
$USERI3
 70
     0
  9
$USERI4
 70
     0
  9
$USERI5
 70
     0
  9
$USERR1
 40
0.0
  9
$USERR2
 40
0.0
  9
$USERR3
 40
0.0
  9
$USERR4
 40
0.0
  9
$USERR5
 40
0.0
  9
$WORLDVIEW
 70
     1
  9
$SHADEDGE
 70
     3
  9
$SHADEDIF
 70
    70
  9
$TILEMODE
 70
     1
  9
$MAXACTVP
 70
    16
  9
$PINSBASE
 10
0.0
 20
0.0
 30
0.0
  9
$PLIMCHECK
 70
     0
  9
$PEXTMIN
 10
1.000000000000000E+20
 20
1.000000000000000E+20
 30
1.000000000000000E+20
  9
$PEXTMAX
 10
-1.000000000000000E+20
 20
-1.000000000000000E+20
 30
-1.000000000000000E+20
  9
$PLIMMIN
 10
0.0
 20
0.0
  9
$PLIMMAX
 10
420.0
 20
297.0
  9
$UNITMODE
 70
     0
  9
$VISRETAIN
 70
     0
  9
$PLINEGEN
 70
     0
  9
$PSLTSCALE
 70
     1
  9
$TREEDEPTH
 70
  3020
  9
$CMLSTYLE
  2
STANDARD
  9
$CMLJUST
 70
     0
  9
$CMLSCALE
 40
1.0
  9
$PROXYGRAPHICS
 70
     1
  9
$MEASUREMENT
 70
     1
  9
$CELWEIGHT
370
    -1
  9
$ENDCAPS
280
     0
  9
$JOINSTYLE
280
     0
  9
$LWDISPLAY
290
     0
  9
$INSUNITS
 70
     0
  9
$HYPERLINKBASE
  1

  9
$STYLESHEET
  1
BIG.CTB
  9
$XEDIT
290
     1
  9
$CEPSNTYPE
380
     0
  9
$PSTYLEMODE
290
     1
  9
$FINGERPRINTGUID
  2
{51294030-9CB4-11D3-8E18-00A0C925D94D}
  9
$VERSIONGUID
  2
{6ABE0468-B8FC-41D8-AFDB-0C4BA16C3572}
  9
$EXTNAMES
290
     1
  9
$PSVPSCALE
 40
0.0
  9
$OLESTARTUP
290
     0
  0
ENDSEC
  0
SECTION
  2
CLASSES
  0
CLASS
  1
ACDBDICTIONARYWDFLT
  2
AcDbDictionaryWithDefault
  3
ObjectDBX Classes
 90
        0
280
     0
281
     0
  0
CLASS
  1
PLOTSETTINGS
  2
AcDbPlotSettings
  3
ObjectDBX Classes
 90
        0
280
     0
281
     0
  0
CLASS
  1
MATERIAL
  2
AcDbMaterial
  3
ObjectDBX Classes
 90
     1024
280
     0
281
     0
  0
CLASS
  1
VISUALSTYLE
  2
AcDbVisualStyle
  3
ObjectDBX Classes
 90
     4095
280
     0
281
     0
  0
CLASS
  1
TABLESTYLE
  2
AcDbTableStyle
  3
ObjectDBX Classes
 90
     4095
280
     0
281
     0
  0
CLASS
  1
SORTENTSTABLE
  2
AcDbSortentsTable
  3
ObjectDBX Classes
 90
        0
280
     0
281
     0
  0
CLASS
  1
DICTIONARYVAR
  2
AcDbDictionaryVar
  3
ObjectDBX Classes
 90
        0
280
     0
281
     0
  0
CLASS
  1
ACDBPLACEHOLDER
  2
AcDbPlaceHolder
  3
ObjectDBX Classes
 90
        0
280
     0
281
     0
  0
CLASS
  1
LAYOUT
  2
AcDbLayout
  3
ObjectDBX Classes
 90
        0
280
     0
281
     0
  0
ENDSEC
  0
SECTION
  2
TABLES
  0
TABLE
  2
VPORT
  5
8
330
0
100
AcDbSymbolTable
 70
     1
  0
VPORT
  5
110D
330
8
100
AcDbSymbolTableRecord
100
AcDbViewportTableRecord
  2
*ACTIVE
 70
     0
 10
0.0
 20
0.0
 11
1.0
 21
1.0
 12
1.707088741528707
 22
21.6454758838944
 13
0.0
 23
0.0
 14
7.0
 24
7.0
 15
7.0
 25
7.0
 16
0.0
 26
0.0
 36
1.0
 17
0.0
 27
0.0
 37
0.0
 40
142.5849601408537
 41
1.755489021956087
 42
50.0
 43
0.0
 44
0.0
 50
0.0
 51
0.0
 71
     0
 72
  2000
 73
     1
 74
     0
 75
     0
 76
     0
 77
     0
 78
     0
281
     0
 65
     1
110
0.0
120
0.0
130
0.0
111
1.0
121
0.0
131
0.0
112
0.0
122
1.0
132
0.0
 79
     0
146
0.0
  0
ENDTAB
  0
TABLE
  2
LTYPE
  5
5
330
0
100
AcDbSymbolTable
 70
     3
  0
LTYPE
  5
14
330
5
100
AcDbSymbolTableRecord
100
AcDbLinetypeTableRecord
  2
BYBLOCK
 70
     0
  3

 72
    65
 73
     0
 40
0.0
  0
LTYPE
  5
15
330
5
100
AcDbSymbolTableRecord
100
AcDbLinetypeTableRecord
  2
BYLAYER
 70
     0
  3

 72
    65
 73
     0
 40
0.0
  0
LTYPE
  5
16
330
5
100
AcDbSymbolTableRecord
100
AcDbLinetypeTableRecord
  2
CONTINUOUS
 70
     0
  3
Solid line
 72
    65
 73
     0
 40
0.0
  0
LTYPE
  5
258
330
5
100
AcDbSymbolTableRecord
100
AcDbLinetypeTableRecord
  2
CENTER2
 70
     0
  3
___ _ ___ _ ___ _ ___ _ ___ _ ___ _ ___ _ ___ _
 72
    65
 73
     4
 40
1.125
 49
0.75
 74
     0
 49
-0.125
 74
     0
 49
0.125
 74
     0
 49
-0.125
 74
     0
  0
LTYPE
  5
25C
330
5
100
AcDbSymbolTableRecord
100
AcDbLinetypeTableRecord
  2
HIDDEN2
 70
     0
  3
_ _ _ _ _ _ _ _ _ _ _ _ _ _ _ _ _ _ _ _ _ _ _ _
 72
    65
 73
     2
 40
0.1875
 49
0.125
 74
     0
 49
-0.0625
 74
     0
  0
ENDTAB
  0
TABLE
  2
LAYER
  5
2
102
{ACAD_XDICTIONARY
360
117B
102
}
330
0
100
AcDbSymbolTable
 70
     7
  0
LAYER
  5
F
330
2
100
AcDbSymbolTableRecord
100
AcDbLayerTableRecord
  2
0
 70
     0
 62
     7
  6
CONTINUOUS
370
    -3
390
564
  0
LAYER
  5
1AA
330
2
100
AcDbSymbolTableRecord
100
AcDbLayerTableRecord
  2
240
 70
     0
 62
     4
  6
CONTINUOUS
370
    -3
390
564
  0
LAYER
  5
1AB
330
2
100
AcDbSymbolTableRecord
100
AcDbLayerTableRecord
  2
241
 70
     0
 62
   211
  6
CONTINUOUS
370
    -3
390
564
  0
LAYER
  5
1AF
330
2
100
AcDbSymbolTableRecord
100
AcDbLayerTableRecord
  2
245
 70
     0
 62
     2
  6
CENTER2
370
    -3
390
564
  0
LAYER
  5
21E
330
2
100
AcDbSymbolTableRecord
100
AcDbLayerTableRecord
  2
250
 70
     0
 62
     3
  6
CONTINUOUS
370
    -3
390
564
  0
LAYER
  5
21F
330
2
100
AcDbSymbolTableRecord
100
AcDbLayerTableRecord
  2
251
 70
     0
 62
    40
  6
CONTINUOUS
370
    -3
390
564
  0
LAYER
  5
5C4
330
2
100
AcDbSymbolTableRecord
100
AcDbLayerTableRecord
  2
DEFPOINTS
 70
     0
 62
     7
  6
CONTINUOUS
290
     0
370
    -3
390
564
  0
ENDTAB
  0
TABLE
  2
STYLE
  5
3
330
0
100
AcDbSymbolTable
 70
     2
  0
STYLE
  5
10
330
3
100
AcDbSymbolTableRecord
100
AcDbTextStyleTableRecord
  2
STANDARD
 70
     0
 40
0.0
 41
1.0
 50
0.0
 71
     0
 42
2.799999999999998
  3
romans.shx
  4
BIGFONT.SHX
  0
STYLE
  5
339
330
3
100
AcDbSymbolTableRecord
100
AcDbTextStyleTableRecord
  2
YOKO
 70
     0
 40
0.0
 41
1.0
 50
0.0
 71
     0
 42
3.0
  3
romans.shx
  4
extfont.shx
  0
ENDTAB
  0
TABLE
  2
VIEW
  5
6
330
0
100
AcDbSymbolTable
 70
     0
  0
ENDTAB
  0
TABLE
  2
UCS
  5
7
330
0
100
AcDbSymbolTable
 70
     0
  0
ENDTAB
  0
TABLE
  2
APPID
  5
9
330
0
100
AcDbSymbolTable
 70
    13
  0
APPID
  5
11
330
9
100
AcDbSymbolTableRecord
100
AcDbRegAppTableRecord
  2
ACAD
 70
     0
  0
APPID
  5
1B1
330
9
100
AcDbSymbolTableRecord
100
AcDbRegAppTableRecord
  2
GLOBAL
 70
     0
  0
APPID
  5
2A4
330
9
100
AcDbSymbolTableRecord
100
AcDbRegAppTableRecord
  2
DETAIL
 70
     0
  0
APPID
  5
5FD
330
9
100
AcDbSymbolTableRecord
100
AcDbRegAppTableRecord
  2
GRPNAME
 70
     0
  0
APPID
  5
5FE
330
9
100
AcDbSymbolTableRecord
100
AcDbRegAppTableRecord
  2
GPARA
 70
     0
  0
APPID
  5
6C4
330
9
100
AcDbSymbolTableRecord
100
AcDbRegAppTableRecord
  2
DCO15
 70
     0
  0
APPID
  5
6C5
330
9
100
AcDbSymbolTableRecord
100
AcDbRegAppTableRecord
  2
ITEMNAME
 70
     0
  0
APPID
  5
6C6
330
9
100
AcDbSymbolTableRecord
100
AcDbRegAppTableRecord
  2
GRADE_0
 70
     0
  0
APPID
  5
A02
330
9
100
AcDbSymbolTableRecord
100
AcDbRegAppTableRecord
  2
CONTENTBLOCKICON
 70
     0
  0
APPID
  5
1177
330
9
100
AcDbSymbolTableRecord
100
AcDbRegAppTableRecord
  2
Layer_Scale
 70
     0
  0
APPID
  5
1178
330
9
100
AcDbSymbolTableRecord
100
AcDbRegAppTableRecord
  2
ACAD_PSEXT
 70
     0
  0
APPID
  5
1179
330
9
100
AcDbSymbolTableRecord
100
AcDbRegAppTableRecord
  2
ACAD_NAV_VCDISPLAY
 70
     0
  0
APPID
  5
117A
330
9
100
AcDbSymbolTableRecord
100
AcDbRegAppTableRecord
  2
ASK_MEN_XD
 70
     0
  0
ENDTAB
  0
TABLE
  2
DIMSTYLE
  5
A
330
0
100
AcDbSymbolTable
 70
     1
100
AcDbDimStyleTable
 71
     1
340
725
  0
DIMSTYLE
105
725
102
{ACAD_REACTORS
330
1212
330
1213
330
12E1
102
}
330
A
100
AcDbSymbolTableRecord
100
AcDbDimStyleTableRecord
  2
BIGT
 70
     0
 41
2.229999999999999
 42
0.5
 43
2.5
 44
1.0
 73
     0
 74
     0
 77
     3
 78
     8
140
2.799999999999998
141
0.0
147
1.0
172
     1
173
     1
174
     1
176
   256
177
   256
178
    40
271
     3
272
     3
284
     8
340
10
341
594
343
594
344
594
  0
ENDTAB
  0
TABLE
  2
BLOCK_RECORD
  5
1
330
0
100
AcDbSymbolTable
 70
     7
  0
BLOCK_RECORD
  5
1A
102
{ACAD_XDICTIONARY
360
9F8
102
}
330
1
100
AcDbSymbolTableRecord
100
AcDbBlockTableRecord
  2
*MODEL_SPACE
340
1159
  0
BLOCK_RECORD
  5
17
102
{ACAD_XDICTIONARY
360
9F6
102
}
330
1
100
AcDbSymbolTableRecord
100
AcDbBlockTableRecord
  2
*PAPER_SPACE
340
115A
  0
BLOCK_RECORD
  5
594
330
1
100
AcDbSymbolTableRecord
100
AcDbBlockTableRecord
  2
_OPEN
340
0
102
{BLKREFS
331
1304
331
1306
331
175F
331
1852
331
1853
331
185B
331
185C
102
}
  0
BLOCK_RECORD
  5
6E3
330
1
100
AcDbSymbolTableRecord
100
AcDbBlockTableRecord
  2
矢印なし
340
0
102
{BLKREFS
331
6E6
331
1302
331
175E
102
}
  0
BLOCK_RECORD
  5
985
330
1
100
AcDbSymbolTableRecord
100
AcDbBlockTableRecord
  2
1
340
0
310
2800000020000000200000000100080000000000000400000000000000000000000000000000000000000000000080000080000000808000800000008000800080800000C0C0C000C0DCC000F0CAA6000020400000206000002080000020A0000020C0000020E00000400000004020000040400000406000004080000040A0
310
000040C0000040E00000600000006020000060400000606000006080000060A0000060C0000060E00000800000008020000080400000806000008080000080A0000080C0000080E00000A0000000A0200000A0400000A0600000A0800000A0A00000A0C00000A0E00000C0000000C0200000C0400000C0600000C0800000C0
310
A00000C0C00000C0E00000E0000000E0200000E0400000E0600000E0800000E0A00000E0C00000E0E00040000000400020004000400040006000400080004000A0004000C0004000E00040200000402020004020400040206000402080004020A0004020C0004020E000404000004040200040404000404060004040800040
310
40A0004040C0004040E00040600000406020004060400040606000406080004060A0004060C0004060E00040800000408020004080400040806000408080004080A0004080C0004080E00040A0000040A0200040A0400040A0600040A0800040A0A00040A0C00040A0E00040C0000040C0200040C0400040C0600040C08000
310
40C0A00040C0C00040C0E00040E0000040E0200040E0400040E0600040E0800040E0A00040E0C00040E0E00080000000800020008000400080006000800080008000A0008000C0008000E00080200000802020008020400080206000802080008020A0008020C0008020E00080400000804020008040400080406000804080
310
008040A0008040C0008040E00080600000806020008060400080606000806080008060A0008060C0008060E00080800000808020008080400080806000808080008080A0008080C0008080E00080A0000080A0200080A0400080A0600080A0800080A0A00080A0C00080A0E00080C0000080C0200080C0400080C0600080C0
310
800080C0A00080C0C00080C0E00080E0000080E0200080E0400080E0600080E0800080E0A00080E0C00080E0E000C0000000C0002000C0004000C0006000C0008000C000A000C000C000C000E000C0200000C0202000C0204000C0206000C0208000C020A000C020C000C020E000C0400000C0402000C0404000C0406000C0
310
408000C040A000C040C000C040E000C0600000C0602000C0604000C0606000C0608000C060A000C060C000C060E000C0800000C0802000C0804000C0806000C0808000C080A000C080C000C080E000C0A00000C0A02000C0A04000C0A06000C0A08000C0A0A000C0A0C000C0A0E000C0C00000C0C02000C0C04000C0C06000
310
C0C08000C0C0A000F0FBFF00A4A0A000808080000000FF0000FF000000FFFF00FF000000FF00FF00FFFF0000FFFFFF0000000000000000000000000000000000000000000000000000000000000000000000000000000000000000000000000000000000000000000000000000000000000000000000000000000000000000
310
00000000000000000000000000000000000000000000000000000000000000000000000000000000000000000000000000000000000000000000000000000000000000000000000000000000000000000000000000000000000000000000000000000000000000000000000000000000000000000000000000000000000000
310
00000000000000000000000000000000000000000000000000000000000000000000000000000000000000000000000000000000000000000000000000000000000000FEFEFE0000000000000000000000000000000000000000000000000000000000FEFEFE00000000000000000000000000000000000000000000000000
310
00FEFEFEFEE7FEFEFEFEFEFE0000000000000000000000000000000000FEFEFEFE0000E7E7E7E700E7E700E7FEFEFEFEFE00000000000000FEFEFEFEFE000000000000E7E7E7E700E7E700E7E700E700E700000000FEFEFE0000000000000000000000E7E7E7E700E7E700E7E700E700E700000000FE000000000000000000
310
00000000E7E7E7E700E7E700E7E700E700E700000000FE00000000000000000000000000E7E7E7E700E7E700E7E700E700E7000000FBFEFBFBFBFBFBFBFBFBFBFBFBFBFBE7E7E7E7FBE7E7FBE7E7FBE7FBE7FB000000FE00000000000000000000000000E7E7E7E700E7E700E7E700E700E700000000FEFEFE000000000000
310
0000000000E7E7E7E700E7E7E7E7E7E7E7E7E700000000000000FEFEFEFEFE000000000000E7E7E7E700E7E700E7E700E700E7000000000000000000000000FEFEFEFE0000E7E7E7E700E7E700E7FEFEFEFEFE00000000000000000000000000000000FEFEFEFEFBFEFEFEFEFEFE0000000000000000000000000000000000
310
00000000000000FEFEFE0000000000000000000000000000000000000000000000000000000000FEFEFE00000000000000000000000000000000000000000000000000000000000000000000000000000000000000000000000000000000000000000000000000000000000000000000000000000000000000000000000000
310
00000000000000000000000000000000000000000000000000000000000000000000000000000000000000000000000000000000000000000000000000000000000000000000000000000000000000000000000000000000000000000000000000000000000000000000000000000000000000000000000000000000000000
310
0000000000000000000000000000000000000000000000000000000000000000000000000000000000000000000000000000000000000000
102
{BLKREFS
331
17B8
102
}
  0
BLOCK_RECORD
  5
125D
330
1
100
AcDbSymbolTableRecord
100
AcDbBlockTableRecord
  2
*D3
340
0
  0
BLOCK_RECORD
  5
1269
330
1
100
AcDbSymbolTableRecord
100
AcDbBlockTableRecord
  2
*D4
340
0
  0
BLOCK_RECORD
  5
12E2
330
1
100
AcDbSymbolTableRecord
100
AcDbBlockTableRecord
  2
*D5
340
0
  0
BLOCK_RECORD
  5
1300
330
1
100
AcDbSymbolTableRecord
100
AcDbBlockTableRecord
  2
HDC-CLAMPSCREW
340
0
102
{BLKREFS
331
1748
102
}
  0
ENDTAB
  0
ENDSEC
  0
SECTION
  2
BLOCKS
  0
BLOCK
  5
1B
330
1A
100
AcDbEntity
  8
0
100
AcDbBlockBegin
  2
*MODEL_SPACE
 70
     0
 10
0.0
 20
0.0
 30
0.0
  3
*MODEL_SPACE
  1

  0
ENDBLK
  5
1C
330
1A
100
AcDbEntity
  8
0
100
AcDbBlockEnd
  0
BLOCK
  5
18
330
17
100
AcDbEntity
 67
     1
  8
0
100
AcDbBlockBegin
  2
*PAPER_SPACE
 70
     0
 10
0.0
 20
0.0
 30
0.0
  3
*PAPER_SPACE
  1

  0
ENDBLK
  5
19
330
17
100
AcDbEntity
 67
     1
  8
0
100
AcDbBlockEnd
  0
BLOCK
  5
598
330
594
100
AcDbEntity
  8
0
100
AcDbBlockBegin
  2
_OPEN
 70
     0
 10
0.0
 20
0.0
 30
0.0
  3
_OPEN
  1

  0
LINE
  5
595
330
594
100
AcDbEntity
  8
0
  6
ByBlock
 62
     0
100
AcDbLine
 10
-1.0
 20
0.16666667
 30
0.0
 11
0.0
 21
0.0
 31
0.0
  0
LINE
  5
596
330
594
100
AcDbEntity
  8
0
  6
ByBlock
 62
     0
100
AcDbLine
 10
-1.0
 20
-0.16666667
 30
0.0
 11
0.0
 21
0.0
 31
0.0
  0
LINE
  5
597
330
594
100
AcDbEntity
  8
0
  6
ByBlock
 62
     0
100
AcDbLine
 10
0.0
 20
0.0
 30
0.0
 11
-1.0
 21
0.0
 31
0.0
  0
ENDBLK
  5
599
330
594
100
AcDbEntity
  8
0
100
AcDbBlockEnd
  0
BLOCK
  5
6E4
330
6E3
100
AcDbEntity
  8
0
100
AcDbBlockBegin
  2
矢印なし
 70
     0
 10
0.0
 20
0.0
 30
0.0
  3
矢印なし
  1

  0
ENDBLK
  5
6E5
330
6E3
100
AcDbEntity
  8
0
100
AcDbBlockEnd
  0
BLOCK
  5
986
330
985
100
AcDbEntity
  8
0
100
AcDbBlockBegin
  2
1
 70
     0
 10
0.0
 20
0.0
 30
0.0
  3
1
  1

  0
LINE
  5
1764
330
985
100
AcDbEntity
  8
245
  6
CENTER2
100
AcDbLine
 10
-102.6
 20
-0.0000000000000284
 30
0.0
 11
91.00000000000044
 21
0.0000000000000284
 31
0.0
  0
LINE
  5
1765
330
985
100
AcDbEntity
  8
240
  6
Continuous
100
AcDbLine
 10
0.0
 20
34.92499999999998
 30
0.0
 11
-99.63190584999999
 21
20.39534705999998
 31
0.0
1001
GRPNAME
1000
PASTMD0L
  0
LINE
  5
1766
330
985
100
AcDbEntity
  8
240
  6
Continuous
100
AcDbLine
 10
0.0
 20
-34.92500000000004
 30
0.0
 11
-99.63190584999999
 21
-20.39534706000003
 31
0.0
1001
GRPNAME
1000
PASTMD0L
  0
LINE
  5
1767
330
985
100
AcDbEntity
  8
240
  6
Continuous
100
AcDbLine
 10
-101.6
 20
18.11942120999995
 30
0.0
 11
-101.6
 21
-0.0000000000000284
 31
0.0
1001
GRPNAME
1000
PASTMD0L
  0
LINE
  5
1768
330
985
100
AcDbEntity
  8
240
  6
Continuous
100
AcDbLine
 10
-101.6
 20
-18.11942121000001
 30
0.0
 11
-101.6
 21
-0.0000000000000284
 31
0.0
1001
GRPNAME
1000
PASTMD0L
  0
ARC
  5
1769
330
985
100
AcDbEntity
  8
240
  6
Continuous
100
AcDbCircle
 10
-99.29999999999999
 20
-18.11942121000001
 30
0.0
 40
2.299999999999998
100
AcDbArc
 50
180.0
 51
261.7028550300002
1001
GRPNAME
1000
PASTMD0L
  0
ARC
  5
176A
330
985
100
AcDbEntity
  8
240
  6
Continuous
100
AcDbCircle
 10
-99.29999999999999
 20
18.11942120999995
 30
0.0
 40
2.299999999999998
100
AcDbArc
 50
98.29714496999985
 51
180.0
1001
GRPNAME
1000
PASTMD0L
  0
LINE
  5
176B
330
985
100
AcDbEntity
  8
241
100
AcDbLine
 10
19.05000000000001
 20
34.92500000000003
 30
0.0
 11
19.05000000000001
 21
-0.0000000000000284
 31
0.0
  0
LINE
  5
176C
330
985
100
AcDbEntity
  8
245
  6
CENTER2
100
AcDbLine
 10
11.12
 20
-49.21250000000004
 30
0.0
 11
11.12
 21
49.21249999999997
 31
0.0
1001
GRPNAME
1000
PASTMD0L
  0
LINE
  5
176D
330
985
100
AcDbEntity
  8
241
  6
Continuous
100
AcDbLine
 10
7.593833230000001
 20
49.21249999999997
 30
0.0
 11
7.593833230000001
 21
12.95499999999998
 31
0.0
1001
GRPNAME
1000
PASTMD0L
  0
LINE
  5
176E
330
985
100
AcDbEntity
  8
241
  6
Continuous
100
AcDbLine
 10
9.199999999999988
 20
45.64499999999998
 30
0.0
 11
9.199999999999988
 21
12.95499999999998
 31
0.0
1001
GRPNAME
1000
PASTMD0L
  0
LINE
  5
176F
330
985
100
AcDbEntity
  8
241
  6
Continuous
100
AcDbLine
 10
13.03999999999999
 20
45.64499999999998
 30
0.0
 11
13.03999999999999
 21
12.95499999999998
 31
0.0
1001
GRPNAME
1000
PASTMD0L
  0
LINE
  5
1770
330
985
100
AcDbEntity
  8
241
  6
Continuous
100
AcDbLine
 10
14.64616677000001
 20
49.21249999999997
 30
0.0
 11
14.64616677000001
 21
12.95499999999998
 31
0.0
1001
GRPNAME
1000
PASTMD0L
  0
LINE
  5
1771
330
985
100
AcDbEntity
  8
241
  6
Continuous
100
AcDbLine
 10
0.0
 20
34.92499999999998
 30
0.0
 11
0.0
 21
-0.0000000000000284
 31
0.0
1001
GRPNAME
1000
PASTMD0L
  0
LINE
  5
1772
330
985
100
AcDbEntity
  8
241
  6
Continuous
100
AcDbLine
 10
1.5
 20
34.92499999999998
 30
0.0
 11
1.5
 21
-0.0000000000000284
 31
0.0
1001
GRPNAME
1000
PASTMD0L
  0
LINE
  5
1773
330
985
100
AcDbEntity
  8
240
  6
Continuous
100
AcDbLine
 10
19.05000000000001
 20
-49.21250000000004
 30
0.0
 11
19.05000000000018
 21
-34.92500000000005
 31
0.0
1001
GRPNAME
1000
PASTMD0L
  0
LINE
  5
1774
330
985
100
AcDbEntity
  8
241
  6
Continuous
100
AcDbLine
 10
13.03999999999999
 20
-45.64500000000004
 30
0.0
 11
13.03999999999999
 21
-12.95500000000004
 31
0.0
1001
GRPNAME
1000
PASTMD0L
  0
LINE
  5
1775
330
985
100
AcDbEntity
  8
241
  6
Continuous
100
AcDbLine
 10
14.64616677000001
 20
-49.21250000000004
 30
0.0
 11
14.64616677000001
 21
-12.95500000000004
 31
0.0
1001
GRPNAME
1000
PASTMD0L
  0
LINE
  5
1776
330
985
100
AcDbEntity
  8
241
  6
Continuous
100
AcDbLine
 10
7.593833230000001
 20
-49.21250000000004
 30
0.0
 11
7.593833230000001
 21
-12.95500000000004
 31
0.0
1001
GRPNAME
1000
PASTMD0L
  0
LINE
  5
1777
330
985
100
AcDbEntity
  8
241
  6
Continuous
100
AcDbLine
 10
9.199999999999988
 20
-12.95500000000004
 30
0.0
 11
9.199999999999988
 21
-45.64500000000004
 31
0.0
1001
GRPNAME
1000
PASTMD0L
  0
LINE
  5
1778
330
985
100
AcDbEntity
  8
240
  6
Continuous
100
AcDbLine
 10
1.5
 20
-49.21250000000004
 30
0.0
 11
1.5
 21
-34.92500000000004
 31
0.0
1001
GRPNAME
1000
PASTMD0L
  0
LINE
  5
1779
330
985
100
AcDbEntity
  8
240
  6
Continuous
100
AcDbLine
 10
14.64616677000001
 20
-49.21250000000004
 30
0.0
 11
19.05000000000001
 21
-49.21250000000004
 31
0.0
1001
GRPNAME
1000
PASTMD0L
  0
LINE
  5
177A
330
985
100
AcDbEntity
  8
240
  6
Continuous
100
AcDbLine
 10
1.5
 20
-49.21250000000004
 30
0.0
 11
7.593833230000001
 21
-49.21250000000004
 31
0.0
1001
GRPNAME
1000
PASTMD0L
  0
LINE
  5
177B
330
985
100
AcDbEntity
  8
240
  6
Continuous
100
AcDbLine
 10
9.199999999999988
 20
-45.64500000000004
 30
0.0
 11
13.03999999999999
 21
-45.64500000000004
 31
0.0
1001
GRPNAME
1000
PASTMD0L
  0
LINE
  5
177C
330
985
100
AcDbEntity
  8
240
  6
Continuous
100
AcDbLine
 10
9.199999999999988
 20
-46.43053755000003
 30
0.0
 11
7.593833230000001
 21
-49.21250000000004
 31
0.0
1001
GRPNAME
1000
PASTMD0L
  0
LINE
  5
177D
330
985
100
AcDbEntity
  8
240
  6
Continuous
100
AcDbLine
 10
9.199999999999988
 20
-45.64500000000004
 30
0.0
 11
9.199999999999988
 21
-46.43053755000003
 31
0.0
1001
GRPNAME
1000
PASTMD0L
  0
LINE
  5
177E
330
985
100
AcDbEntity
  8
240
  6
Continuous
100
AcDbLine
 10
13.03999999999999
 20
-46.43053755000003
 30
0.0
 11
14.64616677000001
 21
-49.21250000000004
 31
0.0
1001
GRPNAME
1000
PASTMD0L
  0
LINE
  5
177F
330
985
100
AcDbEntity
  8
240
  6
Continuous
100
AcDbLine
 10
13.03999999999999
 20
-45.64500000000004
 30
0.0
 11
13.03999999999999
 21
-46.43053755000003
 31
0.0
1001
GRPNAME
1000
PASTMD0L
  0
LINE
  5
1780
330
985
100
AcDbEntity
  8
241
100
AcDbLine
 10
19.05000000000001
 20
-34.92500000000002
 30
0.0
 11
19.05000000000001
 21
-0.0000000000000284
 31
0.0
  0
LINE
  5
1781
330
985
100
AcDbEntity
  8
241
  6
Continuous
100
AcDbLine
 10
1.5
 20
-34.92500000000004
 30
0.0
 11
1.5
 21
-0.0000000000000284
 31
0.0
1001
GRPNAME
1000
PASTMD0L
  0
LINE
  5
1782
330
985
100
AcDbEntity
  8
241
  6
Continuous
100
AcDbLine
 10
0.0
 20
-34.92500000000004
 30
0.0
 11
0.0
 21
-0.0000000000000284
 31
0.0
1001
GRPNAME
1000
PASTMD0L
  0
LINE
  5
1783
330
985
100
AcDbEntity
  8
241
  6
Continuous
100
AcDbLine
 10
19.05000000000001
 20
-12.95500000000004
 30
0.0
 11
1.5
 21
-12.95500000000004
 31
0.0
1001
GRPNAME
1000
PASTMD0K
  0
LINE
  5
1784
330
985
100
AcDbEntity
  8
240
100
AcDbLine
 10
0.0
 20
-34.92500000000004
 30
0.0
 11
1.5
 21
-34.92500000000004
 31
0.0
  0
LINE
  5
1785
330
985
100
AcDbEntity
  8
241
  6
Continuous
100
AcDbLine
 10
19.05000000000001
 20
12.95499999999998
 30
0.0
 11
1.5
 21
12.95499999999998
 31
0.0
1001
GRPNAME
1000
PASTMD0K
  0
CIRCLE
  5
1786
330
985
100
AcDbEntity
  8
241
100
AcDbCircle
 10
11.18
 20
-0.0000000000000284
 30
0.0
 40
6.349999999999997
  0
CIRCLE
  5
1787
330
985
100
AcDbEntity
  8
241
100
AcDbCircle
 10
11.18
 20
-0.0000000000000284
 30
0.0
 40
4.7625
  0
LINE
  5
1788
330
985
100
AcDbEntity
  8
240
  6
Continuous
100
AcDbLine
 10
19.05000000000001
 20
49.21249999999997
 30
0.0
 11
19.04999999999968
 21
34.92500000000005
 31
0.0
1001
GRPNAME
1000
PASTMD0L
  0
LINE
  5
1789
330
985
100
AcDbEntity
  8
240
  6
Continuous
100
AcDbLine
 10
1.5
 20
49.21249999999997
 30
0.0
 11
1.5
 21
34.92499999999998
 31
0.0
1001
GRPNAME
1000
PASTMD0L
  0
LINE
  5
178A
330
985
100
AcDbEntity
  8
245
  6
CENTER2
100
AcDbLine
 10
11.12
 20
40.64499999999998
 30
0.0
 11
11.12
 21
49.21249999999997
 31
0.0
1001
GRPNAME
1000
PASTMD0L
  0
LINE
  5
178B
330
985
100
AcDbEntity
  8
240
100
AcDbLine
 10
0.0
 20
34.92499999999998
 30
0.0
 11
1.5
 21
34.92499999999998
 31
0.0
  0
LINE
  5
178C
330
985
100
AcDbEntity
  8
240
  6
Continuous
100
AcDbLine
 10
14.64616677000001
 20
49.21249999999997
 30
0.0
 11
19.05000000000001
 21
49.21249999999997
 31
0.0
1001
GRPNAME
1000
PASTMD0L
  0
LINE
  5
178D
330
985
100
AcDbEntity
  8
240
  6
Continuous
100
AcDbLine
 10
1.5
 20
49.21249999999997
 30
0.0
 11
7.593833230000001
 21
49.21249999999997
 31
0.0
1001
GRPNAME
1000
PASTMD0L
  0
LINE
  5
178E
330
985
100
AcDbEntity
  8
240
  6
Continuous
100
AcDbLine
 10
9.199999999999988
 20
45.64499999999998
 30
0.0
 11
13.03999999999999
 21
45.64499999999998
 31
0.0
1001
GRPNAME
1000
PASTMD0L
  0
LINE
  5
178F
330
985
100
AcDbEntity
  8
240
  6
Continuous
100
AcDbLine
 10
9.199999999999988
 20
46.43053754999995
 30
0.0
 11
7.593833230000001
 21
49.21249999999997
 31
0.0
1001
GRPNAME
1000
PASTMD0L
  0
LINE
  5
1790
330
985
100
AcDbEntity
  8
240
  6
Continuous
100
AcDbLine
 10
9.199999999999988
 20
45.64499999999998
 30
0.0
 11
9.199999999999988
 21
46.43053754999995
 31
0.0
1001
GRPNAME
1000
PASTMD0L
  0
LINE
  5
1791
330
985
100
AcDbEntity
  8
240
  6
Continuous
100
AcDbLine
 10
13.03999999999999
 20
46.43053754999995
 30
0.0
 11
14.64616677000001
 21
49.21249999999997
 31
0.0
1001
GRPNAME
1000
PASTMD0L
  0
LINE
  5
1792
330
985
100
AcDbEntity
  8
240
  6
Continuous
100
AcDbLine
 10
13.03999999999999
 20
45.64499999999998
 30
0.0
 11
13.03999999999999
 21
46.43053754999995
 31
0.0
1001
GRPNAME
1000
PASTMD0L
  0
LINE
  5
1793
330
985
100
AcDbEntity
  8
240
  6
Continuous
100
AcDbLine
 10
19.05000000000018
 20
-34.92500000000005
 30
0.0
 11
35.00000000000533
 21
-34.9250000000001
 31
0.0
1001
GRPNAME
1000
PASTMD0L
  0
LINE
  5
1794
330
985
100
AcDbEntity
  8
240
100
AcDbLine
 10
89.30000000000433
 20
-26.54439460878882
 30
0.0
 11
89.30000000000434
 21
-21.49999999999446
 31
0.0
  0
ARC
  5
1795
330
985
100
AcDbEntity
  8
240
100
AcDbCircle
 10
87.80000000000432
 20
-26.54439460878882
 30
0.0
 40
1.5
100
AcDbArc
 50
294.9999999999994
 51
0.0
1001
ASK_MEN_XD
1005
179E
1070
     1
1005
1794
1070
     1
  0
LINE
  5
1796
330
985
100
AcDbEntity
  8
240
100
AcDbLine
 10
89.99999999999984
 20
-20.79999999999822
 30
0.0
 11
89.30000000000434
 21
-21.49999999999446
 31
0.0
  0
LINE
  5
1797
330
985
100
AcDbEntity
  8
240
  6
Continuous
100
AcDbLine
 10
89.99999999999984
 20
-20.79999999999822
 30
0.0
 11
90.0
 21
0.0
 31
0.0
  0
LINE
  5
1798
330
985
100
AcDbEntity
  8
241
  6
HIDDEN2
100
AcDbLine
 10
34.8830127019111
 20
15.49999999999412
 30
0.0
 11
89.99999999999994
 21
15.5000000000006
 31
0.0
  0
LINE
  5
1799
330
985
100
AcDbEntity
  8
240
100
AcDbLine
 10
74.91731569140767
 20
-34.0
 30
0.0
 11
58.19615242270753
 21
-34.00000000000023
 31
0.0
  0
ARC
  5
179A
330
985
100
AcDbEntity
  8
240
100
AcDbCircle
 10
74.91731569140767
 20
-32.0
 30
0.0
 40
2.0
100
AcDbArc
 50
270.0
 51
294.9999999999994
1001
ASK_MEN_XD
1005
0
1070
     1
1005
0
1070
     1
  0
LINE
  5
179B
330
985
100
AcDbEntity
  8
241
100
AcDbLine
 10
53.00000000000614
 20
0.0
 30
0.0
 11
53.00000000000611
 21
-36.92686608800248
 31
0.0
  0
LINE
  5
179C
330
985
100
AcDbEntity
  8
241
100
AcDbLine
 10
58.19615242270753
 20
-34.00000000000023
 30
0.0
 11
58.19615242270754
 21
0.0
 31
0.0
  0
LINE
  5
179D
330
985
100
AcDbEntity
  8
241
100
AcDbLine
 10
75.36070501669349
 20
-33.95023226981357
 30
0.0
 11
75.36070501669358
 21
0.0
 31
0.0
  0
LINE
  5
179E
330
985
100
AcDbEntity
  8
240
100
AcDbLine
 10
88.43392739261537
 20
-27.90385628934379
 30
0.0
 11
75.76255221488873
 21
-33.81261557407268
 31
0.0
  0
LINE
  5
179F
330
985
100
AcDbEntity
  8
241
100
AcDbLine
 10
35.00000000000538
 20
0.000000000000012
 30
0.0
 11
35.00000000000537
 21
-34.9250000000001
 31
0.0
  0
LINE
  5
17A0
330
985
100
AcDbEntity
  8
241
100
AcDbLine
 10
36.19800180857364
 20
0.0000000000000123
 30
0.0
 11
36.19800180857364
 21
-36.9999999999988
 31
0.0
  0
LINE
  5
17A1
330
985
100
AcDbEntity
  8
240
100
AcDbLine
 10
36.19800180857364
 20
-36.9999999999988
 30
0.0
 11
52.46410161514393
 21
-36.99999999999785
 31
0.0
  0
LINE
  5
17A2
330
985
100
AcDbEntity
  8
240
100
AcDbLine
 10
58.19615242270774
 20
-34.00000000000023
 30
0.0
 11
53.46410161514393
 21
-36.73205080756658
 31
0.0
  0
ARC
  5
17A3
330
985
100
AcDbEntity
  8
240
100
AcDbCircle
 10
52.46410161514369
 20
-34.99999999999796
 30
0.0
 40
2.0
100
AcDbArc
 50
270.0000000000033
 51
300.0000000000019
1001
ASK_MEN_XD
1005
0
1070
     1
1005
0
1070
     1
  0
LINE
  5
17A4
330
985
100
AcDbEntity
  8
240
100
AcDbLine
 10
36.19800180857364
 20
-36.99999999999878
 30
0.0
 11
35.00000000000533
 21
-34.9250000000001
 31
0.0
  0
LINE
  5
17A5
330
985
100
AcDbEntity
  8
241
100
AcDbLine
 10
89.30000000000434
 20
-21.49999999999422
 30
0.0
 11
89.30000000000434
 21
0.0000000000000279
 31
0.0
  0
LINE
  5
17A6
330
985
100
AcDbEntity
  8
240
100
AcDbLine
 10
89.30000000000431
 20
26.54439460878888
 30
0.0
 11
89.30000000000433
 21
21.49999999999451
 31
0.0
  0
ARC
  5
17A7
330
985
100
AcDbEntity
  8
240
100
AcDbCircle
 10
87.80000000000432
 20
26.54439460878888
 30
0.0
 40
1.5
100
AcDbArc
 50
0.0000000000000336
 51
65.00000000000071
1001
ASK_MEN_XD
1005
179E
1070
     1
1005
1794
1070
     1
  0
LINE
  5
17A8
330
985
100
AcDbEntity
  8
240
100
AcDbLine
 10
89.99999999999982
 20
20.79999999999828
 30
0.0
 11
89.30000000000433
 21
21.49999999999451
 31
0.0
  0
LINE
  5
17A9
330
985
100
AcDbEntity
  8
240
  6
Continuous
100
AcDbLine
 10
89.99999999999982
 20
20.79999999999828
 30
0.0
 11
90.0
 21
0.0000000000000563
 31
0.0
  0
LINE
  5
17AA
330
985
100
AcDbEntity
  8
240
100
AcDbLine
 10
74.91731569140767
 20
34.00000000000004
 30
0.0
 11
58.19615242270751
 21
34.00000000000025
 31
0.0
  0
ARC
  5
17AB
330
985
100
AcDbEntity
  8
240
100
AcDbCircle
 10
74.91731569140767
 20
32.00000000000005
 30
0.0
 40
2.0
100
AcDbArc
 50
65.00000000000071
 51
90.00000000000005
1001
ASK_MEN_XD
1005
0
1070
     1
1005
0
1070
     1
  0
LINE
  5
17AC
330
985
100
AcDbEntity
  8
241
100
AcDbLine
 10
53.00000000000614
 20
0.0000000000000345
 30
0.0
 11
53.0000000000061
 21
36.92686608800251
 31
0.0
  0
LINE
  5
17AD
330
985
100
AcDbEntity
  8
241
100
AcDbLine
 10
58.19615242270751
 20
34.00000000000025
 30
0.0
 11
58.19615242270754
 21
0.0000000000000376
 31
0.0
  0
LINE
  5
17AE
330
985
100
AcDbEntity
  8
241
100
AcDbLine
 10
75.36070501669347
 20
33.95023226981361
 30
0.0
 11
75.36070501669358
 21
0.0000000000000477
 31
0.0
  0
LINE
  5
17AF
330
985
100
AcDbEntity
  8
240
100
AcDbLine
 10
88.43392739261537
 20
27.90385628934386
 30
0.0
 11
75.7625522148887
 21
33.81261557407273
 31
0.0
  0
LINE
  5
17B0
330
985
100
AcDbEntity
  8
241
100
AcDbLine
 10
35.00000000000538
 20
0.000000000000012
 30
0.0
 11
35.00000000000535
 21
34.92500000000013
 31
0.0
  0
LINE
  5
17B1
330
985
100
AcDbEntity
  8
241
100
AcDbLine
 10
36.19800180857364
 20
0.0000000000000123
 30
0.0
 11
36.19800180857362
 21
36.99999999999882
 31
0.0
  0
LINE
  5
17B2
330
985
100
AcDbEntity
  8
240
100
AcDbLine
 10
36.19800180857362
 20
36.99999999999882
 30
0.0
 11
52.46410161514391
 21
36.99999999999787
 31
0.0
  0
LINE
  5
17B3
330
985
100
AcDbEntity
  8
240
100
AcDbLine
 10
58.19615242270764
 20
34.00000000000027
 30
0.0
 11
53.46410161514391
 21
36.73205080756659
 31
0.0
  0
ARC
  5
17B4
330
985
100
AcDbEntity
  8
240
100
AcDbCircle
 10
52.46410161514369
 20
34.99999999999797
 30
0.0
 40
2.0
100
AcDbArc
 50
59.9999999999981
 51
89.99999999999678
1001
ASK_MEN_XD
1005
0
1070
     1
1005
0
1070
     1
  0
LINE
  5
17B5
330
985
100
AcDbEntity
  8
240
100
AcDbLine
 10
36.19800180857371
 20
36.99999999999882
 30
0.0
 11
35.00000000000531
 21
34.92500000000013
 31
0.0
  0
LINE
  5
17B6
330
985
100
AcDbEntity
  8
241
100
AcDbLine
 10
89.30000000000433
 20
21.49999999999427
 30
0.0
 11
89.30000000000434
 21
0.0000000000000279
 31
0.0
  0
LINE
  5
17B7
330
985
100
AcDbEntity
  8
240
  6
Continuous
100
AcDbLine
 10
19.05000000000016
 20
34.92500000000005
 30
0.0
 11
35.00000000000531
 21
34.92500000000013
 31
0.0
1001
GRPNAME
1000
PASTMD0L
  0
ENDBLK
  5
987
330
985
100
AcDbEntity
  8
0
100
AcDbBlockEnd
  0
BLOCK
  5
1267
330
125D
100
AcDbEntity
  8
0
100
AcDbBlockBegin
  2
*D3
 70
     1
 10
0.0
 20
0.0
 30
0.0
  3
*D3
  1

  0
LINE
  5
1858
330
125D
100
AcDbEntity
  8
250
  6
Continuous
370
    -2
100
AcDbLine
 10
-56.00000137977706
 20
16.25074290576913
 30
0.0
 11
-56.00000137977705
 21
74.49999999999997
 31
0.0
  0
LINE
  5
1859
330
125D
100
AcDbEntity
  8
250
  6
Continuous
370
    -2
100
AcDbLine
 10
89.99999999999982
 20
21.29999999999828
 30
0.0
 11
89.99999999999982
 21
74.49999999999997
 31
0.0
  0
LINE
  5
185A
330
125D
100
AcDbEntity
  8
250
  6
Continuous
370
    -2
100
AcDbLine
 10
-53.77000137977706
 20
73.49999999999997
 30
0.0
 11
87.76999999999981
 21
73.49999999999997
 31
0.0
  0
INSERT
  5
185B
330
125D
100
AcDbEntity
  8
250
  6
Continuous
370
    -2
100
AcDbBlockReference
  2
_OPEN
 10
-56.00000137977706
 20
73.49999999999997
 30
0.0
 41
2.229999999999999
 42
2.229999999999999
 43
2.229999999999999
 50
180.0
  0
INSERT
  5
185C
330
125D
100
AcDbEntity
  8
250
  6
Continuous
370
    -2
100
AcDbBlockReference
  2
_OPEN
 10
89.99999999999982
 20
73.49999999999997
 30
0.0
 41
2.229999999999999
 42
2.229999999999999
 43
2.229999999999999
  0
MTEXT
  5
185D
330
125D
100
AcDbEntity
  8
250
  6
Continuous
 62
    40
100
AcDbMText
 10
16.99999999999994
 20
75.89999999999998
 30
0.0
 40
2.799999999999998
 41
0.0
 71
     5
 72
     1
  1
\A1;（max.146）
 73
     1
 44
1.0
1001
ACAD
1000
MTEXTBEGIN
1070
    73
1070
     1
1070
    44
1040
1.0
1070
    74
1070
     0
1000
MTEXTEND
  0
POINT
  5
185E
330
125D
100
AcDbEntity
  8
DEFPOINTS
  6
Continuous
 62
     0
100
AcDbPoint
 10
-56.00000137977706
 20
15.75074290576913
 30
0.0
  0
POINT
  5
185F
330
125D
100
AcDbEntity
  8
DEFPOINTS
  6
Continuous
 62
     0
100
AcDbPoint
 10
89.99999999999982
 20
20.79999999999828
 30
0.0
  0
POINT
  5
1860
330
125D
100
AcDbEntity
  8
DEFPOINTS
  6
Continuous
 62
     0
100
AcDbPoint
 10
89.99999999999982
 20
73.49999999999997
 30
0.0
  0
ENDBLK
  5
1268
330
125D
100
AcDbEntity
  8
0
100
AcDbBlockEnd
  0
BLOCK
  5
1273
330
1269
100
AcDbEntity
  8
0
100
AcDbBlockBegin
  2
*D4
 70
     1
 10
0.0
 20
0.0
 30
0.0
  3
*D4
  1

  0
LINE
  5
184F
330
1269
100
AcDbEntity
  8
250
  6
Continuous
370
    -2
100
AcDbLine
 10
0.0
 20
35.42499999999999
 30
0.0
 11
0.000000000000002
 21
67.49999999999997
 31
0.0
  0
LINE
  5
1850
330
1269
100
AcDbEntity
  8
250
  6
Continuous
370
    -2
100
AcDbLine
 10
89.99999999999982
 20
21.29999999999828
 30
0.0
 11
89.99999999999982
 21
67.49999999999997
 31
0.0
  0
LINE
  5
1851
330
1269
100
AcDbEntity
  8
250
  6
Continuous
370
    -2
100
AcDbLine
 10
2.229999999999999
 20
66.49999999999997
 30
0.0
 11
87.76999999999981
 21
66.49999999999997
 31
0.0
  0
INSERT
  5
1852
330
1269
100
AcDbEntity
  8
250
  6
Continuous
370
    -2
100
AcDbBlockReference
  2
_OPEN
 10
0.0000000000000019
 20
66.49999999999997
 30
0.0
 41
2.229999999999999
 42
2.229999999999999
 43
2.229999999999999
 50
180.0
  0
INSERT
  5
1853
330
1269
100
AcDbEntity
  8
250
  6
Continuous
370
    -2
100
AcDbBlockReference
  2
_OPEN
 10
89.99999999999982
 20
66.49999999999997
 30
0.0
 41
2.229999999999999
 42
2.229999999999999
 43
2.229999999999999
  0
MTEXT
  5
1854
330
1269
100
AcDbEntity
  8
250
  6
Continuous
 62
    40
100
AcDbMText
 10
48.03808057791661
 20
68.89999999999997
 30
0.0
 40
2.799999999999998
 41
0.0
 71
     5
 72
     1
  1
\A1;90
 73
     1
 44
1.0
1001
ACAD
1000
MTEXTBEGIN
1070
    73
1070
     1
1070
    44
1040
1.0
1070
    74
1070
     0
1000
MTEXTEND
  0
POINT
  5
1855
330
1269
100
AcDbEntity
  8
DEFPOINTS
  6
Continuous
 62
     0
100
AcDbPoint
 10
0.0
 20
34.92499999999998
 30
0.0
  0
POINT
  5
1856
330
1269
100
AcDbEntity
  8
DEFPOINTS
  6
Continuous
 62
     0
100
AcDbPoint
 10
89.99999999999982
 20
20.79999999999828
 30
0.0
  0
POINT
  5
1857
330
1269
100
AcDbEntity
  8
DEFPOINTS
  6
Continuous
 62
     0
100
AcDbPoint
 10
89.99999999999982
 20
66.49999999999997
 30
0.0
  0
ENDBLK
  5
1274
330
1269
100
AcDbEntity
  8
0
100
AcDbBlockEnd
  0
BLOCK
  5
12EC
330
12E2
100
AcDbEntity
  8
0
370
    -3
100
AcDbBlockBegin
  2
*D5
 70
     1
 10
0.0
 20
0.0
 30
0.0
  3
*D5
  1

  0
LINE
  5
175C
330
12E2
100
AcDbEntity
  8
250
  6
Continuous
100
AcDbLine
 10
90.49999999999995
 20
15.5000000000006
 30
0.0
 11
106.0
 21
15.50000000000059
 31
0.0
  0
LINE
  5
175D
330
12E2
100
AcDbEntity
  8
250
  6
Continuous
100
AcDbLine
 10
105.0
 20
-13.50000000000054
 30
0.0
 11
105.0
 21
13.50000000000059
 31
0.0
  0
INSERT
  5
175E
330
12E2
100
AcDbEntity
  8
250
  6
Continuous
100
AcDbBlockReference
  2
矢印なし
 10
105.0
 20
-15.50000000000054
 30
0.0
 41
2.0
 42
2.0
 43
2.0
 50
270.0
  0
INSERT
  5
175F
330
12E2
100
AcDbEntity
  8
250
  6
Continuous
100
AcDbBlockReference
  2
_OPEN
 10
105.0
 20
15.50000000000059
 30
0.0
 41
2.0
 42
2.0
 43
2.0
 50
90.0
  0
MTEXT
  5
1760
330
12E2
100
AcDbEntity
  8
250
  6
Continuous
 62
    40
370
    -3
100
AcDbMText
 10
102.6
 20
0.00000000000004
 30
0.0
 40
2.799999999999998
 41
0.0
 71
     5
 72
     1
  1
\A1;{\H2.8;%%C}31
 11
0.0000000000000001
 21
1.0
 31
0.0
 73
     1
 44
1.0
1001
ACAD
1000
MTEXTBEGIN
1070
    73
1070
     1
1070
    44
1040
1.0
1070
    74
1070
     0
1000
MTEXTEND
  0
POINT
  5
1761
330
12E2
100
AcDbEntity
  8
DEFPOINTS
  6
Continuous
 62
     0
100
AcDbPoint
 10
89.99999999999987
 20
-15.50000000000054
 30
0.0
  0
POINT
  5
1762
330
12E2
100
AcDbEntity
  8
DEFPOINTS
  6
Continuous
 62
     0
100
AcDbPoint
 10
89.99999999999994
 20
15.5000000000006
 30
0.0
  0
POINT
  5
1763
330
12E2
100
AcDbEntity
  8
DEFPOINTS
  6
Continuous
 62
     0
100
AcDbPoint
 10
105.0
 20
15.50000000000059
 30
0.0
  0
ENDBLK
  5
12ED
330
12E2
100
AcDbEntity
  8
0
370
    -3
100
AcDbBlockEnd
  0
BLOCK
  5
1301
330
1300
100
AcDbEntity
  8
0
100
AcDbBlockBegin
  2
HDC-CLAMPSCREW
 70
     0
 10
0.0
 20
0.0
 30
0.0
  3
HDC-CLAMPSCREW
  1

  0
INSERT
  5
1302
330
1300
100
AcDbEntity
  8
245
100
AcDbBlockReference
  2
矢印なし
 10
175.62382697
 20
90.55123571999999
 30
0.0
  0
LINE
  5
1303
330
1300
100
AcDbEntity
  8
241
  6
Continuous
100
AcDbLine
 10
2.229999999999999
 20
0.0
 30
0.0
 11
20.0
 21
0.0
 31
0.0
  0
INSERT
  5
1304
330
1300
100
AcDbEntity
  8
241
  6
Continuous
100
AcDbBlockReference
  2
_OPEN
 10
0.0
 20
0.0
 30
0.0
 41
6.69
 42
6.69
 43
6.69
 50
180.0
  0
ELLIPSE
  5
1305
330
1300
100
AcDbEntity
  8
251
100
AcDbEllipse
 10
13.0
 20
0.0
 30
0.0
 11
0.0
 21
-7.000000000002512
 31
0.0
210
0.0
220
0.0
230
1.0
 40
0.5
 41
1.860548028230769
 42
7.564229932538514
  0
INSERT
  5
1306
330
1300
100
AcDbEntity
  8
251
  6
Continuous
100
AcDbBlockReference
  2
_OPEN
 10
16.35410197
 20
2.0
 30
0.0
 41
2.229999999999999
 42
2.229999999999999
 43
2.229999999999999
 50
283.18143907
  0
ENDBLK
  5
1307
330
1300
100
AcDbEntity
  8
0
100
AcDbBlockEnd
  0
ENDSEC
  0
SECTION
  2
ENTITIES
  0
INSERT
  5
6E6
330
1A
100
AcDbEntity
  8
245
100
AcDbBlockReference
  2
矢印なし
 10
175.62382697
 20
90.55123571999999
 30
0.0
  0
TEXT
  5
120E
330
1A
100
AcDbEntity
  8
241
100
AcDbText
 10
-101.6
 20
87.49999999999996
 30
0.0
 40
5.0
  1
BCV50-HDC31L-90
  7
YOKO
 11
-101.6
 21
87.49999999999996
 31
0.0
100
AcDbText
 73
     1
  0
LEADER
  5
120F
330
1A
100
AcDbEntity
  8
250
  6
Continuous
100
AcDbLeader
  3
BIGT
 76
     2
 10
-60.59209172
 20
-26.06624079000003
 30
0.0
 10
-65.75
 20
-35.00000000000003
 30
0.0
1001
ACAD
1000
DSTYLE
1002
{
1070
     6
1000
OPEN
1070
    41
1040
2.0
1070
   343
1005
594
1002
}
  0
LINE
  5
1210
330
1A
100
AcDbEntity
  8
250
  6
Continuous
100
AcDbLine
 10
-65.75
 20
-35.00000000000003
 30
0.0
 11
-83.75
 21
-35.00000000000003
 31
0.0
1001
ITEMNAME
1000
LNSP2
  0
MTEXT
  5
1211
330
1A
100
AcDbEntity
  8
251
  6
Continuous
100
AcDbMText
 10
-80.95
 20
-34.00000000000004
 30
0.0
 40
2.799999999999998
 41
0.0
 71
     7
 72
     1
  1
BCV50
  7
YOKO
 73
     1
 44
1.0
1001
ITEMNAME
1000
LNSP3
1001
ACAD
1000
MTEXTBEGIN
1070
    73
1070
     1
1070
    44
1040
1.0
1070
    74
1070
     0
1000
MTEXTEND
  0
DIMENSION
  5
1212
330
1A
100
AcDbEntity
  8
250
  6
Continuous
100
AcDbDimension
  2
*D3
 10
89.99999999999982
 20
73.49999999999997
 30
0.0
 11
16.99999999999994
 21
73.49999999999997
 31
0.0
 70
   160
  1
（max.<>）
 71
     5
 42
146.0000013797769
  3
BIGT
100
AcDbAlignedDimension
 13
-56.00000137977706
 23
15.75074290576913
 33
0.0
 14
89.99999999999982
 24
20.79999999999828
 34
0.0
100
AcDbRotatedDimension
  0
DIMENSION
  5
1213
330
1A
100
AcDbEntity
  8
250
  6
Continuous
100
AcDbDimension
  2
*D4
 10
89.99999999999982
 20
66.49999999999997
 30
0.0
 11
48.03808057791661
 21
66.49999999999997
 31
0.0
 70
   160
  1
<>
 71
     5
 42
89.99999999999982
  3
BIGT
100
AcDbAlignedDimension
 13
0.0
 23
34.92499999999998
 33
0.0
 14
89.99999999999982
 24
20.79999999999828
 34
0.0
100
AcDbRotatedDimension
  0
DIMENSION
  5
12E1
330
1A
100
AcDbEntity
  8
250
  6
Continuous
370
    -3
100
AcDbDimension
  2
*D5
 10
105.0
 20
15.50000000000059
 30
0.0
 11
102.6
 21
0.00000000000004
 31
0.0
 70
    32
  1
{\H2.8;%%C}<>
 71
     5
 42
31.00000000000114
  3
BIGT
100
AcDbAlignedDimension
 13
89.99999999999987
 23
-15.50000000000054
 33
0.0
 14
89.99999999999994
 24
15.5000000000006
 34
0.0
 50
90.0
100
AcDbRotatedDimension
1001
ACAD
1000
DSTYLE
1002
{
1070
     3
1000
<>
1070
    41
1040
2.0
1070
    75
1070
     1
1070
    79
1070
     2
1070
   179
1070
     3
1070
   343
1005
6E3
1070
   371
1070
    -1
1070
   372
1070
    -1
1002
}
  0
INSERT
  5
1748
330
1A
100
AcDbEntity
  8
245
100
AcDbBlockReference
  2
HDC-CLAMPSCREW
 10
44.49999999999989
 20
40.11104188429292
 30
0.0
 50
90.0
  0
INSERT
  5
17B8
330
1A
100
AcDbEntity
  8
245
100
AcDbBlockReference
  2
1
 10
0.0
 20
0.0
 30
0.0
  0
VIEWPORT
  5
22
102
{ACAD_XDICTIONARY
360
1B1A
102
}
330
17
100
AcDbEntity
 67
     1
  8
0
100
AcDbViewport
 10
261.51769912
 20
148.5
 30
0.0
 40
523.03539823
 41
297.0
 68
     1
 69
     1
 12
261.51769912
 22
148.5
 13
0.0
 23
0.0
 14
1.0
 24
1.0
 15
10.0
 25
10.0
 16
0.0
 26
0.0
 36
1.0
 17
0.0
 27
0.0
 37
0.0
 42
50.0
 43
0.0
 44
0.0
 45
297.0
 50
0.0
 51
0.0
 72
   100
 90
    32800
  1

281
     0
 71
     1
 74
     0
110
0.0
120
0.0
130
0.0
111
1.0
121
0.0
131
0.0
112
0.0
122
1.0
132
0.0
 79
     0
146
0.0
  0
ENDSEC
  0
SECTION
  2
OBJECTS
  0
DICTIONARY
  5
C
330
0
100
AcDbDictionary
281
     1
  3
ACAD_COLOR
350
1155
  3
ACAD_GROUP
350
D
  3
ACAD_LAYOUT
350
1158
  3
ACAD_MATERIAL
350
1140
  3
ACAD_MLINESTYLE
350
E
  3
ACAD_PLOTSETTINGS
350
566
  3
ACAD_PLOTSTYLENAME
350
563
  3
ACAD_TABLESTYLE
350
1156
  3
ACAD_VISUALSTYLE
350
1144
  3
AcDbVariableDictionary
350
1383
  3
DWGPROPS
350
1B19
  3
GRADE_DWG
350
540
  0
DICTIONARY
  5
117B
330
2
100
AcDbDictionary
280
     1
281
     1
  3
ACAD_LAYERSTATES
360
117C
  0
DICTIONARY
  5
9F8
330
1A
100
AcDbDictionary
280
     1
281
     1
  3
ACAD_LAYOUTSELFREF
360
1130
  3
ACAD_SORTENTS
360
1425
  0
DICTIONARY
  5
9F6
330
17
100
AcDbDictionary
280
     1
281
     1
  3
ACAD_LAYOUTSELFREF
360
112F
  0
DICTIONARY
  5
1B1A
330
22
100
AcDbDictionary
280
     1
281
     1
  3
ACAD_XREC_ROUNDTRIP
360
1B1B
  0
DICTIONARY
  5
1155
102
{ACAD_REACTORS
330
C
102
}
330
C
100
AcDbDictionary
281
     1
  0
DICTIONARY
  5
D
102
{ACAD_REACTORS
330
C
102
}
330
C
100
AcDbDictionary
281
     1
  3
*A1
350
6C7
  3
*A2
350
6C8
  3
*A3
350
6D4
  3
*A4
350
6D5
  3
DMA00-1
350
7EF
  3
DREC-1
350
5FC
  3
DREC-2
350
654
  3
DREC-3
350
673
  0
DICTIONARY
  5
1158
102
{ACAD_REACTORS
330
C
102
}
330
C
100
AcDbDictionary
281
     1
  3
Model
350
1159
  3
レイアウト1
350
115A
  0
DICTIONARY
  5
1140
102
{ACAD_REACTORS
330
C
102
}
330
C
100
AcDbDictionary
281
     1
  3
ByBlock
350
1142
  3
ByLayer
350
1141
  3
Global
350
1143
  0
DICTIONARY
  5
E
102
{ACAD_REACTORS
330
C
102
}
330
C
100
AcDbDictionary
281
     1
  3
STANDARD
350
13
  0
DICTIONARY
  5
566
102
{ACAD_REACTORS
330
C
102
}
330
C
100
AcDbDictionary
281
     1
  3
A3_0_5倍_
350
758
  3
A3_1倍_
350
757
  3
A3_1倍__2000_
350
707
  3
A3_2倍_
350
759
  3
A4_0_5倍_
350
755
  3
A4_1倍_
350
754
  3
A4_1倍__2000_
350
708
  3
A4_2倍_
350
756
  0
ACDBDICTIONARYWDFLT
  5
563
102
{ACAD_REACTORS
330
C
102
}
330
C
100
AcDbDictionary
281
     1
  3
Normal
350
564
100
AcDbDictionaryWithDefault
340
564
  0
DICTIONARY
  5
1156
102
{ACAD_REACTORS
330
C
102
}
330
C
100
AcDbDictionary
281
     1
  3
Standard
350
1157
  0
DICTIONARY
  5
1144
102
{ACAD_REACTORS
330
C
102
}
330
C
100
AcDbDictionary
281
     1
  3
2dWireframe
350
114A
  3
3D Hidden
350
114C
  3
3dWireframe
350
114B
  3
Basic
350
1149
  3
Brighten
350
1150
  3
ColorChange
350
1154
  3
Conceptual
350
114D
  3
Dim
350
114F
  3
Facepattern
350
1153
  3
Flat
350
1145
  3
FlatWithEdges
350
1146
  3
Gouraud
350
1147
  3
GouraudWithEdges
350
1148
  3
Linepattern
350
1152
  3
Realistic
350
114E
  3
Thicken
350
1151
  0
DICTIONARY
  5
1383
102
{ACAD_REACTORS
330
C
102
}
330
C
100
AcDbDictionary
281
     1
  3
CTABLESTYLE
350
1384
  3
DIMASSOC
350
1387
  3
INDEXCTL
350
1386
  3
SORTENTS
350
1385
  0
XRECORD
  5
1B19
102
{ACAD_REACTORS
330
C
102
}
330
C
100
AcDbXrecord
280
     1
  1
DWGPROPS COOKIE
  2

  3

  4

  6

  7

  8
AWTEC
  9

300
=
301
=
302
=
303
=
304
=
305
=
306
=
307
=
308
=
309
=
 40
0.2328826851851852
 41
2455356.488344178
 42
2457003.608711656
  1

 90
        0
  0
DICTIONARY
  5
540
102
{ACAD_REACTORS
330
C
102
}
330
C
100
AcDbDictionary
281
     1
  3
VERSION
350
560
  0
DICTIONARY
  5
117C
102
{ACAD_REACTORS
330
117B
102
}
330
117B
100
AcDbDictionary
281
     1
  0
XRECORD
  5
1130
102
{ACAD_REACTORS
330
9F8
102
}
330
9F8
100
AcDbXrecord
280
     1
340
1A
  0
SORTENTSTABLE
  5
1425
102
{ACAD_REACTORS
330
9F8
102
}
330
9F8
100
AcDbSortentsTable
330
1A
331
12E1
  5
12E1
331
6E6
  5
6E6
331
1213
  5
1213
331
1211
  5
1211
331
120F
  5
120F
331
1212
  5
1212
331
1210
  5
1210
331
120E
  5
120E
  0
XRECORD
  5
112F
102
{ACAD_REACTORS
330
9F6
102
}
330
9F6
100
AcDbXrecord
280
     1
340
17
  0
XRECORD
  5
1B1B
102
{ACAD_REACTORS
330
1B1A
102
}
330
1B1A
100
AcDbXrecord
280
     1
102
SHADEPLOT
 70
     0
  0
GROUP
  5
6C7
102
{ACAD_REACTORS
330
D
102
}
330
D
100
AcDbGroup
300

 70
     0
 71
     1
1001
GRPNAME
1000
DMA00
  0
GROUP
  5
6C8
102
{ACAD_REACTORS
330
D
102
}
330
D
100
AcDbGroup
300

 70
     0
 71
     1
1001
GRPNAME
1000
DMA00
  0
GROUP
  5
6D4
102
{ACAD_REACTORS
330
D
102
}
330
D
100
AcDbGroup
300

 70
     0
 71
     1
1001
GRPNAME
1000
DMA00
  0
GROUP
  5
6D5
102
{ACAD_REACTORS
330
D
102
}
330
D
100
AcDbGroup
300

 70
     0
 71
     1
1001
GRPNAME
1000
DMA00
  0
GROUP
  5
7EF
102
{ACAD_REACTORS
330
D
102
}
330
D
100
AcDbGroup
300

 70
     0
 71
     1
1001
GRPNAME
1000
DMA00
  0
GROUP
  5
5FC
102
{ACAD_REACTORS
330
D
102
}
330
D
100
AcDbGroup
300

 70
     0
 71
     1
1001
GRPNAME
1000
DREC-
1001
GPARA
1000
xsiz
1000
44.182
1000
ysiz
1000
40.677
1000
angl
1000
0
1000
ctyp
1000
0
1000
csiz
1000
5
1000
lfnt
1000
cont
1000
hcnt
1000
hoff
1000
vcnt
1000
voff
1000
opnt
1000
4
1000
dxpt
1000
0
1000
dypt
1000
0
  0
GROUP
  5
654
102
{ACAD_REACTORS
330
D
102
}
330
D
100
AcDbGroup
300

 70
     0
 71
     1
1001
GRPNAME
1000
DREC-
1001
GPARA
1000
xsiz
1000
54.592
1000
ysiz
1000
53.036
1000
angl
1000
0
1000
ctyp
1000
0
1000
csiz
1000
5
1000
lfnt
1000
cont
1000
hcnt
1000
hoff
1000
vcnt
1000
voff
1000
opnt
1000
4
1000
dxpt
1000
0
1000
dypt
1000
0
  0
GROUP
  5
673
102
{ACAD_REACTORS
330
D
102
}
330
D
100
AcDbGroup
300

 70
     0
 71
     1
1001
GRPNAME
1000
DREC-
1001
GPARA
1000
xsiz
1000
30.363
1000
ysiz
1000
36.175
1000
angl
1000
0
1000
ctyp
1000
0
1000
csiz
1000
5
1000
lfnt
1000
cont
1000
hcnt
1000
hoff
1000
vcnt
1000
voff
1000
opnt
1000
4
1000
dxpt
1000
0
1000
dypt
1000
0
  0
LAYOUT
  5
1159
102
{ACAD_XDICTIONARY
360
1B2E
102
}
102
{ACAD_REACTORS
330
1158
102
}
330
1158
100
AcDbPlotSettings
  1

  2
Canon LBP5610
  4
A4
  6

 40
5.789083003997802
 41
5.789072513580322
 42
5.789077758789062
 43
5.789093017578125
 44
209.9733276367186
 45
296.9259948730469
 46
0.0
 47
0.1545909341838012
 48
0.0
 49
0.0
140
0.0
141
0.0
142
1.0
143
0.7319922188502084
 70
 11956
 72
     1
 73
     1
 74
     1
  7
big.ctb
 75
     0
147
1.366134740572475
148
102.6159472695738
149
49.22306476094003
100
AcDbLayout
  1
Model
 70
     1
 71
     0
 10
0.0
 20
0.0
 11
12.0
 21
9.0
 12
0.0
 22
0.0
 32
0.0
 14
0.0
 24
0.0
 34
0.0
 15
0.0
 25
0.0
 35
0.0
146
0.0
 13
0.0
 23
0.0
 33
0.0
 16
1.0
 26
0.0
 36
0.0
 17
0.0
 27
1.0
 37
0.0
 76
     0
330
1A
331
110D
1001
ACAD_PSEXT
1000
Canon LBP5610
1000
Canon LBP5610
1000
IP_192.168.120.151
1000

1070
     0
  0
LAYOUT
  5
115A
102
{ACAD_XDICTIONARY
360
1B30
102
}
102
{ACAD_REACTORS
330
1158
102
}
330
1158
100
AcDbPlotSettings
  1

  2
Canon LBP5610
  4

  6

 40
0.0
 41
0.0
 42
0.0
 43
0.0
 44
0.0
 45
0.0
 46
0.0
 47
0.0
 48
0.0
 49
0.0
140
0.0
141
0.0
142
1.0
143
1.0
 70
   688
 72
     0
 73
     0
 74
     5
  7
big.ctb
 75
    16
147
1.0
148
0.0
149
0.0
100
AcDbLayout
  1
レイアウト1
 70
     1
 71
     1
 10
0.0
 20
0.0
 11
420.0
 21
297.0
 12
0.0
 22
0.0
 32
0.0
 14
1.000000000000000E+20
 24
1.000000000000000E+20
 34
1.000000000000000E+20
 15
-1.000000000000000E+20
 25
-1.000000000000000E+20
 35
-1.000000000000000E+20
146
0.0
 13
0.0
 23
0.0
 33
0.0
 16
1.0
 26
0.0
 36
0.0
 17
0.0
 27
1.0
 37
0.0
 76
     0
330
17
331
22
  0
MATERIAL
  5
1142
102
{ACAD_XDICTIONARY
360
17CE
102
}
102
{ACAD_REACTORS
330
1140
102
}
330
1140
100
AcDbMaterial
  1
ByBlock
  0
MATERIAL
  5
1141
102
{ACAD_XDICTIONARY
360
17CC
102
}
102
{ACAD_REACTORS
330
1140
102
}
330
1140
100
AcDbMaterial
  1
ByLayer
  0
MATERIAL
  5
1143
102
{ACAD_XDICTIONARY
360
17D0
102
}
102
{ACAD_REACTORS
330
1140
102
}
330
1140
100
AcDbMaterial
  1
Global
  0
MLINESTYLE
  5
13
102
{ACAD_REACTORS
330
E
102
}
330
E
100
AcDbMlineStyle
  2
STANDARD
 70
     0
  3

 62
     0
 51
90.0
 52
90.0
 71
     2
 49
0.5
 62
   256
  6
BYLAYER
 49
-0.5
 62
   256
  6
BYLAYER
  0
PLOTSETTINGS
  5
758
102
{ACAD_XDICTIONARY
360
1B28
102
}
102
{ACAD_REACTORS
330
566
102
}
330
566
100
AcDbPlotSettings
  1
A3(0.5倍)
  2
\\AWTECPC05\HP DeskJet 1120C
  4
A3
  6

 40
5.958416459999997
 41
13.49375153
 42
6.043090819999997
 43
3.67242432
 44
296.92599487
 45
419.94665527
 46
89.96
 47
127.14
 48
0.0
 49
0.0
140
0.0
141
0.0
142
1.0
143
2.0
 70
  1716
 72
     1
 73
     1
 74
     2
  7
big.ctb
 75
    17
147
0.5
148
0.0
149
0.0
  0
PLOTSETTINGS
  5
757
102
{ACAD_XDICTIONARY
360
1B26
102
}
102
{ACAD_REACTORS
330
566
102
}
330
566
100
AcDbPlotSettings
  1
A3(1倍)
  2
\\AWTECPC05\HP DeskJet 1120C
  4
A3
  6

 40
5.958416459999997
 41
13.49375153
 42
6.043090819999997
 43
3.67242432
 44
296.92599487
 45
419.94665527
 46
37.46
 47
52.89
 48
0.0
 49
0.0
140
0.0
141
0.0
142
1.0
143
1.0
 70
  1716
 72
     1
 73
     1
 74
     2
  7
big.ctb
 75
    16
147
1.0
148
0.0
149
0.0
  0
PLOTSETTINGS
  5
707
102
{ACAD_XDICTIONARY
360
1B1C
102
}
102
{ACAD_REACTORS
330
566
102
}
330
566
100
AcDbPlotSettings
  1
A3(1倍)(2000)
  2
SII LS-1300 (D-SCAN)
  4
User258
  6

 40
3.17499995
 41
3.17499995
 42
3.174987789999998
 43
3.174987789999998
 44
419.98898315
 45
296.98950195
 46
58.32
 47
40.32
 48
0.0
 49
0.0
140
0.0
141
0.0
142
1.0
143
1.0
 70
  1716
 72
     1
 73
     0
 74
     2
  7
big.ctb
 75
    16
147
1.0
148
0.0
149
0.0
  0
PLOTSETTINGS
  5
759
102
{ACAD_XDICTIONARY
360
1B2A
102
}
102
{ACAD_REACTORS
330
566
102
}
330
566
100
AcDbPlotSettings
  1
A3(2倍)
  2
\\AWTECPC05\HP DeskJet 1120C
  4
A3
  6

 40
5.958416459999997
 41
13.49375153
 42
6.043090819999997
 43
3.67242432
 44
296.92599487
 45
419.94665527
 46
-67.54000000000001
 47
-95.60999999999999
 48
0.0
 49
0.0
140
0.0
141
0.0
142
1.0
143
0.5
 70
  1716
 72
     1
 73
     1
 74
     2
  7
big.ctb
 75
    27
147
2.0
148
0.0
149
0.0
  0
PLOTSETTINGS
  5
755
102
{ACAD_XDICTIONARY
360
1B22
102
}
102
{ACAD_REACTORS
330
566
102
}
330
566
100
AcDbPlotSettings
  1
A4(0.5倍)
  2
\\AWTECPC05\HP DeskJet 1120C
  4
A4
  6

 40
4.18041658
 41
13.49374962
 42
4.180404659999997
 43
3.926422119999998
 44
209.97332764
 45
296.92599487
 46
48.31
 47
65.5
 48
0.0
 49
0.0
140
0.0
141
0.0
142
1.0
143
2.0
 70
  1716
 72
     1
 73
     1
 74
     2
  7
big.ctb
 75
    17
147
0.5
148
0.0
149
0.0
  0
PLOTSETTINGS
  5
754
102
{ACAD_XDICTIONARY
360
1B20
102
}
102
{ACAD_REACTORS
330
566
102
}
330
566
100
AcDbPlotSettings
  1
A4(1倍)
  2
\\AWTECPC05\HP DeskJet 1120C
  4
A4
  6

 40
4.18041658
 41
13.49374962
 42
4.180404659999997
 43
3.926422119999998
 44
209.97332764
 45
296.92599487
 46
-4.19
 47
-8.75
 48
0.0
 49
0.0
140
0.0
141
0.0
142
1.0
143
1.0
 70
  1716
 72
     1
 73
     1
 74
     2
  7
big.ctb
 75
    16
147
1.0
148
0.0
149
0.0
  0
PLOTSETTINGS
  5
708
102
{ACAD_XDICTIONARY
360
1B1E
102
}
102
{ACAD_REACTORS
330
566
102
}
330
566
100
AcDbPlotSettings
  1
A4(1倍)(2000)
  2
SII LS-1300 (D-SCAN)
  4
User259
  6

 40
3.17499995
 41
3.17499995
 42
3.174987789999998
 43
3.175003049999998
 44
296.98950195
 45
209.99449158
 46
-3.18
 47
-3.18
 48
0.0
 49
0.0
140
0.0
141
0.0
142
1.0
143
1.0
 70
  1716
 72
     1
 73
     0
 74
     2
  7
big.ctb
 75
    16
147
1.0
148
0.0
149
0.0
  0
PLOTSETTINGS
  5
756
102
{ACAD_XDICTIONARY
360
1B24
102
}
102
{ACAD_REACTORS
330
566
102
}
330
566
100
AcDbPlotSettings
  1
A4(2倍)
  2
\\AWTECPC05\HP DeskJet 1120C
  4
A4
  6

 40
4.18041658
 41
13.49374962
 42
4.180404659999997
 43
3.926422119999998
 44
209.97332764
 45
296.92599487
 46
-109.19
 47
-157.25
 48
0.0
 49
0.0
140
0.0
141
0.0
142
1.0
143
0.5
 70
  1716
 72
     1
 73
     1
 74
     2
  7
big.ctb
 75
    27
147
2.0
148
0.0
149
0.0
  0
ACDBPLACEHOLDER
  5
564
102
{ACAD_REACTORS
330
563
102
}
330
563
  0
TABLESTYLE
  5
1157
102
{ACAD_XDICTIONARY
360
1B2C
102
}
102
{ACAD_REACTORS
330
1156
102
}
330
1156
100
AcDbTableStyle
  3
Standard
 70
     0
 71
     0
 40
1.5
 41
1.5
280
     0
281
     0
  7
STANDARD
140
4.5
170
     2
 62
     0
 63
     7
283
     0
274
    -2
284
     1
 64
     0
275
    -2
285
     1
 65
     0
276
    -2
286
     1
 66
     0
277
    -2
287
     1
 67
     0
278
    -2
288
     1
 68
     0
279
    -2
289
     1
 69
     0
  7
STANDARD
140
6.0
170
     5
 62
     0
 63
     7
283
     0
274
    -2
284
     1
 64
     0
275
    -2
285
     1
 65
     0
276
    -2
286
     1
 66
     0
277
    -2
287
     1
 67
     0
278
    -2
288
     1
 68
     0
279
    -2
289
     1
 69
     0
  7
STANDARD
140
4.5
170
     5
 62
     0
 63
     7
283
     0
274
    -2
284
     1
 64
     0
275
    -2
285
     1
 65
     0
276
    -2
286
     1
 66
     0
277
    -2
287
     1
 67
     0
278
    -2
288
     1
 68
     0
279
    -2
289
     1
 69
     0
  0
VISUALSTYLE
  5
114A
102
{ACAD_REACTORS
330
1144
102
}
330
1144
100
AcDbVisualStyle
  2
2dWireframe
 70
     4
 71
     0
 72
     2
 73
     0
 90
        0
 40
-0.6
 41
-30.0
 62
     5
 63
     7
 74
     1
 91
        4
 64
     7
 65
   257
 75
     1
175
     1
 42
1.0
 92
        0
 66
   257
 43
1.0
 76
     1
 77
     6
 78
     2
 67
     7
 79
     5
170
     0
171
     0
290
     0
174
     0
 93
        1
 44
0.0
173
     0
291
     0
 45
0.0
1001
ACAD
1000
AcDbSavedByObjectVersion
1070
     0
1000
AcDbSavedByObjectVersion
1070
     0
1000
AcDbSavedByObjectVersion
1070
     0
1000
AcDbSavedByObjectVersion
1070
     0
  0
VISUALSTYLE
  5
114C
102
{ACAD_REACTORS
330
1144
102
}
330
1144
100
AcDbVisualStyle
  2
3D Hidden
 70
     6
 71
     1
 72
     2
 73
     2
 90
        0
 40
-0.6
 41
-30.0
 62
     5
 63
     7
 74
     2
 91
        2
 64
     7
 65
   257
 75
     2
175
     1
 42
40.0
 92
        0
 66
   257
 43
1.0
 76
     1
 77
     6
 78
     2
 67
     7
 79
     3
170
     0
171
     0
290
     0
174
     0
 93
        1
 44
0.0
173
     0
291
     0
 45
0.0
1001
ACAD
1000
AcDbSavedByObjectVersion
1070
     0
1000
AcDbSavedByObjectVersion
1070
     0
1000
AcDbSavedByObjectVersion
1070
     0
1000
AcDbSavedByObjectVersion
1070
     0
  0
VISUALSTYLE
  5
114B
102
{ACAD_REACTORS
330
1144
102
}
330
1144
100
AcDbVisualStyle
  2
3dWireframe
 70
     5
 71
     0
 72
     2
 73
     0
 90
        0
 40
-0.6
 41
-30.0
 62
     5
 63
     7
 74
     1
 91
        4
 64
     7
 65
   257
 75
     1
175
     1
 42
1.0
 92
        0
 66
   257
 43
1.0
 76
     1
 77
     6
 78
     2
 67
     7
 79
     5
170
     0
171
     0
290
     0
174
     0
 93
        1
 44
0.0
173
     0
291
     0
 45
0.0
1001
ACAD
1000
AcDbSavedByObjectVersion
1070
     0
1000
AcDbSavedByObjectVersion
1070
     0
1000
AcDbSavedByObjectVersion
1070
     0
1000
AcDbSavedByObjectVersion
1070
     0
  0
VISUALSTYLE
  5
1149
102
{ACAD_REACTORS
330
1144
102
}
330
1144
100
AcDbVisualStyle
  2
Basic
 70
     7
 71
     1
 72
     0
 73
     1
 90
        0
 40
-0.6
 41
-30.0
 62
     5
 63
     7
 74
     0
 91
        4
 64
     7
 65
   257
 75
     1
175
     1
 42
1.0
 92
        8
 66
     7
 43
1.0
 76
     1
 77
     6
 78
     2
 67
     7
 79
     5
170
     0
171
     0
290
     0
174
     0
 93
        1
 44
0.0
173
     0
291
     1
 45
0.0
1001
ACAD
1000
AcDbSavedByObjectVersion
1070
     0
1000
AcDbSavedByObjectVersion
1070
     0
1000
AcDbSavedByObjectVersion
1070
     0
1000
AcDbSavedByObjectVersion
1070
     0
  0
VISUALSTYLE
  5
1150
102
{ACAD_REACTORS
330
1144
102
}
330
1144
100
AcDbVisualStyle
  2
Brighten
 70
    12
 71
     2
 72
     2
 73
     0
 90
        0
 40
-0.6
 41
-30.0
 62
     5
 63
     7
 74
     1
 91
        4
 64
     7
 65
   257
 75
     1
175
     1
 42
1.0
 92
        8
 66
     7
 43
1.0
 76
     1
 77
     6
 78
     2
 67
     7
 79
     5
170
     0
171
     0
290
     0
174
     0
 93
        1
 44
50.0
173
     0
291
     1
 45
0.0
1001
ACAD
1000
AcDbSavedByObjectVersion
1070
     0
1000
AcDbSavedByObjectVersion
1070
     0
1000
AcDbSavedByObjectVersion
1070
     0
1000
AcDbSavedByObjectVersion
1070
     0
  0
VISUALSTYLE
  5
1154
102
{ACAD_REACTORS
330
1144
102
}
330
1144
100
AcDbVisualStyle
  2
ColorChange
 70
    16
 71
     2
 72
     2
 73
     3
 90
        0
 40
-0.6
 41
-30.0
 62
     5
 63
     8
 74
     1
 91
        4
 64
     7
 65
   257
 75
     1
175
     1
 42
1.0
 92
        8
 66
     8
 43
1.0
 76
     1
 77
     6
 78
     2
 67
     7
 79
     5
170
     0
171
     0
290
     0
174
     0
 93
        1
 44
0.0
173
     0
291
     1
 45
0.0
1001
ACAD
1000
AcDbSavedByObjectVersion
1070
     0
1000
AcDbSavedByObjectVersion
1070
     0
1000
AcDbSavedByObjectVersion
1070
     0
1000
AcDbSavedByObjectVersion
1070
     0
  0
VISUALSTYLE
  5
114D
102
{ACAD_REACTORS
330
1144
102
}
330
1144
100
AcDbVisualStyle
  2
Conceptual
 70
     9
 71
     3
 72
     2
 73
     0
 90
        0
 40
-0.6
 41
-30.0
 62
     5
 63
     7
 74
     2
 91
        2
 64
     7
 65
   257
 75
     1
175
     1
 42
40.0
 92
        8
 66
     7
 43
1.0
 76
     1
 77
     6
 78
     2
 67
     7
 79
     3
170
     0
171
     0
290
     0
174
     0
 93
        1
 44
0.0
173
     0
291
     0
 45
0.0
1001
ACAD
1000
AcDbSavedByObjectVersion
1070
     0
1000
AcDbSavedByObjectVersion
1070
     0
1000
AcDbSavedByObjectVersion
1070
     0
1000
AcDbSavedByObjectVersion
1070
     0
  0
VISUALSTYLE
  5
114F
102
{ACAD_REACTORS
330
1144
102
}
330
1144
100
AcDbVisualStyle
  2
Dim
 70
    11
 71
     2
 72
     2
 73
     0
 90
        0
 40
-0.6
 41
-30.0
 62
     5
 63
     7
 74
     1
 91
        4
 64
     7
 65
   257
 75
     1
175
     1
 42
1.0
 92
        8
 66
     7
 43
1.0
 76
     1
 77
     6
 78
     2
 67
     7
 79
     5
170
     0
171
     0
290
     0
174
     0
 93
        1
 44
-50.0
173
     0
291
     1
 45
0.0
1001
ACAD
1000
AcDbSavedByObjectVersion
1070
     0
1000
AcDbSavedByObjectVersion
1070
     0
1000
AcDbSavedByObjectVersion
1070
     0
1000
AcDbSavedByObjectVersion
1070
     0
  0
VISUALSTYLE
  5
1153
102
{ACAD_REACTORS
330
1144
102
}
330
1144
100
AcDbVisualStyle
  2
Facepattern
 70
    15
 71
     2
 72
     2
 73
     0
 90
        0
 40
-0.6
 41
-30.0
 62
     5
 63
     7
 74
     1
 91
        4
 64
     7
 65
   257
 75
     1
175
     1
 42
1.0
 92
        8
 66
     7
 43
1.0
 76
     1
 77
     6
 78
     2
 67
     7
 79
     5
170
     0
171
     0
290
     0
174
     0
 93
        1
 44
0.0
173
     0
291
     1
 45
0.0
1001
ACAD
1000
AcDbSavedByObjectVersion
1070
     0
1000
AcDbSavedByObjectVersion
1070
     0
1000
AcDbSavedByObjectVersion
1070
     0
1000
AcDbSavedByObjectVersion
1070
     0
  0
VISUALSTYLE
  5
1145
102
{ACAD_REACTORS
330
1144
102
}
330
1144
100
AcDbVisualStyle
  2
Flat
 70
     0
 71
     2
 72
     1
 73
     1
 90
        2
 40
-0.6
 41
30.0
 62
     5
 63
     7
 74
     0
 91
        4
 64
     7
 65
   257
 75
     1
175
     1
 42
1.0
 92
        8
 66
     7
 43
1.0
 76
     1
 77
     6
 78
     2
 67
     7
 79
     5
170
     0
171
     0
290
     0
174
     0
 93
       13
 44
0.0
173
     0
291
     1
 45
0.0
1001
ACAD
1000
AcDbSavedByObjectVersion
1070
     0
1000
AcDbSavedByObjectVersion
1070
     0
1000
AcDbSavedByObjectVersion
1070
     0
1000
AcDbSavedByObjectVersion
1070
     0
  0
VISUALSTYLE
  5
1146
102
{ACAD_REACTORS
330
1144
102
}
330
1144
100
AcDbVisualStyle
  2
FlatWithEdges
 70
     1
 71
     2
 72
     1
 73
     1
 90
        2
 40
-0.6
 41
30.0
 62
     5
 63
     7
 74
     1
 91
        4
 64
     7
 65
   257
 75
     1
175
     1
 42
1.0
 92
        0
 66
   257
 43
1.0
 76
     1
 77
     6
 78
     2
 67
     7
 79
     5
170
     0
171
     0
290
     0
174
     0
 93
       13
 44
0.0
173
     0
291
     1
 45
0.0
1001
ACAD
1000
AcDbSavedByObjectVersion
1070
     0
1000
AcDbSavedByObjectVersion
1070
     0
1000
AcDbSavedByObjectVersion
1070
     0
1000
AcDbSavedByObjectVersion
1070
     0
  0
VISUALSTYLE
  5
1147
102
{ACAD_REACTORS
330
1144
102
}
330
1144
100
AcDbVisualStyle
  2
Gouraud
 70
     2
 71
     2
 72
     2
 73
     1
 90
        2
 40
-0.6
 41
30.0
 62
     5
 63
     7
 74
     0
 91
        4
 64
     7
 65
   257
 75
     1
175
     1
 42
1.0
 92
        0
 66
     7
 43
1.0
 76
     1
 77
     6
 78
     2
 67
     7
 79
     5
170
     0
171
     0
290
     0
174
     0
 93
       13
 44
0.0
173
     0
291
     1
 45
0.0
1001
ACAD
1000
AcDbSavedByObjectVersion
1070
     0
1000
AcDbSavedByObjectVersion
1070
     0
1000
AcDbSavedByObjectVersion
1070
     0
1000
AcDbSavedByObjectVersion
1070
     0
  0
VISUALSTYLE
  5
1148
102
{ACAD_REACTORS
330
1144
102
}
330
1144
100
AcDbVisualStyle
  2
GouraudWithEdges
 70
     3
 71
     2
 72
     2
 73
     1
 90
        2
 40
-0.6
 41
30.0
 62
     5
 63
     7
 74
     1
 91
        4
 64
     7
 65
   257
 75
     1
175
     1
 42
1.0
 92
        0
 66
   257
 43
1.0
 76
     1
 77
     6
 78
     2
 67
     7
 79
     5
170
     0
171
     0
290
     0
174
     0
 93
       13
 44
0.0
173
     0
291
     1
 45
0.0
1001
ACAD
1000
AcDbSavedByObjectVersion
1070
     0
1000
AcDbSavedByObjectVersion
1070
     0
1000
AcDbSavedByObjectVersion
1070
     0
1000
AcDbSavedByObjectVersion
1070
     0
  0
VISUALSTYLE
  5
1152
102
{ACAD_REACTORS
330
1144
102
}
330
1144
100
AcDbVisualStyle
  2
Linepattern
 70
    14
 71
     2
 72
     2
 73
     0
 90
        0
 40
-0.6
 41
-30.0
 62
     5
 63
     7
 74
     1
 91
        4
 64
     7
 65
   257
 75
     7
175
     7
 42
1.0
 92
        8
 66
     7
 43
1.0
 76
     1
 77
     6
 78
     2
 67
     7
 79
     5
170
     0
171
     0
290
     0
174
     0
 93
        1
 44
0.0
173
     0
291
     1
 45
0.0
1001
ACAD
1000
AcDbSavedByObjectVersion
1070
     0
1000
AcDbSavedByObjectVersion
1070
     0
1000
AcDbSavedByObjectVersion
1070
     0
1000
AcDbSavedByObjectVersion
1070
     0
  0
VISUALSTYLE
  5
114E
102
{ACAD_REACTORS
330
1144
102
}
330
1144
100
AcDbVisualStyle
  2
Realistic
 70
     8
 71
     2
 72
     2
 73
     0
 90
        0
 40
-0.6
 41
-30.0
 62
     5
 63
     7
 74
     1
 91
        0
 64
     7
 65
   257
 75
     1
175
     1
 42
1.0
 92
        8
 66
     8
 43
1.0
 76
     1
 77
     6
 78
     2
 67
     7
 79
     5
170
     0
171
     0
290
     0
174
     0
 93
       13
 44
0.0
173
     0
291
     0
 45
0.0
1001
ACAD
1000
AcDbSavedByObjectVersion
1070
     0
1000
AcDbSavedByObjectVersion
1070
     0
1000
AcDbSavedByObjectVersion
1070
     0
1000
AcDbSavedByObjectVersion
1070
     0
  0
VISUALSTYLE
  5
1151
102
{ACAD_REACTORS
330
1144
102
}
330
1144
100
AcDbVisualStyle
  2
Thicken
 70
    13
 71
     2
 72
     2
 73
     0
 90
        0
 40
-0.6
 41
-30.0
 62
     5
 63
     7
 74
     1
 91
        4
 64
     7
 65
   257
 75
     1
175
     1
 42
1.0
 92
       12
 66
     7
 43
1.0
 76
     1
 77
     6
 78
     2
 67
     7
 79
     5
170
     0
171
     0
290
     0
174
     0
 93
        1
 44
0.0
173
     0
291
     1
 45
0.0
1001
ACAD
1000
AcDbSavedByObjectVersion
1070
     0
1000
AcDbSavedByObjectVersion
1070
     0
1000
AcDbSavedByObjectVersion
1070
     0
1000
AcDbSavedByObjectVersion
1070
     0
  0
DICTIONARYVAR
  5
1384
102
{ACAD_REACTORS
330
1383
102
}
330
1383
100
DictionaryVariables
280
     0
  1
STANDARD
  0
DICTIONARYVAR
  5
1387
102
{ACAD_REACTORS
330
1383
102
}
330
1383
100
DictionaryVariables
280
     0
  1
1
  0
DICTIONARYVAR
  5
1386
102
{ACAD_REACTORS
330
1383
102
}
330
1383
100
DictionaryVariables
280
     0
  1
0
  0
DICTIONARYVAR
  5
1385
102
{ACAD_REACTORS
330
1383
102
}
330
1383
100
DictionaryVariables
280
     0
  1
127
  0
XRECORD
  5
560
102
{ACAD_REACTORS
330
540
102
}
330
540
100
AcDbXrecord
280
     1
  1
2.0.0
  0
DICTIONARY
  5
1B2E
330
1159
100
AcDbDictionary
280
     1
281
     1
  3
ACAD_XREC_ROUNDTRIP
360
1B2F
  0
DICTIONARY
  5
1B30
330
115A
100
AcDbDictionary
280
     1
281
     1
  3
ACAD_XREC_ROUNDTRIP
360
1B31
  0
DICTIONARY
  5
17CE
330
1142
100
AcDbDictionary
280
     1
281
     1
  3
ACAD_XREC_ROUNDTRIP
360
17CF
  0
DICTIONARY
  5
17CC
330
1141
100
AcDbDictionary
280
     1
281
     1
  3
ACAD_XREC_ROUNDTRIP
360
17CD
  0
DICTIONARY
  5
17D0
330
1143
100
AcDbDictionary
280
     1
281
     1
  3
ACAD_XREC_ROUNDTRIP
360
17D1
  0
DICTIONARY
  5
1B28
330
758
100
AcDbDictionary
280
     1
281
     1
  3
ACAD_XREC_ROUNDTRIP
360
1B29
  0
DICTIONARY
  5
1B26
330
757
100
AcDbDictionary
280
     1
281
     1
  3
ACAD_XREC_ROUNDTRIP
360
1B27
  0
DICTIONARY
  5
1B1C
330
707
100
AcDbDictionary
280
     1
281
     1
  3
ACAD_XREC_ROUNDTRIP
360
1B1D
  0
DICTIONARY
  5
1B2A
330
759
100
AcDbDictionary
280
     1
281
     1
  3
ACAD_XREC_ROUNDTRIP
360
1B2B
  0
DICTIONARY
  5
1B22
330
755
100
AcDbDictionary
280
     1
281
     1
  3
ACAD_XREC_ROUNDTRIP
360
1B23
  0
DICTIONARY
  5
1B20
330
754
100
AcDbDictionary
280
     1
281
     1
  3
ACAD_XREC_ROUNDTRIP
360
1B21
  0
DICTIONARY
  5
1B1E
330
708
100
AcDbDictionary
280
     1
281
     1
  3
ACAD_XREC_ROUNDTRIP
360
1B1F
  0
DICTIONARY
  5
1B24
330
756
100
AcDbDictionary
280
     1
281
     1
  3
ACAD_XREC_ROUNDTRIP
360
1B25
  0
DICTIONARY
  5
1B2C
330
1157
100
AcDbDictionary
280
     1
281
     1
  3
ACAD_XREC_ROUNDTRIP
360
1B2D
  0
XRECORD
  5
1B2F
102
{ACAD_REACTORS
330
1B2E
102
}
330
1B2E
100
AcDbXrecord
280
     1
102
SHADEPLOT
 70
     0
102
SHADEPLOTRESLEVEL
 70
     2
102
SHADEPLOTCUSTOMDPI
 70
   300
  0
XRECORD
  5
1B31
102
{ACAD_REACTORS
330
1B30
102
}
330
1B30
100
AcDbXrecord
280
     1
102
SHADEPLOT
 70
     0
102
SHADEPLOTRESLEVEL
 70
     2
102
SHADEPLOTCUSTOMDPI
 70
   300
  0
XRECORD
  5
17CF
102
{ACAD_REACTORS
330
17CE
102
}
330
17CE
100
AcDbXrecord
280
     1
102
MATERIAL
148
0.0
149
0.0
149
0.0
 93
        0
 94
       63
282
     0
 72
     1
 77
     1
171
     1
175
     1
179
     1
273
     0
  0
XRECORD
  5
17CD
102
{ACAD_REACTORS
330
17CC
102
}
330
17CC
100
AcDbXrecord
280
     1
102
MATERIAL
148
0.0
149
0.0
149
0.0
 93
        0
 94
       63
282
     0
 72
     1
 77
     1
171
     1
175
     1
179
     1
273
     0
  0
XRECORD
  5
17D1
102
{ACAD_REACTORS
330
17D0
102
}
330
17D0
100
AcDbXrecord
280
     1
102
MATERIAL
148
0.0
149
0.0
149
0.0
 93
        0
 94
       63
282
     0
 72
     1
 77
     1
171
     1
175
     1
179
     1
273
     0
  0
XRECORD
  5
1B29
102
{ACAD_REACTORS
330
1B28
102
}
330
1B28
100
AcDbXrecord
280
     1
102
SHADEPLOT
 70
     0
102
SHADEPLOTRESLEVEL
 70
     2
102
SHADEPLOTCUSTOMDPI
 70
   300
  0
XRECORD
  5
1B27
102
{ACAD_REACTORS
330
1B26
102
}
330
1B26
100
AcDbXrecord
280
     1
102
SHADEPLOT
 70
     0
102
SHADEPLOTRESLEVEL
 70
     2
102
SHADEPLOTCUSTOMDPI
 70
   300
  0
XRECORD
  5
1B1D
102
{ACAD_REACTORS
330
1B1C
102
}
330
1B1C
100
AcDbXrecord
280
     1
102
SHADEPLOT
 70
     0
102
SHADEPLOTRESLEVEL
 70
     2
102
SHADEPLOTCUSTOMDPI
 70
   300
  0
XRECORD
  5
1B2B
102
{ACAD_REACTORS
330
1B2A
102
}
330
1B2A
100
AcDbXrecord
280
     1
102
SHADEPLOT
 70
     0
102
SHADEPLOTRESLEVEL
 70
     2
102
SHADEPLOTCUSTOMDPI
 70
   300
  0
XRECORD
  5
1B23
102
{ACAD_REACTORS
330
1B22
102
}
330
1B22
100
AcDbXrecord
280
     1
102
SHADEPLOT
 70
     0
102
SHADEPLOTRESLEVEL
 70
     2
102
SHADEPLOTCUSTOMDPI
 70
   300
  0
XRECORD
  5
1B21
102
{ACAD_REACTORS
330
1B20
102
}
330
1B20
100
AcDbXrecord
280
     1
102
SHADEPLOT
 70
     0
102
SHADEPLOTRESLEVEL
 70
     2
102
SHADEPLOTCUSTOMDPI
 70
   300
  0
XRECORD
  5
1B1F
102
{ACAD_REACTORS
330
1B1E
102
}
330
1B1E
100
AcDbXrecord
280
     1
102
SHADEPLOT
 70
     0
102
SHADEPLOTRESLEVEL
 70
     2
102
SHADEPLOTCUSTOMDPI
 70
   300
  0
XRECORD
  5
1B25
102
{ACAD_REACTORS
330
1B24
102
}
330
1B24
100
AcDbXrecord
280
     1
102
SHADEPLOT
 70
     0
102
SHADEPLOTRESLEVEL
 70
     2
102
SHADEPLOTCUSTOMDPI
 70
   300
  0
XRECORD
  5
1B2D
102
{ACAD_REACTORS
330
1B2C
102
}
330
1B2C
100
AcDbXrecord
280
     1
102
ACAD_ROUNDTRIP_PRE2007_TABLESTYLE
 90
      512
 91
        0
  1

 92
      512
 93
        0
  2

 94
      512
 95
        0
  3

  0
ENDSEC
  0
EOF
