  0
SECTION
  2
HEADER
  9
$ACADVER
  1
AC1015
  9
$ACADMAINTVER
 70
     6
  9
$DWGCODEPAGE
  3
ANSI_932
  9
$INSBASE
 10
0.0
 20
0.0
 30
0.0
  9
$EXTMIN
 10
-102.6159472695738
 20
-49.22306476094002
 30
-0.0015258207003583
  9
$EXTMAX
 10
106.0301247526311
 20
89.00096549161947
 30
0.0000000349246037
  9
$LIMMIN
 10
0.0
 20
0.0
  9
$LIMMAX
 10
420.0
 20
297.0
  9
$ORTHOMODE
 70
     1
  9
$REGENMODE
 70
     1
  9
$FILLMODE
 70
     1
  9
$QTEXTMODE
 70
     0
  9
$MIRRTEXT
 70
     1
  9
$LTSCALE
 40
10.0
  9
$ATTMODE
 70
     1
  9
$TEXTSIZE
 40
3.0
  9
$TRACEWID
 40
1.0
  9
$TEXTSTYLE
  7
YOKO
  9
$CLAYER
  8
245
  9
$CELTYPE
  6
BYLAYER
  9
$CECOLOR
 62
   256
  9
$CELTSCALE
 40
1.0
  9
$DISPSILH
 70
     0
  9
$DIMSCALE
 40
1.0
  9
$DIMASZ
 40
2.0
  9
$DIMEXO
 40
0.5
  9
$DIMDLI
 40
2.5
  9
$DIMRND
 40
0.0
  9
$DIMDLE
 40
0.0
  9
$DIMEXE
 40
1.0
  9
$DIMTP
 40
0.0
  9
$DIMTM
 40
0.0
  9
$DIMTXT
 40
2.799999999999999
  9
$DIMCEN
 40
0.0
  9
$DIMTSZ
 40
0.0
  9
$DIMTOL
 70
     0
  9
$DIMLIM
 70
     0
  9
$DIMTIH
 70
     0
  9
$DIMTOH
 70
     0
  9
$DIMSE1
 70
     0
  9
$DIMSE2
 70
     0
  9
$DIMTAD
 70
     3
  9
$DIMZIN
 70
     8
  9
$DIMBLK
  1

  9
$DIMASO
 70
     1
  9
$DIMSHO
 70
     1
  9
$DIMPOST
  1
<>
  9
$DIMAPOST
  1

  9
$DIMALT
 70
     0
  9
$DIMALTD
 70
     2
  9
$DIMALTF
 40
25.4
  9
$DIMLFAC
 40
1.0
  9
$DIMTOFL
 70
     1
  9
$DIMTVP
 40
0.0
  9
$DIMTIX
 70
     1
  9
$DIMSOXD
 70
     0
  9
$DIMSAH
 70
     1
  9
$DIMBLK1
  1
OPEN
  9
$DIMBLK2
  1
OPEN
  9
$DIMSTYLE
  2
BIGT
  9
$DIMCLRD
 70
   256
  9
$DIMCLRE
 70
   256
  9
$DIMCLRT
 70
    40
  9
$DIMTFAC
 40
1.0
  9
$DIMGAP
 40
1.0
  9
$DIMJUST
 70
     0
  9
$DIMSD1
 70
     0
  9
$DIMSD2
 70
     0
  9
$DIMTOLJ
 70
     1
  9
$DIMTZIN
 70
     8
  9
$DIMALTZ
 70
     0
  9
$DIMALTTZ
 70
     0
  9
$DIMUPT
 70
     1
  9
$DIMDEC
 70
     3
  9
$DIMTDEC
 70
     3
  9
$DIMALTU
 70
     2
  9
$DIMALTTD
 70
     2
  9
$DIMTXSTY
  7
STANDARD
  9
$DIMAUNIT
 70
     0
  9
$DIMADEC
 70
     3
  9
$DIMALTRND
 40
0.0
  9
$DIMAZIN
 70
     2
  9
$DIMDSEP
 70
    46
  9
$DIMATFIT
 70
     3
  9
$DIMFRAC
 70
     0
  9
$DIMLDRBLK
  1
OPEN
  9
$DIMLUNIT
 70
     2
  9
$DIMLWD
 70
    -1
  9
$DIMLWE
 70
    -1
  9
$DIMTMOVE
 70
     0
  9
$LUNITS
 70
     2
  9
$LUPREC
 70
     3
  9
$SKETCHINC
 40
1.0
  9
$FILLETRAD
 40
2.0
  9
$AUNITS
 70
     0
  9
$AUPREC
 70
     3
  9
$MENU
  1
.
  9
$ELEVATION
 40
0.0
  9
$PELEVATION
 40
0.0
  9
$THICKNESS
 40
0.0
  9
$LIMCHECK
 70
     0
  9
$CHAMFERA
 40
10.0
  9
$CHAMFERB
 40
10.0
  9
$CHAMFERC
 40
0.0
  9
$CHAMFERD
 40
0.0
  9
$SKPOLY
 70
     0
  9
$TDCREATE
 40
2455355.863344167
  9
$TDUCREATE
 40
2455356.113344167
  9
$TDUPDATE
 40
2457009.416355081
  9
$TDUUPDATE
 40
2457009.666355081
  9
$TDINDWG
 40
0.0890635764
  9
$TDUSRTIMER
 40
2457009.641578542
  9
$USRTIMER
 70
     1
  9
$ANGBASE
 50
0.0
  9
$ANGDIR
 70
     0
  9
$PDMODE
 70
     0
  9
$PDSIZE
 40
-5.0
  9
$PLINEWID
 40
0.0
  9
$SPLFRAME
 70
     0
  9
$SPLINETYPE
 70
     6
  9
$SPLINESEGS
 70
     8
  9
$HANDSEED
  5
1460
  9
$SURFTAB1
 70
     6
  9
$SURFTAB2
 70
     6
  9
$SURFTYPE
 70
     6
  9
$SURFU
 70
     6
  9
$SURFV
 70
     6
  9
$UCSBASE
  2

  9
$UCSNAME
  2

  9
$UCSORG
 10
0.0
 20
0.0
 30
0.0
  9
$UCSXDIR
 10
1.0
 20
0.0
 30
0.0
  9
$UCSYDIR
 10
0.0
 20
1.0
 30
0.0
  9
$UCSORTHOREF
  2

  9
$UCSORTHOVIEW
 70
     0
  9
$UCSORGTOP
 10
0.0
 20
0.0
 30
0.0
  9
$UCSORGBOTTOM
 10
0.0
 20
0.0
 30
0.0
  9
$UCSORGLEFT
 10
0.0
 20
0.0
 30
0.0
  9
$UCSORGRIGHT
 10
0.0
 20
0.0
 30
0.0
  9
$UCSORGFRONT
 10
0.0
 20
0.0
 30
0.0
  9
$UCSORGBACK
 10
0.0
 20
0.0
 30
0.0
  9
$PUCSBASE
  2

  9
$PUCSNAME
  2

  9
$PUCSORG
 10
0.0
 20
0.0
 30
0.0
  9
$PUCSXDIR
 10
1.0
 20
0.0
 30
0.0
  9
$PUCSYDIR
 10
0.0
 20
1.0
 30
0.0
  9
$PUCSORTHOREF
  2

  9
$PUCSORTHOVIEW
 70
     0
  9
$PUCSORGTOP
 10
0.0
 20
0.0
 30
0.0
  9
$PUCSORGBOTTOM
 10
0.0
 20
0.0
 30
0.0
  9
$PUCSORGLEFT
 10
0.0
 20
0.0
 30
0.0
  9
$PUCSORGRIGHT
 10
0.0
 20
0.0
 30
0.0
  9
$PUCSORGFRONT
 10
0.0
 20
0.0
 30
0.0
  9
$PUCSORGBACK
 10
0.0
 20
0.0
 30
0.0
  9
$USERI1
 70
     1
  9
$USERI2
 70
     0
  9
$USERI3
 70
     0
  9
$USERI4
 70
     0
  9
$USERI5
 70
     0
  9
$USERR1
 40
0.0
  9
$USERR2
 40
0.0
  9
$USERR3
 40
0.0
  9
$USERR4
 40
0.0
  9
$USERR5
 40
0.0
  9
$WORLDVIEW
 70
     1
  9
$SHADEDGE
 70
     3
  9
$SHADEDIF
 70
    70
  9
$TILEMODE
 70
     1
  9
$MAXACTVP
 70
    16
  9
$PINSBASE
 10
0.0
 20
0.0
 30
0.0
  9
$PLIMCHECK
 70
     0
  9
$PEXTMIN
 10
1.000000000000000E+20
 20
1.000000000000000E+20
 30
1.000000000000000E+20
  9
$PEXTMAX
 10
-1.000000000000000E+20
 20
-1.000000000000000E+20
 30
-1.000000000000000E+20
  9
$PLIMMIN
 10
0.0
 20
0.0
  9
$PLIMMAX
 10
0.0
 20
0.0
  9
$UNITMODE
 70
     0
  9
$VISRETAIN
 70
     0
  9
$PLINEGEN
 70
     0
  9
$PSLTSCALE
 70
     1
  9
$TREEDEPTH
 70
  3020
  9
$CMLSTYLE
  2
STANDARD
  9
$CMLJUST
 70
     0
  9
$CMLSCALE
 40
1.0
  9
$PROXYGRAPHICS
 70
     1
  9
$MEASUREMENT
 70
     1
  9
$CELWEIGHT
370
    -1
  9
$ENDCAPS
280
     0
  9
$JOINSTYLE
280
     0
  9
$LWDISPLAY
290
     0
  9
$INSUNITS
 70
     0
  9
$HYPERLINKBASE
  1

  9
$STYLESHEET
  1
BIG.CTB
  9
$XEDIT
290
     1
  9
$CEPSNTYPE
380
     0
  9
$PSTYLEMODE
290
     1
  9
$FINGERPRINTGUID
  2
{51294030-9CB4-11D3-8E18-00A0C925D94D}
  9
$VERSIONGUID
  2
{168DCF58-B8D4-4139-A130-9ABA98C3DF33}
  9
$EXTNAMES
290
     1
  9
$PSVPSCALE
 40
0.0
  9
$OLESTARTUP
290
     0
  0
ENDSEC
  0
SECTION
  2
CLASSES
  0
CLASS
  1
ACDBDICTIONARYWDFLT
  2
AcDbDictionaryWithDefault
  3
ObjectDBX Classes
 90
        0
280
     0
281
     0
  0
CLASS
  1
ACDBPLACEHOLDER
  2
AcDbPlaceHolder
  3
ObjectDBX Classes
 90
        0
280
     0
281
     0
  0
CLASS
  1
LAYOUT
  2
AcDbLayout
  3
ObjectDBX Classes
 90
        0
280
     0
281
     0
  0
CLASS
  1
PLOTSETTINGS
  2
AcDbPlotSettings
  3
ObjectDBX Classes
 90
        0
280
     0
281
     0
  0
CLASS
  1
MATERIAL
  2
AcDbMaterial
  3
ObjectDBX Classes
 90
     1153
280
     0
281
     0
  0
CLASS
  1
VISUALSTYLE
  2
AcDbVisualStyle
  3
ObjectDBX Classes
 90
     4095
280
     0
281
     0
  0
CLASS
  1
TABLESTYLE
  2
AcDbTableStyle
  3
ObjectDBX Classes
 90
     4095
280
     0
281
     0
  0
CLASS
  1
SORTENTSTABLE
  2
AcDbSortentsTable
  3
ObjectDBX Classes
 90
        0
280
     0
281
     0
  0
CLASS
  1
DICTIONARYVAR
  2
AcDbDictionaryVar
  3
ObjectDBX Classes
 90
        0
280
     0
281
     0
  0
CLASS
  1
SCALE
  2
AcDbScale
  3
ObjectDBX Classes
 90
     1153
280
     0
281
     0
  0
CLASS
  1
RASTERVARIABLES
  2
AcDbRasterVariables
  3
ISM
 90
        0
280
     0
281
     0
  0
ENDSEC
  0
SECTION
  2
TABLES
  0
TABLE
  2
VPORT
  5
8
330
0
100
AcDbSymbolTable
 70
     1
  0
VPORT
  5
110D
330
8
100
AcDbSymbolTableRecord
100
AcDbViewportTableRecord
  2
*ACTIVE
 70
     0
 10
0.0
 20
0.0
 11
1.0
 21
1.0
 12
59.2249440045166
 22
-26.16346507438777
 13
0.0
 23
0.0
 14
7.0
 24
7.0
 15
7.0
 25
7.0
 16
0.0
 26
0.0
 36
1.0
 17
0.0
 27
0.0
 37
0.0
 40
186.6811003502641
 41
1.307589880159787
 42
50.0
 43
0.0
 44
0.0
 50
0.0
 51
0.0
 71
    16
 72
  2000
 73
     1
 74
     0
 75
     0
 76
     0
 77
     0
 78
     0
281
     0
 65
     1
110
0.0
120
0.0
130
0.0
111
1.0
121
0.0
131
0.0
112
0.0
122
1.0
132
0.0
 79
     0
146
0.0
  0
ENDTAB
  0
TABLE
  2
LTYPE
  5
5
330
0
100
AcDbSymbolTable
 70
     3
  0
LTYPE
  5
14
330
5
100
AcDbSymbolTableRecord
100
AcDbLinetypeTableRecord
  2
BYBLOCK
 70
     0
  3

 72
    65
 73
     0
 40
0.0
  0
LTYPE
  5
15
330
5
100
AcDbSymbolTableRecord
100
AcDbLinetypeTableRecord
  2
BYLAYER
 70
     0
  3

 72
    65
 73
     0
 40
0.0
  0
LTYPE
  5
16
330
5
100
AcDbSymbolTableRecord
100
AcDbLinetypeTableRecord
  2
CONTINUOUS
 70
     0
  3
Solid line
 72
    65
 73
     0
 40
0.0
  0
LTYPE
  5
258
330
5
100
AcDbSymbolTableRecord
100
AcDbLinetypeTableRecord
  2
CENTER2
 70
     0
  3
___ _ ___ _ ___ _ ___ _ ___ _ ___ _ ___ _ ___ _
 72
    65
 73
     4
 40
1.125
 49
0.75
 74
     0
 49
-0.125
 74
     0
 49
0.125
 74
     0
 49
-0.125
 74
     0
  0
LTYPE
  5
25C
330
5
100
AcDbSymbolTableRecord
100
AcDbLinetypeTableRecord
  2
HIDDEN2
 70
     0
  3
_ _ _ _ _ _ _ _ _ _ _ _ _ _ _ _ _ _ _ _ _ _ _ _
 72
    65
 73
     2
 40
0.1875
 49
0.125
 74
     0
 49
-0.0625
 74
     0
  0
ENDTAB
  0
TABLE
  2
LAYER
  5
2
102
{ACAD_XDICTIONARY
360
117B
102
}
330
0
100
AcDbSymbolTable
 70
     7
  0
LAYER
  5
F
330
2
100
AcDbSymbolTableRecord
100
AcDbLayerTableRecord
  2
0
 70
     0
 62
     7
  6
CONTINUOUS
370
    -3
390
564
  0
LAYER
  5
1AA
330
2
100
AcDbSymbolTableRecord
100
AcDbLayerTableRecord
  2
240
 70
     0
 62
     4
  6
CONTINUOUS
370
    -3
390
564
  0
LAYER
  5
1AB
330
2
100
AcDbSymbolTableRecord
100
AcDbLayerTableRecord
  2
241
 70
     0
 62
   211
  6
CONTINUOUS
370
    -3
390
564
  0
LAYER
  5
1AF
330
2
100
AcDbSymbolTableRecord
100
AcDbLayerTableRecord
  2
245
 70
     0
 62
     2
  6
CENTER2
370
    -3
390
564
  0
LAYER
  5
21E
330
2
100
AcDbSymbolTableRecord
100
AcDbLayerTableRecord
  2
250
 70
     0
 62
     3
  6
CONTINUOUS
370
    -3
390
564
  0
LAYER
  5
21F
330
2
100
AcDbSymbolTableRecord
100
AcDbLayerTableRecord
  2
251
 70
     0
 62
    40
  6
CONTINUOUS
370
    -3
390
564
  0
LAYER
  5
5C4
330
2
100
AcDbSymbolTableRecord
100
AcDbLayerTableRecord
  2
DEFPOINTS
 70
     0
 62
     7
  6
CONTINUOUS
290
     0
370
    -3
390
564
  0
ENDTAB
  0
TABLE
  2
STYLE
  5
3
330
0
100
AcDbSymbolTable
 70
     2
  0
STYLE
  5
10
330
3
100
AcDbSymbolTableRecord
100
AcDbTextStyleTableRecord
  2
STANDARD
 70
     0
 40
0.0
 41
1.0
 50
0.0
 71
     0
 42
3.0
  3
romans.shx
  4
BIGFONT.SHX
  0
STYLE
  5
339
330
3
100
AcDbSymbolTableRecord
100
AcDbTextStyleTableRecord
  2
YOKO
 70
     0
 40
0.0
 41
1.0
 50
0.0
 71
     0
 42
3.0
  3
romans.shx
  4
extfont.shx
  0
ENDTAB
  0
TABLE
  2
VIEW
  5
6
330
0
100
AcDbSymbolTable
 70
     0
  0
ENDTAB
  0
TABLE
  2
UCS
  5
7
330
0
100
AcDbSymbolTable
 70
     0
  0
ENDTAB
  0
TABLE
  2
APPID
  5
9
330
0
100
AcDbSymbolTable
 70
    13
  0
APPID
  5
11
330
9
100
AcDbSymbolTableRecord
100
AcDbRegAppTableRecord
  2
ACAD
 70
     0
  0
APPID
  5
1B1
330
9
100
AcDbSymbolTableRecord
100
AcDbRegAppTableRecord
  2
GLOBAL
 70
     0
  0
APPID
  5
2A4
330
9
100
AcDbSymbolTableRecord
100
AcDbRegAppTableRecord
  2
DETAIL
 70
     0
  0
APPID
  5
5FD
330
9
100
AcDbSymbolTableRecord
100
AcDbRegAppTableRecord
  2
GRPNAME
 70
     0
  0
APPID
  5
5FE
330
9
100
AcDbSymbolTableRecord
100
AcDbRegAppTableRecord
  2
GPARA
 70
     0
  0
APPID
  5
6C4
330
9
100
AcDbSymbolTableRecord
100
AcDbRegAppTableRecord
  2
DCO15
 70
     0
  0
APPID
  5
6C5
330
9
100
AcDbSymbolTableRecord
100
AcDbRegAppTableRecord
  2
ITEMNAME
 70
     0
  0
APPID
  5
6C6
330
9
100
AcDbSymbolTableRecord
100
AcDbRegAppTableRecord
  2
GRADE_0
 70
     0
  0
APPID
  5
A02
330
9
100
AcDbSymbolTableRecord
100
AcDbRegAppTableRecord
  2
CONTENTBLOCKICON
 70
     0
  0
APPID
  5
1177
330
9
100
AcDbSymbolTableRecord
100
AcDbRegAppTableRecord
  2
Layer_Scale
 70
     0
  0
APPID
  5
1178
330
9
100
AcDbSymbolTableRecord
100
AcDbRegAppTableRecord
  2
ACAD_PSEXT
 70
     0
  0
APPID
  5
1179
330
9
100
AcDbSymbolTableRecord
100
AcDbRegAppTableRecord
  2
ACAD_NAV_VCDISPLAY
 70
     0
  0
APPID
  5
117A
330
9
100
AcDbSymbolTableRecord
100
AcDbRegAppTableRecord
  2
ASK_MEN_XD
 70
     0
  0
ENDTAB
  0
TABLE
  2
DIMSTYLE
  5
A
330
0
100
AcDbSymbolTable
 70
     1
100
AcDbDimStyleTable
  0
DIMSTYLE
105
725
102
{ACAD_REACTORS
330
1212
330
1213
330
12E1
102
}
330
A
100
AcDbSymbolTableRecord
100
AcDbDimStyleTableRecord
  2
BIGT
 70
     0
 41
2.229999999999999
 42
0.5
 43
2.5
 44
1.0
 73
     0
 74
     0
 77
     3
 78
     8
140
2.799999999999998
141
0.0
147
1.0
172
     1
173
     1
174
     1
176
   256
177
   256
271
     3
178
    40
271
     3
272
     3
284
     8
340
10
341
594
343
594
344
594
  0
ENDTAB
  0
TABLE
  2
BLOCK_RECORD
  5
1
330
0
100
AcDbSymbolTable
 70
     7
  0
BLOCK_RECORD
  5
1A
330
1
100
AcDbSymbolTableRecord
100
AcDbBlockTableRecord
  2
*MODEL_SPACE
340
1159
  0
BLOCK_RECORD
  5
17
330
1
100
AcDbSymbolTableRecord
100
AcDbBlockTableRecord
  2
*PAPER_SPACE
340
115A
  0
BLOCK_RECORD
  5
594
330
1
100
AcDbSymbolTableRecord
100
AcDbBlockTableRecord
  2
_OPEN
340
0
102
{BLKREFS
331
13C5
331
13C6
331
13BC
331
13BD
331
1327
331
1304
331
1306
102
}
  0
BLOCK_RECORD
  5
6E3
330
1
100
AcDbSymbolTableRecord
100
AcDbBlockTableRecord
  2
\U+77E2\U+5370\U+306A\U+3057
340
0
102
{BLKREFS
331
1326
331
1302
331
6E6
102
}
  0
BLOCK_RECORD
  5
985
330
1
100
AcDbSymbolTableRecord
100
AcDbBlockTableRecord
  2
1
340
0
310
2800000020000000200000000100080000000000000400000000000000000000000000000000000000000000000080000080000000808000800000008000800080800000C0C0C000C0DCC000F0CAA6000020400000206000002080000020A0000020C0000020E00000400000004020000040400000406000004080000040A0
310
000040C0000040E00000600000006020000060400000606000006080000060A0000060C0000060E00000800000008020000080400000806000008080000080A0000080C0000080E00000A0000000A0200000A0400000A0600000A0800000A0A00000A0C00000A0E00000C0000000C0200000C0400000C0600000C0800000C0
310
A00000C0C00000C0E00000E0000000E0200000E0400000E0600000E0800000E0A00000E0C00000E0E00040000000400020004000400040006000400080004000A0004000C0004000E00040200000402020004020400040206000402080004020A0004020C0004020E000404000004040200040404000404060004040800040
310
40A0004040C0004040E00040600000406020004060400040606000406080004060A0004060C0004060E00040800000408020004080400040806000408080004080A0004080C0004080E00040A0000040A0200040A0400040A0600040A0800040A0A00040A0C00040A0E00040C0000040C0200040C0400040C0600040C08000
310
40C0A00040C0C00040C0E00040E0000040E0200040E0400040E0600040E0800040E0A00040E0C00040E0E00080000000800020008000400080006000800080008000A0008000C0008000E00080200000802020008020400080206000802080008020A0008020C0008020E00080400000804020008040400080406000804080
310
008040A0008040C0008040E00080600000806020008060400080606000806080008060A0008060C0008060E00080800000808020008080400080806000808080008080A0008080C0008080E00080A0000080A0200080A0400080A0600080A0800080A0A00080A0C00080A0E00080C0000080C0200080C0400080C0600080C0
310
800080C0A00080C0C00080C0E00080E0000080E0200080E0400080E0600080E0800080E0A00080E0C00080E0E000C0000000C0002000C0004000C0006000C0008000C000A000C000C000C000E000C0200000C0202000C0204000C0206000C0208000C020A000C020C000C020E000C0400000C0402000C0404000C0406000C0
310
408000C040A000C040C000C040E000C0600000C0602000C0604000C0606000C0608000C060A000C060C000C060E000C0800000C0802000C0804000C0806000C0808000C080A000C080C000C080E000C0A00000C0A02000C0A04000C0A06000C0A08000C0A0A000C0A0C000C0A0E000C0C00000C0C02000C0C04000C0C06000
310
C0C08000C0C0A000F0FBFF00A4A0A000808080000000FF0000FF000000FFFF00FF000000FF00FF00FFFF0000FFFFFF0000000000000000000000000000000000000000000000000000000000000000000000000000000000000000000000000000000000000000000000000000000000000000000000000000000000000000
310
00000000000000000000000000000000000000000000000000000000000000000000000000000000000000000000000000000000000000000000000000000000000000000000000000000000000000000000000000000000000000000000000000000000000000000000000000000000000000000000000000000000000000
310
00000000000000000000000000000000000000000000000000000000000000000000000000000000000000000000000000000000000000000000000000000000000000E7FBFE0000000000000000000000000000000000000000000000000000000000E7FBFE00000000000000000000000000000000000000000000000000
310
00FEFEFEE7FBFEFEFE0000000000000000000000000000000000000000FEFEFEFE0000E7E7FBE700E7FE0000000000000000000000000000FEFEFEFEFE000000000000E7E7FBE700E7FEFEFEFEFEFEFE0000000000FEFEFE0000000000000000000000E7E7FBE700E7E70000E7E7E7E7FE00000000FE000000000000000000
310
00000000E7E7FBE700E7E70000E7E7E7E7FE00000000FE00000000000000000000000000E7E7FBE700E7E70000E7E7E7E7FE000000FBFBFBFBFBFBFBFBFBFBFBFBFBFBFBFBFBFBFBFBFBFBFBFBFBFBFBFBFBFB000000FE00000000000000000000000000E7E7FBE700E7E7E7E7E7E7E7E7E700000000FEFEFE000000000000
310
0000000000E7E7FBE700E7E70000E7E7E7E7FE00000000000000FEFEFEFEFE000000000000E7E7FBE700E7FEFEFEFEFEFEFE00000000000000000000000000FEFEFEFE0000E7E7FBE700E7FE0000000000000000000000000000000000000000000000FEFEFEE7FBFEFEFE0000000000000000000000000000000000000000
310
00000000000000E7FBFE0000000000000000000000000000000000000000000000000000000000E7FBFE00000000000000000000000000000000000000000000000000000000000000000000000000000000000000000000000000000000000000000000000000000000000000000000000000000000000000000000000000
310
00000000000000000000000000000000000000000000000000000000000000000000000000000000000000000000000000000000000000000000000000000000000000000000000000000000000000000000000000000000000000000000000000000000000000000000000000000000000000000000000000000000000000
310
0000000000000000000000000000000000000000000000000000000000000000000000000000000000000000000000000000000000000000
102
{BLKREFS
331
0
102
}
  0
BLOCK_RECORD
  5
125D
330
1
100
AcDbSymbolTableRecord
100
AcDbBlockTableRecord
  2
*D3
340
0
  0
BLOCK_RECORD
  5
1269
330
1
100
AcDbSymbolTableRecord
100
AcDbBlockTableRecord
  2
*D4
340
0
  0
BLOCK_RECORD
  5
12E2
330
1
100
AcDbSymbolTableRecord
100
AcDbBlockTableRecord
  2
*D5
340
0
  0
BLOCK_RECORD
  5
1300
330
1
100
AcDbSymbolTableRecord
100
AcDbBlockTableRecord
  2
HDC-CLAMPSCREW
340
0
102
{BLKREFS
331
1311
102
}
  0
ENDTAB
  0
ENDSEC
  0
SECTION
  2
BLOCKS
  0
BLOCK
  5
1B
330
1A
100
AcDbEntity
  8
0
100
AcDbBlockBegin
  2
*MODEL_SPACE
 70
     0
 10
0.0
 20
0.0
 30
0.0
  3
*MODEL_SPACE
  1

  0
ENDBLK
  5
1C
330
1A
100
AcDbEntity
  8
0
100
AcDbBlockEnd
  0
BLOCK
  5
18
330
17
100
AcDbEntity
 67
     1
  8
0
100
AcDbBlockBegin
  2
*PAPER_SPACE
 70
     0
 10
0.0
 20
0.0
 30
0.0
  3
*PAPER_SPACE
  1

  0
ENDBLK
  5
19
330
17
100
AcDbEntity
 67
     1
  8
0
100
AcDbBlockEnd
  0
BLOCK
  5
598
330
594
100
AcDbEntity
  8
0
100
AcDbBlockBegin
  2
_OPEN
 70
     0
 10
0.0
 20
0.0
 30
0.0
  3
_OPEN
  1

  0
LINE
  5
595
330
594
100
AcDbEntity
  8
0
  6
ByBlock
 62
     0
100
AcDbLine
 10
-1.0
 20
0.16666667
 30
0.0
 11
0.0
 21
0.0
 31
0.0
  0
LINE
  5
596
330
594
100
AcDbEntity
  8
0
  6
ByBlock
 62
     0
100
AcDbLine
 10
-1.0
 20
-0.16666667
 30
0.0
 11
0.0
 21
0.0
 31
0.0
  0
LINE
  5
597
330
594
100
AcDbEntity
  8
0
  6
ByBlock
 62
     0
100
AcDbLine
 10
0.0
 20
0.0
 30
0.0
 11
-1.0
 21
0.0
 31
0.0
  0
ENDBLK
  5
599
330
594
100
AcDbEntity
  8
0
100
AcDbBlockEnd
  0
BLOCK
  5
6E4
330
6E3
100
AcDbEntity
  8
0
100
AcDbBlockBegin
  2
\U+77E2\U+5370\U+306A\U+3057
 70
     0
 10
0.0
 20
0.0
 30
0.0
  3
\U+77E2\U+5370\U+306A\U+3057
  1

  0
ENDBLK
  5
6E5
330
6E3
100
AcDbEntity
  8
0
100
AcDbBlockEnd
  0
BLOCK
  5
986
330
985
100
AcDbEntity
  8
0
100
AcDbBlockBegin
  2
1
 70
     0
 10
0.0
 20
0.0
 30
0.0
  3
1
  1

  0
LINE
  5
132C
330
985
100
AcDbEntity
  8
245
  6
CENTER2
100
AcDbLine
 10
-102.6
 20
0.0
 30
0.0
 11
91.00000000000044
 21
0.0000000000000568
 31
0.0
  0
LINE
  5
132D
330
985
100
AcDbEntity
  8
241
  6
HIDDEN2
100
AcDbLine
 10
47.79641016148911
 20
9.500000000001393
 30
0.0
 11
90.0000000000004
 21
9.500000000000083
 31
0.0
  0
LINE
  5
132E
330
985
100
AcDbEntity
  8
240
100
AcDbLine
 10
88.72261826173369
 20
-19.46923752622964
 30
0.0
 11
78.12150982743685
 21
-24.41261557407404
 31
0.0
  0
ARC
  5
132F
330
985
100
AcDbEntity
  8
240
100
AcDbCircle
 10
88.2999999999929
 20
-18.56292973919298
 30
0.0
 40
1.0
100
AcDbArc
 50
294.9999999999999
 51
359.9999999999935
1001
ASK_MEN_XD
1005
0
1070
     1
1005
0
1070
     1
  0
LINE
  5
1330
330
985
100
AcDbEntity
  8
240
100
AcDbLine
 10
89.2999999999929
 20
-18.56292973919309
 30
0.0
 11
89.29999999999353
 21
-12.94999999998111
 31
0.0
  0
LINE
  5
1331
330
985
100
AcDbEntity
  8
240
100
AcDbLine
 10
89.99999999999994
 20
-12.25000000000977
 30
0.0
 11
90.0
 21
0.0000000000000284
 31
0.0
  0
LINE
  5
1332
330
985
100
AcDbEntity
  8
240
100
AcDbLine
 10
89.29999999999353
 20
-12.94999999998111
 30
0.0
 11
89.99999999999994
 21
-12.25000000000977
 31
0.0
  0
LINE
  5
1333
330
985
100
AcDbEntity
  8
240
  6
Continuous
100
AcDbLine
 10
19.05000000000001
 20
-34.92499999999996
 30
0.0
 11
33.43829884834509
 21
-34.92500000000007
 31
0.0
1001
GRPNAME
1000
PASTMD0L
  0
LINE
  5
1334
330
985
100
AcDbEntity
  8
240
100
AcDbLine
 10
19.04999999999967
 20
34.92500000000004
 30
0.0
 11
33.43829884834509
 21
34.9250000000001
 31
0.0
1001
GRPNAME
1000
PASTMD0L
  0
ARC
  5
1335
330
985
100
AcDbEntity
  8
240
100
AcDbCircle
 10
33.43829884834509
 20
-31.92499999999995
 30
0.0
 40
3.0
100
AcDbArc
 50
270.0
 51
325.0000000000027
1001
GRPNAME
1000
PASTMD0L
1001
ASK_MEN_XD
1005
0
1070
     1
1005
0
1070
     1
  0
LINE
  5
1336
330
985
100
AcDbEntity
  8
240
100
AcDbLine
 10
35.89575498121201
 20
-33.6457293090532
 30
0.0
 11
41.33388785080398
 21
-25.87927069094667
 31
0.0
  0
ARC
  5
1337
330
985
100
AcDbEntity
  8
240
100
AcDbCircle
 10
43.7913439836709
 20
-27.59999999999968
 30
0.0
 40
3.0
100
AcDbArc
 50
89.99999999999348
 51
145.0000000000027
1001
ASK_MEN_XD
1005
0
1070
     1
1005
0
1070
     1
  0
LINE
  5
1338
330
985
100
AcDbEntity
  8
241
100
AcDbLine
 10
35.00000000000023
 20
-34.48646237780668
 30
0.0
 11
35.00000000000023
 21
0.0
 31
0.0
  0
LINE
  5
1339
330
985
100
AcDbEntity
  8
241
100
AcDbLine
 10
42.22964283201577
 20
-25.03853762219319
 30
0.0
 11
42.22964283201577
 21
0.0
 31
0.0
  0
LINE
  5
133A
330
985
100
AcDbEntity
  8
240
100
AcDbLine
 10
43.79134398367111
 20
-24.60000000000011
 30
0.0
 11
77.27627330395603
 21
-24.6000000000023
 31
0.0
  0
ARC
  5
133B
330
985
100
AcDbEntity
  8
240
100
AcDbCircle
 10
77.27627330395613
 20
-22.6000000000023
 30
0.0
 40
2.0
100
AcDbArc
 50
269.9999999999935
 51
294.9999999999999
1001
ASK_MEN_XD
1005
0
1070
     1
1005
0
1070
     1
  0
LINE
  5
133C
330
985
100
AcDbEntity
  8
241
100
AcDbLine
 10
77.71966262923797
 20
-24.55023226981689
 30
0.0
 11
77.7196626292386
 21
0.0000000000000568
 31
0.0
  0
LINE
  5
133D
330
985
100
AcDbEntity
  8
241
100
AcDbLine
 10
71.99961524227137
 20
-24.60000000000196
 30
0.0
 11
71.99961524227024
 21
0.0000000000000568
 31
0.0
  0
LINE
  5
133E
330
985
100
AcDbEntity
  8
241
100
AcDbLine
 10
65.99961524227079
 20
-24.60000000000139
 30
0.0
 11
65.99961524227079
 21
0.0000000000000284
 31
0.0
  0
LINE
  5
133F
330
985
100
AcDbEntity
  8
241
100
AcDbLine
 10
63.99961524230604
 20
-24.60000000000116
 30
0.0
 11
63.99961524230608
 21
0.0000000000000284
 31
0.0
  0
LINE
  5
1340
330
985
100
AcDbEntity
  8
241
100
AcDbLine
 10
57.99961524226683
 20
-24.60000000000059
 30
0.0
 11
57.99961524226685
 21
0.0
 31
0.0
  0
LINE
  5
1341
330
985
100
AcDbEntity
  8
240
  6
Continuous
100
AcDbLine
 10
0.0
 20
34.92500000000001
 30
0.0
 11
-99.63190585
 21
20.39534706000001
 31
0.0
1001
GRPNAME
1000
PASTMD0L
  0
LINE
  5
1342
330
985
100
AcDbEntity
  8
240
  6
Continuous
100
AcDbLine
 10
0.0
 20
-34.92500000000001
 30
0.0
 11
-99.63190585
 21
-20.39534706000001
 31
0.0
1001
GRPNAME
1000
PASTMD0L
  0
LINE
  5
1343
330
985
100
AcDbEntity
  8
240
  6
Continuous
100
AcDbLine
 10
-101.6
 20
18.11942120999998
 30
0.0
 11
-101.6
 21
0.0
 31
0.0
1001
GRPNAME
1000
PASTMD0L
  0
LINE
  5
1344
330
985
100
AcDbEntity
  8
240
  6
Continuous
100
AcDbLine
 10
-101.6
 20
-18.11942120999998
 30
0.0
 11
-101.6
 21
0.0
 31
0.0
1001
GRPNAME
1000
PASTMD0L
  0
ARC
  5
1345
330
985
100
AcDbEntity
  8
240
  6
Continuous
100
AcDbCircle
 10
-99.29999999999998
 20
-18.11942120999998
 30
0.0
 40
2.299999999999998
100
AcDbArc
 50
180.0
 51
261.7028550300002
1001
GRPNAME
1000
PASTMD0L
  0
ARC
  5
1346
330
985
100
AcDbEntity
  8
240
  6
Continuous
100
AcDbCircle
 10
-99.29999999999998
 20
18.11942120999998
 30
0.0
 40
2.299999999999998
100
AcDbArc
 50
98.29714496999985
 51
180.0
1001
GRPNAME
1000
PASTMD0L
  0
LINE
  5
1347
330
985
100
AcDbEntity
  8
241
100
AcDbLine
 10
19.05000000000001
 20
34.92500000000001
 30
0.0
 11
19.05000000000001
 21
0.0
 31
0.0
  0
LINE
  5
1348
330
985
100
AcDbEntity
  8
245
  6
CENTER2
100
AcDbLine
 10
11.12
 20
-49.2125
 30
0.0
 11
11.12
 21
49.2125
 31
0.0
1001
GRPNAME
1000
PASTMD0L
  0
LINE
  5
1349
330
985
100
AcDbEntity
  8
241
  6
Continuous
100
AcDbLine
 10
7.593833230000001
 20
49.2125
 30
0.0
 11
7.593833230000001
 21
12.95500000000001
 31
0.0
1001
GRPNAME
1000
PASTMD0L
  0
LINE
  5
134A
330
985
100
AcDbEntity
  8
241
  6
Continuous
100
AcDbLine
 10
9.199999999999989
 20
45.64500000000001
 30
0.0
 11
9.199999999999989
 21
12.95500000000001
 31
0.0
1001
GRPNAME
1000
PASTMD0L
  0
LINE
  5
134B
330
985
100
AcDbEntity
  8
241
  6
Continuous
100
AcDbLine
 10
13.03999999999999
 20
45.64500000000001
 30
0.0
 11
13.03999999999999
 21
12.95500000000001
 31
0.0
1001
GRPNAME
1000
PASTMD0L
  0
LINE
  5
134C
330
985
100
AcDbEntity
  8
241
  6
Continuous
100
AcDbLine
 10
14.64616677000001
 20
49.2125
 30
0.0
 11
14.64616677000001
 21
12.95500000000001
 31
0.0
1001
GRPNAME
1000
PASTMD0L
  0
LINE
  5
134D
330
985
100
AcDbEntity
  8
241
  6
Continuous
100
AcDbLine
 10
0.0
 20
34.92500000000001
 30
0.0
 11
0.0
 21
0.0
 31
0.0
1001
GRPNAME
1000
PASTMD0L
  0
LINE
  5
134E
330
985
100
AcDbEntity
  8
241
  6
Continuous
100
AcDbLine
 10
1.5
 20
34.92500000000001
 30
0.0
 11
1.5
 21
0.0
 31
0.0
1001
GRPNAME
1000
PASTMD0L
  0
LINE
  5
134F
330
985
100
AcDbEntity
  8
240
  6
Continuous
100
AcDbLine
 10
19.05000000000001
 20
-49.2125
 30
0.0
 11
19.05000000000018
 21
-34.92499999999987
 31
0.0
1001
GRPNAME
1000
PASTMD0L
  0
LINE
  5
1350
330
985
100
AcDbEntity
  8
241
  6
Continuous
100
AcDbLine
 10
13.03999999999999
 20
-45.64500000000001
 30
0.0
 11
13.03999999999999
 21
-12.95500000000001
 31
0.0
1001
GRPNAME
1000
PASTMD0L
  0
LINE
  5
1351
330
985
100
AcDbEntity
  8
241
  6
Continuous
100
AcDbLine
 10
14.64616677000001
 20
-49.2125
 30
0.0
 11
14.64616677000001
 21
-12.95500000000001
 31
0.0
1001
GRPNAME
1000
PASTMD0L
  0
LINE
  5
1352
330
985
100
AcDbEntity
  8
241
  6
Continuous
100
AcDbLine
 10
7.593833230000001
 20
-49.2125
 30
0.0
 11
7.593833230000001
 21
-12.95500000000001
 31
0.0
1001
GRPNAME
1000
PASTMD0L
  0
LINE
  5
1353
330
985
100
AcDbEntity
  8
241
  6
Continuous
100
AcDbLine
 10
9.199999999999989
 20
-12.95500000000001
 30
0.0
 11
9.199999999999989
 21
-45.64500000000001
 31
0.0
1001
GRPNAME
1000
PASTMD0L
  0
LINE
  5
1354
330
985
100
AcDbEntity
  8
240
  6
Continuous
100
AcDbLine
 10
1.5
 20
-49.2125
 30
0.0
 11
1.5
 21
-34.92500000000001
 31
0.0
1001
GRPNAME
1000
PASTMD0L
  0
LINE
  5
1355
330
985
100
AcDbEntity
  8
240
  6
Continuous
100
AcDbLine
 10
14.64616677000001
 20
-49.2125
 30
0.0
 11
19.05000000000001
 21
-49.2125
 31
0.0
1001
GRPNAME
1000
PASTMD0L
  0
LINE
  5
1356
330
985
100
AcDbEntity
  8
240
  6
Continuous
100
AcDbLine
 10
1.5
 20
-49.2125
 30
0.0
 11
7.593833230000001
 21
-49.2125
 31
0.0
1001
GRPNAME
1000
PASTMD0L
  0
LINE
  5
1357
330
985
100
AcDbEntity
  8
240
  6
Continuous
100
AcDbLine
 10
9.199999999999989
 20
-45.64500000000001
 30
0.0
 11
13.03999999999999
 21
-45.64500000000001
 31
0.0
1001
GRPNAME
1000
PASTMD0L
  0
LINE
  5
1358
330
985
100
AcDbEntity
  8
240
  6
Continuous
100
AcDbLine
 10
9.199999999999989
 20
-46.43053754999999
 30
0.0
 11
7.593833230000001
 21
-49.2125
 31
0.0
1001
GRPNAME
1000
PASTMD0L
  0
LINE
  5
1359
330
985
100
AcDbEntity
  8
240
  6
Continuous
100
AcDbLine
 10
9.199999999999989
 20
-45.64500000000001
 30
0.0
 11
9.199999999999989
 21
-46.43053754999999
 31
0.0
1001
GRPNAME
1000
PASTMD0L
  0
LINE
  5
135A
330
985
100
AcDbEntity
  8
240
  6
Continuous
100
AcDbLine
 10
13.03999999999999
 20
-46.43053754999999
 30
0.0
 11
14.64616677000001
 21
-49.2125
 31
0.0
1001
GRPNAME
1000
PASTMD0L
  0
LINE
  5
135B
330
985
100
AcDbEntity
  8
240
  6
Continuous
100
AcDbLine
 10
13.03999999999999
 20
-45.64500000000001
 30
0.0
 11
13.03999999999999
 21
-46.43053754999999
 31
0.0
1001
GRPNAME
1000
PASTMD0L
  0
LINE
  5
135C
330
985
100
AcDbEntity
  8
241
100
AcDbLine
 10
19.05000000000001
 20
-34.92499999999996
 30
0.0
 11
19.05000000000001
 21
0.0
 31
0.0
  0
LINE
  5
135D
330
985
100
AcDbEntity
  8
241
  6
Continuous
100
AcDbLine
 10
1.5
 20
-34.92500000000001
 30
0.0
 11
1.5
 21
0.0
 31
0.0
1001
GRPNAME
1000
PASTMD0L
  0
LINE
  5
135E
330
985
100
AcDbEntity
  8
241
  6
Continuous
100
AcDbLine
 10
0.0
 20
-34.92500000000001
 30
0.0
 11
0.0
 21
0.0
 31
0.0
1001
GRPNAME
1000
PASTMD0L
  0
LINE
  5
135F
330
985
100
AcDbEntity
  8
241
  6
Continuous
100
AcDbLine
 10
19.05000000000001
 20
-12.95500000000001
 30
0.0
 11
1.5
 21
-12.95500000000001
 31
0.0
1001
GRPNAME
1000
PASTMD0K
  0
LINE
  5
1360
330
985
100
AcDbEntity
  8
240
100
AcDbLine
 10
0.0
 20
-34.92500000000001
 30
0.0
 11
1.5
 21
-34.92500000000001
 31
0.0
  0
LINE
  5
1361
330
985
100
AcDbEntity
  8
241
  6
Continuous
100
AcDbLine
 10
19.05000000000001
 20
12.95500000000001
 30
0.0
 11
1.5
 21
12.95500000000001
 31
0.0
1001
GRPNAME
1000
PASTMD0K
  0
CIRCLE
  5
1362
330
985
100
AcDbEntity
  8
241
100
AcDbCircle
 10
11.18
 20
0.0
 30
0.0
 40
6.349999999999997
  0
CIRCLE
  5
1363
330
985
100
AcDbEntity
  8
241
100
AcDbCircle
 10
11.18
 20
0.0
 30
0.0
 40
4.7625
  0
LINE
  5
1364
330
985
100
AcDbEntity
  8
240
  6
Continuous
100
AcDbLine
 10
19.05000000000001
 20
49.2125
 30
0.0
 11
19.04999999999967
 21
34.92500000000004
 31
0.0
1001
GRPNAME
1000
PASTMD0L
  0
LINE
  5
1365
330
985
100
AcDbEntity
  8
240
  6
Continuous
100
AcDbLine
 10
1.5
 20
49.2125
 30
0.0
 11
1.5
 21
34.92500000000001
 31
0.0
1001
GRPNAME
1000
PASTMD0L
  0
LINE
  5
1366
330
985
100
AcDbEntity
  8
245
  6
CENTER2
100
AcDbLine
 10
11.12
 20
40.64500000000001
 30
0.0
 11
11.12
 21
49.2125
 31
0.0
1001
GRPNAME
1000
PASTMD0L
  0
LINE
  5
1367
330
985
100
AcDbEntity
  8
240
100
AcDbLine
 10
0.0
 20
34.92500000000001
 30
0.0
 11
1.5
 21
34.92500000000001
 31
0.0
  0
LINE
  5
1368
330
985
100
AcDbEntity
  8
240
  6
Continuous
100
AcDbLine
 10
14.64616677000001
 20
49.2125
 30
0.0
 11
19.05000000000001
 21
49.2125
 31
0.0
1001
GRPNAME
1000
PASTMD0L
  0
LINE
  5
1369
330
985
100
AcDbEntity
  8
240
  6
Continuous
100
AcDbLine
 10
1.5
 20
49.2125
 30
0.0
 11
7.593833230000001
 21
49.2125
 31
0.0
1001
GRPNAME
1000
PASTMD0L
  0
LINE
  5
136A
330
985
100
AcDbEntity
  8
240
  6
Continuous
100
AcDbLine
 10
9.199999999999989
 20
45.64500000000001
 30
0.0
 11
13.03999999999999
 21
45.64500000000001
 31
0.0
1001
GRPNAME
1000
PASTMD0L
  0
LINE
  5
136B
330
985
100
AcDbEntity
  8
240
  6
Continuous
100
AcDbLine
 10
9.199999999999989
 20
46.43053754999999
 30
0.0
 11
7.593833230000001
 21
49.2125
 31
0.0
1001
GRPNAME
1000
PASTMD0L
  0
LINE
  5
136C
330
985
100
AcDbEntity
  8
240
  6
Continuous
100
AcDbLine
 10
9.199999999999989
 20
45.64500000000001
 30
0.0
 11
9.199999999999989
 21
46.43053754999999
 31
0.0
1001
GRPNAME
1000
PASTMD0L
  0
LINE
  5
136D
330
985
100
AcDbEntity
  8
240
  6
Continuous
100
AcDbLine
 10
13.03999999999999
 20
46.43053754999999
 30
0.0
 11
14.64616677000001
 21
49.2125
 31
0.0
1001
GRPNAME
1000
PASTMD0L
  0
LINE
  5
136E
330
985
100
AcDbEntity
  8
240
  6
Continuous
100
AcDbLine
 10
13.03999999999999
 20
45.64500000000001
 30
0.0
 11
13.03999999999999
 21
46.43053754999999
 31
0.0
1001
GRPNAME
1000
PASTMD0L
  0
LINE
  5
136F
330
985
100
AcDbEntity
  8
241
100
AcDbLine
 10
89.29999999999353
 20
-12.94999999997608
 30
0.0
 11
89.29999999999353
 21
0.0000000000000568
 31
0.0
  0
LINE
  5
1370
330
985
100
AcDbEntity
  8
240
100
AcDbLine
 10
88.72261826173369
 20
19.46923752622976
 30
0.0
 11
78.12150982743685
 21
24.41261557407413
 31
0.0
  0
ARC
  5
1371
330
985
100
AcDbEntity
  8
240
100
AcDbCircle
 10
88.2999999999929
 20
18.56292973919309
 30
0.0
 40
1.0
100
AcDbArc
 50
0.0000000000065138
 51
65.00000000000074
1001
ASK_MEN_XD
1005
0
1070
     1
1005
0
1070
     1
  0
LINE
  5
1372
330
985
100
AcDbEntity
  8
240
100
AcDbLine
 10
89.2999999999929
 20
18.56292973919321
 30
0.0
 11
89.29999999999353
 21
12.94999999998123
 31
0.0
  0
LINE
  5
1373
330
985
100
AcDbEntity
  8
240
100
AcDbLine
 10
89.99999999999994
 20
12.25000000000989
 30
0.0
 11
90.0
 21
0.0000000000000853
 31
0.0
  0
LINE
  5
1374
330
985
100
AcDbEntity
  8
240
100
AcDbLine
 10
89.29999999999353
 20
12.94999999998123
 30
0.0
 11
89.99999999999994
 21
12.25000000000989
 31
0.0
  0
LINE
  5
1375
330
985
100
AcDbEntity
  8
240
100
AcDbLine
 10
35.89575498121198
 20
33.64572930905325
 30
0.0
 11
41.33388785080396
 21
25.87927069094675
 31
0.0
  0
ARC
  5
1376
330
985
100
AcDbEntity
  8
240
100
AcDbCircle
 10
43.79134398367088
 20
27.59999999999977
 30
0.0
 40
3.0
100
AcDbArc
 50
214.9999999999973
 51
270.0000000000065
1001
ASK_MEN_XD
1005
0
1070
     1
1005
0
1070
     1
  0
LINE
  5
1377
330
985
100
AcDbEntity
  8
241
100
AcDbLine
 10
42.22964283201574
 20
25.03853762219327
 30
0.0
 11
42.22964283201577
 21
0.0000000000000853
 31
0.0
  0
LINE
  5
1378
330
985
100
AcDbEntity
  8
240
100
AcDbLine
 10
43.79134398367107
 20
24.6000000000002
 30
0.0
 11
77.27627330395603
 21
24.60000000000238
 31
0.0
  0
ARC
  5
1379
330
985
100
AcDbEntity
  8
240
100
AcDbCircle
 10
77.27627330395613
 20
22.60000000000238
 30
0.0
 40
2.0
100
AcDbArc
 50
65.00000000000074
 51
90.00000000000651
1001
ASK_MEN_XD
1005
0
1070
     1
1005
0
1070
     1
  0
LINE
  5
137A
330
985
100
AcDbEntity
  8
241
100
AcDbLine
 10
77.71966262923797
 20
24.55023226981698
 30
0.0
 11
77.7196626292386
 21
0.0000000000000284
 31
0.0
  0
LINE
  5
137B
330
985
100
AcDbEntity
  8
241
100
AcDbLine
 10
71.99961524227135
 20
24.60000000000204
 30
0.0
 11
71.99961524227024
 21
0.0000000000000284
 31
0.0
  0
LINE
  5
137C
330
985
100
AcDbEntity
  8
241
100
AcDbLine
 10
65.99961524227078
 20
24.60000000000147
 30
0.0
 11
65.99961524227079
 21
0.0000000000000568
 31
0.0
  0
LINE
  5
137D
330
985
100
AcDbEntity
  8
241
100
AcDbLine
 10
63.99961524230602
 20
24.60000000000125
 30
0.0
 11
63.99961524230608
 21
0.0000000000000568
 31
0.0
  0
LINE
  5
137E
330
985
100
AcDbEntity
  8
241
100
AcDbLine
 10
57.9996152422668
 20
24.60000000000068
 30
0.0
 11
57.99961524226685
 21
0.0000000000000853
 31
0.0
  0
LINE
  5
137F
330
985
100
AcDbEntity
  8
241
100
AcDbLine
 10
89.29999999999353
 20
12.9499999999762
 30
0.0
 11
89.29999999999353
 21
0.0000000000000568
 31
0.0
  0
ARC
  5
1380
330
985
100
AcDbEntity
  8
240
100
AcDbCircle
 10
33.43829884834506
 20
31.92500000000001
 30
0.0
 40
3.0
100
AcDbArc
 50
34.99999999999729
 51
90.0
1001
GRPNAME
1000
PASTMD0L
1001
ASK_MEN_XD
1005
0
1070
     1
1005
0
1070
     1
  0
LINE
  5
1381
330
985
100
AcDbEntity
  8
241
100
AcDbLine
 10
35.0000000000002
 20
34.48646237780673
 30
0.0
 11
35.00000000000023
 21
0.0000000000000568
 31
0.0
  0
ENDBLK
  5
987
330
985
100
AcDbEntity
  8
0
100
AcDbBlockEnd
  0
BLOCK
  5
1267
330
125D
100
AcDbEntity
  8
0
100
AcDbBlockBegin
  2
*D3
 70
     1
 10
0.0
 20
0.0
 30
0.0
  3
*D3
  1

  0
LINE
  5
13C2
330
125D
100
AcDbEntity
  8
250
  6
Continuous
370
    -2
100
AcDbLine
 10
-56.00000000000004
 20
13.20000000000002
 30
0.0
 11
-56.00000000000004
 21
71.0
 31
0.0
  0
LINE
  5
13C3
330
125D
100
AcDbEntity
  8
250
  6
Continuous
370
    -2
100
AcDbLine
 10
89.99999999999994
 20
12.75000000000989
 30
0.0
 11
89.99999999999994
 21
71.0
 31
0.0
  0
LINE
  5
13C4
330
125D
100
AcDbEntity
  8
250
  6
Continuous
370
    -2
100
AcDbLine
 10
-53.77000000000005
 20
70.0
 30
0.0
 11
87.76999999999992
 21
70.0
 31
0.0
  0
INSERT
  5
13C5
330
125D
100
AcDbEntity
  8
250
  6
Continuous
370
    -2
100
AcDbBlockReference
  2
_OPEN
 10
-56.00000000000004
 20
70.0
 30
0.0
 41
2.229999999999999
 42
2.229999999999999
 43
2.229999999999999
 50
180.0
  0
INSERT
  5
13C6
330
125D
100
AcDbEntity
  8
250
  6
Continuous
370
    -2
100
AcDbBlockReference
  2
_OPEN
 10
89.99999999999994
 20
70.0
 30
0.0
 41
2.229999999999999
 42
2.229999999999999
 43
2.229999999999999
  0
MTEXT
  5
13C7
330
125D
100
AcDbEntity
  8
250
  6
Continuous
 62
    40
100
AcDbMText
 10
16.99999999999994
 20
72.4
 30
0.0
 40
2.799999999999998
 41
0.0
 71
     5
 72
     1
  1
\A1;（max.146）
 73
     1
 44
1.0
  0
POINT
  5
13C8
330
125D
100
AcDbEntity
  8
DEFPOINTS
  6
Continuous
 62
     0
100
AcDbPoint
 10
-56.00000000000004
 20
12.70000000000002
 30
0.0
  0
POINT
  5
13C9
330
125D
100
AcDbEntity
  8
DEFPOINTS
  6
Continuous
 62
     0
100
AcDbPoint
 10
89.99999999999994
 20
12.25000000000989
 30
0.0
  0
POINT
  5
13CA
330
125D
100
AcDbEntity
  8
DEFPOINTS
  6
Continuous
 62
     0
100
AcDbPoint
 10
89.99999999999994
 20
70.0
 30
0.0
  0
ENDBLK
  5
1268
330
125D
100
AcDbEntity
  8
0
100
AcDbBlockEnd
  0
BLOCK
  5
1273
330
1269
100
AcDbEntity
  8
0
100
AcDbBlockBegin
  2
*D4
 70
     1
 10
0.0
 20
0.0
 30
0.0
  3
*D4
  1

  0
LINE
  5
13B9
330
1269
100
AcDbEntity
  8
250
  6
Continuous
370
    -2
100
AcDbLine
 10
0.0
 20
35.42500000000001
 30
0.0
 11
0.0000000000000018
 21
64.0
 31
0.0
  0
LINE
  5
13BA
330
1269
100
AcDbEntity
  8
250
  6
Continuous
370
    -2
100
AcDbLine
 10
89.99999999999994
 20
12.75000000000989
 30
0.0
 11
89.99999999999994
 21
64.0
 31
0.0
  0
LINE
  5
13BB
330
1269
100
AcDbEntity
  8
250
  6
Continuous
370
    -2
100
AcDbLine
 10
2.23
 20
63.0
 30
0.0
 11
87.76999999999992
 21
63.0
 31
0.0
  0
INSERT
  5
13BC
330
1269
100
AcDbEntity
  8
250
  6
Continuous
370
    -2
100
AcDbBlockReference
  2
_OPEN
 10
0.0000000000000017
 20
63.0
 30
0.0
 41
2.229999999999999
 42
2.229999999999999
 43
2.229999999999999
 50
180.0
  0
INSERT
  5
13BD
330
1269
100
AcDbEntity
  8
250
  6
Continuous
370
    -2
100
AcDbBlockReference
  2
_OPEN
 10
89.99999999999994
 20
63.0
 30
0.0
 41
2.229999999999999
 42
2.229999999999999
 43
2.229999999999999
  0
MTEXT
  5
13BE
330
1269
100
AcDbEntity
  8
250
  6
Continuous
 62
    40
100
AcDbMText
 10
48.03808057791661
 20
65.4
 30
0.0
 40
2.799999999999998
 41
0.0
 71
     5
 72
     1
  1
\A1;90
 73
     1
 44
1.0
  0
POINT
  5
13BF
330
1269
100
AcDbEntity
  8
DEFPOINTS
  6
Continuous
 62
     0
100
AcDbPoint
 10
0.0
 20
34.92500000000001
 30
0.0
  0
POINT
  5
13C0
330
1269
100
AcDbEntity
  8
DEFPOINTS
  6
Continuous
 62
     0
100
AcDbPoint
 10
89.99999999999994
 20
12.25000000000989
 30
0.0
  0
POINT
  5
13C1
330
1269
100
AcDbEntity
  8
DEFPOINTS
  6
Continuous
 62
     0
100
AcDbPoint
 10
89.99999999999994
 20
63.0
 30
0.0
  0
ENDBLK
  5
1274
330
1269
100
AcDbEntity
  8
0
100
AcDbBlockEnd
  0
BLOCK
  5
12EC
330
12E2
100
AcDbEntity
  8
0
370
    -3
100
AcDbBlockBegin
  2
*D5
 70
     1
 10
0.0
 20
0.0
 30
0.0
  3
*D5
  1

  0
LINE
  5
1324
330
12E2
100
AcDbEntity
  8
250
  6
Continuous
100
AcDbLine
 10
90.50000000000038
 20
9.500000000000083
 30
0.0
 11
106.0
 21
9.500000000000078
 31
0.0
  0
LINE
  5
1325
330
12E2
100
AcDbEntity
  8
250
  6
Continuous
100
AcDbLine
 10
105.0
 20
-7.499999999999976
 30
0.0
 11
105.0
 21
7.500000000000079
 31
0.0
  0
INSERT
  5
1326
330
12E2
100
AcDbEntity
  8
250
  6
Continuous
100
AcDbBlockReference
  2
\U+77E2\U+5370\U+306A\U+3057
 10
105.0
 20
-9.499999999999975
 30
0.0
 41
2.0
 42
2.0
 43
2.0
 50
270.0
  0
INSERT
  5
1327
330
12E2
100
AcDbEntity
  8
250
  6
Continuous
100
AcDbBlockReference
  2
_OPEN
 10
105.0
 20
9.500000000000078
 30
0.0
 41
2.0
 42
2.0
 43
2.0
 50
90.0
  0
MTEXT
  5
1328
330
12E2
100
AcDbEntity
  8
250
  6
Continuous
 62
    40
370
    -3
100
AcDbMText
 10
102.6
 20
0.0000000000000685
 30
0.0
 40
2.799999999999998
 41
0.0
 71
     5
 72
     1
  1
\A1;{\H2.8;%%C}19
 11
1.000000000000000E-16
 21
1.0
 31
0.0
 73
     1
 44
1.0
  0
POINT
  5
1329
330
12E2
100
AcDbEntity
  8
DEFPOINTS
  6
Continuous
 62
     0
100
AcDbPoint
 10
90.0000000000004
 20
-9.499999999999973
 30
0.0
  0
POINT
  5
132A
330
12E2
100
AcDbEntity
  8
DEFPOINTS
  6
Continuous
 62
     0
100
AcDbPoint
 10
90.0000000000004
 20
9.500000000000083
 30
0.0
  0
POINT
  5
132B
330
12E2
100
AcDbEntity
  8
DEFPOINTS
  6
Continuous
 62
     0
100
AcDbPoint
 10
105.0
 20
9.500000000000078
 30
0.0
  0
ENDBLK
  5
12ED
330
12E2
100
AcDbEntity
  8
0
370
    -3
100
AcDbBlockEnd
  0
BLOCK
  5
1301
330
1300
100
AcDbEntity
  8
0
100
AcDbBlockBegin
  2
HDC-CLAMPSCREW
 70
     0
 10
0.0
 20
0.0
 30
0.0
  3
HDC-CLAMPSCREW
  1

  0
INSERT
  5
1302
330
1300
100
AcDbEntity
  8
245
100
AcDbBlockReference
  2
\U+77E2\U+5370\U+306A\U+3057
 10
175.62382697
 20
90.55123572
 30
0.0
  0
LINE
  5
1303
330
1300
100
AcDbEntity
  8
241
  6
Continuous
100
AcDbLine
 10
2.229999999999999
 20
0.0
 30
0.0
 11
20.0
 21
0.0
 31
0.0
  0
INSERT
  5
1304
330
1300
100
AcDbEntity
  8
241
  6
Continuous
100
AcDbBlockReference
  2
_OPEN
 10
0.0
 20
0.0
 30
0.0
 41
6.69
 42
6.69
 43
6.69
 50
180.0
  0
ELLIPSE
  5
1305
330
1300
100
AcDbEntity
  8
251
100
AcDbEllipse
 10
13.0
 20
0.0
 30
0.0
 11
0.0
 21
-7.000000000002512
 31
0.0
210
0.0
220
0.0
230
1.0
 40
0.5
 41
1.860548028230769
 42
7.564229932538513
  0
INSERT
  5
1306
330
1300
100
AcDbEntity
  8
251
  6
Continuous
100
AcDbBlockReference
  2
_OPEN
 10
16.35410197
 20
2.0
 30
0.0
 41
2.229999999999999
 42
2.229999999999999
 43
2.229999999999999
 50
283.18143907
  0
ENDBLK
  5
1307
330
1300
100
AcDbEntity
  8
0
100
AcDbBlockEnd
  0
ENDSEC
  0
SECTION
  2
ENTITIES
  0
INSERT
  5
6E6
330
1A
100
AcDbEntity
  8
245
100
AcDbBlockReference
  2
\U+77E2\U+5370\U+306A\U+3057
 10
175.62382697
 20
90.55123572
 30
0.0
  0
TEXT
  5
120E
330
1A
100
AcDbEntity
  8
241
100
AcDbText
 10
-101.6
 20
85.66666666666667
 30
0.0
 40
5.0
  1
BCV50-HDC19L-90
  7
YOKO
 11
-101.6
 21
84.0
 31
0.0
100
AcDbText
 73
     1
  0
LEADER
  5
120F
330
1A
100
AcDbEntity
  8
250
  6
Continuous
100
AcDbLeader
  3
BIGT
 76
     2
 10
-60.59209172
 20
-26.06624078999999
 30
0.0
 10
-65.75
 20
-35.0
 30
0.0
1001
ACAD
1000
DSTYLE
1002
{
1070
     6
1000
OPEN
1070
    41
1040
2.0
1070
   343
1005
594
1002
}
  0
LINE
  5
1210
330
1A
100
AcDbEntity
  8
250
  6
Continuous
100
AcDbLine
 10
-65.75
 20
-35.0
 30
0.0
 11
-83.75
 21
-35.0
 31
0.0
1001
ITEMNAME
1000
LNSP2
  0
MTEXT
  5
1211
330
1A
100
AcDbEntity
  8
251
  6
Continuous
100
AcDbMText
 10
-80.95
 20
-34.0
 30
0.0
 40
2.799999999999998
 41
0.0
 71
     7
 72
     1
  1
BCV50
  7
YOKO
 73
     1
 44
1.0
1001
ITEMNAME
1000
LNSP3
  0
DIMENSION
  5
1212
330
1A
100
AcDbEntity
  8
250
  6
Continuous
100
AcDbDimension
  2
*D3
 10
89.99999999999994
 20
70.0
 30
0.0
 11
16.99999999999994
 21
70.0
 31
0.0
 70
   160
  1
（max.<>）
 71
     5
 42
146.0
  3
BIGT
100
AcDbAlignedDimension
 13
-56.00000000000004
 23
12.70000000000002
 33
0.0
 14
89.99999999999994
 24
12.25000000000989
 34
0.0
100
AcDbRotatedDimension
  0
DIMENSION
  5
1213
330
1A
100
AcDbEntity
  8
250
  6
Continuous
100
AcDbDimension
  2
*D4
 10
89.99999999999994
 20
63.0
 30
0.0
 11
48.03808057791661
 21
63.0
 31
0.0
 70
   160
  1
<>
 71
     5
 42
89.99999999999994
  3
BIGT
100
AcDbAlignedDimension
 13
0.0
 23
34.92500000000001
 33
0.0
 14
89.99999999999994
 24
12.25000000000989
 34
0.0
100
AcDbRotatedDimension
  0
DIMENSION
  5
12E1
330
1A
100
AcDbEntity
  8
250
  6
Continuous
370
    -3
100
AcDbDimension
  2
*D5
 10
105.0
 20
9.500000000000078
 30
0.0
 11
102.6
 21
0.0000000000000685
 31
0.0
 70
    32
  1
{\H2.8;%%C}<>
 71
     5
 42
19.00000000000005
  3
BIGT
100
AcDbAlignedDimension
 13
90.0000000000004
 23
-9.499999999999973
 33
0.0
 14
90.0000000000004
 24
9.500000000000083
 34
0.0
 50
90.0
100
AcDbRotatedDimension
1001
ACAD
1000
DSTYLE
1002
{
1070
     3
1000
<>
1070
    41
1040
2.0
1070
    75
1070
     1
1070
    79
1070
     2
1070
   179
1070
     3
1070
   343
1005
6E3
1070
   371
1070
    -1
1070
   372
1070
    -1
1002
}
  0
INSERT
  5
1311
330
1A
100
AcDbEntity
  8
245
100
AcDbBlockReference
  2
HDC-CLAMPSCREW
 10
27.50000000000035
 20
39.21509118050807
 30
0.0
 50
90.0
  0
LINE
  5
1408
330
1A
100
AcDbEntity
  8
245
  6
CENTER2
100
AcDbLine
 10
-102.6
 20
0.0
 30
0.0
 11
91.00000000000044
 21
0.0000000000000568
 31
0.0
  0
LINE
  5
1409
330
1A
100
AcDbEntity
  8
241
  6
HIDDEN2
100
AcDbLine
 10
47.79641016148911
 20
9.500000000001393
 30
0.0
 11
90.0000000000004
 21
9.500000000000083
 31
0.0
  0
LINE
  5
140A
330
1A
100
AcDbEntity
  8
240
100
AcDbLine
 10
88.72261826173369
 20
-19.46923752622964
 30
0.0
 11
78.12150982743685
 21
-24.41261557407404
 31
0.0
  0
ARC
  5
140B
330
1A
100
AcDbEntity
  8
240
100
AcDbCircle
 10
88.2999999999929
 20
-18.56292973919298
 30
0.0
 40
1.0
100
AcDbArc
 50
294.9999999999999
 51
359.9999999999935
1001
ASK_MEN_XD
1005
0
1070
     1
1005
0
1070
     1
  0
LINE
  5
140C
330
1A
100
AcDbEntity
  8
240
100
AcDbLine
 10
89.2999999999929
 20
-18.56292973919309
 30
0.0
 11
89.29999999999353
 21
-12.94999999998111
 31
0.0
  0
LINE
  5
140D
330
1A
100
AcDbEntity
  8
240
100
AcDbLine
 10
89.99999999999994
 20
-12.25000000000977
 30
0.0
 11
90.0
 21
0.0000000000000284
 31
0.0
  0
LINE
  5
140E
330
1A
100
AcDbEntity
  8
240
100
AcDbLine
 10
89.29999999999353
 20
-12.94999999998111
 30
0.0
 11
89.99999999999994
 21
-12.25000000000977
 31
0.0
  0
LINE
  5
140F
330
1A
100
AcDbEntity
  8
240
  6
Continuous
100
AcDbLine
 10
19.05000000000001
 20
-34.92499999999996
 30
0.0
 11
33.43829884834509
 21
-34.92500000000007
 31
0.0
1001
GRPNAME
1000
PASTMD0L
  0
LINE
  5
1410
330
1A
100
AcDbEntity
  8
240
100
AcDbLine
 10
19.04999999999967
 20
34.92500000000004
 30
0.0
 11
33.43829884834509
 21
34.9250000000001
 31
0.0
1001
GRPNAME
1000
PASTMD0L
  0
ARC
  5
1411
330
1A
100
AcDbEntity
  8
240
100
AcDbCircle
 10
33.43829884834509
 20
-31.92499999999995
 30
0.0
 40
3.0
100
AcDbArc
 50
270.0
 51
325.0000000000027
1001
GRPNAME
1000
PASTMD0L
1001
ASK_MEN_XD
1005
0
1070
     1
1005
0
1070
     1
  0
LINE
  5
1412
330
1A
100
AcDbEntity
  8
240
100
AcDbLine
 10
35.89575498121201
 20
-33.6457293090532
 30
0.0
 11
41.33388785080398
 21
-25.87927069094667
 31
0.0
  0
ARC
  5
1413
330
1A
100
AcDbEntity
  8
240
100
AcDbCircle
 10
43.7913439836709
 20
-27.59999999999968
 30
0.0
 40
3.0
100
AcDbArc
 50
89.99999999999348
 51
145.0000000000027
1001
ASK_MEN_XD
1005
0
1070
     1
1005
0
1070
     1
  0
LINE
  5
1414
330
1A
100
AcDbEntity
  8
241
100
AcDbLine
 10
35.00000000000023
 20
-34.48646237780668
 30
0.0
 11
35.00000000000023
 21
0.0
 31
0.0
  0
LINE
  5
1415
330
1A
100
AcDbEntity
  8
241
100
AcDbLine
 10
42.22964283201577
 20
-25.03853762219319
 30
0.0
 11
42.22964283201577
 21
0.0
 31
0.0
  0
LINE
  5
1416
330
1A
100
AcDbEntity
  8
240
100
AcDbLine
 10
43.79134398367111
 20
-24.60000000000011
 30
0.0
 11
77.27627330395603
 21
-24.6000000000023
 31
0.0
  0
ARC
  5
1417
330
1A
100
AcDbEntity
  8
240
100
AcDbCircle
 10
77.27627330395613
 20
-22.6000000000023
 30
0.0
 40
2.0
100
AcDbArc
 50
269.9999999999935
 51
294.9999999999999
1001
ASK_MEN_XD
1005
0
1070
     1
1005
0
1070
     1
  0
LINE
  5
1418
330
1A
100
AcDbEntity
  8
241
100
AcDbLine
 10
77.71966262923797
 20
-24.55023226981689
 30
0.0
 11
77.7196626292386
 21
0.0000000000000568
 31
0.0
  0
LINE
  5
1419
330
1A
100
AcDbEntity
  8
241
100
AcDbLine
 10
71.99961524227137
 20
-24.60000000000196
 30
0.0
 11
71.99961524227024
 21
0.0000000000000568
 31
0.0
  0
LINE
  5
141A
330
1A
100
AcDbEntity
  8
241
100
AcDbLine
 10
65.99961524227079
 20
-24.60000000000139
 30
0.0
 11
65.99961524227079
 21
0.0000000000000284
 31
0.0
  0
LINE
  5
141B
330
1A
100
AcDbEntity
  8
241
100
AcDbLine
 10
63.99961524230604
 20
-24.60000000000116
 30
0.0
 11
63.99961524230608
 21
0.0000000000000284
 31
0.0
  0
LINE
  5
141C
330
1A
100
AcDbEntity
  8
241
100
AcDbLine
 10
57.99961524226683
 20
-24.60000000000059
 30
0.0
 11
57.99961524226685
 21
0.0
 31
0.0
  0
LINE
  5
141D
330
1A
100
AcDbEntity
  8
240
  6
Continuous
100
AcDbLine
 10
0.0
 20
34.92500000000001
 30
0.0
 11
-99.63190585
 21
20.39534706000001
 31
0.0
1001
GRPNAME
1000
PASTMD0L
  0
LINE
  5
141E
330
1A
100
AcDbEntity
  8
240
  6
Continuous
100
AcDbLine
 10
0.0
 20
-34.92500000000001
 30
0.0
 11
-99.63190585
 21
-20.39534706000001
 31
0.0
1001
GRPNAME
1000
PASTMD0L
  0
LINE
  5
141F
330
1A
100
AcDbEntity
  8
240
  6
Continuous
100
AcDbLine
 10
-101.6
 20
18.11942120999998
 30
0.0
 11
-101.6
 21
0.0
 31
0.0
1001
GRPNAME
1000
PASTMD0L
  0
LINE
  5
1420
330
1A
100
AcDbEntity
  8
240
  6
Continuous
100
AcDbLine
 10
-101.6
 20
-18.11942120999998
 30
0.0
 11
-101.6
 21
0.0
 31
0.0
1001
GRPNAME
1000
PASTMD0L
  0
ARC
  5
1421
330
1A
100
AcDbEntity
  8
240
  6
Continuous
100
AcDbCircle
 10
-99.29999999999998
 20
-18.11942120999998
 30
0.0
 40
2.299999999999998
100
AcDbArc
 50
180.0
 51
261.7028550300002
1001
GRPNAME
1000
PASTMD0L
  0
ARC
  5
1422
330
1A
100
AcDbEntity
  8
240
  6
Continuous
100
AcDbCircle
 10
-99.29999999999998
 20
18.11942120999998
 30
0.0
 40
2.299999999999998
100
AcDbArc
 50
98.29714496999985
 51
180.0
1001
GRPNAME
1000
PASTMD0L
  0
LINE
  5
1423
330
1A
100
AcDbEntity
  8
241
100
AcDbLine
 10
19.05000000000001
 20
34.92500000000001
 30
0.0
 11
19.05000000000001
 21
0.0
 31
0.0
  0
LINE
  5
1424
330
1A
100
AcDbEntity
  8
245
  6
CENTER2
100
AcDbLine
 10
11.12
 20
-49.2125
 30
0.0
 11
11.12
 21
49.2125
 31
0.0
1001
GRPNAME
1000
PASTMD0L
  0
LINE
  5
1425
330
1A
100
AcDbEntity
  8
241
  6
Continuous
100
AcDbLine
 10
7.593833230000001
 20
49.2125
 30
0.0
 11
7.593833230000001
 21
12.95500000000001
 31
0.0
1001
GRPNAME
1000
PASTMD0L
  0
LINE
  5
1426
330
1A
100
AcDbEntity
  8
241
  6
Continuous
100
AcDbLine
 10
9.199999999999989
 20
45.64500000000001
 30
0.0
 11
9.199999999999989
 21
12.95500000000001
 31
0.0
1001
GRPNAME
1000
PASTMD0L
  0
LINE
  5
1427
330
1A
100
AcDbEntity
  8
241
  6
Continuous
100
AcDbLine
 10
13.03999999999999
 20
45.64500000000001
 30
0.0
 11
13.03999999999999
 21
12.95500000000001
 31
0.0
1001
GRPNAME
1000
PASTMD0L
  0
LINE
  5
1428
330
1A
100
AcDbEntity
  8
241
  6
Continuous
100
AcDbLine
 10
14.64616677000001
 20
49.2125
 30
0.0
 11
14.64616677000001
 21
12.95500000000001
 31
0.0
1001
GRPNAME
1000
PASTMD0L
  0
LINE
  5
1429
330
1A
100
AcDbEntity
  8
241
  6
Continuous
100
AcDbLine
 10
0.0
 20
34.92500000000001
 30
0.0
 11
0.0
 21
0.0
 31
0.0
1001
GRPNAME
1000
PASTMD0L
  0
LINE
  5
142A
330
1A
100
AcDbEntity
  8
241
  6
Continuous
100
AcDbLine
 10
1.5
 20
34.92500000000001
 30
0.0
 11
1.5
 21
0.0
 31
0.0
1001
GRPNAME
1000
PASTMD0L
  0
LINE
  5
142B
330
1A
100
AcDbEntity
  8
240
  6
Continuous
100
AcDbLine
 10
19.05000000000001
 20
-49.2125
 30
0.0
 11
19.05000000000018
 21
-34.92499999999987
 31
0.0
1001
GRPNAME
1000
PASTMD0L
  0
LINE
  5
142C
330
1A
100
AcDbEntity
  8
241
  6
Continuous
100
AcDbLine
 10
13.03999999999999
 20
-45.64500000000001
 30
0.0
 11
13.03999999999999
 21
-12.95500000000001
 31
0.0
1001
GRPNAME
1000
PASTMD0L
  0
LINE
  5
142D
330
1A
100
AcDbEntity
  8
241
  6
Continuous
100
AcDbLine
 10
14.64616677000001
 20
-49.2125
 30
0.0
 11
14.64616677000001
 21
-12.95500000000001
 31
0.0
1001
GRPNAME
1000
PASTMD0L
  0
LINE
  5
142E
330
1A
100
AcDbEntity
  8
241
  6
Continuous
100
AcDbLine
 10
7.593833230000001
 20
-49.2125
 30
0.0
 11
7.593833230000001
 21
-12.95500000000001
 31
0.0
1001
GRPNAME
1000
PASTMD0L
  0
LINE
  5
142F
330
1A
100
AcDbEntity
  8
241
  6
Continuous
100
AcDbLine
 10
9.199999999999989
 20
-12.95500000000001
 30
0.0
 11
9.199999999999989
 21
-45.64500000000001
 31
0.0
1001
GRPNAME
1000
PASTMD0L
  0
LINE
  5
1430
330
1A
100
AcDbEntity
  8
240
  6
Continuous
100
AcDbLine
 10
1.5
 20
-49.2125
 30
0.0
 11
1.5
 21
-34.92500000000001
 31
0.0
1001
GRPNAME
1000
PASTMD0L
  0
LINE
  5
1431
330
1A
100
AcDbEntity
  8
240
  6
Continuous
100
AcDbLine
 10
14.64616677000001
 20
-49.2125
 30
0.0
 11
19.05000000000001
 21
-49.2125
 31
0.0
1001
GRPNAME
1000
PASTMD0L
  0
LINE
  5
1432
330
1A
100
AcDbEntity
  8
240
  6
Continuous
100
AcDbLine
 10
1.5
 20
-49.2125
 30
0.0
 11
7.593833230000001
 21
-49.2125
 31
0.0
1001
GRPNAME
1000
PASTMD0L
  0
LINE
  5
1433
330
1A
100
AcDbEntity
  8
240
  6
Continuous
100
AcDbLine
 10
9.199999999999989
 20
-45.64500000000001
 30
0.0
 11
13.03999999999999
 21
-45.64500000000001
 31
0.0
1001
GRPNAME
1000
PASTMD0L
  0
LINE
  5
1434
330
1A
100
AcDbEntity
  8
240
  6
Continuous
100
AcDbLine
 10
9.199999999999989
 20
-46.43053754999999
 30
0.0
 11
7.593833230000001
 21
-49.2125
 31
0.0
1001
GRPNAME
1000
PASTMD0L
  0
LINE
  5
1435
330
1A
100
AcDbEntity
  8
240
  6
Continuous
100
AcDbLine
 10
9.199999999999989
 20
-45.64500000000001
 30
0.0
 11
9.199999999999989
 21
-46.43053754999999
 31
0.0
1001
GRPNAME
1000
PASTMD0L
  0
LINE
  5
1436
330
1A
100
AcDbEntity
  8
240
  6
Continuous
100
AcDbLine
 10
13.03999999999999
 20
-46.43053754999999
 30
0.0
 11
14.64616677000001
 21
-49.2125
 31
0.0
1001
GRPNAME
1000
PASTMD0L
  0
LINE
  5
1437
330
1A
100
AcDbEntity
  8
240
  6
Continuous
100
AcDbLine
 10
13.03999999999999
 20
-45.64500000000001
 30
0.0
 11
13.03999999999999
 21
-46.43053754999999
 31
0.0
1001
GRPNAME
1000
PASTMD0L
  0
LINE
  5
1438
330
1A
100
AcDbEntity
  8
241
100
AcDbLine
 10
19.05000000000001
 20
-34.92499999999996
 30
0.0
 11
19.05000000000001
 21
0.0
 31
0.0
  0
LINE
  5
1439
330
1A
100
AcDbEntity
  8
241
  6
Continuous
100
AcDbLine
 10
1.5
 20
-34.92500000000001
 30
0.0
 11
1.5
 21
0.0
 31
0.0
1001
GRPNAME
1000
PASTMD0L
  0
LINE
  5
143A
330
1A
100
AcDbEntity
  8
241
  6
Continuous
100
AcDbLine
 10
0.0
 20
-34.92500000000001
 30
0.0
 11
0.0
 21
0.0
 31
0.0
1001
GRPNAME
1000
PASTMD0L
  0
LINE
  5
143B
330
1A
100
AcDbEntity
  8
241
  6
Continuous
100
AcDbLine
 10
19.05000000000001
 20
-12.95500000000001
 30
0.0
 11
1.5
 21
-12.95500000000001
 31
0.0
1001
GRPNAME
1000
PASTMD0K
  0
LINE
  5
143C
330
1A
100
AcDbEntity
  8
240
100
AcDbLine
 10
0.0
 20
-34.92500000000001
 30
0.0
 11
1.5
 21
-34.92500000000001
 31
0.0
  0
LINE
  5
143D
330
1A
100
AcDbEntity
  8
241
  6
Continuous
100
AcDbLine
 10
19.05000000000001
 20
12.95500000000001
 30
0.0
 11
1.5
 21
12.95500000000001
 31
0.0
1001
GRPNAME
1000
PASTMD0K
  0
CIRCLE
  5
143E
330
1A
100
AcDbEntity
  8
241
100
AcDbCircle
 10
11.18
 20
0.0
 30
0.0
 40
6.349999999999997
  0
CIRCLE
  5
143F
330
1A
100
AcDbEntity
  8
241
100
AcDbCircle
 10
11.18
 20
0.0
 30
0.0
 40
4.7625
  0
LINE
  5
1440
330
1A
100
AcDbEntity
  8
240
  6
Continuous
100
AcDbLine
 10
19.05000000000001
 20
49.2125
 30
0.0
 11
19.04999999999967
 21
34.92500000000004
 31
0.0
1001
GRPNAME
1000
PASTMD0L
  0
LINE
  5
1441
330
1A
100
AcDbEntity
  8
240
  6
Continuous
100
AcDbLine
 10
1.5
 20
49.2125
 30
0.0
 11
1.5
 21
34.92500000000001
 31
0.0
1001
GRPNAME
1000
PASTMD0L
  0
LINE
  5
1442
330
1A
100
AcDbEntity
  8
245
  6
CENTER2
100
AcDbLine
 10
11.12
 20
40.64500000000001
 30
0.0
 11
11.12
 21
49.2125
 31
0.0
1001
GRPNAME
1000
PASTMD0L
  0
LINE
  5
1443
330
1A
100
AcDbEntity
  8
240
100
AcDbLine
 10
0.0
 20
34.92500000000001
 30
0.0
 11
1.5
 21
34.92500000000001
 31
0.0
  0
LINE
  5
1444
330
1A
100
AcDbEntity
  8
240
  6
Continuous
100
AcDbLine
 10
14.64616677000001
 20
49.2125
 30
0.0
 11
19.05000000000001
 21
49.2125
 31
0.0
1001
GRPNAME
1000
PASTMD0L
  0
LINE
  5
1445
330
1A
100
AcDbEntity
  8
240
  6
Continuous
100
AcDbLine
 10
1.5
 20
49.2125
 30
0.0
 11
7.593833230000001
 21
49.2125
 31
0.0
1001
GRPNAME
1000
PASTMD0L
  0
LINE
  5
1446
330
1A
100
AcDbEntity
  8
240
  6
Continuous
100
AcDbLine
 10
9.199999999999989
 20
45.64500000000001
 30
0.0
 11
13.03999999999999
 21
45.64500000000001
 31
0.0
1001
GRPNAME
1000
PASTMD0L
  0
LINE
  5
1447
330
1A
100
AcDbEntity
  8
240
  6
Continuous
100
AcDbLine
 10
9.199999999999989
 20
46.43053754999999
 30
0.0
 11
7.593833230000001
 21
49.2125
 31
0.0
1001
GRPNAME
1000
PASTMD0L
  0
LINE
  5
1448
330
1A
100
AcDbEntity
  8
240
  6
Continuous
100
AcDbLine
 10
9.199999999999989
 20
45.64500000000001
 30
0.0
 11
9.199999999999989
 21
46.43053754999999
 31
0.0
1001
GRPNAME
1000
PASTMD0L
  0
LINE
  5
1449
330
1A
100
AcDbEntity
  8
240
  6
Continuous
100
AcDbLine
 10
13.03999999999999
 20
46.43053754999999
 30
0.0
 11
14.64616677000001
 21
49.2125
 31
0.0
1001
GRPNAME
1000
PASTMD0L
  0
LINE
  5
144A
330
1A
100
AcDbEntity
  8
240
  6
Continuous
100
AcDbLine
 10
13.03999999999999
 20
45.64500000000001
 30
0.0
 11
13.03999999999999
 21
46.43053754999999
 31
0.0
1001
GRPNAME
1000
PASTMD0L
  0
LINE
  5
144B
330
1A
100
AcDbEntity
  8
241
100
AcDbLine
 10
89.29999999999353
 20
-12.94999999997608
 30
0.0
 11
89.29999999999353
 21
0.0000000000000568
 31
0.0
  0
LINE
  5
144C
330
1A
100
AcDbEntity
  8
240
100
AcDbLine
 10
88.72261826173369
 20
19.46923752622976
 30
0.0
 11
78.12150982743685
 21
24.41261557407413
 31
0.0
  0
ARC
  5
144D
330
1A
100
AcDbEntity
  8
240
100
AcDbCircle
 10
88.2999999999929
 20
18.56292973919309
 30
0.0
 40
1.0
100
AcDbArc
 50
0.0000000000065138
 51
65.00000000000074
1001
ASK_MEN_XD
1005
0
1070
     1
1005
0
1070
     1
  0
LINE
  5
144E
330
1A
100
AcDbEntity
  8
240
100
AcDbLine
 10
89.2999999999929
 20
18.56292973919321
 30
0.0
 11
89.29999999999353
 21
12.94999999998123
 31
0.0
  0
LINE
  5
144F
330
1A
100
AcDbEntity
  8
240
100
AcDbLine
 10
89.99999999999994
 20
12.25000000000989
 30
0.0
 11
90.0
 21
0.0000000000000853
 31
0.0
  0
LINE
  5
1450
330
1A
100
AcDbEntity
  8
240
100
AcDbLine
 10
89.29999999999353
 20
12.94999999998123
 30
0.0
 11
89.99999999999994
 21
12.25000000000989
 31
0.0
  0
LINE
  5
1451
330
1A
100
AcDbEntity
  8
240
100
AcDbLine
 10
35.89575498121198
 20
33.64572930905325
 30
0.0
 11
41.33388785080396
 21
25.87927069094675
 31
0.0
  0
ARC
  5
1452
330
1A
100
AcDbEntity
  8
240
100
AcDbCircle
 10
43.79134398367088
 20
27.59999999999977
 30
0.0
 40
3.0
100
AcDbArc
 50
214.9999999999973
 51
270.0000000000065
1001
ASK_MEN_XD
1005
0
1070
     1
1005
0
1070
     1
  0
LINE
  5
1453
330
1A
100
AcDbEntity
  8
241
100
AcDbLine
 10
42.22964283201574
 20
25.03853762219327
 30
0.0
 11
42.22964283201577
 21
0.0000000000000853
 31
0.0
  0
LINE
  5
1454
330
1A
100
AcDbEntity
  8
240
100
AcDbLine
 10
43.79134398367107
 20
24.6000000000002
 30
0.0
 11
77.27627330395603
 21
24.60000000000238
 31
0.0
  0
ARC
  5
1455
330
1A
100
AcDbEntity
  8
240
100
AcDbCircle
 10
77.27627330395613
 20
22.60000000000238
 30
0.0
 40
2.0
100
AcDbArc
 50
65.00000000000074
 51
90.00000000000651
1001
ASK_MEN_XD
1005
0
1070
     1
1005
0
1070
     1
  0
LINE
  5
1456
330
1A
100
AcDbEntity
  8
241
100
AcDbLine
 10
77.71966262923797
 20
24.55023226981698
 30
0.0
 11
77.7196626292386
 21
0.0000000000000284
 31
0.0
  0
LINE
  5
1457
330
1A
100
AcDbEntity
  8
241
100
AcDbLine
 10
71.99961524227135
 20
24.60000000000204
 30
0.0
 11
71.99961524227024
 21
0.0000000000000284
 31
0.0
  0
LINE
  5
1458
330
1A
100
AcDbEntity
  8
241
100
AcDbLine
 10
65.99961524227078
 20
24.60000000000147
 30
0.0
 11
65.99961524227079
 21
0.0000000000000568
 31
0.0
  0
LINE
  5
1459
330
1A
100
AcDbEntity
  8
241
100
AcDbLine
 10
63.99961524230602
 20
24.60000000000125
 30
0.0
 11
63.99961524230608
 21
0.0000000000000568
 31
0.0
  0
LINE
  5
145A
330
1A
100
AcDbEntity
  8
241
100
AcDbLine
 10
57.9996152422668
 20
24.60000000000068
 30
0.0
 11
57.99961524226685
 21
0.0000000000000853
 31
0.0
  0
LINE
  5
145B
330
1A
100
AcDbEntity
  8
241
100
AcDbLine
 10
89.29999999999353
 20
12.9499999999762
 30
0.0
 11
89.29999999999353
 21
0.0000000000000568
 31
0.0
  0
ARC
  5
145C
330
1A
100
AcDbEntity
  8
240
100
AcDbCircle
 10
33.43829884834506
 20
31.92500000000001
 30
0.0
 40
3.0
100
AcDbArc
 50
34.99999999999729
 51
90.0
1001
GRPNAME
1000
PASTMD0L
1001
ASK_MEN_XD
1005
0
1070
     1
1005
0
1070
     1
  0
LINE
  5
145D
330
1A
100
AcDbEntity
  8
241
100
AcDbLine
 10
35.0000000000002
 20
34.48646237780673
 30
0.0
 11
35.00000000000023
 21
0.0000000000000568
 31
0.0
  0
VIEWPORT
  5
22
330
17
100
AcDbEntity
 67
     1
  8
0
100
AcDbViewport
 10
261.51769912
 20
148.5
 30
0.0
 40
523.03539823
 41
297.0
 68
     1
 69
     1
 12
261.51769912
 22
148.5
 13
0.0
 23
0.0
 14
1.0
 24
1.0
 15
10.0
 25
10.0
 16
0.0
 26
0.0
 36
1.0
 17
0.0
 27
0.0
 37
0.0
 42
50.0
 43
0.0
 44
0.0
 45
297.0
 50
0.0
 51
0.0
 72
   100
 90
    32800
  1

281
     0
 71
     1
 74
     0
110
0.0
120
0.0
130
0.0
111
1.0
121
0.0
131
0.0
112
0.0
122
1.0
132
0.0
 79
     0
146
0.0
  0
ENDSEC
  0
SECTION
  2
OBJECTS
  0
DICTIONARY
  5
C
330
0
100
AcDbDictionary
281
     1
  3
ACAD_GROUP
350
D
  3
ACAD_IMAGE_VARS
350
1407
  3
ACAD_LAYOUT
350
1158
  3
ACAD_MLINESTYLE
350
E
  3
ACAD_PLOTSETTINGS
350
566
  3
ACAD_PLOTSTYLENAME
350
563
  3
ACAD_SCALELIST
350
13E4
  3
AcDbVariableDictionary
350
1383
  3
APPDATA
350
1406
  3
DWGPROPS
350
145E
  3
GRADE_DWG
350
540
  0
DICTIONARY
  5
117B
330
2
100
AcDbDictionary
280
     1
281
     1
  3
ACAD_LAYERSTATES
360
117C
  0
DICTIONARY
  5
D
102
{ACAD_REACTORS
330
C
102
}
330
C
100
AcDbDictionary
281
     1
  3
*A1
350
6C7
  3
*A2
350
6C8
  3
*A3
350
6D4
  3
*A4
350
6D5
  3
DMA00-1
350
7EF
  3
DREC-1
350
5FC
  3
DREC-2
350
654
  3
DREC-3
350
673
  0
RASTERVARIABLES
  5
1407
102
{ACAD_REACTORS
330
C
102
}
330
C
100
AcDbRasterVariables
 90
        0
 70
     1
 71
     1
 72
     0
  0
DICTIONARY
  5
1158
102
{ACAD_REACTORS
330
C
102
}
330
C
100
AcDbDictionary
281
     1
  3
Model
350
1159
  3
レイアウト1
350
115A
  0
DICTIONARY
  5
E
102
{ACAD_REACTORS
330
C
102
}
330
C
100
AcDbDictionary
281
     1
  3
STANDARD
350
13
  0
DICTIONARY
  5
566
102
{ACAD_REACTORS
330
C
102
}
330
C
100
AcDbDictionary
281
     1
  3
A3_0_5倍_
350
758
  3
A3_1倍_
350
757
  3
A3_1倍__2000_
350
707
  3
A3_2倍_
350
759
  3
A4_0_5倍_
350
755
  3
A4_1倍_
350
754
  3
A4_1倍__2000_
350
708
  3
A4_2倍_
350
756
  0
ACDBDICTIONARYWDFLT
  5
563
102
{ACAD_REACTORS
330
C
102
}
330
C
100
AcDbDictionary
281
     1
  3
Normal
350
564
100
AcDbDictionaryWithDefault
340
564
  0
DICTIONARY
  5
13E4
102
{ACAD_REACTORS
330
C
102
}
330
C
100
AcDbDictionary
281
     1
  3
A0
350
13E5
  3
A1
350
13E6
  3
A2
350
13E7
  3
A3
350
13E8
  3
A4
350
13E9
  3
A5
350
13EA
  3
A6
350
13EB
  3
A7
350
13EC
  3
A8
350
13ED
  3
A9
350
13EE
  3
B0
350
13EF
  3
B1
350
13F0
  3
B2
350
13F1
  3
B3
350
13F2
  3
B4
350
13F3
  3
B5
350
13F4
  3
B6
350
13F5
  3
B7
350
13F6
  3
B8
350
13F7
  3
B9
350
13F8
  3
C0
350
13F9
  3
C1
350
13FA
  3
C2
350
13FB
  3
C3
350
13FC
  3
C4
350
13FD
  3
C5
350
13FE
  3
C6
350
13FF
  3
C7
350
1400
  3
C8
350
1401
  3
C9
350
1402
  3
D0
350
1403
  3
D1
350
1404
  3
D2
350
1405
  0
DICTIONARY
  5
1383
102
{ACAD_REACTORS
330
C
102
}
330
C
100
AcDbDictionary
281
     1
  3
CANNOSCALE
350
145F
  3
DIMASSOC
350
1387
  3
INDEXCTL
350
1386
  3
SORTENTS
350
1385
  0
DICTIONARY
  5
1406
102
{ACAD_REACTORS
330
C
102
}
330
C
100
AcDbDictionary
281
     1
  0
XRECORD
  5
145E
102
{ACAD_REACTORS
330
C
102
}
330
C
100
AcDbXrecord
280
     1
  1
DWGPROPS COOKIE
  2

  3

  4

  6

  7

  8
alexm
  9

300
=
301
=
302
=
303
=
304
=
305
=
306
=
307
=
308
=
309
=
 40
0.0
 41
2455356.113344167
 42
2457009.666355081
  1

 90
        0
  0
DICTIONARY
  5
540
102
{ACAD_REACTORS
330
C
102
}
330
C
100
AcDbDictionary
281
     1
  3
VERSION
350
560
  0
DICTIONARY
  5
117C
102
{ACAD_REACTORS
330
117B
102
}
330
117B
100
AcDbDictionary
281
     1
  0
GROUP
  5
6C7
102
{ACAD_REACTORS
330
D
102
}
330
D
100
AcDbGroup
300

 70
     0
 71
     1
1001
GRPNAME
1000
DMA00
  0
GROUP
  5
6C8
102
{ACAD_REACTORS
330
D
102
}
330
D
100
AcDbGroup
300

 70
     0
 71
     1
1001
GRPNAME
1000
DMA00
  0
GROUP
  5
6D4
102
{ACAD_REACTORS
330
D
102
}
330
D
100
AcDbGroup
300

 70
     0
 71
     1
1001
GRPNAME
1000
DMA00
  0
GROUP
  5
6D5
102
{ACAD_REACTORS
330
D
102
}
330
D
100
AcDbGroup
300

 70
     0
 71
     1
1001
GRPNAME
1000
DMA00
  0
GROUP
  5
7EF
102
{ACAD_REACTORS
330
D
102
}
330
D
100
AcDbGroup
300

 70
     0
 71
     1
1001
GRPNAME
1000
DMA00
  0
GROUP
  5
5FC
102
{ACAD_REACTORS
330
D
102
}
330
D
100
AcDbGroup
300

 70
     0
 71
     1
1001
GRPNAME
1000
DREC-
1001
GPARA
1000
xsiz
1000
44.182
1000
ysiz
1000
40.677
1000
angl
1000
0
1000
ctyp
1000
0
1000
csiz
1000
5
1000
lfnt
1000
cont
1000
hcnt
1000
hoff
1000
vcnt
1000
voff
1000
opnt
1000
4
1000
dxpt
1000
0
1000
dypt
1000
0
  0
GROUP
  5
654
102
{ACAD_REACTORS
330
D
102
}
330
D
100
AcDbGroup
300

 70
     0
 71
     1
1001
GRPNAME
1000
DREC-
1001
GPARA
1000
xsiz
1000
54.592
1000
ysiz
1000
53.036
1000
angl
1000
0
1000
ctyp
1000
0
1000
csiz
1000
5
1000
lfnt
1000
cont
1000
hcnt
1000
hoff
1000
vcnt
1000
voff
1000
opnt
1000
4
1000
dxpt
1000
0
1000
dypt
1000
0
  0
GROUP
  5
673
102
{ACAD_REACTORS
330
D
102
}
330
D
100
AcDbGroup
300

 70
     0
 71
     1
1001
GRPNAME
1000
DREC-
1001
GPARA
1000
xsiz
1000
30.363
1000
ysiz
1000
36.175
1000
angl
1000
0
1000
ctyp
1000
0
1000
csiz
1000
5
1000
lfnt
1000
cont
1000
hcnt
1000
hoff
1000
vcnt
1000
voff
1000
opnt
1000
4
1000
dxpt
1000
0
1000
dypt
1000
0
  0
LAYOUT
  5
1159
102
{ACAD_REACTORS
330
1158
102
}
330
1158
100
AcDbPlotSettings
  1

  2
Canon LBP5610
  4

  6

 40
0.0
 41
0.0
 42
0.0
 43
0.0
 44
0.0
 45
0.0
 46
0.0
 47
0.0
 48
0.0
 49
0.0
140
0.0
141
0.0
142
1.0
143
1.0
 70
  1712
 72
     0
 73
     0
 74
     0
  7

 75
     0
147
1.0
148
0.0
149
0.0
100
AcDbLayout
  1
Model
 70
     1
 71
     0
 10
0.0
 20
0.0
 11
12.0
 21
9.0
 12
0.0
 22
0.0
 32
0.0
 14
0.0
 24
0.0
 34
0.0
 15
0.0
 25
0.0
 35
0.0
146
0.0
 13
0.0
 23
0.0
 33
0.0
 16
1.0
 26
0.0
 36
0.0
 17
0.0
 27
1.0
 37
0.0
 76
     0
330
1A
331
110D
  0
LAYOUT
  5
115A
102
{ACAD_REACTORS
330
1158
102
}
330
1158
100
AcDbPlotSettings
  1

  2
Canon LBP5610
  4

  6

 40
0.0
 41
0.0
 42
0.0
 43
0.0
 44
0.0
 45
0.0
 46
0.0
 47
0.0
 48
0.0
 49
0.0
140
0.0
141
0.0
142
1.0
143
1.0
 70
   688
 72
     0
 73
     0
 74
     5
  7

 75
    16
147
1.0
148
0.0
149
0.0
100
AcDbLayout
  1
レイアウト1
 70
     1
 71
     1
 10
0.0
 20
0.0
 11
420.0
 21
297.0
 12
0.0
 22
0.0
 32
0.0
 14
1.000000000000000E+20
 24
1.000000000000000E+20
 34
1.000000000000000E+20
 15
-1.000000000000000E+20
 25
-1.000000000000000E+20
 35
-1.000000000000000E+20
146
0.0
 13
0.0
 23
0.0
 33
0.0
 16
1.0
 26
0.0
 36
0.0
 17
0.0
 27
1.0
 37
0.0
 76
     0
330
17
331
22
  0
MLINESTYLE
  5
13
102
{ACAD_REACTORS
330
E
102
}
330
E
100
AcDbMlineStyle
  2
STANDARD
 70
     0
  3

 62
     0
 51
90.0
 52
90.0
 71
     2
 49
0.5
 62
   256
  6
BYLAYER
 49
-0.5
 62
   256
  6
BYLAYER
  0
PLOTSETTINGS
  5
758
102
{ACAD_REACTORS
330
566
102
}
330
566
100
AcDbPlotSettings
  1
A3(0.5倍)
  2
\\AWTECPC05\HP DeskJet 1120C
  4
A3
  6

 40
5.958416459999998
 41
13.49375153
 42
6.043090819999998
 43
3.67242432
 44
296.92599487
 45
419.94665527
 46
89.96
 47
127.14
 48
0.0
 49
0.0
140
0.0
141
0.0
142
1.0
143
2.0
 70
  1716
 72
     1
 73
     1
 74
     2
  7
big.ctb
 75
    17
147
0.5
148
0.0
149
0.0
  0
PLOTSETTINGS
  5
757
102
{ACAD_REACTORS
330
566
102
}
330
566
100
AcDbPlotSettings
  1
A3(1倍)
  2
\\AWTECPC05\HP DeskJet 1120C
  4
A3
  6

 40
5.958416459999998
 41
13.49375153
 42
6.043090819999998
 43
3.67242432
 44
296.92599487
 45
419.94665527
 46
37.46
 47
52.89
 48
0.0
 49
0.0
140
0.0
141
0.0
142
1.0
143
1.0
 70
  1716
 72
     1
 73
     1
 74
     2
  7
big.ctb
 75
    16
147
1.0
148
0.0
149
0.0
  0
PLOTSETTINGS
  5
707
102
{ACAD_REACTORS
330
566
102
}
330
566
100
AcDbPlotSettings
  1
A3(1倍)(2000)
  2
SII LS-1300 (D-SCAN)
  4
User258
  6

 40
3.17499995
 41
3.17499995
 42
3.174987789999998
 43
3.174987789999998
 44
419.98898315
 45
296.98950195
 46
58.32
 47
40.32
 48
0.0
 49
0.0
140
0.0
141
0.0
142
1.0
143
1.0
 70
  1716
 72
     1
 73
     0
 74
     2
  7
big.ctb
 75
    16
147
1.0
148
0.0
149
0.0
  0
PLOTSETTINGS
  5
759
102
{ACAD_REACTORS
330
566
102
}
330
566
100
AcDbPlotSettings
  1
A3(2倍)
  2
\\AWTECPC05\HP DeskJet 1120C
  4
A3
  6

 40
5.958416459999998
 41
13.49375153
 42
6.043090819999998
 43
3.67242432
 44
296.92599487
 45
419.94665527
 46
-67.54
 47
-95.60999999999999
 48
0.0
 49
0.0
140
0.0
141
0.0
142
1.0
143
0.5
 70
  1716
 72
     1
 73
     1
 74
     2
  7
big.ctb
 75
    27
147
2.0
148
0.0
149
0.0
  0
PLOTSETTINGS
  5
755
102
{ACAD_REACTORS
330
566
102
}
330
566
100
AcDbPlotSettings
  1
A4(0.5倍)
  2
\\AWTECPC05\HP DeskJet 1120C
  4
A4
  6

 40
4.18041658
 41
13.49374962
 42
4.180404659999998
 43
3.926422119999998
 44
209.97332764
 45
296.92599487
 46
48.31
 47
65.5
 48
0.0
 49
0.0
140
0.0
141
0.0
142
1.0
143
2.0
 70
  1716
 72
     1
 73
     1
 74
     2
  7
big.ctb
 75
    17
147
0.5
148
0.0
149
0.0
  0
PLOTSETTINGS
  5
754
102
{ACAD_REACTORS
330
566
102
}
330
566
100
AcDbPlotSettings
  1
A4(1倍)
  2
\\AWTECPC05\HP DeskJet 1120C
  4
A4
  6

 40
4.18041658
 41
13.49374962
 42
4.180404659999998
 43
3.926422119999998
 44
209.97332764
 45
296.92599487
 46
-4.19
 47
-8.75
 48
0.0
 49
0.0
140
0.0
141
0.0
142
1.0
143
1.0
 70
  1716
 72
     1
 73
     1
 74
     2
  7
big.ctb
 75
    16
147
1.0
148
0.0
149
0.0
  0
PLOTSETTINGS
  5
708
102
{ACAD_REACTORS
330
566
102
}
330
566
100
AcDbPlotSettings
  1
A4(1倍)(2000)
  2
SII LS-1300 (D-SCAN)
  4
User259
  6

 40
3.17499995
 41
3.17499995
 42
3.174987789999998
 43
3.175003049999998
 44
296.98950195
 45
209.99449158
 46
-3.18
 47
-3.18
 48
0.0
 49
0.0
140
0.0
141
0.0
142
1.0
143
1.0
 70
  1716
 72
     1
 73
     0
 74
     2
  7
big.ctb
 75
    16
147
1.0
148
0.0
149
0.0
  0
PLOTSETTINGS
  5
756
102
{ACAD_REACTORS
330
566
102
}
330
566
100
AcDbPlotSettings
  1
A4(2倍)
  2
\\AWTECPC05\HP DeskJet 1120C
  4
A4
  6

 40
4.18041658
 41
13.49374962
 42
4.180404659999998
 43
3.926422119999998
 44
209.97332764
 45
296.92599487
 46
-109.19
 47
-157.25
 48
0.0
 49
0.0
140
0.0
141
0.0
142
1.0
143
0.5
 70
  1716
 72
     1
 73
     1
 74
     2
  7
big.ctb
 75
    27
147
2.0
148
0.0
149
0.0
  0
ACDBPLACEHOLDER
  5
564
102
{ACAD_REACTORS
330
563
102
}
330
563
  0
SCALE
  5
13E5
102
{ACAD_REACTORS
330
13E4
102
}
330
13E4
100
AcDbScale
 70
     0
300
1:1
140
1.0
141
1.0
290
     1
  0
SCALE
  5
13E6
102
{ACAD_REACTORS
330
13E4
102
}
330
13E4
100
AcDbScale
 70
     0
300
1:2
140
1.0
141
2.0
290
     0
  0
SCALE
  5
13E7
102
{ACAD_REACTORS
330
13E4
102
}
330
13E4
100
AcDbScale
 70
     0
300
1:4
140
1.0
141
4.0
290
     0
  0
SCALE
  5
13E8
102
{ACAD_REACTORS
330
13E4
102
}
330
13E4
100
AcDbScale
 70
     0
300
1:5
140
1.0
141
5.0
290
     0
  0
SCALE
  5
13E9
102
{ACAD_REACTORS
330
13E4
102
}
330
13E4
100
AcDbScale
 70
     0
300
1:8
140
1.0
141
8.0
290
     0
  0
SCALE
  5
13EA
102
{ACAD_REACTORS
330
13E4
102
}
330
13E4
100
AcDbScale
 70
     0
300
1:10
140
1.0
141
10.0
290
     0
  0
SCALE
  5
13EB
102
{ACAD_REACTORS
330
13E4
102
}
330
13E4
100
AcDbScale
 70
     0
300
1:16
140
1.0
141
16.0
290
     0
  0
SCALE
  5
13EC
102
{ACAD_REACTORS
330
13E4
102
}
330
13E4
100
AcDbScale
 70
     0
300
1:20
140
1.0
141
20.0
290
     0
  0
SCALE
  5
13ED
102
{ACAD_REACTORS
330
13E4
102
}
330
13E4
100
AcDbScale
 70
     0
300
1:30
140
1.0
141
30.0
290
     0
  0
SCALE
  5
13EE
102
{ACAD_REACTORS
330
13E4
102
}
330
13E4
100
AcDbScale
 70
     0
300
1:40
140
1.0
141
40.0
290
     0
  0
SCALE
  5
13EF
102
{ACAD_REACTORS
330
13E4
102
}
330
13E4
100
AcDbScale
 70
     0
300
1:50
140
1.0
141
50.0
290
     0
  0
SCALE
  5
13F0
102
{ACAD_REACTORS
330
13E4
102
}
330
13E4
100
AcDbScale
 70
     0
300
1:100
140
1.0
141
100.0
290
     0
  0
SCALE
  5
13F1
102
{ACAD_REACTORS
330
13E4
102
}
330
13E4
100
AcDbScale
 70
     0
300
2:1
140
2.0
141
1.0
290
     0
  0
SCALE
  5
13F2
102
{ACAD_REACTORS
330
13E4
102
}
330
13E4
100
AcDbScale
 70
     0
300
4:1
140
4.0
141
1.0
290
     0
  0
SCALE
  5
13F3
102
{ACAD_REACTORS
330
13E4
102
}
330
13E4
100
AcDbScale
 70
     0
300
8:1
140
8.0
141
1.0
290
     0
  0
SCALE
  5
13F4
102
{ACAD_REACTORS
330
13E4
102
}
330
13E4
100
AcDbScale
 70
     0
300
10:1
140
10.0
141
1.0
290
     0
  0
SCALE
  5
13F5
102
{ACAD_REACTORS
330
13E4
102
}
330
13E4
100
AcDbScale
 70
     0
300
100:1
140
100.0
141
1.0
290
     0
  0
SCALE
  5
13F6
102
{ACAD_REACTORS
330
13E4
102
}
330
13E4
100
AcDbScale
 70
     0
300
1/128" = 1'-0"
140
0.0078125
141
12.0
290
     0
  0
SCALE
  5
13F7
102
{ACAD_REACTORS
330
13E4
102
}
330
13E4
100
AcDbScale
 70
     0
300
1/64" = 1'-0"
140
0.015625
141
12.0
290
     0
  0
SCALE
  5
13F8
102
{ACAD_REACTORS
330
13E4
102
}
330
13E4
100
AcDbScale
 70
     0
300
1/32" = 1'-0"
140
0.03125
141
12.0
290
     0
  0
SCALE
  5
13F9
102
{ACAD_REACTORS
330
13E4
102
}
330
13E4
100
AcDbScale
 70
     0
300
1/16" = 1'-0"
140
0.0625
141
12.0
290
     0
  0
SCALE
  5
13FA
102
{ACAD_REACTORS
330
13E4
102
}
330
13E4
100
AcDbScale
 70
     0
300
3/32" = 1'-0"
140
0.09375
141
12.0
290
     0
  0
SCALE
  5
13FB
102
{ACAD_REACTORS
330
13E4
102
}
330
13E4
100
AcDbScale
 70
     0
300
1/8" = 1'-0"
140
0.125
141
12.0
290
     0
  0
SCALE
  5
13FC
102
{ACAD_REACTORS
330
13E4
102
}
330
13E4
100
AcDbScale
 70
     0
300
3/16" = 1'-0"
140
0.1875
141
12.0
290
     0
  0
SCALE
  5
13FD
102
{ACAD_REACTORS
330
13E4
102
}
330
13E4
100
AcDbScale
 70
     0
300
1/4" = 1'-0"
140
0.25
141
12.0
290
     0
  0
SCALE
  5
13FE
102
{ACAD_REACTORS
330
13E4
102
}
330
13E4
100
AcDbScale
 70
     0
300
3/8" = 1'-0"
140
0.375
141
12.0
290
     0
  0
SCALE
  5
13FF
102
{ACAD_REACTORS
330
13E4
102
}
330
13E4
100
AcDbScale
 70
     0
300
1/2" = 1'-0"
140
0.5
141
12.0
290
     0
  0
SCALE
  5
1400
102
{ACAD_REACTORS
330
13E4
102
}
330
13E4
100
AcDbScale
 70
     0
300
3/4" = 1'-0"
140
0.75
141
12.0
290
     0
  0
SCALE
  5
1401
102
{ACAD_REACTORS
330
13E4
102
}
330
13E4
100
AcDbScale
 70
     0
300
1" = 1'-0"
140
1.0
141
12.0
290
     0
  0
SCALE
  5
1402
102
{ACAD_REACTORS
330
13E4
102
}
330
13E4
100
AcDbScale
 70
     0
300
1-1/2" = 1'-0"
140
1.5
141
12.0
290
     0
  0
SCALE
  5
1403
102
{ACAD_REACTORS
330
13E4
102
}
330
13E4
100
AcDbScale
 70
     0
300
3" = 1'-0"
140
3.0
141
12.0
290
     0
  0
SCALE
  5
1404
102
{ACAD_REACTORS
330
13E4
102
}
330
13E4
100
AcDbScale
 70
     0
300
6" = 1'-0"
140
6.0
141
12.0
290
     0
  0
SCALE
  5
1405
102
{ACAD_REACTORS
330
13E4
102
}
330
13E4
100
AcDbScale
 70
     0
300
1'-0" = 1'-0"
140
12.0
141
12.0
290
     0
  0
DICTIONARYVAR
  5
145F
102
{ACAD_REACTORS
330
1383
102
}
330
1383
100
DictionaryVariables
280
     0
  1
1:1
  0
DICTIONARYVAR
  5
1387
102
{ACAD_REACTORS
330
1383
102
}
330
1383
100
DictionaryVariables
280
     0
  1
1
  0
DICTIONARYVAR
  5
1386
102
{ACAD_REACTORS
330
1383
102
}
330
1383
100
DictionaryVariables
280
     0
  1
0
  0
DICTIONARYVAR
  5
1385
102
{ACAD_REACTORS
330
1383
102
}
330
1383
100
DictionaryVariables
280
     0
  1
127
  0
XRECORD
  5
560
102
{ACAD_REACTORS
330
540
102
}
330
540
100
AcDbXrecord
280
     1
  1
2.0.0
  0
ENDSEC
  0
EOF
