  0
SECTION
  2
HEADER
  9
$ACADVER
  1
AC1009
  9
$DWGCODEPAGE
  3
ansi_1251
  9
$INSBASE
 10
0.0
 20
0.0
 30
0.0
  9
$EXTMIN
 10
-68.25000000000001
 20
-30.5409271246
 30
0.0
  9
$EXTMAX
 10
88.90000000000003
 20
30.50275418977125
 30
0.0
  9
$LIMMIN
 10
0.0
 20
0.0
  9
$LIMMAX
 10
420.0
 20
297.0
  9
$ORTHOMODE
 70
     1
  9
$REGENMODE
 70
     1
  9
$FILLMODE
 70
     1
  9
$QTEXTMODE
 70
     0
  9
$MIRRTEXT
 70
     0
  9
$DRAGMODE
 70
     2
  9
$LTSCALE
 40
1.0
  9
$OSMODE
 70
   279
  9
$ATTMODE
 70
     1
  9
$TEXTSIZE
 40
2.5
  9
$TRACEWID
 40
1.0
  9
$TEXTSTYLE
  7
STANDARD
  9
$CLAYER
  8
0
  9
$CELTYPE
  6
BYLAYER
  9
$CECOLOR
 62
   256
  9
$DIMSCALE
 40
1.0
  9
$DIMASZ
 40
2.5
  9
$DIMEXO
 40
0.625
  9
$DIMDLI
 40
3.75
  9
$DIMRND
 40
0.0
  9
$DIMDLE
 40
0.0
  9
$DIMEXE
 40
1.25
  9
$DIMTP
 40
0.0
  9
$DIMTM
 40
0.0
  9
$DIMTXT
 40
2.5
  9
$DIMCEN
 40
2.5
  9
$DIMTSZ
 40
0.0
  9
$DIMTOL
 70
     0
  9
$DIMLIM
 70
     0
  9
$DIMTIH
 70
     0
  9
$DIMTOH
 70
     0
  9
$DIMSE1
 70
     0
  9
$DIMSE2
 70
     0
  9
$DIMTAD
 70
     1
  9
$DIMZIN
 70
     8
  9
$DIMBLK
  1

  9
$DIMASO
 70
     1
  9
$DIMSHO
 70
     1
  9
$DIMPOST
  1

  9
$DIMAPOST
  1

  9
$DIMALT
 70
     0
  9
$DIMALTD
 70
     3
  9
$DIMALTF
 40
0.03937007874016
  9
$DIMLFAC
 40
1.0
  9
$DIMTOFL
 70
     1
  9
$DIMTVP
 40
0.0
  9
$DIMTIX
 70
     0
  9
$DIMSOXD
 70
     0
  9
$DIMSAH
 70
     0
  9
$DIMBLK1
  1

  9
$DIMBLK2
  1

  9
$DIMSTYLE
  2
ISO-25
  9
$DIMCLRD
 70
     0
  9
$DIMCLRE
 70
     0
  9
$DIMCLRT
 70
     0
  9
$DIMTFAC
 40
1.0
  9
$DIMGAP
 40
0.625
  9
$LUNITS
 70
     2
  9
$LUPREC
 70
     3
  9
$SKETCHINC
 40
1.0
  9
$FILLETRAD
 40
10.0
  9
$AUNITS
 70
     0
  9
$AUPREC
 70
     0
  9
$MENU
  1
.
  9
$ELEVATION
 40
0.0
  9
$PELEVATION
 40
0.0
  9
$THICKNESS
 40
0.0
  9
$LIMCHECK
 70
     0
  9
$CHAMFERA
 40
10.0
  9
$CHAMFERB
 40
10.0
  9
$SKPOLY
 70
     0
  9
$TDCREATE
 40
2455022.429026158
  9
$TDUPDATE
 40
2458659.538982558
  9
$TDINDWG
 40
0.1506771181
  9
$TDUSRTIMER
 40
2458702.614506447
  9
$USRTIMER
 70
     1
  9
$ANGBASE
 50
0.0
  9
$ANGDIR
 70
     0
  9
$PDMODE
 70
     0
  9
$PDSIZE
 40
0.0
  9
$PLINEWID
 40
0.0
  9
$COORDS
 70
     1
  9
$SPLFRAME
 70
     0
  9
$SPLINETYPE
 70
     6
  9
$SPLINESEGS
 70
     8
  9
$ATTDIA
 70
     0
  9
$ATTREQ
 70
     1
  9
$HANDLING
 70
     1
  9
$HANDSEED
  5
1548
  9
$SURFTAB1
 70
     6
  9
$SURFTAB2
 70
     6
  9
$SURFTYPE
 70
     6
  9
$SURFU
 70
     6
  9
$SURFV
 70
     6
  9
$UCSNAME
  2

  9
$UCSORG
 10
0.0
 20
0.0
 30
0.0
  9
$UCSXDIR
 10
1.0
 20
0.0
 30
0.0
  9
$UCSYDIR
 10
0.0
 20
1.0
 30
0.0
  9
$PUCSNAME
  2

  9
$PUCSORG
 10
0.0
 20
0.0
 30
0.0
  9
$PUCSXDIR
 10
1.0
 20
0.0
 30
0.0
  9
$PUCSYDIR
 10
0.0
 20
1.0
 30
0.0
  9
$USERI1
 70
     0
  9
$USERI2
 70
     0
  9
$USERI3
 70
     0
  9
$USERI4
 70
     0
  9
$USERI5
 70
     0
  9
$USERR1
 40
0.0
  9
$USERR2
 40
0.0
  9
$USERR3
 40
0.0
  9
$USERR4
 40
0.0
  9
$USERR5
 40
0.0
  9
$WORLDVIEW
 70
     1
  9
$SHADEDGE
 70
     3
  9
$SHADEDIF
 70
    70
  9
$TILEMODE
 70
     1
  9
$MAXACTVP
 70
    64
  9
$PLIMCHECK
 70
     0
  9
$PEXTMIN
 10
1.000000000000000E+20
 20
1.000000000000000E+20
 30
1.000000000000000E+20
  9
$PEXTMAX
 10
-1.000000000000000E+20
 20
-1.000000000000000E+20
 30
-1.000000000000000E+20
  9
$PLIMMIN
 10
0.0
 20
0.0
  9
$PLIMMAX
 10
420.0
 20
297.0
  9
$UNITMODE
 70
     0
  9
$VISRETAIN
 70
     1
  9
$PLINEGEN
 70
     0
  9
$PSLTSCALE
 70
     1
  0
ENDSEC
  0
SECTION
  2
TABLES
  0
TABLE
  2
VPORT
 70
     1
  0
VPORT
  2
*ACTIVE
 70
     0
 10
0.0
 20
0.0
 11
1.0
 21
1.0
 12
14.45314342219935
 22
-4.409747193426497
 13
0.0
 23
0.0
 14
10.0
 24
10.0
 15
10.0
 25
10.0
 16
0.0
 26
0.0
 36
1.0
 17
0.0
 27
0.0
 37
0.0
 40
177.6216428744414
 41
1.332880434782609
 42
50.0
 43
0.0
 44
0.0
 50
0.0
 51
0.0
 71
    16
 72
  1000
 73
     1
 74
     3
 75
     0
 76
     0
 77
     0
 78
     0
  0
ENDTAB
  0
TABLE
  2
LTYPE
 70
     6
  0
LTYPE
  2
CONTINUOUS
 70
     0
  3
Solid line
 72
    65
 73
     0
 40
0.0
  0
LTYPE
  2
CENTER
 70
     0
  3
 Center _____  _  _____  _  _____  _  _____  _ 
 72
    65
 73
     4
 40
50.8
 49
31.75
 49
-6.35
 49
6.35
 49
-6.35
  0
LTYPE
  2
DASHED
 70
     0
  3
Dashed __  __  __  __  __  __  __  __  __  __  
 72
    65
 73
     2
 40
19.05
 49
12.7
 49
-6.35
  0
LTYPE
  2
HIDDEN
 70
     0
  3
Hidden __ __ __ __ __ __ __ __ __ __ __ __ __ __
 72
    65
 73
     2
 40
1.905
 49
1.27
 49
-0.635
  0
LTYPE
  2
CENTERX2
 70
     0
  3
Center (2x) ________  __  ________  __  _____
 72
    65
 73
     4
 40
20.32
 49
12.7
 49
-2.54
 49
2.54
 49
-2.54
  0
LTYPE
  2
PHANTOM
 70
     0
  3
Phantom ______  __  __  ______  __  __  ______
 72
    65
 73
     6
 40
12.7
 49
6.35
 49
-1.27
 49
1.27
 49
-1.27
 49
1.27
 49
-1.27
  0
ENDTAB
  0
TABLE
  2
LAYER
 70
    26
  0
LAYER
  2
0
 70
     0
 62
     7
  6
CONTINUOUS
  0
LAYER
  2
1
 70
     0
 62
     4
  6
CONTINUOUS
  0
LAYER
  2
2
 70
     0
 62
     7
  6
CONTINUOUS
  0
LAYER
  2
3
 70
     0
 62
     1
  6
DASHED
  0
LAYER
  2
4
 70
     0
 62
     2
  6
CENTER
  0
LAYER
  2
6
 70
     0
 62
     5
  6
CONTINUOUS
  0
LAYER
  2
7
 70
     0
 62
     5
  6
CONTINUOUS
  0
LAYER
  2
11
 70
     0
 62
     4
  6
CONTINUOUS
  0
LAYER
  2
SK1
 70
     0
 62
     4
  6
CONTINUOUS
  0
LAYER
  2
SK2
 70
     0
 62
     7
  6
CONTINUOUS
  0
LAYER
  2
SK3
 70
     0
 62
     1
  6
DASHED
  0
LAYER
  2
SK4
 70
     0
 62
     2
  6
CENTER
  0
LAYER
  2
SK6
 70
     0
 62
     5
  6
CONTINUOUS
  0
LAYER
  2
SK7
 70
     0
 62
     5
  6
CONTINUOUS
  0
LAYER
  2
SK11
 70
     0
 62
     4
  6
CONTINUOUS
  0
LAYER
  2
CUT
 70
     0
 62
     1
  6
CONTINUOUS
  0
LAYER
  2
NOCUT
 70
     0
 62
    -7
  6
CONTINUOUS
  0
LAYER
  2
SKVIEW1
 70
     0
 62
     4
  6
CONTINUOUS
  0
LAYER
  2
SKVIEW2
 70
     0
 62
     7
  6
CONTINUOUS
  0
LAYER
  2
SKVIEW3
 70
     0
 62
     1
  6
DASHED
  0
LAYER
  2
SKVIEW4
 70
     0
 62
     2
  6
CENTER
  0
LAYER
  2
SKVIEW6
 70
     0
 62
     5
  6
CONTINUOUS
  0
LAYER
  2
SKVIEW7
 70
     0
 62
     5
  6
CONTINUOUS
  0
LAYER
  2
SKVIEW11
 70
     0
 62
     4
  6
CONTINUOUS
  0
LAYER
  2
INFTOTAL
 70
     0
 62
     9
  6
CONTINUOUS
  0
LAYER
  2
DEFPOINTS
 70
     0
 62
     7
  6
CONTINUOUS
  0
ENDTAB
  0
TABLE
  2
STYLE
 70
     1
  0
STYLE
  2
STANDARD
 70
     0
 40
0.0
 41
1.0
 50
0.0
 71
     0
 42
2.5
  3
txt
  4

  0
ENDTAB
  0
TABLE
  2
VIEW
 70
     0
  0
ENDTAB
  0
TABLE
  2
UCS
 70
     0
  0
ENDTAB
  0
TABLE
  2
APPID
 70
     2
  0
APPID
  2
ACAD
 70
     0
  0
APPID
  2
ACAECLAYERSTANDARD
 70
     0
  0
ENDTAB
  0
TABLE
  2
DIMSTYLE
 70
     1
  0
DIMSTYLE
  2
ISO-25
 70
     0
  3

  4

  5

  6

  7

 40
1.0
 41
2.5
 42
0.625
 43
3.75
 44
1.25
 45
0.0
 46
0.0
 47
0.0
 48
0.0
140
2.5
141
2.5
142
0.0
143
0.03937007874016
144
1.0
145
0.0
146
1.0
147
0.625
 71
     0
 72
     0
 73
     0
 74
     0
 75
     0
 76
     0
 77
     1
 78
     8
170
     0
171
     3
172
     1
173
     0
174
     0
175
     0
176
     0
177
     0
178
     0
  0
ENDTAB
  0
ENDSEC
  0
SECTION
  2
BLOCKS
  0
BLOCK
  8
0
  2
$MODEL_SPACE
 70
     0
 10
0.0
 20
0.0
 30
0.0
  3
$MODEL_SPACE
  1

  0
ENDBLK
  5
21
  8
0
  0
BLOCK
 67
     1
  8
0
  2
$PAPER_SPACE
 70
     0
 10
0.0
 20
0.0
 30
0.0
  3
$PAPER_SPACE
  1

  0
ENDBLK
  5
1D
 67
     1
  8
0
  0
BLOCK
  8
0
  2
*U2
 70
     1
 10
0.0
 20
0.0
 30
0.0
  3
*U2
  1

  0
TEXT
  5
77E
  8
SK6
 10
-50.0
 20
78.25
 30
0.0
 40
3.5
  1
BIG DAISHOWA
 41
0.85
  0
TEXT
  5
781
  8
SK6
 10
-50.0
 20
73.0
 30
0.0
 40
3.5
  1
BCV50-FMH32-76-50
 41
0.85
  0
ENDBLK
  5
782
  8
0
  0
BLOCK
  8
0
  2
_FILLED
 70
     0
 10
0.0
 20
0.0
 30
0.0
  3
_FILLED
  1

  0
SOLID
  5
789
  8
0
  6
BYBLOCK
 62
     0
 10
0.0
 20
0.0
 30
0.0
 11
-1.0
 21
0.2142857143
 31
0.0
 12
-1.0
 22
-0.2142857143
 32
0.0
 13
-1.0
 23
-0.2142857143
 33
0.0
  0
ENDBLK
  5
78A
  8
0
  6
BYBLOCK
 62
     0
  0
BLOCK
  8
0
  2
*U5
 70
     1
 10
0.0
 20
0.0
 30
0.0
  3
*U5
  1

  0
TEXT
  5
790
  8
SK6
 10
-85.96178542556666
 20
-67.06748653279999
 30
0.0
 40
3.5
  1
BCV50
 41
0.85
  0
ENDBLK
  5
791
  8
0
  0
BLOCK
  8
0
  2
*D7
 70
     1
 10
0.0
 20
0.0
 30
0.0
  3
*D7
  1

  0
LINE
  5
7F9
  8
SK2
 62
     0
 10
0.0
 20
-35.55000000000001
 30
0.0
 11
0.0
 21
-74.40665109041375
 31
0.0
  0
LINE
  5
7FA
  8
SK2
 62
     0
 10
35.05
 20
-35.05000000000001
 30
0.0
 11
35.05
 21
-74.40665109041375
 31
0.0
  0
LINE
  5
7FB
  8
SK2
 62
     0
 10
2.5
 20
-73.15665109041375
 30
0.0
 11
32.55
 21
-73.15665109041375
 31
0.0
  0
SOLID
  5
7FC
  8
SK2
 62
     0
 10
2.5
 20
-72.73998442374707
 30
0.0
 11
2.5
 21
-73.57331775708042
 31
0.0
 12
0.0
 22
-73.15665109041375
 32
0.0
 13
0.0
 23
-73.15665109041375
 33
0.0
  0
SOLID
  5
7FD
  8
SK2
 62
     0
 10
32.55
 20
-73.57331775708042
 30
0.0
 11
32.55
 21
-72.73998442374707
 31
0.0
 12
35.05
 22
-73.15665109041375
 32
0.0
 13
35.05
 23
-73.15665109041375
 33
0.0
  0
TEXT
  5
7FE
  8
SK2
  6
CONTINUOUS
 62
     0
 10
12.73333333333333
 20
-72.53165109041375
 30
0.0
 40
2.5
  1
35.05
  0
POINT
  5
7FF
  8
DEFPOINTS
 62
     0
 10
0.0
 20
-34.92500000000001
 30
0.0
  0
POINT
  5
800
  8
DEFPOINTS
 62
     0
 10
35.05
 20
-34.42500000000001
 30
0.0
  0
POINT
  5
801
  8
DEFPOINTS
 62
     0
 10
35.05
 20
-73.15665109041375
 30
0.0
  0
ENDBLK
  5
803
  8
0
  0
BLOCK
  8
0
  2
*D8
 70
     1
 10
0.0
 20
0.0
 30
0.0
  3
*D8
  1

  0
LINE
  5
808
  8
SK2
 62
     0
 10
0.0
 20
35.54999999999998
 30
0.0
 11
0.0
 21
63.71215670356074
 31
0.0
  0
LINE
  5
809
  8
SK2
 62
     0
 10
50.0
 20
37.625
 30
0.0
 11
50.0
 21
63.71215670356074
 31
0.0
  0
LINE
  5
80A
  8
SK2
 62
     0
 10
2.5
 20
62.46215670356074
 30
0.0
 11
47.5
 21
62.46215670356074
 31
0.0
  0
SOLID
  5
80B
  8
SK2
 62
     0
 10
2.5
 20
62.8788233702274
 30
0.0
 11
2.5
 21
62.04549003689407
 31
0.0
 12
0.0
 22
62.46215670356074
 32
0.0
 13
0.0
 23
62.46215670356074
 33
0.0
  0
SOLID
  5
80C
  8
SK2
 62
     0
 10
47.5
 20
62.04549003689407
 30
0.0
 11
47.5
 21
62.8788233702274
 31
0.0
 12
50.0
 22
62.46215670356074
 32
0.0
 13
50.0
 23
62.46215670356074
 33
0.0
  0
TEXT
  5
80D
  8
SK2
  6
CONTINUOUS
 62
     0
 10
23.125
 20
63.08715670356074
 30
0.0
 40
2.5
  1
50
  0
POINT
  5
80E
  8
DEFPOINTS
 62
     0
 10
0.0
 20
34.92499999999998
 30
0.0
  0
POINT
  5
80F
  8
DEFPOINTS
 62
     0
 10
50.0
 20
37.0
 30
0.0
  0
POINT
  5
810
  8
DEFPOINTS
 62
     0
 10
50.0
 20
62.46215670356074
 30
0.0
  0
ENDBLK
  5
812
  8
0
  0
BLOCK
  8
0
  2
*D10
 70
     1
 10
0.0
 20
0.0
 30
0.0
  3
*D10
  1

  0
LINE
  5
FF3
  8
SK2
 62
     0
 10
49.625
 20
38.0
 30
0.0
 11
130.5062868443987
 21
37.99999999999999
 31
0.0
  0
LINE
  5
FF4
  8
SK2
 62
     0
 10
49.625
 20
-38.0
 30
0.0
 11
130.5062868443987
 21
-38.00000000000001
 31
0.0
  0
LINE
  5
FF5
  8
SK2
 62
     0
 10
129.2562868443987
 20
35.49999999999999
 30
0.0
 11
129.2562868443987
 21
-35.50000000000001
 31
0.0
  0
SOLID
  5
FF6
  8
SK2
 62
     0
 10
129.6729535110653
 20
35.49999999999999
 30
0.0
 11
128.839620177732
 21
35.49999999999999
 31
0.0
 12
129.2562868443987
 22
37.99999999999999
 32
0.0
 13
129.2562868443987
 23
37.99999999999999
 33
0.0
  0
SOLID
  5
FF7
  8
SK2
 62
     0
 10
128.839620177732
 20
-35.50000000000001
 30
0.0
 11
129.6729535110653
 21
-35.50000000000001
 31
0.0
 12
129.2562868443987
 22
-38.00000000000001
 32
0.0
 13
129.2562868443987
 23
-38.00000000000001
 33
0.0
  0
TEXT
  5
FF8
  8
SK2
  6
CONTINUOUS
 62
     0
 10
128.6312868443987
 20
-2.083333333333329
 30
0.0
 40
2.5
  1
76
 50
90.0
  0
POINT
  5
FF9
  8
DEFPOINTS
 62
     0
 10
49.0
 20
38.0
 30
0.0
  0
POINT
  5
FFA
  8
DEFPOINTS
 62
     0
 10
49.0
 20
-38.0
 30
0.0
  0
POINT
  5
FFB
  8
DEFPOINTS
 62
     0
 10
129.2562868443987
 20
-38.00000000000001
 30
0.0
  0
ENDBLK
  5
FFD
  8
0
  0
BLOCK
  8
0
  2
*D11
 70
     1
 10
0.0
 20
0.0
 30
0.0
  3
*D11
  1

  0
LINE
  5
1002
  8
SK2
 62
     0
 10
71.125
 20
16.0
 30
0.0
 11
113.0082856211571
 21
16.0
 31
0.0
  0
LINE
  5
1003
  8
SK2
 62
     0
 10
71.125
 20
-16.0
 30
0.0
 11
113.0082856211571
 21
-16.0
 31
0.0
  0
LINE
  5
1004
  8
SK2
 62
     0
 10
111.7582856211571
 20
13.5
 30
0.0
 11
111.7582856211571
 21
-13.5
 31
0.0
  0
SOLID
  5
1005
  8
SK2
 62
     0
 10
112.1749522878238
 20
13.5
 30
0.0
 11
111.3416189544905
 21
13.5
 31
0.0
 12
111.7582856211571
 22
16.0
 32
0.0
 13
111.7582856211571
 23
16.0
 33
0.0
  0
SOLID
  5
1006
  8
SK2
 62
     0
 10
111.3416189544905
 20
-13.5
 30
0.0
 11
112.1749522878238
 21
-13.5
 31
0.0
 12
111.7582856211571
 22
-16.0
 32
0.0
 13
111.7582856211571
 23
-16.0
 33
0.0
  0
TEXT
  5
1007
  8
SK2
  6
CONTINUOUS
 62
     0
 10
111.1332856211571
 20
-2.083333333333329
 30
0.0
 40
2.5
  1
32
 50
90.0
  0
POINT
  5
1008
  8
DEFPOINTS
 62
     0
 10
70.5
 20
16.0
 30
0.0
  0
POINT
  5
1009
  8
DEFPOINTS
 62
     0
 10
70.5
 20
-16.0
 30
0.0
  0
POINT
  5
100A
  8
DEFPOINTS
 62
     0
 10
111.7582856211571
 20
-16.0
 30
0.0
  0
ENDBLK
  5
100C
  8
0
  0
ENDSEC
  0
SECTION
  2
ENTITIES
  0
LINE
  5
685
  8
SK1
 10
0.0
 20
34.92499999999998
 30
0.0
 11
-99.6319088344
 21
20.3952133832
 31
0.0
  0
LINE
  5
686
  8
SK1
 10
-99.6319088344
 20
-20.3952133832
 30
0.0
 11
0.0
 21
-34.92500000000001
 31
0.0
  0
ARC
  5
68D
  8
SK1
 10
-99.3
 20
18.1192879614
 30
0.0
 40
2.299999999999995
 50
98.29722000000018
 51
180.0
  0
ARC
  5
68E
  8
SK1
 10
-99.3
 20
-18.1192879614
 30
0.0
 40
2.299999999999995
 50
180.0
 51
261.7027799999998
  0
LINE
  5
6F6
  8
SK1
 10
-101.6
 20
0.0
 30
0.0
 11
-101.6
 21
-18.1192879614
 31
0.0
  0
LINE
  5
6F7
  8
SK1
 10
-101.6
 20
18.1192879614
 30
0.0
 11
-101.6
 21
0.0
 31
0.0
  0
LINE
  5
71A
  8
SK3
 10
-99.5215390309
 20
-13.10000000000002
 30
0.0
 11
-99.5215390309
 21
13.09999999999999
 31
0.0
  0
LINE
  5
71B
  8
SK3
 10
-95.25
 20
-13.10000000000002
 30
0.0
 11
-95.25
 21
13.09999999999999
 31
0.0
  0
LINE
  5
72A
  8
SK3
 10
-101.6
 20
-14.30000000000001
 30
0.0
 11
-99.5215390309
 21
-13.10000000000002
 31
0.0
  0
LINE
  5
72B
  8
SK3
 10
-99.5215390309
 20
13.09999999999999
 30
0.0
 11
-101.6
 21
14.3
 31
0.0
  0
LINE
  5
72C
  8
SK3
 10
-99.5215390309
 20
-13.10000000000002
 30
0.0
 11
-95.25
 21
-13.10000000000002
 31
0.0
  0
LINE
  5
72D
  8
SK3
 10
-95.25
 20
13.09999999999999
 30
0.0
 11
-99.5215390309
 21
13.09999999999999
 31
0.0
  0
LINE
  5
72E
  8
SK3
 10
-95.25
 20
-11.09980000000002
 30
0.0
 11
-33.74999999999999
 21
-11.09980000000002
 31
0.0
  0
LINE
  5
72F
  8
SK3
 10
-33.75
 20
11.09979999999999
 30
0.0
 11
-95.25
 21
11.09979999999999
 31
0.0
  0
LINE
  5
760
  8
SK3
 10
-57.1
 20
12.69999999999999
 30
0.0
 11
-95.25
 21
12.69999999999999
 31
0.0
  0
LINE
  5
761
  8
SK3
 10
-95.25
 20
-12.69999999999999
 30
0.0
 11
-57.1
 21
-12.69999999999999
 31
0.0
  0
LINE
  5
774
  8
SK3
 10
-57.1
 20
12.69999999999999
 30
0.0
 11
-57.1
 21
-12.69999999999999
 31
0.0
  0
LINE
  5
777
  8
SK4
 10
0.0
 20
0.0
 30
0.0
 11
-101.6
 21
0.0
 31
0.0
  0
LINE
  5
779
  8
4
 10
0.0
 20
0.0
 30
0.0
 11
49.99999999999999
 21
0.0
 31
0.0
  0
INSERT
  5
77B
  8
SK6
  2
*U2
 10
-44.10380399683656
 20
-23.39313954296377
 30
0.0
  0
INSERT
  5
78D
  8
SK6
  2
*U5
 10
17.55665382414153
 20
-2.560320993650734
 30
0.0
  0
LINE
  5
793
  8
0
 10
3.0
 20
3.0
 30
0.0
 11
-3.0
 21
-3.0
 31
0.0
  0
LINE
  5
794
  8
0
 10
-3.0
 20
3.0
 30
0.0
 11
3.0
 21
-3.0
 31
0.0
  0
CIRCLE
  5
795
  8
0
 10
0.0
 20
0.0
 30
0.0
 40
2.5
  0
LINE
  5
796
  8
0
 10
52.99999999999999
 20
-3.000000000000014
 30
0.0
 11
46.99999999999999
 21
2.999999999999986
 31
0.0
  0
CIRCLE
  5
797
  8
0
 10
49.99999999999999
 20
-0.0000000000000142
 30
0.0
 40
2.5
  0
LINE
  5
798
  8
0
 10
46.99999999999999
 20
-3.000000000000014
 30
0.0
 11
52.99999999999999
 21
2.999999999999986
 31
0.0
  0
LINE
  5
799
  8
NOCUT
 10
0.7999999999999972
 20
34.62500000000001
 30
0.0
 11
0.2999999999999972
 21
34.62500000000001
 31
0.0
  0
LINE
  5
79C
  8
NOCUT
 10
0.2999999999999972
 20
34.62500000000001
 30
0.0
 11
0.0
 21
34.92499999999999
 31
0.0
  0
LINE
  5
79D
  8
NOCUT
 10
34.65000000000001
 20
34.92499999999995
 30
0.0
 11
20.05
 21
34.92499999999999
 31
0.0
  0
ARC
  5
79E
  8
NOCUT
 10
0.7999999999999972
 20
35.62500000000001
 30
0.0
 40
1.0
 50
270.0
 51
314.4270040008
  0
ARC
  5
79F
  8
NOCUT
 10
20.05
 20
35.92499999999999
 30
0.0
 40
1.0
 50
180.0
 51
270.0
  0
LINE
  5
7A0
  8
NOCUT
 10
12.55499999999999
 20
45.64499999999999
 30
0.0
 11
9.704999999999998
 21
45.64499999999999
 31
0.0
  0
ARC
  5
7A1
  8
NOCUT
 10
12.55499999999999
 20
46.14499999999999
 30
0.0
 40
0.5
 50
270.0
 51
0.0
  0
ARC
  5
7A2
  8
NOCUT
 10
9.704999999999998
 20
46.14499999999999
 30
0.0
 40
0.5
 50
180.0
 51
270.0
  0
ARC
  5
7A3
  8
NOCUT
 10
2.299999999999997
 20
48.4125
 30
0.0
 40
0.7999999999999972
 50
90.0
 51
180.0
  0
ARC
  5
7A4
  8
NOCUT
 10
18.24999999999999
 20
48.4125
 30
0.0
 40
0.799999999999983
 50
0.0
 51
90.0
  0
LINE
  5
7A5
  8
NOCUT
 10
9.204999999999998
 20
46.43919780459999
 30
0.0
 11
7.603833230999996
 21
49.21250000000001
 31
0.0
  0
LINE
  5
7A6
  8
NOCUT
 10
14.65616676910001
 20
49.21250000000001
 30
0.0
 11
13.05499999999999
 21
46.43919780459999
 31
0.0
  0
LINE
  5
7A7
  8
NOCUT
 10
18.24999999999999
 20
49.21250000000001
 30
0.0
 11
14.65616676910001
 21
49.21250000000001
 31
0.0
  0
LINE
  5
7A8
  8
NOCUT
 10
7.603833230999996
 20
49.21250000000001
 30
0.0
 11
2.299999999999997
 21
49.21250000000001
 31
0.0
  0
LINE
  5
7AC
  8
NOCUT
 10
1.5
 20
48.4125
 30
0.0
 11
1.499999999999929
 21
34.91085715714565
 31
0.0
  0
LINE
  5
7AD
  8
NOCUT
 10
19.04999999999997
 20
48.4125
 30
0.0
 11
19.05
 21
35.92499999999999
 31
0.0
  0
LINE
  5
7AE
  8
NOCUT
 10
9.204999999999998
 20
46.43919780459999
 30
0.0
 11
9.204999999999998
 21
46.14499999999999
 31
0.0
  0
LINE
  5
7AF
  8
NOCUT
 10
13.05499999999999
 20
46.43919780459999
 30
0.0
 11
13.05499999999999
 21
46.14499999999999
 31
0.0
  0
DIMENSION
  5
7F5
  8
SK2
  2
*D7
 10
35.05
 20
-73.15665109041375
 30
0.0
 11
17.525
 21
-71.28165109041375
 31
0.0
 70
    32
  3
ISO-25
 13
0.0
 23
-34.92500000000001
 33
0.0
 14
35.05
 24
-34.42500000000001
 34
0.0
1001
ACAD
1000
DSTYLE
1002
{
1070
   287
1070
     5
1070
   271
1070
     3
1070
   272
1070
     3
1070
   279
1070
     2
1002
}
  0
DIMENSION
  5
804
  8
SK2
  2
*D8
 10
50.0
 20
62.46215670356074
 30
0.0
 11
25.0
 21
64.33715670356074
 31
0.0
 70
    32
  3
ISO-25
 13
0.0
 23
34.92499999999998
 33
0.0
 14
50.0
 24
37.0
 34
0.0
1001
ACAD
1000
DSTYLE
1002
{
1070
   287
1070
     5
1070
   271
1070
     3
1070
   272
1070
     3
1070
   279
1070
     2
1002
}
  0
LINE
  5
8BF
  8
NOCUT
 10
0.0
 20
34.92499999999999
 30
0.0
 11
0.0
 21
0.0
 31
0.0
  0
LINE
  5
8C0
  8
NOCUT
 10
0.0
 20
0.0
 30
0.0
 11
49.99999999999999
 21
0.0
 31
0.0
  0
INSERT
  5
A17
  8
SK6
  2
_FILLED
 10
-20.78186483605847
 20
-31.89428358495073
 30
0.0
 41
3.5
 42
3.5
 43
3.5
 50
52.86965044919886
  0
POLYLINE
  5
A18
  8
SK6
 66
     1
 10
0.0
 20
0.0
 30
0.0
  0
VERTEX
  5
1011
  8
SK6
 10
-22.89457117648658
 20
-34.68470862768434
 30
0.0
  0
VERTEX
  5
1012
  8
SK6
 10
-48.02596493475846
 20
-67.87780752645074
 30
0.0
  0
VERTEX
  5
1013
  8
SK6
 10
-49.90096493475846
 20
-66.12780752645074
 30
0.0
  0
VERTEX
  5
1014
  8
SK6
 10
-53.40096493475846
 20
-66.12780752645074
 30
0.0
  0
SEQEND
  5
1547
  8
SK6
  0
ARC
  5
AC7
  8
1
 10
20.04999999999998
 20
35.92499999999998
 30
0.0
 40
1.0
 50
180.0
 51
270.0
  0
ARC
  5
AC9
  8
1
 10
20.04999999999998
 20
-35.92500000000001
 30
0.0
 40
1.0
 50
90.0
 51
180.0
  0
ARC
  5
ACA
  8
1
 10
1.299999999999983
 20
35.125
 30
0.0
 40
0.5
 50
270.0
 51
293.5781784781994
  0
ARC
  5
ACB
  8
1
 10
1.299999999999983
 20
-35.125
 30
0.0
 40
0.500000000000009
 50
66.42182152180017
 51
90.0
  0
LINE
  5
ACC
  8
1
 10
34.65000000000001
 20
34.92499999999995
 30
0.0
 11
20.04999999999998
 21
34.92499999999998
 31
0.0
  0
LINE
  5
ACE
  8
1
 10
20.04999999999998
 20
-34.92500000000001
 30
0.0
 11
34.65000000000001
 21
-34.92499999999995
 31
0.0
  0
LINE
  5
ACF
  8
1
 10
0.0
 20
-34.92500000000001
 30
0.0
 11
0.2999999999999829
 21
-34.625
 31
0.0
  0
LINE
  5
AD0
  8
1
 10
0.2999999999999829
 20
34.625
 30
0.0
 11
0.0
 21
34.92499999999998
 31
0.0
  0
LINE
  5
AD5
  8
1
 10
1.299999999999983
 20
34.625
 30
0.0
 11
0.2999999999999829
 21
34.625
 31
0.0
  0
LINE
  5
AD6
  8
1
 10
0.2999999999999829
 20
-34.625
 30
0.0
 11
1.299999999999983
 21
-34.625
 31
0.0
  0
LINE
  5
ADB
  8
1
 10
14.65616694409999
 20
-47.282880439
 30
0.0
 11
14.68806954659999
 21
-47.29184187660002
 31
0.0
  0
LINE
  5
ADC
  8
1
 10
14.6561667691
 20
47.30816788690001
 30
0.0
 11
14.6561667691
 21
-47.2826327523
 31
0.0
  0
LINE
  5
ADD
  8
1
 10
14.7615962207
 20
47.3314147463
 30
0.0
 11
14.6561668942
 21
47.30816788690001
 31
0.0
  0
LINE
  5
ADE
  8
1
 10
18.25
 20
47.3314147463
 30
0.0
 11
14.7615962207
 21
47.3314147463
 31
0.0
  0
LINE
  5
ADF
  8
1
 10
14.68806954659999
 20
-47.29184187660002
 30
0.0
 11
18.25
 21
-47.29184187660002
 31
0.0
  0
LINE
  5
AE0
  8
1
 10
7.498403779400007
 20
47.3314147463
 30
0.0
 11
4.006414746699988
 21
47.3314147463
 31
0.0
  0
LINE
  5
AE1
  8
1
 10
7.603833105900009
 20
47.30816788690001
 30
0.0
 11
7.498403779400007
 21
47.3314147463
 31
0.0
  0
LINE
  5
AE2
  8
1
 10
7.603833230899994
 20
47.30844201400001
 30
0.0
 11
7.603833230899994
 21
-47.28288044160001
 31
0.0
  0
LINE
  5
AE3
  8
1
 10
7.571930453299984
 20
-47.29184187660002
 30
0.0
 11
7.603833055899997
 21
-47.282880439
 31
0.0
  0
LINE
  5
AE4
  8
1
 10
4.040356993800003
 20
-47.29184187660002
 30
0.0
 11
7.571930453299984
 21
-47.29184187660002
 31
0.0
  0
LINE
  5
AE5
  8
1
 10
2.300001405499984
 20
-46.74795901499999
 30
0.0
 11
4.040356993800003
 21
-47.29184189310001
 31
0.0
  0
LINE
  5
AE6
  8
1
 10
4.006414746699988
 20
47.33141476029999
 30
0.0
 11
2.299999765199999
 21
46.80267569
 31
0.0
  0
ARC
  5
AE7
  8
1
 10
2.557435939599998
 20
-45.59355264690001
 30
0.0
 40
1.184053137363273
 50
207.7147598986998
 51
257.3157095984005
  0
LINE
  5
AE8
  8
1
 10
1.50922466130001
 20
-46.14422037630001
 30
0.0
 11
1.5
 21
-46.01377680920001
 31
0.0
  0
LINE
  5
AE9
  8
1
 10
1.5
 20
-46.01377680920001
 30
0.0
 11
1.5
 21
46.01377680919998
 31
0.0
  0
ARC
  5
AEA
  8
1
 10
2.572884962100005
 20
45.72649004249999
 30
0.0
 40
1.111555736593689
 50
104.3436511600003
 51
164.8417645594994
  0
LINE
  5
AEB
  8
1
 10
9.204999995999998
 20
44.41431970880001
 30
0.0
 11
7.60383322749999
 21
47.3081678945
 31
0.0
  0
LINE
  5
AEC
  8
1
 10
9.204999999999984
 20
44.4143196734
 30
0.0
 11
9.204999999999984
 21
-44.387299867
 31
0.0
  0
LINE
  5
AED
  8
1
 10
7.603833226399985
 20
-47.28288044990001
 30
0.0
 11
9.2049999921
 21
-44.38762367050001
 31
0.0
  0
LINE
  5
AEE
  8
1
 10
14.65616677259999
 20
47.3081678945
 30
0.0
 11
13.05500000399999
 21
44.41431970880001
 31
0.0
  0
LINE
  5
AEF
  8
1
 10
13.05500000800001
 20
-44.38762367050001
 30
0.0
 11
14.65616677360001
 21
-47.28288044990001
 31
0.0
  0
LINE
  5
AF0
  8
1
 10
13.05500000000001
 20
44.41459195280001
 30
0.0
 11
13.05500000000001
 21
-44.38762365650001
 31
0.0
  0
ARC
  5
AF1
  8
1
 10
17.92302328310001
 20
46.41895288640001
 30
0.0
 40
1.127359624435328
 50
1.493363825500091
 51
43.53750291790048
  0
LINE
  5
AF2
  8
1
 10
19.04999999999998
 20
46.44833319130001
 30
0.0
 11
19.04999999999998
 21
-46.44833319130001
 31
0.0
  0
ARC
  5
AF3
  8
1
 10
17.91824827779999
 20
-46.4157978575
 30
0.0
 40
1.1322192847622
 50
319.2464850235001
 51
358.3533278529993
  0
ARC
  5
AF4
  8
1
 10
18.2616113983
 20
-46.25791326929999
 30
0.0
 40
1.033993805426882
 50
269.3565743835002
 51
299.8289453780985
  0
ARC
  5
AF5
  8
1
 10
18.2610591033
 20
46.41902767409999
 30
0.0
 40
0.9124540938653742
 50
58.31881226410037
 51
90.69445187719943
  0
ARC
  5
AF6
  8
1
 10
12.5158206966
 20
-44.1073442162
 30
0.0
 40
0.5397579791454132
 50
357.3466499737992
 51
85.83742202690154
  0
ARC
  5
AF7
  8
1
 10
12.54139279200001
 20
44.09944295630001
 30
0.0
 40
0.4858431210597904
 50
271.6049163143007
 51
333.441972537701
  0
POLYLINE
  5
AF8
  8
1
 66
     1
 10
0.0
 20
0.0
 30
0.0
  0
VERTEX
  5
1015
  8
1
 10
13.05500000000001
 20
44.14662312639999
 30
0.0
  0
VERTEX
  5
1016
  8
1
 10
13.03542892280001
 20
44.01594229719998
 30
0.0
  0
VERTEX
  5
1017
  8
1
 10
12.97787844319998
 20
43.88571451269999
 30
0.0
  0
SEQEND
  5
1546
  8
1
  0
ARC
  5
AF9
  8
1
 10
9.744214343399989
 20
-44.10737531749999
 30
0.0
 40
0.5397915428070933
 50
94.16604783349855
 51
182.6498801657025
  0
POLYLINE
  5
AFA
  8
1
 66
     1
 10
0.0
 20
0.0
 30
0.0
  0
VERTEX
  5
1018
  8
1
 10
9.280099379399985
 20
43.88913247470001
 30
0.0
  0
VERTEX
  5
1019
  8
1
 10
9.224055884099982
 20
44.0177026321
 30
0.0
  0
VERTEX
  5
101A
  8
1
 10
9.204999999999984
 20
44.14662312639999
 30
0.0
  0
SEQEND
  5
1545
  8
1
  0
ARC
  5
AFB
  8
1
 10
9.721350266000002
 20
44.10422581969999
 30
0.0
 40
0.4907078648052702
 50
206.0244317763009
 51
268.0905652222996
  0
LINE
  5
AFC
  8
1
 10
12.55500000000001
 20
43.613790424
 30
0.0
 11
9.704999999999984
 21
43.613790424
 31
0.0
  0
LINE
  5
AFD
  8
1
 10
9.704999999999984
 20
-43.5690100651
 30
0.0
 11
12.55500000000001
 21
-43.5690100651
 31
0.0
  0
LINE
  5
B00
  8
1
 10
0.2999999999999829
 20
34.625
 30
0.0
 11
0.2999999999999829
 21
-34.625
 31
0.0
  0
LINE
  5
B01
  8
1
 10
0.0
 20
34.92499999999998
 30
0.0
 11
0.0
 21
-34.92500000000001
 31
0.0
  0
LINE
  5
B02
  8
1
 10
35.05
 20
34.42499999999998
 30
0.0
 11
35.05
 21
-34.42500000000001
 31
0.0
  0
LINE
  5
B04
  8
1
 10
14.68806954670001
 20
-47.29184187660002
 30
0.0
 11
14.65616694420001
 21
-47.282880439
 31
0.0
  0
LINE
  5
B13
  8
3
 10
1.5
 20
-35.30000000000001
 30
0.0
 11
3.699999999999989
 21
-35.30000000000001
 31
0.0
  0
LINE
  5
B14
  8
3
 10
1.5
 20
37.72
 30
0.0
 11
3.699999999999989
 21
37.72
 31
0.0
  0
LINE
  5
B1A
  8
3
 10
18.25
 20
37.72
 30
0.0
 11
19.04999999999998
 21
37.72
 31
0.0
  0
LINE
  5
B1D
  8
3
 10
19.04999999999998
 20
-35.30000000000001
 30
0.0
 11
18.25
 21
-35.30000000000001
 31
0.0
  0
LINE
  5
B30
  8
3
 10
3.699999999999989
 20
37.72
 30
0.0
 11
18.25
 21
37.72
 31
0.0
  0
LINE
  5
B3B
  8
3
 10
3.699999999999989
 20
-35.30000000000001
 30
0.0
 11
18.25
 21
-35.30000000000001
 31
0.0
  0
LINE
  5
B42
  8
3
 10
26.97499999999999
 20
28.32499999999999
 30
0.0
 11
33.32499999999999
 21
28.32499999999999
 31
0.0
  0
LINE
  5
B43
  8
3
 10
20.625
 20
28.32499999999999
 30
0.0
 11
26.97499999999999
 21
28.32499999999999
 31
0.0
  0
LINE
  5
B44
  8
3
 10
11.375
 20
37.31999999999999
 30
0.0
 11
16.125
 21
37.31999999999999
 31
0.0
  0
LINE
  5
B45
  8
3
 10
6.625
 20
37.31999999999999
 30
0.0
 11
11.375
 21
37.31999999999999
 31
0.0
  0
LINE
  5
B55
  8
3
 10
20.625
 20
28.32499999999999
 30
0.0
 11
26.97499999999999
 21
24.50953506919998
 31
0.0
  0
LINE
  5
B56
  8
3
 10
26.97499999999999
 20
24.50953506919998
 30
0.0
 11
33.32499999999999
 21
28.32499999999999
 31
0.0
  0
LINE
  5
B57
  8
3
 10
20.625
 20
34.92499999999998
 30
0.0
 11
20.625
 21
28.32499999999999
 31
0.0
  0
LINE
  5
B58
  8
3
 10
33.32499999999999
 20
28.32499999999999
 30
0.0
 11
33.32499999999999
 21
34.92499999999998
 31
0.0
  0
LINE
  5
B59
  8
3
 10
6.625
 20
37.72
 30
0.0
 11
6.625
 21
37.31999999999999
 31
0.0
  0
LINE
  5
B5A
  8
3
 10
16.125
 20
37.31999999999999
 30
0.0
 11
16.125
 21
37.72
 31
0.0
  0
LINE
  5
B5B
  8
1
 10
20.04999999999998
 20
-34.92500000000001
 30
0.0
 11
20.04999999999998
 21
34.92499999999998
 31
0.0
  0
LINE
  5
B5C
  8
1
 10
1.299999999999983
 20
-34.625
 30
0.0
 11
1.299999999999983
 21
34.625
 31
0.0
  0
LINE
  5
B5F
  8
1
 10
12.55500000000001
 20
-43.00413183130001
 30
0.0
 11
12.55500000000001
 21
42.79577481850001
 31
0.0
  0
LINE
  5
B60
  8
1
 10
9.704999999999984
 20
-43.00421493109999
 30
0.0
 11
9.704999999999984
 21
42.7957705776
 31
0.0
  0
LINE
  5
B62
  8
1
 10
18.25
 20
47.3314147463
 30
0.0
 11
18.25
 21
-47.29184187660002
 31
0.0
  0
LINE
  5
B64
  8
1
 10
2.299999999999983
 20
-46.74795854910002
 30
0.0
 11
2.299999999999983
 21
46.80267576719999
 31
0.0
  0
LINE
  5
C32
  8
1
 10
36.05000000000001
 20
-38.0
 30
0.0
 11
49.0
 21
-38.0
 31
0.0
  0
LINE
  5
C33
  8
1
 10
49.0
 20
38.0
 30
0.0
 11
36.05000000000001
 21
38.0
 31
0.0
  0
ARC
  5
C34
  8
1
 10
36.05000000000001
 20
37.0
 30
0.0
 40
1.0
 50
90.0
 51
180.0
  0
ARC
  5
C35
  8
1
 10
36.05000000000001
 20
-37.0
 30
0.0
 40
1.0
 50
180.0
 51
270.0
  0
ARC
  5
C36
  8
1
 10
49.0
 20
-37.0
 30
0.0
 40
1.0
 50
270.0
 51
0.0
  0
ARC
  5
C37
  8
1
 10
49.0
 20
37.0
 30
0.0
 40
1.0
 50
0.0
 51
90.0
  0
ARC
  5
C3C
  8
1
 10
34.65000000000001
 20
35.32499999999999
 30
0.0
 40
0.4000000000000341
 50
270.0
 51
0.0
  0
ARC
  5
C3D
  8
1
 10
34.65000000000001
 20
-35.32499999999999
 30
0.0
 40
0.4000000000000341
 50
0.0
 51
90.0
  0
LINE
  5
C5D
  8
1
 10
29.08563341199999
 20
1.116811119200008
 30
0.0
 11
30.5100035065
 21
1.350270253199994
 31
0.0
  0
LINE
  5
C5E
  8
1
 10
29.08563341199999
 20
1.116811119200008
 30
0.0
 11
28.57562990560001
 21
-0.2334591339999861
 31
0.0
  0
LINE
  5
C5F
  8
1
 10
29.48999649359999
 20
-1.350270253300039
 30
0.0
 11
28.57562990560001
 21
-0.2334591339999861
 31
0.0
  0
LINE
  5
C60
  8
1
 10
29.48999649359999
 20
-1.350270253300039
 30
0.0
 11
30.91436658809999
 21
-1.116811119200008
 31
0.0
  0
CIRCLE
  5
C61
  8
1
 10
30.0
 20
0.0
 30
0.0
 40
2.055000000000014
  0
LINE
  5
C62
  8
1
 10
30.91436658809999
 20
-1.116811119200008
 30
0.0
 11
31.42437009450001
 21
0.2334591339999861
 31
0.0
  0
LINE
  5
C63
  8
1
 10
30.5100035065
 20
1.350270253199994
 30
0.0
 11
31.42437009450001
 21
0.2334591339999861
 31
0.0
  0
CIRCLE
  5
C64
  8
1
 10
30.0
 20
0.0
 30
0.0
 40
2.256103126842042
  0
LINE
  5
C83
  8
1
 10
35.05000000000001
 20
-37.0
 30
0.0
 11
35.05000000000001
 21
37.0
 31
0.0
  0
LINE
  5
C84
  8
1
 10
50.0
 20
0.0
 30
0.0
 11
50.0
 21
37.0
 31
0.0
  0
LINE
  5
C85
  8
1
 10
50.0
 20
-37.0
 30
0.0
 11
50.0
 21
0.0
 31
0.0
  0
CIRCLE
  5
C89
  8
1
 10
30.0
 20
0.0
 30
0.0
 40
2.624999999999915
  0
LINE
  5
CA1
  8
3
 10
39.26244998000001
 20
-18.39087000000001
 30
0.0
 11
39.26244998000001
 21
-32.40913
 31
0.0
  0
LINE
  5
CA2
  8
3
 10
37.19999999999999
 20
-18.65000000000003
 30
0.0
 11
37.19999999999999
 21
-32.15000000000003
 31
0.0
  0
LINE
  5
CA3
  8
3
 10
38.12976581769999
 20
-18.40087
 30
0.0
 11
38.12976581769999
 21
-32.39913000000001
 31
0.0
  0
LINE
  5
CA4
  8
3
 10
39.26244998000001
 20
32.40913
 30
0.0
 11
39.26244998000001
 21
18.39087000000001
 31
0.0
  0
LINE
  5
CA5
  8
3
 10
38.12976581769999
 20
32.39913000000001
 30
0.0
 11
38.12976581769999
 21
18.40087
 31
0.0
  0
LINE
  5
CA6
  8
3
 10
37.19999999999999
 20
32.14999999999998
 30
0.0
 11
37.19999999999999
 21
18.64999999999998
 31
0.0
  0
POLYLINE
  5
CA7
  8
3
 66
     1
 10
0.0
 20
0.0
 30
0.0
  0
VERTEX
  5
101B
  8
3
 10
31.60807790710001
 20
27.3676370801
 30
0.0
  0
VERTEX
  5
101C
  8
3
 10
31.2214841139
 20
27.08621963999997
 30
0.0
  0
VERTEX
  5
101D
  8
3
 10
30.64893043710001
 20
26.90019534679999
 30
0.0
  0
VERTEX
  5
101E
  8
3
 10
29.9775829838
 20
26.83788471299999
 30
0.0
  0
VERTEX
  5
101F
  8
3
 10
29.30964831809999
 20
26.9087739675
 30
0.0
  0
VERTEX
  5
1020
  8
3
 10
28.7468134378
 20
27.10207086420002
 30
0.0
  0
VERTEX
  5
1021
  8
3
 10
28.37476485159999
 20
27.38834770260002
 30
0.0
  0
VERTEX
  5
1022
  8
3
 10
28.2501435838
 20
27.72402142919998
 30
0.0
  0
VERTEX
  5
1023
  8
3
 10
28.39192209300001
 20
28.05798876209997
 30
0.0
  0
VERTEX
  5
1024
  8
3
 10
28.77851588620001
 20
28.3394062022
 30
0.0
  0
VERTEX
  5
1025
  8
3
 10
29.35106956300001
 20
28.52543049529999
 30
0.0
  0
VERTEX
  5
1026
  8
3
 10
30.02241701630001
 20
28.58774112919997
 30
0.0
  0
VERTEX
  5
1027
  8
3
 10
30.690351682
 20
28.51685187459998
 30
0.0
  0
VERTEX
  5
1028
  8
3
 10
31.2531865622
 20
28.323554978
 30
0.0
  0
VERTEX
  5
1029
  8
3
 10
31.6252351485
 20
28.03727813960001
 30
0.0
  0
VERTEX
  5
102A
  8
3
 10
31.74985641629999
 20
27.70160441299998
 30
0.0
  0
VERTEX
  5
102B
  8
3
 10
31.60807790710001
 20
27.3676370801
 30
0.0
  0
SEQEND
  5
1544
  8
3
  0
POLYLINE
  5
CA8
  8
3
 66
     1
 10
0.0
 20
0.0
 30
0.0
  0
VERTEX
  5
102C
  8
3
 10
29.0860798022
 20
27.13919309080001
 30
0.0
  0
VERTEX
  5
102D
  8
3
 10
28.4443621952
 20
27.34524126309998
 30
0.0
  0
VERTEX
  5
102E
  8
3
 10
27.97122208249999
 20
27.64430786029999
 30
0.0
  0
VERTEX
  5
102F
  8
3
 10
27.71793153690001
 20
28.00398437609999
 30
0.0
  0
VERTEX
  5
1030
  8
3
 10
27.7119385192
 20
28.38529427899999
 30
0.0
  0
VERTEX
  5
1031
  8
3
 10
27.9538924659
 20
28.74691672439997
 30
0.0
  0
VERTEX
  5
1032
  8
3
 10
28.41757391260001
 20
29.0496643093
 30
0.0
  0
VERTEX
  5
1033
  8
3
 10
29.05273577970001
 20
29.26072963510001
 30
0.0
  0
VERTEX
  5
1034
  8
3
 10
29.7905484234
 20
29.35724049879997
 30
0.0
  0
VERTEX
  5
1035
  8
3
 10
30.55105839539999
 20
29.3287384509
 30
0.0
  0
VERTEX
  5
1036
  8
3
 10
31.25185263969999
 20
29.1783121304
 30
0.0
  0
VERTEX
  5
1037
  8
3
 10
31.816989226
 20
28.92226256329997
 30
0.0
  0
VERTEX
  5
1038
  8
3
 10
32.1852268362
 20
28.58833669309996
 30
0.0
  0
VERTEX
  5
1039
  8
3
 10
32.3166612114
 20
28.21272056949999
 30
0.0
  0
VERTEX
  5
103A
  8
3
 10
32.1970493977
 20
27.83611802749999
 30
0.0
  0
VERTEX
  5
103B
  8
3
 10
31.83935319100001
 20
27.49933979619999
 30
0.0
  0
VERTEX
  5
103C
  8
3
 10
31.2823345255
 20
27.23888102270001
 30
0.0
  0
VERTEX
  5
103D
  8
3
 10
30.5863550167
 20
27.0829664565
 30
0.0
  0
VERTEX
  5
103E
  8
3
 10
29.8268348437
 20
27.04849186000001
 30
0.0
  0
VERTEX
  5
103F
  8
3
 10
29.0860798022
 20
27.13919309080001
 30
0.0
  0
SEQEND
  5
1543
  8
3
  0
POLYLINE
  5
CA9
  8
3
 66
     1
 10
0.0
 20
0.0
 30
0.0
  0
VERTEX
  5
1040
  8
3
 10
30.81067011799999
 20
29.30650341640001
 30
0.0
  0
VERTEX
  5
1041
  8
3
 10
31.40763204180001
 20
29.11093015529997
 30
0.0
  0
VERTEX
  5
1042
  8
3
 10
31.8348127669
 20
28.82506490369997
 30
0.0
  0
VERTEX
  5
1043
  8
3
 10
32.04068799340001
 20
28.48338722979997
 30
0.0
  0
VERTEX
  5
1044
  8
3
 10
32.00042613049999
 20
28.1271085038
 30
0.0
  0
VERTEX
  5
1045
  8
3
 10
31.71888335310001
 20
27.79920119799999
 30
0.0
  0
VERTEX
  5
1046
  8
3
 10
31.23001787539999
 20
27.53921577299997
 30
0.0
  0
VERTEX
  5
1047
  8
3
 10
30.5927940887
 20
27.37851030799999
 30
0.0
  0
VERTEX
  5
1048
  8
3
 10
29.8840705863
 20
27.33646825379998
 30
0.0
  0
VERTEX
  5
1049
  8
3
 10
29.1893298821
 20
27.4181605027
 30
0.0
  0
VERTEX
  5
104A
  8
3
 10
28.5923679583
 20
27.6137337637
 30
0.0
  0
VERTEX
  5
104B
  8
3
 10
28.16518723320002
 20
27.89959901539999
 30
0.0
  0
VERTEX
  5
104C
  8
3
 10
27.9593120067
 20
28.24127668919999
 30
0.0
  0
VERTEX
  5
104D
  8
3
 10
27.9995738696
 20
28.59755541530001
 30
0.0
  0
VERTEX
  5
104E
  8
3
 10
28.28111664689999
 20
28.92546272109996
 30
0.0
  0
VERTEX
  5
104F
  8
3
 10
28.76998212469999
 20
29.18544814609999
 30
0.0
  0
VERTEX
  5
1050
  8
3
 10
29.40720591140001
 20
29.34615361109996
 30
0.0
  0
VERTEX
  5
1051
  8
3
 10
30.11592941379999
 20
29.38819566529997
 30
0.0
  0
VERTEX
  5
1052
  8
3
 10
30.81067011799999
 20
29.30650341640001
 30
0.0
  0
SEQEND
  5
1542
  8
3
  0
POLYLINE
  5
CAA
  8
3
 66
     1
 10
0.0
 20
0.0
 30
0.0
  0
VERTEX
  5
1053
  8
3
 10
30.9862166886
 20
29.78080593059997
 30
0.0
  0
VERTEX
  5
1054
  8
3
 10
31.6478383818
 20
29.57220926159999
 30
0.0
  0
VERTEX
  5
1055
  8
3
 10
32.1481581731
 20
29.27159586670001
 30
0.0
  0
VERTEX
  5
1056
  8
3
 10
32.4382012753
 20
28.90839187950002
 30
0.0
  0
VERTEX
  5
1057
  8
3
 10
32.48957624869999
 20
28.5181502369
 30
0.0
  0
VERTEX
  5
1058
  8
3
 10
32.29725415300001
 20
28.13907050989997
 30
0.0
  0
VERTEX
  5
1059
  8
3
 10
31.88006081489999
 20
27.80825966329996
 30
0.0
  0
VERTEX
  5
105A
  8
3
 10
31.2788340251
 20
27.55809976770001
 30
0.0
  0
VERTEX
  5
105B
  8
3
 10
30.55242605070001
 20
27.41307821660001
 30
0.0
  0
VERTEX
  5
105C
  8
3
 10
29.77194276560002
 20
27.38739072990001
 30
0.0
  0
VERTEX
  5
105D
  8
3
 10
29.01378331149999
 20
27.48355177769997
 30
0.0
  0
VERTEX
  5
105E
  8
3
 10
28.35216161830002
 20
27.6921484467
 30
0.0
  0
VERTEX
  5
105F
  8
3
 10
27.85184182700002
 20
27.99276184169997
 30
0.0
  0
VERTEX
  5
1060
  8
3
 10
27.56179872480001
 20
28.35596582879998
 30
0.0
  0
VERTEX
  5
1061
  8
3
 10
27.5104237514
 20
28.7462074714
 30
0.0
  0
VERTEX
  5
1062
  8
3
 10
27.7027458471
 20
29.12528719839997
 30
0.0
  0
VERTEX
  5
1063
  8
3
 10
28.1199391852
 20
29.45609804509996
 30
0.0
  0
VERTEX
  5
1064
  8
3
 10
28.72116597499999
 20
29.70625794069997
 30
0.0
  0
VERTEX
  5
1065
  8
3
 10
29.44757394929999
 20
29.85127949179997
 30
0.0
  0
VERTEX
  5
1066
  8
3
 10
30.2280572345
 20
29.87696697849998
 30
0.0
  0
VERTEX
  5
1067
  8
3
 10
30.9862166886
 20
29.78080593059997
 30
0.0
  0
SEQEND
  5
1541
  8
3
  0
POLYLINE
  5
CAB
  8
3
 66
     1
 10
0.0
 20
0.0
 30
0.0
  0
VERTEX
  5
1068
  8
3
 10
30.9862166886
 20
29.85884548199999
 30
0.0
  0
VERTEX
  5
1069
  8
3
 10
31.6478383818
 20
29.65024881299996
 30
0.0
  0
VERTEX
  5
106A
  8
3
 10
32.1481581731
 20
29.34963541799999
 30
0.0
  0
VERTEX
  5
106B
  8
3
 10
32.4382012753
 20
28.98643143089998
 30
0.0
  0
VERTEX
  5
106C
  8
3
 10
32.48957624869999
 20
28.59618978829997
 30
0.0
  0
VERTEX
  5
106D
  8
3
 10
32.29725415300001
 20
28.21711006129999
 30
0.0
  0
VERTEX
  5
106E
  8
3
 10
31.88006081489999
 20
27.8862992146
 30
0.0
  0
VERTEX
  5
106F
  8
3
 10
31.2788340251
 20
27.63613931899999
 30
0.0
  0
VERTEX
  5
1070
  8
3
 10
30.55242605070001
 20
27.49111776789999
 30
0.0
  0
VERTEX
  5
1071
  8
3
 10
29.77194276560002
 20
27.46543028119999
 30
0.0
  0
VERTEX
  5
1072
  8
3
 10
29.01378331149999
 20
27.5615913291
 30
0.0
  0
VERTEX
  5
1073
  8
3
 10
28.35216161830002
 20
27.77018799809997
 30
0.0
  0
VERTEX
  5
1074
  8
3
 10
27.85184182700002
 20
28.07080139300001
 30
0.0
  0
VERTEX
  5
1075
  8
3
 10
27.56179872480001
 20
28.43400538020001
 30
0.0
  0
VERTEX
  5
1076
  8
3
 10
27.5104237514
 20
28.82424702279997
 30
0.0
  0
VERTEX
  5
1077
  8
3
 10
27.7027458471
 20
29.2033267498
 30
0.0
  0
VERTEX
  5
1078
  8
3
 10
28.1199391852
 20
29.5341375964
 30
0.0
  0
VERTEX
  5
1079
  8
3
 10
28.72116597499999
 20
29.78429749200001
 30
0.0
  0
VERTEX
  5
107A
  8
3
 10
29.44757394929999
 20
29.92931904310001
 30
0.0
  0
VERTEX
  5
107B
  8
3
 10
30.2280572345
 20
29.95500652980002
 30
0.0
  0
VERTEX
  5
107C
  8
3
 10
30.9862166886
 20
29.85884548199999
 30
0.0
  0
SEQEND
  5
1540
  8
3
  0
POLYLINE
  5
CAC
  8
3
 66
     1
 10
0.0
 20
0.0
 30
0.0
  0
VERTEX
  5
107D
  8
3
 10
30.81067011799999
 20
29.92423675699996
 30
0.0
  0
VERTEX
  5
107E
  8
3
 10
31.40763204180001
 20
29.72866349589998
 30
0.0
  0
VERTEX
  5
107F
  8
3
 10
31.8348127669
 20
29.44279824429998
 30
0.0
  0
VERTEX
  5
1080
  8
3
 10
32.04068799340001
 20
29.10112057039998
 30
0.0
  0
VERTEX
  5
1081
  8
3
 10
32.00042613049999
 20
28.74484184440001
 30
0.0
  0
VERTEX
  5
1082
  8
3
 10
31.71888335310001
 20
28.4169345386
 30
0.0
  0
VERTEX
  5
1083
  8
3
 10
31.23001787539999
 20
28.15694911359998
 30
0.0
  0
VERTEX
  5
1084
  8
3
 10
30.5927940887
 20
27.9962436486
 30
0.0
  0
VERTEX
  5
1085
  8
3
 10
29.8840705863
 20
27.95420159439999
 30
0.0
  0
VERTEX
  5
1086
  8
3
 10
29.1893298821
 20
28.03589384330002
 30
0.0
  0
VERTEX
  5
1087
  8
3
 10
28.5923679583
 20
28.2314671044
 30
0.0
  0
VERTEX
  5
1088
  8
3
 10
28.16518723320002
 20
28.517332356
 30
0.0
  0
VERTEX
  5
1089
  8
3
 10
27.9593120067
 20
28.85901002989999
 30
0.0
  0
VERTEX
  5
108A
  8
3
 10
27.9995738696
 20
29.21528875589996
 30
0.0
  0
VERTEX
  5
108B
  8
3
 10
28.28111664689999
 20
29.54319606169997
 30
0.0
  0
VERTEX
  5
108C
  8
3
 10
28.76998212469999
 20
29.8031814867
 30
0.0
  0
VERTEX
  5
108D
  8
3
 10
29.40720591140001
 20
29.96388695169998
 30
0.0
  0
VERTEX
  5
108E
  8
3
 10
30.11592941379999
 20
30.00592900589999
 30
0.0
  0
VERTEX
  5
108F
  8
3
 10
30.81067011799999
 20
29.92423675699996
 30
0.0
  0
SEQEND
  5
153F
  8
3
  0
POLYLINE
  5
CAD
  8
3
 66
     1
 10
0.0
 20
0.0
 30
0.0
  0
VERTEX
  5
1090
  8
3
 10
30.9862166886
 20
30.39853927119998
 30
0.0
  0
VERTEX
  5
1091
  8
3
 10
31.6478383818
 20
30.18994260220001
 30
0.0
  0
VERTEX
  5
1092
  8
3
 10
32.1481581731
 20
29.88932920729997
 30
0.0
  0
VERTEX
  5
1093
  8
3
 10
32.4382012753
 20
29.52612522009997
 30
0.0
  0
VERTEX
  5
1094
  8
3
 10
32.48957624869999
 20
29.13588357750001
 30
0.0
  0
VERTEX
  5
1095
  8
3
 10
32.29725415300001
 20
28.75680385049998
 30
0.0
  0
VERTEX
  5
1096
  8
3
 10
31.88006081489999
 20
28.42599300389998
 30
0.0
  0
VERTEX
  5
1097
  8
3
 10
31.2788340251
 20
28.17583310829997
 30
0.0
  0
VERTEX
  5
1098
  8
3
 10
30.55242605070001
 20
28.03081155719997
 30
0.0
  0
VERTEX
  5
1099
  8
3
 10
29.77194276560002
 20
28.00512407049996
 30
0.0
  0
VERTEX
  5
109A
  8
3
 10
29.01378331149999
 20
28.10128511829998
 30
0.0
  0
VERTEX
  5
109B
  8
3
 10
28.35216161830002
 20
28.3098817874
 30
0.0
  0
VERTEX
  5
109C
  8
3
 10
27.85184182700002
 20
28.61049518229999
 30
0.0
  0
VERTEX
  5
109D
  8
3
 10
27.56179872480001
 20
28.97369916939999
 30
0.0
  0
VERTEX
  5
109E
  8
3
 10
27.5104237514
 20
29.36394081200001
 30
0.0
  0
VERTEX
  5
109F
  8
3
 10
27.7027458471
 20
29.74302053909997
 30
0.0
  0
VERTEX
  5
10A0
  8
3
 10
28.1199391852
 20
30.07383138569998
 30
0.0
  0
VERTEX
  5
10A1
  8
3
 10
28.72116597499999
 20
30.32399128129998
 30
0.0
  0
VERTEX
  5
10A2
  8
3
 10
29.44757394929999
 20
30.46901283239998
 30
0.0
  0
VERTEX
  5
10A3
  8
3
 10
30.2280572345
 20
30.49470031909999
 30
0.0
  0
VERTEX
  5
10A4
  8
3
 10
30.9862166886
 20
30.39853927119998
 30
0.0
  0
SEQEND
  5
153E
  8
3
  0
POLYLINE
  5
CAE
  8
3
 66
     1
 10
0.0
 20
0.0
 30
0.0
  0
VERTEX
  5
10A5
  8
3
 10
30.9862166886
 20
30.4765788226
 30
0.0
  0
VERTEX
  5
10A6
  8
3
 10
31.6478383818
 20
30.26798215359997
 30
0.0
  0
VERTEX
  5
10A7
  8
3
 10
32.1481581731
 20
29.96736875869999
 30
0.0
  0
VERTEX
  5
10A8
  8
3
 10
32.4382012753
 20
29.6041647715
 30
0.0
  0
VERTEX
  5
10A9
  8
3
 10
32.48957624869999
 20
29.21392312889998
 30
0.0
  0
VERTEX
  5
10AA
  8
3
 10
32.29725415300001
 20
28.8348434019
 30
0.0
  0
VERTEX
  5
10AB
  8
3
 10
31.88006081489999
 20
28.50403255520001
 30
0.0
  0
VERTEX
  5
10AC
  8
3
 10
31.2788340251
 20
28.25387265960001
 30
0.0
  0
VERTEX
  5
10AD
  8
3
 10
30.55242605070001
 20
28.10885110850001
 30
0.0
  0
VERTEX
  5
10AE
  8
3
 10
29.77194276560002
 20
28.0831636218
 30
0.0
  0
VERTEX
  5
10AF
  8
3
 10
29.01378331149999
 20
28.17932466970001
 30
0.0
  0
VERTEX
  5
10B0
  8
3
 10
28.35216161830002
 20
28.38792133869998
 30
0.0
  0
VERTEX
  5
10B1
  8
3
 10
27.85184182700002
 20
28.68853473359997
 30
0.0
  0
VERTEX
  5
10B2
  8
3
 10
27.56179872480001
 20
29.05173872079996
 30
0.0
  0
VERTEX
  5
10B3
  8
3
 10
27.5104237514
 20
29.44198036339998
 30
0.0
  0
VERTEX
  5
10B4
  8
3
 10
27.7027458471
 20
29.82106009040001
 30
0.0
  0
VERTEX
  5
10B5
  8
3
 10
28.1199391852
 20
30.15187093700001
 30
0.0
  0
VERTEX
  5
10B6
  8
3
 10
28.72116597499999
 20
30.40203083270001
 30
0.0
  0
VERTEX
  5
10B7
  8
3
 10
29.44757394929999
 20
30.54705238369996
 30
0.0
  0
VERTEX
  5
10B8
  8
3
 10
30.2280572345
 20
30.57273987050002
 30
0.0
  0
VERTEX
  5
10B9
  8
3
 10
30.9862166886
 20
30.4765788226
 30
0.0
  0
SEQEND
  5
153D
  8
3
  0
POLYLINE
  5
CAF
  8
3
 66
     1
 10
0.0
 20
0.0
 30
0.0
  0
VERTEX
  5
10BA
  8
3
 10
30.81067011799999
 20
30.54197009759997
 30
0.0
  0
VERTEX
  5
10BB
  8
3
 10
31.40763204180001
 20
30.34639683659998
 30
0.0
  0
VERTEX
  5
10BC
  8
3
 10
31.8348127669
 20
30.06053158489999
 30
0.0
  0
VERTEX
  5
10BD
  8
3
 10
32.04068799340001
 20
29.71885391109998
 30
0.0
  0
VERTEX
  5
10BE
  8
3
 10
32.00042613049999
 20
29.36257518499997
 30
0.0
  0
VERTEX
  5
10BF
  8
3
 10
31.71888335310001
 20
29.03466787920001
 30
0.0
  0
VERTEX
  5
10C0
  8
3
 10
31.23001787539999
 20
28.77468245419999
 30
0.0
  0
VERTEX
  5
10C1
  8
3
 10
30.5927940887
 20
28.61397698920001
 30
0.0
  0
VERTEX
  5
10C2
  8
3
 10
29.8840705863
 20
28.571934935
 30
0.0
  0
VERTEX
  5
10C3
  8
3
 10
29.1893298821
 20
28.65362718389997
 30
0.0
  0
VERTEX
  5
10C4
  8
3
 10
28.5923679583
 20
28.84920044500001
 30
0.0
  0
VERTEX
  5
10C5
  8
3
 10
28.16518723320002
 20
29.13506569660001
 30
0.0
  0
VERTEX
  5
10C6
  8
3
 10
27.9593120067
 20
29.4767433705
 30
0.0
  0
VERTEX
  5
10C7
  8
3
 10
27.9995738696
 20
29.83302209649997
 30
0.0
  0
VERTEX
  5
10C8
  8
3
 10
28.28111664689999
 20
30.16092940229998
 30
0.0
  0
VERTEX
  5
10C9
  8
3
 10
28.76998212469999
 20
30.42091482730001
 30
0.0
  0
VERTEX
  5
10CA
  8
3
 10
29.40720591140001
 20
30.58162029229999
 30
0.0
  0
VERTEX
  5
10CB
  8
3
 10
30.11592941379999
 20
30.6236623465
 30
0.0
  0
VERTEX
  5
10CC
  8
3
 10
30.81067011799999
 20
30.54197009759997
 30
0.0
  0
SEQEND
  5
153C
  8
3
  0
POLYLINE
  5
CB0
  8
3
 66
     1
 10
0.0
 20
0.0
 30
0.0
  0
VERTEX
  5
10CD
  8
3
 10
30.9862166886
 20
31.01627261189998
 30
0.0
  0
VERTEX
  5
10CE
  8
3
 10
31.6478383818
 20
30.80767594279996
 30
0.0
  0
VERTEX
  5
10CF
  8
3
 10
32.1481581731
 20
30.50706254789998
 30
0.0
  0
VERTEX
  5
10D0
  8
3
 10
32.4382012753
 20
30.14385856069998
 30
0.0
  0
VERTEX
  5
10D1
  8
3
 10
32.48957624869999
 20
29.75361691809997
 30
0.0
  0
VERTEX
  5
10D2
  8
3
 10
32.29725415300001
 20
29.37453719109999
 30
0.0
  0
VERTEX
  5
10D3
  8
3
 10
31.88006081489999
 20
29.04372634449999
 30
0.0
  0
VERTEX
  5
10D4
  8
3
 10
31.2788340251
 20
28.79356644889998
 30
0.0
  0
VERTEX
  5
10D5
  8
3
 10
30.55242605070001
 20
28.64854489779998
 30
0.0
  0
VERTEX
  5
10D6
  8
3
 10
29.77194276560002
 20
28.62285741109997
 30
0.0
  0
VERTEX
  5
10D7
  8
3
 10
29.01378331149999
 20
28.7190184589
 30
0.0
  0
VERTEX
  5
10D8
  8
3
 10
28.35216161830002
 20
28.92761512800001
 30
0.0
  0
VERTEX
  5
10D9
  8
3
 10
27.85184182700002
 20
29.2282285229
 30
0.0
  0
VERTEX
  5
10DA
  8
3
 10
27.56179872480001
 20
29.59143251
 30
0.0
  0
VERTEX
  5
10DB
  8
3
 10
27.5104237514
 20
29.98167415259996
 30
0.0
  0
VERTEX
  5
10DC
  8
3
 10
27.7027458471
 20
30.36075387969998
 30
0.0
  0
VERTEX
  5
10DD
  8
3
 10
28.1199391852
 20
30.69156472629999
 30
0.0
  0
VERTEX
  5
10DE
  8
3
 10
28.72116597499999
 20
30.94172462189999
 30
0.0
  0
VERTEX
  5
10DF
  8
3
 10
29.44757394929999
 20
31.08674617299999
 30
0.0
  0
VERTEX
  5
10E0
  8
3
 10
30.2280572345
 20
31.1124336597
 30
0.0
  0
VERTEX
  5
10E1
  8
3
 10
30.9862166886
 20
31.01627261189998
 30
0.0
  0
SEQEND
  5
153B
  8
3
  0
POLYLINE
  5
CB1
  8
3
 66
     1
 10
0.0
 20
0.0
 30
0.0
  0
VERTEX
  5
10E2
  8
3
 10
30.9862166886
 20
31.09431216320002
 30
0.0
  0
VERTEX
  5
10E3
  8
3
 10
31.6478383818
 20
30.88571549419999
 30
0.0
  0
VERTEX
  5
10E4
  8
3
 10
32.1481581731
 20
30.5851020993
 30
0.0
  0
VERTEX
  5
10E5
  8
3
 10
32.4382012753
 20
30.22189811210001
 30
0.0
  0
VERTEX
  5
10E6
  8
3
 10
32.48957624869999
 20
29.83165646949999
 30
0.0
  0
VERTEX
  5
10E7
  8
3
 10
32.29725415300001
 20
29.45257674250001
 30
0.0
  0
VERTEX
  5
10E8
  8
3
 10
31.88006081489999
 20
29.12176589579997
 30
0.0
  0
VERTEX
  5
10E9
  8
3
 10
31.2788340251
 20
28.87160600019996
 30
0.0
  0
VERTEX
  5
10EA
  8
3
 10
30.55242605070001
 20
28.72658444909996
 30
0.0
  0
VERTEX
  5
10EB
  8
3
 10
29.77194276560002
 20
28.70089696240001
 30
0.0
  0
VERTEX
  5
10EC
  8
3
 10
29.01378331149999
 20
28.79705801029996
 30
0.0
  0
VERTEX
  5
10ED
  8
3
 10
28.35216161830002
 20
29.00565467929999
 30
0.0
  0
VERTEX
  5
10EE
  8
3
 10
27.85184182700002
 20
29.30626807419998
 30
0.0
  0
VERTEX
  5
10EF
  8
3
 10
27.56179872480001
 20
29.66947206139997
 30
0.0
  0
VERTEX
  5
10F0
  8
3
 10
27.5104237514
 20
30.05971370399999
 30
0.0
  0
VERTEX
  5
10F1
  8
3
 10
27.7027458471
 20
30.43879343099997
 30
0.0
  0
VERTEX
  5
10F2
  8
3
 10
28.1199391852
 20
30.76960427759997
 30
0.0
  0
VERTEX
  5
10F3
  8
3
 10
28.72116597499999
 20
31.01976417329996
 30
0.0
  0
VERTEX
  5
10F4
  8
3
 10
29.44757394929999
 20
31.16478572429997
 30
0.0
  0
VERTEX
  5
10F5
  8
3
 10
30.2280572345
 20
31.19047321109997
 30
0.0
  0
VERTEX
  5
10F6
  8
3
 10
30.9862166886
 20
31.09431216320002
 30
0.0
  0
SEQEND
  5
153A
  8
3
  0
POLYLINE
  5
CB2
  8
3
 66
     1
 10
0.0
 20
0.0
 30
0.0
  0
VERTEX
  5
10F7
  8
3
 10
30.81067011799999
 20
31.15970343819998
 30
0.0
  0
VERTEX
  5
10F8
  8
3
 10
31.40763204180001
 20
30.96413017719999
 30
0.0
  0
VERTEX
  5
10F9
  8
3
 10
31.8348127669
 20
30.6782649255
 30
0.0
  0
VERTEX
  5
10FA
  8
3
 10
32.04068799340001
 20
30.3365872517
 30
0.0
  0
VERTEX
  5
10FB
  8
3
 10
32.00042613049999
 20
29.98030852559998
 30
0.0
  0
VERTEX
  5
10FC
  8
3
 10
31.71888335310001
 20
29.65240121979997
 30
0.0
  0
VERTEX
  5
10FD
  8
3
 10
31.23001787539999
 20
29.3924157948
 30
0.0
  0
VERTEX
  5
10FE
  8
3
 10
30.5927940887
 20
29.23171032979997
 30
0.0
  0
VERTEX
  5
10FF
  8
3
 10
29.8840705863
 20
29.18966827560001
 30
0.0
  0
VERTEX
  5
1100
  8
3
 10
29.1893298821
 20
29.27136052449998
 30
0.0
  0
VERTEX
  5
1101
  8
3
 10
28.5923679583
 20
29.46693378559996
 30
0.0
  0
VERTEX
  5
1102
  8
3
 10
28.16518723320002
 20
29.75279903719996
 30
0.0
  0
VERTEX
  5
1103
  8
3
 10
27.9593120067
 20
30.09447671110001
 30
0.0
  0
VERTEX
  5
1104
  8
3
 10
27.9995738696
 20
30.45075543709999
 30
0.0
  0
VERTEX
  5
1105
  8
3
 10
28.28111664689999
 20
30.7786627429
 30
0.0
  0
VERTEX
  5
1106
  8
3
 10
28.76998212469999
 20
31.03864816789996
 30
0.0
  0
VERTEX
  5
1107
  8
3
 10
29.40720591140001
 20
31.1993536329
 30
0.0
  0
VERTEX
  5
1108
  8
3
 10
30.11592941379999
 20
31.24139568710001
 30
0.0
  0
VERTEX
  5
1109
  8
3
 10
30.81067011799999
 20
31.15970343819998
 30
0.0
  0
SEQEND
  5
1539
  8
3
  0
POLYLINE
  5
CB3
  8
3
 66
     1
 10
0.0
 20
0.0
 30
0.0
  0
VERTEX
  5
110A
  8
3
 10
30.9862166886
 20
31.63400595249999
 30
0.0
  0
VERTEX
  5
110B
  8
3
 10
31.6478383818
 20
31.42540928339997
 30
0.0
  0
VERTEX
  5
110C
  8
3
 10
32.1481581731
 20
31.12479588849999
 30
0.0
  0
VERTEX
  5
110D
  8
3
 10
32.4382012753
 20
30.76159190129999
 30
0.0
  0
VERTEX
  5
110E
  8
3
 10
32.48957624869999
 20
30.37135025879996
 30
0.0
  0
VERTEX
  5
110F
  8
3
 10
32.29725415300001
 20
29.9922705317
 30
0.0
  0
VERTEX
  5
1110
  8
3
 10
31.88006081489999
 20
29.6614596851
 30
0.0
  0
VERTEX
  5
1111
  8
3
 10
31.2788340251
 20
29.41129978949999
 30
0.0
  0
VERTEX
  5
1112
  8
3
 10
30.55242605070001
 20
29.26627823839999
 30
0.0
  0
VERTEX
  5
1113
  8
3
 10
29.77194276560002
 20
29.24059075169998
 30
0.0
  0
VERTEX
  5
1114
  8
3
 10
29.01378331149999
 20
29.33675179950001
 30
0.0
  0
VERTEX
  5
1115
  8
3
 10
28.35216161830002
 20
29.54534846859997
 30
0.0
  0
VERTEX
  5
1116
  8
3
 10
27.85184182700002
 20
29.84596186350001
 30
0.0
  0
VERTEX
  5
1117
  8
3
 10
27.56179872480001
 20
30.20916585060002
 30
0.0
  0
VERTEX
  5
1118
  8
3
 10
27.5104237514
 20
30.59940749319998
 30
0.0
  0
VERTEX
  5
1119
  8
3
 10
27.7027458471
 20
30.9784872203
 30
0.0
  0
VERTEX
  5
111A
  8
3
 10
28.1199391852
 20
31.3092980669
 30
0.0
  0
VERTEX
  5
111B
  8
3
 10
28.72116597499999
 20
31.55945796250001
 30
0.0
  0
VERTEX
  5
111C
  8
3
 10
29.44757394929999
 20
31.70447951360001
 30
0.0
  0
VERTEX
  5
111D
  8
3
 10
30.2280572345
 20
31.73016700030001
 30
0.0
  0
VERTEX
  5
111E
  8
3
 10
30.9862166886
 20
31.63400595249999
 30
0.0
  0
SEQEND
  5
1538
  8
3
  0
POLYLINE
  5
CB4
  8
3
 66
     1
 10
0.0
 20
0.0
 30
0.0
  0
VERTEX
  5
111F
  8
3
 10
30.9862166886
 20
31.71204550379997
 30
0.0
  0
VERTEX
  5
1120
  8
3
 10
31.6478383818
 20
31.5034488348
 30
0.0
  0
VERTEX
  5
1121
  8
3
 10
32.1481581731
 20
31.20283543990001
 30
0.0
  0
VERTEX
  5
1122
  8
3
 10
32.4382012753
 20
30.83963145269996
 30
0.0
  0
VERTEX
  5
1123
  8
3
 10
32.48957624869999
 20
30.4493898101
 30
0.0
  0
VERTEX
  5
1124
  8
3
 10
32.29725415300001
 20
30.07031008309997
 30
0.0
  0
VERTEX
  5
1125
  8
3
 10
31.88006081489999
 20
29.73949923649997
 30
0.0
  0
VERTEX
  5
1126
  8
3
 10
31.2788340251
 20
29.48933934079997
 30
0.0
  0
VERTEX
  5
1127
  8
3
 10
30.55242605070001
 20
29.34431778969997
 30
0.0
  0
VERTEX
  5
1128
  8
3
 10
29.77194276560002
 20
29.31863030299996
 30
0.0
  0
VERTEX
  5
1129
  8
3
 10
29.01378331149999
 20
29.41479135089997
 30
0.0
  0
VERTEX
  5
112A
  8
3
 10
28.35216161830002
 20
29.62338801990001
 30
0.0
  0
VERTEX
  5
112B
  8
3
 10
27.85184182700002
 20
29.92400141479999
 30
0.0
  0
VERTEX
  5
112C
  8
3
 10
27.56179872480001
 20
30.28720540199998
 30
0.0
  0
VERTEX
  5
112D
  8
3
 10
27.5104237514
 20
30.6774470446
 30
0.0
  0
VERTEX
  5
112E
  8
3
 10
27.7027458471
 20
31.05652677159998
 30
0.0
  0
VERTEX
  5
112F
  8
3
 10
28.1199391852
 20
31.38733761819998
 30
0.0
  0
VERTEX
  5
1130
  8
3
 10
28.72116597499999
 20
31.63749751389997
 30
0.0
  0
VERTEX
  5
1131
  8
3
 10
29.44757394929999
 20
31.78251906499997
 30
0.0
  0
VERTEX
  5
1132
  8
3
 10
30.2280572345
 20
31.80820655169998
 30
0.0
  0
VERTEX
  5
1133
  8
3
 10
30.9862166886
 20
31.71204550379997
 30
0.0
  0
SEQEND
  5
1537
  8
3
  0
POLYLINE
  5
CB5
  8
3
 66
     1
 10
0.0
 20
0.0
 30
0.0
  0
VERTEX
  5
1134
  8
3
 10
30.81067011799999
 20
31.77743677879999
 30
0.0
  0
VERTEX
  5
1135
  8
3
 10
31.40763204180001
 20
31.5818635178
 30
0.0
  0
VERTEX
  5
1136
  8
3
 10
31.8348127669
 20
31.2959982662
 30
0.0
  0
VERTEX
  5
1137
  8
3
 10
32.04068799340001
 20
30.95432059230001
 30
0.0
  0
VERTEX
  5
1138
  8
3
 10
32.00042613049999
 20
30.59804186619999
 30
0.0
  0
VERTEX
  5
1139
  8
3
 10
31.71888335310001
 20
30.27013456039998
 30
0.0
  0
VERTEX
  5
113A
  8
3
 10
31.23001787539999
 20
30.01014913540001
 30
0.0
  0
VERTEX
  5
113B
  8
3
 10
30.5927940887
 20
29.84944367039998
 30
0.0
  0
VERTEX
  5
113C
  8
3
 10
29.8840705863
 20
29.80740161619997
 30
0.0
  0
VERTEX
  5
113D
  8
3
 10
29.1893298821
 20
29.88909386509999
 30
0.0
  0
VERTEX
  5
113E
  8
3
 10
28.5923679583
 20
30.08466712619997
 30
0.0
  0
VERTEX
  5
113F
  8
3
 10
28.16518723320002
 20
30.37053237779998
 30
0.0
  0
VERTEX
  5
1140
  8
3
 10
27.9593120067
 20
30.71221005169997
 30
0.0
  0
VERTEX
  5
1141
  8
3
 10
27.9995738696
 20
31.0684887777
 30
0.0
  0
VERTEX
  5
1142
  8
3
 10
28.28111664689999
 20
31.39639608350001
 30
0.0
  0
VERTEX
  5
1143
  8
3
 10
28.76998212469999
 20
31.65638150849998
 30
0.0
  0
VERTEX
  5
1144
  8
3
 10
29.40720591140001
 20
31.81708697350001
 30
0.0
  0
VERTEX
  5
1145
  8
3
 10
30.11592941379999
 20
31.85912902769996
 30
0.0
  0
VERTEX
  5
1146
  8
3
 10
30.81067011799999
 20
31.77743677879999
 30
0.0
  0
SEQEND
  5
1536
  8
3
  0
POLYLINE
  5
CB6
  8
3
 66
     1
 10
0.0
 20
0.0
 30
0.0
  0
VERTEX
  5
1147
  8
3
 10
30.9862166886
 20
32.2517392931
 30
0.0
  0
VERTEX
  5
1148
  8
3
 10
31.6478383818
 20
32.04314262399998
 30
0.0
  0
VERTEX
  5
1149
  8
3
 10
32.1481581731
 20
31.7425292291
 30
0.0
  0
VERTEX
  5
114A
  8
3
 10
32.4382012753
 20
31.37932524190001
 30
0.0
  0
VERTEX
  5
114B
  8
3
 10
32.48957624869999
 20
30.98908359939998
 30
0.0
  0
VERTEX
  5
114C
  8
3
 10
32.29725415300001
 20
30.61000387230001
 30
0.0
  0
VERTEX
  5
114D
  8
3
 10
31.88006081489999
 20
30.27919302570001
 30
0.0
  0
VERTEX
  5
114E
  8
3
 10
31.2788340251
 20
30.0290331301
 30
0.0
  0
VERTEX
  5
114F
  8
3
 10
30.55242605070001
 20
29.884011579
 30
0.0
  0
VERTEX
  5
1150
  8
3
 10
29.77194276560002
 20
29.85832409229999
 30
0.0
  0
VERTEX
  5
1151
  8
3
 10
29.01378331149999
 20
29.95448514009996
 30
0.0
  0
VERTEX
  5
1152
  8
3
 10
28.35216161830002
 20
30.16308180919998
 30
0.0
  0
VERTEX
  5
1153
  8
3
 10
27.85184182700002
 20
30.46369520409996
 30
0.0
  0
VERTEX
  5
1154
  8
3
 10
27.56179872480001
 20
30.82689919119997
 30
0.0
  0
VERTEX
  5
1155
  8
3
 10
27.5104237514
 20
31.21714083379999
 30
0.0
  0
VERTEX
  5
1156
  8
3
 10
27.7027458471
 20
31.59622056090001
 30
0.0
  0
VERTEX
  5
1157
  8
3
 10
28.1199391852
 20
31.92703140750001
 30
0.0
  0
VERTEX
  5
1158
  8
3
 10
28.72116597499999
 20
32.17719130309996
 30
0.0
  0
VERTEX
  5
1159
  8
3
 10
29.44757394929999
 20
32.32221285419996
 30
0.0
  0
VERTEX
  5
115A
  8
3
 10
30.2280572345
 20
32.34790034089997
 30
0.0
  0
VERTEX
  5
115B
  8
3
 10
30.9862166886
 20
32.2517392931
 30
0.0
  0
SEQEND
  5
1535
  8
3
  0
POLYLINE
  5
CB7
  8
3
 66
     1
 10
0.0
 20
0.0
 30
0.0
  0
VERTEX
  5
115C
  8
3
 10
30.9862166886
 20
32.32977884439998
 30
0.0
  0
VERTEX
  5
115D
  8
3
 10
31.6478383818
 20
32.12118217540001
 30
0.0
  0
VERTEX
  5
115E
  8
3
 10
32.1481581731
 20
31.82056878049997
 30
0.0
  0
VERTEX
  5
115F
  8
3
 10
32.4382012753
 20
31.45736479329997
 30
0.0
  0
VERTEX
  5
1160
  8
3
 10
32.48957624869999
 20
31.06712315070001
 30
0.0
  0
VERTEX
  5
1161
  8
3
 10
32.29725415300001
 20
30.68804342369998
 30
0.0
  0
VERTEX
  5
1162
  8
3
 10
31.88006081489999
 20
30.35723257709998
 30
0.0
  0
VERTEX
  5
1163
  8
3
 10
31.2788340251
 20
30.10707268139998
 30
0.0
  0
VERTEX
  5
1164
  8
3
 10
30.55242605070001
 20
29.96205113029998
 30
0.0
  0
VERTEX
  5
1165
  8
3
 10
29.77194276560002
 20
29.93636364359998
 30
0.0
  0
VERTEX
  5
1166
  8
3
 10
29.01378331149999
 20
30.03252469149999
 30
0.0
  0
VERTEX
  5
1167
  8
3
 10
28.35216161830002
 20
30.24112136049996
 30
0.0
  0
VERTEX
  5
1168
  8
3
 10
27.85184182700002
 20
30.5417347554
 30
0.0
  0
VERTEX
  5
1169
  8
3
 10
27.56179872480001
 20
30.9049387426
 30
0.0
  0
VERTEX
  5
116A
  8
3
 10
27.5104237514
 20
31.29518038520001
 30
0.0
  0
VERTEX
  5
116B
  8
3
 10
27.7027458471
 20
31.67426011219999
 30
0.0
  0
VERTEX
  5
116C
  8
3
 10
28.1199391852
 20
32.00507095879999
 30
0.0
  0
VERTEX
  5
116D
  8
3
 10
28.72116597499999
 20
32.25523085449998
 30
0.0
  0
VERTEX
  5
116E
  8
3
 10
29.44757394929999
 20
32.40025240559999
 30
0.0
  0
VERTEX
  5
116F
  8
3
 10
30.2280572345
 20
32.42593989229999
 30
0.0
  0
VERTEX
  5
1170
  8
3
 10
30.9862166886
 20
32.32977884439998
 30
0.0
  0
SEQEND
  5
1534
  8
3
  0
POLYLINE
  5
CB8
  8
3
 66
     1
 10
0.0
 20
0.0
 30
0.0
  0
VERTEX
  5
1171
  8
3
 10
30.81067011799999
 20
32.39517011940001
 30
0.0
  0
VERTEX
  5
1172
  8
3
 10
31.40763204180001
 20
32.19959685840001
 30
0.0
  0
VERTEX
  5
1173
  8
3
 10
31.8348127669
 20
31.91373160680001
 30
0.0
  0
VERTEX
  5
1174
  8
3
 10
32.04068799340001
 20
31.57205393289996
 30
0.0
  0
VERTEX
  5
1175
  8
3
 10
32.00042613049999
 20
31.2157752068
 30
0.0
  0
VERTEX
  5
1176
  8
3
 10
31.71888335310001
 20
30.88786790099999
 30
0.0
  0
VERTEX
  5
1177
  8
3
 10
31.23001787539999
 20
30.62788247599997
 30
0.0
  0
VERTEX
  5
1178
  8
3
 10
30.5927940887
 20
30.46717701099999
 30
0.0
  0
VERTEX
  5
1179
  8
3
 10
29.8840705863
 20
30.42513495679998
 30
0.0
  0
VERTEX
  5
117A
  8
3
 10
29.1893298821
 20
30.50682720570001
 30
0.0
  0
VERTEX
  5
117B
  8
3
 10
28.5923679583
 20
30.70240046679999
 30
0.0
  0
VERTEX
  5
117C
  8
3
 10
28.16518723320002
 20
30.98826571839999
 30
0.0
  0
VERTEX
  5
117D
  8
3
 10
27.9593120067
 20
31.32994339229998
 30
0.0
  0
VERTEX
  5
117E
  8
3
 10
27.9995738696
 20
31.68622211830001
 30
0.0
  0
VERTEX
  5
117F
  8
3
 10
28.28111664689999
 20
32.01412942409996
 30
0.0
  0
VERTEX
  5
1180
  8
3
 10
28.76998212469999
 20
32.27411484909999
 30
0.0
  0
VERTEX
  5
1181
  8
3
 10
29.40720591140001
 20
32.43482031409997
 30
0.0
  0
VERTEX
  5
1182
  8
3
 10
30.11592941379999
 20
32.47686236829998
 30
0.0
  0
VERTEX
  5
1183
  8
3
 10
30.81067011799999
 20
32.39517011940001
 30
0.0
  0
SEQEND
  5
1533
  8
3
  0
POLYLINE
  5
CB9
  8
3
 66
     1
 10
0.0
 20
0.0
 30
0.0
  0
VERTEX
  5
1184
  8
3
 10
30.9862166886
 20
32.86947263370001
 30
0.0
  0
VERTEX
  5
1185
  8
3
 10
31.6478383818
 20
32.6608759646
 30
0.0
  0
VERTEX
  5
1186
  8
3
 10
32.1481581731
 20
32.36026256970001
 30
0.0
  0
VERTEX
  5
1187
  8
3
 10
32.4382012753
 20
31.99705858249996
 30
0.0
  0
VERTEX
  5
1188
  8
3
 10
32.48957624869999
 20
31.60681693999999
 30
0.0
  0
VERTEX
  5
1189
  8
3
 10
32.29725415300001
 20
31.22773721289997
 30
0.0
  0
VERTEX
  5
118A
  8
3
 10
31.88006081489999
 20
30.89692636629997
 30
0.0
  0
VERTEX
  5
118B
  8
3
 10
31.2788340251
 20
30.64676647070002
 30
0.0
  0
VERTEX
  5
118C
  8
3
 10
30.55242605070001
 20
30.50174491960001
 30
0.0
  0
VERTEX
  5
118D
  8
3
 10
29.77194276560002
 20
30.47605743290001
 30
0.0
  0
VERTEX
  5
118E
  8
3
 10
29.01378331149999
 20
30.57221848069997
 30
0.0
  0
VERTEX
  5
118F
  8
3
 10
28.35216161830002
 20
30.78081514979999
 30
0.0
  0
VERTEX
  5
1190
  8
3
 10
27.85184182700002
 20
31.08142854469997
 30
0.0
  0
VERTEX
  5
1191
  8
3
 10
27.56179872480001
 20
31.44463253179998
 30
0.0
  0
VERTEX
  5
1192
  8
3
 10
27.5104237514
 20
31.8348741744
 30
0.0
  0
VERTEX
  5
1193
  8
3
 10
27.7027458471
 20
32.21395390149996
 30
0.0
  0
VERTEX
  5
1194
  8
3
 10
28.1199391852
 20
32.54476474809996
 30
0.0
  0
VERTEX
  5
1195
  8
3
 10
28.72116597499999
 20
32.79492464369997
 30
0.0
  0
VERTEX
  5
1196
  8
3
 10
29.44757394929999
 20
32.93994619479997
 30
0.0
  0
VERTEX
  5
1197
  8
3
 10
30.2280572345
 20
32.96563368149998
 30
0.0
  0
VERTEX
  5
1198
  8
3
 10
30.9862166886
 20
32.86947263370001
 30
0.0
  0
SEQEND
  5
1532
  8
3
  0
POLYLINE
  5
CBA
  8
3
 66
     1
 10
0.0
 20
0.0
 30
0.0
  0
VERTEX
  5
1199
  8
3
 10
30.9862166886
 20
32.94751218499999
 30
0.0
  0
VERTEX
  5
119A
  8
3
 10
31.6478383818
 20
32.73891551599996
 30
0.0
  0
VERTEX
  5
119B
  8
3
 10
32.1481581731
 20
32.43830212109998
 30
0.0
  0
VERTEX
  5
119C
  8
3
 10
32.4382012753
 20
32.07509813389998
 30
0.0
  0
VERTEX
  5
119D
  8
3
 10
32.48957624869999
 20
31.68485649129997
 30
0.0
  0
VERTEX
  5
119E
  8
3
 10
32.29725415300001
 20
31.30577676429999
 30
0.0
  0
VERTEX
  5
119F
  8
3
 10
31.88006081489999
 20
30.97496591769999
 30
0.0
  0
VERTEX
  5
11A0
  8
3
 10
31.2788340251
 20
30.724806022
 30
0.0
  0
VERTEX
  5
11A1
  8
3
 10
30.55242605070001
 20
30.57978447089999
 30
0.0
  0
VERTEX
  5
11A2
  8
3
 10
29.77194276560002
 20
30.55409698419999
 30
0.0
  0
VERTEX
  5
11A3
  8
3
 10
29.01378331149999
 20
30.6502580321
 30
0.0
  0
VERTEX
  5
11A4
  8
3
 10
28.35216161830002
 20
30.85885470109997
 30
0.0
  0
VERTEX
  5
11A5
  8
3
 10
27.85184182700002
 20
31.15946809600001
 30
0.0
  0
VERTEX
  5
11A6
  8
3
 10
27.56179872480001
 20
31.52267208320001
 30
0.0
  0
VERTEX
  5
11A7
  8
3
 10
27.5104237514
 20
31.91291372579997
 30
0.0
  0
VERTEX
  5
11A8
  8
3
 10
27.7027458471
 20
32.2919934528
 30
0.0
  0
VERTEX
  5
11A9
  8
3
 10
28.1199391852
 20
32.6228042994
 30
0.0
  0
VERTEX
  5
11AA
  8
3
 10
28.72116597499999
 20
32.8729641951
 30
0.0
  0
VERTEX
  5
11AB
  8
3
 10
29.44757394929999
 20
33.0179857462
 30
0.0
  0
VERTEX
  5
11AC
  8
3
 10
30.2280572345
 20
33.04367323290001
 30
0.0
  0
VERTEX
  5
11AD
  8
3
 10
30.9862166886
 20
32.94751218499999
 30
0.0
  0
SEQEND
  5
1531
  8
3
  0
POLYLINE
  5
CBB
  8
3
 66
     1
 10
0.0
 20
0.0
 30
0.0
  0
VERTEX
  5
11AE
  8
3
 10
30.81067011799999
 20
33.01290345999996
 30
0.0
  0
VERTEX
  5
11AF
  8
3
 10
31.40763204180001
 20
32.81733019899997
 30
0.0
  0
VERTEX
  5
11B0
  8
3
 10
31.8348127669
 20
32.53146494739997
 30
0.0
  0
VERTEX
  5
11B1
  8
3
 10
32.04068799340001
 20
32.18978727349997
 30
0.0
  0
VERTEX
  5
11B2
  8
3
 10
32.00042613049999
 20
31.83350854740002
 30
0.0
  0
VERTEX
  5
11B3
  8
3
 10
31.71888335310001
 20
31.5056012416
 30
0.0
  0
VERTEX
  5
11B4
  8
3
 10
31.23001787539999
 20
31.24561581659998
 30
0.0
  0
VERTEX
  5
11B5
  8
3
 10
30.5927940887
 20
31.0849103516
 30
0.0
  0
VERTEX
  5
11B6
  8
3
 10
29.8840705863
 20
31.04286829739999
 30
0.0
  0
VERTEX
  5
11B7
  8
3
 10
29.1893298821
 20
31.12456054629996
 30
0.0
  0
VERTEX
  5
11B8
  8
3
 10
28.5923679583
 20
31.3201338074
 30
0.0
  0
VERTEX
  5
11B9
  8
3
 10
28.16518723320002
 20
31.605999059
 30
0.0
  0
VERTEX
  5
11BA
  8
3
 10
27.9593120067
 20
31.94767673289999
 30
0.0
  0
VERTEX
  5
11BB
  8
3
 10
27.9995738696
 20
32.30395545889996
 30
0.0
  0
VERTEX
  5
11BC
  8
3
 10
28.28111664689999
 20
32.63186276469997
 30
0.0
  0
VERTEX
  5
11BD
  8
3
 10
28.76998212469999
 20
32.8918481897
 30
0.0
  0
VERTEX
  5
11BE
  8
3
 10
29.40720591140001
 20
33.05255365469998
 30
0.0
  0
VERTEX
  5
11BF
  8
3
 10
30.11592941379999
 20
33.09459570889999
 30
0.0
  0
VERTEX
  5
11C0
  8
3
 10
30.81067011799999
 20
33.01290345999996
 30
0.0
  0
SEQEND
  5
1530
  8
3
  0
POLYLINE
  5
CBC
  8
3
 66
     1
 10
0.0
 20
0.0
 30
0.0
  0
VERTEX
  5
11C1
  8
3
 10
30.9862166886
 20
33.48720597429997
 30
0.0
  0
VERTEX
  5
11C2
  8
3
 10
31.6478383818
 20
33.27860930520001
 30
0.0
  0
VERTEX
  5
11C3
  8
3
 10
32.1481581731
 20
32.97799591029997
 30
0.0
  0
VERTEX
  5
11C4
  8
3
 10
32.4382012753
 20
32.61479192309997
 30
0.0
  0
VERTEX
  5
11C5
  8
3
 10
32.48957624869999
 20
32.2245502806
 30
0.0
  0
VERTEX
  5
11C6
  8
3
 10
32.29725415300001
 20
31.84547055349998
 30
0.0
  0
VERTEX
  5
11C7
  8
3
 10
31.88006081489999
 20
31.51465970689998
 30
0.0
  0
VERTEX
  5
11C8
  8
3
 10
31.2788340251
 20
31.26449981129997
 30
0.0
  0
VERTEX
  5
11C9
  8
3
 10
30.55242605070001
 20
31.11947826019997
 30
0.0
  0
VERTEX
  5
11CA
  8
3
 10
29.77194276560002
 20
31.09379077349996
 30
0.0
  0
VERTEX
  5
11CB
  8
3
 10
29.01378331149999
 20
31.18995182129999
 30
0.0
  0
VERTEX
  5
11CC
  8
3
 10
28.35216161830002
 20
31.3985484904
 30
0.0
  0
VERTEX
  5
11CD
  8
3
 10
27.85184182700002
 20
31.69916188529999
 30
0.0
  0
VERTEX
  5
11CE
  8
3
 10
27.56179872480001
 20
32.06236587249998
 30
0.0
  0
VERTEX
  5
11CF
  8
3
 10
27.5104237514
 20
32.45260751500001
 30
0.0
  0
VERTEX
  5
11D0
  8
3
 10
27.7027458471
 20
32.83168724209997
 30
0.0
  0
VERTEX
  5
11D1
  8
3
 10
28.1199391852
 20
33.16249808869998
 30
0.0
  0
VERTEX
  5
11D2
  8
3
 10
28.72116597499999
 20
33.41265798429998
 30
0.0
  0
VERTEX
  5
11D3
  8
3
 10
29.44757394929999
 20
33.55767953539998
 30
0.0
  0
VERTEX
  5
11D4
  8
3
 10
30.2280572345
 20
33.58336702209999
 30
0.0
  0
VERTEX
  5
11D5
  8
3
 10
30.9862166886
 20
33.48720597429997
 30
0.0
  0
SEQEND
  5
152F
  8
3
  0
POLYLINE
  5
CBD
  8
3
 66
     1
 10
0.0
 20
0.0
 30
0.0
  0
VERTEX
  5
11D6
  8
3
 10
30.9862166886
 20
33.56524552560001
 30
0.0
  0
VERTEX
  5
11D7
  8
3
 10
31.6478383818
 20
33.35664885659997
 30
0.0
  0
VERTEX
  5
11D8
  8
3
 10
32.1481581731
 20
33.05603546169999
 30
0.0
  0
VERTEX
  5
11D9
  8
3
 10
32.4382012753
 20
32.6928314745
 30
0.0
  0
VERTEX
  5
11DA
  8
3
 10
32.48957624869999
 20
32.30258983189998
 30
0.0
  0
VERTEX
  5
11DB
  8
3
 10
32.29725415300001
 20
31.9235101049
 30
0.0
  0
VERTEX
  5
11DC
  8
3
 10
31.88006081489999
 20
31.5926992583
 30
0.0
  0
VERTEX
  5
11DD
  8
3
 10
31.2788340251
 20
31.34253936260001
 30
0.0
  0
VERTEX
  5
11DE
  8
3
 10
30.55242605070001
 20
31.19751781150001
 30
0.0
  0
VERTEX
  5
11DF
  8
3
 10
29.77194276560002
 20
31.1718303248
 30
0.0
  0
VERTEX
  5
11E0
  8
3
 10
29.01378331149999
 20
31.26799137270001
 30
0.0
  0
VERTEX
  5
11E1
  8
3
 10
28.35216161830002
 20
31.47658804169998
 30
0.0
  0
VERTEX
  5
11E2
  8
3
 10
27.85184182700002
 20
31.77720143659997
 30
0.0
  0
VERTEX
  5
11E3
  8
3
 10
27.56179872480001
 20
32.14040542379996
 30
0.0
  0
VERTEX
  5
11E4
  8
3
 10
27.5104237514
 20
32.53064706639998
 30
0.0
  0
VERTEX
  5
11E5
  8
3
 10
27.7027458471
 20
32.90972679340001
 30
0.0
  0
VERTEX
  5
11E6
  8
3
 10
28.1199391852
 20
33.24053764000001
 30
0.0
  0
VERTEX
  5
11E7
  8
3
 10
28.72116597499999
 20
33.49069753570001
 30
0.0
  0
VERTEX
  5
11E8
  8
3
 10
29.44757394929999
 20
33.63571908680001
 30
0.0
  0
VERTEX
  5
11E9
  8
3
 10
30.2280572345
 20
33.66140657349996
 30
0.0
  0
VERTEX
  5
11EA
  8
3
 10
30.9862166886
 20
33.56524552560001
 30
0.0
  0
SEQEND
  5
152E
  8
3
  0
POLYLINE
  5
CBE
  8
3
 66
     1
 10
0.0
 20
0.0
 30
0.0
  0
VERTEX
  5
11EB
  8
3
 10
30.81067011799999
 20
33.63063680059997
 30
0.0
  0
VERTEX
  5
11EC
  8
3
 10
31.40763204180001
 20
33.43506353959998
 30
0.0
  0
VERTEX
  5
11ED
  8
3
 10
31.8348127669
 20
33.14919828799998
 30
0.0
  0
VERTEX
  5
11EE
  8
3
 10
32.04068799340001
 20
32.80752061409999
 30
0.0
  0
VERTEX
  5
11EF
  8
3
 10
32.00042613049999
 20
32.45124188799997
 30
0.0
  0
VERTEX
  5
11F0
  8
3
 10
31.71888335310001
 20
32.12333458220002
 30
0.0
  0
VERTEX
  5
11F1
  8
3
 10
31.23001787539999
 20
31.86334915719999
 30
0.0
  0
VERTEX
  5
11F2
  8
3
 10
30.5927940887
 20
31.70264369220001
 30
0.0
  0
VERTEX
  5
11F3
  8
3
 10
29.8840705863
 20
31.660601638
 30
0.0
  0
VERTEX
  5
11F4
  8
3
 10
29.1893298821
 20
31.74229388689997
 30
0.0
  0
VERTEX
  5
11F5
  8
3
 10
28.5923679583
 20
31.93786714800001
 30
0.0
  0
VERTEX
  5
11F6
  8
3
 10
28.16518723320002
 20
32.22373239960001
 30
0.0
  0
VERTEX
  5
11F7
  8
3
 10
27.9593120067
 20
32.5654100735
 30
0.0
  0
VERTEX
  5
11F8
  8
3
 10
27.9995738696
 20
32.92168879959996
 30
0.0
  0
VERTEX
  5
11F9
  8
3
 10
28.28111664689999
 20
33.24959610529999
 30
0.0
  0
VERTEX
  5
11FA
  8
3
 10
28.76998212469999
 20
33.50958153030001
 30
0.0
  0
VERTEX
  5
11FB
  8
3
 10
29.40720591140001
 20
33.67028699539998
 30
0.0
  0
VERTEX
  5
11FC
  8
3
 10
30.11592941379999
 20
33.7123290495
 30
0.0
  0
VERTEX
  5
11FD
  8
3
 10
30.81067011799999
 20
33.63063680059997
 30
0.0
  0
SEQEND
  5
152D
  8
3
  0
LINE
  5
CBF
  8
3
 10
29.82994819250001
 20
31.28735840949997
 30
0.0
 11
28.6736796964
 21
30.85539298890001
 31
0.0
  0
POLYLINE
  5
CC0
  8
3
 66
     1
 10
0.0
 20
0.0
 30
0.0
  0
VERTEX
  5
11FE
  8
3
 10
30.890002622
 20
33.84498223589998
 30
0.0
  0
VERTEX
  5
11FF
  8
3
 10
30.16863337040002
 20
33.9333097873
 30
0.0
  0
VERTEX
  5
1200
  8
3
 10
29.4289900766
 20
33.89973740170001
 30
0.0
  0
VERTEX
  5
1201
  8
3
 10
28.751224568
 20
33.74790316819997
 30
0.0
  0
VERTEX
  5
1202
  8
3
 10
28.20878325430002
 20
33.49426068179997
 30
0.0
  0
VERTEX
  5
1203
  8
3
 10
27.86044806859999
 20
33.16629604159999
 30
0.0
  0
VERTEX
  5
1204
  8
3
 10
27.74396653330001
 20
32.79954930529999
 30
0.0
  0
VERTEX
  5
1205
  8
3
 10
27.87196123000001
 20
32.43376317249999
 30
0.0
  0
VERTEX
  5
1206
  8
3
 10
28.2305619473
 20
32.10857624620002
 30
0.0
  0
VERTEX
  5
1207
  8
3
 10
28.7809087334
 20
31.85922757599997
 30
0.0
  0
VERTEX
  5
1208
  8
3
 10
29.4633629743
 20
31.71273795909997
 30
0.0
  0
VERTEX
  5
1209
  8
3
 10
30.20397016379999
 20
31.68498181859997
 30
0.0
  0
VERTEX
  5
120A
  8
3
 10
30.92247402110002
 20
31.77896696300002
 30
0.0
  0
VERTEX
  5
120B
  8
3
 10
31.5410135045
 20
31.98450864349996
 30
0.0
  0
VERTEX
  5
120C
  8
3
 10
31.9925602635
 20
32.27933322989998
 30
0.0
  0
VERTEX
  5
120D
  8
3
 10
32.22818220010001
 20
32.63149190339999
 30
0.0
  0
VERTEX
  5
120E
  8
3
 10
32.2223460216
 20
33.00282280760001
 30
0.0
  0
VERTEX
  5
120F
  8
3
 10
31.97568416839999
 20
33.35308647699998
 30
0.0
  0
VERTEX
  5
1210
  8
3
 10
31.51492627959999
 20
33.6443264083
 30
0.0
  0
VERTEX
  5
1211
  8
3
 10
30.890002622
 20
33.84498223589998
 30
0.0
  0
SEQEND
  5
152C
  8
3
  0
LINE
  5
CC1
  8
3
 10
31.15626849610001
 20
31.00266217410001
 30
0.0
 11
29.82994819250001
 21
31.28735840949997
 31
0.0
  0
LINE
  5
CC2
  8
3
 10
29.82994819250001
 20
31.28735840949997
 30
0.0
 11
29.82994819250001
 21
33.62562699969999
 31
0.0
  0
LINE
  5
CC3
  8
3
 10
31.15626849610001
 20
33.34093076440001
 30
0.0
 11
29.82994819250001
 21
33.62562699969999
 31
0.0
  0
POLYLINE
  5
CC4
  8
3
 66
     1
 10
0.0
 20
0.0
 30
0.0
  0
VERTEX
  5
1212
  8
3
 10
31.88834291379999
 20
32.50363028480001
 30
0.0
  0
VERTEX
  5
1213
  8
3
 10
31.4971963916
 20
32.20514932290001
 30
0.0
  0
VERTEX
  5
1214
  8
3
 10
30.9254658884
 20
31.99155896029998
 30
0.0
  0
VERTEX
  5
1215
  8
3
 10
30.24211054060001
 20
31.88862134710001
 30
0.0
  0
VERTEX
  5
1216
  8
3
 10
29.52955308849999
 20
31.90875227859999
 30
0.0
  0
VERTEX
  5
1217
  8
3
 10
28.8737384769
 20
32.04952366719999
 30
0.0
  0
VERTEX
  5
1218
  8
3
 10
28.35376762690001
 20
32.29395640609999
 30
0.0
  0
VERTEX
  5
1219
  8
3
 10
28.0323566969
 20
32.61256829939998
 30
0.0
  0
VERTEX
  5
121A
  8
3
 10
27.94827258859999
 20
32.9669300507
 30
0.0
  0
VERTEX
  5
121B
  8
3
 10
28.1116570863
 20
33.31430040279997
 30
0.0
  0
VERTEX
  5
121C
  8
3
 10
28.5028036084
 20
33.61278136469997
 30
0.0
  0
VERTEX
  5
121D
  8
3
 10
29.07453411169999
 20
33.82637172720001
 30
0.0
  0
VERTEX
  5
121E
  8
3
 10
29.75788945939999
 20
33.92930934039998
 30
0.0
  0
VERTEX
  5
121F
  8
3
 10
30.47044691159999
 20
33.90917840899999
 30
0.0
  0
VERTEX
  5
1220
  8
3
 10
31.12626152320001
 20
33.7684070203
 30
0.0
  0
VERTEX
  5
1221
  8
3
 10
31.64623237320001
 20
33.52397428149999
 30
0.0
  0
VERTEX
  5
1222
  8
3
 10
31.96764330319999
 20
33.20536238810001
 30
0.0
  0
VERTEX
  5
1223
  8
3
 10
32.0517274115
 20
32.85100063689998
 30
0.0
  0
VERTEX
  5
1224
  8
3
 10
31.88834291379999
 20
32.50363028480001
 30
0.0
  0
SEQEND
  5
152B
  8
3
  0
LINE
  5
CC5
  8
3
 10
29.82994819250001
 20
33.62562699969999
 30
0.0
 11
28.6736796964
 21
33.19366157909997
 31
0.0
  0
LINE
  5
CC6
  8
3
 10
31.15626849610001
 20
33.34093076440001
 30
0.0
 11
31.3263203036
 21
32.62426910850002
 31
0.0
  0
LINE
  5
CC7
  8
3
 10
31.15626849610001
 20
31.00266217410001
 30
0.0
 11
31.15626849610001
 21
33.34093076440001
 31
0.0
  0
LINE
  5
CC8
  8
3
 10
31.15626849610001
 20
31.00266217410001
 30
0.0
 11
31.3263203036
 21
30.2860005183
 31
0.0
  0
LINE
  5
CC9
  8
3
 10
28.843731504
 20
30.13873133300001
 30
0.0
 11
28.843731504
 21
32.47699992319997
 31
0.0
  0
LINE
  5
CCA
  8
3
 10
28.843731504
 20
32.47699992319997
 30
0.0
 11
28.6736796964
 21
33.19366157909997
 31
0.0
  0
LINE
  5
CCB
  8
3
 10
28.843731504
 20
30.13873133300001
 30
0.0
 11
28.6736796964
 21
30.85539298890001
 31
0.0
  0
LINE
  5
CCC
  8
3
 10
28.6736796964
 20
30.85539298890001
 30
0.0
 11
28.6736796964
 21
33.19366157909997
 31
0.0
  0
LINE
  5
CCD
  8
3
 10
30.1700518076
 20
29.85403509769998
 30
0.0
 11
30.1700518076
 21
32.19230368789999
 31
0.0
  0
LINE
  5
CCE
  8
3
 10
31.3263203036
 20
30.2860005183
 30
0.0
 11
31.3263203036
 21
32.62426910850002
 31
0.0
  0
LINE
  5
CCF
  8
3
 10
30.1700518076
 20
32.19230368789999
 30
0.0
 11
31.3263203036
 21
32.62426910850002
 31
0.0
  0
LINE
  5
CD0
  8
3
 10
30.1700518076
 20
29.85403509769998
 30
0.0
 11
31.3263203036
 21
30.2860005183
 31
0.0
  0
LINE
  5
CD1
  8
3
 10
30.1700518076
 20
32.19230368789999
 30
0.0
 11
28.843731504
 21
32.47699992319997
 31
0.0
  0
LINE
  5
CD2
  8
3
 10
30.1700518076
 20
29.85403509769998
 30
0.0
 11
28.843731504
 21
30.13873133300001
 31
0.0
  0
POLYLINE
  5
CD3
  8
3
 66
     1
 10
0.0
 20
0.0
 30
0.0
  0
VERTEX
  5
1225
  8
3
 10
29.125
 20
-28.47058514939999
 30
0.0
  0
VERTEX
  5
1226
  8
3
 10
28.6116316545
 20
-28.24547917149999
 30
0.0
  0
VERTEX
  5
1227
  8
3
 10
28.309629804
 20
-27.93927958559999
 30
0.0
  0
VERTEX
  5
1228
  8
3
 10
28.26497149260001
 20
-27.59860250290001
 30
0.0
  0
VERTEX
  5
1229
  8
3
 10
28.4844555434
 20
-27.27531292110001
 30
0.0
  0
VERTEX
  5
122A
  8
3
 10
28.93466749929999
 20
-27.01862874840003
 30
0.0
  0
VERTEX
  5
122B
  8
3
 10
29.5470666711
 20
-26.86762782310001
 30
0.0
  0
VERTEX
  5
122C
  8
3
 10
30.22842083640001
 20
-26.84529866740002
 30
0.0
  0
VERTEX
  5
122D
  8
3
 10
30.875
 20
-26.95504069280003
 30
0.0
  0
VERTEX
  5
122E
  8
3
 10
31.38836834560001
 20
-27.18014667070003
 30
0.0
  0
VERTEX
  5
122F
  8
3
 10
31.69037019609999
 20
-27.48634625670002
 30
0.0
  0
VERTEX
  5
1230
  8
3
 10
31.73502850739999
 20
-27.82702333930001
 30
0.0
  0
VERTEX
  5
1231
  8
3
 10
31.51554445670001
 20
-28.15031292110001
 30
0.0
  0
VERTEX
  5
1232
  8
3
 10
31.0653325008
 20
-28.40699709390003
 30
0.0
  0
VERTEX
  5
1233
  8
3
 10
30.45293332899999
 20
-28.55799801910001
 30
0.0
  0
VERTEX
  5
1234
  8
3
 10
29.77157916370001
 20
-28.5803271748
 30
0.0
  0
VERTEX
  5
1235
  8
3
 10
29.125
 20
-28.47058514939999
 30
0.0
  0
SEQEND
  5
152A
  8
3
  0
POLYLINE
  5
CD4
  8
3
 66
     1
 10
0.0
 20
0.0
 30
0.0
  0
VERTEX
  5
1236
  8
3
 10
27.99365059039999
 20
-27.62443468830003
 30
0.0
  0
VERTEX
  5
1237
  8
3
 10
28.47848108159999
 20
-27.3300861367
 30
0.0
  0
VERTEX
  5
1238
  8
3
 10
29.12819175640001
 20
-27.13039830310004
 30
0.0
  0
VERTEX
  5
1239
  8
3
 10
29.87237638190001
 20
-27.04701046270003
 30
0.0
  0
VERTEX
  5
123A
  8
3
 10
30.63039100669999
 20
-27.08895898200001
 30
0.0
  0
VERTEX
  5
123B
  8
3
 10
31.32009298439999
 20
-27.25169808790002
 30
0.0
  0
VERTEX
  5
123C
  8
3
 10
31.86674240389999
 20
-27.5175924733
 30
0.0
  0
VERTEX
  5
123D
  8
3
 10
32.21110131840001
 20
-27.85782835560002
 30
0.0
  0
VERTEX
  5
123E
  8
3
 10
32.3158530963
 20
-28.2355358977
 30
0.0
  0
VERTEX
  5
123F
  8
3
 10
32.1696462571
 20
-28.60978462669999
 30
0.0
  0
VERTEX
  5
1240
  8
3
 10
31.7883245804
 20
-28.94001888579999
 30
0.0
  0
VERTEX
  5
1241
  8
3
 10
31.2132101867
 20
-29.1904526687
 30
0.0
  0
VERTEX
  5
1242
  8
3
 10
30.5066256444
 20
-29.3339475894
 30
0.0
  0
VERTEX
  5
1243
  8
3
 10
29.7451403524
 20
-29.35495374650003
 30
0.0
  0
VERTEX
  5
1244
  8
3
 10
29.0112730578
 20
-29.25119479710003
 30
0.0
  0
VERTEX
  5
1245
  8
3
 10
28.38454966899999
 20
-29.03391463320003
 30
0.0
  0
VERTEX
  5
1246
  8
3
 10
27.93288539
 20
-28.72665893210001
 30
0.0
  0
VERTEX
  5
1247
  8
3
 10
27.70522505350002
 20
-28.36272361650003
 30
0.0
  0
VERTEX
  5
1248
  8
3
 10
27.72623918950001
 20
-27.98154672499999
 30
0.0
  0
VERTEX
  5
1249
  8
3
 10
27.99365059039999
 20
-27.62443468830003
 30
0.0
  0
SEQEND
  5
1529
  8
3
  0
POLYLINE
  5
CD5
  8
3
 66
     1
 10
0.0
 20
0.0
 30
0.0
  0
VERTEX
  5
124A
  8
3
 10
31.7796822048
 20
-28.87608195960001
 30
0.0
  0
VERTEX
  5
124B
  8
3
 10
31.320928538
 20
-29.14944262490002
 30
0.0
  0
VERTEX
  5
124C
  8
3
 10
30.7028513946
 20
-29.32786612749999
 30
0.0
  0
VERTEX
  5
124D
  8
3
 10
30.0
 20
-29.38983195960003
 30
0.0
  0
VERTEX
  5
124E
  8
3
 10
29.29714860550001
 20
-29.32786612749999
 30
0.0
  0
VERTEX
  5
124F
  8
3
 10
28.67907146210001
 20
-29.14944262490002
 30
0.0
  0
VERTEX
  5
1250
  8
3
 10
28.22031779529999
 20
-28.87608195960001
 30
0.0
  0
VERTEX
  5
1251
  8
3
 10
27.9762200676
 20
-28.54075546220002
 30
0.0
  0
VERTEX
  5
1252
  8
3
 10
27.9762200676
 20
-28.18390845710002
 30
0.0
  0
VERTEX
  5
1253
  8
3
 10
28.22031779529999
 20
-27.84858195960004
 30
0.0
  0
VERTEX
  5
1254
  8
3
 10
28.67907146210001
 20
-27.57522129430004
 30
0.0
  0
VERTEX
  5
1255
  8
3
 10
29.29714860550001
 20
-27.39679779170001
 30
0.0
  0
VERTEX
  5
1256
  8
3
 10
30.0
 20
-27.33483195960002
 30
0.0
  0
VERTEX
  5
1257
  8
3
 10
30.7028513946
 20
-27.39679779170001
 30
0.0
  0
VERTEX
  5
1258
  8
3
 10
31.320928538
 20
-27.57522129430004
 30
0.0
  0
VERTEX
  5
1259
  8
3
 10
31.7796822048
 20
-27.84858195960004
 30
0.0
  0
VERTEX
  5
125A
  8
3
 10
32.02377993249999
 20
-28.18390845710002
 30
0.0
  0
VERTEX
  5
125B
  8
3
 10
32.02377993249999
 20
-28.54075546220002
 30
0.0
  0
VERTEX
  5
125C
  8
3
 10
31.7796822048
 20
-28.87608195960001
 30
0.0
  0
SEQEND
  5
1528
  8
3
  0
POLYLINE
  5
CD6
  8
3
 66
     1
 10
0.0
 20
0.0
 30
0.0
  0
VERTEX
  5
125D
  8
3
 10
32.16506350950002
 20
-29.25717885419999
 30
0.0
  0
VERTEX
  5
125E
  8
3
 10
31.6728265159
 20
-29.56110988609998
 30
0.0
  0
VERTEX
  5
125F
  8
3
 10
31.0168416077
 20
-29.77411067630004
 30
0.0
  0
VERTEX
  5
1260
  8
3
 10
30.26132115819999
 20
-29.8753312234
 30
0.0
  0
VERTEX
  5
1261
  8
3
 10
29.48022077300001
 20
-29.85486335510001
 30
0.0
  0
VERTEX
  5
1262
  8
3
 10
28.75
 20
-29.71471060900001
 30
0.0
  0
VERTEX
  5
1263
  8
3
 10
28.14213793639999
 20
-29.46859211219999
 30
0.0
  0
VERTEX
  5
1264
  8
3
 10
27.71613635590001
 20
-29.14059965810003
 30
0.0
  0
VERTEX
  5
1265
  8
3
 10
27.51369526159999
 20
-28.76283943330003
 30
0.0
  0
VERTEX
  5
1266
  8
3
 10
27.5546309982
 20
-28.37228924070001
 30
0.0
  0
VERTEX
  5
1267
  8
3
 10
27.8349364906
 20
-28.00717885419999
 30
0.0
  0
VERTEX
  5
1268
  8
3
 10
28.3271734841
 20
-27.70324782239999
 30
0.0
  0
VERTEX
  5
1269
  8
3
 10
28.98315839240001
 20
-27.49024703219999
 30
0.0
  0
VERTEX
  5
126A
  8
3
 10
29.7386788419
 20
-27.38902648499999
 30
0.0
  0
VERTEX
  5
126B
  8
3
 10
30.5197792271
 20
-27.40949435330003
 30
0.0
  0
VERTEX
  5
126C
  8
3
 10
31.25
 20
-27.54964709950002
 30
0.0
  0
VERTEX
  5
126D
  8
3
 10
31.8578620637
 20
-27.79576559629999
 30
0.0
  0
VERTEX
  5
126E
  8
3
 10
32.28386364420001
 20
-28.1237580504
 30
0.0
  0
VERTEX
  5
126F
  8
3
 10
32.4863047385
 20
-28.50151827510001
 30
0.0
  0
VERTEX
  5
1270
  8
3
 10
32.44536900189999
 20
-28.89206846780002
 30
0.0
  0
VERTEX
  5
1271
  8
3
 10
32.16506350950002
 20
-29.25717885419999
 30
0.0
  0
SEQEND
  5
1527
  8
3
  0
POLYLINE
  5
CD7
  8
3
 66
     1
 10
0.0
 20
0.0
 30
0.0
  0
VERTEX
  5
1272
  8
3
 10
32.16506350950002
 20
-29.33521840560002
 30
0.0
  0
VERTEX
  5
1273
  8
3
 10
31.6728265159
 20
-29.63914943740002
 30
0.0
  0
VERTEX
  5
1274
  8
3
 10
31.0168416077
 20
-29.85215022760002
 30
0.0
  0
VERTEX
  5
1275
  8
3
 10
30.26132115819999
 20
-29.95337077480002
 30
0.0
  0
VERTEX
  5
1276
  8
3
 10
29.48022077300001
 20
-29.93290290650003
 30
0.0
  0
VERTEX
  5
1277
  8
3
 10
28.75
 20
-29.79275016029999
 30
0.0
  0
VERTEX
  5
1278
  8
3
 10
28.14213793639999
 20
-29.54663166350002
 30
0.0
  0
VERTEX
  5
1279
  8
3
 10
27.71613635590001
 20
-29.21863920940001
 30
0.0
  0
VERTEX
  5
127A
  8
3
 10
27.51369526159999
 20
-28.8408789847
 30
0.0
  0
VERTEX
  5
127B
  8
3
 10
27.5546309982
 20
-28.45032879210004
 30
0.0
  0
VERTEX
  5
127C
  8
3
 10
27.8349364906
 20
-28.08521840560002
 30
0.0
  0
VERTEX
  5
127D
  8
3
 10
28.3271734841
 20
-27.78128737370002
 30
0.0
  0
VERTEX
  5
127E
  8
3
 10
28.98315839240001
 20
-27.56828658350003
 30
0.0
  0
VERTEX
  5
127F
  8
3
 10
29.7386788419
 20
-27.46706603640001
 30
0.0
  0
VERTEX
  5
1280
  8
3
 10
30.5197792271
 20
-27.4875339047
 30
0.0
  0
VERTEX
  5
1281
  8
3
 10
31.25
 20
-27.62768665089999
 30
0.0
  0
VERTEX
  5
1282
  8
3
 10
31.8578620637
 20
-27.87380514760002
 30
0.0
  0
VERTEX
  5
1283
  8
3
 10
32.28386364420001
 20
-28.20179760170004
 30
0.0
  0
VERTEX
  5
1284
  8
3
 10
32.4863047385
 20
-28.57955782650004
 30
0.0
  0
VERTEX
  5
1285
  8
3
 10
32.44536900189999
 20
-28.9701080191
 30
0.0
  0
VERTEX
  5
1286
  8
3
 10
32.16506350950002
 20
-29.33521840560002
 30
0.0
  0
SEQEND
  5
1526
  8
3
  0
POLYLINE
  5
CD8
  8
3
 66
     1
 10
0.0
 20
0.0
 30
0.0
  0
VERTEX
  5
1287
  8
3
 10
31.7796822048
 20
-29.49381530020003
 30
0.0
  0
VERTEX
  5
1288
  8
3
 10
31.320928538
 20
-29.76717596550003
 30
0.0
  0
VERTEX
  5
1289
  8
3
 10
30.7028513946
 20
-29.9455994681
 30
0.0
  0
VERTEX
  5
128A
  8
3
 10
30.0
 20
-30.00756530019999
 30
0.0
  0
VERTEX
  5
128B
  8
3
 10
29.29714860550001
 20
-29.9455994681
 30
0.0
  0
VERTEX
  5
128C
  8
3
 10
28.67907146210001
 20
-29.76717596550003
 30
0.0
  0
VERTEX
  5
128D
  8
3
 10
28.22031779529999
 20
-29.49381530020003
 30
0.0
  0
VERTEX
  5
128E
  8
3
 10
27.9762200676
 20
-29.15848880280004
 30
0.0
  0
VERTEX
  5
128F
  8
3
 10
27.9762200676
 20
-28.80164179770003
 30
0.0
  0
VERTEX
  5
1290
  8
3
 10
28.22031779529999
 20
-28.46631530019999
 30
0.0
  0
VERTEX
  5
1291
  8
3
 10
28.67907146210001
 20
-28.19295463489999
 30
0.0
  0
VERTEX
  5
1292
  8
3
 10
29.29714860550001
 20
-28.01453113240001
 30
0.0
  0
VERTEX
  5
1293
  8
3
 10
30.0
 20
-27.95256530020004
 30
0.0
  0
VERTEX
  5
1294
  8
3
 10
30.7028513946
 20
-28.01453113240001
 30
0.0
  0
VERTEX
  5
1295
  8
3
 10
31.320928538
 20
-28.19295463489999
 30
0.0
  0
VERTEX
  5
1296
  8
3
 10
31.7796822048
 20
-28.46631530019999
 30
0.0
  0
VERTEX
  5
1297
  8
3
 10
32.02377993249999
 20
-28.80164179770003
 30
0.0
  0
VERTEX
  5
1298
  8
3
 10
32.02377993249999
 20
-29.15848880280004
 30
0.0
  0
VERTEX
  5
1299
  8
3
 10
31.7796822048
 20
-29.49381530020003
 30
0.0
  0
SEQEND
  5
1525
  8
3
  0
POLYLINE
  5
CD9
  8
3
 66
     1
 10
0.0
 20
0.0
 30
0.0
  0
VERTEX
  5
129A
  8
3
 10
32.16506350950002
 20
-29.8749121948
 30
0.0
  0
VERTEX
  5
129B
  8
3
 10
31.6728265159
 20
-30.1788432267
 30
0.0
  0
VERTEX
  5
129C
  8
3
 10
31.0168416077
 20
-30.3918440169
 30
0.0
  0
VERTEX
  5
129D
  8
3
 10
30.26132115819999
 20
-30.49306456400001
 30
0.0
  0
VERTEX
  5
129E
  8
3
 10
29.48022077300001
 20
-30.47259669580001
 30
0.0
  0
VERTEX
  5
129F
  8
3
 10
28.75
 20
-30.33244394960002
 30
0.0
  0
VERTEX
  5
12A0
  8
3
 10
28.14213793639999
 20
-30.0863254528
 30
0.0
  0
VERTEX
  5
12A1
  8
3
 10
27.71613635590001
 20
-29.75833299869998
 30
0.0
  0
VERTEX
  5
12A2
  8
3
 10
27.51369526159999
 20
-29.38057277389998
 30
0.0
  0
VERTEX
  5
12A3
  8
3
 10
27.5546309982
 20
-28.99002258130002
 30
0.0
  0
VERTEX
  5
12A4
  8
3
 10
27.8349364906
 20
-28.6249121948
 30
0.0
  0
VERTEX
  5
12A5
  8
3
 10
28.3271734841
 20
-28.320981163
 30
0.0
  0
VERTEX
  5
12A6
  8
3
 10
28.98315839240001
 20
-28.1079803728
 30
0.0
  0
VERTEX
  5
12A7
  8
3
 10
29.7386788419
 20
-28.0067598256
 30
0.0
  0
VERTEX
  5
12A8
  8
3
 10
30.5197792271
 20
-28.02722769389999
 30
0.0
  0
VERTEX
  5
12A9
  8
3
 10
31.25
 20
-28.16738044010003
 30
0.0
  0
VERTEX
  5
12AA
  8
3
 10
31.8578620637
 20
-28.4134989369
 30
0.0
  0
VERTEX
  5
12AB
  8
3
 10
32.28386364420001
 20
-28.74149139100001
 30
0.0
  0
VERTEX
  5
12AC
  8
3
 10
32.4863047385
 20
-29.11925161580001
 30
0.0
  0
VERTEX
  5
12AD
  8
3
 10
32.44536900189999
 20
-29.50980180840003
 30
0.0
  0
VERTEX
  5
12AE
  8
3
 10
32.16506350950002
 20
-29.8749121948
 30
0.0
  0
SEQEND
  5
1524
  8
3
  0
POLYLINE
  5
CDA
  8
3
 66
     1
 10
0.0
 20
0.0
 30
0.0
  0
VERTEX
  5
12AF
  8
3
 10
32.16506350950002
 20
-29.95295174620003
 30
0.0
  0
VERTEX
  5
12B0
  8
3
 10
31.6728265159
 20
-30.25688277800003
 30
0.0
  0
VERTEX
  5
12B1
  8
3
 10
31.0168416077
 20
-30.46988356820003
 30
0.0
  0
VERTEX
  5
12B2
  8
3
 10
30.26132115819999
 20
-30.57110411540003
 30
0.0
  0
VERTEX
  5
12B3
  8
3
 10
29.48022077300001
 20
-30.55063624709999
 30
0.0
  0
VERTEX
  5
12B4
  8
3
 10
28.75
 20
-30.4104835009
 30
0.0
  0
VERTEX
  5
12B5
  8
3
 10
28.14213793639999
 20
-30.16436500410003
 30
0.0
  0
VERTEX
  5
12B6
  8
3
 10
27.71613635590001
 20
-29.83637255000002
 30
0.0
  0
VERTEX
  5
12B7
  8
3
 10
27.51369526159999
 20
-29.45861232530001
 30
0.0
  0
VERTEX
  5
12B8
  8
3
 10
27.5546309982
 20
-29.06806213269999
 30
0.0
  0
VERTEX
  5
12B9
  8
3
 10
27.8349364906
 20
-28.70295174620003
 30
0.0
  0
VERTEX
  5
12BA
  8
3
 10
28.3271734841
 20
-28.39902071430004
 30
0.0
  0
VERTEX
  5
12BB
  8
3
 10
28.98315839240001
 20
-28.18601992410004
 30
0.0
  0
VERTEX
  5
12BC
  8
3
 10
29.7386788419
 20
-28.08479937700002
 30
0.0
  0
VERTEX
  5
12BD
  8
3
 10
30.5197792271
 20
-28.10526724530001
 30
0.0
  0
VERTEX
  5
12BE
  8
3
 10
31.25
 20
-28.2454199915
 30
0.0
  0
VERTEX
  5
12BF
  8
3
 10
31.8578620637
 20
-28.49153848820004
 30
0.0
  0
VERTEX
  5
12C0
  8
3
 10
32.28386364420001
 20
-28.81953094229999
 30
0.0
  0
VERTEX
  5
12C1
  8
3
 10
32.4863047385
 20
-29.19729116709999
 30
0.0
  0
VERTEX
  5
12C2
  8
3
 10
32.44536900189999
 20
-29.58784135970001
 30
0.0
  0
VERTEX
  5
12C3
  8
3
 10
32.16506350950002
 20
-29.95295174620003
 30
0.0
  0
SEQEND
  5
1523
  8
3
  0
POLYLINE
  5
CDB
  8
3
 66
     1
 10
0.0
 20
0.0
 30
0.0
  0
VERTEX
  5
12C4
  8
3
 10
31.7796822048
 20
-30.11154864080004
 30
0.0
  0
VERTEX
  5
12C5
  8
3
 10
31.320928538
 20
-30.38490930609998
 30
0.0
  0
VERTEX
  5
12C6
  8
3
 10
30.7028513946
 20
-30.56333280870001
 30
0.0
  0
VERTEX
  5
12C7
  8
3
 10
30.0
 20
-30.6252986408
 30
0.0
  0
VERTEX
  5
12C8
  8
3
 10
29.29714860550001
 20
-30.56333280870001
 30
0.0
  0
VERTEX
  5
12C9
  8
3
 10
28.67907146210001
 20
-30.38490930609998
 30
0.0
  0
VERTEX
  5
12CA
  8
3
 10
28.22031779529999
 20
-30.11154864080004
 30
0.0
  0
VERTEX
  5
12CB
  8
3
 10
27.9762200676
 20
-29.77622214339999
 30
0.0
  0
VERTEX
  5
12CC
  8
3
 10
27.9762200676
 20
-29.41937513830004
 30
0.0
  0
VERTEX
  5
12CD
  8
3
 10
28.22031779529999
 20
-29.08404864080001
 30
0.0
  0
VERTEX
  5
12CE
  8
3
 10
28.67907146210001
 20
-28.8106879755
 30
0.0
  0
VERTEX
  5
12CF
  8
3
 10
29.29714860550001
 20
-28.63226447300002
 30
0.0
  0
VERTEX
  5
12D0
  8
3
 10
30.0
 20
-28.57029864079999
 30
0.0
  0
VERTEX
  5
12D1
  8
3
 10
30.7028513946
 20
-28.63226447300002
 30
0.0
  0
VERTEX
  5
12D2
  8
3
 10
31.320928538
 20
-28.8106879755
 30
0.0
  0
VERTEX
  5
12D3
  8
3
 10
31.7796822048
 20
-29.08404864080001
 30
0.0
  0
VERTEX
  5
12D4
  8
3
 10
32.02377993249999
 20
-29.41937513830004
 30
0.0
  0
VERTEX
  5
12D5
  8
3
 10
32.02377993249999
 20
-29.77622214339999
 30
0.0
  0
VERTEX
  5
12D6
  8
3
 10
31.7796822048
 20
-30.11154864080004
 30
0.0
  0
SEQEND
  5
1522
  8
3
  0
POLYLINE
  5
CDC
  8
3
 66
     1
 10
0.0
 20
0.0
 30
0.0
  0
VERTEX
  5
12D7
  8
3
 10
32.16506350950002
 20
-30.49264553540002
 30
0.0
  0
VERTEX
  5
12D8
  8
3
 10
31.6728265159
 20
-30.79657656730001
 30
0.0
  0
VERTEX
  5
12D9
  8
3
 10
31.0168416077
 20
-31.00957735750001
 30
0.0
  0
VERTEX
  5
12DA
  8
3
 10
30.26132115819999
 20
-31.11079790470001
 30
0.0
  0
VERTEX
  5
12DB
  8
3
 10
29.48022077300001
 20
-31.09033003640002
 30
0.0
  0
VERTEX
  5
12DC
  8
3
 10
28.75
 20
-30.95017729020003
 30
0.0
  0
VERTEX
  5
12DD
  8
3
 10
28.14213793639999
 20
-30.70405879340001
 30
0.0
  0
VERTEX
  5
12DE
  8
3
 10
27.71613635590001
 20
-30.3760663393
 30
0.0
  0
VERTEX
  5
12DF
  8
3
 10
27.51369526159999
 20
-29.9983061145
 30
0.0
  0
VERTEX
  5
12E0
  8
3
 10
27.5546309982
 20
-29.60775592190004
 30
0.0
  0
VERTEX
  5
12E1
  8
3
 10
27.8349364906
 20
-29.24264553540002
 30
0.0
  0
VERTEX
  5
12E2
  8
3
 10
28.3271734841
 20
-28.93871450360001
 30
0.0
  0
VERTEX
  5
12E3
  8
3
 10
28.98315839240001
 20
-28.72571371340001
 30
0.0
  0
VERTEX
  5
12E4
  8
3
 10
29.7386788419
 20
-28.62449316620001
 30
0.0
  0
VERTEX
  5
12E5
  8
3
 10
30.5197792271
 20
-28.6449610345
 30
0.0
  0
VERTEX
  5
12E6
  8
3
 10
31.25
 20
-28.78511378069999
 30
0.0
  0
VERTEX
  5
12E7
  8
3
 10
31.8578620637
 20
-29.03123227750001
 30
0.0
  0
VERTEX
  5
12E8
  8
3
 10
32.28386364420001
 20
-29.35922473160002
 30
0.0
  0
VERTEX
  5
12E9
  8
3
 10
32.4863047385
 20
-29.73698495640002
 30
0.0
  0
VERTEX
  5
12EA
  8
3
 10
32.44536900189999
 20
-30.12753514900004
 30
0.0
  0
VERTEX
  5
12EB
  8
3
 10
32.16506350950002
 20
-30.49264553540002
 30
0.0
  0
SEQEND
  5
1521
  8
3
  0
POLYLINE
  5
CDD
  8
3
 66
     1
 10
0.0
 20
0.0
 30
0.0
  0
VERTEX
  5
12EC
  8
3
 10
32.16506350950002
 20
-30.57068508680004
 30
0.0
  0
VERTEX
  5
12ED
  8
3
 10
31.6728265159
 20
-30.87461611859999
 30
0.0
  0
VERTEX
  5
12EE
  8
3
 10
31.0168416077
 20
-31.08761690879999
 30
0.0
  0
VERTEX
  5
12EF
  8
3
 10
30.26132115819999
 20
-31.18883745599999
 30
0.0
  0
VERTEX
  5
12F0
  8
3
 10
29.48022077300001
 20
-31.1683695877
 30
0.0
  0
VERTEX
  5
12F1
  8
3
 10
28.75
 20
-31.02821684150001
 30
0.0
  0
VERTEX
  5
12F2
  8
3
 10
28.14213793639999
 20
-30.78209834469999
 30
0.0
  0
VERTEX
  5
12F3
  8
3
 10
27.71613635590001
 20
-30.45410589060003
 30
0.0
  0
VERTEX
  5
12F4
  8
3
 10
27.51369526159999
 20
-30.07634566590002
 30
0.0
  0
VERTEX
  5
12F5
  8
3
 10
27.5546309982
 20
-29.6857954733
 30
0.0
  0
VERTEX
  5
12F6
  8
3
 10
27.8349364906
 20
-29.32068508680004
 30
0.0
  0
VERTEX
  5
12F7
  8
3
 10
28.3271734841
 20
-29.01675405489999
 30
0.0
  0
VERTEX
  5
12F8
  8
3
 10
28.98315839240001
 20
-28.80375326469999
 30
0.0
  0
VERTEX
  5
12F9
  8
3
 10
29.7386788419
 20
-28.70253271760004
 30
0.0
  0
VERTEX
  5
12FA
  8
3
 10
30.5197792271
 20
-28.72300058590002
 30
0.0
  0
VERTEX
  5
12FB
  8
3
 10
31.25
 20
-28.86315333210001
 30
0.0
  0
VERTEX
  5
12FC
  8
3
 10
31.8578620637
 20
-29.10927182879999
 30
0.0
  0
VERTEX
  5
12FD
  8
3
 10
32.28386364420001
 20
-29.4372642829
 30
0.0
  0
VERTEX
  5
12FE
  8
3
 10
32.4863047385
 20
-29.8150245077
 30
0.0
  0
VERTEX
  5
12FF
  8
3
 10
32.44536900189999
 20
-30.20557470030002
 30
0.0
  0
VERTEX
  5
1300
  8
3
 10
32.16506350950002
 20
-30.57068508680004
 30
0.0
  0
SEQEND
  5
1520
  8
3
  0
POLYLINE
  5
CDE
  8
3
 66
     1
 10
0.0
 20
0.0
 30
0.0
  0
VERTEX
  5
1301
  8
3
 10
31.7796822048
 20
-30.72928198139999
 30
0.0
  0
VERTEX
  5
1302
  8
3
 10
31.320928538
 20
-31.0026426467
 30
0.0
  0
VERTEX
  5
1303
  8
3
 10
30.7028513946
 20
-31.18106614930002
 30
0.0
  0
VERTEX
  5
1304
  8
3
 10
30.0
 20
-31.24303198140001
 30
0.0
  0
VERTEX
  5
1305
  8
3
 10
29.29714860550001
 20
-31.18106614930002
 30
0.0
  0
VERTEX
  5
1306
  8
3
 10
28.67907146210001
 20
-31.0026426467
 30
0.0
  0
VERTEX
  5
1307
  8
3
 10
28.22031779529999
 20
-30.72928198139999
 30
0.0
  0
VERTEX
  5
1308
  8
3
 10
27.9762200676
 20
-30.393955484
 30
0.0
  0
VERTEX
  5
1309
  8
3
 10
27.9762200676
 20
-30.0371084789
 30
0.0
  0
VERTEX
  5
130A
  8
3
 10
28.22031779529999
 20
-29.70178198140002
 30
0.0
  0
VERTEX
  5
130B
  8
3
 10
28.67907146210001
 20
-29.42842131610001
 30
0.0
  0
VERTEX
  5
130C
  8
3
 10
29.29714860550001
 20
-29.24999781360003
 30
0.0
  0
VERTEX
  5
130D
  8
3
 10
30.0
 20
-29.1880319814
 30
0.0
  0
VERTEX
  5
130E
  8
3
 10
30.7028513946
 20
-29.24999781360003
 30
0.0
  0
VERTEX
  5
130F
  8
3
 10
31.320928538
 20
-29.42842131610001
 30
0.0
  0
VERTEX
  5
1310
  8
3
 10
31.7796822048
 20
-29.70178198140002
 30
0.0
  0
VERTEX
  5
1311
  8
3
 10
32.02377993249999
 20
-30.0371084789
 30
0.0
  0
VERTEX
  5
1312
  8
3
 10
32.02377993249999
 20
-30.393955484
 30
0.0
  0
VERTEX
  5
1313
  8
3
 10
31.7796822048
 20
-30.72928198139999
 30
0.0
  0
SEQEND
  5
151F
  8
3
  0
POLYLINE
  5
CDF
  8
3
 66
     1
 10
0.0
 20
0.0
 30
0.0
  0
VERTEX
  5
1314
  8
3
 10
32.16506350950002
 20
-31.11037887600003
 30
0.0
  0
VERTEX
  5
1315
  8
3
 10
31.6728265159
 20
-31.41430990790002
 30
0.0
  0
VERTEX
  5
1316
  8
3
 10
31.0168416077
 20
-31.62731069810002
 30
0.0
  0
VERTEX
  5
1317
  8
3
 10
30.26132115819999
 20
-31.72853124530002
 30
0.0
  0
VERTEX
  5
1318
  8
3
 10
29.48022077300001
 20
-31.70806337700003
 30
0.0
  0
VERTEX
  5
1319
  8
3
 10
28.75
 20
-31.56791063079999
 30
0.0
  0
VERTEX
  5
131A
  8
3
 10
28.14213793639999
 20
-31.32179213400002
 30
0.0
  0
VERTEX
  5
131B
  8
3
 10
27.71613635590001
 20
-30.99379967990001
 30
0.0
  0
VERTEX
  5
131C
  8
3
 10
27.51369526159999
 20
-30.61603945510001
 30
0.0
  0
VERTEX
  5
131D
  8
3
 10
27.5546309982
 20
-30.22548926249999
 30
0.0
  0
VERTEX
  5
131E
  8
3
 10
27.8349364906
 20
-29.86037887600003
 30
0.0
  0
VERTEX
  5
131F
  8
3
 10
28.3271734841
 20
-29.55644784420002
 30
0.0
  0
VERTEX
  5
1320
  8
3
 10
28.98315839240001
 20
-29.34344705400002
 30
0.0
  0
VERTEX
  5
1321
  8
3
 10
29.7386788419
 20
-29.24222650680002
 30
0.0
  0
VERTEX
  5
1322
  8
3
 10
30.5197792271
 20
-29.26269437510001
 30
0.0
  0
VERTEX
  5
1323
  8
3
 10
31.25
 20
-29.4028471213
 30
0.0
  0
VERTEX
  5
1324
  8
3
 10
31.8578620637
 20
-29.64896561810002
 30
0.0
  0
VERTEX
  5
1325
  8
3
 10
32.28386364420001
 20
-29.97695807220003
 30
0.0
  0
VERTEX
  5
1326
  8
3
 10
32.4863047385
 20
-30.35471829700003
 30
0.0
  0
VERTEX
  5
1327
  8
3
 10
32.44536900189999
 20
-30.74526848959999
 30
0.0
  0
VERTEX
  5
1328
  8
3
 10
32.16506350950002
 20
-31.11037887600003
 30
0.0
  0
SEQEND
  5
151E
  8
3
  0
POLYLINE
  5
CE0
  8
3
 66
     1
 10
0.0
 20
0.0
 30
0.0
  0
VERTEX
  5
1329
  8
3
 10
32.16506350950002
 20
-31.18841842739999
 30
0.0
  0
VERTEX
  5
132A
  8
3
 10
31.6728265159
 20
-31.4923494592
 30
0.0
  0
VERTEX
  5
132B
  8
3
 10
31.0168416077
 20
-31.70535024949999
 30
0.0
  0
VERTEX
  5
132C
  8
3
 10
30.26132115819999
 20
-31.8065707966
 30
0.0
  0
VERTEX
  5
132D
  8
3
 10
29.48022077300001
 20
-31.78610292830001
 30
0.0
  0
VERTEX
  5
132E
  8
3
 10
28.75
 20
-31.64595018210002
 30
0.0
  0
VERTEX
  5
132F
  8
3
 10
28.14213793639999
 20
-31.3998316853
 30
0.0
  0
VERTEX
  5
1330
  8
3
 10
27.71613635590001
 20
-31.07183923119999
 30
0.0
  0
VERTEX
  5
1331
  8
3
 10
27.51369526159999
 20
-30.69407900650003
 30
0.0
  0
VERTEX
  5
1332
  8
3
 10
27.5546309982
 20
-30.30352881390002
 30
0.0
  0
VERTEX
  5
1333
  8
3
 10
27.8349364906
 20
-29.93841842739999
 30
0.0
  0
VERTEX
  5
1334
  8
3
 10
28.3271734841
 20
-29.63448739559999
 30
0.0
  0
VERTEX
  5
1335
  8
3
 10
28.98315839240001
 20
-29.4214866053
 30
0.0
  0
VERTEX
  5
1336
  8
3
 10
29.7386788419
 20
-29.32026605819999
 30
0.0
  0
VERTEX
  5
1337
  8
3
 10
30.5197792271
 20
-29.34073392650004
 30
0.0
  0
VERTEX
  5
1338
  8
3
 10
31.25
 20
-29.48088667270002
 30
0.0
  0
VERTEX
  5
1339
  8
3
 10
31.8578620637
 20
-29.72700516949999
 30
0.0
  0
VERTEX
  5
133A
  8
3
 10
32.28386364420001
 20
-30.0549976236
 30
0.0
  0
VERTEX
  5
133B
  8
3
 10
32.4863047385
 20
-30.43275784830001
 30
0.0
  0
VERTEX
  5
133C
  8
3
 10
32.44536900189999
 20
-30.82330804090003
 30
0.0
  0
VERTEX
  5
133D
  8
3
 10
32.16506350950002
 20
-31.18841842739999
 30
0.0
  0
SEQEND
  5
151D
  8
3
  0
POLYLINE
  5
CE1
  8
3
 66
     1
 10
0.0
 20
0.0
 30
0.0
  0
VERTEX
  5
133E
  8
3
 10
31.7796822048
 20
-31.347015322
 30
0.0
  0
VERTEX
  5
133F
  8
3
 10
31.320928538
 20
-31.62037598730001
 30
0.0
  0
VERTEX
  5
1340
  8
3
 10
30.7028513946
 20
-31.79879948990003
 30
0.0
  0
VERTEX
  5
1341
  8
3
 10
30.0
 20
-31.86076532200002
 30
0.0
  0
VERTEX
  5
1342
  8
3
 10
29.29714860550001
 20
-31.79879948990003
 30
0.0
  0
VERTEX
  5
1343
  8
3
 10
28.67907146210001
 20
-31.62037598730001
 30
0.0
  0
VERTEX
  5
1344
  8
3
 10
28.22031779529999
 20
-31.347015322
 30
0.0
  0
VERTEX
  5
1345
  8
3
 10
27.9762200676
 20
-31.01168882460001
 30
0.0
  0
VERTEX
  5
1346
  8
3
 10
27.9762200676
 20
-30.65484181950001
 30
0.0
  0
VERTEX
  5
1347
  8
3
 10
28.22031779529999
 20
-30.31951532200003
 30
0.0
  0
VERTEX
  5
1348
  8
3
 10
28.67907146210001
 20
-30.04615465670003
 30
0.0
  0
VERTEX
  5
1349
  8
3
 10
29.29714860550001
 20
-29.86773115419999
 30
0.0
  0
VERTEX
  5
134A
  8
3
 10
30.0
 20
-29.80576532200001
 30
0.0
  0
VERTEX
  5
134B
  8
3
 10
30.7028513946
 20
-29.86773115419999
 30
0.0
  0
VERTEX
  5
134C
  8
3
 10
31.320928538
 20
-30.04615465670003
 30
0.0
  0
VERTEX
  5
134D
  8
3
 10
31.7796822048
 20
-30.31951532200003
 30
0.0
  0
VERTEX
  5
134E
  8
3
 10
32.02377993249999
 20
-30.65484181950001
 30
0.0
  0
VERTEX
  5
134F
  8
3
 10
32.02377993249999
 20
-31.01168882460001
 30
0.0
  0
VERTEX
  5
1350
  8
3
 10
31.7796822048
 20
-31.347015322
 30
0.0
  0
SEQEND
  5
151C
  8
3
  0
POLYLINE
  5
CE2
  8
3
 66
     1
 10
0.0
 20
0.0
 30
0.0
  0
VERTEX
  5
1351
  8
3
 10
32.16506350950002
 20
-31.72811221660004
 30
0.0
  0
VERTEX
  5
1352
  8
3
 10
31.6728265159
 20
-32.03204324850003
 30
0.0
  0
VERTEX
  5
1353
  8
3
 10
31.0168416077
 20
-32.24504403870003
 30
0.0
  0
VERTEX
  5
1354
  8
3
 10
30.26132115819999
 20
-32.34626458590003
 30
0.0
  0
VERTEX
  5
1355
  8
3
 10
29.48022077300001
 20
-32.32579671759999
 30
0.0
  0
VERTEX
  5
1356
  8
3
 10
28.75
 20
-32.1856439714
 30
0.0
  0
VERTEX
  5
1357
  8
3
 10
28.14213793639999
 20
-31.93952547460003
 30
0.0
  0
VERTEX
  5
1358
  8
3
 10
27.71613635590001
 20
-31.61153302050002
 30
0.0
  0
VERTEX
  5
1359
  8
3
 10
27.51369526159999
 20
-31.23377279570002
 30
0.0
  0
VERTEX
  5
135A
  8
3
 10
27.5546309982
 20
-30.8432226031
 30
0.0
  0
VERTEX
  5
135B
  8
3
 10
27.8349364906
 20
-30.47811221660004
 30
0.0
  0
VERTEX
  5
135C
  8
3
 10
28.3271734841
 20
-30.17418118480003
 30
0.0
  0
VERTEX
  5
135D
  8
3
 10
28.98315839240001
 20
-29.96118039460004
 30
0.0
  0
VERTEX
  5
135E
  8
3
 10
29.7386788419
 20
-29.85995984740003
 30
0.0
  0
VERTEX
  5
135F
  8
3
 10
30.5197792271
 20
-29.88042771570002
 30
0.0
  0
VERTEX
  5
1360
  8
3
 10
31.25
 20
-30.02058046190001
 30
0.0
  0
VERTEX
  5
1361
  8
3
 10
31.8578620637
 20
-30.26669895870003
 30
0.0
  0
VERTEX
  5
1362
  8
3
 10
32.28386364420001
 20
-30.59469141279999
 30
0.0
  0
VERTEX
  5
1363
  8
3
 10
32.4863047385
 20
-30.97245163759999
 30
0.0
  0
VERTEX
  5
1364
  8
3
 10
32.44536900189999
 20
-31.36300183020001
 30
0.0
  0
VERTEX
  5
1365
  8
3
 10
32.16506350950002
 20
-31.72811221660004
 30
0.0
  0
SEQEND
  5
151B
  8
3
  0
POLYLINE
  5
CE3
  8
3
 66
     1
 10
0.0
 20
0.0
 30
0.0
  0
VERTEX
  5
1366
  8
3
 10
32.16506350950002
 20
-31.80615176800001
 30
0.0
  0
VERTEX
  5
1367
  8
3
 10
31.6728265159
 20
-32.1100827999
 30
0.0
  0
VERTEX
  5
1368
  8
3
 10
31.0168416077
 20
-32.3230835901
 30
0.0
  0
VERTEX
  5
1369
  8
3
 10
30.26132115819999
 20
-32.42430413720001
 30
0.0
  0
VERTEX
  5
136A
  8
3
 10
29.48022077300001
 20
-32.40383626890002
 30
0.0
  0
VERTEX
  5
136B
  8
3
 10
28.75
 20
-32.26368352270003
 30
0.0
  0
VERTEX
  5
136C
  8
3
 10
28.14213793639999
 20
-32.017565026
 30
0.0
  0
VERTEX
  5
136D
  8
3
 10
27.71613635590001
 20
-31.6895725718
 30
0.0
  0
VERTEX
  5
136E
  8
3
 10
27.51369526159999
 20
-31.31181234709999
 30
0.0
  0
VERTEX
  5
136F
  8
3
 10
27.5546309982
 20
-30.92126215450003
 30
0.0
  0
VERTEX
  5
1370
  8
3
 10
27.8349364906
 20
-30.55615176800001
 30
0.0
  0
VERTEX
  5
1371
  8
3
 10
28.3271734841
 20
-30.2522207362
 30
0.0
  0
VERTEX
  5
1372
  8
3
 10
28.98315839240001
 20
-30.039219946
 30
0.0
  0
VERTEX
  5
1373
  8
3
 10
29.7386788419
 20
-29.9379993988
 30
0.0
  0
VERTEX
  5
1374
  8
3
 10
30.5197792271
 20
-29.95846726709999
 30
0.0
  0
VERTEX
  5
1375
  8
3
 10
31.25
 20
-30.09862001330004
 30
0.0
  0
VERTEX
  5
1376
  8
3
 10
31.8578620637
 20
-30.3447385101
 30
0.0
  0
VERTEX
  5
1377
  8
3
 10
32.28386364420001
 20
-30.67273096420001
 30
0.0
  0
VERTEX
  5
1378
  8
3
 10
32.4863047385
 20
-31.05049118890003
 30
0.0
  0
VERTEX
  5
1379
  8
3
 10
32.44536900189999
 20
-31.44104138149999
 30
0.0
  0
VERTEX
  5
137A
  8
3
 10
32.16506350950002
 20
-31.80615176800001
 30
0.0
  0
SEQEND
  5
151A
  8
3
  0
POLYLINE
  5
CE4
  8
3
 66
     1
 10
0.0
 20
0.0
 30
0.0
  0
VERTEX
  5
137B
  8
3
 10
31.7796822048
 20
-31.96474866260002
 30
0.0
  0
VERTEX
  5
137C
  8
3
 10
31.320928538
 20
-32.23810932790002
 30
0.0
  0
VERTEX
  5
137D
  8
3
 10
30.7028513946
 20
-32.41653283049999
 30
0.0
  0
VERTEX
  5
137E
  8
3
 10
30.0
 20
-32.47849866260003
 30
0.0
  0
VERTEX
  5
137F
  8
3
 10
29.29714860550001
 20
-32.41653283049999
 30
0.0
  0
VERTEX
  5
1380
  8
3
 10
28.67907146210001
 20
-32.23810932790002
 30
0.0
  0
VERTEX
  5
1381
  8
3
 10
28.22031779529999
 20
-31.96474866260002
 30
0.0
  0
VERTEX
  5
1382
  8
3
 10
27.9762200676
 20
-31.62942216520003
 30
0.0
  0
VERTEX
  5
1383
  8
3
 10
27.9762200676
 20
-31.27257516010002
 30
0.0
  0
VERTEX
  5
1384
  8
3
 10
28.22031779529999
 20
-30.93724866259998
 30
0.0
  0
VERTEX
  5
1385
  8
3
 10
28.67907146210001
 20
-30.66388799730004
 30
0.0
  0
VERTEX
  5
1386
  8
3
 10
29.29714860550001
 20
-30.4854644948
 30
0.0
  0
VERTEX
  5
1387
  8
3
 10
30.0
 20
-30.42349866260002
 30
0.0
  0
VERTEX
  5
1388
  8
3
 10
30.7028513946
 20
-30.4854644948
 30
0.0
  0
VERTEX
  5
1389
  8
3
 10
31.320928538
 20
-30.66388799730004
 30
0.0
  0
VERTEX
  5
138A
  8
3
 10
31.7796822048
 20
-30.93724866259998
 30
0.0
  0
VERTEX
  5
138B
  8
3
 10
32.02377993249999
 20
-31.27257516010002
 30
0.0
  0
VERTEX
  5
138C
  8
3
 10
32.02377993249999
 20
-31.62942216520003
 30
0.0
  0
VERTEX
  5
138D
  8
3
 10
31.7796822048
 20
-31.96474866260002
 30
0.0
  0
SEQEND
  5
1519
  8
3
  0
POLYLINE
  5
CE5
  8
3
 66
     1
 10
0.0
 20
0.0
 30
0.0
  0
VERTEX
  5
138E
  8
3
 10
32.16506350950002
 20
-32.34584555730004
 30
0.0
  0
VERTEX
  5
138F
  8
3
 10
31.6728265159
 20
-32.64977658909999
 30
0.0
  0
VERTEX
  5
1390
  8
3
 10
31.0168416077
 20
-32.86277737929998
 30
0.0
  0
VERTEX
  5
1391
  8
3
 10
30.26132115819999
 20
-32.96399792649999
 30
0.0
  0
VERTEX
  5
1392
  8
3
 10
29.48022077300001
 20
-32.9435300582
 30
0.0
  0
VERTEX
  5
1393
  8
3
 10
28.75
 20
-32.80337731200001
 30
0.0
  0
VERTEX
  5
1394
  8
3
 10
28.14213793639999
 20
-32.55725881519999
 30
0.0
  0
VERTEX
  5
1395
  8
3
 10
27.71613635590001
 20
-32.22926636110003
 30
0.0
  0
VERTEX
  5
1396
  8
3
 10
27.51369526159999
 20
-31.85150613630003
 30
0.0
  0
VERTEX
  5
1397
  8
3
 10
27.5546309982
 20
-31.46095594370001
 30
0.0
  0
VERTEX
  5
1398
  8
3
 10
27.8349364906
 20
-31.09584555730004
 30
0.0
  0
VERTEX
  5
1399
  8
3
 10
28.3271734841
 20
-30.79191452539999
 30
0.0
  0
VERTEX
  5
139A
  8
3
 10
28.98315839240001
 20
-30.57891373519999
 30
0.0
  0
VERTEX
  5
139B
  8
3
 10
29.7386788419
 20
-30.47769318799999
 30
0.0
  0
VERTEX
  5
139C
  8
3
 10
30.5197792271
 20
-30.49816105630003
 30
0.0
  0
VERTEX
  5
139D
  8
3
 10
31.25
 20
-30.63831380250002
 30
0.0
  0
VERTEX
  5
139E
  8
3
 10
31.8578620637
 20
-30.88443229929999
 30
0.0
  0
VERTEX
  5
139F
  8
3
 10
32.28386364420001
 20
-31.2124247534
 30
0.0
  0
VERTEX
  5
13A0
  8
3
 10
32.4863047385
 20
-31.5901849782
 30
0.0
  0
VERTEX
  5
13A1
  8
3
 10
32.44536900189999
 20
-31.98073517080002
 30
0.0
  0
VERTEX
  5
13A2
  8
3
 10
32.16506350950002
 20
-32.34584555730004
 30
0.0
  0
SEQEND
  5
1518
  8
3
  0
POLYLINE
  5
CE6
  8
3
 66
     1
 10
0.0
 20
0.0
 30
0.0
  0
VERTEX
  5
13A3
  8
3
 10
32.16506350950002
 20
-32.42388510860002
 30
0.0
  0
VERTEX
  5
13A4
  8
3
 10
31.6728265159
 20
-32.72781614050001
 30
0.0
  0
VERTEX
  5
13A5
  8
3
 10
31.0168416077
 20
-32.94081693070001
 30
0.0
  0
VERTEX
  5
13A6
  8
3
 10
30.26132115819999
 20
-33.04203747780002
 30
0.0
  0
VERTEX
  5
13A7
  8
3
 10
29.48022077300001
 20
-33.02156960950003
 30
0.0
  0
VERTEX
  5
13A8
  8
3
 10
28.75
 20
-32.88141686329999
 30
0.0
  0
VERTEX
  5
13A9
  8
3
 10
28.14213793639999
 20
-32.63529836660001
 30
0.0
  0
VERTEX
  5
13AA
  8
3
 10
27.71613635590001
 20
-32.3073059125
 30
0.0
  0
VERTEX
  5
13AB
  8
3
 10
27.51369526159999
 20
-31.9295456877
 30
0.0
  0
VERTEX
  5
13AC
  8
3
 10
27.5546309982
 20
-31.53899549510004
 30
0.0
  0
VERTEX
  5
13AD
  8
3
 10
27.8349364906
 20
-31.17388510860002
 30
0.0
  0
VERTEX
  5
13AE
  8
3
 10
28.3271734841
 20
-30.86995407680001
 30
0.0
  0
VERTEX
  5
13AF
  8
3
 10
28.98315839240001
 20
-30.65695328660001
 30
0.0
  0
VERTEX
  5
13B0
  8
3
 10
29.7386788419
 20
-30.55573273940001
 30
0.0
  0
VERTEX
  5
13B1
  8
3
 10
30.5197792271
 20
-30.5762006077
 30
0.0
  0
VERTEX
  5
13B2
  8
3
 10
31.25
 20
-30.71635335389999
 30
0.0
  0
VERTEX
  5
13B3
  8
3
 10
31.8578620637
 20
-30.96247185070001
 30
0.0
  0
VERTEX
  5
13B4
  8
3
 10
32.28386364420001
 20
-31.29046430480003
 30
0.0
  0
VERTEX
  5
13B5
  8
3
 10
32.4863047385
 20
-31.66822452950004
 30
0.0
  0
VERTEX
  5
13B6
  8
3
 10
32.44536900189999
 20
-32.0587747221
 30
0.0
  0
VERTEX
  5
13B7
  8
3
 10
32.16506350950002
 20
-32.42388510860002
 30
0.0
  0
SEQEND
  5
1517
  8
3
  0
POLYLINE
  5
CE7
  8
3
 66
     1
 10
0.0
 20
0.0
 30
0.0
  0
VERTEX
  5
13B8
  8
3
 10
31.7796822048
 20
-32.58248200320003
 30
0.0
  0
VERTEX
  5
13B9
  8
3
 10
31.320928538
 20
-32.85584266850003
 30
0.0
  0
VERTEX
  5
13BA
  8
3
 10
30.7028513946
 20
-33.0342661711
 30
0.0
  0
VERTEX
  5
13BB
  8
3
 10
30.0
 20
-33.09623200319999
 30
0.0
  0
VERTEX
  5
13BC
  8
3
 10
29.29714860550001
 20
-33.0342661711
 30
0.0
  0
VERTEX
  5
13BD
  8
3
 10
28.67907146210001
 20
-32.85584266850003
 30
0.0
  0
VERTEX
  5
13BE
  8
3
 10
28.22031779529999
 20
-32.58248200320003
 30
0.0
  0
VERTEX
  5
13BF
  8
3
 10
27.9762200676
 20
-32.24715550580004
 30
0.0
  0
VERTEX
  5
13C0
  8
3
 10
27.9762200676
 20
-31.89030850070003
 30
0.0
  0
VERTEX
  5
13C1
  8
3
 10
28.22031779529999
 20
-31.5549820032
 30
0.0
  0
VERTEX
  5
13C2
  8
3
 10
28.67907146210001
 20
-31.28162133789999
 30
0.0
  0
VERTEX
  5
13C3
  8
3
 10
29.29714860550001
 20
-31.10319783540001
 30
0.0
  0
VERTEX
  5
13C4
  8
3
 10
30.0
 20
-31.04123200320004
 30
0.0
  0
VERTEX
  5
13C5
  8
3
 10
30.7028513946
 20
-31.10319783540001
 30
0.0
  0
VERTEX
  5
13C6
  8
3
 10
31.320928538
 20
-31.28162133789999
 30
0.0
  0
VERTEX
  5
13C7
  8
3
 10
31.7796822048
 20
-31.5549820032
 30
0.0
  0
VERTEX
  5
13C8
  8
3
 10
32.02377993249999
 20
-31.89030850070003
 30
0.0
  0
VERTEX
  5
13C9
  8
3
 10
32.02377993249999
 20
-32.24715550580004
 30
0.0
  0
VERTEX
  5
13CA
  8
3
 10
31.7796822048
 20
-32.58248200320003
 30
0.0
  0
SEQEND
  5
1516
  8
3
  0
POLYLINE
  5
CE8
  8
3
 66
     1
 10
0.0
 20
0.0
 30
0.0
  0
VERTEX
  5
13CB
  8
3
 10
32.16506350950002
 20
-32.96357889789999
 30
0.0
  0
VERTEX
  5
13CC
  8
3
 10
31.6728265159
 20
-33.2675099297
 30
0.0
  0
VERTEX
  5
13CD
  8
3
 10
31.0168416077
 20
-33.4805107199
 30
0.0
  0
VERTEX
  5
13CE
  8
3
 10
30.26132115819999
 20
-33.5817312671
 30
0.0
  0
VERTEX
  5
13CF
  8
3
 10
29.48022077300001
 20
-33.56126339880001
 30
0.0
  0
VERTEX
  5
13D0
  8
3
 10
28.75
 20
-33.42111065260002
 30
0.0
  0
VERTEX
  5
13D1
  8
3
 10
28.14213793639999
 20
-33.1749921558
 30
0.0
  0
VERTEX
  5
13D2
  8
3
 10
27.71613635590001
 20
-32.84699970169999
 30
0.0
  0
VERTEX
  5
13D3
  8
3
 10
27.51369526159999
 20
-32.46923947689999
 30
0.0
  0
VERTEX
  5
13D4
  8
3
 10
27.5546309982
 20
-32.07868928430003
 30
0.0
  0
VERTEX
  5
13D5
  8
3
 10
27.8349364906
 20
-31.71357889789999
 30
0.0
  0
VERTEX
  5
13D6
  8
3
 10
28.3271734841
 20
-31.409647866
 30
0.0
  0
VERTEX
  5
13D7
  8
3
 10
28.98315839240001
 20
-31.1966470758
 30
0.0
  0
VERTEX
  5
13D8
  8
3
 10
29.7386788419
 20
-31.0954265286
 30
0.0
  0
VERTEX
  5
13D9
  8
3
 10
30.5197792271
 20
-31.11589439689999
 30
0.0
  0
VERTEX
  5
13DA
  8
3
 10
31.25
 20
-31.25604714310003
 30
0.0
  0
VERTEX
  5
13DB
  8
3
 10
31.8578620637
 20
-31.5021656399
 30
0.0
  0
VERTEX
  5
13DC
  8
3
 10
32.28386364420001
 20
-31.83015809400001
 30
0.0
  0
VERTEX
  5
13DD
  8
3
 10
32.4863047385
 20
-32.20791831880001
 30
0.0
  0
VERTEX
  5
13DE
  8
3
 10
32.44536900189999
 20
-32.59846851140003
 30
0.0
  0
VERTEX
  5
13DF
  8
3
 10
32.16506350950002
 20
-32.96357889789999
 30
0.0
  0
SEQEND
  5
1515
  8
3
  0
POLYLINE
  5
CE9
  8
3
 66
     1
 10
0.0
 20
0.0
 30
0.0
  0
VERTEX
  5
13E0
  8
3
 10
32.16506350950002
 20
-33.04161844920003
 30
0.0
  0
VERTEX
  5
13E1
  8
3
 10
31.6728265159
 20
-33.34554948110002
 30
0.0
  0
VERTEX
  5
13E2
  8
3
 10
31.0168416077
 20
-33.55855027130002
 30
0.0
  0
VERTEX
  5
13E3
  8
3
 10
30.26132115819999
 20
-33.65977081840003
 30
0.0
  0
VERTEX
  5
13E4
  8
3
 10
29.48022077300001
 20
-33.63930295009999
 30
0.0
  0
VERTEX
  5
13E5
  8
3
 10
28.75
 20
-33.4991502039
 30
0.0
  0
VERTEX
  5
13E6
  8
3
 10
28.14213793639999
 20
-33.25303170720002
 30
0.0
  0
VERTEX
  5
13E7
  8
3
 10
27.71613635590001
 20
-32.92503925310001
 30
0.0
  0
VERTEX
  5
13E8
  8
3
 10
27.51369526159999
 20
-32.54727902830001
 30
0.0
  0
VERTEX
  5
13E9
  8
3
 10
27.5546309982
 20
-32.15672883569999
 30
0.0
  0
VERTEX
  5
13EA
  8
3
 10
27.8349364906
 20
-31.79161844920003
 30
0.0
  0
VERTEX
  5
13EB
  8
3
 10
28.3271734841
 20
-31.48768741740002
 30
0.0
  0
VERTEX
  5
13EC
  8
3
 10
28.98315839240001
 20
-31.27468662720003
 30
0.0
  0
VERTEX
  5
13ED
  8
3
 10
29.7386788419
 20
-31.17346608000003
 30
0.0
  0
VERTEX
  5
13EE
  8
3
 10
30.5197792271
 20
-31.19393394830001
 30
0.0
  0
VERTEX
  5
13EF
  8
3
 10
31.25
 20
-31.3340866945
 30
0.0
  0
VERTEX
  5
13F0
  8
3
 10
31.8578620637
 20
-31.58020519130002
 30
0.0
  0
VERTEX
  5
13F1
  8
3
 10
32.28386364420001
 20
-31.90819764540004
 30
0.0
  0
VERTEX
  5
13F2
  8
3
 10
32.4863047385
 20
-32.28595787009999
 30
0.0
  0
VERTEX
  5
13F3
  8
3
 10
32.44536900189999
 20
-32.67650806270001
 30
0.0
  0
VERTEX
  5
13F4
  8
3
 10
32.16506350950002
 20
-33.04161844920003
 30
0.0
  0
SEQEND
  5
1514
  8
3
  0
POLYLINE
  5
CEA
  8
3
 66
     1
 10
0.0
 20
0.0
 30
0.0
  0
VERTEX
  5
13F5
  8
3
 10
31.7796822048
 20
-33.20021534380004
 30
0.0
  0
VERTEX
  5
13F6
  8
3
 10
31.320928538
 20
-33.47357600909999
 30
0.0
  0
VERTEX
  5
13F7
  8
3
 10
30.7028513946
 20
-33.65199951170001
 30
0.0
  0
VERTEX
  5
13F8
  8
3
 10
30.0
 20
-33.7139653438
 30
0.0
  0
VERTEX
  5
13F9
  8
3
 10
29.29714860550001
 20
-33.65199951170001
 30
0.0
  0
VERTEX
  5
13FA
  8
3
 10
28.67907146210001
 20
-33.47357600909999
 30
0.0
  0
VERTEX
  5
13FB
  8
3
 10
28.22031779529999
 20
-33.20021534380004
 30
0.0
  0
VERTEX
  5
13FC
  8
3
 10
27.9762200676
 20
-32.86488884639999
 30
0.0
  0
VERTEX
  5
13FD
  8
3
 10
27.9762200676
 20
-32.50804184129998
 30
0.0
  0
VERTEX
  5
13FE
  8
3
 10
28.22031779529999
 20
-32.17271534380001
 30
0.0
  0
VERTEX
  5
13FF
  8
3
 10
28.67907146210001
 20
-31.8993546785
 30
0.0
  0
VERTEX
  5
1400
  8
3
 10
29.29714860550001
 20
-31.72093117600002
 30
0.0
  0
VERTEX
  5
1401
  8
3
 10
30.0
 20
-31.65896534379999
 30
0.0
  0
VERTEX
  5
1402
  8
3
 10
30.7028513946
 20
-31.72093117600002
 30
0.0
  0
VERTEX
  5
1403
  8
3
 10
31.320928538
 20
-31.8993546785
 30
0.0
  0
VERTEX
  5
1404
  8
3
 10
31.7796822048
 20
-32.17271534380001
 30
0.0
  0
VERTEX
  5
1405
  8
3
 10
32.02377993249999
 20
-32.50804184129998
 30
0.0
  0
VERTEX
  5
1406
  8
3
 10
32.02377993249999
 20
-32.86488884639999
 30
0.0
  0
VERTEX
  5
1407
  8
3
 10
31.7796822048
 20
-33.20021534380004
 30
0.0
  0
SEQEND
  5
1513
  8
3
  0
LINE
  5
CEB
  8
3
 10
30.7216878365
 20
-31.19569675360003
 30
0.0
 11
29.27831216359999
 21
-31.19569675360003
 31
0.0
  0
POLYLINE
  5
CEC
  8
3
 66
     1
 10
0.0
 20
0.0
 30
0.0
  0
VERTEX
  5
1408
  8
3
 10
31.95384262140001
 20
-33.3724395621
 30
0.0
  0
VERTEX
  5
1409
  8
3
 10
32.2142557828
 20
-33.0246732585
 30
0.0
  0
VERTEX
  5
140A
  8
3
 10
32.2347199724
 20
-32.65347188480001
 30
0.0
  0
VERTEX
  5
140B
  8
3
 10
32.0130175777
 20
-32.2990608696
 30
0.0
  0
VERTEX
  5
140C
  8
3
 10
31.5731734933
 20
-31.99984614580001
 30
0.0
  0
VERTEX
  5
140D
  8
3
 10
30.96285165060002
 20
-31.78825227140004
 30
0.0
  0
VERTEX
  5
140E
  8
3
 10
30.24818989139999
 20
-31.68720872590001
 30
0.0
  0
VERTEX
  5
140F
  8
3
 10
29.5066329064
 20
-31.70766514540003
 30
0.0
  0
VERTEX
  5
1410
  8
3
 10
28.81853990140002
 20
-31.84740475940004
 30
0.0
  0
VERTEX
  5
1411
  8
3
 10
28.25847643029999
 20
-32.0912846123
 30
0.0
  0
VERTEX
  5
1412
  8
3
 10
27.88713406049999
 20
-32.41287653810002
 30
0.0
  0
VERTEX
  5
1413
  8
3
 10
27.74475349970001
 20
-32.77733106139999
 30
0.0
  0
VERTEX
  5
1414
  8
3
 10
27.84676389099999
 20
-33.14515387969999
 30
0.0
  0
VERTEX
  5
1415
  8
3
 10
28.18211082569999
 20
-33.47648568310001
 30
0.0
  0
VERTEX
  5
1416
  8
3
 10
28.71445425979999
 20
-33.73542152970003
 30
0.0
  0
VERTEX
  5
1417
  8
3
 10
29.38610652220001
 20
-33.89390170260003
 30
0.0
  0
VERTEX
  5
1418
  8
3
 10
30.12428366840001
 20
-33.93475241610003
 30
0.0
  0
VERTEX
  5
1419
  8
3
 10
30.84899275079999
 20
-33.85354686139999
 30
0.0
  0
VERTEX
  5
141A
  8
3
 10
31.48170029510001
 20
-33.65908492060004
 30
0.0
  0
VERTEX
  5
141B
  8
3
 10
31.95384262140001
 20
-33.3724395621
 30
0.0
  0
SEQEND
  5
1512
  8
3
  0
LINE
  5
CED
  8
3
 10
30.7216878365
 20
-31.19569675360003
 30
0.0
 11
30.7216878365
 21
-33.53396534379999
 31
0.0
  0
LINE
  5
CEE
  8
3
 10
30.7216878365
 20
-31.19569675360003
 30
0.0
 11
31.44337567299999
 21
-30.57069675360003
 31
0.0
  0
LINE
  5
CEF
  8
3
 10
29.27831216359999
 20
-31.19569675360003
 30
0.0
 11
29.27831216359999
 21
-33.53396534379999
 31
0.0
  0
LINE
  5
CF0
  8
3
 10
28.5566243271
 20
-30.57069675360003
 30
0.0
 11
29.27831216359999
 21
-31.19569675360003
 31
0.0
  0
LINE
  5
CF1
  8
3
 10
28.5566243271
 20
-32.90896534379999
 30
0.0
 11
29.27831216359999
 21
-33.53396534379999
 31
0.0
  0
LINE
  5
CF2
  8
3
 10
30.7216878365
 20
-33.53396534379999
 30
0.0
 11
31.44337567299999
 21
-32.90896534379999
 31
0.0
  0
POLYLINE
  5
CF3
  8
3
 66
     1
 10
0.0
 20
0.0
 30
0.0
  0
VERTEX
  5
141C
  8
3
 10
28.9725
 20
-33.79880644619999
 30
0.0
  0
VERTEX
  5
141D
  8
3
 10
28.42577866939999
 20
-33.56942961280004
 30
0.0
  0
VERTEX
  5
141E
  8
3
 10
28.06893166430001
 20
-33.26039104110004
 30
0.0
  0
VERTEX
  5
141F
  8
3
 10
27.94499999999999
 20
-32.90896534379999
 30
0.0
  0
VERTEX
  5
1420
  8
3
 10
28.06893166430001
 20
-32.55753964659999
 30
0.0
  0
VERTEX
  5
1421
  8
3
 10
28.42577866939999
 20
-32.24850107489999
 30
0.0
  0
VERTEX
  5
1422
  8
3
 10
28.9725
 20
-32.01912424139999
 30
0.0
  0
VERTEX
  5
1423
  8
3
 10
29.64315299489999
 20
-31.8970753776
 30
0.0
  0
VERTEX
  5
1424
  8
3
 10
30.3568470052
 20
-31.8970753776
 30
0.0
  0
VERTEX
  5
1425
  8
3
 10
31.0275
 20
-32.01912424139999
 30
0.0
  0
VERTEX
  5
1426
  8
3
 10
31.5742213307
 20
-32.24850107489999
 30
0.0
  0
VERTEX
  5
1427
  8
3
 10
31.93106833580001
 20
-32.55753964659999
 30
0.0
  0
VERTEX
  5
1428
  8
3
 10
32.05500000000001
 20
-32.90896534379999
 30
0.0
  0
VERTEX
  5
1429
  8
3
 10
31.93106833580001
 20
-33.26039104110004
 30
0.0
  0
VERTEX
  5
142A
  8
3
 10
31.5742213307
 20
-33.56942961280004
 30
0.0
  0
VERTEX
  5
142B
  8
3
 10
31.0275
 20
-33.79880644619999
 30
0.0
  0
VERTEX
  5
142C
  8
3
 10
30.3568470052
 20
-33.92085531010002
 30
0.0
  0
VERTEX
  5
142D
  8
3
 10
29.64315299489999
 20
-33.92085531010002
 30
0.0
  0
VERTEX
  5
142E
  8
3
 10
28.9725
 20
-33.79880644619999
 30
0.0
  0
SEQEND
  5
1511
  8
3
  0
LINE
  5
CF4
  8
3
 10
30.7216878365
 20
-33.53396534379999
 30
0.0
 11
29.27831216359999
 21
-33.53396534379999
 31
0.0
  0
LINE
  5
CF5
  8
3
 10
30.7216878365
 20
-29.94569675360003
 30
0.0
 11
30.7216878365
 21
-31.19569675360003
 31
0.0
  0
LINE
  5
CF6
  8
3
 10
31.44337567299999
 20
-32.90896534379999
 30
0.0
 11
30.7216878365
 21
-32.28396534379999
 31
0.0
  0
LINE
  5
CF7
  8
3
 10
31.44337567299999
 20
-30.57069675360003
 30
0.0
 11
31.44337567299999
 21
-32.90896534379999
 31
0.0
  0
LINE
  5
CF8
  8
3
 10
31.44337567299999
 20
-30.57069675360003
 30
0.0
 11
30.7216878365
 21
-29.94569675360003
 31
0.0
  0
LINE
  5
CF9
  8
3
 10
29.27831216359999
 20
-29.94569675360003
 30
0.0
 11
29.27831216359999
 21
-31.19569675360003
 31
0.0
  0
LINE
  5
CFA
  8
3
 10
28.5566243271
 20
-32.90896534379999
 30
0.0
 11
29.27831216359999
 21
-32.28396534379999
 31
0.0
  0
LINE
  5
CFB
  8
3
 10
28.5566243271
 20
-30.57069675360003
 30
0.0
 11
28.5566243271
 21
-32.90896534379999
 31
0.0
  0
LINE
  5
CFC
  8
3
 10
28.5566243271
 20
-30.57069675360003
 30
0.0
 11
29.27831216359999
 21
-29.94569675360003
 31
0.0
  0
LINE
  5
CFD
  8
3
 10
29.27831216359999
 20
-32.28396534379999
 30
0.0
 11
30.7216878365
 21
-32.28396534379999
 31
0.0
  0
LINE
  5
CFE
  8
3
 10
29.27831216359999
 20
-29.94569675360003
 30
0.0
 11
30.7216878365
 21
-29.94569675360003
 31
0.0
  0
CIRCLE
  5
CFF
  8
3
 10
30.0
 20
0.0
 30
0.0
 40
2.49999999999996
  0
CIRCLE
  5
D00
  8
3
 10
30.0
 20
0.0
 30
0.0
 40
2.316732743452286
  0
CIRCLE
  5
D01
  8
3
 10
30.0
 20
0.0
 30
0.0
 40
1.749999999999982
  0
POLYLINE
  5
D03
  8
3
 66
     1
 10
0.0
 20
0.0
 30
0.0
  0
VERTEX
  5
142F
  8
3
 10
30.0
 20
-28.84788378410002
 30
0.0
  0
VERTEX
  5
1430
  8
3
 10
30.86749848170001
 20
-28.9309826576
 30
0.0
  0
VERTEX
  5
1431
  8
3
 10
31.6371754239
 20
-29.16774297820001
 30
0.0
  0
VERTEX
  5
1432
  8
3
 10
32.2238158074
 20
-29.52444509930001
 30
0.0
  0
VERTEX
  5
1433
  8
3
 10
32.56030775900001
 20
-29.95218804820001
 30
0.0
  0
VERTEX
  5
1434
  8
3
 10
32.60775711440002
 20
-30.39500827000001
 30
0.0
  0
VERTEX
  5
1435
  8
3
 10
32.3624298798
 20
-30.80187446540003
 30
0.0
  0
VERTEX
  5
1436
  8
3
 10
31.85187247120001
 20
-31.13320775750003
 30
0.0
  0
VERTEX
  5
1437
  8
3
 10
31.1314689166
 20
-31.3606117356
 30
0.0
  0
VERTEX
  5
1438
  8
3
 10
30.28300586009999
 20
-31.46622946299999
 30
0.0
  0
VERTEX
  5
1439
  8
3
 10
29.40456459789999
 20
-31.44307976850001
 30
0.0
  0
VERTEX
  5
143A
  8
3
 10
28.59416225000001
 20
-31.29335200349999
 30
0.0
  0
VERTEX
  5
143B
  8
3
 10
27.94040920200001
 20
-31.02682272210001
 30
0.0
  0
VERTEX
  5
143C
  8
3
 10
27.51757432990001
 20
-30.66357714590004
 30
0.0
  0
VERTEX
  5
143D
  8
3
 10
27.37505241540001
 20
-30.2376395764
 30
0.0
  0
VERTEX
  5
143E
  8
3
 10
27.52781611189999
 20
-29.79499263650001
 30
0.0
  0
VERTEX
  5
143F
  8
3
 10
27.95775834930001
 20
-29.38759440030003
 30
0.0
  0
VERTEX
  5
1440
  8
3
 10
28.61839258450001
 20
-29.06811232050001
 30
0.0
  0
VERTEX
  5
1441
  8
3
 10
29.43590866380001
 20
-28.88250270680004
 30
0.0
  0
VERTEX
  5
1442
  8
3
 10
30.0
 20
-28.84788378410002
 30
0.0
  0
SEQEND
  5
1510
  8
3
  0
POLYLINE
  5
D04
  8
3
 66
     1
 10
0.0
 20
0.0
 30
0.0
  0
VERTEX
  5
1443
  8
3
 10
30.0
 20
31.47288378399998
 30
0.0
  0
VERTEX
  5
1444
  8
3
 10
30.86749848170001
 20
31.40849580259999
 30
0.0
  0
VERTEX
  5
1445
  8
3
 10
31.6371754239
 20
31.2196400592
 30
0.0
  0
VERTEX
  5
1446
  8
3
 10
32.2238158074
 20
30.91917383800001
 30
0.0
  0
VERTEX
  5
1447
  8
3
 10
32.56030775900001
 20
30.53136779519997
 30
0.0
  0
VERTEX
  5
1448
  8
3
 10
32.60775711440002
 20
30.09462878869999
 30
0.0
  0
VERTEX
  5
1449
  8
3
 10
32.3624298798
 20
29.65751872379997
 30
0.0
  0
VERTEX
  5
144A
  8
3
 10
31.85187247120001
 20
29.27277948669996
 30
0.0
  0
VERTEX
  5
144B
  8
3
 10
31.1314689166
 20
28.99198278799997
 30
0.0
  0
VERTEX
  5
144C
  8
3
 10
30.28300586009999
 20
28.85652973250001
 30
0.0
  0
VERTEX
  5
144D
  8
3
 10
29.40456459789999
 20
28.88650360449998
 30
0.0
  0
VERTEX
  5
144E
  8
3
 10
28.59416225000001
 20
29.07654230919997
 30
0.0
  0
VERTEX
  5
144F
  8
3
 10
27.94040920200001
 20
29.3993367022
 30
0.0
  0
VERTEX
  5
1450
  8
3
 10
27.51757432990001
 20
29.81023794469996
 30
0.0
  0
VERTEX
  5
1451
  8
3
 10
27.37505241540001
 20
30.2542280545
 30
0.0
  0
VERTEX
  5
1452
  8
3
 10
27.52781611189999
 20
30.67756377989997
 30
0.0
  0
VERTEX
  5
1453
  8
3
 10
27.95775834930001
 20
31.03679846279999
 30
0.0
  0
VERTEX
  5
1454
  8
3
 10
28.61839258450001
 20
31.30010379649997
 30
0.0
  0
VERTEX
  5
1455
  8
3
 10
29.43590866380001
 20
31.44617701609997
 30
0.0
  0
VERTEX
  5
1456
  8
3
 10
30.0
 20
31.47288378399998
 30
0.0
  0
SEQEND
  5
150F
  8
3
  0
CIRCLE
  5
D05
  8
3
 10
30.0
 20
0.0
 30
0.0
 40
2.099999999999966
  0
LINE
  5
D13
  8
3
 10
29.0
 20
2.0
 30
0.0
 11
29.0
 21
1.846618531199965
 31
0.0
  0
LINE
  5
D14
  8
3
 10
29.0
 20
-1.84661853130001
 30
0.0
 11
29.0
 21
-2.0
 31
0.0
  0
LINE
  5
D15
  8
SK3
 10
-33.75
 20
0.0
 30
0.0
 11
-33.75
 21
11.09979999999999
 31
0.0
  0
LINE
  5
D16
  8
SK3
 10
-33.75
 20
-11.09980000000002
 30
0.0
 11
-33.75
 21
0.0
 31
0.0
  0
LINE
  5
D17
  8
SK3
 10
-32.86196584909999
 20
0.0
 30
0.0
 11
-32.86196584909999
 21
-7.0
 31
0.0
  0
LINE
  5
D18
  8
SK3
 10
-32.86196584909999
 20
7.0
 30
0.0
 11
-32.86196584909999
 21
0.0
 31
0.0
  0
LINE
  5
D1B
  8
3
 10
40.0
 20
8.0
 30
0.0
 11
40.0
 21
-8.0
 31
0.0
  0
LINE
  5
D1C
  8
3
 10
35.0
 20
32.40749999999997
 30
0.0
 11
35.0
 21
18.39249999999998
 31
0.0
  0
LINE
  5
D1D
  8
3
 10
35.0
 20
-18.39249999999998
 30
0.0
 11
35.0
 21
-32.40750000000003
 31
0.0
  0
POLYLINE
  5
D1E
  8
3
 66
     1
 10
0.0
 20
0.0
 30
0.0
  0
VERTEX
  5
1457
  8
3
 10
30.0
 20
-4.732949074700002
 30
0.0
  0
VERTEX
  5
1458
  8
3
 10
30.67715832639999
 20
-4.818694085000004
 30
0.0
  0
VERTEX
  5
1459
  8
3
 10
31.27760823540001
 20
-5.054520189900018
 30
0.0
  0
VERTEX
  5
145A
  8
3
 10
31.7534719953
 20
-5.401221080799985
 30
0.0
  0
VERTEX
  5
145B
  8
3
 10
32.03984048910002
 20
-5.797227240899986
 30
0.0
  0
VERTEX
  5
145C
  8
3
 10
32.0905796532
 20
-6.159079085100018
 30
0.0
  0
VERTEX
  5
145D
  8
3
 10
31.9192059609
 20
-6.4432786104
 30
0.0
  0
VERTEX
  5
145E
  8
3
 10
31.54665578200002
 20
-6.646299406100013
 30
0.0
  0
VERTEX
  5
145F
  8
3
 10
30.9897791365
 20
-6.772189431100003
 30
0.0
  0
VERTEX
  5
1460
  8
3
 10
30.3103753332
 20
-6.827660967700012
 30
0.0
  0
VERTEX
  5
1461
  8
3
 10
29.6187163061
 20
-6.8249166608
 30
0.0
  0
VERTEX
  5
1462
  8
3
 10
28.98692000790001
 20
-6.768861309800002
 30
0.0
  0
VERTEX
  5
1463
  8
3
 10
28.4489118708
 20
-6.644746176300032
 30
0.0
  0
VERTEX
  5
1464
  8
3
 10
28.06513217840001
 20
-6.428952842900003
 30
0.0
  0
VERTEX
  5
1465
  8
3
 10
27.90365504019999
 20
-6.123151926200023
 30
0.0
  0
VERTEX
  5
1466
  8
3
 10
27.97527052480001
 20
-5.764342500999987
 30
0.0
  0
VERTEX
  5
1467
  8
3
 10
28.25591049639999
 20
-5.392106115600029
 30
0.0
  0
VERTEX
  5
1468
  8
3
 10
28.73078037460002
 20
-5.049960777600006
 30
0.0
  0
VERTEX
  5
1469
  8
3
 10
29.36547476640001
 20
-4.808076978400038
 30
0.0
  0
VERTEX
  5
146A
  8
3
 10
30.0
 20
-4.732949074700002
 30
0.0
  0
SEQEND
  5
150E
  8
3
  0
POLYLINE
  5
D1F
  8
3
 66
     1
 10
0.0
 20
0.0
 30
0.0
  0
VERTEX
  5
146B
  8
3
 10
30.0
 20
6.832949074599981
 30
0.0
  0
VERTEX
  5
146C
  8
3
 10
30.67715832639999
 20
6.806521190299975
 30
0.0
  0
VERTEX
  5
146D
  8
3
 10
31.27760823540001
 20
6.721168682099972
 30
0.0
  0
VERTEX
  5
146E
  8
3
 10
31.7534719953
 20
6.556788457300001
 30
0.0
  0
VERTEX
  5
146F
  8
3
 10
32.03984048910002
 20
6.296277117300008
 30
0.0
  0
VERTEX
  5
1470
  8
3
 10
32.0905796532
 20
5.960391607100007
 30
0.0
  0
VERTEX
  5
1471
  8
3
 10
31.9192059609
 20
5.590841821100014
 30
0.0
  0
VERTEX
  5
1472
  8
3
 10
31.54665578200002
 20
5.22578686060001
 30
0.0
  0
VERTEX
  5
1473
  8
3
 10
30.9897791365
 20
4.920072463699967
 30
0.0
  0
VERTEX
  5
1474
  8
3
 10
30.3103753332
 20
4.750724003599998
 30
0.0
  0
VERTEX
  5
1475
  8
3
 10
29.6187163061
 20
4.759820356700004
 30
0.0
  0
VERTEX
  5
1476
  8
3
 10
28.98692000790001
 20
4.929386131999991
 30
0.0
  0
VERTEX
  5
1477
  8
3
 10
28.4489118708
 20
5.229074740099975
 30
0.0
  0
VERTEX
  5
1478
  8
3
 10
28.06513217840001
 20
5.612689090999993
 30
0.0
  0
VERTEX
  5
1479
  8
3
 10
27.90365504019999
 20
5.999306016499986
 30
0.0
  0
VERTEX
  5
147A
  8
3
 10
27.97527052480001
 20
6.321541345199989
 30
0.0
  0
VERTEX
  5
147B
  8
3
 10
28.25591049639999
 20
6.561786329600011
 30
0.0
  0
VERTEX
  5
147C
  8
3
 10
28.73078037460002
 20
6.7230063664
 30
0.0
  0
VERTEX
  5
147D
  8
3
 10
29.36547476640001
 20
6.809920560600006
 30
0.0
  0
VERTEX
  5
147E
  8
3
 10
30.0
 20
6.832949074599981
 30
0.0
  0
SEQEND
  5
150D
  8
3
  0
POLYLINE
  5
D2B
  8
3
 66
     1
 10
0.0
 20
0.0
 30
0.0
  0
VERTEX
  5
147F
  8
3
 10
30.0
 20
29.97524848640001
 30
0.0
  0
VERTEX
  5
1480
  8
3
 10
30.718242301
 20
29.91192573820001
 30
0.0
  0
VERTEX
  5
1481
  8
3
 10
31.34985398040001
 20
29.72959515159999
 30
0.0
  0
VERTEX
  5
1482
  8
3
 10
31.818653348
 20
29.45024848639997
 30
0.0
  0
VERTEX
  5
1483
  8
3
 10
32.06809628139999
 20
29.10757907289997
 30
0.0
  0
VERTEX
  5
1484
  8
3
 10
32.06809628139999
 20
28.74291789979998
 30
0.0
  0
VERTEX
  5
1485
  8
3
 10
31.818653348
 20
28.40024848639996
 30
0.0
  0
VERTEX
  5
1486
  8
3
 10
31.34985398040001
 20
28.12090182110001
 30
0.0
  0
VERTEX
  5
1487
  8
3
 10
30.718242301
 20
27.93857123449999
 30
0.0
  0
VERTEX
  5
1488
  8
3
 10
30.0
 20
27.87524848639998
 30
0.0
  0
VERTEX
  5
1489
  8
3
 10
29.28175769910001
 20
27.93857123449999
 30
0.0
  0
VERTEX
  5
148A
  8
3
 10
28.6501460197
 20
28.12090182110001
 30
0.0
  0
VERTEX
  5
148B
  8
3
 10
28.18134665209999
 20
28.40024848639996
 30
0.0
  0
VERTEX
  5
148C
  8
3
 10
27.9319037187
 20
28.74291789979998
 30
0.0
  0
VERTEX
  5
148D
  8
3
 10
27.9319037187
 20
29.10757907289997
 30
0.0
  0
VERTEX
  5
148E
  8
3
 10
28.18134665209999
 20
29.45024848639997
 30
0.0
  0
VERTEX
  5
148F
  8
3
 10
28.6501460197
 20
29.72959515159999
 30
0.0
  0
VERTEX
  5
1490
  8
3
 10
29.28175769910001
 20
29.91192573820001
 30
0.0
  0
VERTEX
  5
1491
  8
3
 10
30.0
 20
29.97524848640001
 30
0.0
  0
SEQEND
  5
150C
  8
3
  0
POLYLINE
  5
D2C
  8
3
 66
     1
 10
0.0
 20
0.0
 30
0.0
  0
VERTEX
  5
1492
  8
3
 10
31.18743420870001
 20
10.39230484539996
 30
0.0
  0
VERTEX
  5
1493
  8
3
 10
30.83071350809999
 20
9.886277844099993
 30
0.0
  0
VERTEX
  5
1494
  8
3
 10
30.69306655810001
 20
9.630823114699979
 30
0.0
  0
VERTEX
  5
1495
  8
3
 10
30.64145720709999
 20
9.425662236300013
 30
0.0
  0
VERTEX
  5
1496
  8
3
 10
30.66926547540001
 20
9.228422313199985
 30
0.0
  0
VERTEX
  5
1497
  8
3
 10
30.81240975649999
 20
8.99103922339998
 30
0.0
  0
VERTEX
  5
1498
  8
3
 10
31.26120238729999
 20
8.611760010900014
 30
0.0
  0
VERTEX
  5
1499
  8
3
 10
31.762449691
 20
8.399360034899985
 30
0.0
  0
VERTEX
  5
149A
  8
3
 10
31.99671859430001
 20
8.429184490900013
 30
0.0
  0
VERTEX
  5
149B
  8
3
 10
32.0989640743
 20
8.628219492499966
 30
0.0
  0
VERTEX
  5
149C
  8
3
 10
32.0524341615
 20
8.925771162899991
 30
0.0
  0
VERTEX
  5
149D
  8
3
 10
31.90274057409999
 20
9.284881962399993
 30
0.0
  0
VERTEX
  5
149E
  8
3
 10
31.56548096649999
 20
9.85502117819999
 30
0.0
  0
VERTEX
  5
149F
  8
3
 10
31.00877979910001
 20
10.63814738510001
 30
0.0
  0
VERTEX
  5
14A0
  8
3
 10
30.78264801559999
 20
10.9769108296
 30
0.0
  0
VERTEX
  5
14A1
  8
3
 10
30.66237566980001
 20
11.24188556339999
 30
0.0
  0
VERTEX
  5
14A2
  8
3
 10
30.64198546989999
 20
11.432149079
 30
0.0
  0
VERTEX
  5
14A3
  8
3
 10
30.68999487350001
 20
11.60665134289997
 30
0.0
  0
VERTEX
  5
14A4
  8
3
 10
30.88676977750001
 20
11.8753891376
 30
0.0
  0
VERTEX
  5
14A5
  8
3
 10
31.44378092549999
 20
12.27544321559998
 30
0.0
  0
VERTEX
  5
14A6
  8
3
 10
31.83023572670001
 20
12.39200828380001
 30
0.0
  0
VERTEX
  5
14A7
  8
3
 10
32.03158622270001
 20
12.3278651183
 30
0.0
  0
VERTEX
  5
14A8
  8
3
 10
32.09958565470001
 20
12.10312174789999
 30
0.0
  0
VERTEX
  5
14A9
  8
3
 10
32.03105246379999
 20
11.79470494919997
 30
0.0
  0
VERTEX
  5
14AA
  8
3
 10
31.8618425503
 20
11.42067294539999
 30
0.0
  0
VERTEX
  5
14AB
  8
3
 10
31.48979462560001
 20
10.81723915750001
 30
0.0
  0
VERTEX
  5
14AC
  8
3
 10
31.18743420870001
 20
10.39230484539996
 30
0.0
  0
SEQEND
  5
150B
  8
3
  0
POLYLINE
  5
D33
  8
3
 66
     1
 10
0.0
 20
0.0
 30
0.0
  0
VERTEX
  5
14AD
  8
3
 10
30.0
 20
-27.87524848640004
 30
0.0
  0
VERTEX
  5
14AE
  8
3
 10
30.718242301
 20
-27.93857123460003
 30
0.0
  0
VERTEX
  5
14AF
  8
3
 10
31.34985398040001
 20
-28.12090182119999
 30
0.0
  0
VERTEX
  5
14B0
  8
3
 10
31.818653348
 20
-28.40024848640002
 30
0.0
  0
VERTEX
  5
14B1
  8
3
 10
32.06809628139999
 20
-28.74291789990002
 30
0.0
  0
VERTEX
  5
14B2
  8
3
 10
32.06809628139999
 20
-29.10757907300001
 30
0.0
  0
VERTEX
  5
14B3
  8
3
 10
31.818653348
 20
-29.45024848640003
 30
0.0
  0
VERTEX
  5
14B4
  8
3
 10
31.34985398040001
 20
-29.72959515170004
 30
0.0
  0
VERTEX
  5
14B5
  8
3
 10
30.718242301
 20
-29.9119257383
 30
0.0
  0
VERTEX
  5
14B6
  8
3
 10
30.0
 20
-29.97524848640001
 30
0.0
  0
VERTEX
  5
14B7
  8
3
 10
29.28175769910001
 20
-29.9119257383
 30
0.0
  0
VERTEX
  5
14B8
  8
3
 10
28.6501460197
 20
-29.72959515170004
 30
0.0
  0
VERTEX
  5
14B9
  8
3
 10
28.18134665209999
 20
-29.45024848640003
 30
0.0
  0
VERTEX
  5
14BA
  8
3
 10
27.9319037187
 20
-29.10757907300001
 30
0.0
  0
VERTEX
  5
14BB
  8
3
 10
27.9319037187
 20
-28.74291789990002
 30
0.0
  0
VERTEX
  5
14BC
  8
3
 10
28.18134665209999
 20
-28.40024848640002
 30
0.0
  0
VERTEX
  5
14BD
  8
3
 10
28.6501460197
 20
-28.12090182119999
 30
0.0
  0
VERTEX
  5
14BE
  8
3
 10
29.28175769910001
 20
-27.93857123460003
 30
0.0
  0
VERTEX
  5
14BF
  8
3
 10
30.0
 20
-27.87524848640004
 30
0.0
  0
SEQEND
  5
150A
  8
3
  0
POLYLINE
  5
D34
  8
3
 66
     1
 10
0.0
 20
0.0
 30
0.0
  0
VERTEX
  5
14C0
  8
3
 10
31.18743420870001
 20
-10.39230484540002
 30
0.0
  0
VERTEX
  5
14C1
  8
3
 10
31.74890983610001
 20
-11.22051215290003
 30
0.0
  0
VERTEX
  5
14C2
  8
3
 10
31.98937715060001
 20
-11.68717954120001
 30
0.0
  0
VERTEX
  5
14C3
  8
3
 10
32.09822813939999
 20
-12.07962050550003
 30
0.0
  0
VERTEX
  5
14C4
  8
3
 10
32.05594995519999
 20
-12.29818896430004
 30
0.0
  0
VERTEX
  5
14C5
  8
3
 10
31.9097723244
 20
-12.38716758010003
 30
0.0
  0
VERTEX
  5
14C6
  8
3
 10
31.57872907870001
 20
-12.33441025619999
 30
0.0
  0
VERTEX
  5
14C7
  8
3
 10
31.02727769469999
 20
-12.00377975330002
 30
0.0
  0
VERTEX
  5
14C8
  8
3
 10
30.7942035719
 20
-11.7712206123
 30
0.0
  0
VERTEX
  5
14C9
  8
3
 10
30.6649965005
 20
-11.54372094960002
 30
0.0
  0
VERTEX
  5
14CA
  8
3
 10
30.64138925840001
 20
-11.3599587855
 30
0.0
  0
VERTEX
  5
14CB
  8
3
 10
30.68730668789999
 20
-11.16815880580003
 30
0.0
  0
VERTEX
  5
14CC
  8
3
 10
30.8771154607
 20
-10.82719904359999
 30
0.0
  0
VERTEX
  5
14CD
  8
3
 10
31.42652384510001
 20
-10.05890140389999
 30
0.0
  0
VERTEX
  5
14CE
  8
3
 10
31.8214913441
 20
-9.438061437600027
 30
0.0
  0
VERTEX
  5
14CF
  8
3
 10
32.02743133659999
 20
-9.000007255400021
 30
0.0
  0
VERTEX
  5
14D0
  8
3
 10
32.09980839389999
 20
-8.646244572400008
 30
0.0
  0
VERTEX
  5
14D1
  8
3
 10
32.03394911640001
 20
-8.459144759299988
 30
0.0
  0
VERTEX
  5
14D2
  8
3
 10
31.8672328854
 20
-8.392806479200033
 30
0.0
  0
VERTEX
  5
14D3
  8
3
 10
31.49964334859999
 20
-8.48288351260004
 30
0.0
  0
VERTEX
  5
14D4
  8
3
 10
30.92353764009999
 20
-8.872933529500017
 30
0.0
  0
VERTEX
  5
14D5
  8
3
 10
30.73319171259999
 20
-9.0990624131
 30
0.0
  0
VERTEX
  5
14D6
  8
3
 10
30.6500050134
 20
-9.29701956209999
 30
0.0
  0
VERTEX
  5
14D7
  8
3
 10
30.6483785218
 20
-9.481900162800002
 30
0.0
  0
VERTEX
  5
14D8
  8
3
 10
30.73321999980001
 20
-9.717753775099993
 30
0.0
  0
VERTEX
  5
14D9
  8
3
 10
31.11454719510002
 20
-10.29243026770001
 30
0.0
  0
VERTEX
  5
14DA
  8
3
 10
31.18743420870001
 20
-10.39230484540002
 30
0.0
  0
SEQEND
  5
1509
  8
3
  0
POLYLINE
  5
D39
  8
3
 66
     1
 10
0.0
 20
0.0
 30
0.0
  0
VERTEX
  5
14DB
  8
3
 10
30.0
 20
30.69241182339999
 30
0.0
  0
VERTEX
  5
14DC
  8
3
 10
30.8111696103
 20
30.62817350099999
 30
0.0
  0
VERTEX
  5
14DD
  8
3
 10
31.54293628729999
 20
30.44174662849997
 30
0.0
  0
VERTEX
  5
14DE
  8
3
 10
32.1236696103
 20
30.15137996699997
 30
0.0
  0
VERTEX
  5
14DF
  8
3
 10
32.49652335530001
 20
29.78549662849997
 30
0.0
  0
VERTEX
  5
14E0
  8
3
 10
32.625
 20
29.37991182339999
 30
0.0
  0
VERTEX
  5
14E1
  8
3
 10
32.49652335530001
 20
28.97432701819997
 30
0.0
  0
VERTEX
  5
14E2
  8
3
 10
32.1236696103
 20
28.60844367969997
 30
0.0
  0
VERTEX
  5
14E3
  8
3
 10
31.54293628729999
 20
28.31807701819997
 30
0.0
  0
VERTEX
  5
14E4
  8
3
 10
30.8111696103
 20
28.13165014570001
 30
0.0
  0
VERTEX
  5
14E5
  8
3
 10
30.0
 20
28.06741182339999
 30
0.0
  0
VERTEX
  5
14E6
  8
3
 10
29.18883038979999
 20
28.13165014570001
 30
0.0
  0
VERTEX
  5
14E7
  8
3
 10
28.45706371279999
 20
28.31807701819997
 30
0.0
  0
VERTEX
  5
14E8
  8
3
 10
27.87633038979999
 20
28.60844367969997
 30
0.0
  0
VERTEX
  5
14E9
  8
3
 10
27.5034766448
 20
28.97432701819997
 30
0.0
  0
VERTEX
  5
14EA
  8
3
 10
27.375
 20
29.37991182339999
 30
0.0
  0
VERTEX
  5
14EB
  8
3
 10
27.5034766448
 20
29.78549662849997
 30
0.0
  0
VERTEX
  5
14EC
  8
3
 10
27.87633038979999
 20
30.15137996699997
 30
0.0
  0
VERTEX
  5
14ED
  8
3
 10
28.45706371279999
 20
30.44174662849997
 30
0.0
  0
VERTEX
  5
14EE
  8
3
 10
29.18883038979999
 20
30.62817350099999
 30
0.0
  0
VERTEX
  5
14EF
  8
3
 10
30.0
 20
30.69241182339999
 30
0.0
  0
SEQEND
  5
1508
  8
3
  0
POLYLINE
  5
D3A
  8
3
 66
     1
 10
0.0
 20
0.0
 30
0.0
  0
VERTEX
  5
14F0
  8
3
 10
30.0
 20
-28.06741182339999
 30
0.0
  0
VERTEX
  5
14F1
  8
3
 10
30.8111696103
 20
-28.13165014579999
 30
0.0
  0
VERTEX
  5
14F2
  8
3
 10
31.54293628729999
 20
-28.31807701830002
 30
0.0
  0
VERTEX
  5
14F3
  8
3
 10
32.1236696103
 20
-28.60844367980002
 30
0.0
  0
VERTEX
  5
14F4
  8
3
 10
32.49652335530001
 20
-28.97432701830002
 30
0.0
  0
VERTEX
  5
14F5
  8
3
 10
32.625
 20
-29.37991182339999
 30
0.0
  0
VERTEX
  5
14F6
  8
3
 10
32.49652335530001
 20
-29.78549662850003
 30
0.0
  0
VERTEX
  5
14F7
  8
3
 10
32.1236696103
 20
-30.15137996710001
 30
0.0
  0
VERTEX
  5
14F8
  8
3
 10
31.54293628729999
 20
-30.44174662850003
 30
0.0
  0
VERTEX
  5
14F9
  8
3
 10
30.8111696103
 20
-30.62817350110004
 30
0.0
  0
VERTEX
  5
14FA
  8
3
 10
30.0
 20
-30.69241182339999
 30
0.0
  0
VERTEX
  5
14FB
  8
3
 10
29.18883038979999
 20
-30.62817350110004
 30
0.0
  0
VERTEX
  5
14FC
  8
3
 10
28.45706371279999
 20
-30.44174662850003
 30
0.0
  0
VERTEX
  5
14FD
  8
3
 10
27.87633038979999
 20
-30.15137996710001
 30
0.0
  0
VERTEX
  5
14FE
  8
3
 10
27.5034766448
 20
-29.78549662850003
 30
0.0
  0
VERTEX
  5
14FF
  8
3
 10
27.375
 20
-29.37991182339999
 30
0.0
  0
VERTEX
  5
1500
  8
3
 10
27.5034766448
 20
-28.97432701830002
 30
0.0
  0
VERTEX
  5
1501
  8
3
 10
27.87633038979999
 20
-28.60844367980002
 30
0.0
  0
VERTEX
  5
1502
  8
3
 10
28.45706371279999
 20
-28.31807701830002
 30
0.0
  0
VERTEX
  5
1503
  8
3
 10
29.18883038979999
 20
-28.13165014579999
 30
0.0
  0
VERTEX
  5
1504
  8
3
 10
30.0
 20
-28.06741182339999
 30
0.0
  0
SEQEND
  5
1507
  8
3
  0
ARC
  5
D41
  8
3
 10
39.19999999999999
 20
-18.20087000000001
 30
0.0
 40
0.1999999999999925
 50
270.0
 51
288.1948723387958
  0
ARC
  5
D42
  8
3
 10
39.19999999999999
 20
-32.59913
 30
0.0
 40
0.1999999999999925
 50
71.80512766120421
 51
90.0
  0
LINE
  5
D43
  8
3
 10
50.0
 20
-18.39087000000001
 30
0.0
 11
39.26244998000001
 21
-18.39087000000001
 31
0.0
  0
LINE
  5
D44
  8
3
 10
39.26244998000001
 20
-32.40913
 30
0.0
 11
50.0
 21
-32.40913
 31
0.0
  0
LINE
  5
D45
  8
3
 10
38.12976581769999
 20
-18.40087
 30
0.0
 11
37.19999999999999
 21
-18.65000000000003
 31
0.0
  0
LINE
  5
D46
  8
3
 10
37.19999999999999
 20
-32.15000000000003
 30
0.0
 11
38.12976581769999
 21
-32.39913000000001
 31
0.0
  0
LINE
  5
D47
  8
3
 10
39.19999999999999
 20
-18.40087
 30
0.0
 11
38.12976581769999
 21
-18.40087
 31
0.0
  0
LINE
  5
D48
  8
3
 10
38.12976581769999
 20
-32.39913000000001
 30
0.0
 11
39.19999999999999
 21
-32.39913000000001
 31
0.0
  0
LINE
  5
D49
  8
3
 10
50.0
 20
32.40913
 30
0.0
 11
39.26244998000001
 21
32.40913
 31
0.0
  0
LINE
  5
D4A
  8
3
 10
39.26244998000001
 20
18.39087000000001
 30
0.0
 11
50.0
 21
18.39087000000001
 31
0.0
  0
ARC
  5
D4B
  8
3
 10
39.19999999999999
 20
32.59913
 30
0.0
 40
0.2000000000000455
 50
270.0
 51
288.194872338801
  0
ARC
  5
D4C
  8
3
 10
39.19999999999999
 20
18.20087000000001
 30
0.0
 40
0.1999999999999886
 50
71.80512766120167
 51
90.0
  0
LINE
  5
D4D
  8
3
 10
39.19999999999999
 20
32.39913000000001
 30
0.0
 11
38.12976581769999
 21
32.39913000000001
 31
0.0
  0
LINE
  5
D4E
  8
3
 10
38.12976581769999
 20
18.40087
 30
0.0
 11
39.19999999999999
 21
18.40087
 31
0.0
  0
LINE
  5
D4F
  8
3
 10
38.12976581769999
 20
32.39913000000001
 30
0.0
 11
37.19999999999999
 21
32.14999999999998
 31
0.0
  0
LINE
  5
D50
  8
3
 10
37.19999999999999
 20
18.64999999999998
 30
0.0
 11
38.12976581769999
 21
18.40087
 31
0.0
  0
LINE
  5
D51
  8
3
 10
28.1083956361
 20
27.53483473749998
 30
0.0
 11
28.5711309834
 21
27.20763143549999
 31
0.0
  0
LINE
  5
D52
  8
3
 10
31.42886901669999
 20
27.20763143549999
 30
0.0
 11
31.89160436399999
 21
27.53483473749998
 31
0.0
  0
LINE
  5
D53
  8
3
 10
28.585496796
 20
27.60150180900001
 30
0.0
 11
28.83727836630001
 21
27.51511542840001
 31
0.0
  0
LINE
  5
D54
  8
3
 10
31.1627216338
 20
27.51511542840001
 30
0.0
 11
31.41450320410001
 21
27.60150180900001
 31
0.0
  0
LINE
  5
D55
  8
3
 10
31.3108103555
 20
29.15873917739998
 30
0.0
 11
31.1627216338
 21
29.2095484907
 31
0.0
  0
LINE
  5
D56
  8
3
 10
28.83727836630001
 20
29.2095484907
 30
0.0
 11
28.68918964459999
 21
29.15873917739998
 31
0.0
  0
LINE
  5
D57
  8
3
 10
27.5
 20
28.71021840549997
 30
0.0
 11
27.5
 21
28.63217885419999
 31
0.0
  0
LINE
  5
D58
  8
3
 10
32.5
 20
28.63217885419999
 30
0.0
 11
32.5
 21
28.71021840549997
 31
0.0
  0
LINE
  5
D59
  8
3
 10
31.41450320410001
 20
29.74089545070001
 30
0.0
 11
31.1627216338
 21
29.82728183130001
 31
0.0
  0
LINE
  5
D5A
  8
3
 10
28.83727836630001
 20
29.82728183130001
 30
0.0
 11
28.585496796
 21
29.74089545070001
 31
0.0
  0
LINE
  5
D5B
  8
3
 10
28.585496796
 20
28.21923514959997
 30
0.0
 11
28.83727836630001
 21
28.13284876899996
 31
0.0
  0
LINE
  5
D5C
  8
3
 10
31.1627216338
 20
28.13284876899996
 30
0.0
 11
31.41450320410001
 21
28.21923514959997
 31
0.0
  0
LINE
  5
D5D
  8
3
 10
27.5
 20
29.32795174609998
 30
0.0
 11
27.5
 21
29.2499121948
 31
0.0
  0
LINE
  5
D5E
  8
3
 10
32.5
 20
29.2499121948
 30
0.0
 11
32.5
 21
29.32795174609998
 31
0.0
  0
LINE
  5
D5F
  8
3
 10
31.41450320410001
 20
30.35862879129996
 30
0.0
 11
31.1627216338
 21
30.44501517189997
 31
0.0
  0
LINE
  5
D60
  8
3
 10
28.83727836630001
 20
30.44501517189997
 30
0.0
 11
28.585496796
 21
30.35862879129996
 31
0.0
  0
LINE
  5
D61
  8
3
 10
28.585496796
 20
28.83696849019998
 30
0.0
 11
28.83727836630001
 21
28.75058210959997
 31
0.0
  0
LINE
  5
D62
  8
3
 10
31.1627216338
 20
28.75058210959997
 30
0.0
 11
31.41450320410001
 21
28.83696849019998
 31
0.0
  0
LINE
  5
D63
  8
3
 10
27.5
 20
29.9456850867
 30
0.0
 11
27.5
 21
29.86764553540002
 31
0.0
  0
LINE
  5
D64
  8
3
 10
32.5
 20
29.86764553540002
 30
0.0
 11
32.5
 21
29.9456850867
 31
0.0
  0
LINE
  5
D65
  8
3
 10
31.41450320410001
 20
30.97636213189998
 30
0.0
 11
31.1627216338
 21
31.06274851249998
 31
0.0
  0
LINE
  5
D66
  8
3
 10
28.83727836630001
 20
31.06274851249998
 30
0.0
 11
28.585496796
 21
30.97636213189998
 31
0.0
  0
LINE
  5
D67
  8
3
 10
28.585496796
 20
29.45470183079999
 30
0.0
 11
28.83727836630001
 21
29.36831545019999
 31
0.0
  0
LINE
  5
D68
  8
3
 10
31.1627216338
 20
29.36831545019999
 30
0.0
 11
31.41450320410001
 21
29.45470183079999
 31
0.0
  0
LINE
  5
D69
  8
3
 10
27.5
 20
30.56341842730001
 30
0.0
 11
27.5
 21
30.48537887599997
 31
0.0
  0
LINE
  5
D6A
  8
3
 10
32.5
 20
30.48537887599997
 30
0.0
 11
32.5
 21
30.56341842730001
 31
0.0
  0
LINE
  5
D6B
  8
3
 10
31.41450320410001
 20
31.59409547249999
 30
0.0
 11
31.1627216338
 21
31.68048185309999
 31
0.0
  0
LINE
  5
D6C
  8
3
 10
28.83727836630001
 20
31.68048185309999
 30
0.0
 11
28.585496796
 21
31.59409547249999
 31
0.0
  0
LINE
  5
D6D
  8
3
 10
28.585496796
 20
30.0724351714
 30
0.0
 11
28.83727836630001
 21
29.9860487908
 31
0.0
  0
LINE
  5
D6E
  8
3
 10
31.1627216338
 20
29.9860487908
 30
0.0
 11
31.41450320410001
 21
30.0724351714
 31
0.0
  0
LINE
  5
D6F
  8
3
 10
27.5
 20
31.18115176789996
 30
0.0
 11
27.5
 21
31.10311221659998
 31
0.0
  0
LINE
  5
D70
  8
3
 10
32.5
 20
31.10311221659998
 30
0.0
 11
32.5
 21
31.18115176789996
 31
0.0
  0
LINE
  5
D71
  8
3
 10
31.41450320410001
 20
32.2118288131
 30
0.0
 11
31.1627216338
 21
32.2982151937
 31
0.0
  0
LINE
  5
D72
  8
3
 10
28.83727836630001
 20
32.2982151937
 30
0.0
 11
28.585496796
 21
32.2118288131
 31
0.0
  0
LINE
  5
D73
  8
3
 10
28.585496796
 20
30.69016851200001
 30
0.0
 11
28.83727836630001
 21
30.60378213140001
 31
0.0
  0
LINE
  5
D74
  8
3
 10
31.1627216338
 20
30.60378213140001
 30
0.0
 11
31.41450320410001
 21
30.69016851200001
 31
0.0
  0
LINE
  5
D75
  8
3
 10
27.5
 20
31.79888510849997
 30
0.0
 11
27.5
 21
31.72084555719999
 31
0.0
  0
LINE
  5
D76
  8
3
 10
32.5
 20
31.72084555719999
 30
0.0
 11
32.5
 21
31.79888510849997
 31
0.0
  0
LINE
  5
D77
  8
3
 10
31.41450320410001
 20
32.82956215370001
 30
0.0
 11
31.1627216338
 21
32.91594853430001
 31
0.0
  0
LINE
  5
D78
  8
3
 10
28.83727836630001
 20
32.91594853430001
 30
0.0
 11
28.585496796
 21
32.82956215370001
 31
0.0
  0
LINE
  5
D79
  8
3
 10
27.5
 20
32.41661844919997
 30
0.0
 11
27.5
 21
32.33857889780001
 31
0.0
  0
LINE
  5
D7A
  8
3
 10
32.5
 20
32.33857889780001
 30
0.0
 11
32.5
 21
32.41661844919997
 31
0.0
  0
LINE
  5
D7B
  8
3
 10
31.41450320410001
 20
33.44729549429996
 30
0.0
 11
31.1627216338
 21
33.53368187489997
 31
0.0
  0
LINE
  5
D7C
  8
3
 10
28.83727836630001
 20
33.53368187489997
 30
0.0
 11
28.585496796
 21
33.44729549429996
 31
0.0
  0
LINE
  5
D7D
  8
3
 10
28.7234939594
 20
31.87828829860001
 30
0.0
 11
28.83727836630001
 21
31.83924881269996
 31
0.0
  0
LINE
  5
D7E
  8
3
 10
31.1627216338
 20
31.83924881269996
 30
0.0
 11
31.27650604070001
 21
31.87828829860001
 31
0.0
  0
LINE
  5
D7F
  8
3
 10
31.89160436399999
 20
-27.53483473760002
 30
0.0
 11
31.42886901669999
 21
-27.20763143560004
 31
0.0
  0
LINE
  5
D80
  8
3
 10
28.5711309834
 20
-27.20763143560004
 30
0.0
 11
28.1083956361
 21
-27.53483473760002
 31
0.0
  0
LINE
  5
D81
  8
3
 10
31.41450320410001
 20
-27.6015018091
 30
0.0
 11
31.1627216338
 21
-27.5151154285
 31
0.0
  0
LINE
  5
D82
  8
3
 10
28.83727836630001
 20
-27.5151154285
 30
0.0
 11
28.585496796
 21
-27.6015018091
 31
0.0
  0
LINE
  5
D83
  8
3
 10
28.68918964459999
 20
-29.15873917750002
 30
0.0
 11
28.83727836630001
 21
-29.2095484907
 31
0.0
  0
LINE
  5
D84
  8
3
 10
31.1627216338
 20
-29.2095484907
 30
0.0
 11
31.3108103555
 21
-29.15873917750002
 31
0.0
  0
LINE
  5
D85
  8
3
 10
32.5
 20
-28.71021840560002
 30
0.0
 11
32.5
 21
-28.63217885419999
 31
0.0
  0
LINE
  5
D86
  8
3
 10
27.5
 20
-28.63217885419999
 30
0.0
 11
27.5
 21
-28.71021840560002
 31
0.0
  0
LINE
  5
D87
  8
3
 10
28.585496796
 20
-29.7408954508
 30
0.0
 11
28.83727836630001
 21
-29.82728183130001
 31
0.0
  0
LINE
  5
D88
  8
3
 10
31.1627216338
 20
-29.82728183130001
 30
0.0
 11
31.41450320410001
 21
-29.7408954508
 31
0.0
  0
LINE
  5
D89
  8
3
 10
31.41450320410001
 20
-28.21923514970001
 30
0.0
 11
31.1627216338
 21
-28.13284876910001
 31
0.0
  0
LINE
  5
D8A
  8
3
 10
28.83727836630001
 20
-28.13284876910001
 30
0.0
 11
28.585496796
 21
-28.21923514970001
 31
0.0
  0
LINE
  5
D8B
  8
3
 10
32.5
 20
-29.32795174620003
 30
0.0
 11
32.5
 21
-29.2499121948
 31
0.0
  0
LINE
  5
D8C
  8
3
 10
27.5
 20
-29.2499121948
 30
0.0
 11
27.5
 21
-29.32795174620003
 31
0.0
  0
LINE
  5
D8D
  8
3
 10
28.585496796
 20
-30.35862879140001
 30
0.0
 11
28.83727836630001
 21
-30.44501517190002
 31
0.0
  0
LINE
  5
D8E
  8
3
 10
31.1627216338
 20
-30.44501517190002
 30
0.0
 11
31.41450320410001
 21
-30.35862879140001
 31
0.0
  0
LINE
  5
D8F
  8
3
 10
31.41450320410001
 20
-28.83696849030002
 30
0.0
 11
31.1627216338
 21
-28.75058210970002
 31
0.0
  0
LINE
  5
D90
  8
3
 10
28.83727836630001
 20
-28.75058210970002
 30
0.0
 11
28.585496796
 21
-28.83696849030002
 31
0.0
  0
LINE
  5
D91
  8
3
 10
32.5
 20
-29.94568508680004
 30
0.0
 11
32.5
 21
-29.86764553540002
 31
0.0
  0
LINE
  5
D92
  8
3
 10
27.5
 20
-29.86764553540002
 30
0.0
 11
27.5
 21
-29.94568508680004
 31
0.0
  0
LINE
  5
D93
  8
3
 10
28.585496796
 20
-30.97636213200002
 30
0.0
 11
28.83727836630001
 21
-31.06274851250004
 31
0.0
  0
LINE
  5
D94
  8
3
 10
31.1627216338
 20
-31.06274851250004
 30
0.0
 11
31.41450320410001
 21
-30.97636213200002
 31
0.0
  0
LINE
  5
D95
  8
3
 10
31.41450320410001
 20
-29.45470183090004
 30
0.0
 11
31.1627216338
 21
-29.36831545030003
 31
0.0
  0
LINE
  5
D96
  8
3
 10
28.83727836630001
 20
-29.36831545030003
 30
0.0
 11
28.585496796
 21
-29.45470183090004
 31
0.0
  0
LINE
  5
D97
  8
3
 10
32.5
 20
-30.56341842739999
 30
0.0
 11
32.5
 21
-30.48537887600003
 31
0.0
  0
LINE
  5
D98
  8
3
 10
27.5
 20
-30.48537887600003
 30
0.0
 11
27.5
 21
-30.56341842739999
 31
0.0
  0
LINE
  5
D99
  8
3
 10
28.585496796
 20
-31.59409547260003
 30
0.0
 11
28.83727836630001
 21
-31.68048185320004
 31
0.0
  0
LINE
  5
D9A
  8
3
 10
31.1627216338
 20
-31.68048185320004
 30
0.0
 11
31.41450320410001
 21
-31.59409547260003
 31
0.0
  0
LINE
  5
D9B
  8
3
 10
31.41450320410001
 20
-30.07243517149999
 30
0.0
 11
31.1627216338
 21
-29.98604879089999
 31
0.0
  0
LINE
  5
D9C
  8
3
 10
28.83727836630001
 20
-29.98604879089999
 30
0.0
 11
28.585496796
 21
-30.07243517149999
 31
0.0
  0
LINE
  5
D9D
  8
3
 10
32.5
 20
-31.18115176800001
 30
0.0
 11
32.5
 21
-31.10311221660004
 31
0.0
  0
LINE
  5
D9E
  8
3
 10
27.5
 20
-31.10311221660004
 30
0.0
 11
27.5
 21
-31.18115176800001
 31
0.0
  0
LINE
  5
D9F
  8
3
 10
28.585496796
 20
-32.21182881319999
 30
0.0
 11
28.83727836630001
 21
-32.29821519379999
 31
0.0
  0
LINE
  5
DA0
  8
3
 10
31.1627216338
 20
-32.29821519379999
 30
0.0
 11
31.41450320410001
 21
-32.21182881319999
 31
0.0
  0
LINE
  5
DA1
  8
3
 10
31.41450320410001
 20
-30.6901685121
 30
0.0
 11
31.1627216338
 21
-30.6037821315
 31
0.0
  0
LINE
  5
DA2
  8
3
 10
28.83727836630001
 20
-30.6037821315
 30
0.0
 11
28.585496796
 21
-30.6901685121
 31
0.0
  0
LINE
  5
DA3
  8
3
 10
32.5
 20
-31.79888510860002
 30
0.0
 11
32.5
 21
-31.72084555730004
 31
0.0
  0
LINE
  5
DA4
  8
3
 10
27.5
 20
-31.72084555730004
 30
0.0
 11
27.5
 21
-31.79888510860002
 31
0.0
  0
LINE
  5
DA5
  8
3
 10
28.585496796
 20
-32.8295621538
 30
0.0
 11
28.83727836630001
 21
-32.9159485344
 31
0.0
  0
LINE
  5
DA6
  8
3
 10
31.1627216338
 20
-32.9159485344
 30
0.0
 11
31.41450320410001
 21
-32.8295621538
 31
0.0
  0
LINE
  5
DA7
  8
3
 10
31.41450320410001
 20
-31.30790185270001
 30
0.0
 11
31.1627216338
 21
-31.22151547210001
 31
0.0
  0
LINE
  5
DA8
  8
3
 10
32.5
 20
-32.41661844920003
 30
0.0
 11
32.5
 21
-32.33857889789999
 31
0.0
  0
LINE
  5
DA9
  8
3
 10
27.5
 20
-32.33857889789999
 30
0.0
 11
27.5
 21
-32.41661844920003
 31
0.0
  0
LINE
  5
DAA
  8
3
 10
28.585496796
 20
-33.44729549440001
 30
0.0
 11
28.83727836630001
 21
-33.53368187500001
 31
0.0
  0
LINE
  5
DAB
  8
3
 10
31.1627216338
 20
-33.53368187500001
 30
0.0
 11
31.41450320410001
 21
-33.44729549440001
 31
0.0
  0
LINE
  5
DAC
  8
3
 10
31.27650604070001
 20
-31.8782882987
 30
0.0
 11
31.1627216338
 21
-31.83924881270002
 31
0.0
  0
LINE
  5
DAD
  8
3
 10
28.83727836630001
 20
-31.83924881270002
 30
0.0
 11
28.7234939594
 21
-31.8782882987
 31
0.0
  0
LINE
  5
DB0
  8
3
 10
50.0
 20
16.99907116049997
 30
0.0
 11
49.81362966949999
 21
16.30352761799998
 31
0.0
  0
LINE
  5
DB1
  8
3
 10
49.81362966949999
 20
-16.30352761810002
 30
0.0
 11
50.0
 21
-16.99907116060001
 31
0.0
  0
ARC
  5
DB2
  8
3
 10
50.19999999999999
 20
-16.19999999999999
 30
0.0
 40
0.4000000000000172
 50
166.874999999997
 51
195.0000000000026
  0
ARC
  5
DB3
  8
3
 10
50.19999999999999
 20
-16.19999999999999
 30
0.0
 40
0.4000000000000807
 50
119.9999999999997
 51
166.8749999999989
  0
ARC
  5
DB4
  8
3
 10
50.19999999999999
 20
16.19999999999999
 30
0.0
 40
0.4000000000000096
 50
164.9999999999975
 51
180.0
  0
ARC
  5
DB5
  8
3
 10
50.19999999999999
 20
16.19999999999999
 30
0.0
 40
0.4000000000000315
 50
180.0
 51
239.9999999999998
  0
LINE
  5
DB6
  8
3
 10
49.80000000000001
 20
16.19999999999999
 30
0.0
 11
49.80000000000001
 21
-16.19999999999999
 31
0.0
  0
LINE
  5
DB9
  8
3
 10
50.0
 20
2.0
 30
0.0
 11
30.64689797369999
 21
2.0
 31
0.0
  0
LINE
  5
DBA
  8
3
 10
30.6501266855
 20
-2.0
 30
0.0
 11
50.0
 21
-2.0
 31
0.0
  0
LINE
  5
DBF
  8
3
 10
29.35322149070001
 20
2.0
 30
0.0
 11
29.0
 21
2.0
 31
0.0
  0
LINE
  5
DC0
  8
3
 10
29.0
 20
-2.0
 30
0.0
 11
29.35322149070001
 21
-2.0
 31
0.0
  0
LINE
  5
DC1
  8
3
 10
28.87056662820001
 20
-1.784586694899986
 30
0.0
 11
29.0
 21
-2.0
 31
0.0
  0
LINE
  5
DC2
  8
3
 10
29.0
 20
2.0
 30
0.0
 11
28.87056662820001
 21
1.784586694799998
 31
0.0
  0
LINE
  5
DC3
  8
3
 10
27.90697874310001
 20
0.1809071481999922
 30
0.0
 11
27.798278762
 21
0.0
 31
0.0
  0
LINE
  5
DC4
  8
3
 10
27.798278762
 20
0.0
 30
0.0
 11
27.90785901679999
 21
-0.1823721698000327
 31
0.0
  0
LINE
  5
DC7
  8
SK3
 10
-33.75
 20
-10.8464985
 30
0.0
 11
-32.86196584909999
 21
-7.0
 31
0.0
  0
LINE
  5
DC8
  8
SK3
 10
-32.86196584909999
 20
7.0
 30
0.0
 11
-33.75
 21
10.8464985
 31
0.0
  0
LINE
  5
DCD
  8
3
 10
50.0
 20
8.0
 30
0.0
 11
40.0
 21
8.0
 31
0.0
  0
LINE
  5
DCE
  8
3
 10
40.0
 20
-8.0
 30
0.0
 11
50.0
 21
-8.0
 31
0.0
  0
LINE
  5
DCF
  8
3
 10
35.0
 20
32.40749999999997
 30
0.0
 11
30.7894692122
 21
25.39999999999998
 31
0.0
  0
LINE
  5
DD0
  8
3
 10
30.7894692122
 20
25.39999999999998
 30
0.0
 11
35.0
 21
18.39249999999998
 31
0.0
  0
LINE
  5
DD1
  8
3
 10
50.0
 20
32.40749999999997
 30
0.0
 11
35.0
 21
32.40749999999997
 31
0.0
  0
LINE
  5
DD2
  8
3
 10
35.0
 20
18.39249999999998
 30
0.0
 11
50.0
 21
18.39249999999998
 31
0.0
  0
LINE
  5
DD3
  8
3
 10
50.0
 20
-18.39249999999998
 30
0.0
 11
35.0
 21
-18.39249999999998
 31
0.0
  0
LINE
  5
DD4
  8
3
 10
35.0
 20
-32.40750000000003
 30
0.0
 11
50.0
 21
-32.40750000000003
 31
0.0
  0
LINE
  5
DD5
  8
3
 10
35.0
 20
-18.39249999999998
 30
0.0
 11
30.7894692122
 21
-25.40000000000003
 31
0.0
  0
LINE
  5
DD6
  8
3
 10
30.7894692122
 20
-25.40000000000003
 30
0.0
 11
35.0
 21
-32.40750000000003
 31
0.0
  0
LINE
  5
DD7
  8
3
 10
40.0
 20
7.0
 30
0.0
 11
-0.0000000000000142
 21
7.0
 31
0.0
  0
LINE
  5
DD8
  8
3
 10
0.0
 20
-7.0
 30
0.0
 11
40.0
 21
-7.0
 31
0.0
  0
LINE
  5
DDF
  8
3
 10
27.90000000000001
 20
10.24724206889999
 30
0.0
 11
27.90000000000001
 21
6.057950104199961
 31
0.0
  0
LINE
  5
DE0
  8
3
 10
27.90000000000001
 20
28.92524848639999
 30
0.0
 11
27.90000000000001
 21
10.5366268715
 31
0.0
  0
LINE
  5
DE1
  8
3
 10
32.09999999999999
 20
12.11954019899997
 30
0.0
 11
32.09999999999999
 21
28.92524848639999
 31
0.0
  0
LINE
  5
DE2
  8
3
 10
32.09999999999999
 20
6.056070391099979
 30
0.0
 11
32.09999999999999
 21
8.666617389099997
 31
0.0
  0
LINE
  5
DE3
  8
3
 10
32.09999999999999
 20
-8.66362421780002
 30
0.0
 11
32.09999999999999
 21
-6.056070391200024
 31
0.0
  0
LINE
  5
DE4
  8
3
 10
32.09999999999999
 20
-28.92524848639999
 30
0.0
 11
32.09999999999999
 21
-12.11634173150003
 31
0.0
  0
LINE
  5
DE5
  8
3
 10
27.90000000000001
 20
-10.5370580229
 30
0.0
 11
27.90000000000001
 21
-28.92524848639999
 31
0.0
  0
LINE
  5
DE6
  8
3
 10
27.90000000000001
 20
-6.057950104300005
 30
0.0
 11
27.90000000000001
 21
-10.24598870829999
 31
0.0
  0
LINE
  5
DE7
  8
3
 10
50.0
 20
12.39230484539996
 30
0.0
 11
31.8429309105
 21
12.39230484539996
 31
0.0
  0
LINE
  5
DE8
  8
3
 10
31.8335497759
 20
8.392304845399963
 30
0.0
 11
50.0
 21
8.392304845399963
 31
0.0
  0
LINE
  5
DE9
  8
3
 10
50.0
 20
-8.39230484540002
 30
0.0
 11
31.84204078409999
 21
-8.39230484540002
 31
0.0
  0
LINE
  5
DEA
  8
3
 10
31.8341813472
 20
-12.39230484540002
 30
0.0
 11
50.0
 21
-12.39230484540002
 31
0.0
  0
LINE
  5
DEF
  8
3
 10
27.85669647509999
 20
28.62213959499996
 30
0.0
 11
28.28535718009999
 21
28.31903070369998
 31
0.0
  0
LINE
  5
DF0
  8
3
 10
31.71464281999999
 20
28.31903070369998
 30
0.0
 11
32.14330352499999
 21
28.62213959499996
 31
0.0
  0
LINE
  5
DF1
  8
3
 10
27.375
 20
30.24576628109998
 30
0.0
 11
27.375
 21
29.37991182339999
 31
0.0
  0
LINE
  5
DF2
  8
3
 10
32.625
 20
29.37991182339999
 30
0.0
 11
32.625
 21
30.24378634679999
 31
0.0
  0
LINE
  5
DF3
  8
3
 10
32.625
 20
-30.24378634690004
 30
0.0
 11
32.625
 21
-29.37991182339999
 31
0.0
  0
LINE
  5
DF4
  8
3
 10
27.375
 20
-29.37991182339999
 30
0.0
 11
27.375
 21
-30.24576628120002
 31
0.0
  0
LINE
  5
DF5
  8
3
 10
32.14330352499999
 20
-28.62213959510001
 30
0.0
 11
31.71464281999999
 21
-28.31903070380002
 31
0.0
  0
LINE
  5
DF6
  8
3
 10
28.28535718009999
 20
-28.31903070380002
 30
0.0
 11
27.85669647509999
 21
-28.62213959510001
 31
0.0
  0
LINE
  5
DFD
  8
SK3
 10
-32.86196584909999
 20
7.0
 30
0.0
 11
-0.0000000000000142
 21
7.0
 31
0.0
  0
LINE
  5
DFE
  8
SK3
 10
0.0
 20
-7.0
 30
0.0
 11
-32.86196584909999
 21
-7.0
 31
0.0
  0
ARC
  5
E00
  8
NOCUT
 10
34.65000000000001
 20
35.32499999999999
 30
0.0
 40
0.4000000000000341
 50
270.0
 51
0.0
  0
ARC
  5
E02
  8
NOCUT
 10
49.0
 20
37.0
 30
0.0
 40
1.0
 50
0.0
 51
90.0
  0
ARC
  5
E03
  8
NOCUT
 10
36.05000000000001
 20
37.0
 30
0.0
 40
1.0
 50
90.0
 51
180.0
  0
LINE
  5
E04
  8
NOCUT
 10
49.0
 20
38.0
 30
0.0
 11
36.05000000000001
 21
38.0
 31
0.0
  0
LINE
  5
E05
  8
NOCUT
 10
50.0
 20
0.0
 30
0.0
 11
50.0
 21
37.0
 31
0.0
  0
LINE
  5
E08
  8
NOCUT
 10
35.05000000000001
 20
37.0
 30
0.0
 11
35.05000000000004
 21
35.32499999999999
 31
0.0
  0
LINE
  5
E15
  8
SK1
 10
93.40000000000003
 20
12.0
 30
0.0
 11
79.0
 21
12.0
 31
0.0
  0
LINE
  5
E17
  8
SK1
 10
79.0
 20
-12.0
 30
0.0
 11
93.40000000000003
 21
-12.0
 31
0.0
  0
LINE
  5
E18
  8
SK1
 10
93.40000000000003
 20
-12.0
 30
0.0
 11
95.0
 21
-10.40000000000003
 31
0.0
  0
LINE
  5
E19
  8
SK1
 10
95.0
 20
10.39999999999998
 30
0.0
 11
93.40000000000003
 21
12.0
 31
0.0
  0
ARC
  5
E1A
  8
SK1
 10
78.40000000000003
 20
-8.600000000000023
 30
0.0
 40
0.6000000000000227
 50
0.0
 51
90.0
  0
ARC
  5
E1B
  8
SK1
 10
78.40000000000003
 20
8.599999999999966
 30
0.0
 40
0.5999999999999943
 50
270.0
 51
0.0
  0
LINE
  5
E1C
  8
SK1
 10
78.40000000000003
 20
8.0
 30
0.0
 11
72.0
 21
8.0
 31
0.0
  0
LINE
  5
E1D
  8
SK1
 10
72.0
 20
-8.0
 30
0.0
 11
78.40000000000003
 21
-8.0
 31
0.0
  0
ARC
  5
E35
  8
SK1
 10
50.19999999999999
 20
-16.19999999999999
 30
0.0
 40
0.4000000000000807
 50
75.0000000000001
 51
120.0000000000007
  0
ARC
  5
E36
  8
SK1
 10
50.19999999999999
 20
16.19999999999999
 30
0.0
 40
0.4000000000000315
 50
239.9999999999963
 51
285.0000000000015
  0
ARC
  5
E37
  8
SK1
 10
70.5
 20
-14.5
 30
0.0
 40
1.500000000000057
 50
270.0
 51
0.0
  0
ARC
  5
E38
  8
SK1
 10
70.5
 20
14.5
 30
0.0
 40
1.5
 50
0.0
 51
90.0
  0
LINE
  5
E39
  8
SK1
 10
50.99907116060001
 20
-16.0
 30
0.0
 11
70.5
 21
-16.0
 31
0.0
  0
LINE
  5
E3A
  8
SK1
 10
70.5
 20
16.0
 30
0.0
 11
50.99907116060001
 21
16.0
 31
0.0
  0
LINE
  5
E3B
  8
SK1
 10
50.99907116060001
 20
16.0
 30
0.0
 11
50.30352761809996
 21
15.81362966949996
 31
0.0
  0
LINE
  5
E3C
  8
SK1
 10
50.30352761809996
 20
-15.81362966950002
 30
0.0
 11
50.99907116060001
 21
-16.0
 31
0.0
  0
LINE
  5
E3D
  8
SK1
 10
93.40000000000003
 20
-4.618058460700013
 30
0.0
 11
93.40000000000003
 21
-12.0
 31
0.0
  0
LINE
  5
E3E
  8
SK1
 10
93.40000000000003
 20
12.0
 30
0.0
 11
93.40000000000003
 21
-4.618058460700013
 31
0.0
  0
LINE
  5
E3F
  8
SK1
 10
79.0
 20
-4.618058460700013
 30
0.0
 11
79.0
 21
-12.0
 31
0.0
  0
LINE
  5
E40
  8
SK1
 10
79.0
 20
12.0
 30
0.0
 11
79.0
 21
-4.618058460700013
 31
0.0
  0
LINE
  5
E41
  8
SK1
 10
95.0
 20
-4.002317332600001
 30
0.0
 11
95.0
 21
-10.40000000000003
 31
0.0
  0
LINE
  5
E42
  8
SK1
 10
95.0
 20
10.39999999999998
 30
0.0
 11
95.0
 21
-4.002317332600001
 31
0.0
  0
LINE
  5
E43
  8
SK1
 10
57.0
 20
-18.40000000000003
 30
0.0
 11
50.0
 21
-18.40000000000003
 31
0.0
  0
LINE
  5
E44
  8
SK1
 10
57.0
 20
-32.40000000000003
 30
0.0
 11
50.0
 21
-32.40000000000003
 31
0.0
  0
LINE
  5
E45
  8
SK1
 10
57.0
 20
-18.40000000000003
 30
0.0
 11
57.0
 21
-32.40000000000003
 31
0.0
  0
LINE
  5
E46
  8
SK1
 10
57.0
 20
18.39999999999998
 30
0.0
 11
50.0
 21
18.39999999999998
 31
0.0
  0
LINE
  5
E47
  8
SK1
 10
57.0
 20
32.39999999999998
 30
0.0
 11
57.0
 21
18.39999999999998
 31
0.0
  0
LINE
  5
E48
  8
SK1
 10
57.0
 20
32.39999999999998
 30
0.0
 11
50.0
 21
32.39999999999998
 31
0.0
  0
LINE
  5
E77
  8
SK1
 10
72.0
 20
0.0
 30
0.0
 11
72.0
 21
14.5
 31
0.0
  0
LINE
  5
E78
  8
SK1
 10
72.0
 20
-14.5
 30
0.0
 11
72.0
 21
0.0
 31
0.0
  0
LINE
  5
E79
  8
SK1
 10
50.99907116060001
 20
0.0
 30
0.0
 11
50.99907116060001
 21
16.0
 31
0.0
  0
LINE
  5
E7A
  8
SK1
 10
50.99907116060001
 20
-16.0
 30
0.0
 11
50.99907116060001
 21
0.0
 31
0.0
  0
LINE
  5
E7B
  8
SK3
 10
55.10150000000004
 20
-3.078705640500004
 30
0.0
 11
55.10150000000004
 21
-8.0
 31
0.0
  0
LINE
  5
E7E
  8
SK3
 10
55.10150000000004
 20
8.0
 30
0.0
 11
55.10150000000004
 21
-3.078705640500004
 31
0.0
  0
LINE
  5
E7F
  8
SK3
 10
54.0
 20
-2.654806357600023
 30
0.0
 11
54.0
 21
-6.898500000000013
 31
0.0
  0
LINE
  5
E80
  8
SK3
 10
54.0
 20
6.898500000000013
 30
0.0
 11
54.0
 21
-2.654806357600023
 31
0.0
  0
LINE
  5
E81
  8
SK3
 10
87.0
 20
1.046839520099979
 30
0.0
 11
87.0
 21
4.291450228099961
 31
0.0
  0
LINE
  5
E82
  8
SK3
 10
87.0
 20
1.046839520099979
 30
0.0
 11
87.0
 21
-2.721190948000014
 31
0.0
  0
LINE
  5
E83
  8
SK3
 10
87.0
 20
1.046839520099979
 30
0.0
 11
95.0
 21
1.046839520099979
 31
0.0
  0
LINE
  5
E84
  8
SK3
 10
87.0
 20
-2.721190948000014
 30
0.0
 11
87.0
 21
-6.489221416000021
 31
0.0
  0
LINE
  5
E85
  8
SK3
 10
87.0
 20
4.291450228099961
 30
0.0
 11
87.0
 21
7.5360609361
 31
0.0
  0
LINE
  5
E86
  8
SK3
 10
87.0
 20
-7.012641176100033
 30
0.0
 11
87.0
 21
-6.489221416000021
 31
0.0
  0
LINE
  5
E87
  8
SK3
 10
87.0
 20
-6.489221416000021
 30
0.0
 11
95.0
 21
-6.489221416000021
 31
0.0
  0
LINE
  5
E88
  8
SK3
 10
87.0
 20
6.489221415999964
 30
0.0
 11
95.0
 21
6.489221415999964
 31
0.0
  0
LINE
  5
E89
  8
SK3
 10
87.0
 20
7.5360609361
 30
0.0
 11
95.0
 21
7.5360609361
 31
0.0
  0
LINE
  5
E8A
  8
SK3
 10
87.0
 20
-7.536060936199988
 30
0.0
 11
87.0
 21
-7.012641176100033
 31
0.0
  0
LINE
  5
E8B
  8
SK3
 10
87.0
 20
-1.046839520200024
 30
0.0
 11
95.0
 21
-1.046839520200024
 31
0.0
  0
LINE
  5
E8C
  8
SK3
 10
87.0
 20
-7.536060936199988
 30
0.0
 11
95.0
 21
-7.536060936199988
 31
0.0
  0
LINE
  5
F05
  8
SK3
 10
71.13397459629999
 20
-8.5
 30
0.0
 11
71.13397459629999
 21
8.5
 31
0.0
  0
LINE
  5
F06
  8
SK3
 10
69.0
 20
8.5
 30
0.0
 11
69.0
 21
-8.5
 31
0.0
  0
LINE
  5
F27
  8
SK3
 10
72.0
 20
8.0
 30
0.0
 11
55.10150000000004
 21
8.0
 31
0.0
  0
LINE
  5
F28
  8
SK3
 10
55.10150000000004
 20
-8.0
 30
0.0
 11
72.0
 21
-8.0
 31
0.0
  0
LINE
  5
F29
  8
SK3
 10
55.10150000000004
 20
8.0
 30
0.0
 11
54.0
 21
6.898500000000013
 31
0.0
  0
LINE
  5
F2A
  8
SK3
 10
54.0
 20
-6.898500000000013
 30
0.0
 11
55.10150000000004
 21
-8.0
 31
0.0
  0
LINE
  5
F2B
  8
SK3
 10
87.0
 20
7.07099999999997
 30
0.0
 11
82.91755624659999
 21
0.0
 31
0.0
  0
LINE
  5
F2C
  8
SK3
 10
82.91755624659999
 20
0.0
 30
0.0
 11
87.0
 21
-7.071000000000026
 31
0.0
  0
LINE
  5
FA5
  8
SK3
 10
72.0
 20
2.0
 30
0.0
 11
50.0
 21
2.0
 31
0.0
  0
LINE
  5
FA6
  8
SK3
 10
50.0
 20
-2.0
 30
0.0
 11
72.0
 21
-2.0
 31
0.0
  0
LINE
  5
FB5
  8
SK3
 10
72.0
 20
9.0
 30
0.0
 11
71.13397459629999
 21
8.5
 31
0.0
  0
LINE
  5
FB6
  8
SK3
 10
71.13397459629999
 20
-8.5
 30
0.0
 11
72.0
 21
-9.0
 31
0.0
  0
LINE
  5
FB7
  8
SK3
 10
71.13397459629999
 20
8.5
 30
0.0
 11
69.0
 21
8.5
 31
0.0
  0
LINE
  5
FB8
  8
SK3
 10
69.0
 20
-8.5
 30
0.0
 11
71.13397459629999
 21
-8.5
 31
0.0
  0
LINE
  5
FB9
  8
SK3
 10
69.0
 20
8.0
 30
0.0
 11
50.0
 21
8.0
 31
0.0
  0
LINE
  5
FBA
  8
SK3
 10
50.0
 20
-8.0
 30
0.0
 11
69.0
 21
-8.0
 31
0.0
  0
LINE
  5
FD3
  8
SK3
 10
72.0
 20
12.39230484539996
 30
0.0
 11
50.0
 21
12.39230484539996
 31
0.0
  0
LINE
  5
FD4
  8
SK3
 10
50.0
 20
8.392304845399963
 30
0.0
 11
72.0
 21
8.392304845399963
 31
0.0
  0
LINE
  5
FD5
  8
SK3
 10
72.0
 20
-8.39230484540002
 30
0.0
 11
50.0
 21
-8.39230484540002
 31
0.0
  0
LINE
  5
FD6
  8
SK3
 10
50.0
 20
-12.39230484540002
 30
0.0
 11
72.0
 21
-12.39230484540002
 31
0.0
  0
LINE
  5
FED
  8
SK4
 10
50.0
 20
0.0
 30
0.0
 11
95.0
 21
0.0000000000000009
 31
0.0
  0
DIMENSION
  5
FEF
  8
SK2
  2
*D10
 10
129.2562868443987
 20
-38.00000000000001
 30
0.0
 11
127.3812868443987
 21
-0.0000000000000071
 31
0.0
 70
    32
  3
ISO-25
 13
49.0
 23
38.0
 33
0.0
 14
49.0
 24
-38.0
 34
0.0
 50
90.0
1001
ACAD
1000
DSTYLE
1002
{
1070
   287
1070
     5
1070
   271
1070
     3
1070
   272
1070
     3
1070
   279
1070
     2
1002
}
  0
DIMENSION
  5
FFE
  8
SK2
  2
*D11
 10
111.7582856211571
 20
-16.0
 30
0.0
 11
109.8832856211571
 21
-0.0000000000000036
 31
0.0
 70
    32
  3
ISO-25
 13
70.5
 23
16.0
 33
0.0
 14
70.5
 24
-16.0
 34
0.0
 50
90.0
1001
ACAD
1000
DSTYLE
1002
{
1070
   287
1070
     5
1070
   271
1070
     3
1070
   272
1070
     3
1070
   279
1070
     2
1002
}
  0
ENDSEC
  0
EOF
