  0
SECTION
  2
HEADER
  9
$ACADVER
  1
AC1009
  9
$DWGCODEPAGE
  3
ansi_1251
  9
$INSBASE
 10
0.0
 20
0.0
 30
0.0
  9
$EXTMIN
 10
-68.25000000000001
 20
-30.5409271246
 30
0.0
  9
$EXTMAX
 10
88.90000000000003
 20
30.50275418977125
 30
0.0
  9
$LIMMIN
 10
0.0
 20
0.0
  9
$LIMMAX
 10
420.0
 20
297.0
  9
$ORTHOMODE
 70
     1
  9
$REGENMODE
 70
     1
  9
$FILLMODE
 70
     1
  9
$QTEXTMODE
 70
     0
  9
$MIRRTEXT
 70
     0
  9
$DRAGMODE
 70
     2
  9
$LTSCALE
 40
1.0
  9
$OSMODE
 70
   279
  9
$ATTMODE
 70
     1
  9
$TEXTSIZE
 40
2.5
  9
$TRACEWID
 40
1.0
  9
$TEXTSTYLE
  7
STANDARD
  9
$CLAYER
  8
SK4
  9
$CELTYPE
  6
BYLAYER
  9
$CECOLOR
 62
   256
  9
$DIMSCALE
 40
1.0
  9
$DIMASZ
 40
2.5
  9
$DIMEXO
 40
0.625
  9
$DIMDLI
 40
3.75
  9
$DIMRND
 40
0.0
  9
$DIMDLE
 40
0.0
  9
$DIMEXE
 40
1.25
  9
$DIMTP
 40
0.0
  9
$DIMTM
 40
0.0
  9
$DIMTXT
 40
2.5
  9
$DIMCEN
 40
2.5
  9
$DIMTSZ
 40
0.0
  9
$DIMTOL
 70
     0
  9
$DIMLIM
 70
     0
  9
$DIMTIH
 70
     0
  9
$DIMTOH
 70
     0
  9
$DIMSE1
 70
     0
  9
$DIMSE2
 70
     0
  9
$DIMTAD
 70
     1
  9
$DIMZIN
 70
     8
  9
$DIMBLK
  1

  9
$DIMASO
 70
     1
  9
$DIMSHO
 70
     1
  9
$DIMPOST
  1

  9
$DIMAPOST
  1

  9
$DIMALT
 70
     0
  9
$DIMALTD
 70
     3
  9
$DIMALTF
 40
0.03937007874016
  9
$DIMLFAC
 40
1.0
  9
$DIMTOFL
 70
     1
  9
$DIMTVP
 40
0.0
  9
$DIMTIX
 70
     0
  9
$DIMSOXD
 70
     0
  9
$DIMSAH
 70
     0
  9
$DIMBLK1
  1

  9
$DIMBLK2
  1

  9
$DIMSTYLE
  2
ISO-25
  9
$DIMCLRD
 70
     0
  9
$DIMCLRE
 70
     0
  9
$DIMCLRT
 70
     0
  9
$DIMTFAC
 40
1.0
  9
$DIMGAP
 40
0.625
  9
$LUNITS
 70
     2
  9
$LUPREC
 70
     3
  9
$SKETCHINC
 40
1.0
  9
$FILLETRAD
 40
10.0
  9
$AUNITS
 70
     0
  9
$AUPREC
 70
     0
  9
$MENU
  1
.
  9
$ELEVATION
 40
0.0
  9
$PELEVATION
 40
0.0
  9
$THICKNESS
 40
0.0
  9
$LIMCHECK
 70
     0
  9
$CHAMFERA
 40
10.0
  9
$CHAMFERB
 40
10.0
  9
$SKPOLY
 70
     0
  9
$TDCREATE
 40
2455022.429026158
  9
$TDUPDATE
 40
2458659.538982558
  9
$TDINDWG
 40
0.1506771181
  9
$TDUSRTIMER
 40
2458702.608279757
  9
$USRTIMER
 70
     1
  9
$ANGBASE
 50
0.0
  9
$ANGDIR
 70
     0
  9
$PDMODE
 70
     0
  9
$PDSIZE
 40
0.0
  9
$PLINEWID
 40
0.0
  9
$COORDS
 70
     1
  9
$SPLFRAME
 70
     0
  9
$SPLINETYPE
 70
     6
  9
$SPLINESEGS
 70
     8
  9
$ATTDIA
 70
     0
  9
$ATTREQ
 70
     1
  9
$HANDLING
 70
     1
  9
$HANDSEED
  5
152A
  9
$SURFTAB1
 70
     6
  9
$SURFTAB2
 70
     6
  9
$SURFTYPE
 70
     6
  9
$SURFU
 70
     6
  9
$SURFV
 70
     6
  9
$UCSNAME
  2

  9
$UCSORG
 10
0.0
 20
0.0
 30
0.0
  9
$UCSXDIR
 10
1.0
 20
0.0
 30
0.0
  9
$UCSYDIR
 10
0.0
 20
1.0
 30
0.0
  9
$PUCSNAME
  2

  9
$PUCSORG
 10
0.0
 20
0.0
 30
0.0
  9
$PUCSXDIR
 10
1.0
 20
0.0
 30
0.0
  9
$PUCSYDIR
 10
0.0
 20
1.0
 30
0.0
  9
$USERI1
 70
     0
  9
$USERI2
 70
     0
  9
$USERI3
 70
     0
  9
$USERI4
 70
     0
  9
$USERI5
 70
     0
  9
$USERR1
 40
0.0
  9
$USERR2
 40
0.0
  9
$USERR3
 40
0.0
  9
$USERR4
 40
0.0
  9
$USERR5
 40
0.0
  9
$WORLDVIEW
 70
     1
  9
$SHADEDGE
 70
     3
  9
$SHADEDIF
 70
    70
  9
$TILEMODE
 70
     1
  9
$MAXACTVP
 70
    64
  9
$PLIMCHECK
 70
     0
  9
$PEXTMIN
 10
1.000000000000000E+20
 20
1.000000000000000E+20
 30
1.000000000000000E+20
  9
$PEXTMAX
 10
-1.000000000000000E+20
 20
-1.000000000000000E+20
 30
-1.000000000000000E+20
  9
$PLIMMIN
 10
0.0
 20
0.0
  9
$PLIMMAX
 10
420.0
 20
297.0
  9
$UNITMODE
 70
     0
  9
$VISRETAIN
 70
     1
  9
$PLINEGEN
 70
     0
  9
$PSLTSCALE
 70
     1
  0
ENDSEC
  0
SECTION
  2
TABLES
  0
TABLE
  2
VPORT
 70
     1
  0
VPORT
  2
*ACTIVE
 70
     0
 10
0.0
 20
0.0
 11
1.0
 21
1.0
 12
13.52593548741031
 22
-6.513967113593736
 13
0.0
 23
0.0
 14
10.0
 24
10.0
 15
10.0
 25
10.0
 16
0.0
 26
0.0
 36
1.0
 17
0.0
 27
0.0
 37
0.0
 40
176.202532699508
 41
1.332880434782609
 42
50.0
 43
0.0
 44
0.0
 50
0.0
 51
0.0
 71
    16
 72
  1000
 73
     1
 74
     3
 75
     0
 76
     0
 77
     0
 78
     0
  0
ENDTAB
  0
TABLE
  2
LTYPE
 70
     6
  0
LTYPE
  2
CONTINUOUS
 70
     0
  3
Solid line
 72
    65
 73
     0
 40
0.0
  0
LTYPE
  2
CENTER
 70
     0
  3
 Center _____  _  _____  _  _____  _  _____  _ 
 72
    65
 73
     4
 40
50.8
 49
31.75
 49
-6.35
 49
6.35
 49
-6.35
  0
LTYPE
  2
DASHED
 70
     0
  3
Dashed __  __  __  __  __  __  __  __  __  __  
 72
    65
 73
     2
 40
19.05
 49
12.7
 49
-6.35
  0
LTYPE
  2
HIDDEN
 70
     0
  3
Hidden __ __ __ __ __ __ __ __ __ __ __ __ __ __
 72
    65
 73
     2
 40
1.905
 49
1.27
 49
-0.635
  0
LTYPE
  2
CENTERX2
 70
     0
  3
Center (2x) ________  __  ________  __  _____
 72
    65
 73
     4
 40
20.32
 49
12.7
 49
-2.54
 49
2.54
 49
-2.54
  0
LTYPE
  2
PHANTOM
 70
     0
  3
Phantom ______  __  __  ______  __  __  ______
 72
    65
 73
     6
 40
12.7
 49
6.35
 49
-1.27
 49
1.27
 49
-1.27
 49
1.27
 49
-1.27
  0
ENDTAB
  0
TABLE
  2
LAYER
 70
    26
  0
LAYER
  2
0
 70
     0
 62
     7
  6
CONTINUOUS
  0
LAYER
  2
1
 70
     0
 62
     4
  6
CONTINUOUS
  0
LAYER
  2
2
 70
     0
 62
     7
  6
CONTINUOUS
  0
LAYER
  2
3
 70
     0
 62
     1
  6
DASHED
  0
LAYER
  2
4
 70
     0
 62
     2
  6
CENTER
  0
LAYER
  2
6
 70
     0
 62
     5
  6
CONTINUOUS
  0
LAYER
  2
7
 70
     0
 62
     5
  6
CONTINUOUS
  0
LAYER
  2
11
 70
     0
 62
     4
  6
CONTINUOUS
  0
LAYER
  2
SK1
 70
     0
 62
     4
  6
CONTINUOUS
  0
LAYER
  2
SK2
 70
     0
 62
     7
  6
CONTINUOUS
  0
LAYER
  2
SK3
 70
     0
 62
     1
  6
DASHED
  0
LAYER
  2
SK4
 70
     0
 62
     2
  6
CENTER
  0
LAYER
  2
SK6
 70
     0
 62
     5
  6
CONTINUOUS
  0
LAYER
  2
SK7
 70
     0
 62
     5
  6
CONTINUOUS
  0
LAYER
  2
SK11
 70
     0
 62
     4
  6
CONTINUOUS
  0
LAYER
  2
CUT
 70
     0
 62
     1
  6
CONTINUOUS
  0
LAYER
  2
NOCUT
 70
     0
 62
     7
  6
CONTINUOUS
  0
LAYER
  2
SKVIEW1
 70
     0
 62
     4
  6
CONTINUOUS
  0
LAYER
  2
SKVIEW2
 70
     0
 62
     7
  6
CONTINUOUS
  0
LAYER
  2
SKVIEW3
 70
     0
 62
     1
  6
DASHED
  0
LAYER
  2
SKVIEW4
 70
     0
 62
     2
  6
CENTER
  0
LAYER
  2
SKVIEW6
 70
     0
 62
     5
  6
CONTINUOUS
  0
LAYER
  2
SKVIEW7
 70
     0
 62
     5
  6
CONTINUOUS
  0
LAYER
  2
SKVIEW11
 70
     0
 62
     4
  6
CONTINUOUS
  0
LAYER
  2
INFTOTAL
 70
     0
 62
     9
  6
CONTINUOUS
  0
LAYER
  2
DEFPOINTS
 70
     0
 62
     7
  6
CONTINUOUS
  0
ENDTAB
  0
TABLE
  2
STYLE
 70
     1
  0
STYLE
  2
STANDARD
 70
     0
 40
0.0
 41
1.0
 50
0.0
 71
     0
 42
2.5
  3
txt
  4

  0
ENDTAB
  0
TABLE
  2
VIEW
 70
     0
  0
ENDTAB
  0
TABLE
  2
UCS
 70
     0
  0
ENDTAB
  0
TABLE
  2
APPID
 70
     2
  0
APPID
  2
ACAD
 70
     0
  0
APPID
  2
ACAECLAYERSTANDARD
 70
     0
  0
ENDTAB
  0
TABLE
  2
DIMSTYLE
 70
     1
  0
DIMSTYLE
  2
ISO-25
 70
     0
  3

  4

  5

  6

  7

 40
1.0
 41
2.5
 42
0.625
 43
3.75
 44
1.25
 45
0.0
 46
0.0
 47
0.0
 48
0.0
140
2.5
141
2.5
142
0.0
143
0.03937007874016
144
1.0
145
0.0
146
1.0
147
0.625
 71
     0
 72
     0
 73
     0
 74
     0
 75
     0
 76
     0
 77
     1
 78
     8
170
     0
171
     3
172
     1
173
     0
174
     0
175
     0
176
     0
177
     0
178
     0
  0
ENDTAB
  0
ENDSEC
  0
SECTION
  2
BLOCKS
  0
BLOCK
  8
0
  2
$MODEL_SPACE
 70
     0
 10
0.0
 20
0.0
 30
0.0
  3
$MODEL_SPACE
  1

  0
ENDBLK
  5
21
  8
0
  0
BLOCK
 67
     1
  8
0
  2
$PAPER_SPACE
 70
     0
 10
0.0
 20
0.0
 30
0.0
  3
$PAPER_SPACE
  1

  0
ENDBLK
  5
1D
 67
     1
  8
0
  0
BLOCK
  8
0
  2
*U0
 70
     1
 10
0.0
 20
0.0
 30
0.0
  3
*U0
  1

  0
TEXT
  5
77E
  8
SK6
 10
-50.0
 20
78.25
 30
0.0
 40
3.5
  1
BIG DAISHOWA
 41
0.85
  0
TEXT
  5
781
  8
SK6
 10
-50.0
 20
73.0
 30
0.0
 40
3.5
  1
BCV50-FMH22-47-50
 41
0.85
  0
ENDBLK
  5
782
  8
0
  0
BLOCK
  8
0
  2
_FILLED
 70
     0
 10
0.0
 20
0.0
 30
0.0
  3
_FILLED
  1

  0
SOLID
  5
789
  8
0
  6
BYBLOCK
 62
     0
 10
0.0
 20
0.0
 30
0.0
 11
-1.0
 21
0.2142857143
 31
0.0
 12
-1.0
 22
-0.2142857143
 32
0.0
 13
-1.0
 23
-0.2142857143
 33
0.0
  0
ENDBLK
  5
78A
  8
0
  6
BYBLOCK
 62
     0
  0
BLOCK
  8
0
  2
*U2
 70
     1
 10
0.0
 20
0.0
 30
0.0
  3
*U2
  1

  0
TEXT
  5
790
  8
SK6
 10
-85.96178542556666
 20
-67.06748653279999
 30
0.0
 40
3.5
  1
BCV50
 41
0.85
  0
ENDBLK
  5
791
  8
0
  0
BLOCK
  8
0
  2
*D3
 70
     1
 10
0.0
 20
0.0
 30
0.0
  3
*D3
  1

  0
LINE
  5
7EA
  8
SK2
 62
     0
 10
35.125
 20
34.92499999999998
 30
0.0
 11
128.6518709748206
 21
34.92499999999998
 31
0.0
  0
LINE
  5
7EB
  8
SK2
 62
     0
 10
35.125
 20
-34.92500000000001
 30
0.0
 11
128.6518709748206
 21
-34.92500000000002
 31
0.0
  0
LINE
  5
7EC
  8
SK2
 62
     0
 10
127.4018709748206
 20
32.42499999999998
 30
0.0
 11
127.4018709748206
 21
-32.42500000000002
 31
0.0
  0
SOLID
  5
7ED
  8
SK2
 62
     0
 10
127.8185376414873
 20
32.42499999999998
 30
0.0
 11
126.9852043081539
 21
32.42499999999998
 31
0.0
 12
127.4018709748206
 22
34.92499999999998
 32
0.0
 13
127.4018709748206
 23
34.92499999999998
 33
0.0
  0
SOLID
  5
7EE
  8
SK2
 62
     0
 10
126.9852043081539
 20
-32.42500000000002
 30
0.0
 11
127.8185376414873
 21
-32.42500000000002
 31
0.0
 12
127.4018709748206
 22
-34.92500000000002
 32
0.0
 13
127.4018709748206
 23
-34.92500000000002
 33
0.0
  0
TEXT
  5
7EF
  8
SK2
  6
CONTINUOUS
 62
     0
 10
126.7768709748206
 20
-5.000000000000028
 30
0.0
 40
2.5
  1
69.85
 50
90.0
  0
POINT
  5
7F0
  8
DEFPOINTS
 62
     0
 10
34.5
 20
34.92499999999998
 30
0.0
  0
POINT
  5
7F1
  8
DEFPOINTS
 62
     0
 10
34.5
 20
-34.92500000000001
 30
0.0
  0
POINT
  5
7F2
  8
DEFPOINTS
 62
     0
 10
127.4018709748206
 20
-34.92500000000002
 30
0.0
  0
ENDBLK
  5
7F4
  8
0
  0
BLOCK
  8
0
  2
*D4
 70
     1
 10
0.0
 20
0.0
 30
0.0
  3
*D4
  1

  0
LINE
  5
7F9
  8
SK2
 62
     0
 10
0.0
 20
-35.55000000000001
 30
0.0
 11
0.0
 21
-74.40665109041375
 31
0.0
  0
LINE
  5
7FA
  8
SK2
 62
     0
 10
35.05
 20
-35.05000000000001
 30
0.0
 11
35.05
 21
-74.40665109041375
 31
0.0
  0
LINE
  5
7FB
  8
SK2
 62
     0
 10
2.5
 20
-73.15665109041375
 30
0.0
 11
32.55
 21
-73.15665109041375
 31
0.0
  0
SOLID
  5
7FC
  8
SK2
 62
     0
 10
2.5
 20
-72.73998442374707
 30
0.0
 11
2.5
 21
-73.57331775708042
 31
0.0
 12
0.0
 22
-73.15665109041375
 32
0.0
 13
0.0
 23
-73.15665109041375
 33
0.0
  0
SOLID
  5
7FD
  8
SK2
 62
     0
 10
32.55
 20
-73.57331775708042
 30
0.0
 11
32.55
 21
-72.73998442374707
 31
0.0
 12
35.05
 22
-73.15665109041375
 32
0.0
 13
35.05
 23
-73.15665109041375
 33
0.0
  0
TEXT
  5
7FE
  8
SK2
  6
CONTINUOUS
 62
     0
 10
12.73333333333333
 20
-72.53165109041375
 30
0.0
 40
2.5
  1
35.05
  0
POINT
  5
7FF
  8
DEFPOINTS
 62
     0
 10
0.0
 20
-34.92500000000001
 30
0.0
  0
POINT
  5
800
  8
DEFPOINTS
 62
     0
 10
35.05
 20
-34.42500000000001
 30
0.0
  0
POINT
  5
801
  8
DEFPOINTS
 62
     0
 10
35.05
 20
-73.15665109041375
 30
0.0
  0
ENDBLK
  5
803
  8
0
  0
BLOCK
  8
0
  2
*D5
 70
     1
 10
0.0
 20
0.0
 30
0.0
  3
*D5
  1

  0
LINE
  5
10D4
  8
SK2
 62
     0
 10
0.0
 20
35.54999999999998
 30
0.0
 11
0.0
 21
59.50371686322627
 31
0.0
  0
LINE
  5
10D5
  8
SK2
 62
     0
 10
50.0
 20
23.125
 30
0.0
 11
50.0
 21
59.50371686322627
 31
0.0
  0
LINE
  5
10D6
  8
SK2
 62
     0
 10
2.5
 20
58.25371686322627
 30
0.0
 11
47.5
 21
58.25371686322627
 31
0.0
  0
SOLID
  5
10D7
  8
SK2
 62
     0
 10
2.5
 20
58.67038352989293
 30
0.0
 11
2.5
 21
57.8370501965596
 31
0.0
 12
0.0
 22
58.25371686322627
 32
0.0
 13
0.0
 23
58.25371686322627
 33
0.0
  0
SOLID
  5
10D8
  8
SK2
 62
     0
 10
47.5
 20
57.8370501965596
 30
0.0
 11
47.5
 21
58.67038352989293
 31
0.0
 12
50.0
 22
58.25371686322627
 32
0.0
 13
50.0
 23
58.25371686322627
 33
0.0
  0
TEXT
  5
10D9
  8
SK2
  6
CONTINUOUS
 62
     0
 10
23.125
 20
58.87871686322627
 30
0.0
 40
2.5
  1
50
  0
POINT
  5
10DA
  8
DEFPOINTS
 62
     0
 10
0.0
 20
34.92499999999998
 30
0.0
  0
POINT
  5
10DB
  8
DEFPOINTS
 62
     0
 10
50.0
 20
22.5
 30
0.0
  0
POINT
  5
10DC
  8
DEFPOINTS
 62
     0
 10
50.0
 20
58.25371686322627
 30
0.0
  0
ENDBLK
  5
10DE
  8
0
  0
BLOCK
  8
0
  2
*D6
 70
     1
 10
0.0
 20
0.0
 30
0.0
  3
*D6
  1

  0
LINE
  5
10E3
  8
SK2
 62
     0
 10
49.62499999999998
 20
23.5
 30
0.0
 11
113.3973753709796
 21
23.5
 31
0.0
  0
LINE
  5
10E4
  8
SK2
 62
     0
 10
49.625
 20
-23.5
 30
0.0
 11
113.3973753709796
 21
-23.5
 31
0.0
  0
LINE
  5
10E5
  8
SK2
 62
     0
 10
112.1473753709796
 20
21.0
 30
0.0
 11
112.1473753709796
 21
-21.0
 31
0.0
  0
SOLID
  5
10E6
  8
SK2
 62
     0
 10
112.5640420376462
 20
21.0
 30
0.0
 11
111.7307087043129
 21
21.0
 31
0.0
 12
112.1473753709796
 22
23.5
 32
0.0
 13
112.1473753709796
 23
23.5
 33
0.0
  0
SOLID
  5
10E7
  8
SK2
 62
     0
 10
111.7307087043129
 20
-21.0
 30
0.0
 11
112.5640420376462
 21
-21.0
 31
0.0
 12
112.1473753709796
 22
-23.5
 32
0.0
 13
112.1473753709796
 23
-23.5
 33
0.0
  0
TEXT
  5
10E8
  8
SK2
  6
CONTINUOUS
 62
     0
 10
111.5223753709796
 20
-2.083333333333329
 30
0.0
 40
2.5
  1
47
 50
90.0
  0
POINT
  5
10E9
  8
DEFPOINTS
 62
     0
 10
48.99999999999998
 20
23.5
 30
0.0
  0
POINT
  5
10EA
  8
DEFPOINTS
 62
     0
 10
49.0
 20
-23.5
 30
0.0
  0
POINT
  5
10EB
  8
DEFPOINTS
 62
     0
 10
112.1473753709796
 20
-23.5
 30
0.0
  0
ENDBLK
  5
10ED
  8
0
  0
BLOCK
  8
0
  2
*D7
 70
     1
 10
0.0
 20
0.0
 30
0.0
  3
*D7
  1

  0
LINE
  5
10F2
  8
SK2
 62
     0
 10
67.125
 20
11.0
 30
0.0
 11
99.35313181591752
 21
11.0
 31
0.0
  0
LINE
  5
10F3
  8
SK2
 62
     0
 10
67.125
 20
-11.0
 30
0.0
 11
99.35313181591752
 21
-11.0
 31
0.0
  0
LINE
  5
10F4
  8
SK2
 62
     0
 10
98.10313181591752
 20
8.499999999999998
 30
0.0
 11
98.10313181591752
 21
-8.500000000000002
 31
0.0
  0
SOLID
  5
10F5
  8
SK2
 62
     0
 10
98.51979848258419
 20
8.499999999999998
 30
0.0
 11
97.68646514925085
 21
8.499999999999998
 31
0.0
 12
98.10313181591752
 22
11.0
 32
0.0
 13
98.10313181591752
 23
11.0
 33
0.0
  0
SOLID
  5
10F6
  8
SK2
 62
     0
 10
97.68646514925085
 20
-8.500000000000002
 30
0.0
 11
98.51979848258419
 21
-8.500000000000002
 31
0.0
 12
98.10313181591752
 22
-11.0
 32
0.0
 13
98.10313181591752
 23
-11.0
 33
0.0
  0
TEXT
  5
10F7
  8
SK2
  6
CONTINUOUS
 62
     0
 10
97.47813181591752
 20
-2.083333333333329
 30
0.0
 40
2.5
  1
22
 50
90.0
  0
POINT
  5
10F8
  8
DEFPOINTS
 62
     0
 10
66.5
 20
11.0
 30
0.0
  0
POINT
  5
10F9
  8
DEFPOINTS
 62
     0
 10
66.5
 20
-11.0
 30
0.0
  0
POINT
  5
10FA
  8
DEFPOINTS
 62
     0
 10
98.10313181591752
 20
-11.0
 30
0.0
  0
ENDBLK
  5
10FC
  8
0
  0
ENDSEC
  0
SECTION
  2
ENTITIES
  0
LINE
  5
685
  8
SK1
 10
0.0
 20
34.92499999999998
 30
0.0
 11
-99.6319088344
 21
20.3952133832
 31
0.0
  0
LINE
  5
686
  8
SK1
 10
-99.6319088344
 20
-20.3952133832
 30
0.0
 11
0.0
 21
-34.92500000000001
 31
0.0
  0
ARC
  5
68D
  8
SK1
 10
-99.3
 20
18.1192879614
 30
0.0
 40
2.299999999999995
 50
98.29722000000018
 51
180.0
  0
ARC
  5
68E
  8
SK1
 10
-99.3
 20
-18.1192879614
 30
0.0
 40
2.299999999999995
 50
180.0
 51
261.7027799999998
  0
LINE
  5
6F6
  8
SK1
 10
-101.6
 20
0.0
 30
0.0
 11
-101.6
 21
-18.1192879614
 31
0.0
  0
LINE
  5
6F7
  8
SK1
 10
-101.6
 20
18.1192879614
 30
0.0
 11
-101.6
 21
0.0
 31
0.0
  0
LINE
  5
71A
  8
SK3
 10
-99.5215390309
 20
-13.10000000000002
 30
0.0
 11
-99.5215390309
 21
13.09999999999999
 31
0.0
  0
LINE
  5
71B
  8
SK3
 10
-95.25
 20
-13.10000000000002
 30
0.0
 11
-95.25
 21
13.09999999999999
 31
0.0
  0
LINE
  5
72A
  8
SK3
 10
-101.6
 20
-14.30000000000001
 30
0.0
 11
-99.5215390309
 21
-13.10000000000002
 31
0.0
  0
LINE
  5
72B
  8
SK3
 10
-99.5215390309
 20
13.09999999999999
 30
0.0
 11
-101.6
 21
14.3
 31
0.0
  0
LINE
  5
72C
  8
SK3
 10
-99.5215390309
 20
-13.10000000000002
 30
0.0
 11
-95.25
 21
-13.10000000000002
 31
0.0
  0
LINE
  5
72D
  8
SK3
 10
-95.25
 20
13.09999999999999
 30
0.0
 11
-99.5215390309
 21
13.09999999999999
 31
0.0
  0
LINE
  5
72E
  8
SK3
 10
-95.25
 20
-11.09980000000002
 30
0.0
 11
-33.74999999999999
 21
-11.09980000000002
 31
0.0
  0
LINE
  5
72F
  8
SK3
 10
-33.75
 20
11.09979999999999
 30
0.0
 11
-95.25
 21
11.09979999999999
 31
0.0
  0
LINE
  5
760
  8
SK3
 10
-57.1
 20
12.69999999999999
 30
0.0
 11
-95.25
 21
12.69999999999999
 31
0.0
  0
LINE
  5
761
  8
SK3
 10
-95.25
 20
-12.69999999999999
 30
0.0
 11
-57.1
 21
-12.69999999999999
 31
0.0
  0
LINE
  5
774
  8
SK3
 10
-57.1
 20
12.69999999999999
 30
0.0
 11
-57.1
 21
-12.69999999999999
 31
0.0
  0
LINE
  5
777
  8
SK4
 10
0.0
 20
0.0
 30
0.0
 11
-101.6
 21
0.0
 31
0.0
  0
LINE
  5
779
  8
4
 10
0.0
 20
0.0
 30
0.0
 11
49.99999999999998
 21
0.0
 31
0.0
  0
INSERT
  5
77B
  8
SK6
  2
*U0
 10
-44.10380399683656
 20
-23.39313954296377
 30
0.0
  0
INSERT
  5
78D
  8
SK6
  2
*U2
 10
17.55665382414153
 20
-2.560320993650734
 30
0.0
  0
LINE
  5
793
  8
0
 10
3.0
 20
3.0
 30
0.0
 11
-3.0
 21
-3.0
 31
0.0
  0
LINE
  5
794
  8
0
 10
-3.0
 20
3.0
 30
0.0
 11
3.0
 21
-3.0
 31
0.0
  0
CIRCLE
  5
795
  8
0
 10
0.0
 20
0.0
 30
0.0
 40
2.5
  0
LINE
  5
796
  8
0
 10
52.99999999999998
 20
-3.0
 30
0.0
 11
46.99999999999998
 21
3.0
 31
0.0
  0
CIRCLE
  5
797
  8
0
 10
49.99999999999998
 20
0.0
 30
0.0
 40
2.5
  0
LINE
  5
798
  8
0
 10
46.99999999999998
 20
-3.0
 30
0.0
 11
52.99999999999998
 21
3.0
 31
0.0
  0
LINE
  5
799
  8
NOCUT
 10
0.7999999999999972
 20
34.62500000000001
 30
0.0
 11
0.2999999999999972
 21
34.62500000000001
 31
0.0
  0
LINE
  5
79B
  8
NOCUT
 10
35.05
 20
34.42499999999999
 30
0.0
 11
34.55
 21
34.92499999999999
 31
0.0
  0
LINE
  5
79C
  8
NOCUT
 10
0.2999999999999972
 20
34.62500000000001
 30
0.0
 11
0.0
 21
34.92499999999999
 31
0.0
  0
LINE
  5
79D
  8
NOCUT
 10
34.55
 20
34.92499999999999
 30
0.0
 11
20.05
 21
34.92499999999999
 31
0.0
  0
ARC
  5
79E
  8
NOCUT
 10
0.7999999999999972
 20
35.62500000000001
 30
0.0
 40
1.0
 50
270.0
 51
314.4270040008
  0
ARC
  5
79F
  8
NOCUT
 10
20.05
 20
35.92499999999999
 30
0.0
 40
1.0
 50
180.0
 51
270.0
  0
LINE
  5
7A0
  8
NOCUT
 10
12.55499999999999
 20
45.64499999999999
 30
0.0
 11
9.704999999999998
 21
45.64499999999999
 31
0.0
  0
ARC
  5
7A1
  8
NOCUT
 10
12.55499999999999
 20
46.14499999999999
 30
0.0
 40
0.5
 50
270.0
 51
0.0
  0
ARC
  5
7A2
  8
NOCUT
 10
9.704999999999998
 20
46.14499999999999
 30
0.0
 40
0.5
 50
180.0
 51
270.0
  0
ARC
  5
7A3
  8
NOCUT
 10
2.299999999999997
 20
48.4125
 30
0.0
 40
0.7999999999999972
 50
90.0
 51
180.0
  0
ARC
  5
7A4
  8
NOCUT
 10
18.24999999999999
 20
48.4125
 30
0.0
 40
0.799999999999983
 50
0.0
 51
90.0
  0
LINE
  5
7A5
  8
NOCUT
 10
9.204999999999998
 20
46.43919780459999
 30
0.0
 11
7.603833230999996
 21
49.21250000000001
 31
0.0
  0
LINE
  5
7A6
  8
NOCUT
 10
14.65616676910001
 20
49.21250000000001
 30
0.0
 11
13.05499999999999
 21
46.43919780459999
 31
0.0
  0
LINE
  5
7A7
  8
NOCUT
 10
18.24999999999999
 20
49.21250000000001
 30
0.0
 11
14.65616676910001
 21
49.21250000000001
 31
0.0
  0
LINE
  5
7A8
  8
NOCUT
 10
7.603833230999996
 20
49.21250000000001
 30
0.0
 11
2.299999999999997
 21
49.21250000000001
 31
0.0
  0
LINE
  5
7AC
  8
NOCUT
 10
1.5
 20
48.4125
 30
0.0
 11
1.499999999999929
 21
34.91085715714565
 31
0.0
  0
LINE
  5
7AD
  8
NOCUT
 10
19.04999999999997
 20
48.4125
 30
0.0
 11
19.05
 21
35.92499999999999
 31
0.0
  0
LINE
  5
7AE
  8
NOCUT
 10
9.204999999999998
 20
46.43919780459999
 30
0.0
 11
9.204999999999998
 21
46.14499999999999
 31
0.0
  0
LINE
  5
7AF
  8
NOCUT
 10
13.05499999999999
 20
46.43919780459999
 30
0.0
 11
13.05499999999999
 21
46.14499999999999
 31
0.0
  0
DIMENSION
  5
7E6
  8
SK2
  2
*D3
 10
127.4018709748206
 20
-34.92500000000002
 30
0.0
 11
125.5268709748206
 21
-0.0000000000000213
 31
0.0
 70
    32
  3
ISO-25
 13
34.5
 23
34.92499999999998
 33
0.0
 14
34.5
 24
-34.92500000000001
 34
0.0
 50
90.0
1001
ACAD
1000
DSTYLE
1002
{
1070
   287
1070
     5
1070
   271
1070
     3
1070
   272
1070
     3
1070
   279
1070
     2
1002
}
  0
DIMENSION
  5
7F5
  8
SK2
  2
*D4
 10
35.05
 20
-73.15665109041375
 30
0.0
 11
17.525
 21
-71.28165109041375
 31
0.0
 70
    32
  3
ISO-25
 13
0.0
 23
-34.92500000000001
 33
0.0
 14
35.05
 24
-34.42500000000001
 34
0.0
1001
ACAD
1000
DSTYLE
1002
{
1070
   287
1070
     5
1070
   271
1070
     3
1070
   272
1070
     3
1070
   279
1070
     2
1002
}
  0
LINE
  5
8BF
  8
NOCUT
 10
0.0
 20
34.92499999999999
 30
0.0
 11
0.0
 21
0.0
 31
0.0
  0
LINE
  5
8C0
  8
NOCUT
 10
0.0
 20
0.0
 30
0.0
 11
49.99999999999998
 21
0.0
 31
0.0
  0
INSERT
  5
A17
  8
SK6
  2
_FILLED
 10
-20.78186483605847
 20
-31.89428358495073
 30
0.0
 41
3.5
 42
3.5
 43
3.5
 50
52.86965044919886
  0
POLYLINE
  5
A18
  8
SK6
 66
     1
 10
0.0
 20
0.0
 30
0.0
  0
VERTEX
  5
1353
  8
SK6
 10
-22.89457117648658
 20
-34.68470862768434
 30
0.0
  0
VERTEX
  5
1354
  8
SK6
 10
-48.02596493475846
 20
-67.87780752645074
 30
0.0
  0
VERTEX
  5
1355
  8
SK6
 10
-49.90096493475846
 20
-66.12780752645074
 30
0.0
  0
VERTEX
  5
1356
  8
SK6
 10
-53.40096493475846
 20
-66.12780752645074
 30
0.0
  0
SEQEND
  5
1529
  8
SK6
  0
ARC
  5
AC7
  8
1
 10
20.04999999999998
 20
35.92499999999998
 30
0.0
 40
1.0
 50
180.0
 51
270.0
  0
ARC
  5
AC9
  8
1
 10
20.04999999999998
 20
-35.92500000000001
 30
0.0
 40
1.0
 50
90.0
 51
180.0
  0
ARC
  5
ACA
  8
1
 10
1.299999999999983
 20
35.125
 30
0.0
 40
0.5
 50
270.0
 51
293.5781784781994
  0
ARC
  5
ACB
  8
1
 10
1.299999999999983
 20
-35.125
 30
0.0
 40
0.500000000000009
 50
66.42182152180017
 51
90.0
  0
LINE
  5
ACC
  8
1
 10
34.55
 20
34.92499999999998
 30
0.0
 11
20.04999999999998
 21
34.92499999999998
 31
0.0
  0
LINE
  5
ACE
  8
1
 10
20.04999999999998
 20
-34.92500000000001
 30
0.0
 11
34.55
 21
-34.92500000000001
 31
0.0
  0
LINE
  5
ACF
  8
1
 10
0.0
 20
-34.92500000000001
 30
0.0
 11
0.2999999999999829
 21
-34.625
 31
0.0
  0
LINE
  5
AD0
  8
1
 10
0.2999999999999829
 20
34.625
 30
0.0
 11
0.0
 21
34.92499999999998
 31
0.0
  0
LINE
  5
AD3
  8
1
 10
34.55
 20
-34.92500000000001
 30
0.0
 11
35.05
 21
-34.42500000000001
 31
0.0
  0
LINE
  5
AD4
  8
1
 10
35.05
 20
34.42499999999998
 30
0.0
 11
34.55
 21
34.92499999999998
 31
0.0
  0
LINE
  5
AD5
  8
1
 10
1.299999999999983
 20
34.625
 30
0.0
 11
0.2999999999999829
 21
34.625
 31
0.0
  0
LINE
  5
AD6
  8
1
 10
0.2999999999999829
 20
-34.625
 30
0.0
 11
1.299999999999983
 21
-34.625
 31
0.0
  0
LINE
  5
ADB
  8
1
 10
14.65616694409999
 20
-47.282880439
 30
0.0
 11
14.68806954659999
 21
-47.29184187660002
 31
0.0
  0
LINE
  5
ADC
  8
1
 10
14.6561667691
 20
47.30816788690001
 30
0.0
 11
14.6561667691
 21
-47.2826327523
 31
0.0
  0
LINE
  5
ADD
  8
1
 10
14.7615962207
 20
47.3314147463
 30
0.0
 11
14.6561668942
 21
47.30816788690001
 31
0.0
  0
LINE
  5
ADE
  8
1
 10
18.25
 20
47.3314147463
 30
0.0
 11
14.7615962207
 21
47.3314147463
 31
0.0
  0
LINE
  5
ADF
  8
1
 10
14.68806954659999
 20
-47.29184187660002
 30
0.0
 11
18.25
 21
-47.29184187660002
 31
0.0
  0
LINE
  5
AE0
  8
1
 10
7.498403779400007
 20
47.3314147463
 30
0.0
 11
4.006414746699988
 21
47.3314147463
 31
0.0
  0
LINE
  5
AE1
  8
1
 10
7.603833105900009
 20
47.30816788690001
 30
0.0
 11
7.498403779400007
 21
47.3314147463
 31
0.0
  0
LINE
  5
AE2
  8
1
 10
7.603833230899994
 20
47.30844201400001
 30
0.0
 11
7.603833230899994
 21
-47.28288044160001
 31
0.0
  0
LINE
  5
AE3
  8
1
 10
7.571930453299984
 20
-47.29184187660002
 30
0.0
 11
7.603833055899997
 21
-47.282880439
 31
0.0
  0
LINE
  5
AE4
  8
1
 10
4.040356993800003
 20
-47.29184187660002
 30
0.0
 11
7.571930453299984
 21
-47.29184187660002
 31
0.0
  0
LINE
  5
AE5
  8
1
 10
2.300001405499984
 20
-46.74795901499999
 30
0.0
 11
4.040356993800003
 21
-47.29184189310001
 31
0.0
  0
LINE
  5
AE6
  8
1
 10
4.006414746699988
 20
47.33141476029999
 30
0.0
 11
2.299999765199999
 21
46.80267569
 31
0.0
  0
ARC
  5
AE7
  8
1
 10
2.557435939599998
 20
-45.59355264690001
 30
0.0
 40
1.184053137363273
 50
207.7147598986998
 51
257.3157095984005
  0
LINE
  5
AE8
  8
1
 10
1.50922466130001
 20
-46.14422037630001
 30
0.0
 11
1.5
 21
-46.01377680920001
 31
0.0
  0
LINE
  5
AE9
  8
1
 10
1.5
 20
-46.01377680920001
 30
0.0
 11
1.5
 21
46.01377680919998
 31
0.0
  0
ARC
  5
AEA
  8
1
 10
2.572884962100005
 20
45.72649004249999
 30
0.0
 40
1.111555736593689
 50
104.3436511600003
 51
164.8417645594994
  0
LINE
  5
AEB
  8
1
 10
9.204999995999998
 20
44.41431970880001
 30
0.0
 11
7.60383322749999
 21
47.3081678945
 31
0.0
  0
LINE
  5
AEC
  8
1
 10
9.204999999999984
 20
44.4143196734
 30
0.0
 11
9.204999999999984
 21
-44.387299867
 31
0.0
  0
LINE
  5
AED
  8
1
 10
7.603833226399985
 20
-47.28288044990001
 30
0.0
 11
9.2049999921
 21
-44.38762367050001
 31
0.0
  0
LINE
  5
AEE
  8
1
 10
14.65616677259999
 20
47.3081678945
 30
0.0
 11
13.05500000399999
 21
44.41431970880001
 31
0.0
  0
LINE
  5
AEF
  8
1
 10
13.05500000800001
 20
-44.38762367050001
 30
0.0
 11
14.65616677360001
 21
-47.28288044990001
 31
0.0
  0
LINE
  5
AF0
  8
1
 10
13.05500000000001
 20
44.41459195280001
 30
0.0
 11
13.05500000000001
 21
-44.38762365650001
 31
0.0
  0
ARC
  5
AF1
  8
1
 10
17.92302328310001
 20
46.41895288640001
 30
0.0
 40
1.127359624435328
 50
1.493363825500091
 51
43.53750291790048
  0
LINE
  5
AF2
  8
1
 10
19.04999999999998
 20
46.44833319130001
 30
0.0
 11
19.04999999999998
 21
-46.44833319130001
 31
0.0
  0
ARC
  5
AF3
  8
1
 10
17.91824827779999
 20
-46.4157978575
 30
0.0
 40
1.1322192847622
 50
319.2464850235001
 51
358.3533278529993
  0
ARC
  5
AF4
  8
1
 10
18.2616113983
 20
-46.25791326929999
 30
0.0
 40
1.033993805426882
 50
269.3565743835002
 51
299.8289453780985
  0
ARC
  5
AF5
  8
1
 10
18.2610591033
 20
46.41902767409999
 30
0.0
 40
0.9124540938653742
 50
58.31881226410037
 51
90.69445187719943
  0
ARC
  5
AF6
  8
1
 10
12.5158206966
 20
-44.1073442162
 30
0.0
 40
0.5397579791454132
 50
357.3466499737992
 51
85.83742202690154
  0
ARC
  5
AF7
  8
1
 10
12.54139279200001
 20
44.09944295630001
 30
0.0
 40
0.4858431210597904
 50
271.6049163143007
 51
333.441972537701
  0
POLYLINE
  5
AF8
  8
1
 66
     1
 10
0.0
 20
0.0
 30
0.0
  0
VERTEX
  5
1357
  8
1
 10
13.05500000000001
 20
44.14662312639999
 30
0.0
  0
VERTEX
  5
1358
  8
1
 10
13.03542892280001
 20
44.01594229719998
 30
0.0
  0
VERTEX
  5
1359
  8
1
 10
12.97787844319998
 20
43.88571451269999
 30
0.0
  0
SEQEND
  5
1528
  8
1
  0
ARC
  5
AF9
  8
1
 10
9.744214343399989
 20
-44.10737531749999
 30
0.0
 40
0.5397915428070933
 50
94.16604783349855
 51
182.6498801657025
  0
POLYLINE
  5
AFA
  8
1
 66
     1
 10
0.0
 20
0.0
 30
0.0
  0
VERTEX
  5
135A
  8
1
 10
9.280099379399985
 20
43.88913247470001
 30
0.0
  0
VERTEX
  5
135B
  8
1
 10
9.224055884099982
 20
44.0177026321
 30
0.0
  0
VERTEX
  5
135C
  8
1
 10
9.204999999999984
 20
44.14662312639999
 30
0.0
  0
SEQEND
  5
1527
  8
1
  0
ARC
  5
AFB
  8
1
 10
9.721350266000002
 20
44.10422581969999
 30
0.0
 40
0.4907078648052702
 50
206.0244317763009
 51
268.0905652222996
  0
LINE
  5
AFC
  8
1
 10
12.55500000000001
 20
43.613790424
 30
0.0
 11
9.704999999999984
 21
43.613790424
 31
0.0
  0
LINE
  5
AFD
  8
1
 10
9.704999999999984
 20
-43.5690100651
 30
0.0
 11
12.55500000000001
 21
-43.5690100651
 31
0.0
  0
LINE
  5
AFF
  8
1
 10
34.55
 20
-34.92500000000001
 30
0.0
 11
34.55
 21
34.92499999999998
 31
0.0
  0
LINE
  5
B00
  8
1
 10
0.2999999999999829
 20
34.625
 30
0.0
 11
0.2999999999999829
 21
-34.625
 31
0.0
  0
LINE
  5
B01
  8
1
 10
0.0
 20
34.92499999999998
 30
0.0
 11
0.0
 21
-34.92500000000001
 31
0.0
  0
LINE
  5
B02
  8
1
 10
35.05
 20
34.42499999999998
 30
0.0
 11
35.05
 21
-34.42500000000001
 31
0.0
  0
LINE
  5
B04
  8
1
 10
14.68806954670001
 20
-47.29184187660002
 30
0.0
 11
14.65616694420001
 21
-47.282880439
 31
0.0
  0
LINE
  5
B13
  8
3
 10
1.5
 20
-35.30000000000001
 30
0.0
 11
3.699999999999989
 21
-35.30000000000001
 31
0.0
  0
LINE
  5
B14
  8
3
 10
1.5
 20
37.72
 30
0.0
 11
3.699999999999989
 21
37.72
 31
0.0
  0
LINE
  5
B1A
  8
3
 10
18.25
 20
37.72
 30
0.0
 11
19.04999999999998
 21
37.72
 31
0.0
  0
LINE
  5
B1D
  8
3
 10
19.04999999999998
 20
-35.30000000000001
 30
0.0
 11
18.25
 21
-35.30000000000001
 31
0.0
  0
LINE
  5
B30
  8
3
 10
3.699999999999989
 20
37.72
 30
0.0
 11
18.25
 21
37.72
 31
0.0
  0
LINE
  5
B3B
  8
3
 10
3.699999999999989
 20
-35.30000000000001
 30
0.0
 11
18.25
 21
-35.30000000000001
 31
0.0
  0
LINE
  5
B42
  8
3
 10
26.97499999999999
 20
28.32499999999999
 30
0.0
 11
33.32499999999999
 21
28.32499999999999
 31
0.0
  0
LINE
  5
B43
  8
3
 10
20.625
 20
28.32499999999999
 30
0.0
 11
26.97499999999999
 21
28.32499999999999
 31
0.0
  0
LINE
  5
B44
  8
3
 10
11.375
 20
37.31999999999999
 30
0.0
 11
16.125
 21
37.31999999999999
 31
0.0
  0
LINE
  5
B45
  8
3
 10
6.625
 20
37.31999999999999
 30
0.0
 11
11.375
 21
37.31999999999999
 31
0.0
  0
LINE
  5
B55
  8
3
 10
20.625
 20
28.32499999999999
 30
0.0
 11
26.97499999999999
 21
24.50953506919998
 31
0.0
  0
LINE
  5
B56
  8
3
 10
26.97499999999999
 20
24.50953506919998
 30
0.0
 11
33.32499999999999
 21
28.32499999999999
 31
0.0
  0
LINE
  5
B57
  8
3
 10
20.625
 20
34.92499999999998
 30
0.0
 11
20.625
 21
28.32499999999999
 31
0.0
  0
LINE
  5
B58
  8
3
 10
33.32499999999999
 20
28.32499999999999
 30
0.0
 11
33.32499999999999
 21
34.92499999999998
 31
0.0
  0
LINE
  5
B59
  8
3
 10
6.625
 20
37.72
 30
0.0
 11
6.625
 21
37.31999999999999
 31
0.0
  0
LINE
  5
B5A
  8
3
 10
16.125
 20
37.31999999999999
 30
0.0
 11
16.125
 21
37.72
 31
0.0
  0
LINE
  5
B5B
  8
1
 10
20.04999999999998
 20
-34.92500000000001
 30
0.0
 11
20.04999999999998
 21
34.92499999999998
 31
0.0
  0
LINE
  5
B5C
  8
1
 10
1.299999999999983
 20
-34.625
 30
0.0
 11
1.299999999999983
 21
34.625
 31
0.0
  0
LINE
  5
B5F
  8
1
 10
12.55500000000001
 20
-43.00413183130001
 30
0.0
 11
12.55500000000001
 21
42.79577481850001
 31
0.0
  0
LINE
  5
B60
  8
1
 10
9.704999999999984
 20
-43.00421493109999
 30
0.0
 11
9.704999999999984
 21
42.7957705776
 31
0.0
  0
LINE
  5
B62
  8
1
 10
18.25
 20
47.3314147463
 30
0.0
 11
18.25
 21
-47.29184187660002
 31
0.0
  0
LINE
  5
B64
  8
1
 10
2.299999999999983
 20
-46.74795854910002
 30
0.0
 11
2.299999999999983
 21
46.80267576719999
 31
0.0
  0
ARC
  5
C45
  8
1
 10
37.05000000000001
 20
-25.5
 30
0.0
 40
2.0
 50
90.0
 51
180.0
  0
LINE
  5
C46
  8
1
 10
37.05000000000001
 20
-23.5
 30
0.0
 11
49.0
 21
-23.5
 31
0.0
  0
LINE
  5
C47
  8
1
 10
49.0
 20
23.5
 30
0.0
 11
37.05000000000001
 21
23.5
 31
0.0
  0
ARC
  5
C48
  8
1
 10
49.0
 20
-22.5
 30
0.0
 40
1.0
 50
270.0
 51
0.0
  0
ARC
  5
C49
  8
1
 10
49.0
 20
22.5
 30
0.0
 40
1.0
 50
0.0
 51
90.0
  0
CIRCLE
  5
C60
  8
1
 10
42.5
 20
0.0
 30
0.0
 40
1.219499999999982
  0
LINE
  5
C61
  8
1
 10
43.25
 20
0.4330127018999974
 30
0.0
 11
42.5
 21
0.8660254037999948
 31
0.0
  0
LINE
  5
C62
  8
1
 10
41.75
 20
0.4330127018999974
 30
0.0
 11
42.5
 21
0.8660254037999948
 31
0.0
  0
LINE
  5
C63
  8
1
 10
41.75
 20
-0.4330127018999974
 30
0.0
 11
41.75
 21
0.4330127018999974
 31
0.0
  0
LINE
  5
C64
  8
1
 10
41.75
 20
-0.4330127018999974
 30
0.0
 11
42.5
 21
-0.8660254037999948
 31
0.0
  0
LINE
  5
C65
  8
1
 10
43.25
 20
-0.4330127018999974
 30
0.0
 11
42.5
 21
-0.8660254037999948
 31
0.0
  0
LINE
  5
C66
  8
1
 10
43.25
 20
-0.4330127018999974
 30
0.0
 11
43.25
 21
0.4330127018999974
 31
0.0
  0
CIRCLE
  5
C89
  8
1
 10
42.5
 20
0.0
 30
0.0
 40
1.625000000000028
  0
LINE
  5
C8A
  8
1
 10
50.0
 20
0.0
 30
0.0
 11
50.0
 21
22.5
 31
0.0
  0
LINE
  5
C8D
  8
1
 10
50.0
 20
-21.9374109685
 30
0.0
 11
50.0
 21
0.0
 31
0.0
  0
CIRCLE
  5
C8E
  8
1
 10
42.5
 20
0.0
 30
0.0
 40
1.25
  0
LINE
  5
CA4
  8
3
 10
39.56296030499999
 20
-12.24250000000001
 30
0.0
 11
39.56296030499999
 21
-22.25750000000001
 31
0.0
  0
LINE
  5
CA5
  8
3
 10
38.9236825749
 20
-12.2525
 30
0.0
 11
38.9236825749
 21
-22.2475
 31
0.0
  0
LINE
  5
CA6
  8
3
 10
38.0
 20
-12.5
 30
0.0
 11
38.0
 21
-22.0
 31
0.0
  0
LINE
  5
CA7
  8
3
 10
39.56296030499999
 20
22.25749999999999
 30
0.0
 11
39.56296030499999
 21
12.24250000000001
 31
0.0
  0
LINE
  5
CA8
  8
3
 10
38.9236825749
 20
22.2475
 30
0.0
 11
38.9236825749
 21
12.2525
 31
0.0
  0
LINE
  5
CA9
  8
3
 10
38.0
 20
22.0
 30
0.0
 11
38.0
 21
12.5
 31
0.0
  0
POLYLINE
  5
CAA
  8
3
 66
     1
 10
0.0
 20
0.0
 30
0.0
  0
VERTEX
  5
135D
  8
3
 10
42.5
 20
-14.51369774170001
 30
0.0
  0
VERTEX
  5
135E
  8
3
 10
43.07402514859996
 20
-14.57078809230001
 30
0.0
  0
VERTEX
  5
135F
  8
3
 10
43.56066017180001
 20
-14.73336765580001
 30
0.0
  0
VERTEX
  5
1360
  8
3
 10
43.88581929879996
 20
-14.97668516740001
 30
0.0
  0
VERTEX
  5
1361
  8
3
 10
44.0
 20
-15.26369774170001
 30
0.0
  0
VERTEX
  5
1362
  8
3
 10
43.88581929879996
 20
-15.55071031599999
 30
0.0
  0
VERTEX
  5
1363
  8
3
 10
43.56066017180001
 20
-15.79402782760002
 30
0.0
  0
VERTEX
  5
1364
  8
3
 10
43.07402514859996
 20
-15.95660739110002
 30
0.0
  0
VERTEX
  5
1365
  8
3
 10
42.5
 20
-16.01369774170001
 30
0.0
  0
VERTEX
  5
1366
  8
3
 10
41.92597485149997
 20
-15.95660739110002
 30
0.0
  0
VERTEX
  5
1367
  8
3
 10
41.43933982819999
 20
-15.79402782760002
 30
0.0
  0
VERTEX
  5
1368
  8
3
 10
41.11418070119998
 20
-15.55071031599999
 30
0.0
  0
VERTEX
  5
1369
  8
3
 10
41.0
 20
-15.26369774170001
 30
0.0
  0
VERTEX
  5
136A
  8
3
 10
41.11418070119998
 20
-14.97668516740001
 30
0.0
  0
VERTEX
  5
136B
  8
3
 10
41.43933982819999
 20
-14.73336765580001
 30
0.0
  0
VERTEX
  5
136C
  8
3
 10
41.92597485149997
 20
-14.57078809230001
 30
0.0
  0
VERTEX
  5
136D
  8
3
 10
42.5
 20
-14.51369774170001
 30
0.0
  0
SEQEND
  5
1526
  8
3
  0
POLYLINE
  5
CAB
  8
3
 66
     1
 10
0.0
 20
0.0
 30
0.0
  0
VERTEX
  5
136E
  8
3
 10
42.5
 20
-14.33068503980002
 30
0.0
  0
VERTEX
  5
136F
  8
3
 10
42.88268343239997
 20
-14.36874527359998
 30
0.0
  0
VERTEX
  5
1370
  8
3
 10
43.20710678119997
 20
-14.4771316492
 30
0.0
  0
VERTEX
  5
1371
  8
3
 10
43.4238795325
 20
-14.6393433236
 30
0.0
  0
VERTEX
  5
1372
  8
3
 10
43.5
 20
-14.83068503980002
 30
0.0
  0
VERTEX
  5
1373
  8
3
 10
43.4238795325
 20
-15.022026756
 30
0.0
  0
VERTEX
  5
1374
  8
3
 10
43.20710678119997
 20
-15.1842384304
 30
0.0
  0
VERTEX
  5
1375
  8
3
 10
42.88268343239997
 20
-15.29262480610001
 30
0.0
  0
VERTEX
  5
1376
  8
3
 10
42.5
 20
-15.33068503980002
 30
0.0
  0
VERTEX
  5
1377
  8
3
 10
42.11731656759997
 20
-15.29262480610001
 30
0.0
  0
VERTEX
  5
1378
  8
3
 10
41.79289321879997
 20
-15.1842384304
 30
0.0
  0
VERTEX
  5
1379
  8
3
 10
41.5761204675
 20
-15.022026756
 30
0.0
  0
VERTEX
  5
137A
  8
3
 10
41.5
 20
-14.83068503980002
 30
0.0
  0
VERTEX
  5
137B
  8
3
 10
41.5761204675
 20
-14.6393433236
 30
0.0
  0
VERTEX
  5
137C
  8
3
 10
41.79289321879997
 20
-14.4771316492
 30
0.0
  0
VERTEX
  5
137D
  8
3
 10
42.11731656759997
 20
-14.36874527359998
 30
0.0
  0
VERTEX
  5
137E
  8
3
 10
42.5
 20
-14.33068503980002
 30
0.0
  0
SEQEND
  5
1525
  8
3
  0
POLYLINE
  5
CAC
  8
3
 66
     1
 10
0.0
 20
0.0
 30
0.0
  0
VERTEX
  5
137F
  8
3
 10
42.5
 20
-18.27056205870002
 30
0.0
  0
VERTEX
  5
1380
  8
3
 10
43.07402514859996
 20
-18.3276524094
 30
0.0
  0
VERTEX
  5
1381
  8
3
 10
43.56066017180001
 20
-18.49023197290001
 30
0.0
  0
VERTEX
  5
1382
  8
3
 10
43.88581929879996
 20
-18.7335494845
 30
0.0
  0
VERTEX
  5
1383
  8
3
 10
44.0
 20
-19.02056205870002
 30
0.0
  0
VERTEX
  5
1384
  8
3
 10
43.88581929879996
 20
-19.307574633
 30
0.0
  0
VERTEX
  5
1385
  8
3
 10
43.56066017180001
 20
-19.5508921446
 30
0.0
  0
VERTEX
  5
1386
  8
3
 10
43.07402514859996
 20
-19.7134717081
 30
0.0
  0
VERTEX
  5
1387
  8
3
 10
42.5
 20
-19.77056205870002
 30
0.0
  0
VERTEX
  5
1388
  8
3
 10
41.92597485149997
 20
-19.7134717081
 30
0.0
  0
VERTEX
  5
1389
  8
3
 10
41.43933982819999
 20
-19.5508921446
 30
0.0
  0
VERTEX
  5
138A
  8
3
 10
41.11418070119998
 20
-19.307574633
 30
0.0
  0
VERTEX
  5
138B
  8
3
 10
41.0
 20
-19.02056205870002
 30
0.0
  0
VERTEX
  5
138C
  8
3
 10
41.11418070119998
 20
-18.7335494845
 30
0.0
  0
VERTEX
  5
138D
  8
3
 10
41.43933982819999
 20
-18.49023197290001
 30
0.0
  0
VERTEX
  5
138E
  8
3
 10
41.92597485149997
 20
-18.3276524094
 30
0.0
  0
VERTEX
  5
138F
  8
3
 10
42.5
 20
-18.27056205870002
 30
0.0
  0
SEQEND
  5
1524
  8
3
  0
LINE
  5
CAD
  8
3
 10
43.25
 20
-17.5586650617
 30
0.0
 11
42.5
 21
-17.77517141269999
 31
0.0
  0
LINE
  5
CAE
  8
3
 10
41.75
 20
-17.5586650617
 30
0.0
 11
42.5
 21
-17.77517141269999
 31
0.0
  0
LINE
  5
CAF
  8
3
 10
42.5
 20
-17.77517141269999
 30
0.0
 11
42.5
 21
-19.5938247606
 31
0.0
  0
LINE
  5
CB0
  8
3
 10
41.75
 20
-17.5586650617
 30
0.0
 11
41.75
 21
-19.3773184097
 31
0.0
  0
LINE
  5
CB1
  8
3
 10
41.75
 20
-17.1256523598
 30
0.0
 11
41.75
 21
-17.5586650617
 31
0.0
  0
LINE
  5
CB2
  8
3
 10
43.25
 20
-17.1256523598
 30
0.0
 11
43.25
 21
-17.5586650617
 31
0.0
  0
LINE
  5
CB3
  8
3
 10
43.25
 20
-17.5586650617
 30
0.0
 11
43.25
 21
-19.3773184097
 31
0.0
  0
POLYLINE
  5
CB4
  8
3
 66
     1
 10
0.0
 20
0.0
 30
0.0
  0
VERTEX
  5
1390
  8
3
 10
42.5
 20
-18.55106205869998
 30
0.0
  0
VERTEX
  5
1391
  8
3
 10
42.96668244579996
 20
-18.59747651380002
 30
0.0
  0
VERTEX
  5
1392
  8
3
 10
43.3623167197
 20
-18.72965369889999
 30
0.0
  0
VERTEX
  5
1393
  8
3
 10
43.62667108989996
 20
-18.92747083590001
 30
0.0
  0
VERTEX
  5
1394
  8
3
 10
43.71949999999998
 20
-19.1608120587
 30
0.0
  0
VERTEX
  5
1395
  8
3
 10
43.62667108989996
 20
-19.39415328159998
 30
0.0
  0
VERTEX
  5
1396
  8
3
 10
43.3623167197
 20
-19.5919704186
 30
0.0
  0
VERTEX
  5
1397
  8
3
 10
42.96668244579996
 20
-19.7241476037
 30
0.0
  0
VERTEX
  5
1398
  8
3
 10
42.5
 20
-19.77056205870002
 30
0.0
  0
VERTEX
  5
1399
  8
3
 10
42.03331755419998
 20
-19.7241476037
 30
0.0
  0
VERTEX
  5
139A
  8
3
 10
41.6376832803
 20
-19.5919704186
 30
0.0
  0
VERTEX
  5
139B
  8
3
 10
41.37332891009999
 20
-19.39415328159998
 30
0.0
  0
VERTEX
  5
139C
  8
3
 10
41.28049999999996
 20
-19.1608120587
 30
0.0
  0
VERTEX
  5
139D
  8
3
 10
41.37332891009999
 20
-18.92747083590001
 30
0.0
  0
VERTEX
  5
139E
  8
3
 10
41.6376832803
 20
-18.72965369889999
 30
0.0
  0
VERTEX
  5
139F
  8
3
 10
42.03331755419998
 20
-18.59747651380002
 30
0.0
  0
VERTEX
  5
13A0
  8
3
 10
42.5
 20
-18.55106205869998
 30
0.0
  0
SEQEND
  5
1523
  8
3
  0
LINE
  5
CB5
  8
3
 10
41.75
 20
-19.3773184097
 30
0.0
 11
42.5
 21
-19.5938247606
 31
0.0
  0
LINE
  5
CB6
  8
3
 10
43.25
 20
-19.3773184097
 30
0.0
 11
42.5
 21
-19.5938247606
 31
0.0
  0
LINE
  5
CB7
  8
3
 10
42.5
 20
-16.9091460089
 30
0.0
 11
42.5
 21
-17.77517141269999
 31
0.0
  0
LINE
  5
CB8
  8
3
 10
43.25
 20
-18.9443057078
 30
0.0
 11
42.5
 21
-18.72779935680001
 31
0.0
  0
LINE
  5
CB9
  8
3
 10
43.25
 20
-17.1256523598
 30
0.0
 11
42.5
 21
-16.9091460089
 31
0.0
  0
LINE
  5
CBA
  8
3
 10
41.75
 20
-18.9443057078
 30
0.0
 11
42.5
 21
-18.72779935680001
 31
0.0
  0
LINE
  5
CBB
  8
3
 10
41.75
 20
-17.1256523598
 30
0.0
 11
42.5
 21
-16.9091460089
 31
0.0
  0
POLYLINE
  5
CBC
  8
3
 66
     1
 10
0.0
 20
0.0
 30
0.0
  0
VERTEX
  5
13A1
  8
3
 10
42.5
 20
16.01369774169999
 30
0.0
  0
VERTEX
  5
13A2
  8
3
 10
43.07402514859996
 20
15.95660739109999
 30
0.0
  0
VERTEX
  5
13A3
  8
3
 10
43.56066017180001
 20
15.79402782759999
 30
0.0
  0
VERTEX
  5
13A4
  8
3
 10
43.88581929879996
 20
15.55071031599999
 30
0.0
  0
VERTEX
  5
13A5
  8
3
 10
44.0
 20
15.26369774169999
 30
0.0
  0
VERTEX
  5
13A6
  8
3
 10
43.88581929879996
 20
14.97668516740001
 30
0.0
  0
VERTEX
  5
13A7
  8
3
 10
43.56066017180001
 20
14.73336765580001
 30
0.0
  0
VERTEX
  5
13A8
  8
3
 10
43.07402514859996
 20
14.57078809230001
 30
0.0
  0
VERTEX
  5
13A9
  8
3
 10
42.5
 20
14.51369774169999
 30
0.0
  0
VERTEX
  5
13AA
  8
3
 10
41.92597485149997
 20
14.57078809230001
 30
0.0
  0
VERTEX
  5
13AB
  8
3
 10
41.43933982819999
 20
14.73336765580001
 30
0.0
  0
VERTEX
  5
13AC
  8
3
 10
41.11418070119998
 20
14.97668516740001
 30
0.0
  0
VERTEX
  5
13AD
  8
3
 10
41.0
 20
15.26369774169999
 30
0.0
  0
VERTEX
  5
13AE
  8
3
 10
41.11418070119998
 20
15.55071031599999
 30
0.0
  0
VERTEX
  5
13AF
  8
3
 10
41.43933982819999
 20
15.79402782759999
 30
0.0
  0
VERTEX
  5
13B0
  8
3
 10
41.92597485149997
 20
15.95660739109999
 30
0.0
  0
VERTEX
  5
13B1
  8
3
 10
42.5
 20
16.01369774169999
 30
0.0
  0
SEQEND
  5
1522
  8
3
  0
POLYLINE
  5
CBD
  8
3
 66
     1
 10
0.0
 20
0.0
 30
0.0
  0
VERTEX
  5
13B2
  8
3
 10
42.5
 20
15.33068503979999
 30
0.0
  0
VERTEX
  5
13B3
  8
3
 10
42.88268343239997
 20
15.29262480610001
 30
0.0
  0
VERTEX
  5
13B4
  8
3
 10
43.20710678119997
 20
15.1842384304
 30
0.0
  0
VERTEX
  5
13B5
  8
3
 10
43.4238795325
 20
15.022026756
 30
0.0
  0
VERTEX
  5
13B6
  8
3
 10
43.5
 20
14.83068503979999
 30
0.0
  0
VERTEX
  5
13B7
  8
3
 10
43.4238795325
 20
14.6393433236
 30
0.0
  0
VERTEX
  5
13B8
  8
3
 10
43.20710678119997
 20
14.4771316492
 30
0.0
  0
VERTEX
  5
13B9
  8
3
 10
42.88268343239997
 20
14.3687452735
 30
0.0
  0
VERTEX
  5
13BA
  8
3
 10
42.5
 20
14.33068503979999
 30
0.0
  0
VERTEX
  5
13BB
  8
3
 10
42.11731656759997
 20
14.3687452735
 30
0.0
  0
VERTEX
  5
13BC
  8
3
 10
41.79289321879997
 20
14.4771316492
 30
0.0
  0
VERTEX
  5
13BD
  8
3
 10
41.5761204675
 20
14.6393433236
 30
0.0
  0
VERTEX
  5
13BE
  8
3
 10
41.5
 20
14.83068503979999
 30
0.0
  0
VERTEX
  5
13BF
  8
3
 10
41.5761204675
 20
15.022026756
 30
0.0
  0
VERTEX
  5
13C0
  8
3
 10
41.79289321879997
 20
15.1842384304
 30
0.0
  0
VERTEX
  5
13C1
  8
3
 10
42.11731656759997
 20
15.29262480610001
 30
0.0
  0
VERTEX
  5
13C2
  8
3
 10
42.5
 20
15.33068503979999
 30
0.0
  0
SEQEND
  5
1521
  8
3
  0
POLYLINE
  5
CBE
  8
3
 66
     1
 10
0.0
 20
0.0
 30
0.0
  0
VERTEX
  5
13C3
  8
3
 10
42.5
 20
19.77056205869999
 30
0.0
  0
VERTEX
  5
13C4
  8
3
 10
43.07402514859996
 20
19.7134717081
 30
0.0
  0
VERTEX
  5
13C5
  8
3
 10
43.56066017180001
 20
19.5508921446
 30
0.0
  0
VERTEX
  5
13C6
  8
3
 10
43.88581929879996
 20
19.307574633
 30
0.0
  0
VERTEX
  5
13C7
  8
3
 10
44.0
 20
19.02056205869999
 30
0.0
  0
VERTEX
  5
13C8
  8
3
 10
43.88581929879996
 20
18.73354948439999
 30
0.0
  0
VERTEX
  5
13C9
  8
3
 10
43.56066017180001
 20
18.49023197279999
 30
0.0
  0
VERTEX
  5
13CA
  8
3
 10
43.07402514859996
 20
18.32765240929999
 30
0.0
  0
VERTEX
  5
13CB
  8
3
 10
42.5
 20
18.27056205869999
 30
0.0
  0
VERTEX
  5
13CC
  8
3
 10
41.92597485149997
 20
18.32765240929999
 30
0.0
  0
VERTEX
  5
13CD
  8
3
 10
41.43933982819999
 20
18.49023197279999
 30
0.0
  0
VERTEX
  5
13CE
  8
3
 10
41.11418070119998
 20
18.73354948439999
 30
0.0
  0
VERTEX
  5
13CF
  8
3
 10
41.0
 20
19.02056205869999
 30
0.0
  0
VERTEX
  5
13D0
  8
3
 10
41.11418070119998
 20
19.307574633
 30
0.0
  0
VERTEX
  5
13D1
  8
3
 10
41.43933982819999
 20
19.5508921446
 30
0.0
  0
VERTEX
  5
13D2
  8
3
 10
41.92597485149997
 20
19.7134717081
 30
0.0
  0
VERTEX
  5
13D3
  8
3
 10
42.5
 20
19.77056205869999
 30
0.0
  0
SEQEND
  5
1520
  8
3
  0
LINE
  5
CBF
  8
3
 10
41.75
 20
17.5586650617
 30
0.0
 11
42.5
 21
17.77517141269999
 31
0.0
  0
LINE
  5
CC0
  8
3
 10
42.5
 20
17.77517141269999
 30
0.0
 11
42.5
 21
19.5938247606
 31
0.0
  0
LINE
  5
CC1
  8
3
 10
43.25
 20
17.5586650617
 30
0.0
 11
42.5
 21
17.77517141269999
 31
0.0
  0
LINE
  5
CC2
  8
3
 10
41.75
 20
17.5586650617
 30
0.0
 11
41.75
 21
19.3773184097
 31
0.0
  0
LINE
  5
CC3
  8
3
 10
41.75
 20
17.5586650617
 30
0.0
 11
41.75
 21
17.1256523598
 31
0.0
  0
LINE
  5
CC4
  8
3
 10
43.25
 20
17.5586650617
 30
0.0
 11
43.25
 21
19.3773184097
 31
0.0
  0
LINE
  5
CC5
  8
3
 10
43.25
 20
17.5586650617
 30
0.0
 11
43.25
 21
17.1256523598
 31
0.0
  0
POLYLINE
  5
CC6
  8
3
 66
     1
 10
0.0
 20
0.0
 30
0.0
  0
VERTEX
  5
13D4
  8
3
 10
42.5
 20
19.77056205869999
 30
0.0
  0
VERTEX
  5
13D5
  8
3
 10
42.96668244579996
 20
19.7241476037
 30
0.0
  0
VERTEX
  5
13D6
  8
3
 10
43.3623167197
 20
19.5919704186
 30
0.0
  0
VERTEX
  5
13D7
  8
3
 10
43.62667108989996
 20
19.39415328160001
 30
0.0
  0
VERTEX
  5
13D8
  8
3
 10
43.71949999999998
 20
19.1608120587
 30
0.0
  0
VERTEX
  5
13D9
  8
3
 10
43.62667108989996
 20
18.92747083579999
 30
0.0
  0
VERTEX
  5
13DA
  8
3
 10
43.3623167197
 20
18.72965369889999
 30
0.0
  0
VERTEX
  5
13DB
  8
3
 10
42.96668244579996
 20
18.59747651379999
 30
0.0
  0
VERTEX
  5
13DC
  8
3
 10
42.5
 20
18.55106205870001
 30
0.0
  0
VERTEX
  5
13DD
  8
3
 10
42.03331755419998
 20
18.59747651379999
 30
0.0
  0
VERTEX
  5
13DE
  8
3
 10
41.6376832803
 20
18.72965369889999
 30
0.0
  0
VERTEX
  5
13DF
  8
3
 10
41.37332891009999
 20
18.92747083579999
 30
0.0
  0
VERTEX
  5
13E0
  8
3
 10
41.28049999999996
 20
19.1608120587
 30
0.0
  0
VERTEX
  5
13E1
  8
3
 10
41.37332891009999
 20
19.39415328160001
 30
0.0
  0
VERTEX
  5
13E2
  8
3
 10
41.6376832803
 20
19.5919704186
 30
0.0
  0
VERTEX
  5
13E3
  8
3
 10
42.03331755419998
 20
19.7241476037
 30
0.0
  0
VERTEX
  5
13E4
  8
3
 10
42.5
 20
19.77056205869999
 30
0.0
  0
SEQEND
  5
151F
  8
3
  0
LINE
  5
CC7
  8
3
 10
43.25
 20
19.3773184097
 30
0.0
 11
42.5
 21
19.5938247606
 31
0.0
  0
LINE
  5
CC8
  8
3
 10
41.75
 20
19.3773184097
 30
0.0
 11
42.5
 21
19.5938247606
 31
0.0
  0
LINE
  5
CC9
  8
3
 10
42.5
 20
16.9091460089
 30
0.0
 11
42.5
 21
17.77517141269999
 31
0.0
  0
LINE
  5
CCA
  8
3
 10
43.25
 20
18.9443057078
 30
0.0
 11
42.5
 21
18.72779935680001
 31
0.0
  0
LINE
  5
CCB
  8
3
 10
43.25
 20
17.1256523598
 30
0.0
 11
42.5
 21
16.9091460089
 31
0.0
  0
LINE
  5
CCC
  8
3
 10
41.75
 20
18.9443057078
 30
0.0
 11
42.5
 21
18.72779935680001
 31
0.0
  0
LINE
  5
CCD
  8
3
 10
41.75
 20
17.1256523598
 30
0.0
 11
42.5
 21
16.9091460089
 31
0.0
  0
CIRCLE
  5
CCE
  8
3
 10
42.5
 20
0.0
 30
0.0
 40
1.499999999999972
  0
CIRCLE
  5
CCF
  8
3
 10
42.5
 20
0.0
 30
0.0
 40
0.9999999999999858
  0
POLYLINE
  5
CD2
  8
3
 66
     1
 10
0.0
 20
0.0
 30
0.0
  0
VERTEX
  5
13E5
  8
3
 10
42.5
 20
-19.49038233850001
 30
0.0
  0
VERTEX
  5
13E6
  8
3
 10
41.96284477219996
 20
-19.5413848451
 30
0.0
  0
VERTEX
  5
13E7
  8
3
 10
41.48625892169997
 20
-19.68684421340001
 30
0.0
  0
VERTEX
  5
13E8
  8
3
 10
41.12315634769999
 20
-19.90632064660002
 30
0.0
  0
VERTEX
  5
13E9
  8
3
 10
40.91498420490001
 20
-20.17010207459998
 30
0.0
  0
VERTEX
  5
13EA
  8
3
 10
40.88571319959999
 20
-20.4441014121
 30
0.0
  0
VERTEX
  5
13EB
  8
3
 10
41.03779629069999
 20
-20.69680046570001
 30
0.0
  0
VERTEX
  5
13EC
  8
3
 10
41.35414763910001
 20
-20.9032368479
 30
0.0
  0
VERTEX
  5
13ED
  8
3
 10
41.80024278830001
 20
-21.0452328882
 30
0.0
  0
VERTEX
  5
13EE
  8
3
 10
42.32548748559998
 20
-21.11124592279999
 30
0.0
  0
VERTEX
  5
13EF
  8
3
 10
42.86939614260001
 20
-21.0966312277
 30
0.0
  0
VERTEX
  5
13F0
  8
3
 10
43.371184658
 20
-21.0027642397
 30
0.0
  0
VERTEX
  5
13F1
  8
3
 10
43.77572328100001
 20
-20.83619798140001
 30
0.0
  0
VERTEX
  5
13F2
  8
3
 10
44.03710515579996
 20
-20.6100717688
 30
0.0
  0
VERTEX
  5
13F3
  8
3
 10
44.1249601504
 20
-20.34590448509999
 30
0.0
  0
VERTEX
  5
13F4
  8
3
 10
44.02995994009996
 20
-20.0722795248
 30
0.0
  0
VERTEX
  5
13F5
  8
3
 10
43.76327567799996
 20
-19.82126965719999
 30
0.0
  0
VERTEX
  5
13F6
  8
3
 10
43.35393005319997
 20
-19.62507424130001
 30
0.0
  0
VERTEX
  5
13F7
  8
3
 10
42.84772771309997
 20
-19.51143575169999
 30
0.0
  0
VERTEX
  5
13F8
  8
3
 10
42.5
 20
-19.49038233850001
 30
0.0
  0
SEQEND
  5
151E
  8
3
  0
POLYLINE
  5
CD3
  8
3
 66
     1
 10
0.0
 20
0.0
 30
0.0
  0
VERTEX
  5
13F9
  8
3
 10
42.5
 20
21.11538233850001
 30
0.0
  0
VERTEX
  5
13FA
  8
3
 10
41.96284477219996
 20
21.07503710730001
 30
0.0
  0
VERTEX
  5
13FB
  8
3
 10
41.48625892169997
 20
20.95686548340001
 30
0.0
  0
VERTEX
  5
13FC
  8
3
 10
41.12315634769999
 20
20.76941192620001
 30
0.0
  0
VERTEX
  5
13FD
  8
3
 10
40.91498420490001
 20
20.5283616582
 30
0.0
  0
VERTEX
  5
13FE
  8
3
 10
40.88571319959999
 20
20.25781366109999
 30
0.0
  0
VERTEX
  5
13FF
  8
3
 10
41.03779629069999
 20
19.9878679496
 30
0.0
  0
VERTEX
  5
1400
  8
3
 10
41.35414763910001
 20
19.7510010357
 30
0.0
  0
VERTEX
  5
1401
  8
3
 10
41.80024278830001
 20
19.57861608589999
 30
0.0
  0
VERTEX
  5
1402
  8
3
 10
42.32548748559998
 20
19.4956437495
 30
0.0
  0
VERTEX
  5
1403
  8
3
 10
42.86939614260001
 20
19.5141738065
 30
0.0
  0
VERTEX
  5
1404
  8
3
 10
43.371184658
 20
19.63102727820001
 30
0.0
  0
VERTEX
  5
1405
  8
3
 10
43.77572328100001
 20
19.82964191729999
 30
0.0
  0
VERTEX
  5
1406
  8
3
 10
44.03710515579996
 20
20.08287850249999
 30
0.0
  0
VERTEX
  5
1407
  8
3
 10
44.1249601504
 20
20.35728472010001
 30
0.0
  0
VERTEX
  5
1408
  8
3
 10
44.02995994009996
 20
20.61986292629999
 30
0.0
  0
VERTEX
  5
1409
  8
3
 10
43.76327567799996
 20
20.8434044631
 30
0.0
  0
VERTEX
  5
140A
  8
3
 10
43.35393005319997
 20
21.00761844100001
 30
0.0
  0
VERTEX
  5
140B
  8
3
 10
42.84772771309997
 20
21.0987953321
 30
0.0
  0
VERTEX
  5
140C
  8
3
 10
42.5
 20
21.11538233850001
 30
0.0
  0
SEQEND
  5
151D
  8
3
  0
LINE
  5
CE1
  8
SK3
 10
-33.75
 20
0.0
 30
0.0
 11
-33.75
 21
11.09979999999999
 31
0.0
  0
LINE
  5
CE2
  8
SK3
 10
-33.75
 20
-11.09980000000002
 30
0.0
 11
-33.75
 21
0.0
 31
0.0
  0
LINE
  5
CE3
  8
SK3
 10
-32.2270783235
 20
0.0
 30
0.0
 11
-32.2270783235
 21
-4.25
 31
0.0
  0
LINE
  5
CE4
  8
SK3
 10
-32.2270783235
 20
4.25
 30
0.0
 11
-32.2270783235
 21
0.0
 31
0.0
  0
LINE
  5
CE5
  8
3
 10
41.0
 20
1.25
 30
0.0
 11
41.0
 21
0.5771163297000044
 31
0.0
  0
LINE
  5
CE6
  8
3
 10
41.0
 20
-0.5851023806000057
 30
0.0
 11
41.0
 21
-1.25
 31
0.0
  0
LINE
  5
CEB
  8
3
 10
33.0
 20
22.25749999999999
 30
0.0
 11
33.0
 21
12.24250000000001
 31
0.0
  0
LINE
  5
CEC
  8
3
 10
33.0
 20
-12.24250000000001
 30
0.0
 11
33.0
 21
-22.25750000000001
 31
0.0
  0
LINE
  5
CED
  8
3
 10
48.0
 20
5.0
 30
0.0
 11
48.0
 21
-5.0
 31
0.0
  0
POLYLINE
  5
CF0
  8
3
 66
     1
 10
0.0
 20
0.0
 30
0.0
  0
VERTEX
  5
140D
  8
3
 10
42.5
 20
-2.892811819900004
 30
0.0
  0
VERTEX
  5
140E
  8
3
 10
42.9034908104
 20
-2.943580706200009
 30
0.0
  0
VERTEX
  5
140F
  8
3
 10
43.26128628429996
 20
-3.083342139699994
 30
0.0
  0
VERTEX
  5
1410
  8
3
 10
43.54438788559997
 20
-3.288803417999986
 30
0.0
  0
VERTEX
  5
1411
  8
3
 10
43.71440877809999
 20
-3.523580108499999
 30
0.0
  0
VERTEX
  5
1412
  8
3
 10
43.74429662029996
 20
-3.73879449970002
 30
0.0
  0
VERTEX
  5
1413
  8
3
 10
43.64171773039999
 20
-3.908577065200006
 30
0.0
  0
VERTEX
  5
1414
  8
3
 10
43.41909910589999
 20
-4.030340428499983
 30
0.0
  0
VERTEX
  5
1415
  8
3
 10
43.0870759737
 20
-4.106141971400007
 30
0.0
  0
VERTEX
  5
1416
  8
3
 10
42.68270634779998
 20
-4.139656146800007
 30
0.0
  0
VERTEX
  5
1417
  8
3
 10
42.27080639229996
 20
-4.137811298000003
 30
0.0
  0
VERTEX
  5
1418
  8
3
 10
41.89427786120001
 20
-4.103426012599982
 30
0.0
  0
VERTEX
  5
1419
  8
3
 10
41.57426924239996
 20
-4.027986525800003
 30
0.0
  0
VERTEX
  5
141A
  8
3
 10
41.34690957940001
 20
-3.898093173000007
 30
0.0
  0
VERTEX
  5
141B
  8
3
 10
41.25198303240001
 20
-3.715294308000011
 30
0.0
  0
VERTEX
  5
141C
  8
3
 10
41.29578565419996
 20
-3.501534931999998
 30
0.0
  0
VERTEX
  5
141D
  8
3
 10
41.46430935230001
 20
-3.280412319700019
 30
0.0
  0
VERTEX
  5
141E
  8
3
 10
41.74839957059999
 20
-3.078125083600014
 30
0.0
  0
VERTEX
  5
141F
  8
3
 10
42.12680160560001
 20
-2.936133060200007
 30
0.0
  0
VERTEX
  5
1420
  8
3
 10
42.5
 20
-2.892811819900004
 30
0.0
  0
SEQEND
  5
151C
  8
3
  0
POLYLINE
  5
CF1
  8
3
 66
     1
 10
0.0
 20
0.0
 30
0.0
  0
VERTEX
  5
1421
  8
3
 10
42.5
 20
4.142811819900004
 30
0.0
  0
VERTEX
  5
1422
  8
3
 10
42.9034908104
 20
4.126667839800007
 30
0.0
  0
VERTEX
  5
1423
  8
3
 10
43.26128628429996
 20
4.074777056000016
 30
0.0
  0
VERTEX
  5
1424
  8
3
 10
43.54438788559997
 20
3.975646882299998
 30
0.0
  0
VERTEX
  5
1425
  8
3
 10
43.71440877809999
 20
3.819741077499998
 30
0.0
  0
VERTEX
  5
1426
  8
3
 10
43.74429662029996
 20
3.61952203589999
 30
0.0
  0
VERTEX
  5
1427
  8
3
 10
43.64171773039999
 20
3.399675675799983
 30
0.0
  0
VERTEX
  5
1428
  8
3
 10
43.41909910589999
 20
3.183135120700001
 30
0.0
  0
VERTEX
  5
1429
  8
3
 10
43.0870759737
 20
3.002583272799995
 30
0.0
  0
VERTEX
  5
142A
  8
3
 10
42.68270634779998
 20
2.903080880000005
 30
0.0
  0
VERTEX
  5
142B
  8
3
 10
42.27080639229996
 20
2.909002814000019
 30
0.0
  0
VERTEX
  5
142C
  8
3
 10
41.89427786120001
 20
3.009990742199989
 30
0.0
  0
VERTEX
  5
142D
  8
3
 10
41.57426924239996
 20
3.188032619599994
 30
0.0
  0
VERTEX
  5
142E
  8
3
 10
41.34690957940001
 20
3.415514182799996
 30
0.0
  0
VERTEX
  5
142F
  8
3
 10
41.25198303240001
 20
3.644912146500019
 30
0.0
  0
VERTEX
  5
1430
  8
3
 10
41.29578565419996
 20
3.836748012399994
 30
0.0
  0
VERTEX
  5
1431
  8
3
 10
41.46430935230001
 20
3.980301512499977
 30
0.0
  0
VERTEX
  5
1432
  8
3
 10
41.74839957059999
 20
4.076922758100011
 30
0.0
  0
VERTEX
  5
1433
  8
3
 10
42.12680160560001
 20
4.129122145800011
 30
0.0
  0
VERTEX
  5
1434
  8
3
 10
42.5
 20
4.142811819900004
 30
0.0
  0
SEQEND
  5
151B
  8
3
  0
POLYLINE
  5
CF2
  8
3
 66
     1
 10
0.0
 20
0.0
 30
0.0
  0
VERTEX
  5
1435
  8
3
 10
42.5
 20
6.303203230299999
 30
0.0
  0
VERTEX
  5
1436
  8
3
 10
42.72968689729998
 20
6.114930355000013
 30
0.0
  0
VERTEX
  5
1437
  8
3
 10
42.9515520827
 20
5.954352512100002
 30
0.0
  0
VERTEX
  5
1438
  8
3
 10
43.15804020359997
 20
5.826937987400015
 30
0.0
  0
VERTEX
  5
1439
  8
3
 10
43.3421195546
 20
5.737025729700008
 30
0.0
  0
VERTEX
  5
143A
  8
3
 10
43.49752153409997
 20
5.687677593199993
 30
0.0
  0
VERTEX
  5
143B
  8
3
 10
43.61895411419999
 20
5.680574069300008
 30
0.0
  0
VERTEX
  5
143C
  8
3
 10
43.70228205399997
 20
5.715957060199997
 30
0.0
  0
VERTEX
  5
143D
  8
3
 10
43.7446677204
 20
5.792621640499988
 30
0.0
  0
VERTEX
  5
143E
  8
3
 10
43.7446677204
 20
5.907957089799993
 30
0.0
  0
VERTEX
  5
143F
  8
3
 10
43.70228205399997
 20
6.058035797800017
 30
0.0
  0
VERTEX
  5
1440
  8
3
 10
43.61895411419999
 20
6.237747014099995
 30
0.0
  0
VERTEX
  5
1441
  8
3
 10
43.49752153409997
 20
6.440970888700008
 30
0.0
  0
VERTEX
  5
1442
  8
3
 10
43.3421195546
 20
6.660786876299994
 30
0.0
  0
VERTEX
  5
1443
  8
3
 10
43.15804020359997
 20
6.889709407099986
 30
0.0
  0
VERTEX
  5
1444
  8
3
 10
42.9515520827
 20
7.119942798900013
 30
0.0
  0
VERTEX
  5
1445
  8
3
 10
42.72968689729998
 20
7.343646729599982
 30
0.0
  0
VERTEX
  5
1446
  8
3
 10
42.5
 20
7.553203230299999
 30
0.0
  0
SEQEND
  5
151A
  8
3
  0
POLYLINE
  5
CF3
  8
3
 66
     1
 10
0.0
 20
0.0
 30
0.0
  0
VERTEX
  5
1447
  8
3
 10
42.5
 20
7.553203230299999
 30
0.0
  0
VERTEX
  5
1448
  8
3
 10
42.28293977789997
 20
7.355728409400001
 30
0.0
  0
VERTEX
  5
1449
  8
3
 10
42.07247482079998
 20
7.145263452400002
 30
0.0
  0
VERTEX
  5
144A
  8
3
 10
41.875
 20
6.928203230299999
 30
0.0
  0
VERTEX
  5
144B
  8
3
 10
41.6965154879
 20
6.711143008199997
 30
0.0
  0
VERTEX
  5
144C
  8
3
 10
41.54244444609998
 20
6.50067805110001
 30
0.0
  0
VERTEX
  5
144D
  8
3
 10
41.41746824529997
 20
6.303203230299999
 30
0.0
  0
VERTEX
  5
144E
  8
3
 10
41.325384224
 20
6.1247187182
 30
0.0
  0
VERTEX
  5
144F
  8
3
 10
41.26899030869998
 20
5.970647676400006
 30
0.0
  0
VERTEX
  5
1450
  8
3
 10
41.25
 20
5.845671475500012
 30
0.0
  0
VERTEX
  5
1451
  8
3
 10
41.26899030869998
 20
5.753587454300003
 30
0.0
  0
VERTEX
  5
1452
  8
3
 10
41.325384224
 20
5.697193539000011
 30
0.0
  0
VERTEX
  5
1453
  8
3
 10
41.41746824529997
 20
5.678203230299999
 30
0.0
  0
VERTEX
  5
1454
  8
3
 10
41.54244444609998
 20
5.697193539000011
 30
0.0
  0
VERTEX
  5
1455
  8
3
 10
41.6965154879
 20
5.753587454300003
 30
0.0
  0
VERTEX
  5
1456
  8
3
 10
41.875
 20
5.845671475500012
 30
0.0
  0
VERTEX
  5
1457
  8
3
 10
42.07247482079998
 20
5.970647676400006
 30
0.0
  0
VERTEX
  5
1458
  8
3
 10
42.28293977789997
 20
6.1247187182
 30
0.0
  0
VERTEX
  5
1459
  8
3
 10
42.5
 20
6.303203230299999
 30
0.0
  0
SEQEND
  5
1519
  8
3
  0
POLYLINE
  5
CF4
  8
3
 66
     1
 10
0.0
 20
0.0
 30
0.0
  0
VERTEX
  5
145A
  8
3
 10
42.5
 20
-7.553203230299999
 30
0.0
  0
VERTEX
  5
145B
  8
3
 10
42.72968689729998
 20
-7.343646729599982
 30
0.0
  0
VERTEX
  5
145C
  8
3
 10
42.9515520827
 20
-7.119942798900013
 30
0.0
  0
VERTEX
  5
145D
  8
3
 10
43.15804020359997
 20
-6.889709407099986
 30
0.0
  0
VERTEX
  5
145E
  8
3
 10
43.3421195546
 20
-6.660786876299994
 30
0.0
  0
VERTEX
  5
145F
  8
3
 10
43.49752153409997
 20
-6.440970888700008
 30
0.0
  0
VERTEX
  5
1460
  8
3
 10
43.61895411419999
 20
-6.237747014099995
 30
0.0
  0
VERTEX
  5
1461
  8
3
 10
43.70228205399997
 20
-6.058035797800017
 30
0.0
  0
VERTEX
  5
1462
  8
3
 10
43.7446677204
 20
-5.907957089799993
 30
0.0
  0
VERTEX
  5
1463
  8
3
 10
43.7446677204
 20
-5.792621640499988
 30
0.0
  0
VERTEX
  5
1464
  8
3
 10
43.70228205399997
 20
-5.715957060199997
 30
0.0
  0
VERTEX
  5
1465
  8
3
 10
43.61895411419999
 20
-5.680574069399995
 30
0.0
  0
VERTEX
  5
1466
  8
3
 10
43.49752153409997
 20
-5.687677593200021
 30
0.0
  0
VERTEX
  5
1467
  8
3
 10
43.3421195546
 20
-5.737025729799996
 30
0.0
  0
VERTEX
  5
1468
  8
3
 10
43.15804020359997
 20
-5.826937987400015
 30
0.0
  0
VERTEX
  5
1469
  8
3
 10
42.9515520827
 20
-5.954352512100002
 30
0.0
  0
VERTEX
  5
146A
  8
3
 10
42.72968689729998
 20
-6.114930355000013
 30
0.0
  0
VERTEX
  5
146B
  8
3
 10
42.5
 20
-6.303203230299999
 30
0.0
  0
SEQEND
  5
1518
  8
3
  0
POLYLINE
  5
CF5
  8
3
 66
     1
 10
0.0
 20
0.0
 30
0.0
  0
VERTEX
  5
146C
  8
3
 10
42.5
 20
-6.303203230299999
 30
0.0
  0
VERTEX
  5
146D
  8
3
 10
42.28293977789997
 20
-6.1247187182
 30
0.0
  0
VERTEX
  5
146E
  8
3
 10
42.07247482079998
 20
-5.970647676400006
 30
0.0
  0
VERTEX
  5
146F
  8
3
 10
41.875
 20
-5.8456714756
 30
0.0
  0
VERTEX
  5
1470
  8
3
 10
41.6965154879
 20
-5.753587454300003
 30
0.0
  0
VERTEX
  5
1471
  8
3
 10
41.54244444609998
 20
-5.697193539000011
 30
0.0
  0
VERTEX
  5
1472
  8
3
 10
41.41746824529997
 20
-5.678203230299999
 30
0.0
  0
VERTEX
  5
1473
  8
3
 10
41.325384224
 20
-5.697193539000011
 30
0.0
  0
VERTEX
  5
1474
  8
3
 10
41.26899030869998
 20
-5.753587454300003
 30
0.0
  0
VERTEX
  5
1475
  8
3
 10
41.25
 20
-5.8456714756
 30
0.0
  0
VERTEX
  5
1476
  8
3
 10
41.26899030869998
 20
-5.970647676400006
 30
0.0
  0
VERTEX
  5
1477
  8
3
 10
41.325384224
 20
-6.1247187182
 30
0.0
  0
VERTEX
  5
1478
  8
3
 10
41.41746824529997
 20
-6.303203230299999
 30
0.0
  0
VERTEX
  5
1479
  8
3
 10
41.54244444609998
 20
-6.50067805110001
 30
0.0
  0
VERTEX
  5
147A
  8
3
 10
41.6965154879
 20
-6.711143008199997
 30
0.0
  0
VERTEX
  5
147B
  8
3
 10
41.875
 20
-6.928203230299999
 30
0.0
  0
VERTEX
  5
147C
  8
3
 10
42.07247482079998
 20
-7.145263452400002
 30
0.0
  0
VERTEX
  5
147D
  8
3
 10
42.28293977789997
 20
-7.355728409400001
 30
0.0
  0
VERTEX
  5
147E
  8
3
 10
42.5
 20
-7.553203230299999
 30
0.0
  0
SEQEND
  5
1517
  8
3
  0
LINE
  5
CF6
  8
3
 10
41.0
 20
8.1782032303
 30
0.0
 11
41.0
 21
5.678203230299999
 31
0.0
  0
POLYLINE
  5
CF7
  8
3
 66
     1
 10
0.0
 20
0.0
 30
0.0
  0
VERTEX
  5
147F
  8
3
 10
42.5
 20
6.303203230299999
 30
0.0
  0
VERTEX
  5
1480
  8
3
 10
42.28293977789997
 20
6.50067805110001
 30
0.0
  0
VERTEX
  5
1481
  8
3
 10
42.07247482079998
 20
6.711143008199997
 30
0.0
  0
VERTEX
  5
1482
  8
3
 10
41.875
 20
6.928203230299999
 30
0.0
  0
VERTEX
  5
1483
  8
3
 10
41.6965154879
 20
7.145263452400002
 30
0.0
  0
VERTEX
  5
1484
  8
3
 10
41.54244444609998
 20
7.355728409400001
 30
0.0
  0
VERTEX
  5
1485
  8
3
 10
41.41746824529997
 20
7.553203230299999
 30
0.0
  0
VERTEX
  5
1486
  8
3
 10
41.325384224
 20
7.731687742399998
 30
0.0
  0
VERTEX
  5
1487
  8
3
 10
41.26899030869998
 20
7.885758784199993
 30
0.0
  0
VERTEX
  5
1488
  8
3
 10
41.25
 20
8.010734985
 30
0.0
  0
VERTEX
  5
1489
  8
3
 10
41.26899030869998
 20
8.10281900619998
 30
0.0
  0
VERTEX
  5
148A
  8
3
 10
41.325384224
 20
8.1592129215
 30
0.0
  0
VERTEX
  5
148B
  8
3
 10
41.41746824529997
 20
8.1782032303
 30
0.0
  0
VERTEX
  5
148C
  8
3
 10
41.54244444609998
 20
8.1592129215
 30
0.0
  0
VERTEX
  5
148D
  8
3
 10
41.6965154879
 20
8.10281900619998
 30
0.0
  0
VERTEX
  5
148E
  8
3
 10
41.875
 20
8.010734985
 30
0.0
  0
VERTEX
  5
148F
  8
3
 10
42.07247482079998
 20
7.885758784199993
 30
0.0
  0
VERTEX
  5
1490
  8
3
 10
42.28293977789997
 20
7.731687742399998
 30
0.0
  0
VERTEX
  5
1491
  8
3
 10
42.5
 20
7.553203230299999
 30
0.0
  0
SEQEND
  5
1516
  8
3
  0
POLYLINE
  5
CF8
  8
3
 66
     1
 10
0.0
 20
0.0
 30
0.0
  0
VERTEX
  5
1492
  8
3
 10
42.5
 20
7.553203230299999
 30
0.0
  0
VERTEX
  5
1493
  8
3
 10
42.72968689729998
 20
7.741476105499999
 30
0.0
  0
VERTEX
  5
1494
  8
3
 10
42.9515520827
 20
7.90205394840001
 30
0.0
  0
VERTEX
  5
1495
  8
3
 10
43.15804020359997
 20
8.029468473099996
 30
0.0
  0
VERTEX
  5
1496
  8
3
 10
43.3421195546
 20
8.119380730800003
 30
0.0
  0
VERTEX
  5
1497
  8
3
 10
43.49752153409997
 20
8.168728867399977
 30
0.0
  0
VERTEX
  5
1498
  8
3
 10
43.61895411419999
 20
8.175832391200004
 30
0.0
  0
VERTEX
  5
1499
  8
3
 10
43.70228205399997
 20
8.140449400299985
 30
0.0
  0
VERTEX
  5
149A
  8
3
 10
43.7446677204
 20
8.063784819999995
 30
0.0
  0
VERTEX
  5
149B
  8
3
 10
43.7446677204
 20
7.948449370700018
 30
0.0
  0
VERTEX
  5
149C
  8
3
 10
43.70228205399997
 20
7.798370662699995
 30
0.0
  0
VERTEX
  5
149D
  8
3
 10
43.61895411419999
 20
7.618659446500004
 30
0.0
  0
VERTEX
  5
149E
  8
3
 10
43.49752153409997
 20
7.415435571899991
 30
0.0
  0
VERTEX
  5
149F
  8
3
 10
43.3421195546
 20
7.195619584300005
 30
0.0
  0
VERTEX
  5
14A0
  8
3
 10
43.15804020359997
 20
6.966697053500013
 30
0.0
  0
VERTEX
  5
14A1
  8
3
 10
42.9515520827
 20
6.736463661699986
 30
0.0
  0
VERTEX
  5
14A2
  8
3
 10
42.72968689729998
 20
6.512759730900001
 30
0.0
  0
VERTEX
  5
14A3
  8
3
 10
42.5
 20
6.303203230299999
 30
0.0
  0
SEQEND
  5
1515
  8
3
  0
POLYLINE
  5
CF9
  8
3
 66
     1
 10
0.0
 20
0.0
 30
0.0
  0
VERTEX
  5
14A4
  8
3
 10
42.5
 20
-6.303203230299999
 30
0.0
  0
VERTEX
  5
14A5
  8
3
 10
42.72968689729998
 20
-6.512759730900001
 30
0.0
  0
VERTEX
  5
14A6
  8
3
 10
42.9515520827
 20
-6.736463661699986
 30
0.0
  0
VERTEX
  5
14A7
  8
3
 10
43.15804020359997
 20
-6.966697053500013
 30
0.0
  0
VERTEX
  5
14A8
  8
3
 10
43.3421195546
 20
-7.195619584300005
 30
0.0
  0
VERTEX
  5
14A9
  8
3
 10
43.49752153409997
 20
-7.415435571899991
 30
0.0
  0
VERTEX
  5
14AA
  8
3
 10
43.61895411419999
 20
-7.618659446500004
 30
0.0
  0
VERTEX
  5
14AB
  8
3
 10
43.70228205399997
 20
-7.798370662699995
 30
0.0
  0
VERTEX
  5
14AC
  8
3
 10
43.7446677204
 20
-7.948449370700018
 30
0.0
  0
VERTEX
  5
14AD
  8
3
 10
43.7446677204
 20
-8.063784820100011
 30
0.0
  0
VERTEX
  5
14AE
  8
3
 10
43.70228205399997
 20
-8.140449400299985
 30
0.0
  0
VERTEX
  5
14AF
  8
3
 10
43.61895411419999
 20
-8.175832391200004
 30
0.0
  0
VERTEX
  5
14B0
  8
3
 10
43.49752153409997
 20
-8.168728867400006
 30
0.0
  0
VERTEX
  5
14B1
  8
3
 10
43.3421195546
 20
-8.119380730800003
 30
0.0
  0
VERTEX
  5
14B2
  8
3
 10
43.15804020359997
 20
-8.029468473099996
 30
0.0
  0
VERTEX
  5
14B3
  8
3
 10
42.9515520827
 20
-7.90205394840001
 30
0.0
  0
VERTEX
  5
14B4
  8
3
 10
42.72968689729998
 20
-7.741476105499999
 30
0.0
  0
VERTEX
  5
14B5
  8
3
 10
42.5
 20
-7.553203230299999
 30
0.0
  0
SEQEND
  5
1514
  8
3
  0
LINE
  5
CFA
  8
3
 10
41.0
 20
-5.678203230299999
 30
0.0
 11
41.0
 21
-8.1782032303
 31
0.0
  0
POLYLINE
  5
CFB
  8
3
 66
     1
 10
0.0
 20
0.0
 30
0.0
  0
VERTEX
  5
14B6
  8
3
 10
42.5
 20
-7.553203230299999
 30
0.0
  0
VERTEX
  5
14B7
  8
3
 10
42.28293977789997
 20
-7.731687742399998
 30
0.0
  0
VERTEX
  5
14B8
  8
3
 10
42.07247482079998
 20
-7.885758784199993
 30
0.0
  0
VERTEX
  5
14B9
  8
3
 10
41.875
 20
-8.010734985
 30
0.0
  0
VERTEX
  5
14BA
  8
3
 10
41.6965154879
 20
-8.102819006299995
 30
0.0
  0
VERTEX
  5
14BB
  8
3
 10
41.54244444609998
 20
-8.1592129215
 30
0.0
  0
VERTEX
  5
14BC
  8
3
 10
41.41746824529997
 20
-8.1782032303
 30
0.0
  0
VERTEX
  5
14BD
  8
3
 10
41.325384224
 20
-8.1592129215
 30
0.0
  0
VERTEX
  5
14BE
  8
3
 10
41.26899030869998
 20
-8.102819006299995
 30
0.0
  0
VERTEX
  5
14BF
  8
3
 10
41.25
 20
-8.010734985
 30
0.0
  0
VERTEX
  5
14C0
  8
3
 10
41.26899030869998
 20
-7.885758784199993
 30
0.0
  0
VERTEX
  5
14C1
  8
3
 10
41.325384224
 20
-7.731687742399998
 30
0.0
  0
VERTEX
  5
14C2
  8
3
 10
41.41746824529997
 20
-7.553203230299999
 30
0.0
  0
VERTEX
  5
14C3
  8
3
 10
41.54244444609998
 20
-7.355728409400001
 30
0.0
  0
VERTEX
  5
14C4
  8
3
 10
41.6965154879
 20
-7.145263452400002
 30
0.0
  0
VERTEX
  5
14C5
  8
3
 10
41.875
 20
-6.928203230299999
 30
0.0
  0
VERTEX
  5
14C6
  8
3
 10
42.07247482079998
 20
-6.711143008199997
 30
0.0
  0
VERTEX
  5
14C7
  8
3
 10
42.28293977789997
 20
-6.50067805110001
 30
0.0
  0
VERTEX
  5
14C8
  8
3
 10
42.5
 20
-6.303203230299999
 30
0.0
  0
SEQEND
  5
1513
  8
3
  0
POLYLINE
  5
CFC
  8
3
 66
     1
 10
0.0
 20
0.0
 30
0.0
  0
VERTEX
  5
14C9
  8
3
 10
42.5
 20
19.7858120587
 30
0.0
  0
VERTEX
  5
14CA
  8
3
 10
42.97835429049996
 20
19.73823676649999
 30
0.0
  0
VERTEX
  5
14CB
  8
3
 10
43.38388347649999
 20
19.60275379699999
 30
0.0
  0
VERTEX
  5
14CC
  8
3
 10
43.65484941559998
 20
19.39998920389999
 30
0.0
  0
VERTEX
  5
14CD
  8
3
 10
43.75
 20
19.1608120587
 30
0.0
  0
VERTEX
  5
14CE
  8
3
 10
43.65484941559998
 20
18.92163491349999
 30
0.0
  0
VERTEX
  5
14CF
  8
3
 10
43.38388347649999
 20
18.7188703205
 30
0.0
  0
VERTEX
  5
14D0
  8
3
 10
42.97835429049996
 20
18.58338735090001
 30
0.0
  0
VERTEX
  5
14D1
  8
3
 10
42.5
 20
18.5358120587
 30
0.0
  0
VERTEX
  5
14D2
  8
3
 10
42.02164570949998
 20
18.58338735090001
 30
0.0
  0
VERTEX
  5
14D3
  8
3
 10
41.61611652350001
 20
18.7188703205
 30
0.0
  0
VERTEX
  5
14D4
  8
3
 10
41.34515058439996
 20
18.92163491349999
 30
0.0
  0
VERTEX
  5
14D5
  8
3
 10
41.25
 20
19.1608120587
 30
0.0
  0
VERTEX
  5
14D6
  8
3
 10
41.34515058439996
 20
19.39998920389999
 30
0.0
  0
VERTEX
  5
14D7
  8
3
 10
41.61611652350001
 20
19.60275379699999
 30
0.0
  0
VERTEX
  5
14D8
  8
3
 10
42.02164570949998
 20
19.73823676649999
 30
0.0
  0
VERTEX
  5
14D9
  8
3
 10
42.5
 20
19.7858120587
 30
0.0
  0
SEQEND
  5
1512
  8
3
  0
POLYLINE
  5
CFD
  8
3
 66
     1
 10
0.0
 20
0.0
 30
0.0
  0
VERTEX
  5
14DA
  8
3
 10
42.5
 20
-18.5358120587
 30
0.0
  0
VERTEX
  5
14DB
  8
3
 10
42.97835429049996
 20
-18.58338735090001
 30
0.0
  0
VERTEX
  5
14DC
  8
3
 10
43.38388347649999
 20
-18.7188703205
 30
0.0
  0
VERTEX
  5
14DD
  8
3
 10
43.65484941559998
 20
-18.92163491349999
 30
0.0
  0
VERTEX
  5
14DE
  8
3
 10
43.75
 20
-19.1608120587
 30
0.0
  0
VERTEX
  5
14DF
  8
3
 10
43.65484941559998
 20
-19.39998920400001
 30
0.0
  0
VERTEX
  5
14E0
  8
3
 10
43.38388347649999
 20
-19.60275379699999
 30
0.0
  0
VERTEX
  5
14E1
  8
3
 10
42.97835429049996
 20
-19.73823676659998
 30
0.0
  0
VERTEX
  5
14E2
  8
3
 10
42.5
 20
-19.7858120587
 30
0.0
  0
VERTEX
  5
14E3
  8
3
 10
42.02164570949998
 20
-19.73823676659998
 30
0.0
  0
VERTEX
  5
14E4
  8
3
 10
41.61611652350001
 20
-19.60275379699999
 30
0.0
  0
VERTEX
  5
14E5
  8
3
 10
41.34515058439996
 20
-19.39998920400001
 30
0.0
  0
VERTEX
  5
14E6
  8
3
 10
41.25
 20
-19.1608120587
 30
0.0
  0
VERTEX
  5
14E7
  8
3
 10
41.34515058439996
 20
-18.92163491349999
 30
0.0
  0
VERTEX
  5
14E8
  8
3
 10
41.61611652350001
 20
-18.7188703205
 30
0.0
  0
VERTEX
  5
14E9
  8
3
 10
42.02164570949998
 20
-18.58338735090001
 30
0.0
  0
VERTEX
  5
14EA
  8
3
 10
42.5
 20
-18.5358120587
 30
0.0
  0
SEQEND
  5
1511
  8
3
  0
POLYLINE
  5
CFE
  8
3
 66
     1
 10
0.0
 20
0.0
 30
0.0
  0
VERTEX
  5
14EB
  8
3
 10
42.5
 20
20.29807158509999
 30
0.0
  0
VERTEX
  5
14EC
  8
3
 10
43.12186057759999
 20
20.23622370530001
 30
0.0
  0
VERTEX
  5
14ED
  8
3
 10
43.64904851939997
 20
20.06009584489999
 30
0.0
  0
VERTEX
  5
14EE
  8
3
 10
44.00130424029999
 20
19.79650187389998
 30
0.0
  0
VERTEX
  5
14EF
  8
3
 10
44.125
 20
19.48557158509999
 30
0.0
  0
VERTEX
  5
14F0
  8
3
 10
44.00130424029999
 20
19.1746412963
 30
0.0
  0
VERTEX
  5
14F1
  8
3
 10
43.64904851939997
 20
18.91104732540001
 30
0.0
  0
VERTEX
  5
14F2
  8
3
 10
43.12186057759999
 20
18.73491946499999
 30
0.0
  0
VERTEX
  5
14F3
  8
3
 10
42.5
 20
18.67307158509999
 30
0.0
  0
VERTEX
  5
14F4
  8
3
 10
41.87813942240001
 20
18.73491946499999
 30
0.0
  0
VERTEX
  5
14F5
  8
3
 10
41.35095148059997
 20
18.91104732540001
 30
0.0
  0
VERTEX
  5
14F6
  8
3
 10
40.99869575969996
 20
19.1746412963
 30
0.0
  0
VERTEX
  5
14F7
  8
3
 10
40.875
 20
19.48557158509999
 30
0.0
  0
VERTEX
  5
14F8
  8
3
 10
40.99869575969996
 20
19.79650187389998
 30
0.0
  0
VERTEX
  5
14F9
  8
3
 10
41.35095148059997
 20
20.06009584489999
 30
0.0
  0
VERTEX
  5
14FA
  8
3
 10
41.87813942240001
 20
20.23622370530001
 30
0.0
  0
VERTEX
  5
14FB
  8
3
 10
42.5
 20
20.29807158509999
 30
0.0
  0
SEQEND
  5
1510
  8
3
  0
POLYLINE
  5
CFF
  8
3
 66
     1
 10
0.0
 20
0.0
 30
0.0
  0
VERTEX
  5
14FC
  8
3
 10
42.5
 20
-18.67307158520001
 30
0.0
  0
VERTEX
  5
14FD
  8
3
 10
43.12186057759999
 20
-18.73491946500002
 30
0.0
  0
VERTEX
  5
14FE
  8
3
 10
43.64904851939997
 20
-18.91104732540001
 30
0.0
  0
VERTEX
  5
14FF
  8
3
 10
44.00130424029999
 20
-19.17464129640001
 30
0.0
  0
VERTEX
  5
1500
  8
3
 10
44.125
 20
-19.48557158520001
 30
0.0
  0
VERTEX
  5
1501
  8
3
 10
44.00130424029999
 20
-19.796501874
 30
0.0
  0
VERTEX
  5
1502
  8
3
 10
43.64904851939997
 20
-20.06009584489999
 30
0.0
  0
VERTEX
  5
1503
  8
3
 10
43.12186057759999
 20
-20.23622370530001
 30
0.0
  0
VERTEX
  5
1504
  8
3
 10
42.5
 20
-20.29807158520001
 30
0.0
  0
VERTEX
  5
1505
  8
3
 10
41.87813942240001
 20
-20.23622370530001
 30
0.0
  0
VERTEX
  5
1506
  8
3
 10
41.35095148059997
 20
-20.06009584489999
 30
0.0
  0
VERTEX
  5
1507
  8
3
 10
40.99869575969996
 20
-19.796501874
 30
0.0
  0
VERTEX
  5
1508
  8
3
 10
40.875
 20
-19.48557158520001
 30
0.0
  0
VERTEX
  5
1509
  8
3
 10
40.99869575969996
 20
-19.17464129640001
 30
0.0
  0
VERTEX
  5
150A
  8
3
 10
41.35095148059997
 20
-18.91104732540001
 30
0.0
  0
VERTEX
  5
150B
  8
3
 10
41.87813942240001
 20
-18.73491946500002
 30
0.0
  0
VERTEX
  5
150C
  8
3
 10
42.5
 20
-18.67307158520001
 30
0.0
  0
SEQEND
  5
150F
  8
3
  0
LINE
  5
D0C
  8
3
 10
38.9236825749
 20
-12.2525
 30
0.0
 11
38.0
 21
-12.5
 31
0.0
  0
LINE
  5
D0D
  8
3
 10
38.0
 20
-22.0
 30
0.0
 11
38.9236825749
 21
-22.2475
 31
0.0
  0
LINE
  5
D12
  8
3
 10
39.5
 20
22.2475
 30
0.0
 11
38.9236825749
 21
22.2475
 31
0.0
  0
LINE
  5
D14
  8
3
 10
38.9236825749
 20
22.2475
 30
0.0
 11
38.0
 21
22.0
 31
0.0
  0
LINE
  5
D15
  8
3
 10
38.0
 20
12.5
 30
0.0
 11
38.9236825749
 21
12.2525
 31
0.0
  0
LINE
  5
D16
  8
3
 10
43.72474487139999
 20
-14.83068503980002
 30
0.0
 11
43.31649658089998
 21
-14.54200990520002
 31
0.0
  0
LINE
  5
D17
  8
3
 10
41.68350341909996
 20
-14.54200990520002
 30
0.0
 11
41.27525512860001
 21
-14.83068503980002
 31
0.0
  0
LINE
  5
D18
  8
3
 10
44.0
 20
-19.02056205870002
 30
0.0
 11
44.0
 21
-15.26369774170001
 31
0.0
  0
LINE
  5
D19
  8
3
 10
41.0
 20
-15.26369774170001
 30
0.0
 11
41.0
 21
-19.02056205870002
 31
0.0
  0
LINE
  5
D1A
  8
3
 10
41.27525512860001
 20
14.83068503979999
 30
0.0
 11
41.68350341909996
 21
14.54200990519999
 31
0.0
  0
LINE
  5
D1B
  8
3
 10
43.31649658089998
 20
14.54200990519999
 30
0.0
 11
43.72474487139999
 21
14.83068503979999
 31
0.0
  0
LINE
  5
D1C
  8
3
 10
41.0
 20
19.02056205869999
 30
0.0
 11
41.0
 21
15.26369774169999
 31
0.0
  0
LINE
  5
D1D
  8
3
 10
44.0
 20
15.26369774169999
 30
0.0
 11
44.0
 21
19.02056205869999
 31
0.0
  0
LINE
  5
D26
  8
3
 10
50.0
 20
11.99907116049999
 30
0.0
 11
49.81362966949996
 21
11.303527618
 31
0.0
  0
LINE
  5
D27
  8
3
 10
49.81362966949996
 20
-11.30352761810002
 30
0.0
 11
50.0
 21
-11.99907116060001
 31
0.0
  0
ARC
  5
D28
  8
3
 10
50.19999999999999
 20
-11.19999999999999
 30
0.0
 40
0.400000000000014
 50
166.8750000000019
 51
195.0000000000015
  0
ARC
  5
D29
  8
3
 10
50.19999999999999
 20
-11.19999999999999
 30
0.0
 40
0.400000000000014
 50
120.0000000000058
 51
166.8750000000019
  0
ARC
  5
D2A
  8
3
 10
50.19999999999999
 20
11.19999999999999
 30
0.0
 40
0.4000000000000057
 50
164.9999999999964
 51
180.0
  0
ARC
  5
D2B
  8
3
 10
50.19999999999999
 20
11.19999999999999
 30
0.0
 40
0.4000000000000088
 50
180.0
 51
239.9999999999942
  0
LINE
  5
D2C
  8
3
 10
49.80000000000001
 20
11.19999999999999
 30
0.0
 11
49.80000000000001
 21
-11.19999999999999
 31
0.0
  0
LINE
  5
D2F
  8
SK3
 10
-33.75
 20
-10.8464985
 30
0.0
 11
-32.2270783235
 21
-4.25
 31
0.0
  0
LINE
  5
D30
  8
SK3
 10
-32.2270783235
 20
4.25
 30
0.0
 11
-33.75
 21
10.8464985
 31
0.0
  0
LINE
  5
D31
  8
3
 10
50.0
 20
1.25
 30
0.0
 11
42.5
 21
1.25
 31
0.0
  0
LINE
  5
D32
  8
3
 10
42.5
 20
-1.25
 30
0.0
 11
50.0
 21
-1.25
 31
0.0
  0
LINE
  5
D33
  8
3
 10
42.5
 20
1.25
 30
0.0
 11
41.0
 21
1.25
 31
0.0
  0
LINE
  5
D34
  8
3
 10
41.0
 20
-1.25
 30
0.0
 11
42.5
 21
-1.25
 31
0.0
  0
LINE
  5
D35
  8
3
 10
41.0
 20
1.25
 30
0.0
 11
40.24892422619996
 21
0.0
 31
0.0
  0
LINE
  5
D36
  8
3
 10
40.24892422619996
 20
0.0
 30
0.0
 11
41.0
 21
-1.25
 31
0.0
  0
LINE
  5
D3F
  8
3
 10
33.0
 20
22.25749999999999
 30
0.0
 11
29.99119045020001
 21
17.25
 31
0.0
  0
LINE
  5
D40
  8
3
 10
29.99119045020001
 20
17.25
 30
0.0
 11
33.0
 21
12.24250000000001
 31
0.0
  0
LINE
  5
D41
  8
3
 10
33.0
 20
-12.24250000000001
 30
0.0
 11
29.99119045020001
 21
-17.25
 31
0.0
  0
LINE
  5
D42
  8
3
 10
29.99119045020001
 20
-17.25
 30
0.0
 11
33.0
 21
-22.25750000000001
 31
0.0
  0
LINE
  5
D43
  8
3
 10
50.0
 20
22.25749999999999
 30
0.0
 11
33.0
 21
22.25749999999999
 31
0.0
  0
LINE
  5
D44
  8
3
 10
33.0
 20
12.24250000000001
 30
0.0
 11
50.0
 21
12.24250000000001
 31
0.0
  0
LINE
  5
D45
  8
3
 10
50.0
 20
-12.24250000000001
 30
0.0
 11
33.0
 21
-12.24250000000001
 31
0.0
  0
LINE
  5
D46
  8
3
 10
33.0
 20
-22.25750000000001
 30
0.0
 11
50.0
 21
-22.25750000000001
 31
0.0
  0
LINE
  5
D47
  8
3
 10
50.0
 20
5.0
 30
0.0
 11
48.0
 21
5.0
 31
0.0
  0
LINE
  5
D48
  8
3
 10
48.0
 20
-5.0
 30
0.0
 11
50.0
 21
-5.0
 31
0.0
  0
LINE
  5
D4B
  8
3
 10
48.0
 20
4.25
 30
0.0
 11
0.0
 21
4.25
 31
0.0
  0
LINE
  5
D4C
  8
3
 10
-0.0000000000000071
 20
-4.25
 30
0.0
 11
48.0
 21
-4.25
 31
0.0
  0
LINE
  5
D4D
  8
3
 10
41.25
 20
5.845671475500012
 30
0.0
 11
41.25
 21
3.678228705700008
 31
0.0
  0
LINE
  5
D4E
  8
3
 10
43.75
 20
3.677024109499996
 30
0.0
 11
43.75
 21
5.845671475500012
 31
0.0
  0
LINE
  5
D4F
  8
3
 10
43.75
 20
-5.8456714756
 30
0.0
 11
43.75
 21
-3.677024109499996
 31
0.0
  0
LINE
  5
D50
  8
3
 10
41.25
 20
-3.678228705700008
 30
0.0
 11
41.25
 21
-5.8456714756
 31
0.0
  0
LINE
  5
D51
  8
3
 10
41.41746824529997
 20
8.1782032303
 30
0.0
 11
41.0
 21
8.1782032303
 31
0.0
  0
LINE
  5
D52
  8
3
 10
41.0
 20
5.678203230299999
 30
0.0
 11
41.41746824529997
 21
5.678203230299999
 31
0.0
  0
LINE
  5
D53
  8
3
 10
50.0
 20
8.1782032303
 30
0.0
 11
43.58253175469997
 21
8.1782032303
 31
0.0
  0
LINE
  5
D54
  8
3
 10
43.58253175469997
 20
5.678203230299999
 30
0.0
 11
50.0
 21
5.678203230299999
 31
0.0
  0
LINE
  5
D55
  8
3
 10
41.0
 20
8.1782032303
 30
0.0
 11
40.24892422619996
 21
6.928203230299999
 31
0.0
  0
LINE
  5
D56
  8
3
 10
40.24892422619996
 20
6.928203230299999
 30
0.0
 11
41.0
 21
5.678203230299999
 31
0.0
  0
LINE
  5
D57
  8
3
 10
50.0
 20
-5.678203230299999
 30
0.0
 11
43.58253175469997
 21
-5.678203230299999
 31
0.0
  0
LINE
  5
D58
  8
3
 10
43.58253175469997
 20
-8.1782032303
 30
0.0
 11
50.0
 21
-8.1782032303
 31
0.0
  0
LINE
  5
D59
  8
3
 10
41.41746824529997
 20
-5.678203230299999
 30
0.0
 11
41.0
 21
-5.678203230299999
 31
0.0
  0
LINE
  5
D5A
  8
3
 10
41.0
 20
-8.1782032303
 30
0.0
 11
41.41746824529997
 21
-8.1782032303
 31
0.0
  0
LINE
  5
D5B
  8
3
 10
41.0
 20
-5.678203230299999
 30
0.0
 11
40.24892422619996
 21
-6.928203230299999
 31
0.0
  0
LINE
  5
D5C
  8
3
 10
40.24892422619996
 20
-6.928203230299999
 30
0.0
 11
41.0
 21
-8.1782032303
 31
0.0
  0
LINE
  5
D5D
  8
3
 10
41.25
 20
19.1608120587
 30
0.0
 11
41.25
 21
8.010734985
 31
0.0
  0
LINE
  5
D5E
  8
3
 10
43.75
 20
8.010734985
 30
0.0
 11
43.75
 21
19.1608120587
 31
0.0
  0
LINE
  5
D5F
  8
3
 10
43.75
 20
-19.1608120587
 30
0.0
 11
43.75
 21
-8.010734985
 31
0.0
  0
LINE
  5
D60
  8
3
 10
41.25
 20
-8.010734985
 30
0.0
 11
41.25
 21
-19.1608120587
 31
0.0
  0
LINE
  5
D61
  8
3
 10
40.875
 20
20.3503707113
 30
0.0
 11
40.875
 21
19.48557158509999
 31
0.0
  0
LINE
  5
D62
  8
3
 10
44.125
 20
19.48557158509999
 30
0.0
 11
44.125
 21
20.35148929069999
 31
0.0
  0
LINE
  5
D63
  8
3
 10
41.173193056
 20
19.0164744914
 30
0.0
 11
41.47937927379996
 21
18.7999681405
 31
0.0
  0
LINE
  5
D64
  8
3
 10
43.52062072619998
 20
18.7999681405
 30
0.0
 11
43.826806944
 21
19.0164744914
 31
0.0
  0
LINE
  5
D65
  8
3
 10
43.826806944
 20
-19.0164744914
 30
0.0
 11
43.52062072619998
 21
-18.7999681405
 31
0.0
  0
LINE
  5
D66
  8
3
 10
41.47937927379996
 20
-18.7999681405
 30
0.0
 11
41.173193056
 21
-19.0164744914
 31
0.0
  0
LINE
  5
D67
  8
3
 10
44.125
 20
-20.35148929069999
 30
0.0
 11
44.125
 21
-19.48557158520001
 31
0.0
  0
LINE
  5
D68
  8
3
 10
40.875
 20
-19.48557158520001
 30
0.0
 11
40.875
 21
-20.3503707113
 31
0.0
  0
ARC
  5
D6D
  8
1
 10
37.05000000000001
 20
25.5
 30
0.0
 40
2.0
 50
180.0
 51
270.0
  0
ARC
  5
F79
  8
NOCUT
 10
48.99999999999998
 20
22.5
 30
0.0
 40
1.0
 50
0.0
 51
90.0
  0
LINE
  5
F7A
  8
NOCUT
 10
48.99999999999998
 20
23.5
 30
0.0
 11
37.04999999999999
 21
23.5
 31
0.0
  0
ARC
  5
F7B
  8
NOCUT
 10
37.04999999999999
 20
25.5
 30
0.0
 40
2.0
 50
180.0
 51
270.0
  0
LINE
  5
F7C
  8
NOCUT
 10
49.99999999999998
 20
0.0
 30
0.0
 11
50.0
 21
22.5
 31
0.0
  0
LINE
  5
F7F
  8
NOCUT
 10
35.05
 20
34.42499999999999
 30
0.0
 11
35.04999999999999
 21
25.5
 31
0.0
  0
LINE
  5
F8B
  8
SK3
 10
-32.2270783235
 20
4.25
 30
0.0
 11
0.0
 21
4.25
 31
0.0
  0
LINE
  5
F8C
  8
SK3
 10
-32.2270783235
 20
-4.25
 30
0.0
 11
-0.0000000000000071
 21
-4.25
 31
0.0
  0
ARC
  5
F8D
  8
SK1
 10
82.0
 20
7.0
 30
0.0
 40
1.0
 50
0.0
 51
90.0
  0
ARC
  5
F8F
  8
SK1
 10
82.0
 20
-7.0
 30
0.0
 40
1.0
 50
270.0
 51
0.0
  0
LINE
  5
F90
  8
SK1
 10
82.0
 20
8.0
 30
0.0
 11
73.0
 21
8.0
 31
0.0
  0
LINE
  5
F91
  8
SK1
 10
73.0
 20
-8.0
 30
0.0
 11
82.0
 21
-8.0
 31
0.0
  0
ARC
  5
F92
  8
SK1
 10
72.6
 20
-5.400000000000034
 30
0.0
 40
0.4000000000000057
 50
0.0
 51
90.0
  0
ARC
  5
F93
  8
SK1
 10
72.6
 20
5.399999999999977
 30
0.0
 40
0.4000000000000057
 50
270.0
 51
0.0
  0
LINE
  5
F94
  8
SK1
 10
72.6
 20
5.0
 30
0.0
 11
68.0
 21
5.0
 31
0.0
  0
LINE
  5
F95
  8
SK1
 10
68.0
 20
-5.0
 30
0.0
 11
72.6
 21
-5.0
 31
0.0
  0
ARC
  5
FAD
  8
SK1
 10
50.19999999999999
 20
-11.20000000000002
 30
0.0
 40
0.4000000000000088
 50
75.0000000000014
 51
120.0000000000022
  0
ARC
  5
FAE
  8
SK1
 10
50.19999999999999
 20
11.19999999999999
 30
0.0
 40
0.4000000000000088
 50
239.9999999999978
 51
284.9999999999985
  0
LINE
  5
FAF
  8
SK1
 10
50.99907116060001
 20
11.0
 30
0.0
 11
50.303527618
 21
10.81362966949999
 31
0.0
  0
LINE
  5
FB0
  8
SK1
 10
50.303527618
 20
-10.81362966950002
 30
0.0
 11
50.99907116060001
 21
-11.0
 31
0.0
  0
LINE
  5
FB1
  8
SK1
 10
50.99907116060001
 20
-11.0
 30
0.0
 11
66.5
 21
-11.0
 31
0.0
  0
LINE
  5
FB2
  8
SK1
 10
66.5
 20
11.0
 30
0.0
 11
50.99907116060001
 21
11.0
 31
0.0
  0
ARC
  5
FB3
  8
SK1
 10
66.5
 20
-9.5
 30
0.0
 40
1.499999999999986
 50
270.0
 51
0.0
  0
ARC
  5
FB4
  8
SK1
 10
66.5
 20
9.5
 30
0.0
 40
1.5
 50
0.0
 51
90.0
  0
LINE
  5
FB5
  8
SK1
 10
83.0
 20
0.0
 30
0.0
 11
83.0
 21
-7.0
 31
0.0
  0
LINE
  5
FB6
  8
SK1
 10
83.0
 20
7.0
 30
0.0
 11
83.0
 21
0.0
 31
0.0
  0
LINE
  5
FB7
  8
SK1
 10
73.0
 20
0.0
 30
0.0
 11
73.0
 21
-8.0
 31
0.0
  0
LINE
  5
FB8
  8
SK1
 10
73.0
 20
8.0
 30
0.0
 11
73.0
 21
0.0
 31
0.0
  0
LINE
  5
FB9
  8
SK1
 10
55.0
 20
-22.25
 30
0.0
 11
50.0
 21
-22.25
 31
0.0
  0
LINE
  5
FBB
  8
SK1
 10
55.0
 20
-12.25
 30
0.0
 11
50.0
 21
-12.25
 31
0.0
  0
LINE
  5
FBC
  8
SK1
 10
55.0
 20
-12.25
 30
0.0
 11
55.0
 21
-22.25
 31
0.0
  0
LINE
  5
FBD
  8
SK1
 10
55.0
 20
12.25
 30
0.0
 11
50.0
 21
12.25
 31
0.0
  0
LINE
  5
FBF
  8
SK1
 10
55.0
 20
22.25
 30
0.0
 11
50.0
 21
22.25
 31
0.0
  0
LINE
  5
FC0
  8
SK1
 10
55.0
 20
22.25
 30
0.0
 11
55.0
 21
12.25
 31
0.0
  0
LINE
  5
FF1
  8
SK1
 10
50.99907116060001
 20
0.0
 30
0.0
 11
50.99907116060001
 21
11.0
 31
0.0
  0
LINE
  5
FF2
  8
SK1
 10
50.99907116060001
 20
-11.0
 30
0.0
 11
50.99907116060001
 21
0.0
 31
0.0
  0
LINE
  5
FF3
  8
SK1
 10
68.0
 20
0.0
 30
0.0
 11
68.0
 21
9.5
 31
0.0
  0
LINE
  5
FF4
  8
SK1
 10
68.0
 20
-9.5
 30
0.0
 11
68.0
 21
0.0
 31
0.0
  0
LINE
  5
FF5
  8
SK3
 10
53.828
 20
0.0
 30
0.0
 11
53.828
 21
-5.0
 31
0.0
  0
LINE
  5
FF8
  8
SK3
 10
53.828
 20
5.0
 30
0.0
 11
53.828
 21
0.0
 31
0.0
  0
LINE
  5
FF9
  8
SK3
 10
53.0
 20
0.0
 30
0.0
 11
53.0
 21
-4.172000000000025
 31
0.0
  0
LINE
  5
FFA
  8
SK3
 10
53.0
 20
4.171999999999969
 30
0.0
 11
53.0
 21
0.0
 31
0.0
  0
LINE
  5
FFB
  8
SK3
 10
78.0
 20
2.316617955099986
 30
0.0
 11
78.0
 21
3.474926932699987
 31
0.0
  0
LINE
  5
FFC
  8
SK3
 10
78.0
 20
2.316617955099986
 30
0.0
 11
83.0
 21
2.316617955099986
 31
0.0
  0
LINE
  5
FFD
  8
SK3
 10
78.0
 20
0.0
 30
0.0
 11
78.0
 21
-2.316617955100014
 31
0.0
  0
LINE
  5
FFE
  8
SK3
 10
78.0
 20
2.316617955099986
 30
0.0
 11
78.0
 21
0.0
 31
0.0
  0
LINE
  5
FFF
  8
SK3
 10
78.0
 20
-2.316617955100014
 30
0.0
 11
83.0
 21
-2.316617955100014
 31
0.0
  0
LINE
  5
1000
  8
SK3
 10
78.0
 20
-3.474926932700015
 30
0.0
 11
78.0
 21
-2.316617955100014
 31
0.0
  0
LINE
  5
1001
  8
SK3
 10
78.0
 20
3.474926932699987
 30
0.0
 11
78.0
 21
4.633235910199971
 31
0.0
  0
LINE
  5
1002
  8
SK3
 10
78.0
 20
-4.633235910300016
 30
0.0
 11
78.0
 21
-3.474926932700015
 31
0.0
  0
LINE
  5
1003
  8
SK3
 10
78.0
 20
4.633235910199971
 30
0.0
 11
83.0
 21
4.633235910199971
 31
0.0
  0
LINE
  5
1004
  8
SK3
 10
78.0
 20
-4.633235910300016
 30
0.0
 11
83.0
 21
-4.633235910300016
 31
0.0
  0
LINE
  5
104A
  8
SK3
 10
67.1339745962
 20
-5.5
 30
0.0
 11
67.1339745962
 21
5.5
 31
0.0
  0
LINE
  5
104B
  8
SK3
 10
65.0
 20
5.5
 30
0.0
 11
65.0
 21
-5.5
 31
0.0
  0
LINE
  5
1061
  8
SK3
 10
68.0
 20
5.0
 30
0.0
 11
53.828
 21
5.0
 31
0.0
  0
LINE
  5
1062
  8
SK3
 10
53.828
 20
-5.0
 30
0.0
 11
68.0
 21
-5.0
 31
0.0
  0
LINE
  5
1063
  8
SK3
 10
53.828
 20
5.0
 30
0.0
 11
53.0
 21
4.171999999999969
 31
0.0
  0
LINE
  5
1064
  8
SK3
 10
53.0
 20
-4.172000000000025
 30
0.0
 11
53.828
 21
-5.0
 31
0.0
  0
LINE
  5
1065
  8
SK3
 10
78.0
 20
4.012499999999989
 30
0.0
 11
75.68338204489999
 21
0.0
 31
0.0
  0
LINE
  5
1066
  8
SK3
 10
75.68338204489999
 20
0.0
 30
0.0
 11
78.0
 21
-4.012500000000017
 31
0.0
  0
LINE
  5
1092
  8
SK3
 10
68.0
 20
1.25
 30
0.0
 11
50.0
 21
1.25
 31
0.0
  0
LINE
  5
1093
  8
SK3
 10
50.0
 20
-1.25
 30
0.0
 11
68.0
 21
-1.25
 31
0.0
  0
LINE
  5
109C
  8
SK3
 10
68.0
 20
6.0
 30
0.0
 11
67.1339745962
 21
5.5
 31
0.0
  0
LINE
  5
109D
  8
SK3
 10
67.1339745962
 20
-5.5
 30
0.0
 11
68.0
 21
-6.0
 31
0.0
  0
LINE
  5
109E
  8
SK3
 10
67.1339745962
 20
5.5
 30
0.0
 11
65.0
 21
5.5
 31
0.0
  0
LINE
  5
109F
  8
SK3
 10
65.0
 20
-5.5
 30
0.0
 11
67.1339745962
 21
-5.5
 31
0.0
  0
LINE
  5
10A8
  8
SK3
 10
65.0
 20
5.0
 30
0.0
 11
50.0
 21
5.0
 31
0.0
  0
LINE
  5
10A9
  8
SK3
 10
50.0
 20
-5.0
 30
0.0
 11
65.0
 21
-5.0
 31
0.0
  0
LINE
  5
10B4
  8
SK3
 10
68.0
 20
8.178203230299971
 30
0.0
 11
50.0
 21
8.178203230299971
 31
0.0
  0
LINE
  5
10B5
  8
SK3
 10
50.0
 20
5.678203230299971
 30
0.0
 11
68.0
 21
5.678203230299971
 31
0.0
  0
LINE
  5
10B8
  8
SK3
 10
68.0
 20
-5.678203230300028
 30
0.0
 11
50.0
 21
-5.678203230300028
 31
0.0
  0
LINE
  5
10B9
  8
SK3
 10
50.0
 20
-8.178203230300028
 30
0.0
 11
68.0
 21
-8.178203230300028
 31
0.0
  0
DIMENSION
  5
10D0
  8
SK2
  2
*D5
 10
50.0
 20
58.25371686322627
 30
0.0
 11
25.0
 21
60.12871686322627
 31
0.0
 70
    32
  3
ISO-25
 13
0.0
 23
34.92499999999998
 33
0.0
 14
50.0
 24
22.5
 34
0.0
1001
ACAD
1000
DSTYLE
1002
{
1070
   287
1070
     5
1070
   271
1070
     3
1070
   272
1070
     3
1070
   279
1070
     2
1002
}
  0
DIMENSION
  5
10DF
  8
SK2
  2
*D6
 10
112.1473753709796
 20
-23.5
 30
0.0
 11
110.2723753709796
 21
-0.0000000000000036
 31
0.0
 70
    32
  3
ISO-25
 13
48.99999999999998
 23
23.5
 33
0.0
 14
49.0
 24
-23.5
 34
0.0
 50
90.0
1001
ACAD
1000
DSTYLE
1002
{
1070
   287
1070
     5
1070
   271
1070
     3
1070
   272
1070
     3
1070
   279
1070
     2
1002
}
  0
DIMENSION
  5
10EE
  8
SK2
  2
*D7
 10
98.10313181591752
 20
-11.0
 30
0.0
 11
96.22813181591752
 21
-0.0000000000000018
 31
0.0
 70
    32
  3
ISO-25
 13
66.5
 23
11.0
 33
0.0
 14
66.5
 24
-11.0
 34
0.0
 50
90.0
1001
ACAD
1000
DSTYLE
1002
{
1070
   287
1070
     5
1070
   271
1070
     3
1070
   272
1070
     3
1070
   279
1070
     2
1002
}
  0
LINE
  5
1352
  8
SK4
 10
50.0
 20
0.0
 30
0.0
 11
83.0
 21
0.0
 31
0.0
  0
ENDSEC
  0
EOF
