  0
SECTION
  2
HEADER
  9
$ACADVER
  1
AC1009
  9
$DWGCODEPAGE
  3
ansi_1251
  9
$INSBASE
 10
0.0
 20
0.0
 30
0.0
  9
$EXTMIN
 10
-68.25000000000001
 20
-30.5409271246
 30
0.0
  9
$EXTMAX
 10
88.90000000000003
 20
30.50275418977125
 30
0.0
  9
$LIMMIN
 10
0.0
 20
0.0
  9
$LIMMAX
 10
420.0
 20
297.0
  9
$ORTHOMODE
 70
     0
  9
$REGENMODE
 70
     1
  9
$FILLMODE
 70
     1
  9
$QTEXTMODE
 70
     0
  9
$MIRRTEXT
 70
     0
  9
$DRAGMODE
 70
     2
  9
$LTSCALE
 40
1.0
  9
$OSMODE
 70
   279
  9
$ATTMODE
 70
     1
  9
$TEXTSIZE
 40
2.5
  9
$TRACEWID
 40
1.0
  9
$TEXTSTYLE
  7
STANDARD
  9
$CLAYER
  8
0
  9
$CELTYPE
  6
BYLAYER
  9
$CECOLOR
 62
   256
  9
$DIMSCALE
 40
1.0
  9
$DIMASZ
 40
2.5
  9
$DIMEXO
 40
0.625
  9
$DIMDLI
 40
3.75
  9
$DIMRND
 40
0.0
  9
$DIMDLE
 40
0.0
  9
$DIMEXE
 40
1.25
  9
$DIMTP
 40
0.0
  9
$DIMTM
 40
0.0
  9
$DIMTXT
 40
2.5
  9
$DIMCEN
 40
2.5
  9
$DIMTSZ
 40
0.0
  9
$DIMTOL
 70
     0
  9
$DIMLIM
 70
     0
  9
$DIMTIH
 70
     0
  9
$DIMTOH
 70
     0
  9
$DIMSE1
 70
     0
  9
$DIMSE2
 70
     0
  9
$DIMTAD
 70
     1
  9
$DIMZIN
 70
     8
  9
$DIMBLK
  1

  9
$DIMASO
 70
     1
  9
$DIMSHO
 70
     1
  9
$DIMPOST
  1

  9
$DIMAPOST
  1

  9
$DIMALT
 70
     0
  9
$DIMALTD
 70
     3
  9
$DIMALTF
 40
0.03937007874016
  9
$DIMLFAC
 40
1.0
  9
$DIMTOFL
 70
     1
  9
$DIMTVP
 40
0.0
  9
$DIMTIX
 70
     0
  9
$DIMSOXD
 70
     0
  9
$DIMSAH
 70
     0
  9
$DIMBLK1
  1

  9
$DIMBLK2
  1

  9
$DIMSTYLE
  2
ISO-25
  9
$DIMCLRD
 70
     0
  9
$DIMCLRE
 70
     0
  9
$DIMCLRT
 70
     0
  9
$DIMTFAC
 40
1.0
  9
$DIMGAP
 40
0.625
  9
$LUNITS
 70
     2
  9
$LUPREC
 70
     3
  9
$SKETCHINC
 40
1.0
  9
$FILLETRAD
 40
10.0
  9
$AUNITS
 70
     0
  9
$AUPREC
 70
     0
  9
$MENU
  1
.
  9
$ELEVATION
 40
0.0
  9
$PELEVATION
 40
0.0
  9
$THICKNESS
 40
0.0
  9
$LIMCHECK
 70
     0
  9
$CHAMFERA
 40
10.0
  9
$CHAMFERB
 40
10.0
  9
$SKPOLY
 70
     0
  9
$TDCREATE
 40
2455022.429026158
  9
$TDUPDATE
 40
2458659.538982558
  9
$TDINDWG
 40
0.1506771181
  9
$TDUSRTIMER
 40
2458691.65858478
  9
$USRTIMER
 70
     1
  9
$ANGBASE
 50
0.0
  9
$ANGDIR
 70
     0
  9
$PDMODE
 70
     0
  9
$PDSIZE
 40
0.0
  9
$PLINEWID
 40
0.0
  9
$COORDS
 70
     1
  9
$SPLFRAME
 70
     0
  9
$SPLINETYPE
 70
     6
  9
$SPLINESEGS
 70
     8
  9
$ATTDIA
 70
     0
  9
$ATTREQ
 70
     1
  9
$HANDLING
 70
     1
  9
$HANDSEED
  5
CB0
  9
$SURFTAB1
 70
     6
  9
$SURFTAB2
 70
     6
  9
$SURFTYPE
 70
     6
  9
$SURFU
 70
     6
  9
$SURFV
 70
     6
  9
$UCSNAME
  2

  9
$UCSORG
 10
0.0
 20
0.0
 30
0.0
  9
$UCSXDIR
 10
1.0
 20
0.0
 30
0.0
  9
$UCSYDIR
 10
0.0
 20
1.0
 30
0.0
  9
$PUCSNAME
  2

  9
$PUCSORG
 10
0.0
 20
0.0
 30
0.0
  9
$PUCSXDIR
 10
1.0
 20
0.0
 30
0.0
  9
$PUCSYDIR
 10
0.0
 20
1.0
 30
0.0
  9
$USERI1
 70
     0
  9
$USERI2
 70
     0
  9
$USERI3
 70
     0
  9
$USERI4
 70
     0
  9
$USERI5
 70
     0
  9
$USERR1
 40
0.0
  9
$USERR2
 40
0.0
  9
$USERR3
 40
0.0
  9
$USERR4
 40
0.0
  9
$USERR5
 40
0.0
  9
$WORLDVIEW
 70
     1
  9
$SHADEDGE
 70
     3
  9
$SHADEDIF
 70
    70
  9
$TILEMODE
 70
     1
  9
$MAXACTVP
 70
    64
  9
$PLIMCHECK
 70
     0
  9
$PEXTMIN
 10
1.000000000000000E+20
 20
1.000000000000000E+20
 30
1.000000000000000E+20
  9
$PEXTMAX
 10
-1.000000000000000E+20
 20
-1.000000000000000E+20
 30
-1.000000000000000E+20
  9
$PLIMMIN
 10
0.0
 20
0.0
  9
$PLIMMAX
 10
420.0
 20
297.0
  9
$UNITMODE
 70
     0
  9
$VISRETAIN
 70
     1
  9
$PLINEGEN
 70
     0
  9
$PSLTSCALE
 70
     1
  0
ENDSEC
  0
SECTION
  2
TABLES
  0
TABLE
  2
VPORT
 70
     1
  0
VPORT
  2
*ACTIVE
 70
     0
 10
0.0
 20
0.0
 11
1.0
 21
1.0
 12
29.77188454334171
 22
-4.409747193426497
 13
0.0
 23
0.0
 14
10.0
 24
10.0
 15
10.0
 25
10.0
 16
0.0
 26
0.0
 36
1.0
 17
0.0
 27
0.0
 37
0.0
 40
201.06728066132
 41
1.332880434782609
 42
50.0
 43
0.0
 44
0.0
 50
0.0
 51
0.0
 71
    16
 72
  1000
 73
     1
 74
     3
 75
     0
 76
     0
 77
     0
 78
     0
  0
ENDTAB
  0
TABLE
  2
LTYPE
 70
     5
  0
LTYPE
  2
CONTINUOUS
 70
     0
  3
Solid line
 72
    65
 73
     0
 40
0.0
  0
LTYPE
  2
CENTER
 70
     0
  3
 Center _____  _  _____  _  _____  _  _____  _ 
 72
    65
 73
     4
 40
50.8
 49
31.75
 49
-6.35
 49
6.35
 49
-6.35
  0
LTYPE
  2
DASHED
 70
     0
  3
Dashed __  __  __  __  __  __  __  __  __  __  
 72
    65
 73
     2
 40
19.05
 49
12.7
 49
-6.35
  0
LTYPE
  2
HIDDEN
 70
     0
  3
Hidden __ __ __ __ __ __ __ __ __ __ __ __ __ __
 72
    65
 73
     2
 40
1.905
 49
1.27
 49
-0.635
  0
LTYPE
  2
CENTERX2
 70
     0
  3
Center (2x) ________  __  ________  __  _____
 72
    65
 73
     4
 40
20.32
 49
12.7
 49
-2.54
 49
2.54
 49
-2.54
  0
ENDTAB
  0
TABLE
  2
LAYER
 70
    26
  0
LAYER
  2
0
 70
     0
 62
     7
  6
CONTINUOUS
  0
LAYER
  2
1
 70
     0
 62
     4
  6
CONTINUOUS
  0
LAYER
  2
2
 70
     0
 62
     7
  6
CONTINUOUS
  0
LAYER
  2
3
 70
     0
 62
     1
  6
DASHED
  0
LAYER
  2
4
 70
     0
 62
     2
  6
CENTER
  0
LAYER
  2
6
 70
     0
 62
     5
  6
CONTINUOUS
  0
LAYER
  2
7
 70
     0
 62
     5
  6
CONTINUOUS
  0
LAYER
  2
11
 70
     0
 62
     4
  6
CONTINUOUS
  0
LAYER
  2
SK1
 70
     0
 62
     4
  6
CONTINUOUS
  0
LAYER
  2
SK2
 70
     0
 62
     7
  6
CONTINUOUS
  0
LAYER
  2
SK3
 70
     0
 62
     1
  6
DASHED
  0
LAYER
  2
SK4
 70
     0
 62
     2
  6
CENTER
  0
LAYER
  2
SK6
 70
     0
 62
     5
  6
CONTINUOUS
  0
LAYER
  2
SK7
 70
     0
 62
     5
  6
CONTINUOUS
  0
LAYER
  2
SK11
 70
     0
 62
     4
  6
CONTINUOUS
  0
LAYER
  2
CUT
 70
     0
 62
     1
  6
CONTINUOUS
  0
LAYER
  2
NOCUT
 70
     0
 62
    -7
  6
CONTINUOUS
  0
LAYER
  2
SKVIEW1
 70
     0
 62
     4
  6
CONTINUOUS
  0
LAYER
  2
SKVIEW2
 70
     0
 62
     7
  6
CONTINUOUS
  0
LAYER
  2
SKVIEW3
 70
     0
 62
     1
  6
DASHED
  0
LAYER
  2
SKVIEW4
 70
     0
 62
     2
  6
CENTER
  0
LAYER
  2
SKVIEW6
 70
     0
 62
     5
  6
CONTINUOUS
  0
LAYER
  2
SKVIEW7
 70
     0
 62
     5
  6
CONTINUOUS
  0
LAYER
  2
SKVIEW11
 70
     0
 62
     4
  6
CONTINUOUS
  0
LAYER
  2
INFTOTAL
 70
     0
 62
     9
  6
CONTINUOUS
  0
LAYER
  2
DEFPOINTS
 70
     0
 62
     7
  6
CONTINUOUS
  0
ENDTAB
  0
TABLE
  2
STYLE
 70
     1
  0
STYLE
  2
STANDARD
 70
     0
 40
0.0
 41
1.0
 50
0.0
 71
     0
 42
2.5
  3
txt
  4

  0
ENDTAB
  0
TABLE
  2
VIEW
 70
     0
  0
ENDTAB
  0
TABLE
  2
UCS
 70
     0
  0
ENDTAB
  0
TABLE
  2
APPID
 70
     2
  0
APPID
  2
ACAD
 70
     0
  0
APPID
  2
ACAECLAYERSTANDARD
 70
     0
  0
ENDTAB
  0
TABLE
  2
DIMSTYLE
 70
     1
  0
DIMSTYLE
  2
ISO-25
 70
     0
  3

  4

  5

  6

  7

 40
1.0
 41
2.5
 42
0.625
 43
3.75
 44
1.25
 45
0.0
 46
0.0
 47
0.0
 48
0.0
140
2.5
141
2.5
142
0.0
143
0.03937007874016
144
1.0
145
0.0
146
1.0
147
0.625
 71
     0
 72
     0
 73
     0
 74
     0
 75
     0
 76
     0
 77
     1
 78
     8
170
     0
171
     3
172
     1
173
     0
174
     0
175
     0
176
     0
177
     0
178
     0
  0
ENDTAB
  0
ENDSEC
  0
SECTION
  2
BLOCKS
  0
BLOCK
  8
0
  2
$MODEL_SPACE
 70
     0
 10
0.0
 20
0.0
 30
0.0
  3
$MODEL_SPACE
  1

  0
ENDBLK
  5
21
  8
0
  0
BLOCK
 67
     1
  8
0
  2
$PAPER_SPACE
 70
     0
 10
0.0
 20
0.0
 30
0.0
  3
$PAPER_SPACE
  1

  0
ENDBLK
  5
1D
 67
     1
  8
0
  0
BLOCK
  8
0
  2
*U0
 70
     1
 10
0.0
 20
0.0
 30
0.0
  3
*U0
  1

  0
TEXT
  5
77E
  8
SK6
 10
-50.0
 20
78.25
 30
0.0
 40
3.5
  1
BIG DAISHOWA
 41
0.85
  0
TEXT
  5
781
  8
SK6
 10
-50.0
 20
73.0
 30
0.0
 40
3.5
  1
BCV50-EM.625-4.5
 41
0.85
  0
ENDBLK
  5
782
  8
0
  0
BLOCK
  8
0
  2
_FILLED
 70
     0
 10
0.0
 20
0.0
 30
0.0
  3
_FILLED
  1

  0
SOLID
  5
789
  8
0
  6
BYBLOCK
 62
     0
 10
0.0
 20
0.0
 30
0.0
 11
-1.0
 21
0.2142857143
 31
0.0
 12
-1.0
 22
-0.2142857143
 32
0.0
 13
-1.0
 23
-0.2142857143
 33
0.0
  0
ENDBLK
  5
78A
  8
0
  6
BYBLOCK
 62
     0
  0
BLOCK
  8
0
  2
*U2
 70
     1
 10
0.0
 20
0.0
 30
0.0
  3
*U2
  1

  0
TEXT
  5
790
  8
SK6
 10
-85.96178542556666
 20
-67.06748653279999
 30
0.0
 40
3.5
  1
BCV50
 41
0.85
  0
ENDBLK
  5
791
  8
0
  0
BLOCK
  8
0
  2
*D3
 70
     1
 10
0.0
 20
0.0
 30
0.0
  3
*D3
  1

  0
LINE
  5
7EA
  8
SK2
 62
     0
 10
34.675
 20
34.92499999999998
 30
0.0
 11
161.1437690866834
 21
34.92499999999998
 31
0.0
  0
LINE
  5
7EB
  8
SK2
 62
     0
 10
34.675
 20
-34.92500000000001
 30
0.0
 11
161.1437690866834
 21
-34.92500000000002
 31
0.0
  0
LINE
  5
7EC
  8
SK2
 62
     0
 10
159.8937690866834
 20
32.42499999999998
 30
0.0
 11
159.8937690866834
 21
-32.42500000000002
 31
0.0
  0
SOLID
  5
7ED
  8
SK2
 62
     0
 10
160.31043575335
 20
32.42499999999998
 30
0.0
 11
159.4771024200167
 21
32.42499999999998
 31
0.0
 12
159.8937690866834
 22
34.92499999999998
 32
0.0
 13
159.8937690866834
 23
34.92499999999998
 33
0.0
  0
SOLID
  5
7EE
  8
SK2
 62
     0
 10
159.4771024200167
 20
-32.42500000000002
 30
0.0
 11
160.31043575335
 21
-32.42500000000002
 31
0.0
 12
159.8937690866834
 22
-34.92500000000002
 32
0.0
 13
159.8937690866834
 23
-34.92500000000002
 33
0.0
  0
TEXT
  5
7EF
  8
SK2
  6
CONTINUOUS
 62
     0
 10
159.2687690866834
 20
-5.000000000000028
 30
0.0
 40
2.5
  1
69.85
 50
90.0
  0
POINT
  5
7F0
  8
DEFPOINTS
 62
     0
 10
34.05
 20
34.92499999999998
 30
0.0
  0
POINT
  5
7F1
  8
DEFPOINTS
 62
     0
 10
34.05
 20
-34.92500000000001
 30
0.0
  0
POINT
  5
7F2
  8
DEFPOINTS
 62
     0
 10
159.8937690866834
 20
-34.92500000000002
 30
0.0
  0
ENDBLK
  5
7F4
  8
0
  0
BLOCK
  8
0
  2
*D4
 70
     1
 10
0.0
 20
0.0
 30
0.0
  3
*D4
  1

  0
LINE
  5
7F9
  8
SK2
 62
     0
 10
0.0
 20
-35.55000000000001
 30
0.0
 11
0.0
 21
-74.40665109041375
 31
0.0
  0
LINE
  5
7FA
  8
SK2
 62
     0
 10
35.05
 20
-34.55000000000001
 30
0.0
 11
35.05
 21
-74.40665109041375
 31
0.0
  0
LINE
  5
7FB
  8
SK2
 62
     0
 10
2.5
 20
-73.15665109041375
 30
0.0
 11
32.55
 21
-73.15665109041375
 31
0.0
  0
SOLID
  5
7FC
  8
SK2
 62
     0
 10
2.5
 20
-72.73998442374707
 30
0.0
 11
2.5
 21
-73.57331775708042
 31
0.0
 12
0.0
 22
-73.15665109041375
 32
0.0
 13
0.0
 23
-73.15665109041375
 33
0.0
  0
SOLID
  5
7FD
  8
SK2
 62
     0
 10
32.55
 20
-73.57331775708042
 30
0.0
 11
32.55
 21
-72.73998442374707
 31
0.0
 12
35.05
 22
-73.15665109041375
 32
0.0
 13
35.05
 23
-73.15665109041375
 33
0.0
  0
TEXT
  5
7FE
  8
SK2
  6
CONTINUOUS
 62
     0
 10
12.73333333333333
 20
-72.53165109041375
 30
0.0
 40
2.5
  1
35.05
  0
POINT
  5
7FF
  8
DEFPOINTS
 62
     0
 10
0.0
 20
-34.92500000000001
 30
0.0
  0
POINT
  5
800
  8
DEFPOINTS
 62
     0
 10
35.05
 20
-33.92500000000001
 30
0.0
  0
POINT
  5
801
  8
DEFPOINTS
 62
     0
 10
35.05
 20
-73.15665109041375
 30
0.0
  0
ENDBLK
  5
803
  8
0
  0
BLOCK
  8
0
  2
*D5
 70
     1
 10
0.0
 20
0.0
 30
0.0
  3
*D5
  1

  0
LINE
  5
808
  8
SK2
 62
     0
 10
0.0
 20
35.54999999999998
 30
0.0
 11
0.0
 21
63.71215670356074
 31
0.0
  0
LINE
  5
809
  8
SK2
 62
     0
 10
114.3
 20
13.73407277814999
 30
0.0
 11
114.3
 21
63.71215670356074
 31
0.0
  0
LINE
  5
80A
  8
SK2
 62
     0
 10
2.5
 20
62.46215670356074
 30
0.0
 11
111.8
 21
62.46215670356074
 31
0.0
  0
SOLID
  5
80B
  8
SK2
 62
     0
 10
2.5
 20
62.8788233702274
 30
0.0
 11
2.5
 21
62.04549003689407
 31
0.0
 12
0.0
 22
62.46215670356074
 32
0.0
 13
0.0
 23
62.46215670356074
 33
0.0
  0
SOLID
  5
80C
  8
SK2
 62
     0
 10
111.8
 20
62.04549003689407
 30
0.0
 11
111.8
 21
62.8788233702274
 31
0.0
 12
114.3
 22
62.46215670356074
 32
0.0
 13
114.3
 23
62.46215670356074
 33
0.0
  0
TEXT
  5
80D
  8
SK2
  6
CONTINUOUS
 62
     0
 10
52.98333333333333
 20
63.08715670356074
 30
0.0
 40
2.5
  1
114.3
  0
POINT
  5
80E
  8
DEFPOINTS
 62
     0
 10
0.0
 20
34.92499999999998
 30
0.0
  0
POINT
  5
80F
  8
DEFPOINTS
 62
     0
 10
114.3
 20
13.10907277814999
 30
0.0
  0
POINT
  5
810
  8
DEFPOINTS
 62
     0
 10
114.3
 20
62.46215670356074
 30
0.0
  0
ENDBLK
  5
812
  8
0
  0
BLOCK
  8
0
  2
*D8
 70
     1
 10
0.0
 20
0.0
 30
0.0
  3
*D8
  1

  0
LINE
  5
C65
  8
SK2
 62
     0
 10
113.925
 20
7.93750009705002
 30
0.0
 11
129.6703610546056
 21
7.937500097050019
 31
0.0
  0
LINE
  5
C66
  8
SK2
 62
     0
 10
113.925
 20
-7.93749990294998
 30
0.0
 11
129.6703610546056
 21
-7.937499902949981
 31
0.0
  0
LINE
  5
C67
  8
SK2
 62
     0
 10
128.4203610546056
 20
5.437500097050019
 30
0.0
 11
128.4203610546056
 21
-5.437499902949981
 31
0.0
  0
SOLID
  5
C68
  8
SK2
 62
     0
 10
128.8370277212722
 20
5.437500097050019
 30
0.0
 11
128.0036943879389
 21
5.437500097050019
 31
0.0
 12
128.4203610546056
 22
7.937500097050019
 32
0.0
 13
128.4203610546056
 23
7.937500097050019
 33
0.0
  0
SOLID
  5
C69
  8
SK2
 62
     0
 10
128.0036943879389
 20
-5.437499902949981
 30
0.0
 11
128.8370277212722
 21
-5.437499902949981
 31
0.0
 12
128.4203610546056
 22
-7.937499902949981
 32
0.0
 13
128.4203610546056
 23
-7.937499902949981
 33
0.0
  0
TEXT
  5
C6A
  8
SK2
  6
CONTINUOUS
 62
     0
 10
127.7953610546056
 20
-5.833333236283309
 30
0.0
 40
2.5
  1
15.875
 50
90.0
  0
POINT
  5
C6B
  8
DEFPOINTS
 62
     0
 10
113.3
 20
7.93750009705002
 30
0.0
  0
POINT
  5
C6C
  8
DEFPOINTS
 62
     0
 10
113.3
 20
-7.93749990294998
 30
0.0
  0
POINT
  5
C6D
  8
DEFPOINTS
 62
     0
 10
128.4203610546056
 20
-7.937499902949981
 30
0.0
  0
ENDBLK
  5
C6F
  8
0
  0
BLOCK
  8
0
  2
*D9
 70
     1
 10
0.0
 20
0.0
 30
0.0
  3
*D9
  1

  0
LINE
  5
C74
  8
SK2
 62
     0
 10
107.3965728753
 20
20.63750009705001
 30
0.0
 11
144.0582047264126
 21
20.63750009705
 31
0.0
  0
LINE
  5
C75
  8
SK2
 62
     0
 10
107.3965728753
 20
-20.63749990294997
 30
0.0
 11
144.0582047264126
 21
-20.63749990294997
 31
0.0
  0
LINE
  5
C76
  8
SK2
 62
     0
 10
142.8082047264126
 20
18.13750009705
 30
0.0
 11
142.8082047264126
 21
-18.13749990294997
 31
0.0
  0
SOLID
  5
C77
  8
SK2
 62
     0
 10
143.2248713930792
 20
18.13750009705
 30
0.0
 11
142.3915380597459
 21
18.13750009705
 31
0.0
 12
142.8082047264126
 22
20.63750009705
 32
0.0
 13
142.8082047264126
 23
20.63750009705
 33
0.0
  0
SOLID
  5
C78
  8
SK2
 62
     0
 10
142.3915380597459
 20
-18.13749990294997
 30
0.0
 11
143.2248713930792
 21
-18.13749990294997
 31
0.0
 12
142.8082047264126
 22
-20.63749990294997
 32
0.0
 13
142.8082047264126
 23
-20.63749990294997
 33
0.0
  0
TEXT
  5
C79
  8
SK2
  6
CONTINUOUS
 62
     0
 10
142.1832047264126
 20
-5.833333236283323
 30
0.0
 40
2.5
  1
41.275
 50
90.0
  0
POINT
  5
C7A
  8
DEFPOINTS
 62
     0
 10
106.7715728753
 20
20.63750009705001
 30
0.0
  0
POINT
  5
C7B
  8
DEFPOINTS
 62
     0
 10
106.7715728753
 20
-20.63749990294997
 30
0.0
  0
POINT
  5
C7C
  8
DEFPOINTS
 62
     0
 10
142.8082047264126
 20
-20.63749990294997
 30
0.0
  0
ENDBLK
  5
C7E
  8
0
  0
ENDSEC
  0
SECTION
  2
ENTITIES
  0
LINE
  5
66C
  8
1
 10
7.603833230999996
 20
49.21250000000001
 30
0.0
 11
2.299999999999997
 21
49.21250000000001
 31
0.0
  0
LINE
  5
66E
  8
1
 10
2.299999999999997
 20
-49.21250000000001
 30
0.0
 11
7.603833230999996
 21
-49.21250000000001
 31
0.0
  0
LINE
  5
66F
  8
1
 10
18.24999999999999
 20
49.21250000000001
 30
0.0
 11
14.65616676910001
 21
49.21250000000001
 31
0.0
  0
LINE
  5
670
  8
1
 10
14.65616676910001
 20
49.21250000000001
 30
0.0
 11
13.05499999999999
 21
46.43919780459998
 31
0.0
  0
LINE
  5
671
  8
1
 10
7.603833230999996
 20
-49.21250000000001
 30
0.0
 11
9.204999999999998
 21
-46.43919780459998
 31
0.0
  0
LINE
  5
672
  8
1
 10
13.05499999999999
 20
-46.43919780459998
 30
0.0
 11
14.65616676910001
 21
-49.21250000000001
 31
0.0
  0
LINE
  5
673
  8
1
 10
9.204999999999998
 20
46.43919780459998
 30
0.0
 11
7.603833230999996
 21
49.21250000000001
 31
0.0
  0
LINE
  5
674
  8
1
 10
14.65616676910001
 20
-49.21250000000001
 30
0.0
 11
18.24999999999999
 21
-49.21250000000001
 31
0.0
  0
ARC
  5
675
  8
1
 10
18.24999999999999
 20
48.41249999999999
 30
0.0
 40
0.799999999999983
 50
0.0
 51
90.0
  0
ARC
  5
676
  8
1
 10
18.24999999999999
 20
-48.41250000000002
 30
0.0
 40
0.8000000000000043
 50
270.0
 51
0.0
  0
ARC
  5
677
  8
1
 10
2.299999999999997
 20
-48.41250000000002
 30
0.0
 40
0.8000000000000043
 50
180.0
 51
270.0
  0
ARC
  5
678
  8
1
 10
2.299999999999997
 20
48.41249999999999
 30
0.0
 40
0.7999999999999972
 50
90.0
 51
180.0
  0
ARC
  5
679
  8
1
 10
12.55499999999999
 20
-46.14500000000001
 30
0.0
 40
0.5
 50
0.0
 51
90.0
  0
ARC
  5
67A
  8
1
 10
9.704999999999998
 20
46.14499999999998
 30
0.0
 40
0.5
 50
180.0
 51
270.0
  0
ARC
  5
67B
  8
1
 10
9.704999999999998
 20
-46.14500000000001
 30
0.0
 40
0.5
 50
90.0
 51
180.0
  0
ARC
  5
67C
  8
1
 10
12.55499999999999
 20
46.14499999999998
 30
0.0
 40
0.5
 50
270.0
 51
0.0
  0
LINE
  5
67D
  8
1
 10
9.704999999999998
 20
-45.64500000000001
 30
0.0
 11
12.55499999999999
 21
-45.64500000000001
 31
0.0
  0
LINE
  5
67E
  8
1
 10
12.55499999999999
 20
45.64499999999998
 30
0.0
 11
9.704999999999998
 21
45.64499999999998
 31
0.0
  0
ARC
  5
67F
  8
1
 10
20.05
 20
35.92499999999998
 30
0.0
 40
1.0
 50
180.0
 51
270.0
  0
ARC
  5
680
  8
1
 10
20.05
 20
-35.92500000000001
 30
0.0
 40
0.9999999999999858
 50
90.0
 51
180.0
  0
ARC
  5
681
  8
1
 10
0.7999999999999972
 20
35.625
 30
0.0
 40
1.0
 50
270.0
 51
314.4270040007999
  0
ARC
  5
682
  8
1
 10
0.7999999999999972
 20
-35.625
 30
0.0
 40
1.000000000000003
 50
45.5729959992
 51
90.0
  0
LINE
  5
683
  8
1
 10
34.05
 20
34.92499999999998
 30
0.0
 11
20.05
 21
34.92499999999998
 31
0.0
  0
LINE
  5
684
  8
1
 10
20.05
 20
-34.92500000000001
 30
0.0
 11
34.05
 21
-34.92500000000001
 31
0.0
  0
LINE
  5
685
  8
1
 10
0.0
 20
34.92499999999998
 30
0.0
 11
-99.6319088344
 21
20.3952133832
 31
0.0
  0
LINE
  5
686
  8
1
 10
-99.6319088344
 20
-20.3952133832
 30
0.0
 11
0.0
 21
-34.92500000000001
 31
0.0
  0
LINE
  5
687
  8
1
 10
0.0
 20
-34.92500000000001
 30
0.0
 11
0.2999999999999972
 21
-34.625
 31
0.0
  0
LINE
  5
688
  8
1
 10
0.2999999999999972
 20
34.625
 30
0.0
 11
0.0
 21
34.92499999999998
 31
0.0
  0
LINE
  5
689
  8
1
 10
34.05
 20
-34.92500000000001
 30
0.0
 11
35.05
 21
-33.92500000000001
 31
0.0
  0
LINE
  5
68A
  8
1
 10
35.05
 20
33.92499999999998
 30
0.0
 11
34.05
 21
34.92499999999998
 31
0.0
  0
LINE
  5
68B
  8
1
 10
0.7999999999999972
 20
34.625
 30
0.0
 11
0.2999999999999972
 21
34.625
 31
0.0
  0
LINE
  5
68C
  8
1
 10
0.2999999999999972
 20
-34.625
 30
0.0
 11
0.7999999999999972
 21
-34.625
 31
0.0
  0
ARC
  5
68D
  8
1
 10
-99.3
 20
18.1192879614
 30
0.0
 40
2.299999999999995
 50
98.29722000000018
 51
180.0
  0
ARC
  5
68E
  8
1
 10
-99.3
 20
-18.1192879614
 30
0.0
 40
2.299999999999995
 50
180.0
 51
261.7027799999998
  0
LINE
  5
697
  8
1
 10
3.706230764899999
 20
12.84683775379999
 30
0.0
 11
4.006414485099995
 21
13.4761768274
 31
0.0
  0
LINE
  5
698
  8
1
 10
3.699999951300001
 20
12.8500000488
 30
0.0
 11
1.499999943500001
 21
15.0500000565
 31
0.0
  0
POLYLINE
  5
699
  8
1
 66
     1
 10
0.0
 20
0.0
 30
0.0
  0
VERTEX
  5
C84
  8
1
 10
2.297511265400004
 20
15.20894275639999
 30
0.0
  0
VERTEX
  5
C85
  8
1
 10
1.995520973699996
 20
15.4420618306
 30
0.0
  0
VERTEX
  5
C86
  8
1
 10
1.8482409537
 20
15.49470154299999
 30
0.0
  0
VERTEX
  5
C87
  8
1
 10
1.708823987100004
 20
15.48856583049999
 30
0.0
  0
VERTEX
  5
C88
  8
1
 10
1.612066584600001
 20
15.42765416809999
 30
0.0
  0
VERTEX
  5
C89
  8
1
 10
1.548940840399993
 20
15.3299444173
 30
0.0
  0
VERTEX
  5
C8A
  8
1
 10
1.502610431799994
 20
15.12014516319999
 30
0.0
  0
VERTEX
  5
C8B
  8
1
 10
1.500003189300003
 20
15.0469651583
 30
0.0
  0
SEQEND
  5
CAF
  8
1
  0
LINE
  5
69A
  8
1
 10
2.299999765199999
 20
15.2111703857
 30
0.0
 11
4.006414746700003
 21
13.47617649919999
 31
0.0
  0
LINE
  5
69B
  8
1
 10
4.006414485099995
 20
-13.47617682730001
 30
0.0
 11
3.706230764899999
 21
-12.8468377538
 31
0.0
  0
LINE
  5
69C
  8
1
 10
3.700000000000003
 20
-12.85000000000002
 30
0.0
 11
7.132794274000005
 21
-12.85000000000002
 31
0.0
  0
LINE
  5
69D
  8
1
 10
7.498403779399993
 20
-13.4761765483
 30
0.0
 11
7.132794256799997
 21
-12.84999997099999
 31
0.0
  0
LINE
  5
69E
  8
1
 10
7.498403779399993
 20
-13.4761765483
 30
0.0
 11
4.006414746700003
 21
-13.4761765483
 31
0.0
  0
LINE
  5
69F
  8
1
 10
4.006414746700003
 20
-13.47617649919999
 30
0.0
 11
2.299999765199999
 21
-15.2111703857
 31
0.0
  0
POLYLINE
  5
6A0
  8
1
 66
     1
 10
0.0
 20
0.0
 30
0.0
  0
VERTEX
  5
C8C
  8
1
 10
1.500003189300003
 20
-15.04696516550001
 30
0.0
  0
VERTEX
  5
C8D
  8
1
 10
1.530965688099997
 20
-15.2810944311
 30
0.0
  0
VERTEX
  5
C8E
  8
1
 10
1.597499984799995
 20
-15.41125499470002
 30
0.0
  0
VERTEX
  5
C8F
  8
1
 10
1.686848856099999
 20
-15.48025614630001
 30
0.0
  0
VERTEX
  5
C90
  8
1
 10
1.801992732399995
 20
-15.50006633230001
 30
0.0
  0
VERTEX
  5
C91
  8
1
 10
1.925113488199997
 20
-15.4732709884
 30
0.0
  0
VERTEX
  5
C92
  8
1
 10
2.121913466799995
 20
-15.3626423659
 30
0.0
  0
VERTEX
  5
C93
  8
1
 10
2.297511265400004
 20
-15.20894275630002
 30
0.0
  0
SEQEND
  5
CAE
  8
1
  0
LINE
  5
6A1
  8
1
 10
1.499999943500001
 20
-15.05000005650001
 30
0.0
 11
3.699999951300001
 21
-12.8500000487
 31
0.0
  0
LINE
  5
6A2
  8
1
 10
4.006414746700003
 20
13.47617654829999
 30
0.0
 11
7.498403779399993
 21
13.47617654829999
 31
0.0
  0
LINE
  5
6A3
  8
1
 10
7.132794256799997
 20
12.84999997099999
 30
0.0
 11
7.498403779399993
 21
13.47617654829999
 31
0.0
  0
LINE
  5
6A4
  8
1
 10
7.128658300499993
 20
12.84999999999999
 30
0.0
 11
3.700000000000003
 21
12.84999999999999
 31
0.0
  0
LINE
  5
6A5
  8
1
 10
7.603833230999996
 20
49.21250000000001
 30
0.0
 11
7.603833230999996
 21
13.55755905149999
 31
0.0
  0
LINE
  5
6A6
  8
1
 10
7.498403779399993
 20
13.47617654829999
 30
0.0
 11
7.603833105899994
 21
13.55755905149999
 31
0.0
  0
LINE
  5
6A7
  8
1
 10
7.603833105899994
 20
-13.55755905149999
 30
0.0
 11
7.498403779399993
 21
-13.4761765483
 31
0.0
  0
LINE
  5
6A8
  8
1
 10
7.603833230999996
 20
-13.55660246720001
 30
0.0
 11
7.603833230999996
 21
-49.21250000000001
 31
0.0
  0
POLYLINE
  5
6A9
  8
1
 66
     1
 10
0.0
 20
0.0
 30
0.0
  0
VERTEX
  5
C94
  8
1
 10
12.97990062059999
 20
13.3735318815
 30
0.0
  0
VERTEX
  5
C95
  8
1
 10
13.03594411579999
 20
13.38669299279999
 30
0.0
  0
VERTEX
  5
C96
  8
1
 10
13.05499999999999
 20
13.43267253889999
 30
0.0
  0
SEQEND
  5
CAD
  8
1
  0
LINE
  5
6AA
  8
1
 10
13.05499999999999
 20
13.43267253889999
 30
0.0
 11
13.05499999999999
 21
13.5634545769
 31
0.0
  0
LINE
  5
6AB
  8
1
 10
13.05500000399999
 20
13.5634545077
 30
0.0
 11
14.6561667726
 21
13.5575590469
 31
0.0
  0
LINE
  5
6AC
  8
1
 10
14.65616689420001
 20
13.55755905149999
 30
0.0
 11
14.76159622069999
 21
13.47617654829999
 31
0.0
  0
LINE
  5
6AD
  8
1
 10
14.76159622069999
 20
13.47617654829999
 30
0.0
 11
15.12720574320001
 21
12.84999997099999
 31
0.0
  0
LINE
  5
6AE
  8
1
 10
15.12720567059999
 20
12.84999999999999
 30
0.0
 11
13.72817042779999
 21
12.84999999999999
 31
0.0
  0
ARC
  5
6AF
  8
1
 10
18.5428425281
 20
20.24985285309998
 30
0.0
 40
8.844698870733689
 50
231.0245203798
 51
236.787278092
  0
LINE
  5
6B0
  8
1
 10
14.65616676910001
 20
49.21250000000001
 30
0.0
 11
14.65616676910001
 21
13.55660246719999
 31
0.0
  0
LINE
  5
6B1
  8
1
 10
14.76159622069999
 20
13.47617654829999
 30
0.0
 11
18.24999999999999
 21
13.47617654829999
 31
0.0
  0
LINE
  5
6B2
  8
1
 10
13.05499999999999
 20
46.43919780459998
 30
0.0
 11
13.05499999999999
 21
13.5634545999
 31
0.0
  0
POLYLINE
  5
6B3
  8
1
 66
     1
 10
0.0
 20
0.0
 30
0.0
  0
VERTEX
  5
C97
  8
1
 10
9.280099379500001
 20
-13.37353188150001
 30
0.0
  0
VERTEX
  5
C98
  8
1
 10
9.224055884099997
 20
-13.38669299280002
 30
0.0
  0
VERTEX
  5
C99
  8
1
 10
9.204999999999998
 20
-13.43267253890002
 30
0.0
  0
SEQEND
  5
CAC
  8
1
  0
LINE
  5
6B4
  8
1
 10
9.204999999999998
 20
-13.43267253890002
 30
0.0
 11
9.204999999999998
 21
-13.5634545769
 31
0.0
  0
LINE
  5
6B5
  8
1
 10
9.2049999961
 20
-13.56345450769999
 30
0.0
 11
7.603833227500004
 21
-13.5575590469
 31
0.0
  0
LINE
  5
6B6
  8
1
 10
7.132794329500001
 20
-12.85000000000002
 30
0.0
 11
8.531829572299998
 21
-12.85000000000002
 31
0.0
  0
ARC
  5
6B7
  8
1
 10
3.717157441400005
 20
-20.249852895
 30
0.0
 40
8.84469892256469
 50
51.02452039670012
 51
56.78727807509993
  0
LINE
  5
6B8
  8
1
 10
9.204999999999998
 20
-13.56345459990001
 30
0.0
 11
9.204999999999998
 21
-46.43919780459998
 31
0.0
  0
LINE
  5
6B9
  8
1
 10
15.12720574320001
 20
-12.84999997099999
 30
0.0
 11
14.76159622069999
 21
-13.4761765483
 31
0.0
  0
LINE
  5
6BA
  8
1
 10
14.76159622069999
 20
-13.4761765483
 30
0.0
 11
14.65616689420001
 21
-13.55755905149999
 31
0.0
  0
LINE
  5
6BB
  8
1
 10
14.6561667726
 20
-13.5575590469
 30
0.0
 11
13.05500000399999
 21
-13.56345450769999
 31
0.0
  0
LINE
  5
6BC
  8
1
 10
13.05499999999999
 20
-13.5634545769
 30
0.0
 11
13.05499999999999
 21
-13.43267253890002
 31
0.0
  0
POLYLINE
  5
6BD
  8
1
 66
     1
 10
0.0
 20
0.0
 30
0.0
  0
VERTEX
  5
C9A
  8
1
 10
13.05499999999999
 20
-13.43267253890002
 30
0.0
  0
VERTEX
  5
C9B
  8
1
 10
13.03542892279999
 20
-13.38629670260002
 30
0.0
  0
VERTEX
  5
C9C
  8
1
 10
12.9778784432
 20
-13.37365860440002
 30
0.0
  0
SEQEND
  5
CAB
  8
1
  0
LINE
  5
6BE
  8
1
 10
12.97931012780001
 20
-13.3740287272
 30
0.0
 11
13.6980805652
 21
-12.85000000000002
 31
0.0
  0
LINE
  5
6BF
  8
1
 10
13.72817042779999
 20
-12.85000000000002
 30
0.0
 11
15.12720567059999
 21
-12.85000000000002
 31
0.0
  0
LINE
  5
6C0
  8
1
 10
14.65616676910001
 20
-13.55755905140001
 30
0.0
 11
14.65616676910001
 21
-49.21250000000001
 31
0.0
  0
LINE
  5
6C1
  8
1
 10
13.05499999999999
 20
-13.56256297319999
 30
0.0
 11
13.05499999999999
 21
-46.43919780459998
 31
0.0
  0
LINE
  5
6C2
  8
1
 10
7.603833227500004
 20
13.5575590469
 30
0.0
 11
9.2049999961
 21
13.5634545077
 31
0.0
  0
LINE
  5
6C3
  8
1
 10
9.204999999999998
 20
13.5634545769
 30
0.0
 11
9.204999999999998
 21
13.43267253889999
 31
0.0
  0
POLYLINE
  5
6C4
  8
1
 66
     1
 10
0.0
 20
0.0
 30
0.0
  0
VERTEX
  5
C9D
  8
1
 10
9.204999999999998
 20
13.43267253889999
 30
0.0
  0
VERTEX
  5
C9E
  8
1
 10
9.224571077299998
 20
13.38629670259999
 30
0.0
  0
VERTEX
  5
C9F
  8
1
 10
9.282121556899995
 20
13.37365860449999
 30
0.0
  0
SEQEND
  5
CAA
  8
1
  0
LINE
  5
6C5
  8
1
 10
9.2806898722
 20
13.3740287272
 30
0.0
 11
8.561919434900005
 21
12.84999999999999
 31
0.0
  0
LINE
  5
6C6
  8
1
 10
8.531829572299998
 20
12.84999999999999
 30
0.0
 11
7.132794329500001
 21
12.84999999999999
 31
0.0
  0
LINE
  5
6C7
  8
1
 10
9.204999999999998
 20
46.43919780459998
 30
0.0
 11
9.204999999999998
 21
13.56256297319999
 31
0.0
  0
LINE
  5
6C8
  8
1
 10
18.24999999999999
 20
-13.4761765483
 30
0.0
 11
14.76159622069999
 21
-13.4761765483
 31
0.0
  0
LINE
  5
6C9
  8
1
 10
18.24999999999999
 20
12.84999999999999
 30
0.0
 11
15.12720572599999
 21
12.84999999999999
 31
0.0
  0
POLYLINE
  5
6CA
  8
1
 66
     1
 10
0.0
 20
0.0
 30
0.0
  0
VERTEX
  5
CA0
  8
1
 10
18.74027294099999
 20
13.34027294089999
 30
0.0
  0
VERTEX
  5
CA1
  8
1
 10
18.52665217190001
 20
13.43622424559999
 30
0.0
  0
VERTEX
  5
CA2
  8
1
 10
18.24999999999999
 20
13.47617654829999
 30
0.0
  0
SEQEND
  5
CA9
  8
1
  0
LINE
  5
6CB
  8
1
 10
18.24999999999999
 20
12.84999999999999
 30
0.0
 11
18.74027294099999
 21
13.34027294089999
 31
0.0
  0
LINE
  5
6CC
  8
1
 10
19.05
 20
48.41249999999999
 30
0.0
 11
19.05
 21
13.64999999999999
 31
0.0
  0
LINE
  5
6CD
  8
1
 10
19.05
 20
13.64999999999999
 30
0.0
 11
18.74027294099999
 21
13.34027294089999
 31
0.0
  0
LINE
  5
6CE
  8
1
 10
15.13134169959999
 20
-12.85000000000002
 30
0.0
 11
18.24999999999999
 21
-12.85000000000002
 31
0.0
  0
LINE
  5
6CF
  8
1
 10
18.74027294099999
 20
-13.34027294090001
 30
0.0
 11
18.24999999999999
 21
-12.85000000000002
 31
0.0
  0
ARC
  5
6D0
  8
1
 10
18.26105910329998
 20
-12.56378947600001
 30
0.0
 40
0.9124540938692702
 50
269.3055481228999
 51
301.6811877357991
  0
LINE
  5
6D1
  8
1
 10
18.74027294099999
 20
-13.34027294090001
 30
0.0
 11
19.05
 21
-13.65000000000001
 31
0.0
  0
LINE
  5
6D2
  8
1
 10
19.05
 20
-13.65000000000001
 30
0.0
 11
19.05
 21
-48.41250000000002
 31
0.0
  0
LINE
  5
6D3
  8
1
 10
1.5
 20
-48.41250000000002
 30
0.0
 11
1.5
 21
-15.05000000000001
 31
0.0
  0
LINE
  5
6D4
  8
1
 10
1.5
 20
15.04852324519999
 30
0.0
 11
1.5
 21
48.41249999999999
 31
0.0
  0
LINE
  5
6D5
  8
1
 10
12.55499999999999
 20
-12.85000000000002
 30
0.0
 11
12.55499999999999
 21
-13.4648917506
 31
0.0
  0
ARC
  5
6D6
  8
1
 10
12.58861200219999
 20
-12.59309810420001
 30
0.0
 40
0.8724413611089392
 50
267.7920549356998
 51
296.3589923962987
  0
LINE
  5
6D7
  8
1
 10
12.55499999999999
 20
-12.85000000000002
 30
0.0
 11
13.69839039279999
 21
-12.85000000000002
 31
0.0
  0
LINE
  5
6D8
  8
1
 10
9.704999999999998
 20
12.84999999999999
 30
0.0
 11
9.704999999999998
 21
13.46489175059999
 31
0.0
  0
ARC
  5
6D9
  8
1
 10
9.671387997799997
 20
12.5930981044
 30
0.0
 40
0.8724413609184779
 50
87.7920549324997
 51
116.3589923993999
  0
LINE
  5
6DA
  8
1
 10
9.704999999999998
 20
12.84999999999999
 30
0.0
 11
8.5616096073
 21
12.84999999999999
 31
0.0
  0
LINE
  5
6DB
  8
1
 10
12.55499999999999
 20
12.84999999999999
 30
0.0
 11
12.55499999999999
 21
13.46489175059999
 31
0.0
  0
ARC
  5
6DC
  8
1
 10
12.5948067856
 20
12.62541275119999
 30
0.0
 40
0.8404222573138419
 50
62.75083899299995
 51
92.71484299050006
  0
LINE
  5
6DD
  8
1
 10
13.69847051719999
 20
12.84999999999999
 30
0.0
 11
12.55499999999999
 21
12.84999999999999
 31
0.0
  0
LINE
  5
6DE
  8
1
 10
9.704999999999998
 20
-12.85000000000002
 30
0.0
 11
9.704999999999998
 21
-13.4648917506
 31
0.0
  0
ARC
  5
6DF
  8
1
 10
9.665193214499993
 20
-12.62541275080002
 30
0.0
 40
0.8404222576953163
 50
242.7508390016999
 51
272.7148429853
  0
LINE
  5
6E0
  8
1
 10
8.5615294829
 20
-12.85000000000002
 30
0.0
 11
9.704999999999998
 21
-12.85000000000002
 31
0.0
  0
LINE
  5
6E1
  8
1
 10
12.55499999999999
 20
-13.4648917506
 30
0.0
 11
9.704999999999998
 21
-13.4648917506
 31
0.0
  0
LINE
  5
6E2
  8
1
 10
9.704999999999998
 20
-12.85000000000002
 30
0.0
 11
12.55499999999999
 21
-12.85000000000002
 31
0.0
  0
LINE
  5
6E3
  8
1
 10
9.704999999999998
 20
13.46489175059999
 30
0.0
 11
12.55499999999999
 21
13.46489175059999
 31
0.0
  0
LINE
  5
6E4
  8
1
 10
12.55499999999999
 20
12.84999999999999
 30
0.0
 11
9.704999999999998
 21
12.84999999999999
 31
0.0
  0
LINE
  5
6E5
  8
1
 10
1.799999999999997
 20
-12.3810984973
 30
0.0
 11
1.5
 21
-13.31170913139999
 31
0.0
  0
LINE
  5
6E6
  8
1
 10
1.5
 20
13.31170913139999
 30
0.0
 11
1.799999999999997
 21
12.38109849729999
 31
0.0
  0
LINE
  5
6E7
  8
1
 10
1.799999999999997
 20
12.38109849729999
 30
0.0
 11
1.799999999999997
 21
-12.3810984973
 31
0.0
  0
CIRCLE
  5
6E8
  8
1
 10
11.375
 20
0.0
 30
0.0
 40
4.75
  0
LINE
  5
6E9
  8
1
 10
1.5
 20
-13.31170913139999
 30
0.0
 11
1.5
 21
-15.05000000000001
 31
0.0
  0
LINE
  5
6EA
  8
1
 10
1.5
 20
15.04852324519999
 30
0.0
 11
1.5
 21
13.31170913139999
 31
0.0
  0
LINE
  5
6EB
  8
1
 10
19.05
 20
-13.65000000000001
 30
0.0
 11
19.05
 21
13.64999999999999
 31
0.0
  0
ARC
  5
6EC
  8
1
 10
26.97500000000001
 20
0.0
 30
0.0
 40
6.349999999999994
 50
0.0
 51
180.0
  0
ARC
  5
6ED
  8
1
 10
26.97500000000001
 20
0.0
 30
0.0
 40
6.349999999999994
 50
180.0
 51
0.0
  0
LINE
  5
6EE
  8
1
 10
34.05
 20
0.0
 30
0.0
 11
34.05
 21
34.92499999999998
 31
0.0
  0
LINE
  5
6EF
  8
1
 10
34.05
 20
-34.92500000000001
 30
0.0
 11
34.05
 21
0.0
 31
0.0
  0
LINE
  5
6F0
  8
1
 10
0.0
 20
0.0
 30
0.0
 11
0.0
 21
-34.92500000000001
 31
0.0
  0
LINE
  5
6F1
  8
1
 10
0.0
 20
34.92499999999998
 30
0.0
 11
0.0
 21
0.0
 31
0.0
  0
LINE
  5
6F2
  8
1
 10
0.2999999999999972
 20
0.0
 30
0.0
 11
0.2999999999999972
 21
-34.625
 31
0.0
  0
LINE
  5
6F3
  8
1
 10
0.2999999999999972
 20
34.625
 30
0.0
 11
0.2999999999999972
 21
0.0
 31
0.0
  0
LINE
  5
6F4
  8
1
 10
35.05
 20
0.0
 30
0.0
 11
35.05
 21
-33.92500000000001
 31
0.0
  0
LINE
  5
6F5
  8
1
 10
35.05
 20
33.92499999999998
 30
0.0
 11
35.05
 21
0.0
 31
0.0
  0
LINE
  5
6F6
  8
1
 10
-101.6
 20
0.0
 30
0.0
 11
-101.6
 21
-18.1192879614
 31
0.0
  0
LINE
  5
6F7
  8
1
 10
-101.6
 20
18.1192879614
 30
0.0
 11
-101.6
 21
0.0
 31
0.0
  0
LINE
  5
71A
  8
SK3
 10
-99.5215390309
 20
-13.10000000000002
 30
0.0
 11
-99.5215390309
 21
13.09999999999999
 31
0.0
  0
LINE
  5
71B
  8
SK3
 10
-95.25
 20
-13.10000000000002
 30
0.0
 11
-95.25
 21
13.09999999999999
 31
0.0
  0
LINE
  5
72A
  8
SK3
 10
-101.6
 20
-14.30000000000001
 30
0.0
 11
-99.5215390309
 21
-13.10000000000002
 31
0.0
  0
LINE
  5
72B
  8
SK3
 10
-99.5215390309
 20
13.09999999999999
 30
0.0
 11
-101.6
 21
14.3
 31
0.0
  0
LINE
  5
72C
  8
SK3
 10
-99.5215390309
 20
-13.10000000000002
 30
0.0
 11
-95.25
 21
-13.10000000000002
 31
0.0
  0
LINE
  5
72D
  8
SK3
 10
-95.25
 20
13.09999999999999
 30
0.0
 11
-99.5215390309
 21
13.09999999999999
 31
0.0
  0
LINE
  5
72E
  8
SK3
 10
-95.25
 20
-11.09980000000002
 30
0.0
 11
-5.249999999999986
 21
-11.09980000000002
 31
0.0
  0
LINE
  5
72F
  8
SK3
 10
-5.249999999999975
 20
11.09979999999999
 30
0.0
 11
-95.25
 21
11.09979999999999
 31
0.0
  0
LINE
  5
760
  8
SK3
 10
-57.1
 20
12.69999999999999
 30
0.0
 11
-95.25
 21
12.69999999999999
 31
0.0
  0
LINE
  5
761
  8
SK3
 10
-95.25
 20
-12.69999999999999
 30
0.0
 11
-57.1
 21
-12.69999999999999
 31
0.0
  0
LINE
  5
774
  8
SK3
 10
-57.1
 20
12.69999999999999
 30
0.0
 11
-57.1
 21
-12.69999999999999
 31
0.0
  0
LINE
  5
777
  8
SK4
 10
0.0
 20
0.0
 30
0.0
 11
-101.6
 21
0.0
 31
0.0
  0
LINE
  5
779
  8
4
 10
0.0
 20
0.0
 30
0.0
 11
114.3
 21
0.0
 31
0.0
  0
INSERT
  5
77B
  8
SK6
  2
*U0
 10
-44.10380399683656
 20
-23.39313954296377
 30
0.0
  0
INSERT
  5
78D
  8
SK6
  2
*U2
 10
17.55665382414153
 20
-2.560320993650734
 30
0.0
  0
LINE
  5
793
  8
0
 10
3.0
 20
3.0
 30
0.0
 11
-3.0
 21
-3.0
 31
0.0
  0
LINE
  5
794
  8
0
 10
-3.0
 20
3.0
 30
0.0
 11
3.0
 21
-3.0
 31
0.0
  0
CIRCLE
  5
795
  8
0
 10
0.0
 20
0.0
 30
0.0
 40
2.5
  0
LINE
  5
796
  8
0
 10
117.3
 20
-3.0
 30
0.0
 11
111.3
 21
3.0
 31
0.0
  0
CIRCLE
  5
797
  8
0
 10
114.3
 20
0.0
 30
0.0
 40
2.5
  0
LINE
  5
798
  8
0
 10
111.3
 20
-3.0
 30
0.0
 11
117.3
 21
3.0
 31
0.0
  0
LINE
  5
799
  8
NOCUT
 10
0.7999999999999972
 20
34.62500000000001
 30
0.0
 11
0.2999999999999972
 21
34.62500000000001
 31
0.0
  0
LINE
  5
79B
  8
NOCUT
 10
35.05
 20
33.92499999999999
 30
0.0
 11
34.05
 21
34.92499999999999
 31
0.0
  0
LINE
  5
79C
  8
NOCUT
 10
0.2999999999999972
 20
34.62500000000001
 30
0.0
 11
0.0
 21
34.92499999999999
 31
0.0
  0
LINE
  5
79D
  8
NOCUT
 10
34.05
 20
34.92499999999999
 30
0.0
 11
20.05
 21
34.92499999999999
 31
0.0
  0
ARC
  5
79E
  8
NOCUT
 10
0.7999999999999972
 20
35.62500000000001
 30
0.0
 40
1.0
 50
270.0
 51
314.4270040008
  0
ARC
  5
79F
  8
NOCUT
 10
20.05
 20
35.92499999999999
 30
0.0
 40
1.0
 50
180.0
 51
270.0
  0
LINE
  5
7A0
  8
NOCUT
 10
12.55499999999999
 20
45.64499999999999
 30
0.0
 11
9.704999999999998
 21
45.64499999999999
 31
0.0
  0
ARC
  5
7A1
  8
NOCUT
 10
12.55499999999999
 20
46.14499999999999
 30
0.0
 40
0.5
 50
270.0
 51
0.0
  0
ARC
  5
7A2
  8
NOCUT
 10
9.704999999999998
 20
46.14499999999999
 30
0.0
 40
0.5
 50
180.0
 51
270.0
  0
ARC
  5
7A3
  8
NOCUT
 10
2.299999999999997
 20
48.4125
 30
0.0
 40
0.7999999999999972
 50
90.0
 51
180.0
  0
ARC
  5
7A4
  8
NOCUT
 10
18.24999999999999
 20
48.4125
 30
0.0
 40
0.799999999999983
 50
0.0
 51
90.0
  0
LINE
  5
7A5
  8
NOCUT
 10
9.204999999999998
 20
46.43919780459999
 30
0.0
 11
7.603833230999996
 21
49.21250000000001
 31
0.0
  0
LINE
  5
7A6
  8
NOCUT
 10
14.65616676910001
 20
49.21250000000001
 30
0.0
 11
13.05499999999999
 21
46.43919780459999
 31
0.0
  0
LINE
  5
7A7
  8
NOCUT
 10
18.24999999999999
 20
49.21250000000001
 30
0.0
 11
14.65616676910001
 21
49.21250000000001
 31
0.0
  0
LINE
  5
7A8
  8
NOCUT
 10
7.603833230999996
 20
49.21250000000001
 30
0.0
 11
2.299999999999997
 21
49.21250000000001
 31
0.0
  0
LINE
  5
7AC
  8
NOCUT
 10
1.5
 20
48.4125
 30
0.0
 11
1.499999999999929
 21
34.91085715714565
 31
0.0
  0
LINE
  5
7AD
  8
NOCUT
 10
19.04999999999997
 20
48.4125
 30
0.0
 11
19.05
 21
35.92499999999999
 31
0.0
  0
LINE
  5
7AE
  8
NOCUT
 10
9.204999999999998
 20
46.43919780459999
 30
0.0
 11
9.204999999999998
 21
46.14499999999999
 31
0.0
  0
LINE
  5
7AF
  8
NOCUT
 10
13.05499999999999
 20
46.43919780459999
 30
0.0
 11
13.05499999999999
 21
46.14499999999999
 31
0.0
  0
DIMENSION
  5
7E6
  8
SK2
  2
*D3
 10
159.8937690866834
 20
-34.92500000000002
 30
0.0
 11
158.0187690866834
 21
-0.0000000000000213
 31
0.0
 70
    32
  3
ISO-25
 13
34.05
 23
34.92499999999998
 33
0.0
 14
34.05
 24
-34.92500000000001
 34
0.0
 50
90.0
1001
ACAD
1000
DSTYLE
1002
{
1070
   287
1070
     5
1070
   271
1070
     3
1070
   272
1070
     3
1070
   279
1070
     2
1002
}
  0
DIMENSION
  5
7F5
  8
SK2
  2
*D4
 10
35.05
 20
-73.15665109041375
 30
0.0
 11
17.525
 21
-71.28165109041375
 31
0.0
 70
    32
  3
ISO-25
 13
0.0
 23
-34.92500000000001
 33
0.0
 14
35.05
 24
-33.92500000000001
 34
0.0
1001
ACAD
1000
DSTYLE
1002
{
1070
   287
1070
     5
1070
   271
1070
     3
1070
   272
1070
     3
1070
   279
1070
     2
1002
}
  0
DIMENSION
  5
804
  8
SK2
  2
*D5
 10
114.3
 20
62.46215670356074
 30
0.0
 11
57.15
 21
64.33715670356074
 31
0.0
 70
    32
  3
ISO-25
 13
0.0
 23
34.92499999999998
 33
0.0
 14
114.3
 24
13.10907277814999
 34
0.0
1001
ACAD
1000
DSTYLE
1002
{
1070
   287
1070
     5
1070
   271
1070
     3
1070
   272
1070
     3
1070
   279
1070
     2
1002
}
  0
LINE
  5
8BF
  8
NOCUT
 10
0.0
 20
34.92499999999999
 30
0.0
 11
0.0
 21
0.0
 31
0.0
  0
LINE
  5
8C0
  8
NOCUT
 10
0.0
 20
0.0
 30
0.0
 11
114.3
 21
0.0
 31
0.0
  0
INSERT
  5
A17
  8
SK6
  2
_FILLED
 10
-20.78186483605847
 20
-31.89428358495073
 30
0.0
 41
3.5
 42
3.5
 43
3.5
 50
52.86965044919886
  0
POLYLINE
  5
A18
  8
SK6
 66
     1
 10
0.0
 20
0.0
 30
0.0
  0
VERTEX
  5
CA3
  8
SK6
 10
-22.89457117648658
 20
-34.68470862768434
 30
0.0
  0
VERTEX
  5
CA4
  8
SK6
 10
-48.02596493475846
 20
-67.87780752645074
 30
0.0
  0
VERTEX
  5
CA5
  8
SK6
 10
-49.90096493475846
 20
-66.12780752645074
 30
0.0
  0
VERTEX
  5
CA6
  8
SK6
 10
-53.40096493475846
 20
-66.12780752645074
 30
0.0
  0
SEQEND
  5
CA8
  8
SK6
  0
LINE
  5
B1E
  8
SK3
 10
0.0000000000000001
 20
7.68750009705002
 30
0.0
 11
-4.520687384199988
 21
7.68750009705002
 31
0.0
  0
LINE
  5
B1F
  8
SK3
 10
0.0
 20
-7.68749990294998
 30
0.0
 11
-4.520687384199988
 21
-7.68749990294998
 31
0.0
  0
ARC
  5
C02
  8
1
 10
37.05
 20
22.63750009705001
 30
0.0
 40
2.0
 50
180.0
 51
270.0
  0
ARC
  5
C04
  8
1
 10
37.05
 20
-22.63749990294997
 30
0.0
 40
2.0
 50
90.0
 51
180.0
  0
LINE
  5
C05
  8
1
 10
37.05
 20
-20.63749990294997
 30
0.0
 11
106.7715728753
 21
-20.63749990294997
 31
0.0
  0
LINE
  5
C06
  8
1
 10
106.7715728753
 20
20.63750009705001
 30
0.0
 11
37.05
 21
20.63750009705001
 31
0.0
  0
ARC
  5
C07
  8
1
 10
106.7715728753
 20
-18.63749990294997
 30
0.0
 40
2.000000000000006
 50
270.0
 51
315.0
  0
ARC
  5
C08
  8
1
 10
106.7715728753
 20
18.63750009705001
 30
0.0
 40
2.000000000000006
 50
45.0
 51
90.0
  0
LINE
  5
C09
  8
1
 10
108.1857864377
 20
-20.05171346535002
 30
0.0
 11
113.7142135624
 21
-14.52328634054999
 31
0.0
  0
LINE
  5
C0A
  8
1
 10
113.7142135624
 20
14.52328653465003
 30
0.0
 11
108.1857864377
 21
20.05171365945
 31
0.0
  0
ARC
  5
C0B
  8
1
 10
112.3
 20
-13.10907277814999
 30
0.0
 40
2.000000000000028
 50
314.9999999999997
 51
0.0
  0
ARC
  5
C0C
  8
1
 10
112.3
 20
13.10907297235002
 30
0.0
 40
2.000000000000028
 50
0.0
 51
45.00000000000029
  0
CIRCLE
  5
C0D
  8
1
 10
90.4875
 20
0.0000000970500196
 30
0.0
 40
6.356349999999907
  0
LINE
  5
C0E
  8
1
 10
93.66250000000001
 20
1.833087201750004
 30
0.0
 11
90.4875
 21
3.666174306449989
 31
0.0
  0
LINE
  5
C0F
  8
1
 10
87.31250000000001
 20
1.833087201750004
 30
0.0
 11
90.4875
 21
3.666174306449989
 31
0.0
  0
LINE
  5
C10
  8
1
 10
87.31250000000001
 20
-1.833087007650022
 30
0.0
 11
87.31250000000001
 21
1.833087201750004
 31
0.0
  0
LINE
  5
C11
  8
1
 10
93.66250000000001
 20
-1.833087007650022
 30
0.0
 11
93.66250000000001
 21
1.833087201750004
 31
0.0
  0
LINE
  5
C12
  8
1
 10
93.66250000000001
 20
-1.833087007650022
 30
0.0
 11
90.4875
 21
-3.666174112250019
 31
0.0
  0
LINE
  5
C13
  8
1
 10
87.31250000000001
 20
-1.833087007650022
 30
0.0
 11
90.4875
 21
-3.666174112250019
 31
0.0
  0
ARC
  5
C14
  8
1
 10
90.4875
 20
0.0000000970500196
 30
0.0
 40
7.500000000000014
 50
0.0
 51
180.0
  0
ARC
  5
C15
  8
1
 10
90.4875
 20
0.0000000970500196
 30
0.0
 40
7.5
 50
180.0
 51
0.0
  0
CIRCLE
  5
C16
  8
1
 10
90.4875
 20
0.0000000970500196
 30
0.0
 40
7.144000000000005
  0
CIRCLE
  5
C17
  8
1
 10
90.4875
 20
0.0000000970500196
 30
0.0
 40
6.548119999999983
  0
LINE
  5
C18
  8
1
 10
114.3
 20
-13.10907277814999
 30
0.0
 11
114.3
 21
13.10907277814999
 31
0.0
  0
LINE
  5
C19
  8
3
 10
113.3
 20
7.93750009705002
 30
0.0
 11
113.3
 21
-7.93749990294998
 31
0.0
  0
LINE
  5
C1C
  8
3
 10
65.90000000000002
 20
8.200000097050008
 30
0.0
 11
65.90000000000002
 21
-8.199999902949969
 31
0.0
  0
LINE
  5
C1D
  8
3
 10
114.3
 20
8.514850366250016
 30
0.0
 11
113.3
 21
7.93750009705002
 31
0.0
  0
LINE
  5
C1E
  8
3
 10
113.3
 20
-7.93749990294998
 30
0.0
 11
114.3
 21
-8.514850172149977
 31
0.0
  0
LINE
  5
C1F
  8
3
 10
113.3
 20
7.93750009705002
 30
0.0
 11
65.90000000000002
 21
7.93750009705002
 31
0.0
  0
LINE
  5
C20
  8
3
 10
65.90000000000002
 20
-7.93749990294998
 30
0.0
 11
113.3
 21
-7.93749990294998
 31
0.0
  0
LINE
  5
C21
  8
3
 10
25.40000000000002
 20
-8.199999902949969
 30
0.0
 11
65.90000000000002
 21
-8.199999902949969
 31
0.0
  0
LINE
  5
C22
  8
3
 10
65.90000000000002
 20
8.200000097050008
 30
0.0
 11
25.40000000000002
 21
8.200000097050008
 31
0.0
  0
LINE
  5
C23
  8
3
 10
25.40000000000002
 20
8.200000097050008
 30
0.0
 11
25.40000000000002
 21
-8.199999902949969
 31
0.0
  0
LINE
  5
C2B
  8
3
 10
0.0000000000000001
 20
7.68750009705002
 30
0.0
 11
25.40000000000002
 21
7.68750009705002
 31
0.0
  0
LINE
  5
C2C
  8
3
 10
0.0
 20
-7.68749990294998
 30
0.0
 11
25.40000000000002
 21
-7.687499902949982
 31
0.0
  0
LINE
  5
C51
  8
3
 10
-5.249999999999986
 20
-11.09980000000002
 30
0.0
 11
-5.249999999999986
 21
11.09979999999999
 31
0.0
  0
LINE
  5
C52
  8
3
 10
-4.520687384199988
 20
7.68750009705002
 30
0.0
 11
-4.520687384199988
 21
-7.68749990294998
 31
0.0
  0
LINE
  5
C53
  8
3
 10
-5.249999999999986
 20
-10.84649990294997
 30
0.0
 11
-4.520687384199988
 21
-7.68749990294998
 31
0.0
  0
LINE
  5
C54
  8
3
 10
-4.520687384199988
 20
7.68750009705002
 30
0.0
 11
-5.249999999999986
 21
10.84650009705001
 31
0.0
  0
ARC
  5
C55
  8
NOCUT
 10
112.3
 20
13.10907297235002
 30
0.0
 40
2.000000000000028
 50
0.0
 51
45.00000000000029
  0
LINE
  5
C57
  8
NOCUT
 10
113.7142135624
 20
14.52328653465003
 30
0.0
 11
108.1857864377
 21
20.05171365945
 31
0.0
  0
ARC
  5
C58
  8
NOCUT
 10
106.7715728753
 20
18.63750009705001
 30
0.0
 40
2.000000000000006
 50
45.0
 51
90.0
  0
LINE
  5
C59
  8
NOCUT
 10
106.7715728753
 20
20.63750009705001
 30
0.0
 11
37.05
 21
20.63750009705001
 31
0.0
  0
ARC
  5
C5A
  8
NOCUT
 10
37.05
 20
22.63750009705001
 30
0.0
 40
2.0
 50
180.0
 51
270.0
  0
LINE
  5
C5B
  8
NOCUT
 10
114.3
 20
0.0
 30
0.0
 11
114.3
 21
13.10907277814999
 31
0.0
  0
LINE
  5
C5E
  8
NOCUT
 10
35.05
 20
33.92499999999999
 30
0.0
 11
35.05
 21
22.63750009705001
 31
0.0
  0
DIMENSION
  5
C61
  8
SK2
  2
*D8
 10
128.4203610546056
 20
-7.937499902949981
 30
0.0
 11
126.5453610546056
 21
0.0000000970500187
 31
0.0
 70
    32
  3
ISO-25
 13
113.3
 23
7.93750009705002
 33
0.0
 14
113.3
 24
-7.93749990294998
 34
0.0
 50
90.0
1001
ACAD
1000
DSTYLE
1002
{
1070
   287
1070
     5
1070
   271
1070
     3
1070
   272
1070
     3
1070
   279
1070
     2
1002
}
  0
DIMENSION
  5
C70
  8
SK2
  2
*D9
 10
142.8082047264126
 20
-20.63749990294997
 30
0.0
 11
140.9332047264126
 21
0.000000097050016
 31
0.0
 70
    32
  3
ISO-25
 13
106.7715728753
 23
20.63750009705001
 33
0.0
 14
106.7715728753
 24
-20.63749990294997
 34
0.0
 50
90.0
1001
ACAD
1000
DSTYLE
1002
{
1070
   287
1070
     5
1070
   271
1070
     3
1070
   272
1070
     3
1070
   279
1070
     2
1002
}
  0
ENDSEC
  0
EOF
