  0
SECTION
  2
HEADER
  9
$ACADVER
  1
AC1009
  9
$DWGCODEPAGE
  3
ansi_1252
  9
$INSBASE
 10
0.0
 20
0.0
 30
0.0
  9
$EXTMIN
 10
-4.062491874999976
 20
-1.937496124999995
 30
0.0
  9
$EXTMAX
 10
6.741480038362738
 20
3.306323769333531
 30
0.0
  9
$LIMMIN
 10
0.0
 20
0.0
  9
$LIMMAX
 10
12.0
 20
9.0
  9
$ORTHOMODE
 70
     1
  9
$REGENMODE
 70
     1
  9
$FILLMODE
 70
     1
  9
$QTEXTMODE
 70
     0
  9
$MIRRTEXT
 70
     1
  9
$DRAGMODE
 70
     2
  9
$LTSCALE
 40
10.0
  9
$OSMODE
 70
   511
  9
$ATTMODE
 70
     1
  9
$TEXTSIZE
 40
0.2
  9
$TRACEWID
 40
0.05
  9
$TEXTSTYLE
  7
STYLE1
  9
$CLAYER
  8
245
  9
$CELTYPE
  6
BYLAYER
  9
$CECOLOR
 62
   256
  9
$DIMSCALE
 40
1.0
  9
$DIMASZ
 40
0.12
  9
$DIMEXO
 40
0.0625
  9
$DIMDLI
 40
0.38
  9
$DIMRND
 40
0.0
  9
$DIMDLE
 40
0.0
  9
$DIMEXE
 40
0.0625
  9
$DIMTP
 40
0.0
  9
$DIMTM
 40
0.0
  9
$DIMTXT
 40
0.125
  9
$DIMCEN
 40
0.0
  9
$DIMTSZ
 40
0.0
  9
$DIMTOL
 70
     0
  9
$DIMLIM
 70
     0
  9
$DIMTIH
 70
     0
  9
$DIMTOH
 70
     0
  9
$DIMSE1
 70
     0
  9
$DIMSE2
 70
     0
  9
$DIMTAD
 70
     1
  9
$DIMZIN
 70
     0
  9
$DIMBLK
  1

  9
$DIMASO
 70
     1
  9
$DIMSHO
 70
     1
  9
$DIMPOST
  1

  9
$DIMAPOST
  1

  9
$DIMALT
 70
     0
  9
$DIMALTD
 70
     2
  9
$DIMALTF
 40
25.4
  9
$DIMLFAC
 40
1.0
  9
$DIMTOFL
 70
     1
  9
$DIMTVP
 40
0.0
  9
$DIMTIX
 70
     0
  9
$DIMSOXD
 70
     0
  9
$DIMSAH
 70
     0
  9
$DIMBLK1
  1

  9
$DIMBLK2
  1

  9
$DIMSTYLE
  2
STANDARD
  9
$DIMCLRD
 70
     0
  9
$DIMCLRE
 70
     0
  9
$DIMCLRT
 70
     0
  9
$DIMTFAC
 40
1.0
  9
$DIMGAP
 40
0.05
  9
$LUNITS
 70
     2
  9
$LUPREC
 70
     4
  9
$SKETCHINC
 40
0.1
  9
$FILLETRAD
 40
0.0
  9
$AUNITS
 70
     0
  9
$AUPREC
 70
     0
  9
$MENU
  1
.
  9
$ELEVATION
 40
0.0
  9
$PELEVATION
 40
0.0
  9
$THICKNESS
 40
0.0
  9
$LIMCHECK
 70
     0
  9
$CHAMFERA
 40
0.04
  9
$CHAMFERB
 40
0.04
  9
$SKPOLY
 70
     0
  9
$TDCREATE
 40
2453353.508792477
  9
$TDUPDATE
 40
2452852.584358021
  9
$TDINDWG
 40
0.0636384954
  9
$TDUSRTIMER
 40
2458340.572168356
  9
$USRTIMER
 70
     1
  9
$ANGBASE
 50
0.0
  9
$ANGDIR
 70
     0
  9
$PDMODE
 70
    65
  9
$PDSIZE
 40
-2.0
  9
$PLINEWID
 40
0.0
  9
$COORDS
 70
     1
  9
$SPLFRAME
 70
     0
  9
$SPLINETYPE
 70
     6
  9
$SPLINESEGS
 70
     8
  9
$ATTDIA
 70
     0
  9
$ATTREQ
 70
     1
  9
$HANDLING
 70
     1
  9
$HANDSEED
  5
DC2
  9
$SURFTAB1
 70
     6
  9
$SURFTAB2
 70
     6
  9
$SURFTYPE
 70
     6
  9
$SURFU
 70
     6
  9
$SURFV
 70
     6
  9
$UCSNAME
  2

  9
$UCSORG
 10
0.0
 20
0.0
 30
0.0
  9
$UCSXDIR
 10
1.0
 20
0.0
 30
0.0
  9
$UCSYDIR
 10
0.0
 20
1.0
 30
0.0
  9
$PUCSNAME
  2

  9
$PUCSORG
 10
0.0
 20
0.0
 30
0.0
  9
$PUCSXDIR
 10
1.0
 20
0.0
 30
0.0
  9
$PUCSYDIR
 10
0.0
 20
1.0
 30
0.0
  9
$USERI1
 70
     0
  9
$USERI2
 70
     0
  9
$USERI3
 70
     0
  9
$USERI4
 70
     0
  9
$USERI5
 70
     0
  9
$USERR1
 40
0.0
  9
$USERR2
 40
0.0
  9
$USERR3
 40
0.0
  9
$USERR4
 40
0.0
  9
$USERR5
 40
0.0
  9
$WORLDVIEW
 70
     1
  9
$SHADEDGE
 70
     3
  9
$SHADEDIF
 70
    70
  9
$TILEMODE
 70
     1
  9
$MAXACTVP
 70
    16
  9
$PLIMCHECK
 70
     0
  9
$PEXTMIN
 10
0.0
 20
0.0
 30
0.0
  9
$PEXTMAX
 10
0.0
 20
0.0
 30
0.0
  9
$PLIMMIN
 10
0.0
 20
0.0
  9
$PLIMMAX
 10
12.0
 20
9.0
  9
$UNITMODE
 70
     0
  9
$VISRETAIN
 70
     0
  9
$PLINEGEN
 70
     0
  9
$PSLTSCALE
 70
     1
  0
ENDSEC
  0
SECTION
  2
TABLES
  0
TABLE
  2
VPORT
 70
     1
  0
VPORT
  2
*ACTIVE
 70
     0
 10
0.0
 20
0.0
 11
1.0
 21
1.0
 12
-207.3409654917606
 22
-228.8339679479761
 13
0.0
 23
0.0
 14
1.0
 24
1.0
 15
0.0
 25
0.0
 16
0.0
 26
0.0
 36
1.0
 17
248.9596517691349
 27
245.8997127951685
 37
0.0
 40
221.4027397806721
 41
1.334239130434783
 42
50.0
 43
0.0
 44
0.0
 50
0.0
 51
0.0
 71
    16
 72
  1000
 73
     1
 74
     0
 75
     0
 76
     0
 77
     0
 78
     0
  0
ENDTAB
  0
TABLE
  2
LTYPE
 70
     3
  0
LTYPE
  2
CONTINUOUS
 70
     0
  3
Solid line
 72
    65
 73
     0
 40
0.0
  0
LTYPE
  2
HIDDEN
 70
     0
  3
__ __ __ __ __ __ __ __ __ __ __ __ __ __ __ __
 72
    65
 73
     2
 40
0.375
 49
0.25
 49
-0.125
  0
LTYPE
  2
CENTER
 70
     0
  3
____ _ ____ _ ____ _ ____ _ ____ _ ____ _ ____
 72
    65
 73
     4
 40
2.0
 49
1.25
 49
-0.25
 49
0.25
 49
-0.25
  0
ENDTAB
  0
TABLE
  2
LAYER
 70
     6
  0
LAYER
  2
0
 70
     0
 62
     7
  6
CONTINUOUS
  0
LAYER
  2
240
 70
     0
 62
     4
  6
CONTINUOUS
  0
LAYER
  2
243
 70
     0
 62
     6
  6
HIDDEN
  0
LAYER
  2
245
 70
     0
 62
     2
  6
CENTER
  0
LAYER
  2
250
 70
     0
 62
     3
  6
CONTINUOUS
  0
LAYER
  2
DEFPOINTS
 70
     0
 62
     7
  6
CONTINUOUS
  0
ENDTAB
  0
TABLE
  2
STYLE
 70
     3
  0
STYLE
  2
STANDARD
 70
     0
 40
0.0
 41
1.0
 50
0.0
 71
     0
 42
0.2
  3
ROMANS.SHX
  4

  0
STYLE
  2
STYLE1
 70
     0
 40
0.0
 41
1.0
 50
0.0
 71
     0
 42
0.2
  3
romans.shx
  4

  0
ENDTAB
  0
TABLE
  2
VIEW
 70
     0
  0
ENDTAB
  0
TABLE
  2
UCS
 70
     0
  0
ENDTAB
  0
TABLE
  2
APPID
 70
    13
  0
APPID
  2
ACAD
 70
     0
  0
APPID
  2
GENIUS_GENDIM_13
 70
     0
  0
APPID
  2
GENIUS_GENDTOL_13
 70
     0
  0
APPID
  2
GENIUS_GE3DTOL_13
 70
     0
  0
APPID
  2
MCAD_NO_VIS
 70
     0
  0
APPID
  2
ACAD_TEMP_GRAPHIC
 70
     0
  0
APPID
  2
AD_DRAW
 70
     0
  0
APPID
  2
ACATTRIBSERVICES
 70
     0
  0
APPID
  2
ASURF_PCURVE_APPNAME
 70
     0
  0
APPID
  2
AMG_3D2D_5_0
 70
     0
  0
APPID
  2
DESIGNERASSEMBLIES
 70
     0
  0
APPID
  2
ACADM_DIM_EDIT
 70
     0
  0
APPID
  2
AMDT_DM_ADJ
 70
     0
  0
ENDTAB
  0
TABLE
  2
DIMSTYLE
 70
     1
  0
DIMSTYLE
  2
STANDARD
 70
     0
  3

  4

  5

  6

  7

 40
1.0
 41
0.12
 42
0.0625
 43
0.38
 44
0.0625
 45
0.0
 46
0.0
 47
0.0
 48
0.0
140
0.125
141
0.0
142
0.0
143
25.4
144
1.0
145
0.0
146
1.0
147
0.05
 71
     0
 72
     0
 73
     0
 74
     0
 75
     0
 76
     0
 77
     1
 78
     0
170
     0
171
     2
172
     1
173
     0
174
     0
175
     0
176
     0
177
     0
178
     0
  0
ENDTAB
  0
ENDSEC
  0
SECTION
  2
BLOCKS
  0
BLOCK
  8
0
  2
$MODEL_SPACE
 70
     0
 10
0.0
 20
0.0
 30
0.0
  3
$MODEL_SPACE
  1

  0
ENDBLK
  5
21
  8
0
  0
BLOCK
 67
     1
  8
0
  2
$PAPER_SPACE
 70
     0
 10
0.0
 20
0.0
 30
0.0
  3
$PAPER_SPACE
  1

  0
ENDBLK
  5
76
 67
     1
  8
0
  0
BLOCK
  8
0
  2
*D0
 70
     1
 10
0.0
 20
0.0
 30
0.0
  3
*D0
  1

  0
LINE
  5
6BF
  8
250
 62
     0
 10
0.0
 20
34.98743014999934
 30
0.0
 11
0.0
 21
79.40639126938463
 31
0.0
  0
LINE
  5
6C0
  8
250
 62
     0
 10
152.4002032
 20
31.48407286875081
 30
0.0
 11
152.4002032
 21
79.40639126938463
 31
0.0
  0
LINE
  5
6C1
  8
250
 62
     0
 10
3.0
 20
79.34389126938463
 30
0.0
 11
149.4002032
 21
79.34389126938463
 31
0.0
  0
SOLID
  5
6C2
  8
250
 62
     0
 10
3.0
 20
79.84389126938463
 30
0.0
 11
3.0
 21
78.84389126938463
 31
0.0
 12
0.0
 22
79.34389126938463
 32
0.0
 13
0.0
 23
79.34389126938463
 33
0.0
  0
SOLID
  5
6C3
  8
250
 62
     0
 10
149.4002032
 20
78.84389126938463
 30
0.0
 11
149.4002032
 21
79.84389126938463
 31
0.0
 12
152.4002032
 22
79.34389126938463
 32
0.0
 13
152.4002032
 23
79.34389126938463
 33
0.0
  0
TEXT
  5
6C4
  8
250
  6
CONTINUOUS
 62
     0
 10
69.49697660000002
 20
80.34389126938463
 30
0.0
 40
3.0
  1
152.4
  7
STYLE1
  0
POINT
  5
6C5
  8
DEFPOINTS
 62
     0
 10
0.0
 20
34.92493014999934
 30
0.0
  0
POINT
  5
6C6
  8
DEFPOINTS
 62
     0
 10
152.4002032
 20
31.42157286875081
 30
0.0
  0
POINT
  5
6C7
  8
DEFPOINTS
 62
     0
 10
152.4002032
 20
79.34389126938463
 30
0.0
  0
ENDBLK
  5
90D
  8
0
  0
BLOCK
  8
0
  2
*D1
 70
     1
 10
0.0
 20
0.0
 30
0.0
  3
*D1
  1

  0
LINE
  5
6C8
  8
250
 62
     0
 10
35.04971399992385
 20
34.48743114999987
 30
0.0
 11
35.04971399992385
 21
65.67082434648958
 31
0.0
  0
LINE
  5
6C9
  8
250
 62
     0
 10
152.4002032
 20
31.48407286875081
 30
0.0
 11
152.4002032
 21
65.67082434648958
 31
0.0
  0
LINE
  5
6CA
  8
250
 62
     0
 10
38.04971399992385
 20
65.60832434648958
 30
0.0
 11
149.4002032
 21
65.60832434648958
 31
0.0
  0
SOLID
  5
6CB
  8
250
 62
     0
 10
38.04971399992385
 20
66.10832434648958
 30
0.0
 11
38.04971399992385
 21
65.10832434648958
 31
0.0
 12
35.04971399992385
 22
65.60832434648958
 32
0.0
 13
35.04971399992385
 23
65.60832434648958
 33
0.0
  0
SOLID
  5
6CC
  8
250
 62
     0
 10
149.4002032
 20
65.10832434648958
 30
0.0
 11
149.4002032
 21
66.10832434648958
 31
0.0
 12
152.4002032
 22
65.60832434648958
 32
0.0
 13
152.4002032
 23
65.60832434648958
 33
0.0
  0
TEXT
  5
6CD
  8
250
  6
CONTINUOUS
 62
     0
 10
87.02183359996195
 20
66.60832434648958
 30
0.0
 40
3.0
  1
117.4
  7
STYLE1
  0
POINT
  5
6CE
  8
DEFPOINTS
 62
     0
 10
35.04971399992385
 20
34.42493114999987
 30
0.0
  0
POINT
  5
6CF
  8
DEFPOINTS
 62
     0
 10
152.4002032
 20
31.42157286875081
 30
0.0
  0
POINT
  5
6D0
  8
DEFPOINTS
 62
     0
 10
152.4002032
 20
65.60832434648958
 30
0.0
  0
ENDBLK
  5
90F
  8
0
  0
BLOCK
  8
0
  2
*D2
 70
     1
 10
0.0
 20
0.0
 30
0.0
  3
*D2
  1

  0
LINE
  5
6AD
  8
250
 62
     0
 10
150.4627032
 20
25.39999999355078
 30
0.0
 11
169.7085929744135
 21
25.39999999355078
 31
0.0
  0
LINE
  5
6AE
  8
250
 62
     0
 10
150.4627032
 20
-25.40000000644918
 30
0.0
 11
169.7085929744135
 21
-25.40000000644918
 31
0.0
  0
LINE
  5
6AF
  8
250
 62
     0
 10
169.6460929744135
 20
22.39999999355078
 30
0.0
 11
169.6460929744135
 21
-22.40000000644918
 31
0.0
  0
SOLID
  5
6B0
  8
250
 62
     0
 10
170.1460929744135
 20
22.39999999355078
 30
0.0
 11
169.1460929744135
 21
22.39999999355078
 31
0.0
 12
169.6460929744135
 22
25.39999999355078
 32
0.0
 13
169.6460929744135
 23
25.39999999355078
 33
0.0
  0
SOLID
  5
6B1
  8
250
 62
     0
 10
169.1460929744135
 20
-22.40000000644918
 30
0.0
 11
170.1460929744135
 21
-22.40000000644918
 31
0.0
 12
169.6460929744135
 22
-25.40000000644918
 32
0.0
 13
169.6460929744135
 23
-25.40000000644918
 33
0.0
  0
INSERT
  5
6B2
  8
250
 62
     0
  2
*X8
 10
0.0
 20
0.0
 30
0.0
  0
POINT
  5
6B3
  8
DEFPOINTS
 62
     0
 10
150.4002032
 20
25.39999999355078
 30
0.0
  0
POINT
  5
6B4
  8
DEFPOINTS
 62
     0
 10
150.4002032
 20
-25.40000000644918
 30
0.0
  0
POINT
  5
6B5
  8
DEFPOINTS
 62
     0
 10
169.6460929744135
 20
-25.40000000644918
 30
0.0
  0
ENDBLK
  5
911
  8
0
  0
BLOCK
  8
0
  2
*D4
 70
     1
 10
0.0
 20
0.0
 30
0.0
  3
*D4
  1

  0
LINE
  5
BC6
  8
250
 62
     0
 10
139.4342760753001
 20
44.44999999355073
 30
0.0
 11
185.987166179748
 21
44.44999999355073
 31
0.0
  0
LINE
  5
BC7
  8
250
 62
     0
 10
85.26270320000012
 20
-44.45000000644936
 30
0.0
 11
185.987166179748
 21
-44.45000000644936
 31
0.0
  0
LINE
  5
BC8
  8
250
 62
     0
 10
185.924666179748
 20
41.44999999355073
 30
0.0
 11
185.924666179748
 21
-41.45000000644936
 31
0.0
  0
SOLID
  5
BC9
  8
250
 62
     0
 10
186.424666179748
 20
41.44999999355073
 30
0.0
 11
185.424666179748
 21
41.44999999355073
 31
0.0
 12
185.924666179748
 22
44.44999999355073
 32
0.0
 13
185.924666179748
 23
44.44999999355073
 33
0.0
  0
SOLID
  5
BCA
  8
250
 62
     0
 10
185.424666179748
 20
-41.45000000644936
 30
0.0
 11
186.424666179748
 21
-41.45000000644936
 31
0.0
 12
185.924666179748
 22
-44.45000000644936
 32
0.0
 13
185.924666179748
 23
-44.45000000644936
 33
0.0
  0
INSERT
  5
BCB
  8
250
 62
     0
  2
*X9
 10
0.0
 20
0.0
 30
0.0
  0
POINT
  5
BCC
  8
DEFPOINTS
 62
     0
 10
139.3717760753001
 20
44.44999999355073
 30
0.0
  0
POINT
  5
BCD
  8
DEFPOINTS
 62
     0
 10
85.20020320000012
 20
-44.45000000644936
 30
0.0
  0
POINT
  5
BCE
  8
DEFPOINTS
 62
     0
 10
185.924666179748
 20
-44.45000000644936
 30
0.0
  0
ENDBLK
  5
BCF
  8
0
  0
BLOCK
  8
0
  2
*D5
 70
     1
 10
0.0
 20
0.0
 30
0.0
  3
*D5
  1

  0
LINE
  5
BD6
  8
250
 62
     0
 10
82.55020320000014
 20
48.07098459595341
 30
0.0
 11
82.55020320000014
 21
56.38107548252227
 31
0.0
  0
LINE
  5
BD7
  8
250
 62
     0
 10
117.4752032000001
 20
48.07098459595341
 30
0.0
 11
117.4752032000001
 21
56.38107548252227
 31
0.0
  0
LINE
  5
BD8
  8
250
 62
     0
 10
85.55020320000014
 20
56.31857548252227
 30
0.0
 11
114.4752032000001
 21
56.31857548252227
 31
0.0
  0
SOLID
  5
BD9
  8
250
 62
     0
 10
85.55020320000014
 20
56.81857548252227
 30
0.0
 11
85.55020320000014
 21
55.81857548252227
 31
0.0
 12
82.55020320000014
 22
56.31857548252227
 32
0.0
 13
82.55020320000014
 23
56.31857548252227
 33
0.0
  0
SOLID
  5
BDA
  8
250
 62
     0
 10
114.4752032000001
 20
55.81857548252227
 30
0.0
 11
114.4752032000001
 21
56.81857548252227
 31
0.0
 12
117.4752032000001
 22
56.31857548252227
 32
0.0
 13
117.4752032000001
 23
56.31857548252227
 33
0.0
  0
TEXT
  5
BDB
  8
250
  6
CONTINUOUS
 62
     0
 10
95.08189962857155
 20
57.31857548252227
 30
0.0
 40
3.0
  1
34.9
  7
STYLE1
  0
POINT
  5
BDC
  8
DEFPOINTS
 62
     0
 10
82.55020320000014
 20
48.00848459595341
 30
0.0
  0
POINT
  5
BDD
  8
DEFPOINTS
 62
     0
 10
117.4752032000001
 20
48.00848459595341
 30
0.0
  0
POINT
  5
BDE
  8
DEFPOINTS
 62
     0
 10
117.4752032000001
 20
56.31857548252227
 30
0.0
  0
ENDBLK
  5
BDF
  8
0
  0
BLOCK
  8
0
  2
*D7
 70
     1
 10
0.0
 20
0.0
 30
0.0
  3
*D7
  1

  0
LINE
  5
D8B
  8
250
 62
     0
 10
117.4752032000001
 20
48.07098459595341
 30
0.0
 11
117.4752032000001
 21
56.38107548252227
 31
0.0
  0
LINE
  5
D8C
  8
250
 62
     0
 10
152.4002032
 20
31.48407286875081
 30
0.0
 11
152.4002032
 21
56.38107548252227
 31
0.0
  0
LINE
  5
D8D
  8
250
 62
     0
 10
120.4752032000001
 20
56.31857548252227
 30
0.0
 11
149.4002032
 21
56.31857548252227
 31
0.0
  0
SOLID
  5
D8E
  8
250
 62
     0
 10
120.4752032000001
 20
56.81857548252227
 30
0.0
 11
120.4752032000001
 21
55.81857548252227
 31
0.0
 12
117.4752032000001
 22
56.31857548252227
 32
0.0
 13
117.4752032000001
 23
56.31857548252227
 33
0.0
  0
SOLID
  5
D8F
  8
250
 62
     0
 10
149.4002032
 20
55.81857548252227
 30
0.0
 11
149.4002032
 21
56.81857548252227
 31
0.0
 12
152.4002032
 22
56.31857548252227
 32
0.0
 13
152.4002032
 23
56.31857548252227
 33
0.0
  0
TEXT
  5
D90
  8
250
  6
CONTINUOUS
 62
     0
 10
130.0068996285715
 20
57.31857548252227
 30
0.0
 40
3.0
  1
34.9
  7
STYLE1
  0
POINT
  5
D91
  8
DEFPOINTS
 62
     0
 10
117.4752032000001
 20
48.00848459595341
 30
0.0
  0
POINT
  5
D92
  8
DEFPOINTS
 62
     0
 10
152.4002032
 20
31.42157286875081
 30
0.0
  0
POINT
  5
D93
  8
DEFPOINTS
 62
     0
 10
152.4002032
 20
56.31857548252227
 30
0.0
  0
ENDBLK
  5
D95
  8
0
  0
BLOCK
  8
0
  2
*X8
 70
     1
 10
0.0
 20
0.0
 30
0.0
  3
*X8
  1

  0
TEXT
  5
DB5
  8
250
  6
CONTINUOUS
 62
     0
 10
168.6460929744135
 20
-6.437500006449199
 30
0.0
 40
3.0
  1
ø
 50
90.0
  7
STYLE1
  0
TEXT
  5
DB6
  8
250
  6
CONTINUOUS
 62
     0
 10
168.6460929744135
 20
-3.580357149306337
 30
0.0
 40
3.0
  1
50.8
 50
90.0
  7
STYLE1
  0
ENDBLK
  5
DBB
  8
0
  0
BLOCK
  8
0
  2
*X9
 70
     1
 10
0.0
 20
0.0
 30
0.0
  3
*X9
  1

  0
TEXT
  5
DB8
  8
250
  6
CONTINUOUS
 62
     0
 10
184.924666179748
 20
-6.359375006449312
 30
0.0
 40
3.0
  1
ø
 50
90.0
  7
STYLE1
  0
TEXT
  5
DB9
  8
250
  6
CONTINUOUS
 62
     0
 10
184.924666179748
 20
-3.502232149306451
 30
0.0
 40
3.0
  1
88.9
 50
90.0
  7
STYLE1
  0
ENDBLK
  5
DBD
  8
0
  0
ENDSEC
  0
SECTION
  2
ENTITIES
  0
LINE
  5
5EF
  8
245
 10
-103.1872936249994
 20
0.0
 30
0.0
 11
156.1659165563894
 21
0.0
 31
0.0
  0
LINE
  5
5F0
  8
240
 10
0.0
 20
34.92493014999934
 30
0.0
 11
0.9920010159998238
 21
34.92493014999934
 31
0.0
  0
LINE
  5
5F1
  8
240
 10
9.216371567220095
 20
45.64370871240013
 30
0.0
 11
13.05176389641919
 21
45.64370871240013
 31
0.0
  0
LINE
  5
5F5
  8
240
 10
0.0
 20
0.0
 30
0.0
 11
0.0
 21
34.92493014999934
 31
0.0
  0
LINE
  5
5F6
  8
240
 10
-101.5997967999994
 20
-17.4725574493732
 30
0.0
 11
-101.5997968000005
 21
17.47255744937464
 31
0.0
  0
LINE
  5
5F8
  8
240
 10
0.0
 20
34.92493014999934
 30
0.0
 11
-98.99164942634327
 21
20.48864794346751
 31
0.0
  0
ARC
  5
5F9
  8
240
 10
-98.55180289599939
 20
17.47255744937464
 30
0.0
 40
3.047993904
 50
98.29714496899925
 51
180.0
  0
LINE
  5
5FD
  8
240
 10
13.05176389641919
 20
46.42653098043366
 30
0.0
 11
14.66018703411996
 21
49.21240157499987
 31
0.0
  0
LINE
  5
5FE
  8
240
 10
9.216371567220095
 20
46.42653098042792
 30
0.0
 11
7.607948429516433
 21
49.21240157499987
 31
0.0
  0
LINE
  5
5FF
  8
240
 10
14.66018703411996
 20
49.21240157499987
 30
0.0
 11
18.28796342400056
 21
49.21240157499987
 31
0.0
  0
LINE
  5
600
  8
240
 10
2.261998475999548
 20
49.21240157499987
 30
0.0
 11
7.607948429516433
 21
49.21240157499987
 31
0.0
  0
LINE
  5
601
  8
240
 10
13.05176389641919
 20
46.42653098043366
 30
0.0
 11
13.05176389641919
 21
45.64370871240013
 31
0.0
  0
LINE
  5
602
  8
240
 10
9.216371567220095
 20
46.42653098042792
 30
0.0
 11
9.216371567220095
 21
45.64370871240013
 31
0.0
  0
LINE
  5
603
  8
240
 10
18.28796342400056
 20
49.21240157499987
 30
0.0
 11
19.0499619000001
 21
48.45040309900033
 31
0.0
  0
LINE
  5
604
  8
240
 10
1.5
 20
48.45040309900033
 30
0.0
 11
2.261998475999542
 21
49.21240157499987
 31
0.0
  0
LINE
  5
605
  8
240
 10
9.216371567220095
 20
45.64370871240013
 30
0.0
 11
9.216371567220095
 21
0.0
 31
0.0
  0
LINE
  5
606
  8
240
 10
13.05176389641919
 20
45.64370871240013
 30
0.0
 11
13.05176389641919
 21
0.0
 31
0.0
  0
LINE
  5
607
  8
240
 10
13.05176389641919
 20
-45.64370871240013
 30
0.0
 11
13.05176389641919
 21
0.0
 31
0.0
  0
LINE
  5
608
  8
240
 10
9.216371567220095
 20
-45.64370871240013
 30
0.0
 11
9.216371567220095
 21
0.0
 31
0.0
  0
LINE
  5
609
  8
240
 10
1.5
 20
-48.45040309900034
 30
0.0
 11
2.261998475999542
 21
-49.21240157499988
 31
0.0
  0
LINE
  5
60A
  8
240
 10
18.28796342400056
 20
-49.21240157499987
 30
0.0
 11
19.0499619000001
 21
-48.45040309900033
 31
0.0
  0
LINE
  5
60B
  8
240
 10
9.216371567220095
 20
-46.42653098042792
 30
0.0
 11
9.216371567220095
 21
-45.64370871240013
 31
0.0
  0
LINE
  5
60C
  8
240
 10
13.05176389641919
 20
-46.42653098043366
 30
0.0
 11
13.05176389641919
 21
-45.64370871240013
 31
0.0
  0
LINE
  5
60D
  8
240
 10
2.261998475999535
 20
-49.21240157499987
 30
0.0
 11
7.607948429516433
 21
-49.21240157499987
 31
0.0
  0
LINE
  5
60E
  8
240
 10
14.66018703411996
 20
-49.21240157499987
 30
0.0
 11
18.28796342400056
 21
-49.21240157499987
 31
0.0
  0
LINE
  5
60F
  8
240
 10
9.216371567220095
 20
-46.42653098042792
 30
0.0
 11
7.607948429516433
 21
-49.21240157499987
 31
0.0
  0
LINE
  5
610
  8
240
 10
13.05176389641919
 20
-46.42653098043366
 30
0.0
 11
14.66018703411996
 21
-49.21240157499987
 31
0.0
  0
ARC
  5
614
  8
240
 10
-98.55180289599939
 20
-17.4725574493732
 30
0.0
 40
3.047993904
 50
180.0
 51
261.7028550310008
  0
LINE
  5
615
  8
240
 10
0.0
 20
-34.92493014999934
 30
0.0
 11
-98.99164942634327
 21
-20.48864794346751
 31
0.0
  0
LINE
  5
618
  8
240
 10
0.0
 20
0.0
 30
0.0
 11
0.0
 21
-34.92493014999934
 31
0.0
  0
LINE
  5
61C
  8
240
 10
9.216371567220095
 20
-45.64370871240013
 30
0.0
 11
13.05176389641919
 21
-45.64370871240013
 31
0.0
  0
LINE
  5
61D
  8
240
 10
0.0
 20
-34.92493014999934
 30
0.0
 11
0.9920010159998238
 21
-34.92493014999934
 31
0.0
  0
LINE
  5
61E
  8
240
 10
19.81196037599964
 20
34.92493014999934
 30
0.0
 11
33.05020320000014
 21
34.92499999355064
 31
0.0
  0
LINE
  5
61F
  8
240
 10
33.05020320000014
 20
-34.92500000644927
 30
0.0
 11
19.81196037599964
 21
-34.92493014999934
 31
0.0
  0
LINE
  5
620
  8
240
 10
19.0499619000001
 20
0.0
 30
0.0
 11
19.0499619000001
 21
48.45040309900033
 31
0.0
  0
LINE
  5
621
  8
240
 10
19.0499619000001
 20
0.0
 30
0.0
 11
19.0499619000001
 21
-48.45040309900033
 31
0.0
  0
ARC
  5
622
  8
240
 10
19.81196037599964
 20
35.68692862600035
 30
0.0
 40
0.7619984759999999
 50
180.0
 51
270.0
  0
ARC
  5
623
  8
240
 10
19.81196037599964
 20
-35.68692862600035
 30
0.0
 40
0.7619984759999999
 50
90.0
 51
180.0
  0
LINE
  5
624
  8
240
 10
1.5
 20
-0.0000000000000071
 30
0.0
 11
1.5
 21
48.45040309900033
 31
0.0
  0
LINE
  5
625
  8
240
 10
1.5
 20
-0.0000000000000071
 30
0.0
 11
1.5
 21
-48.45040309900034
 31
0.0
  0
ARC
  5
626
  8
240
 10
0.9920010159998238
 20
35.43292913399959
 30
0.0
 40
0.507998984
 50
270.0
 51
0.0
  0
ARC
  5
627
  8
240
 10
0.9920010159998238
 20
-35.4329291339996
 30
0.0
 40
0.507998984
 50
0.0
 51
90.0
  0
LINE
  5
628
  8
240
 10
7.607948429516433
 20
-49.21240157499987
 30
0.0
 11
7.607948429516433
 21
0.0
 31
0.0
  0
LINE
  5
629
  8
240
 10
7.607948429516433
 20
0.0
 30
0.0
 11
7.607948429516433
 21
49.21240157499987
 31
0.0
  0
LINE
  5
62A
  8
240
 10
14.66018703411996
 20
-49.21240157499987
 30
0.0
 11
14.66018703411996
 21
0.0
 31
0.0
  0
LINE
  5
62B
  8
240
 10
14.66018703411996
 20
0.0
 30
0.0
 11
14.66018703411996
 21
49.21240157499987
 31
0.0
  0
LINE
  5
632
  8
243
 10
1.499999999999324
 20
-35.29992940000001
 30
0.0
 11
19.0499619000001
 21
-35.29992940000001
 31
0.0
  0
LINE
  5
633
  8
243
 10
20.62495875000007
 20
28.32494334999997
 30
0.0
 11
26.97494605000005
 21
24.65877647299432
 31
0.0
  0
LINE
  5
634
  8
243
 10
33.32493335000002
 20
28.32494334999997
 30
0.0
 11
26.97494605000005
 21
24.65877647299432
 31
0.0
  0
LINE
  5
635
  8
243
 10
33.32493335000002
 20
34.92493015
 30
0.0
 11
33.32493335000002
 21
28.32494334999997
 31
0.0
  0
LINE
  5
636
  8
243
 10
20.62495875000007
 20
28.32494334999997
 30
0.0
 11
33.32493335000002
 21
28.32494334999997
 31
0.0
  0
LINE
  5
637
  8
243
 10
20.62495875000007
 20
34.92493015
 30
0.0
 11
20.62495875000007
 21
28.32494334999997
 31
0.0
  0
LINE
  5
638
  8
243
 10
15.88405823181989
 20
37.71992456
 30
0.0
 11
15.88405823181989
 21
37.35675021959113
 31
0.0
  0
LINE
  5
639
  8
243
 10
6.384077231819894
 20
37.35675021959113
 30
0.0
 11
15.88405823181989
 21
37.35675021959113
 31
0.0
  0
LINE
  5
63A
  8
243
 10
6.384077231819894
 20
37.71992456
 30
0.0
 11
6.384077231819894
 21
37.35675021959113
 31
0.0
  0
LINE
  5
63B
  8
243
 10
1.5
 20
37.71992456
 30
0.0
 11
19.04996190000006
 21
37.71992456
 31
0.0
  0
LINE
  5
63C
  8
243
 10
6.384077231819894
 20
37.35675021959113
 30
0.0
 11
11.13406773181989
 21
34.61434192576791
 31
0.0
  0
LINE
  5
63D
  8
243
 10
15.88405823181989
 20
37.35675021959113
 30
0.0
 11
11.13406773181989
 21
34.61434192576791
 31
0.0
  0
DIMENSION
  5
64C
  8
250
  2
*D0
 10
152.4002032
 20
79.34389126938463
 30
0.0
 11
76.20010160000002
 21
79.34389126938463
 31
0.0
 70
   160
  3
STANDARD
 13
0.0
 23
34.92493014999934
 33
0.0
 14
152.4002032
 24
31.42157286875081
 34
0.0
1001
ACAD
1000
DSTYLE
1002
{
1070
   271
1070
     1
1070
   147
1040
1.0
1070
   140
1040
3.0
1070
    41
1040
3.0
1002
}
  0
DIMENSION
  5
659
  8
250
  2
*D1
 10
152.4002032
 20
65.60832434648958
 30
0.0
 11
93.72495859996195
 21
65.60832434648958
 31
0.0
 70
   160
  3
STANDARD
 13
35.04971399992385
 23
34.42493114999987
 33
0.0
 14
152.4002032
 24
31.42157286875081
 34
0.0
1001
ACAD
1000
DSTYLE
1002
{
1070
   271
1070
     1
1070
   147
1040
1.0
1070
   140
1040
3.0
1070
    41
1040
3.0
1002
}
  0
DIMENSION
  5
666
  8
250
  2
*D2
 10
169.6460929744135
 20
-25.40000000644918
 30
0.0
 11
167.1460929744135
 21
-0.0000000064491985
 31
0.0
 70
    32
  1
%%C<>
  3
STANDARD
 13
150.4002032
 23
25.39999999355078
 33
0.0
 14
150.4002032
 24
-25.40000000644918
 34
0.0
 50
90.0
1001
ACAD
1000
DSTYLE
1002
{
1070
   271
1070
     1
1070
   147
1040
1.0
1070
   140
1040
3.0
1070
    41
1040
3.0
1002
}
  0
LINE
  5
878
  8
250
 10
-40.98454985924917
 20
42.63660592051905
 30
0.0
 11
-40.98454985924917
 21
43.79824181488539
 31
0.0
  0
LINE
  5
879
  8
250
 10
-45.20933583194427
 20
40.91207332203489
 30
0.0
 11
-47.47113307447266
 21
45.76251316142563
 31
0.0
  0
LINE
  5
87A
  8
250
 10
-46.53307402097406
 20
40.67233457397865
 30
0.0
 11
-48.79487126350153
 21
45.52277441336956
 31
0.0
  0
LINE
  5
87B
  8
250
 10
-40.14817201530553
 20
38.84967290488464
 30
0.0
 11
-40.14817201530553
 21
47.58517483051983
 31
0.0
  0
LINE
  5
87C
  8
250
 10
-44.33006123502429
 20
38.84967290488464
 30
0.0
 11
-44.33006123502429
 21
47.58517483051983
 31
0.0
  0
LINE
  5
87D
  8
250
 10
-51.20694572967301
 20
38.84967290488464
 30
0.0
 11
-51.20694572967301
 21
47.58517483051983
 31
0.0
  0
LINE
  5
87E
  8
250
 10
-49.90591352798267
 20
47.58517483051983
 30
0.0
 11
-49.90591352798267
 21
38.84967290488464
 31
0.0
  0
ARC
  5
87F
  8
250
 10
-37.03498781840312
 20
42.05578797333592
 30
0.0
 40
1.161635894366379
 50
0.0
 51
90.0
  0
LINE
  5
880
  8
250
 10
-68.68813234599291
 20
42.63660592051905
 30
0.0
 11
-68.68813234599291
 21
43.79824181488539
 31
0.0
  0
LINE
  5
881
  8
250
 10
-69.87940231861221
 20
42.63660592051905
 30
0.0
 11
-69.87940231861221
 21
45.11089037551955
 31
0.0
  0
LINE
  5
882
  8
250
 10
-57.99044412707373
 20
38.84967290488446
 30
0.0
 11
-59.86904592943599
 21
43.55650026447135
 31
0.0
  0
LINE
  5
883
  8
250
 10
-66.17196593635505
 20
41.32395735988511
 30
0.0
 11
-66.17196593635505
 21
43.79824181488539
 31
0.0
  0
LINE
  5
884
  8
250
 10
-71.27336539185181
 20
41.32395735988511
 30
0.0
 11
-71.27336539185181
 21
45.11089037551955
 31
0.0
  0
LINE
  5
885
  8
250
 10
-63.05680635137855
 20
47.58517483051983
 30
0.0
 11
-63.05680635137855
 21
38.84967290488464
 31
0.0
  0
LINE
  5
886
  8
250
 10
-73.54938979356538
 20
38.84967290488464
 30
0.0
 11
-73.54938979356538
 21
47.58517483051983
 31
0.0
  0
LINE
  5
887
  8
250
 10
-72.24835759187502
 20
47.58517483051983
 30
0.0
 11
-72.24835759187502
 21
38.84967290488464
 31
0.0
  0
LINE
  5
888
  8
250
 10
-79.62578144908575
 20
38.84967290488464
 30
0.0
 11
-79.62578144908575
 21
47.58517483051983
 31
0.0
  0
ARC
  5
889
  8
250
 10
-77.14562722529614
 20
41.32395735988511
 30
0.0
 40
2.621245231707499
 50
289.2767926682573
 51
46.2491597278179
  0
LINE
  5
88A
  8
250
 10
-56.16511479060268
 20
40.01130879925095
 30
0.0
 11
-55.14353049594484
 21
45.26690438498572
 31
0.0
  0
LINE
  5
88B
  8
250
 10
-57.57429181390515
 20
38.84967290488446
 30
0.0
 11
-55.87628224912718
 21
47.58517483051983
 31
0.0
  0
LINE
  5
88C
  8
250
 10
-53.11519181497703
 20
38.84967290488446
 30
0.0
 11
-55.14353049594484
 21
45.26690438498572
 31
0.0
  0
LINE
  5
88D
  8
250
 10
-54.06189942819167
 20
47.58517483051983
 30
0.0
 11
-51.7212287417371
 21
38.84967290488446
 31
0.0
  0
LINE
  5
88E
  8
250
 10
-59.57026894341178
 20
38.84967290488464
 30
0.0
 11
-57.99044412707373
 21
38.84967290488464
 31
0.0
  0
ARC
  5
88F
  8
250
 10
-68.6521201601443
 20
41.32395735988511
 30
0.0
 40
2.621245231707555
 50
180.0
 51
250.7232073317391
  0
LINE
  5
890
  8
250
 10
-76.63891576778735
 20
42.63660592051905
 30
0.0
 11
-78.23181837584617
 21
42.63660592051905
 31
0.0
  0
LINE
  5
891
  8
250
 10
-73.54938979356538
 20
38.84967290488464
 30
0.0
 11
-72.24835759187502
 21
38.84967290488464
 31
0.0
  0
LINE
  5
892
  8
250
 10
-77.86009488964886
 20
38.84967290488464
 30
0.0
 11
-76.28027007331079
 21
38.84967290488464
 31
0.0
  0
LINE
  5
893
  8
250
 10
-79.62578144908575
 20
38.84967290488464
 30
0.0
 11
-76.28027007331079
 21
38.84967290488464
 31
0.0
  0
LINE
  5
894
  8
250
 10
-78.23181837584617
 20
40.01130879925095
 30
0.0
 11
-76.63891576778735
 21
40.01130879925095
 31
0.0
  0
LINE
  5
895
  8
250
 10
-78.23181837584617
 20
40.01130879925095
 30
0.0
 11
-78.23181837584617
 21
42.63660592051905
 31
0.0
  0
ARC
  5
896
  8
250
 10
-77.3351335551783
 20
41.32395735988511
 30
0.0
 40
1.485855124571082
 50
297.941104069763
 51
62.05889593023716
  0
LINE
  5
897
  8
250
 10
-67.49686237337359
 20
42.63660592051905
 30
0.0
 11
-68.68813234599291
 21
42.63660592051905
 31
0.0
  0
LINE
  5
898
  8
250
 10
-59.57026894341178
 20
38.84967290488464
 30
0.0
 11
-60.72028066468059
 21
41.73102148376161
 31
0.0
  0
LINE
  5
899
  8
250
 10
-61.4769815350405
 20
40.10827123052004
 30
0.0
 11
-60.72028066468059
 21
41.73102148376161
 31
0.0
  0
LINE
  5
89A
  8
250
 10
-61.4769815350405
 20
38.84967290488464
 30
0.0
 11
-61.4769815350405
 21
40.10827123052004
 31
0.0
  0
LINE
  5
89B
  8
250
 10
-63.05680635137855
 20
38.84967290488464
 30
0.0
 11
-61.4769815350405
 21
38.84967290488464
 31
0.0
  0
ARC
  5
89C
  8
250
 10
-68.7932111680622
 20
41.32395735988511
 30
0.0
 40
2.621245231707499
 50
289.2767926682571
 51
0.0
  0
LINE
  5
89D
  8
250
 10
-69.50767883241491
 20
38.84967290488464
 30
0.0
 11
-67.92785401607651
 21
38.84967290488464
 31
0.0
  0
LINE
  5
89E
  8
250
 10
-69.51747731213032
 20
38.84967290488464
 30
0.0
 11
-67.92785401607651
 21
38.84967290488464
 31
0.0
  0
ARC
  5
89F
  8
250
 10
-68.39354719404146
 20
41.32395735988511
 30
0.0
 40
1.485855124571082
 50
180.0
 51
242.058895930237
  0
ARC
  5
8A0
  8
250
 10
-68.98271749794475
 20
41.32395735988511
 30
0.0
 40
1.485855124571082
 50
297.941104069763
 51
0.0
  0
LINE
  5
8A1
  8
250
 10
-69.08976498143238
 20
40.01130879925095
 30
0.0
 11
-68.28649971055378
 21
40.01130879925095
 31
0.0
  0
LINE
  5
8A2
  8
250
 10
-67.49686237337359
 20
41.32395735988511
 30
0.0
 11
-67.49686237337359
 21
42.63660592051905
 31
0.0
  0
LINE
  5
8A3
  8
250
 10
-69.87940231861221
 20
41.32395735988511
 30
0.0
 11
-69.87940231861221
 21
42.63660592051905
 31
0.0
  0
LINE
  5
8A4
  8
250
 10
-37.2091951882445
 20
38.84967290488464
 30
0.0
 11
-35.7287906286804
 21
38.84967290488464
 31
0.0
  0
LINE
  5
8A5
  8
250
 10
-48.97660481248997
 20
38.84967290488464
 30
0.0
 11
-46.52322980358765
 21
38.84967290488464
 31
0.0
  0
LINE
  5
8A6
  8
250
 10
-48.97660481248997
 20
40.01130879925095
 30
0.0
 11
-46.95419388367961
 21
40.01130879925095
 31
0.0
  0
LINE
  5
8A7
  8
250
 10
-48.97660481248997
 20
40.01130879925095
 30
0.0
 11
-48.97660481248997
 21
38.84967290488464
 31
0.0
  0
LINE
  5
8A8
  8
250
 10
-51.20694572967338
 20
38.84967290488464
 30
0.0
 11
-49.90591352798267
 21
38.84967290488464
 31
0.0
  0
LINE
  5
8A9
  8
250
 10
-54.22878043813056
 20
38.84967290488446
 30
0.0
 11
-54.54003983792504
 21
40.01130879925095
 31
0.0
  0
LINE
  5
8AA
  8
250
 10
-57.57429181390515
 20
38.84967290488446
 30
0.0
 11
-54.22878043813056
 21
38.84967290488446
 31
0.0
  0
LINE
  5
8AB
  8
250
 10
-56.16511479060268
 20
40.01130879925095
 30
0.0
 11
-54.54003983792504
 21
40.01130879925095
 31
0.0
  0
LINE
  5
8AC
  8
250
 10
-51.7212287417371
 20
38.84967290488446
 30
0.0
 11
-53.11519181497703
 21
38.84967290488446
 31
0.0
  0
LINE
  5
8AD
  8
250
 10
-38.10369284122039
 20
42.63660592051905
 30
0.0
 11
-38.75420894206575
 21
42.63660592051905
 31
0.0
  0
LINE
  5
8AE
  8
250
 10
-40.98454985924917
 20
42.63660592051905
 30
0.0
 11
-42.93609816178489
 21
42.63660592051905
 31
0.0
  0
LINE
  5
8AF
  8
250
 10
-37.26731499727656
 20
41.80022807657542
 30
0.0
 11
-37.26731499727656
 21
39.31083130293981
 31
0.0
  0
LINE
  5
8B0
  8
250
 10
-40.98454985924917
 20
38.84967290488464
 30
0.0
 11
-40.98454985924917
 21
40.01130879925095
 31
0.0
  0
LINE
  5
8B1
  8
250
 10
-40.14817201530553
 20
38.84967290488464
 30
0.0
 11
-38.75420894206575
 21
38.84967290488464
 31
0.0
  0
ARC
  5
8B2
  8
250
 10
-35.40869756629029
 20
39.31083130293981
 30
0.0
 40
1.858617430986207
 50
180.0
 51
194.3662353416887
  0
ARC
  5
8B3
  8
250
 10
-46.52322980358765
 20
40.29939450105415
 30
0.0
 40
1.449721596169241
 50
270.0
 51
24.99999999999852
  0
ARC
  5
8B4
  8
250
 10
-46.95419388367961
 20
40.47596315699766
 30
0.0
 40
0.4646543577465531
 50
270.0
 51
24.99999999999865
  0
LINE
  5
8B5
  8
250
 10
-44.33006123502429
 20
38.84967290488464
 30
0.0
 11
-40.98454985924917
 21
38.84967290488464
 31
0.0
  0
LINE
  5
8B6
  8
250
 10
-42.93609816178489
 20
40.01130879925095
 30
0.0
 11
-40.98454985924917
 21
40.01130879925095
 31
0.0
  0
LINE
  5
8B7
  8
250
 10
-42.93609816178489
 20
40.01130879925095
 30
0.0
 11
-42.93609816178489
 21
42.63660592051905
 31
0.0
  0
LINE
  5
8B8
  8
250
 10
-38.75420894206575
 20
38.84967290488464
 30
0.0
 11
-38.75420894206575
 21
42.63660592051905
 31
0.0
  0
ARC
  5
8B9
  8
250
 10
-38.10369284122039
 20
41.80022807657542
 30
0.0
 40
0.8363778439437937
 50
0.0
 51
90.0
  0
LINE
  5
8BA
  8
250
 10
-35.87335192403734
 20
39.39878400836511
 30
0.0
 11
-35.87335192403734
 21
42.05578797333592
 31
0.0
  0
ARC
  5
8BB
  8
250
 10
-34.75818146544563
 20
39.39878400836511
 30
0.0
 40
1.115170458591724
 50
180.0
 51
209.498518089503
  0
LINE
  5
8BC
  8
250
 10
-59.57026894341178
 20
47.58517483051983
 30
0.0
 11
-57.99044412707373
 21
47.58517483051983
 31
0.0
  0
LINE
  5
8BD
  8
250
 10
-59.86904592943599
 20
43.55650026447135
 30
0.0
 11
-57.99044412707373
 21
47.58517483051983
 31
0.0
  0
ARC
  5
8BE
  8
250
 10
-68.6521201601443
 20
45.11089037551955
 30
0.0
 40
2.621245231707555
 50
109.2767926682606
 51
180.0
  0
LINE
  5
8BF
  8
250
 10
-73.54938979356538
 20
47.58517483051983
 30
0.0
 11
-72.24835759187502
 21
47.58517483051983
 31
0.0
  0
ARC
  5
8C0
  8
250
 10
-77.3351335551783
 20
45.11089037551955
 30
0.0
 40
1.485855124571082
 50
297.9411040697628
 51
62.05889593023716
  0
LINE
  5
8C1
  8
250
 10
-78.23181837584617
 20
43.79824181488539
 30
0.0
 11
-78.23181837584617
 21
46.4235389361535
 31
0.0
  0
LINE
  5
8C2
  8
250
 10
-76.63891576778735
 20
43.79824181488539
 30
0.0
 11
-78.23181837584617
 21
43.79824181488539
 31
0.0
  0
LINE
  5
8C3
  8
250
 10
-78.23181837584617
 20
46.4235389361535
 30
0.0
 11
-76.63891576778735
 21
46.4235389361535
 31
0.0
  0
LINE
  5
8C4
  8
250
 10
-77.86009488964886
 20
47.58517483051983
 30
0.0
 11
-76.28027007331079
 21
47.58517483051983
 31
0.0
  0
LINE
  5
8C5
  8
250
 10
-79.62578144908575
 20
47.58517483051983
 30
0.0
 11
-76.28027007331079
 21
47.58517483051983
 31
0.0
  0
ARC
  5
8C6
  8
250
 10
-77.14562722529614
 20
45.11089037551955
 30
0.0
 40
2.621245231707555
 50
313.7508402721821
 51
70.72320733173908
  0
LINE
  5
8C7
  8
250
 10
-61.4769815350405
 20
43.49621648235012
 30
0.0
 11
-59.57026894341178
 21
47.58517483051983
 31
0.0
  0
LINE
  5
8C8
  8
250
 10
-61.4769815350405
 20
47.58517483051983
 30
0.0
 11
-61.4769815350405
 21
43.49621648235012
 31
0.0
  0
LINE
  5
8C9
  8
250
 10
-63.05680635137855
 20
47.58517483051983
 30
0.0
 11
-61.4769815350405
 21
47.58517483051983
 31
0.0
  0
ARC
  5
8CA
  8
250
 10
-68.98271749794475
 20
45.11089037551955
 30
0.0
 40
1.485855124571082
 50
0.0
 51
62.05889593023716
  0
ARC
  5
8CB
  8
250
 10
-68.39354719404146
 20
45.11089037551955
 30
0.0
 40
1.485855124571082
 50
117.9411040697629
 51
180.0
  0
ARC
  5
8CC
  8
250
 10
-68.79321116806256
 20
45.11089037551955
 30
0.0
 40
2.621245231707555
 50
0.0
 51
70.72320733173908
  0
LINE
  5
8CD
  8
250
 10
-66.17196593635505
 20
43.79824181488539
 30
0.0
 11
-68.68813234599291
 21
43.79824181488539
 31
0.0
  0
LINE
  5
8CE
  8
250
 10
-67.49686237337359
 20
45.11089037551955
 30
0.0
 11
-66.17196593635505
 21
45.11089037551955
 31
0.0
  0
LINE
  5
8CF
  8
250
 10
-69.08976498143238
 20
46.4235389361535
 30
0.0
 11
-68.28649971055378
 21
46.4235389361535
 31
0.0
  0
LINE
  5
8D0
  8
250
 10
-69.50767883241491
 20
47.58517483051983
 30
0.0
 11
-67.92785401607651
 21
47.58517483051983
 31
0.0
  0
LINE
  5
8D1
  8
250
 10
-69.51747731213032
 20
47.58517483051983
 30
0.0
 11
-67.92785401607651
 21
47.58517483051983
 31
0.0
  0
ARC
  5
8D2
  8
250
 10
-37.03498781840312
 20
44.37905976206874
 30
0.0
 40
1.161635894366379
 50
270.0
 51
0.0
  0
ARC
  5
8D3
  8
250
 10
-37.32307352020592
 20
46.13545323435071
 30
0.0
 40
1.449721596169241
 50
0.0
 51
90.0
  0
ARC
  5
8D4
  8
250
 10
-47.05001321176635
 20
45.95888457840697
 30
0.0
 40
0.4646543577465531
 50
90.0
 51
204.9999999999986
  0
LINE
  5
8D5
  8
250
 10
-45.44523169361602
 20
47.58517483051983
 30
0.0
 11
-47.48097729185795
 21
47.58517483051983
 31
0.0
  0
ARC
  5
8D6
  8
250
 10
-47.48097729185795
 20
46.13545323435071
 30
0.0
 40
1.449721596169241
 50
90.0
 51
204.9999999999984
  0
LINE
  5
8D7
  8
250
 10
-51.20694572967301
 20
47.58517483051983
 30
0.0
 11
-49.90591352798267
 21
47.58517483051983
 31
0.0
  0
LINE
  5
8D8
  8
250
 10
-55.87628224912718
 20
47.58517483051983
 30
0.0
 11
-54.06189942819167
 21
47.58517483051983
 31
0.0
  0
LINE
  5
8D9
  8
250
 10
-38.75420894206575
 20
43.79824181488539
 30
0.0
 11
-38.75420894206575
 21
46.4235389361535
 31
0.0
  0
LINE
  5
8DA
  8
250
 10
-37.26731499727656
 20
44.35582704418134
 30
0.0
 11
-37.26731499727656
 21
45.86595370685738
 31
0.0
  0
ARC
  5
8DB
  8
250
 10
-37.82490022657232
 20
44.35582704418134
 30
0.0
 40
0.5575852292958633
 50
270.0
 51
0.0
  0
LINE
  5
8DC
  8
250
 10
-37.82490022657232
 20
43.79824181488539
 30
0.0
 11
-38.75420894206575
 21
43.79824181488539
 31
0.0
  0
LINE
  5
8DD
  8
250
 10
-40.98454985924917
 20
46.4235389361535
 30
0.0
 11
-40.98454985924917
 21
47.58517483051983
 31
0.0
  0
ARC
  5
8DE
  8
250
 10
-37.82490022657232
 20
45.86595370685738
 30
0.0
 40
0.5575852292958633
 50
0.0
 51
90.0
  0
LINE
  5
8DF
  8
250
 10
-38.75420894206575
 20
46.4235389361535
 30
0.0
 11
-37.82490022657232
 21
46.4235389361535
 31
0.0
  0
LINE
  5
8E0
  8
250
 10
-40.14817201530553
 20
47.58517483051983
 30
0.0
 11
-37.32307352020592
 21
47.58517483051983
 31
0.0
  0
LINE
  5
8E1
  8
250
 10
-45.44523169361602
 20
47.58517483051983
 30
0.0
 11
-45.44523169361602
 21
46.4235389361535
 31
0.0
  0
LINE
  5
8E2
  8
250
 10
-45.44523169361602
 20
46.4235389361535
 30
0.0
 11
-47.05001321176635
 21
46.42353893615332
 31
0.0
  0
LINE
  5
8E3
  8
250
 10
-42.93609816178489
 20
43.79824181488539
 30
0.0
 11
-42.93609816178489
 21
46.4235389361535
 31
0.0
  0
LINE
  5
8E4
  8
250
 10
-44.33006123502429
 20
47.58517483051983
 30
0.0
 11
-40.98454985924917
 21
47.58517483051983
 31
0.0
  0
LINE
  5
8E5
  8
250
 10
-40.98454985924917
 20
43.79824181488539
 30
0.0
 11
-42.93609816178489
 21
43.79824181488539
 31
0.0
  0
LINE
  5
8E6
  8
250
 10
-42.93609816178489
 20
46.4235389361535
 30
0.0
 11
-40.98454985924917
 21
46.4235389361535
 31
0.0
  0
LINE
  5
8E7
  8
250
 10
-35.87335192403734
 20
46.13545323435071
 30
0.0
 11
-35.87335192403734
 21
44.37905976206874
 31
0.0
  0
DIMENSION
  5
BC0
  8
250
  2
*D4
 10
185.924666179748
 20
-44.45000000644936
 30
0.0
 11
183.424666179748
 21
-0.0000000064493193
 31
0.0
 70
    32
  1
%%C<>
  3
STANDARD
 13
139.3717760753001
 23
44.44999999355073
 33
0.0
 14
85.20020320000012
 24
-44.45000000644936
 34
0.0
 50
90.0
1001
ACAD
1000
DSTYLE
1002
{
1070
   271
1070
     1
1070
   147
1040
1.0
1070
   140
1040
3.0
1070
    41
1040
3.0
1002
}
  0
DIMENSION
  5
BD0
  8
250
  2
*D5
 10
117.4752032000001
 20
56.31857548252227
 30
0.0
 11
100.0127032000001
 21
58.81857548252227
 31
0.0
 70
    32
  3
STANDARD
 13
82.55020320000014
 23
48.00848459595341
 33
0.0
 14
117.4752032000001
 24
48.00848459595341
 34
0.0
1001
ACAD
1000
DSTYLE
1002
{
1070
   271
1070
     1
1070
   147
1040
1.0
1070
   140
1040
3.0
1070
    41
1040
3.0
1002
}
  0
LINE
  5
CC7
  8
240
 10
129.7475912892001
 20
44.24388190435084
 30
0.0
 11
128.9064732000001
 21
45.08499999355072
 31
0.0
  0
LINE
  5
CC9
  8
240
 10
106.0439332000001
 20
45.08499999355072
 30
0.0
 11
105.2029384257001
 21
44.24400521925068
 31
0.0
  0
LINE
  5
CCA
  8
240
 10
94.82259128920006
 20
44.24388190435084
 30
0.0
 11
93.98147320000007
 21
45.08499999355072
 31
0.0
  0
LINE
  5
CCB
  8
240
 10
71.1189332000001
 20
45.08499999355072
 30
0.0
 11
70.27793842570006
 21
44.24400521925068
 31
0.0
  0
ARC
  5
CCC
  8
240
 10
37.05020320000014
 20
42.44999999355002
 30
0.0
 40
2.0
 50
90.0
 51
180.0
  0
ARC
  5
CCD
  8
240
 10
37.05020320000014
 20
-42.45000000644936
 30
0.0
 40
2.0
 50
180.0
 51
270.0
  0
ARC
  5
CCE
  8
240
 10
139.3717760753001
 20
42.44999999355073
 30
0.0
 40
2.000000000000016
 50
45.0
 51
90.0
  0
LINE
  5
CCF
  8
240
 10
37.05020320000014
 20
-44.45000000644936
 30
0.0
 11
85.20020320000012
 21
-44.45000000644936
 31
0.0
  0
LINE
  5
CD0
  8
240
 10
69.55020320000014
 20
44.44999999355073
 30
0.0
 11
37.05020320000014
 21
44.44999999355073
 31
0.0
  0
LINE
  5
CD1
  8
240
 10
104.4752032000001
 20
44.44999999355073
 30
0.0
 11
95.55020320000014
 21
44.44999999355073
 31
0.0
  0
LINE
  5
CD2
  8
240
 10
139.3717760753001
 20
44.44999999355073
 30
0.0
 11
130.4752032000001
 21
44.44999999355073
 31
0.0
  0
LINE
  5
CD3
  8
240
 10
143.9002032
 20
-40.75000000644931
 30
0.0
 11
151.8144167624001
 21
-32.83578644414919
 31
0.0
  0
LINE
  5
CD4
  8
240
 10
151.8144167624001
 20
32.83578643115075
 30
0.0
 11
140.7859896376001
 21
43.86421355585085
 31
0.0
  0
ARC
  5
CD5
  8
240
 10
33.05020320000014
 20
36.92499999355064
 30
0.0
 40
2.0
 50
270.0
 51
0.0
  0
ARC
  5
CD6
  8
240
 10
33.05020320000014
 20
-36.92500000644927
 30
0.0
 40
2.0
 50
0.0
 51
90.0
  0
ARC
  5
CE4
  8
240
 10
150.4002032
 20
-31.42157288174926
 30
0.0
 40
2.0
 50
315.0
 51
0.0
  0
ARC
  5
CE5
  8
240
 10
150.4002032
 20
31.42157286875081
 30
0.0
 40
2.0
 50
0.0
 51
45.0
  0
LINE
  5
CE8
  8
240
 10
117.4752032000001
 20
43.81626999355072
 30
0.0
 11
128.2124923029001
 21
43.81626999355072
 31
0.0
  0
LINE
  5
CE9
  8
240
 10
106.7324835010001
 20
43.81626999355072
 30
0.0
 11
117.4752032000001
 21
43.81626999355072
 31
0.0
  0
LINE
  5
CEA
  8
240
 10
117.4752032000001
 20
45.08499999355072
 30
0.0
 11
128.9064732000001
 21
45.08499999355072
 31
0.0
  0
LINE
  5
CEB
  8
240
 10
106.0439332000001
 20
45.08499999355072
 30
0.0
 11
117.4752032000001
 21
45.08499999355072
 31
0.0
  0
LINE
  5
CEC
  8
240
 10
82.55020320000014
 20
43.81626999355072
 30
0.0
 11
93.28749230290006
 21
43.81626999355072
 31
0.0
  0
LINE
  5
CED
  8
240
 10
71.80748350100006
 20
43.81626999355072
 30
0.0
 11
82.55020320000014
 21
43.81626999355072
 31
0.0
  0
LINE
  5
CEE
  8
240
 10
82.55020320000014
 20
45.08499999355072
 30
0.0
 11
93.98147320000007
 21
45.08499999355072
 31
0.0
  0
LINE
  5
CEF
  8
240
 10
71.1189332000001
 20
45.08499999355072
 30
0.0
 11
82.55020320000014
 21
45.08499999355072
 31
0.0
  0
LINE
  5
D0E
  8
240
 10
35.05020320000014
 20
-42.45000000644936
 30
0.0
 11
35.05020320000014
 21
42.44999999355073
 31
0.0
  0
LINE
  5
D0F
  8
240
 10
139.3717760753001
 20
-40.75000000644931
 30
0.0
 11
140.7859896376001
 21
-40.75000000644931
 31
0.0
  0
LINE
  5
D10
  8
240
 10
88.90020320000005
 20
-40.75000000644931
 30
0.0
 11
139.3717760753001
 21
-40.75000000644931
 31
0.0
  0
LINE
  5
D11
  8
240
 10
85.20020320000012
 20
-44.45000000644936
 30
0.0
 11
88.90020320000005
 21
-40.75000000644931
 31
0.0
  0
ARC
  5
D12
  8
240
 10
82.55020320000014
 20
87.65104325235066
 30
0.0
 40
45.11463330948284
 50
253.2524787389
 51
286.7475212611999
  0
ARC
  5
D13
  8
240
 10
117.4752032000001
 20
87.65104325235066
 30
0.0
 40
45.11463330948197
 50
253.2524787389
 51
286.7475212611999
  0
LINE
  5
D14
  8
240
 10
140.7859896376001
 20
-40.75000000644931
 30
0.0
 11
143.8758445988001
 21
-40.75000000644931
 31
0.0
  0
LINE
  5
D18
  8
240
 10
152.4002032
 20
-0.0000000064493122
 30
0.0
 11
152.4002032
 21
31.42157286875081
 31
0.0
  0
LINE
  5
D19
  8
240
 10
152.4002032
 20
-31.42157288174926
 30
0.0
 11
152.4002032
 21
-0.0000000064493122
 31
0.0
  0
LINE
  5
D1B
  8
243
 10
128.2124923029001
 20
43.81626999355072
 30
0.0
 11
130.1752032000001
 21
43.81626999355072
 31
0.0
  0
LINE
  5
D1E
  8
243
 10
104.7752032
 20
43.81626999355072
 30
0.0
 11
106.7324835010001
 21
43.81626999355072
 31
0.0
  0
LINE
  5
D1F
  8
243
 10
117.4752032000001
 20
26.64459999355077
 30
0.0
 11
130.1752032000001
 21
26.64459999355077
 31
0.0
  0
LINE
  5
D20
  8
243
 10
104.7752032
 20
26.64459999355077
 30
0.0
 11
117.4752032000001
 21
26.64459999355077
 31
0.0
  0
LINE
  5
D21
  8
243
 10
117.4752032000001
 20
22.85999999355082
 30
0.0
 11
126.3906032000001
 21
22.85999999355082
 31
0.0
  0
LINE
  5
D22
  8
243
 10
108.5598032000001
 20
22.85999999355082
 30
0.0
 11
117.4752032000001
 21
22.85999999355082
 31
0.0
  0
LINE
  5
D23
  8
243
 10
117.4752032000001
 20
30.81019999355081
 30
0.0
 11
117.4752032000001
 21
45.08499999355072
 31
0.0
  0
LINE
  5
D24
  8
243
 10
110.3314532000001
 20
30.81019999355081
 30
0.0
 11
117.4752032000001
 21
30.81019999355081
 31
0.0
  0
LINE
  5
D25
  8
243
 10
124.6189532
 20
30.81019999355081
 30
0.0
 11
117.4752032000001
 21
30.81019999355081
 31
0.0
  0
LINE
  5
D26
  8
243
 10
110.3314532000001
 20
30.81019999355081
 30
0.0
 11
110.3314532000001
 21
45.08499999355072
 31
0.0
  0
LINE
  5
D27
  8
243
 10
124.6189532
 20
30.81019999355081
 30
0.0
 11
124.6189532
 21
45.08499999355072
 31
0.0
  0
LINE
  5
D28
  8
243
 10
93.28749230290006
 20
43.81626999355072
 30
0.0
 11
95.25020320000007
 21
43.81626999355072
 31
0.0
  0
LINE
  5
D29
  8
243
 10
69.8502032000001
 20
43.81626999355072
 30
0.0
 11
71.80748350100006
 21
43.81626999355072
 31
0.0
  0
LINE
  5
D2A
  8
243
 10
82.55020320000014
 20
26.64459999355077
 30
0.0
 11
95.25020320000007
 21
26.64459999355077
 31
0.0
  0
LINE
  5
D2B
  8
243
 10
69.8502032000001
 20
26.64459999355077
 30
0.0
 11
82.55020320000014
 21
26.64459999355077
 31
0.0
  0
LINE
  5
D2C
  8
243
 10
82.55020320000014
 20
22.85999999355082
 30
0.0
 11
91.46560320000012
 21
22.85999999355082
 31
0.0
  0
LINE
  5
D2D
  8
243
 10
73.63480320000005
 20
22.85999999355082
 30
0.0
 11
82.55020320000014
 21
22.85999999355082
 31
0.0
  0
LINE
  5
D2E
  8
243
 10
82.55020320000014
 20
30.81019999355081
 30
0.0
 11
82.55020320000014
 21
45.08499999355072
 31
0.0
  0
LINE
  5
D2F
  8
243
 10
89.6939532000001
 20
30.81019999355081
 30
0.0
 11
82.55020320000014
 21
30.81019999355081
 31
0.0
  0
LINE
  5
D30
  8
243
 10
75.40645320000007
 20
30.81019999355081
 30
0.0
 11
82.55020320000014
 21
30.81019999355081
 31
0.0
  0
LINE
  5
D31
  8
243
 10
75.40645320000007
 20
30.81019999355081
 30
0.0
 11
75.40645320000007
 21
45.08499999355072
 31
0.0
  0
LINE
  5
D32
  8
243
 10
89.6939532000001
 20
30.81019999355081
 30
0.0
 11
89.6939532000001
 21
45.08499999355072
 31
0.0
  0
LINE
  5
D34
  8
243
 10
42.40020320000005
 20
28.64999999355078
 30
0.0
 11
42.40020320000005
 21
-28.65000000644918
 31
0.0
  0
LINE
  5
D35
  8
243
 10
63.90020320000005
 20
28.64999999355078
 30
0.0
 11
63.90020320000005
 21
-28.65000000644918
 31
0.0
  0
LINE
  5
D36
  8
243
 10
150.4002032
 20
-0.0000000064493122
 30
0.0
 11
150.4002032
 21
-25.40000000644918
 31
0.0
  0
LINE
  5
D37
  8
243
 10
150.4002032
 20
25.39999999355078
 30
0.0
 11
150.4002032
 21
-0.0000000064493122
 31
0.0
  0
ARC
  5
D38
  8
243
 10
83.47093951050007
 20
51.5280181566508
 30
0.0
 40
29.10598079357291
 50
243.9407523027001
 51
268.1872073799
  0
LINE
  5
D39
  8
243
 10
82.24994038460008
 20
22.44892053065078
 30
0.0
 11
83.85321401240012
 21
22.47959474945074
 31
0.0
  0
POLYLINE
  5
D3A
  8
243
 66
     1
 10
0.0
 20
0.0
 30
0.0
  0
VERTEX
  5
D9C
  8
243
 10
94.45514930550016
 20
25.39939173665076
 30
0.0
  0
VERTEX
  5
D9D
  8
243
 10
94.45644174240007
 20
25.39999462275082
 30
0.0
  0
VERTEX
  5
D9E
  8
243
 10
94.29337120110014
 20
25.32396503925079
 30
0.0
  0
VERTEX
  5
D9F
  8
243
 10
93.86691076550014
 20
25.12904854415083
 30
0.0
  0
VERTEX
  5
DA0
  8
243
 10
93.17030292960007
 20
24.82312890995073
 30
0.0
  0
VERTEX
  5
DA1
  8
243
 10
92.21371460570012
 20
24.42917647625077
 30
0.0
  0
VERTEX
  5
DA2
  8
243
 10
91.00224001450007
 20
23.97578230085074
 30
0.0
  0
VERTEX
  5
DA3
  8
243
 10
89.49049583960013
 20
23.48550345545064
 30
0.0
  0
VERTEX
  5
DA4
  8
243
 10
87.72585297390012
 20
23.02582379025071
 30
0.0
  0
VERTEX
  5
DA5
  8
243
 10
85.82447068880012
 20
22.67425937555063
 30
0.0
  0
VERTEX
  5
DA6
  8
243
 10
83.73378352720007
 20
22.46780080555064
 30
0.0
  0
VERTEX
  5
DA7
  8
243
 10
82.55020320000014
 20
22.43660425835074
 30
0.0
  0
SEQEND
  5
DC1
  8
243
  0
ARC
  5
D3B
  8
243
 10
118.3959395105001
 20
51.5280181566508
 30
0.0
 40
29.10598079357287
 50
243.9407523026999
 51
268.1872073799
  0
LINE
  5
D3C
  8
243
 10
117.1749403846001
 20
22.44892053065078
 30
0.0
 11
118.7782140124001
 21
22.47959474945074
 31
0.0
  0
POLYLINE
  5
D3D
  8
243
 66
     1
 10
0.0
 20
0.0
 30
0.0
  0
VERTEX
  5
DA8
  8
243
 10
129.3801493055001
 20
25.39939173665076
 30
0.0
  0
VERTEX
  5
DA9
  8
243
 10
129.3814417424001
 20
25.39999462275082
 30
0.0
  0
VERTEX
  5
DAA
  8
243
 10
129.2183712011001
 20
25.32396503925079
 30
0.0
  0
VERTEX
  5
DAB
  8
243
 10
128.7919107655001
 20
25.12904854415083
 30
0.0
  0
VERTEX
  5
DAC
  8
243
 10
128.0953029296001
 20
24.82312890995073
 30
0.0
  0
VERTEX
  5
DAD
  8
243
 10
127.1387146057001
 20
24.42917647625077
 30
0.0
  0
VERTEX
  5
DAE
  8
243
 10
125.9272400145001
 20
23.97578230085074
 30
0.0
  0
VERTEX
  5
DAF
  8
243
 10
124.4154958396001
 20
23.48550345545064
 30
0.0
  0
VERTEX
  5
DB0
  8
243
 10
122.6508529739001
 20
23.02582379025071
 30
0.0
  0
VERTEX
  5
DB1
  8
243
 10
120.7494706888001
 20
22.67425937555063
 30
0.0
  0
VERTEX
  5
DB2
  8
243
 10
118.6587835272001
 20
22.46780080555064
 30
0.0
  0
VERTEX
  5
DB3
  8
243
 10
117.4752032000001
 20
22.43660425835074
 30
0.0
  0
SEQEND
  5
DC0
  8
243
  0
LINE
  5
D3E
  8
243
 10
33.80579333570014
 20
-10.84650000644919
 30
0.0
 11
33.80579333570014
 21
10.84649999355079
 31
0.0
  0
LINE
  5
D3F
  8
243
 10
-99.52133583089986
 20
-13.10000000644922
 30
0.0
 11
-99.52133583089986
 21
13.09999999355082
 31
0.0
  0
LINE
  5
D40
  8
243
 10
-95.24979679999993
 20
-0.0000000064493122
 30
0.0
 11
-95.24979679999993
 21
13.09999919355064
 31
0.0
  0
LINE
  5
D41
  8
243
 10
-95.24979679999993
 20
-13.09999920644927
 30
0.0
 11
-95.24979679999993
 21
-0.0000000064493122
 31
0.0
  0
LINE
  5
D42
  8
243
 10
-94.72953551599986
 20
-0.0000000064493122
 30
0.0
 11
-94.72953551599986
 21
10.84649999355079
 31
0.0
  0
LINE
  5
D43
  8
243
 10
-94.72953551599986
 20
-10.84650000644919
 30
0.0
 11
-94.72953551599986
 21
-0.0000000064493122
 31
0.0
  0
LINE
  5
D44
  8
243
 10
82.55020320000014
 20
42.44999999355073
 30
0.0
 11
95.55020320000014
 21
42.44999999355073
 31
0.0
  0
LINE
  5
D45
  8
243
 10
69.55020320000014
 20
42.44999999355073
 30
0.0
 11
82.55020320000014
 21
42.44999999355073
 31
0.0
  0
LINE
  5
D46
  8
243
 10
117.4752032000001
 20
42.44999999355073
 30
0.0
 11
130.4752032000001
 21
42.44999999355073
 31
0.0
  0
LINE
  5
D47
  8
243
 10
104.4752032000001
 20
42.44999999355073
 30
0.0
 11
117.4752032000001
 21
42.44999999355073
 31
0.0
  0
LINE
  5
D4E
  8
243
 10
82.55020320000014
 20
41.65624999355069
 30
0.0
 11
70.64395320000014
 21
41.65624999355069
 31
0.0
  0
LINE
  5
D4F
  8
243
 10
94.45645320000014
 20
41.65624999355069
 30
0.0
 11
82.55020320000014
 21
41.65624999355069
 31
0.0
  0
LINE
  5
D50
  8
243
 10
117.4752032000001
 20
41.65624999355069
 30
0.0
 11
105.5689532000001
 21
41.65624999355069
 31
0.0
  0
LINE
  5
D51
  8
243
 10
129.3814532000001
 20
41.65624999355069
 30
0.0
 11
117.4752032000001
 21
41.65624999355069
 31
0.0
  0
LINE
  5
D56
  8
243
 10
104.7752032
 20
43.81626999355072
 30
0.0
 11
104.7752032
 21
26.64459999355077
 31
0.0
  0
LINE
  5
D57
  8
243
 10
130.1752032000001
 20
26.64459999355077
 30
0.0
 11
130.1752032000001
 21
43.81626999355072
 31
0.0
  0
LINE
  5
D58
  8
243
 10
130.1752032000001
 20
43.81626999355072
 30
0.0
 11
129.7475912892001
 21
44.24388190435084
 31
0.0
  0
LINE
  5
D59
  8
243
 10
105.2029384257001
 20
44.24400521925068
 30
0.0
 11
104.7752032
 21
43.81626999355072
 31
0.0
  0
LINE
  5
D5A
  8
243
 10
104.7752032
 20
26.64459999355077
 30
0.0
 11
108.5598032000001
 21
22.85999999355082
 31
0.0
  0
LINE
  5
D5B
  8
243
 10
126.3906032000001
 20
22.85999999355082
 30
0.0
 11
130.1752032000001
 21
26.64459999355077
 31
0.0
  0
LINE
  5
D5C
  8
243
 10
69.8502032000001
 20
43.81626999355072
 30
0.0
 11
69.8502032000001
 21
26.64459999355077
 31
0.0
  0
LINE
  5
D5D
  8
243
 10
95.25020320000007
 20
26.64459999355077
 30
0.0
 11
95.25020320000007
 21
43.81626999355072
 31
0.0
  0
LINE
  5
D5E
  8
243
 10
95.25020320000007
 20
43.81626999355072
 30
0.0
 11
94.82259128920006
 21
44.24388190435084
 31
0.0
  0
LINE
  5
D5F
  8
243
 10
70.27793842570006
 20
44.24400521925068
 30
0.0
 11
69.8502032000001
 21
43.81626999355072
 31
0.0
  0
LINE
  5
D60
  8
243
 10
69.8502032000001
 20
26.64459999355077
 30
0.0
 11
73.63480320000005
 21
22.85999999355082
 31
0.0
  0
LINE
  5
D61
  8
243
 10
91.46560320000012
 20
22.85999999355082
 30
0.0
 11
95.25020320000007
 21
26.64459999355077
 31
0.0
  0
LINE
  5
D65
  8
243
 10
42.40020320000005
 20
-28.65000000644918
 30
0.0
 11
63.90020320000005
 21
-28.65000000644918
 31
0.0
  0
LINE
  5
D66
  8
243
 10
63.90020320000005
 20
28.64999999355078
 30
0.0
 11
42.40020320000005
 21
28.64999999355078
 31
0.0
  0
LINE
  5
D67
  8
243
 10
152.4002032
 20
26.55470053185073
 30
0.0
 11
150.4002032
 21
25.39999999355078
 31
0.0
  0
LINE
  5
D68
  8
243
 10
150.4002032
 20
-25.40000000644918
 30
0.0
 11
152.4002032
 21
-26.55470054484917
 31
0.0
  0
LINE
  5
D69
  8
243
 10
70.68467266330012
 20
25.39999999355078
 30
0.0
 11
63.90020320000005
 21
25.39999999355078
 31
0.0
  0
LINE
  5
D6A
  8
243
 10
105.6096726633001
 20
25.39999999355078
 30
0.0
 11
94.45514930550016
 21
25.39999999355078
 31
0.0
  0
LINE
  5
D6B
  8
243
 10
150.4002032
 20
25.39999999355078
 30
0.0
 11
129.3801493055001
 21
25.39999999355078
 31
0.0
  0
LINE
  5
D6C
  8
243
 10
63.90020320000005
 20
-25.40000000644918
 30
0.0
 11
150.4002032
 21
-25.40000000644918
 31
0.0
  0
LINE
  5
D6D
  8
243
 10
42.40020320000005
 20
25.14999999355078
 30
0.0
 11
33.80579333570014
 21
10.84649999355079
 31
0.0
  0
LINE
  5
D6E
  8
243
 10
33.80579333570014
 20
-10.84650000644919
 30
0.0
 11
42.40020320000005
 21
-25.15000000644918
 31
0.0
  0
LINE
  5
D6F
  8
243
 10
-101.5997968
 20
-14.30000000644927
 30
0.0
 11
-99.52133583089986
 21
-13.10000000644922
 31
0.0
  0
LINE
  5
D70
  8
243
 10
-99.52133583089986
 20
13.09999999355082
 30
0.0
 11
-101.5997968
 21
14.29999999355064
 31
0.0
  0
LINE
  5
D71
  8
243
 10
-99.52133583089986
 20
-13.10000000644922
 30
0.0
 11
-95.24979679999993
 21
-13.10000000644922
 31
0.0
  0
LINE
  5
D72
  8
243
 10
-95.24979679999993
 20
13.09999999355082
 30
0.0
 11
-99.52133583089986
 21
13.09999999355082
 31
0.0
  0
LINE
  5
D73
  8
243
 10
-95.24979679999993
 20
-13.09999920644927
 30
0.0
 11
-94.72953551599986
 21
-10.84650000644919
 31
0.0
  0
LINE
  5
D74
  8
243
 10
-94.72953551599986
 20
10.84649999355079
 30
0.0
 11
-95.24979679999993
 21
13.09999919355064
 31
0.0
  0
LINE
  5
D75
  8
243
 10
69.55020320000014
 20
44.44999999355073
 30
0.0
 11
69.55020320000014
 21
42.44999999355073
 31
0.0
  0
LINE
  5
D76
  8
243
 10
95.55020320000014
 20
42.44999999355073
 30
0.0
 11
95.55020320000014
 21
44.44999999355073
 31
0.0
  0
LINE
  5
D77
  8
243
 10
104.4752032000001
 20
44.44999999355073
 30
0.0
 11
104.4752032000001
 21
42.44999999355073
 31
0.0
  0
LINE
  5
D78
  8
243
 10
130.4752032000001
 20
42.44999999355073
 30
0.0
 11
130.4752032000001
 21
44.44999999355073
 31
0.0
  0
LINE
  5
D79
  8
243
 10
69.8502032000001
 20
42.44999999355073
 30
0.0
 11
70.64395320000014
 21
41.65624999355069
 31
0.0
  0
LINE
  5
D7A
  8
243
 10
94.45645320000014
 20
41.65624999355069
 30
0.0
 11
95.25020320000007
 21
42.44999999355073
 31
0.0
  0
LINE
  5
D7B
  8
243
 10
104.7752032
 20
42.44999999355073
 30
0.0
 11
105.5689532000001
 21
41.65624999355069
 31
0.0
  0
LINE
  5
D7C
  8
243
 10
129.3814532000001
 20
41.65624999355069
 30
0.0
 11
130.1752032000001
 21
42.44999999355073
 31
0.0
  0
LINE
  5
D7D
  8
243
 10
70.64395320000014
 20
41.65624999355069
 30
0.0
 11
70.64395320000014
 21
25.38094932995082
 31
0.0
  0
LINE
  5
D7E
  8
243
 10
94.45645320000014
 20
25.39939464025079
 30
0.0
 11
94.45645320000014
 21
41.65624999355069
 31
0.0
  0
LINE
  5
D7F
  8
243
 10
105.5689532000001
 20
41.65624999355069
 30
0.0
 11
105.5689532000001
 21
25.38094932995082
 31
0.0
  0
LINE
  5
D80
  8
243
 10
129.3814532000001
 20
25.39939464025079
 30
0.0
 11
129.3814532000001
 21
41.65624999355069
 31
0.0
  0
LINE
  5
D81
  8
243
 10
-94.72953551599986
 20
-10.84650000644919
 30
0.0
 11
33.80579333570014
 21
-10.84650000644919
 31
0.0
  0
LINE
  5
D82
  8
243
 10
33.80579333570014
 20
10.84649999355079
 30
0.0
 11
-94.72953551599986
 21
10.84649999355079
 31
0.0
  0
DIMENSION
  5
D89
  8
250
  2
*D7
 10
152.4002032
 20
56.31857548252227
 30
0.0
 11
134.9377032000001
 21
58.81857548252227
 31
0.0
 70
    32
  3
STANDARD
 13
117.4752032000001
 23
48.00848459595341
 33
0.0
 14
152.4002032
 24
31.42157286875081
 34
0.0
1001
ACAD
1000
DSTYLE
1002
{
1070
   271
1070
     1
1070
   147
1040
1.0
1070
   140
1040
3.0
1070
    41
1040
3.0
1002
}
  0
LINE
  5
D99
  8
245
 10
82.55020320000014
 20
48.00848459595341
 30
0.0
 11
82.55020320000014
 21
17.70128321789316
 31
0.0
  0
LINE
  5
D9A
  8
245
 10
117.4752032000001
 20
48.00848459595341
 30
0.0
 11
117.4752032000001
 21
17.70128321789316
 31
0.0
  0
ENDSEC
  0
EOF
