  0
SECTION
  2
HEADER
  9
$ACADVER
  1
AC1009
  9
$DWGCODEPAGE
  3
ansi_1252
  9
$INSBASE
 10
0.0
 20
0.0
 30
0.0
  9
$EXTMIN
 10
-68.25000000000003
 20
-48.27109509650273
 30
0.0
  9
$EXTMAX
 10
141.9525020780113
 20
50.83203563714093
 30
0.0
  9
$LIMMIN
 10
0.0
 20
0.0
  9
$LIMMAX
 10
420.0
 20
297.0
  9
$ORTHOMODE
 70
     1
  9
$REGENMODE
 70
     1
  9
$FILLMODE
 70
     1
  9
$QTEXTMODE
 70
     0
  9
$MIRRTEXT
 70
     0
  9
$DRAGMODE
 70
     2
  9
$LTSCALE
 40
1.0
  9
$OSMODE
 70
   279
  9
$ATTMODE
 70
     1
  9
$TEXTSIZE
 40
2.5
  9
$TRACEWID
 40
1.0
  9
$TEXTSTYLE
  7
STANDARD
  9
$CLAYER
  8
7
  9
$CELTYPE
  6
BYLAYER
  9
$CECOLOR
 62
   256
  9
$DIMSCALE
 40
1.0
  9
$DIMASZ
 40
2.5
  9
$DIMEXO
 40
0.625
  9
$DIMDLI
 40
3.75
  9
$DIMRND
 40
0.0
  9
$DIMDLE
 40
0.0
  9
$DIMEXE
 40
1.25
  9
$DIMTP
 40
0.0
  9
$DIMTM
 40
0.0
  9
$DIMTXT
 40
2.5
  9
$DIMCEN
 40
2.5
  9
$DIMTSZ
 40
0.0
  9
$DIMTOL
 70
     0
  9
$DIMLIM
 70
     0
  9
$DIMTIH
 70
     0
  9
$DIMTOH
 70
     0
  9
$DIMSE1
 70
     0
  9
$DIMSE2
 70
     0
  9
$DIMTAD
 70
     1
  9
$DIMZIN
 70
     8
  9
$DIMBLK
  1

  9
$DIMASO
 70
     1
  9
$DIMSHO
 70
     1
  9
$DIMPOST
  1

  9
$DIMAPOST
  1

  9
$DIMALT
 70
     0
  9
$DIMALTD
 70
     3
  9
$DIMALTF
 40
0.03937007874016
  9
$DIMLFAC
 40
1.0
  9
$DIMTOFL
 70
     1
  9
$DIMTVP
 40
0.0
  9
$DIMTIX
 70
     0
  9
$DIMSOXD
 70
     0
  9
$DIMSAH
 70
     0
  9
$DIMBLK1
  1

  9
$DIMBLK2
  1

  9
$DIMSTYLE
  2
ISO-25
  9
$DIMCLRD
 70
     0
  9
$DIMCLRE
 70
     0
  9
$DIMCLRT
 70
     0
  9
$DIMTFAC
 40
1.0
  9
$DIMGAP
 40
0.625
  9
$LUNITS
 70
     2
  9
$LUPREC
 70
     3
  9
$SKETCHINC
 40
1.0
  9
$FILLETRAD
 40
10.0
  9
$AUNITS
 70
     0
  9
$AUPREC
 70
     0
  9
$MENU
  1
.
  9
$ELEVATION
 40
0.0
  9
$PELEVATION
 40
0.0
  9
$THICKNESS
 40
0.0
  9
$LIMCHECK
 70
     0
  9
$CHAMFERA
 40
10.0
  9
$CHAMFERB
 40
10.0
  9
$SKPOLY
 70
     0
  9
$TDCREATE
 40
2455022.429026158
  9
$TDUPDATE
 40
2458696.404587697
  9
$TDINDWG
 40
0.001290463
  9
$TDUSRTIMER
 40
2458701.78935853
  9
$USRTIMER
 70
     1
  9
$ANGBASE
 50
0.0
  9
$ANGDIR
 70
     0
  9
$PDMODE
 70
     0
  9
$PDSIZE
 40
0.0
  9
$PLINEWID
 40
0.0
  9
$COORDS
 70
     1
  9
$SPLFRAME
 70
     0
  9
$SPLINETYPE
 70
     6
  9
$SPLINESEGS
 70
     8
  9
$ATTDIA
 70
     0
  9
$ATTREQ
 70
     1
  9
$HANDLING
 70
     1
  9
$HANDSEED
  5
2D9E
  9
$SURFTAB1
 70
     6
  9
$SURFTAB2
 70
     6
  9
$SURFTYPE
 70
     6
  9
$SURFU
 70
     6
  9
$SURFV
 70
     6
  9
$UCSNAME
  2

  9
$UCSORG
 10
0.0
 20
0.0
 30
0.0
  9
$UCSXDIR
 10
1.0
 20
0.0
 30
0.0
  9
$UCSYDIR
 10
0.0
 20
1.0
 30
0.0
  9
$PUCSNAME
  2

  9
$PUCSORG
 10
0.0
 20
0.0
 30
0.0
  9
$PUCSXDIR
 10
1.0
 20
0.0
 30
0.0
  9
$PUCSYDIR
 10
0.0
 20
1.0
 30
0.0
  9
$USERI1
 70
     0
  9
$USERI2
 70
     0
  9
$USERI3
 70
     0
  9
$USERI4
 70
     0
  9
$USERI5
 70
     0
  9
$USERR1
 40
0.0
  9
$USERR2
 40
0.0
  9
$USERR3
 40
0.0
  9
$USERR4
 40
0.0
  9
$USERR5
 40
0.0
  9
$WORLDVIEW
 70
     1
  9
$SHADEDGE
 70
     3
  9
$SHADEDIF
 70
    70
  9
$TILEMODE
 70
     1
  9
$MAXACTVP
 70
    64
  9
$PLIMCHECK
 70
     0
  9
$PEXTMIN
 10
1.000000000000000E+20
 20
1.000000000000000E+20
 30
1.000000000000000E+20
  9
$PEXTMAX
 10
-1.000000000000000E+20
 20
-1.000000000000000E+20
 30
-1.000000000000000E+20
  9
$PLIMMIN
 10
0.0
 20
0.0
  9
$PLIMMAX
 10
0.0
 20
0.0
  9
$UNITMODE
 70
     0
  9
$VISRETAIN
 70
     1
  9
$PLINEGEN
 70
     0
  9
$PSLTSCALE
 70
     1
  0
ENDSEC
  0
SECTION
  2
TABLES
  0
TABLE
  2
VPORT
 70
     1
  0
VPORT
  2
*ACTIVE
 70
     0
 10
0.0
 20
0.0
 11
1.0
 21
1.0
 12
169.339670188309
 22
5.464853180601473
 13
0.0
 23
0.0
 14
10.0
 24
10.0
 15
10.0
 25
10.0
 16
0.0
 26
0.0
 36
1.0
 17
-134.1869158878503
 27
0.0
 37
0.0
 40
158.2599708632831
 41
1.332880434782609
 42
50.0
 43
0.0
 44
0.0
 50
0.0
 51
0.0
 71
    16
 72
  1000
 73
     1
 74
     3
 75
     0
 76
     0
 77
     0
 78
     0
  0
ENDTAB
  0
TABLE
  2
LTYPE
 70
     6
  0
LTYPE
  2
CONTINUOUS
 70
     0
  3
Solid line
 72
    65
 73
     0
 40
0.0
  0
LTYPE
  2
CENTER
 70
     0
  3
 Center _____  _  _____  _  _____  _  _____  _ 
 72
    65
 73
     4
 40
50.8
 49
31.75
 49
-6.35
 49
6.35
 49
-6.35
  0
LTYPE
  2
DASHED
 70
     0
  3
Dashed __  __  __  __  __  __  __  __  __  __  
 72
    65
 73
     2
 40
19.05
 49
12.7
 49
-6.35
  0
LTYPE
  2
HIDDEN
 70
     0
  3
Hidden __ __ __ __ __ __ __ __ __ __ __ __ __ __
 72
    65
 73
     2
 40
1.905
 49
1.27
 49
-0.635
  0
LTYPE
  2
CENTERX2
 70
     0
  3
Center (2x) ________  __  ________  __  _____
 72
    65
 73
     4
 40
20.32
 49
12.7
 49
-2.54
 49
2.54
 49
-2.54
  0
LTYPE
  2
PHANTOM
 70
     0
  3
Phantom ______  __  __  ______  __  __  ______
 72
    65
 73
     6
 40
12.7
 49
6.35
 49
-1.27
 49
1.27
 49
-1.27
 49
1.27
 49
-1.27
  0
ENDTAB
  0
TABLE
  2
LAYER
 70
    26
  0
LAYER
  2
0
 70
     0
 62
     7
  6
CONTINUOUS
  0
LAYER
  2
1
 70
     0
 62
     4
  6
CONTINUOUS
  0
LAYER
  2
2
 70
     0
 62
     7
  6
CONTINUOUS
  0
LAYER
  2
3
 70
     0
 62
     1
  6
DASHED
  0
LAYER
  2
4
 70
     0
 62
     2
  6
CENTER
  0
LAYER
  2
6
 70
     0
 62
     5
  6
CONTINUOUS
  0
LAYER
  2
7
 70
     0
 62
     5
  6
CONTINUOUS
  0
LAYER
  2
11
 70
     0
 62
     4
  6
CONTINUOUS
  0
LAYER
  2
SK1
 70
     0
 62
     4
  6
CONTINUOUS
  0
LAYER
  2
SK2
 70
     0
 62
     7
  6
CONTINUOUS
  0
LAYER
  2
SK3
 70
     0
 62
     1
  6
DASHED
  0
LAYER
  2
SK4
 70
     0
 62
     2
  6
CENTER
  0
LAYER
  2
SK6
 70
     0
 62
     5
  6
CONTINUOUS
  0
LAYER
  2
SK7
 70
     0
 62
     5
  6
CONTINUOUS
  0
LAYER
  2
SK11
 70
     0
 62
     4
  6
CONTINUOUS
  0
LAYER
  2
CUT
 70
     0
 62
     1
  6
CONTINUOUS
  0
LAYER
  2
NOCUT
 70
     0
 62
     7
  6
CONTINUOUS
  0
LAYER
  2
SKVIEW1
 70
     0
 62
     4
  6
CONTINUOUS
  0
LAYER
  2
SKVIEW2
 70
     0
 62
     7
  6
CONTINUOUS
  0
LAYER
  2
SKVIEW3
 70
     0
 62
     1
  6
DASHED
  0
LAYER
  2
SKVIEW4
 70
     0
 62
     2
  6
CENTER
  0
LAYER
  2
SKVIEW6
 70
     0
 62
     5
  6
CONTINUOUS
  0
LAYER
  2
SKVIEW7
 70
     0
 62
     5
  6
CONTINUOUS
  0
LAYER
  2
SKVIEW11
 70
     0
 62
     4
  6
CONTINUOUS
  0
LAYER
  2
INFTOTAL
 70
     0
 62
     9
  6
CONTINUOUS
  0
LAYER
  2
DEFPOINTS
 70
     0
 62
     7
  6
CONTINUOUS
  0
ENDTAB
  0
TABLE
  2
STYLE
 70
     1
  0
STYLE
  2
STANDARD
 70
     0
 40
0.0
 41
1.0
 50
0.0
 71
     0
 42
2.5
  3
txt
  4

  0
ENDTAB
  0
TABLE
  2
VIEW
 70
     0
  0
ENDTAB
  0
TABLE
  2
UCS
 70
     0
  0
ENDTAB
  0
TABLE
  2
APPID
 70
     2
  0
APPID
  2
ACAD
 70
     0
  0
APPID
  2
ACAECLAYERSTANDARD
 70
     0
  0
ENDTAB
  0
TABLE
  2
DIMSTYLE
 70
     1
  0
DIMSTYLE
  2
ISO-25
 70
     0
  3

  4

  5

  6

  7

 40
1.0
 41
2.5
 42
0.625
 43
3.75
 44
1.25
 45
0.0
 46
0.0
 47
0.0
 48
0.0
140
2.5
141
2.5
142
0.0
143
0.03937007874016
144
1.0
145
0.0
146
1.0
147
0.625
 71
     0
 72
     0
 73
     0
 74
     0
 75
     0
 76
     0
 77
     1
 78
     8
170
     0
171
     3
172
     1
173
     0
174
     0
175
     0
176
     0
177
     0
178
     0
  0
ENDTAB
  0
ENDSEC
  0
SECTION
  2
BLOCKS
  0
BLOCK
  8
0
  2
$MODEL_SPACE
 70
     0
 10
0.0
 20
0.0
 30
0.0
  3
$MODEL_SPACE
  1

  0
ENDBLK
  5
21
  8
0
  0
BLOCK
 67
     1
  8
0
  2
$PAPER_SPACE
 70
     0
 10
0.0
 20
0.0
 30
0.0
  3
$PAPER_SPACE
  1

  0
ENDBLK
  5
1D
 67
     1
  8
0
  0
BLOCK
  8
0
  2
_FILLED
 70
     0
 10
0.0
 20
0.0
 30
0.0
  3
_FILLED
  1

  0
SOLID
  5
1C4
  8
0
  6
BYBLOCK
 62
     0
 10
0.0
 20
0.0
 30
0.0
 11
-1.0
 21
0.2142857143
 31
0.0
 12
-1.0
 22
-0.2142857143
 32
0.0
 13
-1.0
 23
-0.2142857143
 33
0.0
  0
ENDBLK
  5
1C5
  8
0
  6
BYBLOCK
 62
     0
  0
BLOCK
  8
0
  2
*D5
 70
     1
 10
0.0
 20
0.0
 30
0.0
  3
*D5
  1

  0
LINE
  5
1D3
  8
2
 62
     0
 10
0.0
 20
22.84999999999999
 30
0.0
 11
0.0
 21
57.32580145770567
 31
0.0
  0
LINE
  5
1D4
  8
2
 62
     0
 10
63.5
 20
45.67499999999998
 30
0.0
 11
63.5
 21
57.32580145770567
 31
0.0
  0
LINE
  5
1D5
  8
2
 62
     0
 10
2.5
 20
56.07580145770567
 30
0.0
 11
61.0
 21
56.07580145770567
 31
0.0
  0
SOLID
  5
1D6
  8
2
 62
     0
 10
2.5
 20
56.49246812437233
 30
0.0
 11
2.5
 21
55.659134791039
 31
0.0
 12
0.0
 22
56.07580145770567
 32
0.0
 13
0.0
 23
56.07580145770567
 33
0.0
  0
SOLID
  5
1D7
  8
2
 62
     0
 10
61.0
 20
55.659134791039
 30
0.0
 11
61.0
 21
56.49246812437233
 31
0.0
 12
63.5
 22
56.07580145770567
 32
0.0
 13
63.5
 23
56.07580145770567
 33
0.0
  0
TEXT
  5
1D8
  8
2
  6
CONTINUOUS
 62
     0
 10
28.0
 20
56.70080145770567
 30
0.0
 40
2.5
  1
63.5
  0
POINT
  5
1D9
  8
DEFPOINTS
 62
     0
 10
0.0
 20
22.22499999999999
 30
0.0
  0
POINT
  5
1DA
  8
DEFPOINTS
 62
     0
 10
63.5
 20
45.04999999999998
 30
0.0
  0
POINT
  5
1DB
  8
DEFPOINTS
 62
     0
 10
63.5
 20
56.07580145770567
 30
0.0
  0
ENDBLK
  5
1DD
  8
0
  0
BLOCK
  8
0
  2
*D9
 70
     1
 10
0.0
 20
0.0
 30
0.0
  3
*D9
  1

  0
LINE
  5
211
  8
SK2
 62
     0
 10
0.0
 20
-22.84999999999999
 30
0.0
 11
0.0
 21
-48.27109509650273
 31
0.0
  0
LINE
  5
212
  8
SK2
 62
     0
 10
19.04999999999998
 20
-30.59565231190001
 30
0.0
 11
19.04999999999998
 21
-48.27109509650273
 31
0.0
  0
LINE
  5
213
  8
SK2
 62
     0
 10
2.5
 20
-47.02109509650273
 30
0.0
 11
16.54999999999998
 21
-47.02109509650273
 31
0.0
  0
SOLID
  5
214
  8
SK2
 62
     0
 10
2.5
 20
-46.60442842983606
 30
0.0
 11
2.5
 21
-47.43776176316939
 31
0.0
 12
0.0
 22
-47.02109509650273
 32
0.0
 13
0.0
 23
-47.02109509650273
 33
0.0
  0
SOLID
  5
215
  8
SK2
 62
     0
 10
16.54999999999998
 20
-47.43776176316939
 30
0.0
 11
16.54999999999998
 21
-46.60442842983606
 31
0.0
 12
19.04999999999998
 22
-47.02109509650273
 32
0.0
 13
19.04999999999998
 23
-47.02109509650273
 33
0.0
  0
TEXT
  5
216
  8
SK2
  6
CONTINUOUS
 62
     0
 10
5.14999999999999
 20
-46.39609509650273
 30
0.0
 40
2.5
  1
19.05
  0
POINT
  5
217
  8
DEFPOINTS
 62
     0
 10
0.0
 20
-22.22499999999999
 30
0.0
  0
POINT
  5
218
  8
DEFPOINTS
 62
     0
 10
19.04999999999998
 20
-29.97065231190001
 30
0.0
  0
POINT
  5
219
  8
DEFPOINTS
 62
     0
 10
19.04999999999998
 20
-47.02109509650273
 30
0.0
  0
ENDBLK
  5
21B
  8
0
  0
BLOCK
  8
0
  2
*D16
 70
     1
 10
0.0
 20
0.0
 30
0.0
  3
*D16
  1

  0
LINE
  5
1A76
  8
SK2
 62
     0
 10
85.72499999999997
 20
19.05000000000001
 30
0.0
 11
124.2065598241589
 21
19.05000000000001
 31
0.0
  0
LINE
  5
1A77
  8
SK2
 62
     0
 10
85.72499999999997
 20
-19.05000000000001
 30
0.0
 11
124.2065598241589
 21
-19.05000000000001
 31
0.0
  0
LINE
  5
1A78
  8
SK2
 62
     0
 10
122.9565598241589
 20
16.55000000000001
 30
0.0
 11
122.9565598241589
 21
-16.55000000000001
 31
0.0
  0
SOLID
  5
1A79
  8
SK2
 62
     0
 10
123.3732264908256
 20
16.55000000000001
 30
0.0
 11
122.5398931574923
 21
16.55000000000001
 31
0.0
 12
122.9565598241589
 22
19.05000000000001
 32
0.0
 13
122.9565598241589
 23
19.05000000000001
 33
0.0
  0
SOLID
  5
1A7A
  8
SK2
 62
     0
 10
122.5398931574923
 20
-16.55000000000001
 30
0.0
 11
123.3732264908256
 21
-16.55000000000001
 31
0.0
 12
122.9565598241589
 22
-19.05000000000001
 32
0.0
 13
122.9565598241589
 23
-19.05000000000001
 33
0.0
  0
TEXT
  5
1A7B
  8
SK2
  6
CONTINUOUS
 62
     0
 10
122.3315598241589
 20
-3.333333333333329
 30
0.0
 40
2.5
  1
38.1
 50
90.0
  0
POINT
  5
1A7C
  8
DEFPOINTS
 62
     0
 10
85.09999999999997
 20
19.05000000000001
 30
0.0
  0
POINT
  5
1A7D
  8
DEFPOINTS
 62
     0
 10
85.09999999999997
 20
-19.05000000000001
 30
0.0
  0
POINT
  5
1A7E
  8
DEFPOINTS
 62
     0
 10
122.9565598241589
 20
-19.05000000000001
 30
0.0
  0
ENDBLK
  5
1A80
  8
0
  0
BLOCK
  8
0
  2
*D17
 70
     1
 10
0.0
 20
0.0
 30
0.0
  3
*D17
  1

  0
LINE
  5
1A85
  8
SK2
 62
     0
 10
63.125
 20
46.04999999999998
 30
0.0
 11
138.5555086009174
 21
46.04999999999998
 31
0.0
  0
LINE
  5
1A86
  8
SK2
 62
     0
 10
63.125
 20
-46.05000000000001
 30
0.0
 11
138.5555086009174
 21
-46.05000000000002
 31
0.0
  0
LINE
  5
1A87
  8
SK2
 62
     0
 10
137.3055086009174
 20
43.54999999999998
 30
0.0
 11
137.3055086009174
 21
-43.55000000000002
 31
0.0
  0
SOLID
  5
1A88
  8
SK2
 62
     0
 10
137.722175267584
 20
43.54999999999998
 30
0.0
 11
136.8888419342507
 21
43.54999999999998
 31
0.0
 12
137.3055086009174
 22
46.04999999999998
 32
0.0
 13
137.3055086009174
 23
46.04999999999998
 33
0.0
  0
SOLID
  5
1A89
  8
SK2
 62
     0
 10
136.8888419342507
 20
-43.55000000000002
 30
0.0
 11
137.722175267584
 21
-43.55000000000002
 31
0.0
 12
137.3055086009174
 22
-46.05000000000002
 32
0.0
 13
137.3055086009174
 23
-46.05000000000002
 33
0.0
  0
TEXT
  5
1A8A
  8
SK2
  6
CONTINUOUS
 62
     0
 10
136.6805086009174
 20
-3.333333333333371
 30
0.0
 40
2.5
  1
92.1
 50
90.0
  0
POINT
  5
1A8B
  8
DEFPOINTS
 62
     0
 10
62.5
 20
46.04999999999998
 30
0.0
  0
POINT
  5
1A8C
  8
DEFPOINTS
 62
     0
 10
62.5
 20
-46.05000000000001
 30
0.0
  0
POINT
  5
1A8D
  8
DEFPOINTS
 62
     0
 10
137.3055086009174
 20
-46.05000000000002
 30
0.0
  0
ENDBLK
  5
1A8F
  8
0
  0
ENDSEC
  0
SECTION
  2
ENTITIES
  0
LINE
  5
1B2
  8
4
 10
63.5
 20
-0.0000000043571496
 30
0.0
 11
0.0
 21
0.0
 31
0.0
  0
DIMENSION
  5
1CF
  8
2
  2
*D5
 10
63.5
 20
56.07580145770567
 30
0.0
 11
31.75
 21
57.95080145770567
 31
0.0
 70
    32
  3
ISO-25
 13
0.0
 23
22.22499999999999
 33
0.0
 14
63.5
 24
45.04999999999998
 34
0.0
  0
DIMENSION
  5
20D
  8
SK2
  2
*D9
 10
19.04999999999998
 20
-47.02109509650273
 30
0.0
 11
9.52499999999999
 21
-45.14609509650273
 31
0.0
 70
    32
  3
ISO-25
 13
0.0
 23
-22.22499999999999
 33
0.0
 14
19.04999999999998
 24
-29.97065231190001
 34
0.0
  0
LINE
  5
364
  8
NOCUT
 10
63.5
 20
-0.0000000043571496
 30
0.0
 11
0.0
 21
0.0
 31
0.0
  0
LINE
  5
99D
  8
SK3
 10
-66.51794919240001
 20
0.0
 30
0.0
 11
-66.51794919240001
 21
8.149999999999991
 31
0.0
  0
LINE
  5
99E
  8
SK3
 10
-66.51794919240001
 20
-8.149999999999991
 30
0.0
 11
-66.51794919240001
 21
0.0
 31
0.0
  0
LINE
  5
99F
  8
SK3
 10
-63.48000000000002
 20
0.0
 30
0.0
 11
-63.48000000000002
 21
8.149999999999991
 31
0.0
  0
LINE
  5
9A0
  8
SK3
 10
-63.48000000000002
 20
-8.149999999999991
 30
0.0
 11
-63.48000000000002
 21
0.0
 31
0.0
  0
LINE
  5
9BF
  8
SK3
 10
-68.25000000000003
 20
-9.149999999999991
 30
0.0
 11
-66.51794919240001
 21
-8.149999999999991
 31
0.0
  0
LINE
  5
9C0
  8
SK3
 10
-66.51794919240001
 20
8.149999999999991
 30
0.0
 11
-68.25000000000003
 21
9.149999999999991
 31
0.0
  0
LINE
  5
9C1
  8
SK3
 10
-66.51794919240001
 20
-8.149999999999991
 30
0.0
 11
-63.48000000000002
 21
-8.149999999999991
 31
0.0
  0
LINE
  5
9C2
  8
SK3
 10
-63.48000000000002
 20
8.149999999999991
 30
0.0
 11
-66.51794919240001
 21
8.149999999999991
 31
0.0
  0
LINE
  5
9C3
  8
SK3
 10
-63.48000000000002
 20
-6.700000000000003
 30
0.0
 11
-8.250000000000014
 21
-6.700000000000003
 31
0.0
  0
LINE
  5
9C4
  8
SK3
 10
-8.25
 20
6.700000000000003
 30
0.0
 11
-63.48000000000002
 21
6.700000000000003
 31
0.0
  0
LINE
  5
9E1
  8
0
 10
65.49999999999994
 20
2.0
 30
0.0
 11
61.50000000000004
 21
-2.0
 31
0.0
  0
LINE
  5
9E2
  8
0
 10
61.50000000000004
 20
2.0
 30
0.0
 11
65.49999999999994
 21
-2.0
 31
0.0
  0
CIRCLE
  5
9E3
  8
0
 10
63.50000000000004
 20
0.0
 30
0.0
 40
1.5
  0
LINE
  5
9E4
  8
0
 10
3.0
 20
3.0
 30
0.0
 11
-3.0
 21
-3.0
 31
0.0
  0
LINE
  5
9E5
  8
0
 10
-3.0
 20
3.0
 30
0.0
 11
3.0
 21
-3.0
 31
0.0
  0
CIRCLE
  5
9E6
  8
0
 10
0.0
 20
0.0
 30
0.0
 40
2.5
  0
LINE
  5
9E7
  8
SK3
 10
-63.48000000000005
 20
-7.937499999800011
 30
0.0
 11
-39.75000000000003
 21
-7.937499999800011
 31
0.0
  0
LINE
  5
9E8
  8
SK3
 10
-39.75000000000003
 20
7.937500000199975
 30
0.0
 11
-39.75000000000003
 21
-7.937499999800011
 31
0.0
  0
LINE
  5
9E9
  8
SK3
 10
-39.75000000000003
 20
7.937500000199975
 30
0.0
 11
-63.48000000000005
 21
7.937500000199975
 31
0.0
  0
ARC
  5
AA1
  8
NOCUT
 10
0.5
 20
22.72499999999999
 30
0.0
 40
0.5
 50
270.0
 51
0.0
  0
LINE
  5
AA4
  8
NOCUT
 10
0.5
 20
22.22499999999999
 30
0.0
 11
0.0
 21
22.22499999999999
 31
0.0
  0
LINE
  5
AA7
  8
NOCUT
 10
14.65616676909997
 20
31.75
 30
0.0
 11
18.54999999999995
 21
31.75
 31
0.0
  0
POLYLINE
  5
AA8
  8
NOCUT
 66
     1
 10
0.0
 20
0.0
 30
0.0
  0
VERTEX
  5
2781
  8
NOCUT
 10
18.54999999999995
 20
31.75
 30
0.0
  0
VERTEX
  5
2782
  8
NOCUT
 10
18.57284145939997
 20
31.7263863779
 30
0.0
  0
VERTEX
  5
2783
  8
NOCUT
 10
19.04999999999995
 20
31.2328257263
 30
0.0
  0
SEQEND
  5
2D9D
  8
NOCUT
  0
POLYLINE
  5
AA9
  8
NOCUT
 66
     1
 10
0.0
 20
0.0
 30
0.0
  0
VERTEX
  5
2784
  8
NOCUT
 10
1.0
 20
31.2328257263
 30
0.0
  0
VERTEX
  5
2785
  8
NOCUT
 10
1.477158540600044
 20
31.7263863779
 30
0.0
  0
VERTEX
  5
2786
  8
NOCUT
 10
1.5
 20
31.75
 30
0.0
  0
SEQEND
  5
2D9C
  8
NOCUT
  0
LINE
  5
AAA
  8
NOCUT
 10
1.499999999999996
 20
31.75
 30
0.0
 11
7.603833230899966
 21
31.75
 31
0.0
  0
POLYLINE
  5
AAB
  8
NOCUT
 66
     1
 10
0.0
 20
0.0
 30
0.0
  0
VERTEX
  5
2787
  8
NOCUT
 10
7.603833230899966
 20
31.75
 30
0.0
  0
VERTEX
  5
2788
  8
NOCUT
 10
9.140787278000005
 20
28.9892854797
 30
0.0
  0
VERTEX
  5
2789
  8
NOCUT
 10
9.204999999999984
 20
28.8735268612
 30
0.0
  0
SEQEND
  5
2D9B
  8
NOCUT
  0
POLYLINE
  5
AAC
  8
NOCUT
 66
     1
 10
0.0
 20
0.0
 30
0.0
  0
VERTEX
  5
278A
  8
NOCUT
 10
13.05499999999995
 20
28.8735268612
 30
0.0
  0
VERTEX
  5
278B
  8
NOCUT
 10
13.1192127219
 20
28.9892854797
 30
0.0
  0
VERTEX
  5
278C
  8
NOCUT
 10
14.65616676909997
 20
31.75
 30
0.0
  0
SEQEND
  5
2D9A
  8
NOCUT
  0
ARC
  5
AAD
  8
NOCUT
 10
12.54226966779999
 20
28.55584607759999
 30
0.0
 40
0.512803993977288
 50
271.4225108534019
 51
0.9711541378997977
  0
ARC
  5
AAE
  8
NOCUT
 10
9.716236145599964
 20
28.5544130456
 30
0.0
 40
0.5113363895821054
 50
178.8654582714003
 51
268.7408767374973
  0
LINE
  5
AAF
  8
NOCUT
 10
9.704999999999984
 20
28.0432001229
 30
0.0
 11
12.55499999999995
 21
28.0432001229
 31
0.0
  0
LINE
  5
AB0
  8
NOCUT
 10
0.0
 20
0.0
 30
0.0
 11
0.0
 21
22.22499999999999
 31
0.0
  0
LINE
  5
ACA
  8
NOCUT
 10
1.0
 20
22.72499999999999
 30
0.0
 11
1.0
 21
31.2328257263
 31
0.0
  0
LINE
  5
ACB
  8
NOCUT
 10
9.204999999999984
 20
28.8735268612
 30
0.0
 11
9.20489975601786
 21
28.5544130456
 31
0.0
  0
LINE
  5
ACC
  8
NOCUT
 10
13.05499999999995
 20
28.8735268612
 30
0.0
 11
13.05507366177728
 21
28.55584607759999
 31
0.0
  0
ARC
  5
B94
  8
1
 10
0.799999999999983
 20
-22.42500000000001
 30
0.0
 40
0.5
 50
66.42182152179994
 51
90.0
  0
ARC
  5
B95
  8
1
 10
0.799999999999983
 20
22.42499999999998
 30
0.0
 40
0.5
 50
270.0
 51
293.5781784782001
  0
LINE
  5
B98
  8
1
 10
0.0
 20
-22.22499999999999
 30
0.0
 11
0.2999999999999829
 21
-21.92500000000001
 31
0.0
  0
LINE
  5
B99
  8
1
 10
0.2999999999999829
 20
21.92499999999998
 30
0.0
 11
0.0
 21
22.22499999999999
 31
0.0
  0
LINE
  5
B9C
  8
SK1
 10
0.0
 20
22.22499999999999
 30
0.0
 11
-67.3943082273
 21
12.39657058259999
 31
0.0
  0
LINE
  5
B9D
  8
SK1
 10
-67.3943082273
 20
-12.39657058270001
 30
0.0
 11
0.0
 21
-22.22499999999999
 31
0.0
  0
LINE
  5
B9E
  8
1
 10
0.2999999999999829
 20
-21.92500000000001
 30
0.0
 11
0.799999999999983
 21
-21.92500000000001
 31
0.0
  0
LINE
  5
B9F
  8
1
 10
0.799999999999983
 20
21.92499999999998
 30
0.0
 11
0.2999999999999829
 21
21.92499999999998
 31
0.0
  0
ARC
  5
BA0
  8
SK1
 10
-67.25
 20
-11.4070377962
 30
0.0
 40
1.000000000000014
 50
180.0
 51
261.7027777778003
  0
ARC
  5
BA1
  8
SK1
 10
-67.25
 20
11.40703779609998
 30
0.0
 40
1.000000000000014
 50
98.29722222219964
 51
180.0
  0
LINE
  5
BA2
  8
1
 10
14.6561667922
 20
30.49243725150001
 30
0.0
 11
13.05500004409998
 21
27.5903849293
 31
0.0
  0
LINE
  5
BA3
  8
1
 10
14.65616676899998
 20
-30.51805114620001
 30
0.0
 11
14.65616676899998
 21
30.49243720799998
 31
0.0
  0
LINE
  5
BA4
  8
1
 10
13.05500002099998
 20
-27.61768172550001
 30
0.0
 11
14.65616678619998
 21
-30.51748284710001
 31
0.0
  0
LINE
  5
BA5
  8
1
 10
13.05499999999998
 20
-27.61768156150001
 30
0.0
 11
13.05499999999998
 21
27.5896745586
 31
0.0
  0
LINE
  5
BA6
  8
1
 10
14.65616729029998
 20
-30.5174828113
 30
0.0
 11
14.76217597669998
 21
-30.54092502470002
 31
0.0
  0
LINE
  5
BA7
  8
1
 10
14.69253150219998
 20
30.50268419069999
 30
0.0
 11
14.65616753799998
 21
30.49243719839998
 31
0.0
  0
LINE
  5
BA8
  8
1
 10
18.54999999999998
 20
30.50268419069999
 30
0.0
 11
14.69253150219998
 21
30.50268419069999
 31
0.0
  0
LINE
  5
BA9
  8
1
 10
14.76217597669998
 20
-30.54092502470002
 30
0.0
 11
18.54999999999998
 21
-30.54092502470002
 31
0.0
  0
LINE
  5
BAA
  8
1
 10
9.204999955799991
 20
27.5903849293
 30
0.0
 11
7.603833207699978
 21
30.49243725150001
 31
0.0
  0
LINE
  5
BAB
  8
1
 10
9.204999999999984
 20
-27.6182445954
 30
0.0
 11
9.204999999999984
 21
27.5903848518
 31
0.0
  0
LINE
  5
BAC
  8
1
 10
7.6038332137
 20
-30.51748284710001
 30
0.0
 11
9.204999978799975
 21
-27.61768172539999
 31
0.0
  0
LINE
  5
BAD
  8
1
 10
7.603833230899994
 20
-30.5174828113
 30
0.0
 11
7.603833230899994
 21
30.49194635059999
 31
0.0
  0
LINE
  5
BAE
  8
1
 10
1.0
 20
-29.20362428180002
 30
0.0
 11
1.0
 21
29.22527756419998
 31
0.0
  0
ARC
  5
BAF
  8
1
 10
1.736068826500002
 20
28.83956144390001
 30
0.0
 40
0.8318485490646366
 50
106.4871262675995
 51
152.2338518675996
  0
POLYLINE
  5
BB0
  8
1
 66
     1
 10
0.0
 20
0.0
 30
0.0
  0
VERTEX
  5
278D
  8
1
 10
1.499991175799977
 20
-29.70136738420001
 30
0.0
  0
VERTEX
  5
278E
  8
1
 10
1.31486147779998
 20
-29.6078136875
 30
0.0
  0
VERTEX
  5
278F
  8
1
 10
1.220960437199977
 20
-29.54106786380001
 30
0.0
  0
VERTEX
  5
2790
  8
1
 10
1.131120186599986
 20
-29.45918995790001
 30
0.0
  0
VERTEX
  5
2791
  8
1
 10
1.068966655699995
 20
-29.38420485969999
 30
0.0
  0
VERTEX
  5
2792
  8
1
 10
1.029912598300001
 20
-29.3189781797
 30
0.0
  0
VERTEX
  5
2793
  8
1
 10
1.001757060399996
 20
-29.23060659110001
 30
0.0
  0
VERTEX
  5
2794
  8
1
 10
1.000001938499992
 20
-29.2054619834
 30
0.0
  0
SEQEND
  5
2D99
  8
1
  0
LINE
  5
BB1
  8
1
 10
7.5674684974
 20
30.50268419069999
 30
0.0
 11
4.03465638199998
 21
30.50268419069999
 31
0.0
  0
LINE
  5
BB2
  8
1
 10
7.603832461599978
 20
30.49243719839998
 30
0.0
 11
7.5674684974
 21
30.50268419069999
 31
0.0
  0
LINE
  5
BB3
  8
1
 10
7.497824022700001
 20
-30.54092502470002
 30
0.0
 11
7.603832709099976
 21
-30.5174828113
 31
0.0
  0
LINE
  5
BB4
  8
1
 10
3.987796517999982
 20
-30.54092502470002
 30
0.0
 11
7.497824022700001
 21
-30.54092502470002
 31
0.0
  0
LINE
  5
BB5
  8
1
 10
1.500000037399985
 20
-29.70136454339999
 30
0.0
 11
3.987796517999982
 21
-30.54092512950001
 31
0.0
  0
LINE
  5
BB6
  8
1
 10
4.03465638199998
 20
30.5026843142
 30
0.0
 11
1.499999999899984
 21
29.6372041155
 31
0.0
  0
POLYLINE
  5
BB7
  8
1
 66
     1
 10
0.0
 20
0.0
 30
0.0
  0
VERTEX
  5
2795
  8
1
 10
18.81621828999999
 20
-30.4787564463
 30
0.0
  0
VERTEX
  5
2796
  8
1
 10
18.6790188139
 20
-30.52721612650001
 30
0.0
  0
VERTEX
  5
2797
  8
1
 10
18.54999999999998
 20
-30.54092502470002
 30
0.0
  0
SEQEND
  5
2D98
  8
1
  0
ARC
  5
BB8
  8
1
 10
18.55943835959999
 20
29.86640550269999
 30
0.0
 40
0.6363486869715145
 50
60.60134603479981
 51
90.84984539750005
  0
ARC
  5
BB9
  8
1
 10
18.35098180669999
 20
29.95429978019999
 30
0.0
 40
0.6992094391558102
 50
1.340108450200791
 51
41.85091720829973
  0
LINE
  5
BBA
  8
1
 10
19.04999999999998
 20
29.97065231189998
 30
0.0
 11
19.04999999999998
 21
-29.97065231190001
 31
0.0
  0
ARC
  5
BBB
  8
1
 10
18.33294041069999
 20
-29.9485632036
 30
0.0
 40
0.7173997374297006
 50
312.3495695874001
 51
358.2355544919003
  0
ARC
  5
BBC
  8
1
 10
9.7449695926
 20
27.30906555679999
 30
0.0
 40
0.5407677835436584
 50
176.8865704259999
 51
265.761250323199
  0
ARC
  5
BBD
  8
1
 10
9.7179331838
 20
-27.29360212969999
 30
0.0
 40
0.4775741781478385
 50
91.55181642760164
 51
147.4596417165987
  0
ARC
  5
BBE
  8
1
 10
12.52505146019999
 20
27.30025443439999
 30
0.0
 40
0.5313222205439724
 50
273.2312498579008
 51
4.120929392898505
  0
ARC
  5
BBF
  8
1
 10
12.53972316129997
 20
-27.2977060387
 30
0.0
 40
0.4817452194643697
 50
32.86161398089808
 51
88.18276318630117
  0
LINE
  5
BC0
  8
1
 10
12.55499999999998
 20
26.7697769259
 30
0.0
 11
9.704999999999984
 21
26.7697769259
 31
0.0
  0
LINE
  5
BC1
  8
1
 10
9.704999999999984
 20
-26.81620310549999
 30
0.0
 11
12.55499999999998
 21
-26.81620310549999
 31
0.0
  0
LINE
  5
BC4
  8
1
 10
0.2999999999999829
 20
0.0
 30
0.0
 11
0.2999999999999829
 21
21.92499999999998
 31
0.0
  0
LINE
  5
BC5
  8
1
 10
0.2999999999999829
 20
-21.92500000000001
 30
0.0
 11
0.2999999999999829
 21
0.0
 31
0.0
  0
LINE
  5
BC6
  8
1
 10
0.0
 20
0.0
 30
0.0
 11
0.0
 21
22.22499999999999
 31
0.0
  0
LINE
  5
BC7
  8
1
 10
0.0
 20
-22.22499999999999
 30
0.0
 11
0.0
 21
0.0
 31
0.0
  0
LINE
  5
BCA
  8
SK1
 10
-68.25
 20
0.0
 30
0.0
 11
-68.25
 21
11.40703779609998
 31
0.0
  0
LINE
  5
BCB
  8
SK1
 10
-68.25
 20
-11.4070377962
 30
0.0
 11
-68.25
 21
0.0
 31
0.0
  0
LINE
  5
BCC
  8
1
 10
7.567468496899977
 20
30.50268419069999
 30
0.0
 11
7.6038324612
 21
30.49243719839998
 31
0.0
  0
LINE
  5
BCD
  8
1
 10
3.987796517999982
 20
-30.54092512950001
 30
0.0
 11
1.499999999899984
 21
-29.7013645289
 31
0.0
  0
LINE
  5
BDE
  8
3
 10
1.0
 20
-22.59999999999999
 30
0.0
 11
3.699999999999989
 21
-22.59999999999999
 31
0.0
  0
LINE
  5
BFE
  8
3
 10
3.699999999999989
 20
-22.59999999999999
 30
0.0
 11
27.0
 21
-22.59999999999999
 31
0.0
  0
LINE
  5
C08
  8
3
 10
1.0
 20
25.02000000000001
 30
0.0
 11
27.0
 21
25.02000000000001
 31
0.0
  0
LINE
  5
C10
  8
3
 10
11.13
 20
21.22
 30
0.0
 11
17.47999999999999
 21
21.22
 31
0.0
  0
LINE
  5
C11
  8
3
 10
4.780000000000001
 20
21.22
 30
0.0
 11
11.13
 21
21.22
 31
0.0
  0
LINE
  5
C12
  8
3
 10
11.13
 20
21.21000000000001
 30
0.0
 11
15.88
 21
21.21000000000001
 31
0.0
  0
LINE
  5
C13
  8
3
 10
6.379999999999995
 20
21.21000000000001
 30
0.0
 11
11.13
 21
21.21000000000001
 31
0.0
  0
LINE
  5
C26
  8
3
 10
4.780000000000001
 20
25.02000000000001
 30
0.0
 11
4.780000000000001
 21
21.22
 31
0.0
  0
LINE
  5
C27
  8
3
 10
17.47999999999999
 20
21.22
 30
0.0
 11
17.47999999999999
 21
25.02000000000001
 31
0.0
  0
LINE
  5
C28
  8
3
 10
6.379999999999995
 20
21.22
 30
0.0
 11
6.379999999999995
 21
21.21000000000001
 31
0.0
  0
LINE
  5
C29
  8
3
 10
15.88
 20
21.21000000000001
 30
0.0
 11
15.88
 21
21.22
 31
0.0
  0
LINE
  5
C2A
  8
3
 10
6.379999999999995
 20
21.21000000000001
 30
0.0
 11
11.13
 21
18.3559120596
 31
0.0
  0
LINE
  5
C2B
  8
3
 10
11.13
 20
18.3559120596
 30
0.0
 11
15.88
 21
21.21000000000001
 31
0.0
  0
LINE
  5
C2D
  8
1
 10
0.799999999999983
 20
21.92499999999998
 30
0.0
 11
0.799999999999983
 21
-21.92500000000001
 31
0.0
  0
LINE
  5
C2F
  8
1
 10
9.704999999999984
 20
26.26568698759999
 30
0.0
 11
9.704999999999984
 21
-26.08092552630001
 31
0.0
  0
LINE
  5
C30
  8
1
 10
12.55499999999998
 20
26.26578903699999
 30
0.0
 11
12.55499999999998
 21
-26.08072526110001
 31
0.0
  0
LINE
  5
C31
  8
1
 10
18.54999999999998
 20
30.50268419069999
 30
0.0
 11
18.54999999999998
 21
-30.54092502470002
 31
0.0
  0
LINE
  5
C32
  8
1
 10
1.5
 20
-29.7013645289
 30
0.0
 11
1.5
 21
29.6372041155
 31
0.0
  0
LINE
  5
C92
  8
SK4
 10
0.0
 20
0.0
 30
0.0
 11
-68.25
 21
0.0
 31
0.0
  0
TEXT
  5
D44
  8
SK6
 10
-66.17909534664395
 20
47.33203563714093
 30
0.0
 40
3.5
  1
BIG KAISER
 41
0.85
  0
TEXT
  5
D45
  8
SK6
 10
-66.17909534664395
 20
42.08203563714093
 30
0.0
 40
3.5
  1
BCV40H-SMC1.500-2.5
 41
0.85
  0
INSERT
  5
D46
  8
SK6
  2
_FILLED
 10
-17.9836627818344
 20
-19.60235774778011
 30
0.0
 41
3.5
 42
3.5
 43
3.5
 50
55.49325986033524
  0
POLYLINE
  5
D47
  8
SK6
 66
     1
 10
0.0
 20
0.0
 30
0.0
  0
VERTEX
  5
2798
  8
SK6
 10
-19.966423916232
 20
-22.48656618059532
 30
0.0
  0
VERTEX
  5
2799
  8
SK6
 10
-33.4822656830344
 20
-42.14728280658011
 30
0.0
  0
VERTEX
  5
279A
  8
SK6
 10
-35.35726568303438
 20
-40.39728280658011
 30
0.0
  0
VERTEX
  5
279B
  8
SK6
 10
-38.85726568303438
 20
-40.39728280658011
 30
0.0
  0
SEQEND
  5
2D97
  8
SK6
  0
TEXT
  5
D48
  8
SK6
 10
-53.86143234970106
 20
-43.89728280658011
 30
0.0
 40
3.5
  1
BCV40
 41
0.85
  0
ARC
  5
F46
  8
SK1
 10
63.69999999999993
 20
-19.25
 30
0.0
 40
0.400000000000016
 50
74.99999999999747
 51
119.9999999999967
  0
ARC
  5
F47
  8
SK1
 10
63.69999999999993
 20
19.25
 30
0.0
 40
0.4000000000000023
 50
240.0000000000104
 51
285.0000000000036
  0
ARC
  5
F48
  8
SK1
 10
85.09999999999997
 20
-17.05000000000001
 30
0.0
 40
2.0
 50
270.0
 51
0.0
  0
ARC
  5
F49
  8
SK1
 10
85.09999999999997
 20
17.05000000000001
 30
0.0
 40
2.0
 50
0.0
 51
90.0
  0
LINE
  5
F4A
  8
SK1
 10
64.49907116049997
 20
19.05000000000001
 30
0.0
 11
63.80352761799998
 21
18.86362966939998
 31
0.0
  0
LINE
  5
F4B
  8
SK1
 10
63.80352761799998
 20
-18.8636296695
 30
0.0
 11
64.49907116049997
 21
-19.05000000000001
 31
0.0
  0
LINE
  5
F4C
  8
SK1
 10
64.49907116049997
 20
-19.05000000000001
 30
0.0
 11
85.09999999999997
 21
-19.05000000000001
 31
0.0
  0
LINE
  5
F4D
  8
SK1
 10
85.09999999999997
 20
19.05000000000001
 30
0.0
 11
64.49907116049997
 21
19.05000000000001
 31
0.0
  0
LINE
  5
F50
  8
SK1
 10
100.838
 20
-23.8125
 30
0.0
 11
101.6
 21
-23.0505
 31
0.0
  0
LINE
  5
F51
  8
SK1
 10
101.6
 20
23.0505
 30
0.0
 11
100.838
 21
23.8125
 31
0.0
  0
LINE
  5
F52
  8
SK1
 10
100.838
 20
23.8125
 30
0.0
 11
89.66199999999998
 21
23.8125
 31
0.0
  0
LINE
  5
F53
  8
SK1
 10
89.66199999999998
 20
-23.8125
 30
0.0
 11
100.838
 21
-23.8125
 31
0.0
  0
LINE
  5
F54
  8
SK1
 10
89.66199999999998
 20
23.8125
 30
0.0
 11
88.89999999999998
 21
23.0505
 31
0.0
  0
LINE
  5
F55
  8
SK1
 10
88.89999999999998
 20
-23.0505
 30
0.0
 11
89.66199999999998
 21
-23.8125
 31
0.0
  0
ARC
  5
F56
  8
SK1
 10
88.11259999999993
 20
10.3124
 30
0.0
 40
0.7874000000000194
 50
270.0
 51
0.0
  0
ARC
  5
F57
  8
SK1
 10
88.11259999999993
 20
-10.31240000000003
 30
0.0
 40
0.7874000000000052
 50
0.0
 51
90.0
  0
LINE
  5
F58
  8
SK1
 10
88.11259999999993
 20
9.525000000000006
 30
0.0
 11
87.09999999999997
 21
9.525000000000006
 31
0.0
  0
LINE
  5
F59
  8
SK1
 10
87.09999999999997
 20
-9.525000000000006
 30
0.0
 11
88.11259999999993
 21
-9.525000000000006
 31
0.0
  0
LINE
  5
F8E
  8
SK1
 10
87.09999999999997
 20
0.0
 30
0.0
 11
87.09999999999997
 21
17.05000000000001
 31
0.0
  0
LINE
  5
F8F
  8
SK1
 10
87.09999999999997
 20
-17.05000000000001
 30
0.0
 11
87.09999999999997
 21
0.0
 31
0.0
  0
LINE
  5
F90
  8
SK1
 10
64.49907116049997
 20
0.0
 30
0.0
 11
64.49907116049997
 21
19.05000000000001
 31
0.0
  0
LINE
  5
F91
  8
SK1
 10
64.49907116049997
 20
-19.05000000000001
 30
0.0
 11
64.49907116049997
 21
0.0
 31
0.0
  0
LINE
  5
FB5
  8
SK1
 10
101.6
 20
0.0
 30
0.0
 11
101.6
 21
-23.0505
 31
0.0
  0
LINE
  5
FB6
  8
SK1
 10
101.6
 20
23.0505
 30
0.0
 11
101.6
 21
0.0
 31
0.0
  0
LINE
  5
FB7
  8
SK1
 10
100.838
 20
0.0
 30
0.0
 11
100.838
 21
-23.8125
 31
0.0
  0
LINE
  5
FB8
  8
SK1
 10
100.838
 20
23.8125
 30
0.0
 11
100.838
 21
0.0
 31
0.0
  0
LINE
  5
FB9
  8
SK1
 10
89.66199999999998
 20
0.0
 30
0.0
 11
89.66199999999998
 21
-23.8125
 31
0.0
  0
LINE
  5
FBA
  8
SK1
 10
89.66199999999998
 20
23.8125
 30
0.0
 11
89.66199999999998
 21
0.0
 31
0.0
  0
LINE
  5
FBB
  8
SK1
 10
88.89999999999998
 20
0.0
 30
0.0
 11
88.89999999999998
 21
-23.0505
 31
0.0
  0
LINE
  5
FBC
  8
SK1
 10
88.89999999999998
 20
23.0505
 30
0.0
 11
88.89999999999998
 21
0.0
 31
0.0
  0
LINE
  5
FBD
  8
SK1
 10
71.57719999999995
 20
-25.4025
 30
0.0
 11
63.5
 21
-25.4025
 31
0.0
  0
LINE
  5
FBE
  8
SK1
 10
71.57719999999995
 20
-25.4025
 30
0.0
 11
71.57719999999995
 21
-41.2775
 31
0.0
  0
LINE
  5
FBF
  8
SK1
 10
71.57719999999995
 20
-41.2775
 30
0.0
 11
63.5
 21
-41.2775
 31
0.0
  0
LINE
  5
FC0
  8
SK1
 10
71.57719999999995
 20
41.27749999999997
 30
0.0
 11
63.5
 21
41.27749999999997
 31
0.0
  0
LINE
  5
FC1
  8
SK1
 10
71.57719999999995
 20
41.27749999999997
 30
0.0
 11
71.57719999999995
 21
25.40249999999997
 31
0.0
  0
LINE
  5
FC2
  8
SK1
 10
71.57719999999995
 20
25.40249999999997
 30
0.0
 11
63.5
 21
25.40249999999997
 31
0.0
  0
LINE
  5
FE2
  8
SK3
 10
86.23396697519996
 20
-10.0
 30
0.0
 11
86.23396697519996
 21
10.0
 31
0.0
  0
LINE
  5
FE3
  8
SK3
 10
84.09999999999997
 20
10.0
 30
0.0
 11
84.09999999999997
 21
-10.0
 31
0.0
  0
LINE
  5
10A3
  8
SK3
 10
92.07499999999993
 20
2.400299999999987
 30
0.0
 11
92.07499999999993
 21
0.0
 31
0.0
  0
LINE
  5
10A4
  8
SK3
 10
92.07499999999993
 20
0.0
 30
0.0
 11
92.07499999999993
 21
-2.400300000000016
 31
0.0
  0
LINE
  5
10A5
  8
SK3
 10
92.07499999999993
 20
0.0
 30
0.0
 11
101.6
 21
0.0
 31
0.0
  0
LINE
  5
10A6
  8
SK3
 10
91.43999999999994
 20
0.0
 30
0.0
 11
91.43999999999994
 21
-4.800600000000003
 31
0.0
  0
LINE
  5
10A7
  8
SK3
 10
91.43999999999994
 20
4.800599999999974
 30
0.0
 11
91.43999999999994
 21
0.0
 31
0.0
  0
LINE
  5
10A8
  8
SK3
 10
92.07499999999993
 20
4.800599999999974
 30
0.0
 11
92.07499999999993
 21
2.400299999999987
 31
0.0
  0
LINE
  5
10A9
  8
SK3
 10
92.07499999999993
 20
-2.400300000000016
 30
0.0
 11
92.07499999999993
 21
-4.800600000000003
 31
0.0
  0
LINE
  5
10AA
  8
SK3
 10
92.07499999999993
 20
4.800599999999974
 30
0.0
 11
101.6
 21
4.800599999999974
 31
0.0
  0
LINE
  5
10AB
  8
SK3
 10
92.07499999999993
 20
-4.800600000000003
 30
0.0
 11
101.6
 21
-4.800600000000003
 31
0.0
  0
LINE
  5
10BC
  8
SK3
 10
87.09999999999997
 20
2.5
 30
0.0
 11
63.5
 21
2.5
 31
0.0
  0
LINE
  5
10BF
  8
SK3
 10
63.5
 20
-2.5
 30
0.0
 11
87.09999999999997
 21
-2.5
 31
0.0
  0
LINE
  5
10C3
  8
SK3
 10
87.09999999999997
 20
10.50000439999999
 30
0.0
 11
86.23396697519996
 21
10.0
 31
0.0
  0
LINE
  5
10C4
  8
SK3
 10
86.23396697519996
 20
-10.0
 30
0.0
 11
87.09999999999997
 21
-10.50000440000002
 31
0.0
  0
LINE
  5
10C5
  8
SK3
 10
86.23396697519996
 20
10.0
 30
0.0
 11
84.09999999999997
 21
10.0
 31
0.0
  0
LINE
  5
10C6
  8
SK3
 10
84.09999999999997
 20
-10.0
 30
0.0
 11
86.23396697519996
 21
-10.0
 31
0.0
  0
LINE
  5
10C7
  8
SK3
 10
84.09999999999997
 20
9.525000000000006
 30
0.0
 11
63.5
 21
9.525000000000006
 31
0.0
  0
LINE
  5
10C8
  8
SK3
 10
63.5
 20
-9.525000000000006
 30
0.0
 11
84.09999999999997
 21
-9.525000000000006
 31
0.0
  0
LINE
  5
10EC
  8
SK3
 10
87.09999999999997
 20
-9.62435565300001
 30
0.0
 11
63.5
 21
-9.62435565300001
 31
0.0
  0
LINE
  5
10ED
  8
SK3
 10
63.5
 20
-14.62435565300001
 30
0.0
 11
87.09999999999997
 21
-14.62435565300001
 31
0.0
  0
LINE
  5
10F0
  8
SK3
 10
87.09999999999997
 20
14.62435565289999
 30
0.0
 11
63.5
 21
14.62435565289999
 31
0.0
  0
LINE
  5
10F1
  8
SK3
 10
63.5
 20
9.624355652899993
 30
0.0
 11
87.09999999999997
 21
9.624355652899993
 31
0.0
  0
LINE
  5
115C
  8
SK3
 10
87.09999999999997
 20
9.525000000000006
 30
0.0
 11
63.5
 21
9.525000000000006
 31
0.0
  0
LINE
  5
115D
  8
SK3
 10
63.5
 20
-9.525000000000006
 30
0.0
 11
87.09999999999997
 21
-9.525000000000006
 31
0.0
  0
LINE
  5
1160
  8
SK3
 10
92.07499999999993
 20
4.800599999999974
 30
0.0
 11
91.43999999999994
 21
4.800599999999974
 31
0.0
  0
LINE
  5
1161
  8
SK3
 10
91.43999999999994
 20
-4.800600000000003
 30
0.0
 11
92.07499999999993
 21
-4.800600000000003
 31
0.0
  0
LINE
  5
1162
  8
SK3
 10
91.43999999999994
 20
4.800599999999974
 30
0.0
 11
88.55550851229998
 21
0.0
 31
0.0
  0
LINE
  5
1163
  8
SK3
 10
88.55550851229998
 20
0.0
 30
0.0
 11
91.43999999999994
 21
-4.800600000000003
 31
0.0
  0
LINE
  5
117C
  8
SK1
 10
63.80352761799998
 20
18.86362966939998
 30
0.0
 11
63.80352761799998
 21
-18.8636296695
 31
0.0
  0
LINE
  5
117D
  8
SK1
 10
85.09999999999997
 20
19.05000000000001
 30
0.0
 11
85.09999999999997
 21
-19.05000000000001
 31
0.0
  0
LINE
  5
1186
  8
SK1
 10
88.11259999999993
 20
-9.525000000000006
 30
0.0
 11
88.11259999999993
 21
9.525000000000006
 31
0.0
  0
ARC
  5
1189
  8
1
 10
46.0
 20
45.04999999999998
 30
0.0
 40
1.0
 50
90.0
 51
180.0
  0
ARC
  5
118B
  8
1
 10
46.0
 20
-45.05000000000001
 30
0.0
 40
1.0
 50
180.0
 51
270.0
  0
LINE
  5
118C
  8
1
 10
46.0
 20
-46.05000000000001
 30
0.0
 11
62.5
 21
-46.05000000000001
 31
0.0
  0
LINE
  5
118D
  8
1
 10
62.5
 20
46.04999999999998
 30
0.0
 11
46.0
 21
46.04999999999998
 31
0.0
  0
ARC
  5
118E
  8
1
 10
62.5
 20
-45.05000000000001
 30
0.0
 40
1.0
 50
270.0
 51
0.0
  0
ARC
  5
118F
  8
1
 10
62.5
 20
45.04999999999998
 30
0.0
 40
1.0
 50
0.0
 51
90.0
  0
ARC
  5
1190
  8
1
 10
43.0
 20
33.40000000000001
 30
0.0
 40
2.0
 50
270.0
 51
0.0
  0
ARC
  5
1191
  8
1
 10
43.0
 20
-33.40000000000001
 30
0.0
 40
2.0
 50
0.0
 51
90.0
  0
LINE
  5
1192
  8
1
 10
27.79969053529999
 20
-31.40000000000001
 30
0.0
 11
43.0
 21
-31.40000000000001
 31
0.0
  0
LINE
  5
1193
  8
1
 10
43.0
 20
31.40000000000001
 30
0.0
 11
27.79984766159998
 21
31.40000000000001
 31
0.0
  0
LINE
  5
11B4
  8
1
 10
45.0
 20
-45.05000000000001
 30
0.0
 11
45.0
 21
45.04999999999998
 31
0.0
  0
LINE
  5
11B5
  8
1
 10
63.5
 20
0.0
 30
0.0
 11
63.5
 21
45.04999999999998
 31
0.0
  0
LINE
  5
11B6
  8
1
 10
63.5
 20
-45.05000000000001
 30
0.0
 11
63.5
 21
0.0
 31
0.0
  0
CIRCLE
  5
11D1
  8
1
 10
36.5
 20
0.0
 30
0.0
 40
2.625
  0
POLYLINE
  5
11D2
  8
1
 66
     1
 10
0.0
 20
0.0
 30
0.0
  0
VERTEX
  5
279C
  8
1
 10
27.79984766159998
 20
31.3999549934
 30
0.0
  0
VERTEX
  5
279D
  8
1
 10
27.8000000239
 20
31.39999994039999
 30
0.0
  0
VERTEX
  5
279E
  8
1
 10
27.68260991250003
 20
31.3653733029
 30
0.0
  0
VERTEX
  5
279F
  8
1
 10
27.33771108790006
 20
31.26610115789998
 30
0.0
  0
VERTEX
  5
27A0
  8
1
 10
26.77306302559998
 20
31.11158682159999
 30
0.0
  0
VERTEX
  5
27A1
  8
1
 10
26.01422962130005
 20
30.91982287330001
 30
0.0
  0
VERTEX
  5
27A2
  8
1
 10
25.06705514370003
 20
30.70649975969999
 30
0.0
  0
VERTEX
  5
27A3
  8
1
 10
23.96811386680002
 20
30.4959674564
 30
0.0
  0
VERTEX
  5
27A4
  8
1
 10
22.72946677540006
 20
30.30725491269999
 30
0.0
  0
VERTEX
  5
27A5
  8
1
 10
21.39641004990006
 20
30.16273577440001
 30
0.0
  0
SEQEND
  5
2D96
  8
1
  0
POLYLINE
  5
11D3
  8
1
 66
     1
 10
0.0
 20
0.0
 30
0.0
  0
VERTEX
  5
27A6
  8
1
 10
21.39641070290003
 20
-30.1627351945
 30
0.0
  0
VERTEX
  5
27A7
  8
1
 10
22.73663497790005
 20
-30.3081970523
 30
0.0
  0
VERTEX
  5
27A8
  8
1
 10
23.96826545530001
 20
-30.4959932892
 30
0.0
  0
VERTEX
  5
27A9
  8
1
 10
25.07282639670001
 20
-30.707710905
 30
0.0
  0
VERTEX
  5
27AA
  8
1
 10
26.01401669410006
 20
-30.9197716587
 30
0.0
  0
VERTEX
  5
27AB
  8
1
 10
26.77879031890006
 20
-31.11310377160001
 30
0.0
  0
VERTEX
  5
27AC
  8
1
 10
27.33741341590002
 20
-31.2660170404
 30
0.0
  0
VERTEX
  5
27AD
  8
1
 10
27.68379239770002
 20
-31.3657199949
 30
0.0
  0
VERTEX
  5
27AE
  8
1
 10
27.79999916930001
 20
-31.3999997576
 30
0.0
  0
VERTEX
  5
27AF
  8
1
 10
27.68369357800003
 20
-31.3656915503
 30
0.0
  0
SEQEND
  5
2D95
  8
1
  0
LINE
  5
11D4
  8
1
 10
21.39641016150006
 20
-30.1627351458
 30
0.0
 11
21.39641016150006
 21
30.16273579579999
 31
0.0
  0
LINE
  5
11D5
  8
1
 10
21.39641010520006
 20
30.1627357646
 30
0.0
 11
21.05000000000001
 21
29.98691594709999
 31
0.0
  0
LINE
  5
11D6
  8
1
 10
21.05000000000001
 20
-29.986917331
 30
0.0
 11
21.39641057699998
 21
-30.1627353762
 31
0.0
  0
LINE
  5
11D7
  8
1
 10
21.05000000000001
 20
-29.986917331
 30
0.0
 11
21.05000000000001
 21
29.98691594709999
 31
0.0
  0
LINE
  5
11D8
  8
1
 10
21.05000000000001
 20
29.98691594709999
 30
0.0
 11
19.05000000000001
 21
29.90949643989998
 31
0.0
  0
LINE
  5
11D9
  8
1
 10
19.05000000000001
 20
-29.90949793750001
 30
0.0
 11
21.05000000000001
 21
-29.986917331
 31
0.0
  0
LINE
  5
11EA
  8
1
 10
21.05000000000001
 20
-29.98691571660001
 30
0.0
 11
19.05000000000001
 21
-29.90949781580001
 31
0.0
  0
LINE
  5
11F1
  8
1
 10
19.05000000000001
 20
29.90949784149998
 30
0.0
 11
21.05000000000001
 21
29.98691594829998
 31
0.0
  0
LINE
  5
1202
  8
1
 10
37.75
 20
0.7216878363999939
 30
0.0
 11
36.5
 21
1.44337567289999
 31
0.0
  0
LINE
  5
1203
  8
1
 10
35.25
 20
0.7216878363999939
 30
0.0
 11
36.5
 21
1.44337567289999
 31
0.0
  0
LINE
  5
1204
  8
1
 10
37.75
 20
-0.7216878365000099
 30
0.0
 11
36.5
 21
-1.443375673000006
 31
0.0
  0
LINE
  5
1205
  8
1
 10
37.75
 20
-0.7216878365000099
 30
0.0
 11
37.75
 21
0.7216878363999939
 31
0.0
  0
CIRCLE
  5
1206
  8
1
 10
36.5
 20
0.0
 30
0.0
 40
2.055000000000007
  0
LINE
  5
1207
  8
1
 10
35.25
 20
-0.7216878365000099
 30
0.0
 11
35.25
 21
0.7216878363999939
 31
0.0
  0
LINE
  5
1208
  8
1
 10
35.25
 20
-0.7216878365000099
 30
0.0
 11
36.5
 21
-1.443375673000006
 31
0.0
  0
CIRCLE
  5
1209
  8
1
 10
36.5
 20
0.0
 30
0.0
 40
2.256103126841964
  0
CIRCLE
  5
120A
  8
1
 10
36.5
 20
0.0
 30
0.0
 40
2.5
  0
POLYLINE
  5
122A
  8
3
 66
     1
 10
0.0
 20
0.0
 30
0.0
  0
VERTEX
  5
27B0
  8
3
 10
36.5
 20
-28.4105078835
 30
0.0
  0
VERTEX
  5
27B1
  8
3
 10
35.63283173920001
 20
-28.34722666280001
 30
0.0
  0
VERTEX
  5
27B2
  8
3
 10
34.86345218320002
 20
-28.16124532720001
 30
0.0
  0
VERTEX
  5
27B3
  8
3
 10
34.27667295840001
 20
-27.8640826381
 30
0.0
  0
VERTEX
  5
27B4
  8
3
 10
33.93985052030001
 20
-27.4784996856
 30
0.0
  0
VERTEX
  5
27B5
  8
3
 10
33.89214582110003
 20
-27.04219256580001
 30
0.0
  0
VERTEX
  5
27B6
  8
3
 10
34.13694078650002
 20
-26.6036459309
 30
0.0
  0
VERTEX
  5
27B7
  8
3
 10
34.64677021760002
 20
-26.21595648590001
 30
0.0
  0
VERTEX
  5
27B8
  8
3
 10
35.36684541700004
 20
-25.93185994620001
 30
0.0
  0
VERTEX
  5
27B9
  8
3
 10
35.55909645070005
 20
-25.90070644960001
 30
0.0
  0
SEQEND
  5
2D94
  8
3
  0
POLYLINE
  5
122D
  8
3
 66
     1
 10
0.0
 20
0.0
 30
0.0
  0
VERTEX
  5
27BA
  8
3
 10
37.42849176980002
 20
-25.90367325690001
 30
0.0
  0
VERTEX
  5
27BB
  8
3
 10
37.90358359180004
 20
-26.0161381779
 30
0.0
  0
VERTEX
  5
27BC
  8
3
 10
38.55774680540003
 20
-26.34163354350001
 30
0.0
  0
VERTEX
  5
27BD
  8
3
 10
38.9815116085
 20
-26.7550945375
 30
0.0
  0
VERTEX
  5
27BE
  8
3
 10
39.12496362730002
 20
-27.20010437720001
 30
0.0
  0
VERTEX
  5
27BF
  8
3
 10
38.97327568750006
 20
-27.6222818554
 30
0.0
  0
VERTEX
  5
27C0
  8
3
 10
38.54465283900004
 20
-27.9789070961
 30
0.0
  0
VERTEX
  5
27C1
  8
3
 10
37.88497373680002
 20
-28.2394916442
 30
0.0
  0
VERTEX
  5
27C2
  8
3
 10
37.06776061779999
 20
-28.3839005337
 30
0.0
  0
VERTEX
  5
27C3
  8
3
 10
36.5
 20
-28.4105078835
 30
0.0
  0
SEQEND
  5
2D93
  8
3
  0
POLYLINE
  5
122E
  8
3
 66
     1
 10
0.0
 20
0.0
 30
0.0
  0
VERTEX
  5
27C4
  8
3
 10
36.5
 20
25.78550788339999
 30
0.0
  0
VERTEX
  5
27C5
  8
3
 10
35.63283173920001
 20
25.8695979158
 30
0.0
  0
VERTEX
  5
27C6
  8
3
 10
34.86345218320002
 20
26.10884764560001
 30
0.0
  0
VERTEX
  5
27C7
  8
3
 10
34.27667295840001
 20
26.4685748931
 30
0.0
  0
VERTEX
  5
27C8
  8
3
 10
33.93985052030001
 20
26.89862069669999
 30
0.0
  0
VERTEX
  5
27C9
  8
3
 10
33.89214582110003
 20
27.341728176
 30
0.0
  0
VERTEX
  5
27CA
  8
3
 10
34.13694078650002
 20
27.74670155219999
 30
0.0
  0
VERTEX
  5
27CB
  8
3
 10
34.64677021760002
 20
28.07503270089998
 30
0.0
  0
VERTEX
  5
27CC
  8
3
 10
35.36684541700004
 20
28.2996829317
 30
0.0
  0
VERTEX
  5
27CD
  8
3
 10
36.21529524080006
 20
28.40388704520001
 30
0.0
  0
VERTEX
  5
27CE
  8
3
 10
37.09345930879999
 20
28.38139913489999
 30
0.0
  0
VERTEX
  5
27CF
  8
3
 10
37.90358359180004
 20
28.23437578919999
 30
0.0
  0
VERTEX
  5
27D0
  8
3
 10
38.55774680540003
 20
27.9714504303
 30
0.0
  0
VERTEX
  5
27D1
  8
3
 10
38.9815116085
 20
27.6110881921
 30
0.0
  0
VERTEX
  5
27D2
  8
3
 10
39.12496362730002
 20
27.1862857138
 30
0.0
  0
VERTEX
  5
27D3
  8
3
 10
38.97327568750006
 20
26.7427749631
 30
0.0
  0
VERTEX
  5
27D4
  8
3
 10
38.54465283900004
 20
26.33269332859999
 30
0.0
  0
VERTEX
  5
27D5
  8
3
 10
37.88497373680002
 20
26.00958744249999
 30
0.0
  0
VERTEX
  5
27D6
  8
3
 10
37.06776061779999
 20
25.82103633879998
 30
0.0
  0
VERTEX
  5
27D7
  8
3
 10
36.5
 20
25.78550788339999
 30
0.0
  0
SEQEND
  5
2D92
  8
3
  0
CIRCLE
  5
122F
  8
3
 10
36.5
 20
0.0
 30
0.0
 40
2.099999999999994
  0
LINE
  5
1234
  8
3
 10
35.10000000000002
 20
-1.56524758430001
 30
0.0
 11
35.10000000000002
 21
-2.5
 31
0.0
  0
LINE
  5
1235
  8
3
 10
35.10000000000002
 20
1.565247584199994
 30
0.0
 11
35.4604185444
 21
1.789745501100001
 31
0.0
  0
POLYLINE
  5
1236
  8
3
 66
     1
 10
0.0
 20
0.0
 30
0.0
  0
VERTEX
  5
27D8
  8
3
 10
38.58149788930001
 20
0.0911170724999977
 30
0.0
  0
VERTEX
  5
27D9
  8
3
 10
38.57500725470004
 20
-0.3230246009000126
 30
0.0
  0
VERTEX
  5
27DA
  8
3
 10
38.53796037640006
 20
-0.4514419468000028
 30
0.0
  0
SEQEND
  5
2D91
  8
3
  0
LINE
  5
1237
  8
3
 10
35.10000000000002
 20
2.5
 30
0.0
 11
35.10000000000002
 21
1.565247584199994
 31
0.0
  0
LINE
  5
123A
  8
3
 10
49.0
 20
9.525000000000006
 30
0.0
 11
49.0
 21
-9.525000000000006
 31
0.0
  0
LINE
  5
124A
  8
3
 10
41.06000000000006
 20
8.731249999999989
 30
0.0
 11
41.06000000000006
 21
-8.731250000000003
 31
0.0
  0
LINE
  5
124B
  8
3
 10
38.81803881530004
 20
-5.0
 30
0.0
 11
38.81803881530004
 21
5.0
 31
0.0
  0
LINE
  5
1265
  8
3
 10
47.0
 20
41.27474999999998
 30
0.0
 11
47.0
 21
25.40525
 31
0.0
  0
LINE
  5
1266
  8
3
 10
47.0
 20
-25.40525000000001
 30
0.0
 11
47.0
 21
-41.27475000000001
 31
0.0
  0
LINE
  5
1267
  8
SK3
 10
-8.25
 20
0.0
 30
0.0
 11
-8.25
 21
6.700000000000004
 31
0.0
  0
LINE
  5
1268
  8
SK3
 10
-8.25
 20
-6.700000000000003
 30
0.0
 11
-8.25
 21
0.0
 31
0.0
  0
LINE
  5
1269
  8
SK3
 10
-7.235747275099982
 20
0.0
 30
0.0
 11
-7.235747275099982
 21
-5.0
 31
0.0
  0
LINE
  5
126A
  8
SK3
 10
-7.235747275099982
 20
5.0
 30
0.0
 11
-7.235747275099982
 21
0.0
 31
0.0
  0
POLYLINE
  5
126D
  8
3
 66
     1
 10
0.0
 20
0.0
 30
0.0
  0
VERTEX
  5
27DB
  8
3
 10
36.31463713050005
 20
-0.2777926969000077
 30
0.0
  0
VERTEX
  5
27DC
  8
3
 10
36.44091799080002
 20
-0.3180966576000088
 30
0.0
  0
VERTEX
  5
27DD
  8
3
 10
36.57472783830002
 20
-0.3155175971999995
 30
0.0
  0
VERTEX
  5
27DE
  8
3
 10
36.70403627510001
 20
-0.2674612411000084
 30
0.0
  0
VERTEX
  5
27DF
  8
3
 10
36.80420497090006
 20
-0.1798521189000013
 30
0.0
  0
VERTEX
  5
27E0
  8
3
 10
36.85761172140002
 20
-0.0734347743000114
 30
0.0
  0
VERTEX
  5
27E1
  8
3
 10
36.86592087949998
 20
0.0287795686999885
 30
0.0
  0
VERTEX
  5
27E2
  8
3
 10
36.84088327950002
 20
0.1195019759999951
 30
0.0
  0
VERTEX
  5
27E3
  8
3
 10
36.78753298950005
 20
0.1997669455999898
 30
0.0
  0
VERTEX
  5
27E4
  8
3
 10
36.70505086800006
 20
0.2668599619999981
 30
0.0
  0
VERTEX
  5
27E5
  8
3
 10
36.59381748790003
 20
0.3115147966999956
 30
0.0
  0
VERTEX
  5
27E6
  8
3
 10
36.46229127490005
 20
0.3206259380999938
 30
0.0
  0
VERTEX
  5
27E7
  8
3
 10
36.32927031320003
 20
0.2849758852999997
 30
0.0
  0
VERTEX
  5
27E8
  8
3
 10
36.21888446730003
 20
0.2066577911999872
 30
0.0
  0
VERTEX
  5
27E9
  8
3
 10
36.15200674360005
 20
0.1027249249999898
 30
0.0
  0
VERTEX
  5
27EA
  8
3
 10
36.13259822300006
 20
-0.0020948901000111
 30
0.0
  0
VERTEX
  5
27EB
  8
3
 10
36.1494501331
 20
-0.0958850338000019
 30
0.0
  0
VERTEX
  5
27EC
  8
3
 10
36.19513866750003
 20
-0.1789993775000056
 30
0.0
  0
VERTEX
  5
27ED
  8
3
 10
36.26954890060006
 20
-0.25032509830001
 30
0.0
  0
VERTEX
  5
27EE
  8
3
 10
36.31463713050005
 20
-0.2777926969000077
 30
0.0
  0
SEQEND
  5
2D90
  8
3
  0
POLYLINE
  5
126E
  8
3
 66
     1
 10
0.0
 20
0.0
 30
0.0
  0
VERTEX
  5
27EF
  8
3
 10
36.14427261490005
 20
4.28952782319999
 30
0.0
  0
VERTEX
  5
27F0
  8
3
 10
36.1328866563
 20
4.3365372847
 30
0.0
  0
VERTEX
  5
27F1
  8
3
 10
36.15293893080002
 20
4.381718874599997
 30
0.0
  0
VERTEX
  5
27F2
  8
3
 10
36.20158358390006
 20
4.420658893899997
 30
0.0
  0
VERTEX
  5
27F3
  8
3
 10
36.27910622810003
 20
4.452855295599988
 30
0.0
  0
VERTEX
  5
27F4
  8
3
 10
36.38583945810001
 20
4.475088983799992
 30
0.0
  0
VERTEX
  5
27F5
  8
3
 10
36.51503905150003
 20
4.482173651499991
 30
0.0
  0
VERTEX
  5
27F6
  8
3
 10
36.649431639
 20
4.469690192399995
 30
0.0
  0
VERTEX
  5
27F7
  8
3
 10
36.76528180360003
 20
4.436931491099998
 30
0.0
  0
VERTEX
  5
27F8
  8
3
 10
36.8403093508
 20
4.389235007599993
 30
0.0
  0
VERTEX
  5
27F9
  8
3
 10
36.86702071360003
 20
4.337468402699997
 30
0.0
  0
VERTEX
  5
27FA
  8
3
 10
36.85544977890004
 20
4.289049193599993
 30
0.0
  0
VERTEX
  5
27FB
  8
3
 10
36.81443860249999
 20
4.244823168299988
 30
0.0
  0
VERTEX
  5
27FC
  8
3
 10
36.74493762220004
 20
4.205419030799987
 30
0.0
  0
VERTEX
  5
27FD
  8
3
 10
36.64589985350005
 20
4.17480909839999
 30
0.0
  0
VERTEX
  5
27FE
  8
3
 10
36.52152857190003
 20
4.1602543228
 30
0.0
  0
VERTEX
  5
27FF
  8
3
 10
36.38634387460002
 20
4.168832052900001
 30
0.0
  0
VERTEX
  5
2800
  8
3
 10
36.26300021870003
 20
4.202121624399993
 30
0.0
  0
VERTEX
  5
2801
  8
3
 10
36.17522021450003
 20
4.253258451799994
 30
0.0
  0
VERTEX
  5
2802
  8
3
 10
36.14427261490005
 20
4.28952782319999
 30
0.0
  0
SEQEND
  5
2D8F
  8
3
  0
POLYLINE
  5
126F
  8
3
 66
     1
 10
0.0
 20
0.0
 30
0.0
  0
VERTEX
  5
2803
  8
3
 10
36.14427261490005
 20
-4.289527823300006
 30
0.0
  0
VERTEX
  5
2804
  8
3
 10
36.18459173150006
 20
-4.245570387000001
 30
0.0
  0
VERTEX
  5
2805
  8
3
 10
36.25360427210001
 20
-4.206044857200013
 30
0.0
  0
VERTEX
  5
2806
  8
3
 10
36.35213761010004
 20
-4.175227732300002
 30
0.0
  0
VERTEX
  5
2807
  8
3
 10
36.47616123030002
 20
-4.160325055400008
 30
0.0
  0
VERTEX
  5
2808
  8
3
 10
36.61133709130002
 20
-4.168465365700001
 30
0.0
  0
VERTEX
  5
2809
  8
3
 10
36.73509790030005
 20
-4.201358163600005
 30
0.0
  0
VERTEX
  5
280A
  8
3
 10
36.82366091300003
 20
-4.2522920193
 30
0.0
  0
VERTEX
  5
280B
  8
3
 10
36.86381837660002
 20
-4.307635362100001
 30
0.0
  0
VERTEX
  5
280C
  8
3
 10
36.86204045310001
 20
-4.357128498500003
 30
0.0
  0
VERTEX
  5
280D
  8
3
 10
36.82918109820002
 20
-4.399537001400006
 30
0.0
  0
VERTEX
  5
280E
  8
3
 10
36.76808288870006
 20
-4.43573050820001
 30
0.0
  0
VERTEX
  5
280F
  8
3
 10
36.67753032490003
 20
-4.4641139573
 30
0.0
  0
VERTEX
  5
2810
  8
3
 10
36.55948827920002
 20
-4.480377246100005
 30
0.0
  0
VERTEX
  5
2811
  8
3
 10
36.4253450425
 20
-4.479261811900002
 30
0.0
  0
VERTEX
  5
2812
  8
3
 10
36.29602854289999
 20
-4.457675402500001
 30
0.0
  0
VERTEX
  5
2813
  8
3
 10
36.19583785660006
 20
-4.417276849400011
 30
0.0
  0
VERTEX
  5
2814
  8
3
 10
36.14240409590002
 20
-4.366405864800001
 30
0.0
  0
VERTEX
  5
2815
  8
3
 10
36.13407366479998
 20
-4.315692106500009
 30
0.0
  0
VERTEX
  5
2816
  8
3
 10
36.14427261490005
 20
-4.289527823300006
 30
0.0
  0
SEQEND
  5
2D8E
  8
3
  0
LINE
  5
1272
  8
3
 10
22.5
 20
20.01999999999998
 30
0.0
 11
26.5
 21
20.01999999999998
 31
0.0
  0
LINE
  5
1273
  8
3
 10
18.5
 20
20.01999999999998
 30
0.0
 11
22.5
 21
20.01999999999998
 31
0.0
  0
POLYLINE
  5
1274
  8
3
 66
     1
 10
0.0
 20
0.0
 30
0.0
  0
VERTEX
  5
2817
  8
3
 10
35.10000000000002
 20
-11.2187851435
 30
0.0
  0
VERTEX
  5
2818
  8
3
 10
35.71245335460003
 20
-11.7393510799
 30
0.0
  0
VERTEX
  5
2819
  8
3
 10
36.15893749640003
 20
-11.94911710880001
 30
0.0
  0
VERTEX
  5
281A
  8
3
 10
36.55593641500002
 20
-11.99825070710001
 30
0.0
  0
VERTEX
  5
281B
  8
3
 10
36.94699089820006
 20
-11.9134228285
 30
0.0
  0
VERTEX
  5
281C
  8
3
 10
37.48297206970005
 20
-11.6014749727
 30
0.0
  0
VERTEX
  5
281D
  8
3
 10
38.10250693130001
 20
-10.98470513390001
 30
0.0
  0
VERTEX
  5
281E
  8
3
 10
38.43933055420001
 20
-10.4775837289
 30
0.0
  0
VERTEX
  5
281F
  8
3
 10
38.58411086700005
 20
-10.09975834620001
 30
0.0
  0
VERTEX
  5
2820
  8
3
 10
38.57500725470004
 20
-9.815928978300008
 30
0.0
  0
VERTEX
  5
2821
  8
3
 10
38.42821502240002
 20
-9.666734029400004
 30
0.0
  0
VERTEX
  5
2822
  8
3
 10
38.14749951780004
 20
-9.625092905200006
 30
0.0
  0
VERTEX
  5
2823
  8
3
 10
37.56231323949999
 20
-9.726504817600002
 30
0.0
  0
VERTEX
  5
2824
  8
3
 10
37.02404653330001
 20
-9.848222108400009
 30
0.0
  0
VERTEX
  5
2825
  8
3
 10
36.61336099840003
 20
-9.897057520499999
 30
0.0
  0
VERTEX
  5
2826
  8
3
 10
36.18654786920001
 20
-9.880427900100003
 30
0.0
  0
VERTEX
  5
2827
  8
3
 10
35.70179731330006
 20
-9.79013336540001
 30
0.0
  0
VERTEX
  5
2828
  8
3
 10
35.10000000000002
 20
-9.653537559300005
 30
0.0
  0
SEQEND
  5
2D8D
  8
3
  0
POLYLINE
  5
1275
  8
3
 66
     1
 10
0.0
 20
0.0
 30
0.0
  0
VERTEX
  5
2829
  8
3
 10
35.10000000000002
 20
-9.653537559300005
 30
0.0
  0
VERTEX
  5
282A
  8
3
 10
34.80292384510005
 20
-10.1386724023
 30
0.0
  0
VERTEX
  5
282B
  8
3
 10
34.59381485620003
 20
-10.46791719960001
 30
0.0
  0
VERTEX
  5
282C
  8
3
 10
34.45145988060005
 20
-10.72990493580001
 30
0.0
  0
VERTEX
  5
282D
  8
3
 10
34.41203344439998
 20
-11.07932539240001
 30
0.0
  0
VERTEX
  5
282E
  8
3
 10
34.54941060810006
 20
-11.31871765490001
 30
0.0
  0
VERTEX
  5
282F
  8
3
 10
34.74077194800003
 20
-11.38348933850001
 30
0.0
  0
VERTEX
  5
2830
  8
3
 10
34.96265949259998
 20
-11.3117110954
 30
0.0
  0
VERTEX
  5
2831
  8
3
 10
35.10000000000002
 20
-11.2187851435
 30
0.0
  0
SEQEND
  5
2D8C
  8
3
  0
POLYLINE
  5
1276
  8
3
 66
     1
 10
0.0
 20
0.0
 30
0.0
  0
VERTEX
  5
2832
  8
3
 10
36.5
 20
-3.626537180500009
 30
0.0
  0
VERTEX
  5
2833
  8
3
 10
37.18186888529999
 20
-3.683429076700008
 30
0.0
  0
VERTEX
  5
2834
  8
3
 10
37.78984669660002
 20
-3.847939645600007
 30
0.0
  0
VERTEX
  5
2835
  8
3
 10
38.25804960440001
 20
-4.102241614500002
 30
0.0
  0
VERTEX
  5
2836
  8
3
 10
38.53574055850004
 20
-4.418777419000008
 30
0.0
  0
VERTEX
  5
2837
  8
3
 10
38.59282743530002
 20
-4.763245493200003
 30
0.0
  0
VERTEX
  5
2838
  8
3
 10
38.42312398600006
 20
-5.098317376400004
 30
0.0
  0
VERTEX
  5
2839
  8
3
 10
38.0450202124
 20
-5.387682830700001
 30
0.0
  0
VERTEX
  5
283A
  8
3
 10
37.49948952540001
 20
-5.599984619200001
 30
0.0
  0
VERTEX
  5
283B
  8
3
 10
36.84564863960003
 20
-5.712216549100006
 30
0.0
  0
VERTEX
  5
283C
  8
3
 10
36.15435136040003
 20
-5.712216549100006
 30
0.0
  0
VERTEX
  5
283D
  8
3
 10
35.50051047459999
 20
-5.599984619200001
 30
0.0
  0
VERTEX
  5
283E
  8
3
 10
34.9549797876
 20
-5.387682830700001
 30
0.0
  0
VERTEX
  5
283F
  8
3
 10
34.57687601400005
 20
-5.098317376400004
 30
0.0
  0
VERTEX
  5
2840
  8
3
 10
34.40717256470003
 20
-4.763245493200003
 30
0.0
  0
VERTEX
  5
2841
  8
3
 10
34.46425944150002
 20
-4.418777419000008
 30
0.0
  0
VERTEX
  5
2842
  8
3
 10
34.74195039560004
 20
-4.102241614500002
 30
0.0
  0
VERTEX
  5
2843
  8
3
 10
35.21015330340003
 20
-3.847939645600007
 30
0.0
  0
VERTEX
  5
2844
  8
3
 10
35.81813111470001
 20
-3.683429076700008
 30
0.0
  0
VERTEX
  5
2845
  8
3
 10
36.5
 20
-3.626537180500009
 30
0.0
  0
SEQEND
  5
2D8B
  8
3
  0
POLYLINE
  5
1277
  8
3
 66
     1
 10
0.0
 20
0.0
 30
0.0
  0
VERTEX
  5
2846
  8
3
 10
35.10000000000002
 20
9.653537559200004
 30
0.0
  0
VERTEX
  5
2847
  8
3
 10
35.71245335460003
 20
9.792617846599995
 30
0.0
  0
VERTEX
  5
2848
  8
3
 10
36.15893749640003
 20
9.876998297299991
 30
0.0
  0
VERTEX
  5
2849
  8
3
 10
36.55593641500002
 20
9.898995811199995
 30
0.0
  0
VERTEX
  5
284A
  8
3
 10
36.94699089820006
 20
9.861545849500004
 30
0.0
  0
VERTEX
  5
284B
  8
3
 10
37.48297206970005
 20
9.745736329899984
 30
0.0
  0
VERTEX
  5
284C
  8
3
 10
38.10250693130001
 20
9.627512614300002
 30
0.0
  0
VERTEX
  5
284D
  8
3
 10
38.43933055420001
 20
9.671980227299997
 30
0.0
  0
VERTEX
  5
284E
  8
3
 10
38.58411086700005
 20
9.8419175155
 30
0.0
  0
VERTEX
  5
284F
  8
3
 10
38.57500725470004
 20
10.13895357909999
 30
0.0
  0
VERTEX
  5
2850
  8
3
 10
38.42821502240002
 20
10.4985914856
 30
0.0
  0
VERTEX
  5
2851
  8
3
 10
38.14749951780004
 20
10.92730077589999
 30
0.0
  0
VERTEX
  5
2852
  8
3
 10
37.56231323949999
 20
11.5379933163
 30
0.0
  0
VERTEX
  5
2853
  8
3
 10
37.02404653330001
 20
11.8817843107
 30
0.0
  0
VERTEX
  5
2854
  8
3
 10
36.61336099840003
 20
11.9939955939
 30
0.0
  0
VERTEX
  5
2855
  8
3
 10
36.18654786920001
 20
11.95690274009999
 30
0.0
  0
VERTEX
  5
2856
  8
3
 10
35.70179731330006
 20
11.73252170719999
 30
0.0
  0
VERTEX
  5
2857
  8
3
 10
35.10000000000002
 20
11.2187851434
 30
0.0
  0
SEQEND
  5
2D8A
  8
3
  0
POLYLINE
  5
1278
  8
3
 66
     1
 10
0.0
 20
0.0
 30
0.0
  0
VERTEX
  5
2858
  8
3
 10
35.10000000000002
 20
11.2187851434
 30
0.0
  0
VERTEX
  5
2859
  8
3
 10
34.80292384510005
 20
11.37557681409999
 30
0.0
  0
VERTEX
  5
285A
  8
3
 10
34.59381485620003
 20
11.34908585399998
 30
0.0
  0
VERTEX
  5
285B
  8
3
 10
34.45145988060005
 20
11.1919475517
 30
0.0
  0
VERTEX
  5
285C
  8
3
 10
34.41203344439998
 20
10.8548356096
 30
0.0
  0
VERTEX
  5
285D
  8
3
 10
34.54941060810006
 20
10.54077098299999
 30
0.0
  0
VERTEX
  5
285E
  8
3
 10
34.74077194800003
 20
10.23670397879999
 30
0.0
  0
VERTEX
  5
285F
  8
3
 10
34.96265949259998
 20
9.881122347900003
 30
0.0
  0
VERTEX
  5
2860
  8
3
 10
35.10000000000002
 20
9.653537559200004
 30
0.0
  0
SEQEND
  5
2D89
  8
3
  0
POLYLINE
  5
1279
  8
3
 66
     1
 10
0.0
 20
0.0
 30
0.0
  0
VERTEX
  5
2861
  8
3
 10
36.5
 20
5.726537180400001
 30
0.0
  0
VERTEX
  5
2862
  8
3
 10
37.18186888529999
 20
5.669645284199987
 30
0.0
  0
VERTEX
  5
2863
  8
3
 10
37.78984669660002
 20
5.505134715299988
 30
0.0
  0
VERTEX
  5
2864
  8
3
 10
38.25804960440001
 20
5.250832746399993
 30
0.0
  0
VERTEX
  5
2865
  8
3
 10
38.53574055850004
 20
4.934296941899987
 30
0.0
  0
VERTEX
  5
2866
  8
3
 10
38.59282743530002
 20
4.589828867599991
 30
0.0
  0
VERTEX
  5
2867
  8
3
 10
38.42312398600006
 20
4.254756984499991
 30
0.0
  0
VERTEX
  5
2868
  8
3
 10
38.0450202124
 20
3.965391530199994
 30
0.0
  0
VERTEX
  5
2869
  8
3
 10
37.49948952540001
 20
3.753089741599993
 30
0.0
  0
VERTEX
  5
286A
  8
3
 10
36.84564863960003
 20
3.640857811799989
 30
0.0
  0
VERTEX
  5
286B
  8
3
 10
36.15435136040003
 20
3.640857811799989
 30
0.0
  0
VERTEX
  5
286C
  8
3
 10
35.50051047459999
 20
3.753089741599993
 30
0.0
  0
VERTEX
  5
286D
  8
3
 10
34.9549797876
 20
3.965391530199994
 30
0.0
  0
VERTEX
  5
286E
  8
3
 10
34.57687601400005
 20
4.254756984499991
 30
0.0
  0
VERTEX
  5
286F
  8
3
 10
34.40717256470003
 20
4.589828867599991
 30
0.0
  0
VERTEX
  5
2870
  8
3
 10
34.46425944150002
 20
4.934296941899987
 30
0.0
  0
VERTEX
  5
2871
  8
3
 10
34.74195039560004
 20
5.250832746399993
 30
0.0
  0
VERTEX
  5
2872
  8
3
 10
35.21015330340003
 20
5.505134715299988
 30
0.0
  0
VERTEX
  5
2873
  8
3
 10
35.81813111470001
 20
5.669645284199987
 30
0.0
  0
VERTEX
  5
2874
  8
3
 10
36.5
 20
5.726537180400001
 30
0.0
  0
SEQEND
  5
2D88
  8
3
  0
POLYLINE
  5
127A
  8
3
 66
     1
 10
0.0
 20
0.0
 30
0.0
  0
VERTEX
  5
2875
  8
3
 10
35.10000000000002
 20
-13.0299261625
 30
0.0
  0
VERTEX
  5
2876
  8
3
 10
35.71245335460003
 20
-12.5093602262
 30
0.0
  0
VERTEX
  5
2877
  8
3
 10
36.15893749640003
 20
-12.29959419720001
 30
0.0
  0
VERTEX
  5
2878
  8
3
 10
36.55593641500002
 20
-12.25046059900001
 30
0.0
  0
VERTEX
  5
2879
  8
3
 10
36.94699089820006
 20
-12.3352884775
 30
0.0
  0
VERTEX
  5
287A
  8
3
 10
37.48297206970005
 20
-12.6472363333
 30
0.0
  0
VERTEX
  5
287B
  8
3
 10
38.10250693130001
 20
-13.26400617210001
 30
0.0
  0
VERTEX
  5
287C
  8
3
 10
38.43933055420001
 20
-13.7711275771
 30
0.0
  0
VERTEX
  5
287D
  8
3
 10
38.58411086700005
 20
-14.1489529599
 30
0.0
  0
VERTEX
  5
287E
  8
3
 10
38.57500725470004
 20
-14.43278232770001
 30
0.0
  0
VERTEX
  5
287F
  8
3
 10
38.42821502240002
 20
-14.5819772766
 30
0.0
  0
VERTEX
  5
2880
  8
3
 10
38.14749951780004
 20
-14.62361840080001
 30
0.0
  0
VERTEX
  5
2881
  8
3
 10
37.56231323949999
 20
-14.5222064884
 30
0.0
  0
VERTEX
  5
2882
  8
3
 10
37.02404653330001
 20
-14.40048919770001
 30
0.0
  0
VERTEX
  5
2883
  8
3
 10
36.61336099840003
 20
-14.35165378550001
 30
0.0
  0
VERTEX
  5
2884
  8
3
 10
36.18654786920001
 20
-14.3682834059
 30
0.0
  0
VERTEX
  5
2885
  8
3
 10
35.70179731330006
 20
-14.45857794070001
 30
0.0
  0
VERTEX
  5
2886
  8
3
 10
35.10000000000002
 20
-14.5951737468
 30
0.0
  0
SEQEND
  5
2D87
  8
3
  0
LINE
  5
127B
  8
3
 10
35.10000000000002
 20
-11.2187851435
 30
0.0
 11
35.10000000000002
 21
-9.653537559300005
 31
0.0
  0
LINE
  5
127C
  8
3
 10
35.10000000000002
 20
-11.2187851435
 30
0.0
 11
35.10000000000002
 21
-14.5951737468
 31
0.0
  0
POLYLINE
  5
127D
  8
3
 66
     1
 10
0.0
 20
0.0
 30
0.0
  0
VERTEX
  5
2887
  8
3
 10
35.10000000000002
 20
-14.5951737468
 30
0.0
  0
VERTEX
  5
2888
  8
3
 10
34.80292384510005
 20
-14.1100389038
 30
0.0
  0
VERTEX
  5
2889
  8
3
 10
34.59381485620003
 20
-13.78079410650001
 30
0.0
  0
VERTEX
  5
288A
  8
3
 10
34.45145988060005
 20
-13.51880637030001
 30
0.0
  0
VERTEX
  5
288B
  8
3
 10
34.41203344439998
 20
-13.16938591370001
 30
0.0
  0
VERTEX
  5
288C
  8
3
 10
34.54941060810006
 20
-12.92999365120001
 30
0.0
  0
VERTEX
  5
288D
  8
3
 10
34.74077194800003
 20
-12.86522196760001
 30
0.0
  0
VERTEX
  5
288E
  8
3
 10
34.96265949259998
 20
-12.93700021070001
 30
0.0
  0
VERTEX
  5
288F
  8
3
 10
35.10000000000002
 20
-13.0299261625
 30
0.0
  0
SEQEND
  5
2D86
  8
3
  0
POLYLINE
  5
127E
  8
3
 66
     1
 10
0.0
 20
0.0
 30
0.0
  0
VERTEX
  5
2890
  8
3
 10
35.10000000000002
 20
14.5951737467
 30
0.0
  0
VERTEX
  5
2891
  8
3
 10
35.71245335460003
 20
14.45609345930001
 30
0.0
  0
VERTEX
  5
2892
  8
3
 10
36.15893749640003
 20
14.37171300859998
 30
0.0
  0
VERTEX
  5
2893
  8
3
 10
36.55593641500002
 20
14.34971549470001
 30
0.0
  0
VERTEX
  5
2894
  8
3
 10
36.94699089820006
 20
14.3871654564
 30
0.0
  0
VERTEX
  5
2895
  8
3
 10
37.48297206970005
 20
14.50297497599999
 30
0.0
  0
VERTEX
  5
2896
  8
3
 10
38.10250693130001
 20
14.62119869149998
 30
0.0
  0
VERTEX
  5
2897
  8
3
 10
38.43933055420001
 20
14.57673107860001
 30
0.0
  0
VERTEX
  5
2898
  8
3
 10
38.58411086700005
 20
14.4067937904
 30
0.0
  0
VERTEX
  5
2899
  8
3
 10
38.57500725470004
 20
14.10975772679998
 30
0.0
  0
VERTEX
  5
289A
  8
3
 10
38.42821502240002
 20
13.7501198203
 30
0.0
  0
VERTEX
  5
289B
  8
3
 10
38.14749951780004
 20
13.32141052989999
 30
0.0
  0
VERTEX
  5
289C
  8
3
 10
37.56231323949999
 20
12.7107179896
 30
0.0
  0
VERTEX
  5
289D
  8
3
 10
37.02404653330001
 20
12.3669269952
 30
0.0
  0
VERTEX
  5
289E
  8
3
 10
36.61336099840003
 20
12.25471571189999
 30
0.0
  0
VERTEX
  5
289F
  8
3
 10
36.18654786920001
 20
12.29180856569999
 30
0.0
  0
VERTEX
  5
28A0
  8
3
 10
35.70179731330006
 20
12.51618959859999
 30
0.0
  0
VERTEX
  5
28A1
  8
3
 10
35.10000000000002
 20
13.02992616239999
 30
0.0
  0
SEQEND
  5
2D85
  8
3
  0
LINE
  5
127F
  8
3
 10
35.10000000000002
 20
14.5951737467
 30
0.0
 11
35.10000000000002
 21
11.2187851434
 31
0.0
  0
LINE
  5
1280
  8
3
 10
35.10000000000002
 20
9.653537559200004
 30
0.0
 11
35.10000000000002
 21
11.2187851434
 31
0.0
  0
POLYLINE
  5
1281
  8
3
 66
     1
 10
0.0
 20
0.0
 30
0.0
  0
VERTEX
  5
28A2
  8
3
 10
35.10000000000002
 20
13.02992616239999
 30
0.0
  0
VERTEX
  5
28A3
  8
3
 10
34.80292384510005
 20
12.8731344917
 30
0.0
  0
VERTEX
  5
28A4
  8
3
 10
34.59381485620003
 20
12.89962545189999
 30
0.0
  0
VERTEX
  5
28A5
  8
3
 10
34.45145988060005
 20
13.05676375409999
 30
0.0
  0
VERTEX
  5
28A6
  8
3
 10
34.41203344439998
 20
13.3938756963
 30
0.0
  0
VERTEX
  5
28A7
  8
3
 10
34.54941060810006
 20
13.7079403228
 30
0.0
  0
VERTEX
  5
28A8
  8
3
 10
34.74077194800003
 20
14.01200732710001
 30
0.0
  0
VERTEX
  5
28A9
  8
3
 10
34.96265949259998
 20
14.367588958
 30
0.0
  0
VERTEX
  5
28AA
  8
3
 10
35.10000000000002
 20
14.5951737467
 30
0.0
  0
SEQEND
  5
2D84
  8
3
  0
POLYLINE
  5
1282
  8
3
 66
     1
 10
0.0
 20
0.0
 30
0.0
  0
VERTEX
  5
28AB
  8
3
 10
36.5
 20
27.37717227499999
 30
0.0
  0
VERTEX
  5
28AC
  8
3
 10
37.18186888529999
 20
27.32028037879999
 30
0.0
  0
VERTEX
  5
28AD
  8
3
 10
37.78984669660002
 20
27.15576980989999
 30
0.0
  0
VERTEX
  5
28AE
  8
3
 10
38.25804960440001
 20
26.901467841
 30
0.0
  0
VERTEX
  5
28AF
  8
3
 10
38.53574055850004
 20
26.58493203649999
 30
0.0
  0
VERTEX
  5
28B0
  8
3
 10
38.59282743530002
 20
26.2404639623
 30
0.0
  0
VERTEX
  5
28B1
  8
3
 10
38.42312398600006
 20
25.90539207909998
 30
0.0
  0
VERTEX
  5
28B2
  8
3
 10
38.0450202124
 20
25.61602662479999
 30
0.0
  0
VERTEX
  5
28B3
  8
3
 10
37.49948952540001
 20
25.40372483619998
 30
0.0
  0
VERTEX
  5
28B4
  8
3
 10
36.84564863960003
 20
25.29149290639998
 30
0.0
  0
VERTEX
  5
28B5
  8
3
 10
36.15435136040003
 20
25.29149290639998
 30
0.0
  0
VERTEX
  5
28B6
  8
3
 10
35.50051047459999
 20
25.40372483619998
 30
0.0
  0
VERTEX
  5
28B7
  8
3
 10
34.9549797876
 20
25.61602662479999
 30
0.0
  0
VERTEX
  5
28B8
  8
3
 10
34.57687601400005
 20
25.90539207909998
 30
0.0
  0
VERTEX
  5
28B9
  8
3
 10
34.40717256470003
 20
26.2404639623
 30
0.0
  0
VERTEX
  5
28BA
  8
3
 10
34.46425944150002
 20
26.58493203649999
 30
0.0
  0
VERTEX
  5
28BB
  8
3
 10
34.74195039560004
 20
26.901467841
 30
0.0
  0
VERTEX
  5
28BC
  8
3
 10
35.21015330340003
 20
27.15576980989999
 30
0.0
  0
VERTEX
  5
28BD
  8
3
 10
35.81813111470001
 20
27.32028037879999
 30
0.0
  0
VERTEX
  5
28BE
  8
3
 10
36.5
 20
27.37717227499999
 30
0.0
  0
SEQEND
  5
2D83
  8
3
  0
POLYLINE
  5
1283
  8
3
 66
     1
 10
0.0
 20
0.0
 30
0.0
  0
VERTEX
  5
28BF
  8
3
 10
36.5
 20
-25.2771722751
 30
0.0
  0
VERTEX
  5
28C0
  8
3
 10
37.18186888529999
 20
-25.3340641713
 30
0.0
  0
VERTEX
  5
28C1
  8
3
 10
37.78984669660002
 20
-25.49857474020001
 30
0.0
  0
VERTEX
  5
28C2
  8
3
 10
38.25804960440001
 20
-25.75287670910001
 30
0.0
  0
VERTEX
  5
28C3
  8
3
 10
38.53574055850004
 20
-26.0694125136
 30
0.0
  0
VERTEX
  5
28C4
  8
3
 10
38.59282743530002
 20
-26.41388058780001
 30
0.0
  0
VERTEX
  5
28C5
  8
3
 10
38.42312398600006
 20
-26.74895247100001
 30
0.0
  0
VERTEX
  5
28C6
  8
3
 10
38.0450202124
 20
-27.03831792530001
 30
0.0
  0
VERTEX
  5
28C7
  8
3
 10
37.49948952540001
 20
-27.25061971390001
 30
0.0
  0
VERTEX
  5
28C8
  8
3
 10
36.84564863960003
 20
-27.36285164370001
 30
0.0
  0
VERTEX
  5
28C9
  8
3
 10
36.15435136040003
 20
-27.36285164370001
 30
0.0
  0
VERTEX
  5
28CA
  8
3
 10
35.50051047459999
 20
-27.25061971390001
 30
0.0
  0
VERTEX
  5
28CB
  8
3
 10
34.9549797876
 20
-27.03831792530001
 30
0.0
  0
VERTEX
  5
28CC
  8
3
 10
34.57687601400005
 20
-26.74895247100001
 30
0.0
  0
VERTEX
  5
28CD
  8
3
 10
34.40717256470003
 20
-26.41388058780001
 30
0.0
  0
VERTEX
  5
28CE
  8
3
 10
34.46425944150002
 20
-26.0694125136
 30
0.0
  0
VERTEX
  5
28CF
  8
3
 10
34.74195039560004
 20
-25.75287670910001
 30
0.0
  0
VERTEX
  5
28D0
  8
3
 10
35.21015330340003
 20
-25.49857474020001
 30
0.0
  0
VERTEX
  5
28D1
  8
3
 10
35.81813111470001
 20
-25.3340641713
 30
0.0
  0
VERTEX
  5
28D2
  8
3
 10
36.5
 20
-25.2771722751
 30
0.0
  0
SEQEND
  5
2D82
  8
3
  0
POLYLINE
  5
12A1
  8
3
 66
     1
 10
0.0
 20
0.0
 30
0.0
  0
VERTEX
  5
28D3
  8
3
 10
39.125
 20
-26.32717227510001
 30
0.0
  0
VERTEX
  5
28D4
  8
3
 10
39.00837861520006
 20
-26.71403844150001
 30
0.0
  0
VERTEX
  5
28D5
  8
3
 10
38.66887678260002
 20
-27.0665298513
 30
0.0
  0
VERTEX
  5
28D6
  8
3
 10
38.13666072990003
 20
-27.3533260958
 30
0.0
  0
VERTEX
  5
28D7
  8
3
 10
37.45902018900006
 20
-27.54894407020001
 30
0.0
  0
VERTEX
  5
28D8
  8
3
 10
36.69616649570003
 20
-27.63600225890001
 30
0.0
  0
VERTEX
  5
28D9
  8
3
 10
35.91588254840002
 20
-27.60676515980001
 30
0.0
  0
VERTEX
  5
28DA
  8
3
 10
35.1875
 20
-27.46383061760001
 30
0.0
  0
VERTEX
  5
28DB
  8
3
 10
34.57573883640003
 20
-27.21989899340001
 30
0.0
  0
VERTEX
  5
28DC
  8
3
 10
34.13495672179999
 20
-26.8966446827
 30
0.0
  0
VERTEX
  5
28DD
  8
3
 10
33.90431908120001
 20
-26.5227902494
 30
0.0
  0
VERTEX
  5
28DE
  8
3
 10
33.90431908120001
 20
-26.1315543007
 30
0.0
  0
VERTEX
  5
28DF
  8
3
 10
34.13495672179999
 20
-25.75769986750001
 30
0.0
  0
VERTEX
  5
28E0
  8
3
 10
34.57573883640003
 20
-25.4344455568
 30
0.0
  0
VERTEX
  5
28E1
  8
3
 10
35.1875
 20
-25.19051393260001
 30
0.0
  0
VERTEX
  5
28E2
  8
3
 10
35.91588254840002
 20
-25.0475793904
 30
0.0
  0
VERTEX
  5
28E3
  8
3
 10
36.69616649570003
 20
-25.0183422913
 30
0.0
  0
VERTEX
  5
28E4
  8
3
 10
37.45902018900006
 20
-25.10540048
 30
0.0
  0
VERTEX
  5
28E5
  8
3
 10
38.13666072990003
 20
-25.30101845440001
 30
0.0
  0
VERTEX
  5
28E6
  8
3
 10
38.66887678260002
 20
-25.5878146989
 30
0.0
  0
VERTEX
  5
28E7
  8
3
 10
39.00837861520006
 20
-25.9403061087
 30
0.0
  0
VERTEX
  5
28E8
  8
3
 10
39.125
 20
-26.32717227510001
 30
0.0
  0
SEQEND
  5
2D81
  8
3
  0
POLYLINE
  5
12A2
  8
3
 66
     1
 10
0.0
 20
0.0
 30
0.0
  0
VERTEX
  5
28E9
  8
3
 10
39.125
 20
26.32717227499998
 30
0.0
  0
VERTEX
  5
28EA
  8
3
 10
39.00837861520006
 20
25.9403061086
 30
0.0
  0
VERTEX
  5
28EB
  8
3
 10
38.66887678260002
 20
25.5878146988
 30
0.0
  0
VERTEX
  5
28EC
  8
3
 10
38.13666072990003
 20
25.30101845429999
 30
0.0
  0
VERTEX
  5
28ED
  8
3
 10
37.45902018900006
 20
25.1054004799
 30
0.0
  0
VERTEX
  5
28EE
  8
3
 10
36.69616649570003
 20
25.01834229119999
 30
0.0
  0
VERTEX
  5
28EF
  8
3
 10
35.91588254840002
 20
25.0475793903
 30
0.0
  0
VERTEX
  5
28F0
  8
3
 10
35.1875
 20
25.19051393249998
 30
0.0
  0
VERTEX
  5
28F1
  8
3
 10
34.57573883640003
 20
25.43444555669998
 30
0.0
  0
VERTEX
  5
28F2
  8
3
 10
34.13495672179999
 20
25.75769986739999
 30
0.0
  0
VERTEX
  5
28F3
  8
3
 10
33.90431908120001
 20
26.13155430059999
 30
0.0
  0
VERTEX
  5
28F4
  8
3
 10
33.90431908120001
 20
26.5227902494
 30
0.0
  0
VERTEX
  5
28F5
  8
3
 10
34.13495672179999
 20
26.8966446826
 30
0.0
  0
VERTEX
  5
28F6
  8
3
 10
34.57573883640003
 20
27.21989899330001
 30
0.0
  0
VERTEX
  5
28F7
  8
3
 10
35.1875
 20
27.46383061750001
 30
0.0
  0
VERTEX
  5
28F8
  8
3
 10
35.91588254840002
 20
27.60676515969999
 30
0.0
  0
VERTEX
  5
28F9
  8
3
 10
36.69616649570003
 20
27.6360022588
 30
0.0
  0
VERTEX
  5
28FA
  8
3
 10
37.45902018900006
 20
27.54894407009999
 30
0.0
  0
VERTEX
  5
28FB
  8
3
 10
38.13666072990003
 20
27.3533260957
 30
0.0
  0
VERTEX
  5
28FC
  8
3
 10
38.66887678260002
 20
27.06652985119999
 30
0.0
  0
VERTEX
  5
28FD
  8
3
 10
39.00837861520006
 20
26.71403844139999
 30
0.0
  0
VERTEX
  5
28FE
  8
3
 10
39.125
 20
26.32717227499998
 30
0.0
  0
SEQEND
  5
2D80
  8
3
  0
CIRCLE
  5
12A3
  8
3
 10
36.5
 20
0.0
 30
0.0
 40
2.316732743452263
  0
CIRCLE
  5
12A4
  8
3
 10
36.5
 20
0.0
 30
0.0
 40
1.749999999999986
  0
POLYLINE
  5
12A5
  8
3
 66
     1
 10
0.0
 20
0.0
 30
0.0
  0
VERTEX
  5
28FF
  8
3
 10
38.01554445660003
 20
22.43454525609999
 30
0.0
  0
VERTEX
  5
2900
  8
3
 10
38.22928957610003
 20
22.13126295409998
 30
0.0
  0
VERTEX
  5
2901
  8
3
 10
38.20948455610005
 20
21.80985380830001
 30
0.0
  0
VERTEX
  5
2902
  8
3
 10
37.95880417410001
 20
21.51372590469998
 30
0.0
  0
VERTEX
  5
2903
  8
3
 10
37.51110420500004
 20
21.28287295779998
 30
0.0
  0
VERTEX
  5
2904
  8
3
 10
36.92684901020004
 20
21.14847293700001
 30
0.0
  0
VERTEX
  5
2905
  8
3
 10
36.28494549130005
 20
21.12867731009999
 30
0.0
  0
VERTEX
  5
2906
  8
3
 10
35.67208627550002
 20
21.22615958609998
 30
0.0
  0
VERTEX
  5
2907
  8
3
 10
35.17104139590003
 20
21.42775424339999
 30
0.0
  0
VERTEX
  5
2908
  8
3
 10
34.84947973970003
 20
21.70623480649999
 30
0.0
  0
VERTEX
  5
2909
  8
3
 10
34.75082999050005
 20
22.02399093229999
 30
0.0
  0
VERTEX
  5
290A
  8
3
 10
34.88841534360006
 20
22.33810789519998
 30
0.0
  0
VERTEX
  5
290B
  8
3
 10
35.24365413460004
 20
22.60616245879999
 30
0.0
  0
VERTEX
  5
290C
  8
3
 10
35.76856939640004
 20
22.79195236889998
 30
0.0
  0
VERTEX
  5
290D
  8
3
 10
36.39226841430002
 20
22.87038566869998
 30
0.0
  0
VERTEX
  5
290E
  8
3
 10
37.03051717970004
 20
22.83086950649999
 30
0.0
  0
VERTEX
  5
290F
  8
3
 10
37.5971166603
 20
22.67874075879999
 30
0.0
  0
VERTEX
  5
2910
  8
3
 10
38.01554445660003
 20
22.43454525609999
 30
0.0
  0
SEQEND
  5
2D7F
  8
3
  0
POLYLINE
  5
12A6
  8
3
 66
     1
 10
0.0
 20
0.0
 30
0.0
  0
VERTEX
  5
2911
  8
3
 10
37.65836637170003
 20
21.48467550429999
 30
0.0
  0
VERTEX
  5
2912
  8
3
 10
36.98167582190001
 20
21.35479692179999
 30
0.0
  0
VERTEX
  5
2913
  8
3
 10
36.25783548650003
 20
21.33582948949999
 30
0.0
  0
VERTEX
  5
2914
  8
3
 10
35.55769990100003
 20
21.4296298719
 30
0.0
  0
VERTEX
  5
2915
  8
3
 10
34.94980321460002
 20
21.62701623390001
 30
0.0
  0
VERTEX
  5
2916
  8
3
 10
34.49365059040002
 20
21.9086670232
 30
0.0
  0
VERTEX
  5
2917
  8
3
 10
34.23389342550001
 20
22.2470122981
 30
0.0
  0
VERTEX
  5
2918
  8
3
 10
34.19595856090001
 20
22.6089324658
 30
0.0
  0
VERTEX
  5
2919
  8
3
 10
34.3835593256
 20
22.95900025859999
 30
0.0
  0
VERTEX
  5
291A
  8
3
 10
34.7783320497
 20
23.26294860179999
 30
0.0
  0
VERTEX
  5
291B
  8
3
 10
35.34163362830003
 20
23.49102491389999
 30
0.0
  0
VERTEX
  5
291C
  8
3
 10
36.01832417809999
 20
23.6209034963
 30
0.0
  0
VERTEX
  5
291D
  8
3
 10
36.74216451350003
 20
23.6398709286
 30
0.0
  0
VERTEX
  5
291E
  8
3
 10
37.44230009900002
 20
23.54607054619999
 30
0.0
  0
VERTEX
  5
291F
  8
3
 10
38.05019678540003
 20
23.34868418419998
 30
0.0
  0
VERTEX
  5
2920
  8
3
 10
38.50634940960003
 20
23.06703339489999
 30
0.0
  0
VERTEX
  5
2921
  8
3
 10
38.76610657449999
 20
22.72868811999999
 30
0.0
  0
VERTEX
  5
2922
  8
3
 10
38.80404143910005
 20
22.36676795229999
 30
0.0
  0
VERTEX
  5
2923
  8
3
 10
38.6164406744
 20
22.01670015959999
 30
0.0
  0
VERTEX
  5
2924
  8
3
 10
38.2216679503
 20
21.71275181639999
 30
0.0
  0
VERTEX
  5
2925
  8
3
 10
37.65836637170003
 20
21.48467550429999
 30
0.0
  0
SEQEND
  5
2D7E
  8
3
  0
POLYLINE
  5
12A7
  8
3
 66
     1
 10
0.0
 20
0.0
 30
0.0
  0
VERTEX
  5
2926
  8
3
 10
35.47250000000003
 20
23.53640539689999
 30
0.0
  0
VERTEX
  5
2927
  8
3
 10
36.10603465140002
 20
23.6550057039
 30
0.0
  0
VERTEX
  5
2928
  8
3
 10
36.78226156130006
 20
23.66432573649999
 30
0.0
  0
VERTEX
  5
2929
  8
3
 10
37.42790105130001
 20
23.5633555247
 30
0.0
  0
VERTEX
  5
292A
  8
3
 10
37.97298806460003
 20
23.3630367577
 30
0.0
  0
VERTEX
  5
292B
  8
3
 10
38.35845396520006
 20
23.085077082
 30
0.0
  0
VERTEX
  5
292C
  8
3
 10
38.54252754190003
 20
22.7595977416
 30
0.0
  0
VERTEX
  5
292D
  8
3
 10
38.50526156630002
 20
22.42186947330001
 30
0.0
  0
VERTEX
  5
292E
  8
3
 10
38.25069438520006
 20
22.10849037539998
 30
0.0
  0
VERTEX
  5
292F
  8
3
 10
37.80641230260005
 20
21.8534199357
 30
0.0
  0
VERTEX
  5
2930
  8
3
 10
37.2205601759
 20
21.68429899419999
 30
0.0
  0
VERTEX
  5
2931
  8
3
 10
36.55662417360003
 20
21.61945442909999
 30
0.0
  0
VERTEX
  5
2932
  8
3
 10
35.88655206340002
 20
21.66591315509999
 30
0.0
  0
VERTEX
  5
2933
  8
3
 10
35.28295655580001
 20
21.81864064850001
 30
0.0
  0
VERTEX
  5
2934
  8
3
 10
34.81124658970003
 20
22.06108651549999
 30
0.0
  0
VERTEX
  5
2935
  8
3
 10
34.52253925939999
 20
22.36697798439999
 30
0.0
  0
VERTEX
  5
2936
  8
3
 10
34.4481204837
 20
22.7031669683
 30
0.0
  0
VERTEX
  5
2937
  8
3
 10
34.59605469190001
 20
23.03322217420001
 30
0.0
  0
VERTEX
  5
2938
  8
3
 10
34.95031091690004
 20
23.32137699929999
 30
0.0
  0
VERTEX
  5
2939
  8
3
 10
35.47250000000003
 20
23.53640539689999
 30
0.0
  0
SEQEND
  5
2D7D
  8
3
  0
POLYLINE
  5
12A8
  8
3
 66
     1
 10
0.0
 20
0.0
 30
0.0
  0
VERTEX
  5
293A
  8
3
 10
35.25
 20
23.9989429439
 30
0.0
  0
VERTEX
  5
293B
  8
3
 10
35.94369766509999
 20
24.13507107940001
 30
0.0
  0
VERTEX
  5
293C
  8
3
 10
36.68682523400003
 20
24.1629159357
 30
0.0
  0
VERTEX
  5
293D
  8
3
 10
37.41335256090002
 20
24.08000337499999
 30
0.0
  0
VERTEX
  5
293E
  8
3
 10
38.05872450460004
 20
23.8937005423
 30
0.0
  0
VERTEX
  5
293F
  8
3
 10
38.56559693580004
 20
23.62056126179999
 30
0.0
  0
VERTEX
  5
2940
  8
3
 10
38.88893201450003
 20
23.28485515719998
 30
0.0
  0
VERTEX
  5
2941
  8
3
 10
39.0
 20
22.91641118920001
 30
0.0
  0
VERTEX
  5
2942
  8
3
 10
38.88893201450003
 20
22.5479672212
 30
0.0
  0
VERTEX
  5
2943
  8
3
 10
38.56559693580004
 20
22.21226111659999
 30
0.0
  0
VERTEX
  5
2944
  8
3
 10
38.05872450460004
 20
21.93912183609999
 30
0.0
  0
VERTEX
  5
2945
  8
3
 10
37.41335256090002
 20
21.75281900339999
 30
0.0
  0
VERTEX
  5
2946
  8
3
 10
36.68682523400003
 20
21.66990644269998
 30
0.0
  0
VERTEX
  5
2947
  8
3
 10
35.94369766509999
 20
21.697751299
 30
0.0
  0
VERTEX
  5
2948
  8
3
 10
35.25
 20
21.83387943439999
 30
0.0
  0
VERTEX
  5
2949
  8
3
 10
34.66737032039998
 20
22.06619526699998
 30
0.0
  0
VERTEX
  5
294A
  8
3
 10
34.24757783020004
 20
22.3740565153
 30
0.0
  0
VERTEX
  5
294B
  8
3
 10
34.02792293440001
 20
22.73010835649998
 30
0.0
  0
VERTEX
  5
294C
  8
3
 10
34.02792293440001
 20
23.1027140219
 30
0.0
  0
VERTEX
  5
294D
  8
3
 10
34.24757783020004
 20
23.45876586309998
 30
0.0
  0
VERTEX
  5
294E
  8
3
 10
34.66737032039998
 20
23.7666271114
 30
0.0
  0
VERTEX
  5
294F
  8
3
 10
35.25
 20
23.9989429439
 30
0.0
  0
SEQEND
  5
2D7C
  8
3
  0
POLYLINE
  5
12A9
  8
3
 66
     1
 10
0.0
 20
0.0
 30
0.0
  0
VERTEX
  5
2950
  8
3
 10
35.25
 20
24.0769824953
 30
0.0
  0
VERTEX
  5
2951
  8
3
 10
35.94369766509999
 20
24.2131106308
 30
0.0
  0
VERTEX
  5
2952
  8
3
 10
36.68682523400003
 20
24.24095548700001
 30
0.0
  0
VERTEX
  5
2953
  8
3
 10
37.41335256090002
 20
24.1580429263
 30
0.0
  0
VERTEX
  5
2954
  8
3
 10
38.05872450460004
 20
23.9717400936
 30
0.0
  0
VERTEX
  5
2955
  8
3
 10
38.56559693580004
 20
23.6986008131
 30
0.0
  0
VERTEX
  5
2956
  8
3
 10
38.88893201450003
 20
23.36289470849999
 30
0.0
  0
VERTEX
  5
2957
  8
3
 10
39.0
 20
22.99445074049999
 30
0.0
  0
VERTEX
  5
2958
  8
3
 10
38.88893201450003
 20
22.62600677250001
 30
0.0
  0
VERTEX
  5
2959
  8
3
 10
38.56559693580004
 20
22.29030066799999
 30
0.0
  0
VERTEX
  5
295A
  8
3
 10
38.05872450460004
 20
22.01716138739999
 30
0.0
  0
VERTEX
  5
295B
  8
3
 10
37.41335256090002
 20
21.8308585547
 30
0.0
  0
VERTEX
  5
295C
  8
3
 10
36.68682523400003
 20
21.74794599410001
 30
0.0
  0
VERTEX
  5
295D
  8
3
 10
35.94369766509999
 20
21.77579085029998
 30
0.0
  0
VERTEX
  5
295E
  8
3
 10
35.25
 20
21.91191898579999
 30
0.0
  0
VERTEX
  5
295F
  8
3
 10
34.66737032039998
 20
22.14423481829999
 30
0.0
  0
VERTEX
  5
2960
  8
3
 10
34.24757783020004
 20
22.45209606660001
 30
0.0
  0
VERTEX
  5
2961
  8
3
 10
34.02792293440001
 20
22.80814790779999
 30
0.0
  0
VERTEX
  5
2962
  8
3
 10
34.02792293440001
 20
23.1807535733
 30
0.0
  0
VERTEX
  5
2963
  8
3
 10
34.24757783020004
 20
23.53680541439999
 30
0.0
  0
VERTEX
  5
2964
  8
3
 10
34.66737032039998
 20
23.84466666270001
 30
0.0
  0
VERTEX
  5
2965
  8
3
 10
35.25
 20
24.0769824953
 30
0.0
  0
SEQEND
  5
2D7B
  8
3
  0
POLYLINE
  5
12AA
  8
3
 66
     1
 10
0.0
 20
0.0
 30
0.0
  0
VERTEX
  5
2966
  8
3
 10
35.47250000000003
 20
24.15413873750001
 30
0.0
  0
VERTEX
  5
2967
  8
3
 10
36.10603465140002
 20
24.27273904449999
 30
0.0
  0
VERTEX
  5
2968
  8
3
 10
36.78226156130006
 20
24.2820590771
 30
0.0
  0
VERTEX
  5
2969
  8
3
 10
37.42790105130001
 20
24.18108886529998
 30
0.0
  0
VERTEX
  5
296A
  8
3
 10
37.97298806460003
 20
23.98077009829998
 30
0.0
  0
VERTEX
  5
296B
  8
3
 10
38.35845396520006
 20
23.70281042259998
 30
0.0
  0
VERTEX
  5
296C
  8
3
 10
38.54252754190003
 20
23.37733108219999
 30
0.0
  0
VERTEX
  5
296D
  8
3
 10
38.50526156630002
 20
23.03960281389999
 30
0.0
  0
VERTEX
  5
296E
  8
3
 10
38.25069438520006
 20
22.72622371599999
 30
0.0
  0
VERTEX
  5
296F
  8
3
 10
37.80641230260005
 20
22.47115327629999
 30
0.0
  0
VERTEX
  5
2970
  8
3
 10
37.2205601759
 20
22.3020323348
 30
0.0
  0
VERTEX
  5
2971
  8
3
 10
36.55662417360003
 20
22.2371877697
 30
0.0
  0
VERTEX
  5
2972
  8
3
 10
35.88655206340002
 20
22.2836464957
 30
0.0
  0
VERTEX
  5
2973
  8
3
 10
35.28295655580001
 20
22.43637398909999
 30
0.0
  0
VERTEX
  5
2974
  8
3
 10
34.81124658970003
 20
22.67881985610001
 30
0.0
  0
VERTEX
  5
2975
  8
3
 10
34.52253925939999
 20
22.98471132500001
 30
0.0
  0
VERTEX
  5
2976
  8
3
 10
34.4481204837
 20
23.32090030890001
 30
0.0
  0
VERTEX
  5
2977
  8
3
 10
34.59605469190001
 20
23.65095551479999
 30
0.0
  0
VERTEX
  5
2978
  8
3
 10
34.95031091690004
 20
23.9391103399
 30
0.0
  0
VERTEX
  5
2979
  8
3
 10
35.47250000000003
 20
24.15413873750001
 30
0.0
  0
SEQEND
  5
2D7A
  8
3
  0
POLYLINE
  5
12AB
  8
3
 66
     1
 10
0.0
 20
0.0
 30
0.0
  0
VERTEX
  5
297A
  8
3
 10
35.25
 20
24.61667628449999
 30
0.0
  0
VERTEX
  5
297B
  8
3
 10
35.94369766509999
 20
24.75280441999999
 30
0.0
  0
VERTEX
  5
297C
  8
3
 10
36.68682523400003
 20
24.78064927629998
 30
0.0
  0
VERTEX
  5
297D
  8
3
 10
37.41335256090002
 20
24.6977367156
 30
0.0
  0
VERTEX
  5
297E
  8
3
 10
38.05872450460004
 20
24.51143388290001
 30
0.0
  0
VERTEX
  5
297F
  8
3
 10
38.56559693580004
 20
24.2382946024
 30
0.0
  0
VERTEX
  5
2980
  8
3
 10
38.88893201450003
 20
23.9025884978
 30
0.0
  0
VERTEX
  5
2981
  8
3
 10
39.0
 20
23.53414452979999
 30
0.0
  0
VERTEX
  5
2982
  8
3
 10
38.88893201450003
 20
23.16570056179998
 30
0.0
  0
VERTEX
  5
2983
  8
3
 10
38.56559693580004
 20
22.8299944572
 30
0.0
  0
VERTEX
  5
2984
  8
3
 10
38.05872450460004
 20
22.5568551767
 30
0.0
  0
VERTEX
  5
2985
  8
3
 10
37.41335256090002
 20
22.370552344
 30
0.0
  0
VERTEX
  5
2986
  8
3
 10
36.68682523400003
 20
22.28763978329999
 30
0.0
  0
VERTEX
  5
2987
  8
3
 10
35.94369766509999
 20
22.31548463959999
 30
0.0
  0
VERTEX
  5
2988
  8
3
 10
35.25
 20
22.45161277509999
 30
0.0
  0
VERTEX
  5
2989
  8
3
 10
34.66737032039998
 20
22.6839286076
 30
0.0
  0
VERTEX
  5
298A
  8
3
 10
34.24757783020004
 20
22.99178985589998
 30
0.0
  0
VERTEX
  5
298B
  8
3
 10
34.02792293440001
 20
23.34784169709999
 30
0.0
  0
VERTEX
  5
298C
  8
3
 10
34.02792293440001
 20
23.72044736249998
 30
0.0
  0
VERTEX
  5
298D
  8
3
 10
34.24757783020004
 20
24.0764992037
 30
0.0
  0
VERTEX
  5
298E
  8
3
 10
34.66737032039998
 20
24.38436045199998
 30
0.0
  0
VERTEX
  5
298F
  8
3
 10
35.25
 20
24.61667628449999
 30
0.0
  0
SEQEND
  5
2D79
  8
3
  0
POLYLINE
  5
12AC
  8
3
 66
     1
 10
0.0
 20
0.0
 30
0.0
  0
VERTEX
  5
2990
  8
3
 10
35.25
 20
24.69471583589998
 30
0.0
  0
VERTEX
  5
2991
  8
3
 10
35.94369766509999
 20
24.83084397139999
 30
0.0
  0
VERTEX
  5
2992
  8
3
 10
36.68682523400003
 20
24.85868882759999
 30
0.0
  0
VERTEX
  5
2993
  8
3
 10
37.41335256090002
 20
24.77577626689998
 30
0.0
  0
VERTEX
  5
2994
  8
3
 10
38.05872450460004
 20
24.58947343419999
 30
0.0
  0
VERTEX
  5
2995
  8
3
 10
38.56559693580004
 20
24.31633415369998
 30
0.0
  0
VERTEX
  5
2996
  8
3
 10
38.88893201450003
 20
23.98062804919999
 30
0.0
  0
VERTEX
  5
2997
  8
3
 10
39.0
 20
23.6121840811
 30
0.0
  0
VERTEX
  5
2998
  8
3
 10
38.88893201450003
 20
23.24374011309999
 30
0.0
  0
VERTEX
  5
2999
  8
3
 10
38.56559693580004
 20
22.9080340086
 30
0.0
  0
VERTEX
  5
299A
  8
3
 10
38.05872450460004
 20
22.63489472809999
 30
0.0
  0
VERTEX
  5
299B
  8
3
 10
37.41335256090002
 20
22.44859189529998
 30
0.0
  0
VERTEX
  5
299C
  8
3
 10
36.68682523400003
 20
22.36567933469999
 30
0.0
  0
VERTEX
  5
299D
  8
3
 10
35.94369766509999
 20
22.3935241909
 30
0.0
  0
VERTEX
  5
299E
  8
3
 10
35.25
 20
22.5296523264
 30
0.0
  0
VERTEX
  5
299F
  8
3
 10
34.66737032039998
 20
22.7619681589
 30
0.0
  0
VERTEX
  5
29A0
  8
3
 10
34.24757783020004
 20
23.06982940719999
 30
0.0
  0
VERTEX
  5
29A1
  8
3
 10
34.02792293440001
 20
23.4258812484
 30
0.0
  0
VERTEX
  5
29A2
  8
3
 10
34.02792293440001
 20
23.79848691390001
 30
0.0
  0
VERTEX
  5
29A3
  8
3
 10
34.24757783020004
 20
24.154538755
 30
0.0
  0
VERTEX
  5
29A4
  8
3
 10
34.66737032039998
 20
24.46240000340001
 30
0.0
  0
VERTEX
  5
29A5
  8
3
 10
35.25
 20
24.69471583589998
 30
0.0
  0
SEQEND
  5
2D78
  8
3
  0
POLYLINE
  5
12AD
  8
3
 66
     1
 10
0.0
 20
0.0
 30
0.0
  0
VERTEX
  5
29A6
  8
3
 10
35.47250000000003
 20
24.7718720782
 30
0.0
  0
VERTEX
  5
29A7
  8
3
 10
36.10603465140002
 20
24.8904723851
 30
0.0
  0
VERTEX
  5
29A8
  8
3
 10
36.78226156130006
 20
24.89979241769998
 30
0.0
  0
VERTEX
  5
29A9
  8
3
 10
37.42790105130001
 20
24.7988222059
 30
0.0
  0
VERTEX
  5
29AA
  8
3
 10
37.97298806460003
 20
24.5985034389
 30
0.0
  0
VERTEX
  5
29AB
  8
3
 10
38.35845396520006
 20
24.32054376319999
 30
0.0
  0
VERTEX
  5
29AC
  8
3
 10
38.54252754190003
 20
23.9950644228
 30
0.0
  0
VERTEX
  5
29AD
  8
3
 10
38.50526156630002
 20
23.6573361545
 30
0.0
  0
VERTEX
  5
29AE
  8
3
 10
38.25069438520006
 20
23.3439570566
 30
0.0
  0
VERTEX
  5
29AF
  8
3
 10
37.80641230260005
 20
23.0888866169
 30
0.0
  0
VERTEX
  5
29B0
  8
3
 10
37.2205601759
 20
22.91976567539999
 30
0.0
  0
VERTEX
  5
29B1
  8
3
 10
36.55662417360003
 20
22.85492111029998
 30
0.0
  0
VERTEX
  5
29B2
  8
3
 10
35.88655206340002
 20
22.90137983629998
 30
0.0
  0
VERTEX
  5
29B3
  8
3
 10
35.28295655580001
 20
23.0541073297
 30
0.0
  0
VERTEX
  5
29B4
  8
3
 10
34.81124658970003
 20
23.29655319669999
 30
0.0
  0
VERTEX
  5
29B5
  8
3
 10
34.52253925939999
 20
23.60244466559999
 30
0.0
  0
VERTEX
  5
29B6
  8
3
 10
34.4481204837
 20
23.93863364949999
 30
0.0
  0
VERTEX
  5
29B7
  8
3
 10
34.59605469190001
 20
24.2686888554
 30
0.0
  0
VERTEX
  5
29B8
  8
3
 10
34.95031091690004
 20
24.55684368049998
 30
0.0
  0
VERTEX
  5
29B9
  8
3
 10
35.47250000000003
 20
24.7718720782
 30
0.0
  0
SEQEND
  5
2D77
  8
3
  0
POLYLINE
  5
12AE
  8
3
 66
     1
 10
0.0
 20
0.0
 30
0.0
  0
VERTEX
  5
29BA
  8
3
 10
35.25
 20
25.2344096251
 30
0.0
  0
VERTEX
  5
29BB
  8
3
 10
35.94369766509999
 20
25.3705377606
 30
0.0
  0
VERTEX
  5
29BC
  8
3
 10
36.68682523400003
 20
25.39838261689999
 30
0.0
  0
VERTEX
  5
29BD
  8
3
 10
37.41335256090002
 20
25.31547005619998
 30
0.0
  0
VERTEX
  5
29BE
  8
3
 10
38.05872450460004
 20
25.12916722349999
 30
0.0
  0
VERTEX
  5
29BF
  8
3
 10
38.56559693580004
 20
24.85602794299999
 30
0.0
  0
VERTEX
  5
29C0
  8
3
 10
38.88893201450003
 20
24.52032183840001
 30
0.0
  0
VERTEX
  5
29C1
  8
3
 10
39.0
 20
24.1518778704
 30
0.0
  0
VERTEX
  5
29C2
  8
3
 10
38.88893201450003
 20
23.78343390239999
 30
0.0
  0
VERTEX
  5
29C3
  8
3
 10
38.56559693580004
 20
23.44772779779998
 30
0.0
  0
VERTEX
  5
29C4
  8
3
 10
38.05872450460004
 20
23.17458851729998
 30
0.0
  0
VERTEX
  5
29C5
  8
3
 10
37.41335256090002
 20
22.98828568459999
 30
0.0
  0
VERTEX
  5
29C6
  8
3
 10
36.68682523400003
 20
22.90537312390001
 30
0.0
  0
VERTEX
  5
29C7
  8
3
 10
35.94369766509999
 20
22.9332179802
 30
0.0
  0
VERTEX
  5
29C8
  8
3
 10
35.25
 20
23.0693461157
 30
0.0
  0
VERTEX
  5
29C9
  8
3
 10
34.66737032039998
 20
23.30166194820001
 30
0.0
  0
VERTEX
  5
29CA
  8
3
 10
34.24757783020004
 20
23.60952319649999
 30
0.0
  0
VERTEX
  5
29CB
  8
3
 10
34.02792293440001
 20
23.96557503770001
 30
0.0
  0
VERTEX
  5
29CC
  8
3
 10
34.02792293440001
 20
24.33818070309999
 30
0.0
  0
VERTEX
  5
29CD
  8
3
 10
34.24757783020004
 20
24.69423254430001
 30
0.0
  0
VERTEX
  5
29CE
  8
3
 10
34.66737032039998
 20
25.00209379259999
 30
0.0
  0
VERTEX
  5
29CF
  8
3
 10
35.25
 20
25.2344096251
 30
0.0
  0
SEQEND
  5
2D76
  8
3
  0
POLYLINE
  5
12AF
  8
3
 66
     1
 10
0.0
 20
0.0
 30
0.0
  0
VERTEX
  5
29D0
  8
3
 10
35.25
 20
25.3124491765
 30
0.0
  0
VERTEX
  5
29D1
  8
3
 10
35.94369766509999
 20
25.448577312
 30
0.0
  0
VERTEX
  5
29D2
  8
3
 10
36.68682523400003
 20
25.4764221682
 30
0.0
  0
VERTEX
  5
29D3
  8
3
 10
37.41335256090002
 20
25.39350960749999
 30
0.0
  0
VERTEX
  5
29D4
  8
3
 10
38.05872450460004
 20
25.2072067748
 30
0.0
  0
VERTEX
  5
29D5
  8
3
 10
38.56559693580004
 20
24.9340674943
 30
0.0
  0
VERTEX
  5
29D6
  8
3
 10
38.88893201450003
 20
24.5983613898
 30
0.0
  0
VERTEX
  5
29D7
  8
3
 10
39.0
 20
24.22991742169998
 30
0.0
  0
VERTEX
  5
29D8
  8
3
 10
38.88893201450003
 20
23.8614734537
 30
0.0
  0
VERTEX
  5
29D9
  8
3
 10
38.56559693580004
 20
23.52576734919998
 30
0.0
  0
VERTEX
  5
29DA
  8
3
 10
38.05872450460004
 20
23.25262806870001
 30
0.0
  0
VERTEX
  5
29DB
  8
3
 10
37.41335256090002
 20
23.0663252359
 30
0.0
  0
VERTEX
  5
29DC
  8
3
 10
36.68682523400003
 20
22.9834126753
 30
0.0
  0
VERTEX
  5
29DD
  8
3
 10
35.94369766509999
 20
23.01125753150001
 30
0.0
  0
VERTEX
  5
29DE
  8
3
 10
35.25
 20
23.14738566699998
 30
0.0
  0
VERTEX
  5
29DF
  8
3
 10
34.66737032039998
 20
23.37970149949999
 30
0.0
  0
VERTEX
  5
29E0
  8
3
 10
34.24757783020004
 20
23.6875627478
 30
0.0
  0
VERTEX
  5
29E1
  8
3
 10
34.02792293440001
 20
24.04361458899999
 30
0.0
  0
VERTEX
  5
29E2
  8
3
 10
34.02792293440001
 20
24.41622025449999
 30
0.0
  0
VERTEX
  5
29E3
  8
3
 10
34.24757783020004
 20
24.77227209559999
 30
0.0
  0
VERTEX
  5
29E4
  8
3
 10
34.66737032039998
 20
25.08013334399999
 30
0.0
  0
VERTEX
  5
29E5
  8
3
 10
35.25
 20
25.3124491765
 30
0.0
  0
SEQEND
  5
2D75
  8
3
  0
POLYLINE
  5
12B0
  8
3
 66
     1
 10
0.0
 20
0.0
 30
0.0
  0
VERTEX
  5
29E6
  8
3
 10
35.47250000000003
 20
25.38960541879999
 30
0.0
  0
VERTEX
  5
29E7
  8
3
 10
36.10603465140002
 20
25.50820572569998
 30
0.0
  0
VERTEX
  5
29E8
  8
3
 10
36.78226156130006
 20
25.5175257583
 30
0.0
  0
VERTEX
  5
29E9
  8
3
 10
37.42790105130001
 20
25.41655554650001
 30
0.0
  0
VERTEX
  5
29EA
  8
3
 10
37.97298806460003
 20
25.21623677950001
 30
0.0
  0
VERTEX
  5
29EB
  8
3
 10
38.35845396520006
 20
24.9382771038
 30
0.0
  0
VERTEX
  5
29EC
  8
3
 10
38.54252754190003
 20
24.61279776339998
 30
0.0
  0
VERTEX
  5
29ED
  8
3
 10
38.50526156630002
 20
24.2750694952
 30
0.0
  0
VERTEX
  5
29EE
  8
3
 10
38.25069438520006
 20
23.96169039719999
 30
0.0
  0
VERTEX
  5
29EF
  8
3
 10
37.80641230260005
 20
23.7066199576
 30
0.0
  0
VERTEX
  5
29F0
  8
3
 10
37.2205601759
 20
23.537499016
 30
0.0
  0
VERTEX
  5
29F1
  8
3
 10
36.55662417360003
 20
23.4726544509
 30
0.0
  0
VERTEX
  5
29F2
  8
3
 10
35.88655206340002
 20
23.51911317689999
 30
0.0
  0
VERTEX
  5
29F3
  8
3
 10
35.28295655580001
 20
23.67184067029999
 30
0.0
  0
VERTEX
  5
29F4
  8
3
 10
34.81124658970003
 20
23.9142865373
 30
0.0
  0
VERTEX
  5
29F5
  8
3
 10
34.52253925939999
 20
24.2201780062
 30
0.0
  0
VERTEX
  5
29F6
  8
3
 10
34.4481204837
 20
24.5563669901
 30
0.0
  0
VERTEX
  5
29F7
  8
3
 10
34.59605469190001
 20
24.88642219599998
 30
0.0
  0
VERTEX
  5
29F8
  8
3
 10
34.95031091690004
 20
25.17457702109999
 30
0.0
  0
VERTEX
  5
29F9
  8
3
 10
35.47250000000003
 20
25.38960541879999
 30
0.0
  0
SEQEND
  5
2D74
  8
3
  0
POLYLINE
  5
12B1
  8
3
 66
     1
 10
0.0
 20
0.0
 30
0.0
  0
VERTEX
  5
29FA
  8
3
 10
35.25
 20
25.85214296569998
 30
0.0
  0
VERTEX
  5
29FB
  8
3
 10
35.94369766509999
 20
25.98827110119998
 30
0.0
  0
VERTEX
  5
29FC
  8
3
 10
36.68682523400003
 20
26.01611595750001
 30
0.0
  0
VERTEX
  5
29FD
  8
3
 10
37.41335256090002
 20
25.9332033968
 30
0.0
  0
VERTEX
  5
29FE
  8
3
 10
38.05872450460004
 20
25.7469005641
 30
0.0
  0
VERTEX
  5
29FF
  8
3
 10
38.56559693580004
 20
25.4737612836
 30
0.0
  0
VERTEX
  5
2A00
  8
3
 10
38.88893201450003
 20
25.13805517899999
 30
0.0
  0
VERTEX
  5
2A01
  8
3
 10
39.0
 20
24.76961121099998
 30
0.0
  0
VERTEX
  5
2A02
  8
3
 10
38.88893201450003
 20
24.401167243
 30
0.0
  0
VERTEX
  5
2A03
  8
3
 10
38.56559693580004
 20
24.0654611384
 30
0.0
  0
VERTEX
  5
2A04
  8
3
 10
38.05872450460004
 20
23.79232185789999
 30
0.0
  0
VERTEX
  5
2A05
  8
3
 10
37.41335256090002
 20
23.6060190252
 30
0.0
  0
VERTEX
  5
2A06
  8
3
 10
36.68682523400003
 20
23.52310646449999
 30
0.0
  0
VERTEX
  5
2A07
  8
3
 10
35.94369766509999
 20
23.55095132079998
 30
0.0
  0
VERTEX
  5
2A08
  8
3
 10
35.25
 20
23.68707945629998
 30
0.0
  0
VERTEX
  5
2A09
  8
3
 10
34.66737032039998
 20
23.91939528879999
 30
0.0
  0
VERTEX
  5
2A0A
  8
3
 10
34.24757783020004
 20
24.2272565371
 30
0.0
  0
VERTEX
  5
2A0B
  8
3
 10
34.02792293440001
 20
24.58330837829999
 30
0.0
  0
VERTEX
  5
2A0C
  8
3
 10
34.02792293440001
 20
24.95591404370001
 30
0.0
  0
VERTEX
  5
2A0D
  8
3
 10
34.24757783020004
 20
25.31196588489999
 30
0.0
  0
VERTEX
  5
2A0E
  8
3
 10
34.66737032039998
 20
25.6198271332
 30
0.0
  0
VERTEX
  5
2A0F
  8
3
 10
35.25
 20
25.85214296569998
 30
0.0
  0
SEQEND
  5
2D73
  8
3
  0
POLYLINE
  5
12B2
  8
3
 66
     1
 10
0.0
 20
0.0
 30
0.0
  0
VERTEX
  5
2A10
  8
3
 10
35.25
 20
25.93018251710001
 30
0.0
  0
VERTEX
  5
2A11
  8
3
 10
35.94369766509999
 20
26.06631065259998
 30
0.0
  0
VERTEX
  5
2A12
  8
3
 10
36.68682523400003
 20
26.09415550879999
 30
0.0
  0
VERTEX
  5
2A13
  8
3
 10
37.41335256090002
 20
26.01124294819999
 30
0.0
  0
VERTEX
  5
2A14
  8
3
 10
38.05872450460004
 20
25.82494011539998
 30
0.0
  0
VERTEX
  5
2A15
  8
3
 10
38.56559693580004
 20
25.55180083490001
 30
0.0
  0
VERTEX
  5
2A16
  8
3
 10
38.88893201450003
 20
25.21609473039999
 30
0.0
  0
VERTEX
  5
2A17
  8
3
 10
39.0
 20
24.84765076229999
 30
0.0
  0
VERTEX
  5
2A18
  8
3
 10
38.88893201450003
 20
24.47920679429998
 30
0.0
  0
VERTEX
  5
2A19
  8
3
 10
38.56559693580004
 20
24.14350068979999
 30
0.0
  0
VERTEX
  5
2A1A
  8
3
 10
38.05872450460004
 20
23.87036140929999
 30
0.0
  0
VERTEX
  5
2A1B
  8
3
 10
37.41335256090002
 20
23.68405857650001
 30
0.0
  0
VERTEX
  5
2A1C
  8
3
 10
36.68682523400003
 20
23.60114601589999
 30
0.0
  0
VERTEX
  5
2A1D
  8
3
 10
35.94369766509999
 20
23.62899087209999
 30
0.0
  0
VERTEX
  5
2A1E
  8
3
 10
35.25
 20
23.76511900759999
 30
0.0
  0
VERTEX
  5
2A1F
  8
3
 10
34.66737032039998
 20
23.9974348401
 30
0.0
  0
VERTEX
  5
2A20
  8
3
 10
34.24757783020004
 20
24.3052960885
 30
0.0
  0
VERTEX
  5
2A21
  8
3
 10
34.02792293440001
 20
24.6613479296
 30
0.0
  0
VERTEX
  5
2A22
  8
3
 10
34.02792293440001
 20
25.0339535951
 30
0.0
  0
VERTEX
  5
2A23
  8
3
 10
34.24757783020004
 20
25.3900054362
 30
0.0
  0
VERTEX
  5
2A24
  8
3
 10
34.66737032039998
 20
25.6978666846
 30
0.0
  0
VERTEX
  5
2A25
  8
3
 10
35.25
 20
25.93018251710001
 30
0.0
  0
SEQEND
  5
2D72
  8
3
  0
POLYLINE
  5
12B3
  8
3
 66
     1
 10
0.0
 20
0.0
 30
0.0
  0
VERTEX
  5
2A26
  8
3
 10
35.47250000000003
 20
26.0073387594
 30
0.0
  0
VERTEX
  5
2A27
  8
3
 10
36.10603465140002
 20
26.12593906629999
 30
0.0
  0
VERTEX
  5
2A28
  8
3
 10
36.78226156130006
 20
26.13525909890001
 30
0.0
  0
VERTEX
  5
2A29
  8
3
 10
37.42790105130001
 20
26.03428888720001
 30
0.0
  0
VERTEX
  5
2A2A
  8
3
 10
37.97298806460003
 20
25.83397012009999
 30
0.0
  0
VERTEX
  5
2A2B
  8
3
 10
38.35845396520006
 20
25.55601044439999
 30
0.0
  0
VERTEX
  5
2A2C
  8
3
 10
38.54252754190003
 20
25.23053110399999
 30
0.0
  0
VERTEX
  5
2A2D
  8
3
 10
38.50526156630002
 20
24.89280283579998
 30
0.0
  0
VERTEX
  5
2A2E
  8
3
 10
38.25069438520006
 20
24.57942373789999
 30
0.0
  0
VERTEX
  5
2A2F
  8
3
 10
37.80641230260005
 20
24.32435329819998
 30
0.0
  0
VERTEX
  5
2A30
  8
3
 10
37.2205601759
 20
24.15523235659998
 30
0.0
  0
VERTEX
  5
2A31
  8
3
 10
36.55662417360003
 20
24.09038779150001
 30
0.0
  0
VERTEX
  5
2A32
  8
3
 10
35.88655206340002
 20
24.1368465175
 30
0.0
  0
VERTEX
  5
2A33
  8
3
 10
35.28295655580001
 20
24.2895740109
 30
0.0
  0
VERTEX
  5
2A34
  8
3
 10
34.81124658970003
 20
24.53201987789998
 30
0.0
  0
VERTEX
  5
2A35
  8
3
 10
34.52253925939999
 20
24.83791134679998
 30
0.0
  0
VERTEX
  5
2A36
  8
3
 10
34.4481204837
 20
25.17410033069999
 30
0.0
  0
VERTEX
  5
2A37
  8
3
 10
34.59605469190001
 20
25.5041555366
 30
0.0
  0
VERTEX
  5
2A38
  8
3
 10
34.95031091690004
 20
25.7923103617
 30
0.0
  0
VERTEX
  5
2A39
  8
3
 10
35.47250000000003
 20
26.0073387594
 30
0.0
  0
SEQEND
  5
2D71
  8
3
  0
POLYLINE
  5
12B4
  8
3
 66
     1
 10
0.0
 20
0.0
 30
0.0
  0
VERTEX
  5
2A3A
  8
3
 10
35.25
 20
26.46987630629999
 30
0.0
  0
VERTEX
  5
2A3B
  8
3
 10
35.94369766509999
 20
26.6060044418
 30
0.0
  0
VERTEX
  5
2A3C
  8
3
 10
36.68682523400003
 20
26.63384929809999
 30
0.0
  0
VERTEX
  5
2A3D
  8
3
 10
37.41335256090002
 20
26.55093673740001
 30
0.0
  0
VERTEX
  5
2A3E
  8
3
 10
38.05872450460004
 20
26.36463390469999
 30
0.0
  0
VERTEX
  5
2A3F
  8
3
 10
38.56559693580004
 20
26.09149462419998
 30
0.0
  0
VERTEX
  5
2A40
  8
3
 10
38.88893201450003
 20
25.7557885196
 30
0.0
  0
VERTEX
  5
2A41
  8
3
 10
39.0
 20
25.38734455159999
 30
0.0
  0
VERTEX
  5
2A42
  8
3
 10
38.88893201450003
 20
25.01890058359999
 30
0.0
  0
VERTEX
  5
2A43
  8
3
 10
38.56559693580004
 20
24.68319447900001
 30
0.0
  0
VERTEX
  5
2A44
  8
3
 10
38.05872450460004
 20
24.4100551985
 30
0.0
  0
VERTEX
  5
2A45
  8
3
 10
37.41335256090002
 20
24.22375236579998
 30
0.0
  0
VERTEX
  5
2A46
  8
3
 10
36.68682523400003
 20
24.1408398051
 30
0.0
  0
VERTEX
  5
2A47
  8
3
 10
35.94369766509999
 20
24.16868466139999
 30
0.0
  0
VERTEX
  5
2A48
  8
3
 10
35.25
 20
24.30481279689999
 30
0.0
  0
VERTEX
  5
2A49
  8
3
 10
34.66737032039998
 20
24.5371286294
 30
0.0
  0
VERTEX
  5
2A4A
  8
3
 10
34.24757783020004
 20
24.84498987769999
 30
0.0
  0
VERTEX
  5
2A4B
  8
3
 10
34.02792293440001
 20
25.2010417189
 30
0.0
  0
VERTEX
  5
2A4C
  8
3
 10
34.02792293440001
 20
25.57364738429999
 30
0.0
  0
VERTEX
  5
2A4D
  8
3
 10
34.24757783020004
 20
25.9296992255
 30
0.0
  0
VERTEX
  5
2A4E
  8
3
 10
34.66737032039998
 20
26.23756047379999
 30
0.0
  0
VERTEX
  5
2A4F
  8
3
 10
35.25
 20
26.46987630629999
 30
0.0
  0
SEQEND
  5
2D70
  8
3
  0
POLYLINE
  5
12B5
  8
3
 66
     1
 10
0.0
 20
0.0
 30
0.0
  0
VERTEX
  5
2A50
  8
3
 10
35.25
 20
26.54791585769999
 30
0.0
  0
VERTEX
  5
2A51
  8
3
 10
35.94369766509999
 20
26.68404399319999
 30
0.0
  0
VERTEX
  5
2A52
  8
3
 10
36.68682523400003
 20
26.7118888494
 30
0.0
  0
VERTEX
  5
2A53
  8
3
 10
37.41335256090002
 20
26.6289762888
 30
0.0
  0
VERTEX
  5
2A54
  8
3
 10
38.05872450460004
 20
26.44267345599999
 30
0.0
  0
VERTEX
  5
2A55
  8
3
 10
38.56559693580004
 20
26.16953417549999
 30
0.0
  0
VERTEX
  5
2A56
  8
3
 10
38.88893201450003
 20
25.833828071
 30
0.0
  0
VERTEX
  5
2A57
  8
3
 10
39.0
 20
25.46538410299999
 30
0.0
  0
VERTEX
  5
2A58
  8
3
 10
38.88893201450003
 20
25.0969401349
 30
0.0
  0
VERTEX
  5
2A59
  8
3
 10
38.56559693580004
 20
24.7612340304
 30
0.0
  0
VERTEX
  5
2A5A
  8
3
 10
38.05872450460004
 20
24.4880947499
 30
0.0
  0
VERTEX
  5
2A5B
  8
3
 10
37.41335256090002
 20
24.30179191709999
 30
0.0
  0
VERTEX
  5
2A5C
  8
3
 10
36.68682523400003
 20
24.2188793565
 30
0.0
  0
VERTEX
  5
2A5D
  8
3
 10
35.94369766509999
 20
24.2467242127
 30
0.0
  0
VERTEX
  5
2A5E
  8
3
 10
35.25
 20
24.3828523482
 30
0.0
  0
VERTEX
  5
2A5F
  8
3
 10
34.66737032039998
 20
24.61516818069998
 30
0.0
  0
VERTEX
  5
2A60
  8
3
 10
34.24757783020004
 20
24.92302942909998
 30
0.0
  0
VERTEX
  5
2A61
  8
3
 10
34.02792293440001
 20
25.27908127019998
 30
0.0
  0
VERTEX
  5
2A62
  8
3
 10
34.02792293440001
 20
25.65168693569998
 30
0.0
  0
VERTEX
  5
2A63
  8
3
 10
34.24757783020004
 20
26.00773877679998
 30
0.0
  0
VERTEX
  5
2A64
  8
3
 10
34.66737032039998
 20
26.31560002519998
 30
0.0
  0
VERTEX
  5
2A65
  8
3
 10
35.25
 20
26.54791585769999
 30
0.0
  0
SEQEND
  5
2D6F
  8
3
  0
POLYLINE
  5
12B6
  8
3
 66
     1
 10
0.0
 20
0.0
 30
0.0
  0
VERTEX
  5
2A66
  8
3
 10
35.47250000000003
 20
26.62507209999998
 30
0.0
  0
VERTEX
  5
2A67
  8
3
 10
36.10603465140002
 20
26.7436724069
 30
0.0
  0
VERTEX
  5
2A68
  8
3
 10
36.78226156130006
 20
26.75299243949999
 30
0.0
  0
VERTEX
  5
2A69
  8
3
 10
37.42790105130001
 20
26.65202222779999
 30
0.0
  0
VERTEX
  5
2A6A
  8
3
 10
37.97298806460003
 20
26.4517034607
 30
0.0
  0
VERTEX
  5
2A6B
  8
3
 10
38.35845396520006
 20
26.17374378509999
 30
0.0
  0
VERTEX
  5
2A6C
  8
3
 10
38.54252754190003
 20
25.84826444460001
 30
0.0
  0
VERTEX
  5
2A6D
  8
3
 10
38.50526156630002
 20
25.5105361764
 30
0.0
  0
VERTEX
  5
2A6E
  8
3
 10
38.25069438520006
 20
25.1971570785
 30
0.0
  0
VERTEX
  5
2A6F
  8
3
 10
37.80641230260005
 20
24.94208663879999
 30
0.0
  0
VERTEX
  5
2A70
  8
3
 10
37.2205601759
 20
24.77296569719999
 30
0.0
  0
VERTEX
  5
2A71
  8
3
 10
36.55662417360003
 20
24.70812113209999
 30
0.0
  0
VERTEX
  5
2A72
  8
3
 10
35.88655206340002
 20
24.75457985809999
 30
0.0
  0
VERTEX
  5
2A73
  8
3
 10
35.28295655580001
 20
24.90730735149998
 30
0.0
  0
VERTEX
  5
2A74
  8
3
 10
34.81124658970003
 20
25.1497532185
 30
0.0
  0
VERTEX
  5
2A75
  8
3
 10
34.52253925939999
 20
25.4556446874
 30
0.0
  0
VERTEX
  5
2A76
  8
3
 10
34.4481204837
 20
25.7918336713
 30
0.0
  0
VERTEX
  5
2A77
  8
3
 10
34.59605469190001
 20
26.12188887729999
 30
0.0
  0
VERTEX
  5
2A78
  8
3
 10
34.95031091690004
 20
26.41004370229999
 30
0.0
  0
VERTEX
  5
2A79
  8
3
 10
35.47250000000003
 20
26.62507209999998
 30
0.0
  0
SEQEND
  5
2D6E
  8
3
  0
POLYLINE
  5
12B7
  8
3
 66
     1
 10
0.0
 20
0.0
 30
0.0
  0
VERTEX
  5
2A7A
  8
3
 10
35.25
 20
27.08760964690001
 30
0.0
  0
VERTEX
  5
2A7B
  8
3
 10
35.94369766509999
 20
27.22373778240001
 30
0.0
  0
VERTEX
  5
2A7C
  8
3
 10
36.68682523400003
 20
27.2515826387
 30
0.0
  0
VERTEX
  5
2A7D
  8
3
 10
37.41335256090002
 20
27.16867007799999
 30
0.0
  0
VERTEX
  5
2A7E
  8
3
 10
38.05872450460004
 20
26.9823672453
 30
0.0
  0
VERTEX
  5
2A7F
  8
3
 10
38.56559693580004
 20
26.70922796479999
 30
0.0
  0
VERTEX
  5
2A80
  8
3
 10
38.88893201450003
 20
26.37352186019999
 30
0.0
  0
VERTEX
  5
2A81
  8
3
 10
39.0
 20
26.00507789220001
 30
0.0
  0
VERTEX
  5
2A82
  8
3
 10
38.88893201450003
 20
25.6366339242
 30
0.0
  0
VERTEX
  5
2A83
  8
3
 10
38.56559693580004
 20
25.30092781959999
 30
0.0
  0
VERTEX
  5
2A84
  8
3
 10
38.05872450460004
 20
25.02778853909999
 30
0.0
  0
VERTEX
  5
2A85
  8
3
 10
37.41335256090002
 20
24.84148570639999
 30
0.0
  0
VERTEX
  5
2A86
  8
3
 10
36.68682523400003
 20
24.75857314569998
 30
0.0
  0
VERTEX
  5
2A87
  8
3
 10
35.94369766509999
 20
24.786418002
 30
0.0
  0
VERTEX
  5
2A88
  8
3
 10
35.25
 20
24.92254613750001
 30
0.0
  0
VERTEX
  5
2A89
  8
3
 10
34.66737032039998
 20
25.15486196999998
 30
0.0
  0
VERTEX
  5
2A8A
  8
3
 10
34.24757783020004
 20
25.4627232183
 30
0.0
  0
VERTEX
  5
2A8B
  8
3
 10
34.02792293440001
 20
25.81877505949998
 30
0.0
  0
VERTEX
  5
2A8C
  8
3
 10
34.02792293440001
 20
26.1913807249
 30
0.0
  0
VERTEX
  5
2A8D
  8
3
 10
34.24757783020004
 20
26.54743256609999
 30
0.0
  0
VERTEX
  5
2A8E
  8
3
 10
34.66737032039998
 20
26.8552938144
 30
0.0
  0
VERTEX
  5
2A8F
  8
3
 10
35.25
 20
27.08760964690001
 30
0.0
  0
SEQEND
  5
2D6D
  8
3
  0
POLYLINE
  5
12B8
  8
3
 66
     1
 10
0.0
 20
0.0
 30
0.0
  0
VERTEX
  5
2A90
  8
3
 10
35.25
 20
27.1656491983
 30
0.0
  0
VERTEX
  5
2A91
  8
3
 10
35.94369766509999
 20
27.3017773338
 30
0.0
  0
VERTEX
  5
2A92
  8
3
 10
36.68682523400003
 20
27.32962218999998
 30
0.0
  0
VERTEX
  5
2A93
  8
3
 10
37.41335256090002
 20
27.24670962939999
 30
0.0
  0
VERTEX
  5
2A94
  8
3
 10
38.05872450460004
 20
27.06040679660001
 30
0.0
  0
VERTEX
  5
2A95
  8
3
 10
38.56559693580004
 20
26.7872675161
 30
0.0
  0
VERTEX
  5
2A96
  8
3
 10
38.88893201450003
 20
26.45156141159998
 30
0.0
  0
VERTEX
  5
2A97
  8
3
 10
39.0
 20
26.0831174436
 30
0.0
  0
VERTEX
  5
2A98
  8
3
 10
38.88893201450003
 20
25.71467347550001
 30
0.0
  0
VERTEX
  5
2A99
  8
3
 10
38.56559693580004
 20
25.37896737099999
 30
0.0
  0
VERTEX
  5
2A9A
  8
3
 10
38.05872450460004
 20
25.10582809049998
 30
0.0
  0
VERTEX
  5
2A9B
  8
3
 10
37.41335256090002
 20
24.91952525779999
 30
0.0
  0
VERTEX
  5
2A9C
  8
3
 10
36.68682523400003
 20
24.83661269709998
 30
0.0
  0
VERTEX
  5
2A9D
  8
3
 10
35.94369766509999
 20
24.86445755329999
 30
0.0
  0
VERTEX
  5
2A9E
  8
3
 10
35.25
 20
25.00058568879999
 30
0.0
  0
VERTEX
  5
2A9F
  8
3
 10
34.66737032039998
 20
25.23290152129999
 30
0.0
  0
VERTEX
  5
2AA0
  8
3
 10
34.24757783020004
 20
25.5407627697
 30
0.0
  0
VERTEX
  5
2AA1
  8
3
 10
34.02792293440001
 20
25.89681461079999
 30
0.0
  0
VERTEX
  5
2AA2
  8
3
 10
34.02792293440001
 20
26.2694202763
 30
0.0
  0
VERTEX
  5
2AA3
  8
3
 10
34.24757783020004
 20
26.62547211749998
 30
0.0
  0
VERTEX
  5
2AA4
  8
3
 10
34.66737032039998
 20
26.9333333658
 30
0.0
  0
VERTEX
  5
2AA5
  8
3
 10
35.25
 20
27.1656491983
 30
0.0
  0
SEQEND
  5
2D6C
  8
3
  0
POLYLINE
  5
12B9
  8
3
 66
     1
 10
0.0
 20
0.0
 30
0.0
  0
VERTEX
  5
2AA6
  8
3
 10
35.47250000000003
 20
27.24280544059999
 30
0.0
  0
VERTEX
  5
2AA7
  8
3
 10
36.10603465140002
 20
27.36140574749999
 30
0.0
  0
VERTEX
  5
2AA8
  8
3
 10
36.78226156130006
 20
27.3707257801
 30
0.0
  0
VERTEX
  5
2AA9
  8
3
 10
37.42790105130001
 20
27.2697555684
 30
0.0
  0
VERTEX
  5
2AAA
  8
3
 10
37.97298806460003
 20
27.06943680129999
 30
0.0
  0
VERTEX
  5
2AAB
  8
3
 10
38.35845396520006
 20
26.7914771257
 30
0.0
  0
VERTEX
  5
2AAC
  8
3
 10
38.54252754190003
 20
26.4659977853
 30
0.0
  0
VERTEX
  5
2AAD
  8
3
 10
38.50526156630002
 20
26.12826951700001
 30
0.0
  0
VERTEX
  5
2AAE
  8
3
 10
38.25069438520006
 20
25.81489041909998
 30
0.0
  0
VERTEX
  5
2AAF
  8
3
 10
37.80641230260005
 20
25.5598199794
 30
0.0
  0
VERTEX
  5
2AB0
  8
3
 10
37.2205601759
 20
25.39069903789999
 30
0.0
  0
VERTEX
  5
2AB1
  8
3
 10
36.55662417360003
 20
25.3258544727
 30
0.0
  0
VERTEX
  5
2AB2
  8
3
 10
35.88655206340002
 20
25.37231319879999
 30
0.0
  0
VERTEX
  5
2AB3
  8
3
 10
35.28295655580001
 20
25.52504069209999
 30
0.0
  0
VERTEX
  5
2AB4
  8
3
 10
34.81124658970003
 20
25.76748655910001
 30
0.0
  0
VERTEX
  5
2AB5
  8
3
 10
34.52253925939999
 20
26.0733780281
 30
0.0
  0
VERTEX
  5
2AB6
  8
3
 10
34.4481204837
 20
26.40956701189998
 30
0.0
  0
VERTEX
  5
2AB7
  8
3
 10
34.59605469190001
 20
26.73962221790001
 30
0.0
  0
VERTEX
  5
2AB8
  8
3
 10
34.95031091690004
 20
27.0277770429
 30
0.0
  0
VERTEX
  5
2AB9
  8
3
 10
35.47250000000003
 20
27.24280544059999
 30
0.0
  0
SEQEND
  5
2D6B
  8
3
  0
POLYLINE
  5
12BA
  8
3
 66
     1
 10
0.0
 20
0.0
 30
0.0
  0
VERTEX
  5
2ABA
  8
3
 10
35.25
 20
27.70534298749999
 30
0.0
  0
VERTEX
  5
2ABB
  8
3
 10
35.94369766509999
 20
27.84147112299999
 30
0.0
  0
VERTEX
  5
2ABC
  8
3
 10
36.68682523400003
 20
27.86931597929998
 30
0.0
  0
VERTEX
  5
2ABD
  8
3
 10
37.41335256090002
 20
27.7864034186
 30
0.0
  0
VERTEX
  5
2ABE
  8
3
 10
38.05872450460004
 20
27.60010058589998
 30
0.0
  0
VERTEX
  5
2ABF
  8
3
 10
38.56559693580004
 20
27.3269613054
 30
0.0
  0
VERTEX
  5
2AC0
  8
3
 10
38.88893201450003
 20
26.9912552008
 30
0.0
  0
VERTEX
  5
2AC1
  8
3
 10
39.0
 20
26.62281123279999
 30
0.0
  0
VERTEX
  5
2AC2
  8
3
 10
38.88893201450003
 20
26.25436726479998
 30
0.0
  0
VERTEX
  5
2AC3
  8
3
 10
38.56559693580004
 20
25.9186611602
 30
0.0
  0
VERTEX
  5
2AC4
  8
3
 10
38.05872450460004
 20
25.6455218797
 30
0.0
  0
VERTEX
  5
2AC5
  8
3
 10
37.41335256090002
 20
25.459219047
 30
0.0
  0
VERTEX
  5
2AC6
  8
3
 10
36.68682523400003
 20
25.3763064863
 30
0.0
  0
VERTEX
  5
2AC7
  8
3
 10
35.94369766509999
 20
25.40415134259999
 30
0.0
  0
VERTEX
  5
2AC8
  8
3
 10
35.25
 20
25.54027947809999
 30
0.0
  0
VERTEX
  5
2AC9
  8
3
 10
34.66737032039998
 20
25.7725953106
 30
0.0
  0
VERTEX
  5
2ACA
  8
3
 10
34.24757783020004
 20
26.08045655889998
 30
0.0
  0
VERTEX
  5
2ACB
  8
3
 10
34.02792293440001
 20
26.4365084001
 30
0.0
  0
VERTEX
  5
2ACC
  8
3
 10
34.02792293440001
 20
26.80911406549998
 30
0.0
  0
VERTEX
  5
2ACD
  8
3
 10
34.24757783020004
 20
27.1651659067
 30
0.0
  0
VERTEX
  5
2ACE
  8
3
 10
34.66737032039998
 20
27.47302715499998
 30
0.0
  0
VERTEX
  5
2ACF
  8
3
 10
35.25
 20
27.70534298749999
 30
0.0
  0
SEQEND
  5
2D6A
  8
3
  0
POLYLINE
  5
12BB
  8
3
 66
     1
 10
0.0
 20
0.0
 30
0.0
  0
VERTEX
  5
2AD0
  8
3
 10
35.25
 20
27.78338253889999
 30
0.0
  0
VERTEX
  5
2AD1
  8
3
 10
35.94369766509999
 20
27.91951067439999
 30
0.0
  0
VERTEX
  5
2AD2
  8
3
 10
36.68682523400003
 20
27.94735553059999
 30
0.0
  0
VERTEX
  5
2AD3
  8
3
 10
37.41335256090002
 20
27.86444297
 30
0.0
  0
VERTEX
  5
2AD4
  8
3
 10
38.05872450460004
 20
27.67814013719999
 30
0.0
  0
VERTEX
  5
2AD5
  8
3
 10
38.56559693580004
 20
27.40500085669998
 30
0.0
  0
VERTEX
  5
2AD6
  8
3
 10
38.88893201450003
 20
27.06929475219999
 30
0.0
  0
VERTEX
  5
2AD7
  8
3
 10
39.0
 20
26.70085078419999
 30
0.0
  0
VERTEX
  5
2AD8
  8
3
 10
38.88893201450003
 20
26.33240681609999
 30
0.0
  0
VERTEX
  5
2AD9
  8
3
 10
38.56559693580004
 20
25.9967007116
 30
0.0
  0
VERTEX
  5
2ADA
  8
3
 10
38.05872450460004
 20
25.72356143109999
 30
0.0
  0
VERTEX
  5
2ADB
  8
3
 10
37.41335256090002
 20
25.5372585984
 30
0.0
  0
VERTEX
  5
2ADC
  8
3
 10
36.68682523400003
 20
25.45434603769999
 30
0.0
  0
VERTEX
  5
2ADD
  8
3
 10
35.94369766509999
 20
25.4821908939
 30
0.0
  0
VERTEX
  5
2ADE
  8
3
 10
35.25
 20
25.6183190294
 30
0.0
  0
VERTEX
  5
2ADF
  8
3
 10
34.66737032039998
 20
25.85063486190001
 30
0.0
  0
VERTEX
  5
2AE0
  8
3
 10
34.24757783020004
 20
26.15849611030001
 30
0.0
  0
VERTEX
  5
2AE1
  8
3
 10
34.02792293440001
 20
26.5145479514
 30
0.0
  0
VERTEX
  5
2AE2
  8
3
 10
34.02792293440001
 20
26.88715361690001
 30
0.0
  0
VERTEX
  5
2AE3
  8
3
 10
34.24757783020004
 20
27.24320545809999
 30
0.0
  0
VERTEX
  5
2AE4
  8
3
 10
34.66737032039998
 20
27.55106670640001
 30
0.0
  0
VERTEX
  5
2AE5
  8
3
 10
35.25
 20
27.78338253889999
 30
0.0
  0
SEQEND
  5
2D69
  8
3
  0
POLYLINE
  5
12BC
  8
3
 66
     1
 10
0.0
 20
0.0
 30
0.0
  0
VERTEX
  5
2AE6
  8
3
 10
35.47250000000003
 20
27.86053878120001
 30
0.0
  0
VERTEX
  5
2AE7
  8
3
 10
36.10603465140002
 20
27.9791390881
 30
0.0
  0
VERTEX
  5
2AE8
  8
3
 10
36.78226156130006
 20
27.9884591208
 30
0.0
  0
VERTEX
  5
2AE9
  8
3
 10
37.42790105130001
 20
27.88748890899998
 30
0.0
  0
VERTEX
  5
2AEA
  8
3
 10
37.97298806460003
 20
27.6871701419
 30
0.0
  0
VERTEX
  5
2AEB
  8
3
 10
38.35845396520006
 20
27.40921046629998
 30
0.0
  0
VERTEX
  5
2AEC
  8
3
 10
38.54252754190003
 20
27.08373112589999
 30
0.0
  0
VERTEX
  5
2AED
  8
3
 10
38.50526156630002
 20
26.74600285759999
 30
0.0
  0
VERTEX
  5
2AEE
  8
3
 10
38.25069438520006
 20
26.43262375969999
 30
0.0
  0
VERTEX
  5
2AEF
  8
3
 10
37.80641230260005
 20
26.17755331999999
 30
0.0
  0
VERTEX
  5
2AF0
  8
3
 10
37.2205601759
 20
26.0084323785
 30
0.0
  0
VERTEX
  5
2AF1
  8
3
 10
36.55662417360003
 20
25.94358781329998
 30
0.0
  0
VERTEX
  5
2AF2
  8
3
 10
35.88655206340002
 20
25.9900465394
 30
0.0
  0
VERTEX
  5
2AF3
  8
3
 10
35.28295655580001
 20
26.1427740327
 30
0.0
  0
VERTEX
  5
2AF4
  8
3
 10
34.81124658970003
 20
26.38521989969999
 30
0.0
  0
VERTEX
  5
2AF5
  8
3
 10
34.52253925939999
 20
26.69111136870001
 30
0.0
  0
VERTEX
  5
2AF6
  8
3
 10
34.4481204837
 20
27.02730035260001
 30
0.0
  0
VERTEX
  5
2AF7
  8
3
 10
34.59605469190001
 20
27.35735555849999
 30
0.0
  0
VERTEX
  5
2AF8
  8
3
 10
34.95031091690004
 20
27.64551038349998
 30
0.0
  0
VERTEX
  5
2AF9
  8
3
 10
35.47250000000003
 20
27.86053878120001
 30
0.0
  0
SEQEND
  5
2D68
  8
3
  0
LINE
  5
12BD
  8
3
 10
36.5
 20
25.57661692509998
 30
0.0
 11
37.75
 21
25.21577300679999
 31
0.0
  0
POLYLINE
  5
12BE
  8
3
 66
     1
 10
0.0
 20
0.0
 30
0.0
  0
VERTEX
  5
2AFA
  8
3
 10
35.37194843660006
 20
28.06956742610001
 30
0.0
  0
VERTEX
  5
2AFB
  8
3
 10
34.82338863550001
 20
27.847459942
 30
0.0
  0
VERTEX
  5
2AFC
  8
3
 10
34.43894723649998
 20
27.5514660215
 30
0.0
  0
VERTEX
  5
2AFD
  8
3
 10
34.25625604210006
 20
27.21055961179999
 30
0.0
  0
VERTEX
  5
2AFE
  8
3
 10
34.29319813950002
 20
26.85811100749999
 30
0.0
  0
VERTEX
  5
2AFF
  8
3
 10
34.54615737860001
 20
26.52862033369999
 30
0.0
  0
VERTEX
  5
2B00
  8
3
 10
34.99037234670004
 20
26.2543404331
 30
0.0
  0
VERTEX
  5
2B01
  8
3
 10
35.58236018780002
 20
26.06211973359999
 30
0.0
  0
VERTEX
  5
2B02
  8
3
 10
36.26417300720004
 20
25.9707741364
 30
0.0
  0
VERTEX
  5
2B03
  8
3
 10
36.9690702158
 20
25.9892451851
 30
0.0
  0
VERTEX
  5
2B04
  8
3
 10
37.62805156340005
 20
26.11572480469999
 30
0.0
  0
VERTEX
  5
2B05
  8
3
 10
38.17661136449999
 20
26.33783228869999
 30
0.0
  0
VERTEX
  5
2B06
  8
3
 10
38.56105276350002
 20
26.63382620919998
 30
0.0
  0
VERTEX
  5
2B07
  8
3
 10
38.74374395790005
 20
26.97473261900001
 30
0.0
  0
VERTEX
  5
2B08
  8
3
 10
38.70680186050004
 20
27.3271812232
 30
0.0
  0
VERTEX
  5
2B09
  8
3
 10
38.45384262139999
 20
27.65667189709998
 30
0.0
  0
VERTEX
  5
2B0A
  8
3
 10
38.00962765330002
 20
27.93095179759999
 30
0.0
  0
VERTEX
  5
2B0B
  8
3
 10
37.41763981220004
 20
28.1231724971
 30
0.0
  0
VERTEX
  5
2B0C
  8
3
 10
36.73582699280001
 20
28.21451809429999
 30
0.0
  0
VERTEX
  5
2B0D
  8
3
 10
36.0309297842
 20
28.19604704559998
 30
0.0
  0
VERTEX
  5
2B0E
  8
3
 10
35.37194843660006
 20
28.06956742610001
 30
0.0
  0
SEQEND
  5
2D67
  8
3
  0
LINE
  5
12BF
  8
3
 10
36.5
 20
25.57661692509998
 30
0.0
 11
35.25
 21
25.21577300679999
 31
0.0
  0
LINE
  5
12C0
  8
3
 10
36.5
 20
25.57661692509998
 30
0.0
 11
36.5
 21
27.9148855153
 31
0.0
  0
LINE
  5
12C1
  8
3
 10
36.5
 20
27.9148855153
 30
0.0
 11
35.25
 21
27.55404159700001
 31
0.0
  0
POLYLINE
  5
12C2
  8
3
 66
     1
 10
0.0
 20
0.0
 30
0.0
  0
VERTEX
  5
2B0F
  8
3
 10
38.2796822048
 20
27.70694767879999
 30
0.0
  0
VERTEX
  5
2B10
  8
3
 10
38.51688281860004
 20
27.39018035309999
 30
0.0
  0
VERTEX
  5
2B11
  8
3
 10
38.53552288390006
 20
27.05206689809998
 30
0.0
  0
VERTEX
  5
2B12
  8
3
 10
38.33358246040001
 20
26.7292471531
 30
0.0
  0
VERTEX
  5
2B13
  8
3
 10
37.93294492620004
 20
26.45670364649999
 30
0.0
  0
VERTEX
  5
2B14
  8
3
 10
37.37702557490002
 20
26.2639706962
 30
0.0
  0
VERTEX
  5
2B15
  8
3
 10
36.72606689410003
 20
26.1719339078
 30
0.0
  0
VERTEX
  5
2B16
  8
3
 10
36.05061035760002
 20
26.1905668956
 30
0.0
  0
VERTEX
  5
2B17
  8
3
 10
35.42385216180003
 20
26.3178504862
 30
0.0
  0
VERTEX
  5
2B18
  8
3
 10
34.91371128240002
 20
26.53999152750001
 30
0.0
  0
VERTEX
  5
2B19
  8
3
 10
34.5754693993
 20
26.83291759080001
 30
0.0
  0
VERTEX
  5
2B1A
  8
3
 10
34.44578026910006
 20
27.16488559199999
 30
0.0
  0
VERTEX
  5
2B1B
  8
3
 10
34.53869772109999
 20
27.4999216471
 30
0.0
  0
VERTEX
  5
2B1C
  8
3
 10
34.84415270790004
 20
27.8017194009
 30
0.0
  0
VERTEX
  5
2B1D
  8
3
 10
35.32904444180002
 20
28.03757438389999
 30
0.0
  0
VERTEX
  5
2B1E
  8
3
 10
35.94082737970001
 20
28.18192804909998
 30
0.0
  0
VERTEX
  5
2B1F
  8
3
 10
36.61320534750001
 20
28.21913743689998
 30
0.0
  0
VERTEX
  5
2B20
  8
3
 10
37.27331575940002
 20
28.14517033289999
 30
0.0
  0
VERTEX
  5
2B21
  8
3
 10
37.84962540940001
 20
27.96804222029999
 30
0.0
  0
VERTEX
  5
2B22
  8
3
 10
38.2796822048
 20
27.70694767879999
 30
0.0
  0
SEQEND
  5
2D66
  8
3
  0
LINE
  5
12C3
  8
3
 10
36.5
 20
27.9148855153
 30
0.0
 11
37.75
 21
27.55404159700001
 31
0.0
  0
LINE
  5
12C4
  8
3
 10
37.75
 20
24.4940851703
 30
0.0
 11
37.75
 21
25.21577300679999
 31
0.0
  0
LINE
  5
12C5
  8
3
 10
37.75
 20
25.21577300679999
 30
0.0
 11
37.75
 21
27.55404159700001
 31
0.0
  0
LINE
  5
12C6
  8
3
 10
35.25
 20
25.21577300679999
 30
0.0
 11
35.25
 21
27.55404159700001
 31
0.0
  0
LINE
  5
12C7
  8
3
 10
35.25
 20
25.21577300679999
 30
0.0
 11
35.25
 21
24.4940851703
 31
0.0
  0
LINE
  5
12C8
  8
3
 10
36.5
 20
24.13324125209999
 30
0.0
 11
36.5
 21
25.57661692509998
 31
0.0
  0
LINE
  5
12C9
  8
3
 10
36.5
 20
26.47150984229998
 30
0.0
 11
35.25
 21
26.83235376049998
 31
0.0
  0
LINE
  5
12CA
  8
3
 10
36.5
 20
24.13324125209999
 30
0.0
 11
35.25
 21
24.4940851703
 31
0.0
  0
LINE
  5
12CB
  8
3
 10
37.75
 20
26.83235376049998
 30
0.0
 11
36.5
 21
26.47150984229998
 31
0.0
  0
LINE
  5
12CC
  8
3
 10
37.75
 20
24.4940851703
 30
0.0
 11
36.5
 21
24.13324125209999
 31
0.0
  0
POLYLINE
  5
12CD
  8
3
 66
     1
 10
0.0
 20
0.0
 30
0.0
  0
VERTEX
  5
2B23
  8
3
 10
38.01554445660003
 20
-22.43454525620001
 30
0.0
  0
VERTEX
  5
2B24
  8
3
 10
37.5971166603
 20
-22.67874075890001
 30
0.0
  0
VERTEX
  5
2B25
  8
3
 10
37.03051717970004
 20
-22.83086950650001
 30
0.0
  0
VERTEX
  5
2B26
  8
3
 10
36.39226841430002
 20
-22.87038566880001
 30
0.0
  0
VERTEX
  5
2B27
  8
3
 10
35.76856939640004
 20
-22.791952369
 30
0.0
  0
VERTEX
  5
2B28
  8
3
 10
35.24365413460004
 20
-22.6061624589
 30
0.0
  0
VERTEX
  5
2B29
  8
3
 10
34.88841534360006
 20
-22.33810789530001
 30
0.0
  0
VERTEX
  5
2B2A
  8
3
 10
34.75082999050005
 20
-22.02399093240001
 30
0.0
  0
VERTEX
  5
2B2B
  8
3
 10
34.84947973970003
 20
-21.70623480660001
 30
0.0
  0
VERTEX
  5
2B2C
  8
3
 10
35.17104139590003
 20
-21.4277542435
 30
0.0
  0
VERTEX
  5
2B2D
  8
3
 10
35.67208627550002
 20
-21.22615958620001
 30
0.0
  0
VERTEX
  5
2B2E
  8
3
 10
36.28494549130005
 20
-21.1286773102
 30
0.0
  0
VERTEX
  5
2B2F
  8
3
 10
36.92684901020004
 20
-21.14847293710001
 30
0.0
  0
VERTEX
  5
2B30
  8
3
 10
37.51110420500004
 20
-21.28287295790001
 30
0.0
  0
VERTEX
  5
2B31
  8
3
 10
37.95880417410001
 20
-21.51372590480001
 30
0.0
  0
VERTEX
  5
2B32
  8
3
 10
38.20948455610005
 20
-21.80985380840001
 30
0.0
  0
VERTEX
  5
2B33
  8
3
 10
38.22928957610003
 20
-22.13126295420001
 30
0.0
  0
VERTEX
  5
2B34
  8
3
 10
38.01554445660003
 20
-22.43454525620001
 30
0.0
  0
SEQEND
  5
2D65
  8
3
  0
POLYLINE
  5
12CE
  8
3
 66
     1
 10
0.0
 20
0.0
 30
0.0
  0
VERTEX
  5
2B35
  8
3
 10
35.34163362830003
 20
-23.49102491400001
 30
0.0
  0
VERTEX
  5
2B36
  8
3
 10
34.7783320497
 20
-23.26294860190001
 30
0.0
  0
VERTEX
  5
2B37
  8
3
 10
34.3835593256
 20
-22.9590002586
 30
0.0
  0
VERTEX
  5
2B38
  8
3
 10
34.19595856090001
 20
-22.60893246590001
 30
0.0
  0
VERTEX
  5
2B39
  8
3
 10
34.23389342550001
 20
-22.2470122982
 30
0.0
  0
VERTEX
  5
2B3A
  8
3
 10
34.49365059040002
 20
-21.90866702330001
 30
0.0
  0
VERTEX
  5
2B3B
  8
3
 10
34.94980321460002
 20
-21.62701623400001
 30
0.0
  0
VERTEX
  5
2B3C
  8
3
 10
35.55769990100003
 20
-21.42962987200001
 30
0.0
  0
VERTEX
  5
2B3D
  8
3
 10
36.25783548650003
 20
-21.3358294896
 30
0.0
  0
VERTEX
  5
2B3E
  8
3
 10
36.98167582190001
 20
-21.3547969219
 30
0.0
  0
VERTEX
  5
2B3F
  8
3
 10
37.65836637170003
 20
-21.4846755044
 30
0.0
  0
VERTEX
  5
2B40
  8
3
 10
38.2216679503
 20
-21.7127518165
 30
0.0
  0
VERTEX
  5
2B41
  8
3
 10
38.6164406744
 20
-22.01670015970001
 30
0.0
  0
VERTEX
  5
2B42
  8
3
 10
38.80404143910005
 20
-22.36676795240001
 30
0.0
  0
VERTEX
  5
2B43
  8
3
 10
38.76610657449999
 20
-22.7286881201
 30
0.0
  0
VERTEX
  5
2B44
  8
3
 10
38.50634940960003
 20
-23.06703339500001
 30
0.0
  0
VERTEX
  5
2B45
  8
3
 10
38.05019678540003
 20
-23.34868418430001
 30
0.0
  0
VERTEX
  5
2B46
  8
3
 10
37.44230009900002
 20
-23.5460705463
 30
0.0
  0
VERTEX
  5
2B47
  8
3
 10
36.74216451350003
 20
-23.63987092870001
 30
0.0
  0
VERTEX
  5
2B48
  8
3
 10
36.01832417809999
 20
-23.6209034964
 30
0.0
  0
VERTEX
  5
2B49
  8
3
 10
35.34163362830003
 20
-23.49102491400001
 30
0.0
  0
SEQEND
  5
2D64
  8
3
  0
POLYLINE
  5
12CF
  8
3
 66
     1
 10
0.0
 20
0.0
 30
0.0
  0
VERTEX
  5
2B4A
  8
3
 10
37.52750000000003
 20
-21.7567231923
 30
0.0
  0
VERTEX
  5
2B4B
  8
3
 10
38.04968908310002
 20
-21.97175158990001
 30
0.0
  0
VERTEX
  5
2B4C
  8
3
 10
38.40394530809999
 20
-22.259906415
 30
0.0
  0
VERTEX
  5
2B4D
  8
3
 10
38.5518795163
 20
-22.58996162090001
 30
0.0
  0
VERTEX
  5
2B4E
  8
3
 10
38.47746074060001
 20
-22.9261506048
 30
0.0
  0
VERTEX
  5
2B4F
  8
3
 10
38.18875341030002
 20
-23.2320420737
 30
0.0
  0
VERTEX
  5
2B50
  8
3
 10
37.71704344420004
 20
-23.4744879407
 30
0.0
  0
VERTEX
  5
2B51
  8
3
 10
37.11344793659998
 20
-23.62721543410001
 30
0.0
  0
VERTEX
  5
2B52
  8
3
 10
36.44337582640003
 20
-23.67367416010001
 30
0.0
  0
VERTEX
  5
2B53
  8
3
 10
35.7794398241
 20
-23.608829595
 30
0.0
  0
VERTEX
  5
2B54
  8
3
 10
35.19358769740006
 20
-23.43970865350001
 30
0.0
  0
VERTEX
  5
2B55
  8
3
 10
34.74930561480005
 20
-23.1846382138
 30
0.0
  0
VERTEX
  5
2B56
  8
3
 10
34.49473843370004
 20
-22.8712591159
 30
0.0
  0
VERTEX
  5
2B57
  8
3
 10
34.45747245810003
 20
-22.53353084760001
 30
0.0
  0
VERTEX
  5
2B58
  8
3
 10
34.64154603480006
 20
-22.20805150720001
 30
0.0
  0
VERTEX
  5
2B59
  8
3
 10
35.02701193540003
 20
-21.93009183150001
 30
0.0
  0
VERTEX
  5
2B5A
  8
3
 10
35.57209894870005
 20
-21.72977306450001
 30
0.0
  0
VERTEX
  5
2B5B
  8
3
 10
36.21773843870005
 20
-21.62880285270001
 30
0.0
  0
VERTEX
  5
2B5C
  8
3
 10
36.89396534860003
 20
-21.63812288530001
 30
0.0
  0
VERTEX
  5
2B5D
  8
3
 10
37.52750000000003
 20
-21.7567231923
 30
0.0
  0
SEQEND
  5
2D63
  8
3
  0
POLYLINE
  5
12D0
  8
3
 66
     1
 10
0.0
 20
0.0
 30
0.0
  0
VERTEX
  5
2B5E
  8
3
 10
37.75
 20
-21.83387943450001
 30
0.0
  0
VERTEX
  5
2B5F
  8
3
 10
38.33262967960002
 20
-22.0661952671
 30
0.0
  0
VERTEX
  5
2B60
  8
3
 10
38.75242216980001
 20
-22.3740565154
 30
0.0
  0
VERTEX
  5
2B61
  8
3
 10
38.97207706560005
 20
-22.73010835650001
 30
0.0
  0
VERTEX
  5
2B62
  8
3
 10
38.97207706560005
 20
-23.102714022
 30
0.0
  0
VERTEX
  5
2B63
  8
3
 10
38.75242216980001
 20
-23.4587658632
 30
0.0
  0
VERTEX
  5
2B64
  8
3
 10
38.33262967960002
 20
-23.7666271115
 30
0.0
  0
VERTEX
  5
2B65
  8
3
 10
37.75
 20
-23.99894294400001
 30
0.0
  0
VERTEX
  5
2B66
  8
3
 10
37.05630233490001
 20
-24.13507107950001
 30
0.0
  0
VERTEX
  5
2B67
  8
3
 10
36.31317476600003
 20
-24.1629159357
 30
0.0
  0
VERTEX
  5
2B68
  8
3
 10
35.58664743910003
 20
-24.08000337510001
 30
0.0
  0
VERTEX
  5
2B69
  8
3
 10
34.94127549540002
 20
-23.89370054240001
 30
0.0
  0
VERTEX
  5
2B6A
  8
3
 10
34.43440306420001
 20
-23.62056126180001
 30
0.0
  0
VERTEX
  5
2B6B
  8
3
 10
34.11106798550003
 20
-23.2848551573
 30
0.0
  0
VERTEX
  5
2B6C
  8
3
 10
34.0
 20
-22.91641118930001
 30
0.0
  0
VERTEX
  5
2B6D
  8
3
 10
34.11106798550003
 20
-22.54796722130001
 30
0.0
  0
VERTEX
  5
2B6E
  8
3
 10
34.43440306420001
 20
-22.21226111670001
 30
0.0
  0
VERTEX
  5
2B6F
  8
3
 10
34.94127549540002
 20
-21.9391218362
 30
0.0
  0
VERTEX
  5
2B70
  8
3
 10
35.58664743910003
 20
-21.75281900350001
 30
0.0
  0
VERTEX
  5
2B71
  8
3
 10
36.31317476600003
 20
-21.66990644280001
 30
0.0
  0
VERTEX
  5
2B72
  8
3
 10
37.05630233490001
 20
-21.697751299
 30
0.0
  0
VERTEX
  5
2B73
  8
3
 10
37.75
 20
-21.83387943450001
 30
0.0
  0
SEQEND
  5
2D62
  8
3
  0
POLYLINE
  5
12D1
  8
3
 66
     1
 10
0.0
 20
0.0
 30
0.0
  0
VERTEX
  5
2B74
  8
3
 10
37.75
 20
-21.9119189859
 30
0.0
  0
VERTEX
  5
2B75
  8
3
 10
38.33262967960002
 20
-22.14423481840001
 30
0.0
  0
VERTEX
  5
2B76
  8
3
 10
38.75242216980001
 20
-22.45209606670001
 30
0.0
  0
VERTEX
  5
2B77
  8
3
 10
38.97207706560005
 20
-22.80814790790001
 30
0.0
  0
VERTEX
  5
2B78
  8
3
 10
38.97207706560005
 20
-23.18075357330001
 30
0.0
  0
VERTEX
  5
2B79
  8
3
 10
38.75242216980001
 20
-23.53680541450001
 30
0.0
  0
VERTEX
  5
2B7A
  8
3
 10
38.33262967960002
 20
-23.84466666280001
 30
0.0
  0
VERTEX
  5
2B7B
  8
3
 10
37.75
 20
-24.0769824954
 30
0.0
  0
VERTEX
  5
2B7C
  8
3
 10
37.05630233490001
 20
-24.2131106309
 30
0.0
  0
VERTEX
  5
2B7D
  8
3
 10
36.31317476600003
 20
-24.24095548710001
 30
0.0
  0
VERTEX
  5
2B7E
  8
3
 10
35.58664743910003
 20
-24.1580429264
 30
0.0
  0
VERTEX
  5
2B7F
  8
3
 10
34.94127549540002
 20
-23.97174009370001
 30
0.0
  0
VERTEX
  5
2B80
  8
3
 10
34.43440306420001
 20
-23.6986008132
 30
0.0
  0
VERTEX
  5
2B81
  8
3
 10
34.11106798550003
 20
-23.36289470860001
 30
0.0
  0
VERTEX
  5
2B82
  8
3
 10
34.0
 20
-22.9944507406
 30
0.0
  0
VERTEX
  5
2B83
  8
3
 10
34.11106798550003
 20
-22.62600677260001
 30
0.0
  0
VERTEX
  5
2B84
  8
3
 10
34.43440306420001
 20
-22.290300668
 30
0.0
  0
VERTEX
  5
2B85
  8
3
 10
34.94127549540002
 20
-22.01716138750001
 30
0.0
  0
VERTEX
  5
2B86
  8
3
 10
35.58664743910003
 20
-21.8308585548
 30
0.0
  0
VERTEX
  5
2B87
  8
3
 10
36.31317476600003
 20
-21.74794599410001
 30
0.0
  0
VERTEX
  5
2B88
  8
3
 10
37.05630233490001
 20
-21.7757908504
 30
0.0
  0
VERTEX
  5
2B89
  8
3
 10
37.75
 20
-21.9119189859
 30
0.0
  0
SEQEND
  5
2D61
  8
3
  0
POLYLINE
  5
12D2
  8
3
 66
     1
 10
0.0
 20
0.0
 30
0.0
  0
VERTEX
  5
2B8A
  8
3
 10
37.52750000000003
 20
-22.37445653290001
 30
0.0
  0
VERTEX
  5
2B8B
  8
3
 10
38.04968908310002
 20
-22.58948493050001
 30
0.0
  0
VERTEX
  5
2B8C
  8
3
 10
38.40394530809999
 20
-22.8776397556
 30
0.0
  0
VERTEX
  5
2B8D
  8
3
 10
38.5518795163
 20
-23.20769496150001
 30
0.0
  0
VERTEX
  5
2B8E
  8
3
 10
38.47746074060001
 20
-23.54388394540001
 30
0.0
  0
VERTEX
  5
2B8F
  8
3
 10
38.18875341030002
 20
-23.84977541430001
 30
0.0
  0
VERTEX
  5
2B90
  8
3
 10
37.71704344420004
 20
-24.09222128130001
 30
0.0
  0
VERTEX
  5
2B91
  8
3
 10
37.11344793659998
 20
-24.24494877470001
 30
0.0
  0
VERTEX
  5
2B92
  8
3
 10
36.44337582640003
 20
-24.2914075007
 30
0.0
  0
VERTEX
  5
2B93
  8
3
 10
35.7794398241
 20
-24.2265629356
 30
0.0
  0
VERTEX
  5
2B94
  8
3
 10
35.19358769740006
 20
-24.0574419941
 30
0.0
  0
VERTEX
  5
2B95
  8
3
 10
34.74930561480005
 20
-23.80237155440001
 30
0.0
  0
VERTEX
  5
2B96
  8
3
 10
34.49473843370004
 20
-23.4889924565
 30
0.0
  0
VERTEX
  5
2B97
  8
3
 10
34.45747245810003
 20
-23.1512641882
 30
0.0
  0
VERTEX
  5
2B98
  8
3
 10
34.64154603480006
 20
-22.82578484780001
 30
0.0
  0
VERTEX
  5
2B99
  8
3
 10
35.02701193540003
 20
-22.5478251721
 30
0.0
  0
VERTEX
  5
2B9A
  8
3
 10
35.57209894870005
 20
-22.34750640510001
 30
0.0
  0
VERTEX
  5
2B9B
  8
3
 10
36.21773843870005
 20
-22.2465361933
 30
0.0
  0
VERTEX
  5
2B9C
  8
3
 10
36.89396534860003
 20
-22.2558562259
 30
0.0
  0
VERTEX
  5
2B9D
  8
3
 10
37.52750000000003
 20
-22.37445653290001
 30
0.0
  0
SEQEND
  5
2D60
  8
3
  0
POLYLINE
  5
12D3
  8
3
 66
     1
 10
0.0
 20
0.0
 30
0.0
  0
VERTEX
  5
2B9E
  8
3
 10
37.75
 20
-22.4516127751
 30
0.0
  0
VERTEX
  5
2B9F
  8
3
 10
38.33262967960002
 20
-22.68392860770001
 30
0.0
  0
VERTEX
  5
2BA0
  8
3
 10
38.75242216980001
 20
-22.99178985600001
 30
0.0
  0
VERTEX
  5
2BA1
  8
3
 10
38.97207706560005
 20
-23.34784169720001
 30
0.0
  0
VERTEX
  5
2BA2
  8
3
 10
38.97207706560005
 20
-23.72044736260001
 30
0.0
  0
VERTEX
  5
2BA3
  8
3
 10
38.75242216980001
 20
-24.07649920380001
 30
0.0
  0
VERTEX
  5
2BA4
  8
3
 10
38.33262967960002
 20
-24.38436045210001
 30
0.0
  0
VERTEX
  5
2BA5
  8
3
 10
37.75
 20
-24.6166762846
 30
0.0
  0
VERTEX
  5
2BA6
  8
3
 10
37.05630233490001
 20
-24.75280442010001
 30
0.0
  0
VERTEX
  5
2BA7
  8
3
 10
36.31317476600003
 20
-24.78064927630001
 30
0.0
  0
VERTEX
  5
2BA8
  8
3
 10
35.58664743910003
 20
-24.6977367157
 30
0.0
  0
VERTEX
  5
2BA9
  8
3
 10
34.94127549540002
 20
-24.51143388300001
 30
0.0
  0
VERTEX
  5
2BAA
  8
3
 10
34.43440306420001
 20
-24.23829460250001
 30
0.0
  0
VERTEX
  5
2BAB
  8
3
 10
34.11106798550003
 20
-23.90258849790001
 30
0.0
  0
VERTEX
  5
2BAC
  8
3
 10
34.0
 20
-23.5341445299
 30
0.0
  0
VERTEX
  5
2BAD
  8
3
 10
34.11106798550003
 20
-23.16570056190001
 30
0.0
  0
VERTEX
  5
2BAE
  8
3
 10
34.43440306420001
 20
-22.8299944573
 30
0.0
  0
VERTEX
  5
2BAF
  8
3
 10
34.94127549540002
 20
-22.5568551768
 30
0.0
  0
VERTEX
  5
2BB0
  8
3
 10
35.58664743910003
 20
-22.37055234410001
 30
0.0
  0
VERTEX
  5
2BB1
  8
3
 10
36.31317476600003
 20
-22.28763978340001
 30
0.0
  0
VERTEX
  5
2BB2
  8
3
 10
37.05630233490001
 20
-22.3154846396
 30
0.0
  0
VERTEX
  5
2BB3
  8
3
 10
37.75
 20
-22.4516127751
 30
0.0
  0
SEQEND
  5
2D5F
  8
3
  0
POLYLINE
  5
12D4
  8
3
 66
     1
 10
0.0
 20
0.0
 30
0.0
  0
VERTEX
  5
2BB4
  8
3
 10
37.75
 20
-22.5296523265
 30
0.0
  0
VERTEX
  5
2BB5
  8
3
 10
38.33262967960002
 20
-22.76196815900001
 30
0.0
  0
VERTEX
  5
2BB6
  8
3
 10
38.75242216980001
 20
-23.06982940730001
 30
0.0
  0
VERTEX
  5
2BB7
  8
3
 10
38.97207706560005
 20
-23.4258812485
 30
0.0
  0
VERTEX
  5
2BB8
  8
3
 10
38.97207706560005
 20
-23.79848691390001
 30
0.0
  0
VERTEX
  5
2BB9
  8
3
 10
38.75242216980001
 20
-24.15453875510001
 30
0.0
  0
VERTEX
  5
2BBA
  8
3
 10
38.33262967960002
 20
-24.46240000340001
 30
0.0
  0
VERTEX
  5
2BBB
  8
3
 10
37.75
 20
-24.694715836
 30
0.0
  0
VERTEX
  5
2BBC
  8
3
 10
37.05630233490001
 20
-24.8308439715
 30
0.0
  0
VERTEX
  5
2BBD
  8
3
 10
36.31317476600003
 20
-24.85868882770001
 30
0.0
  0
VERTEX
  5
2BBE
  8
3
 10
35.58664743910003
 20
-24.77577626700001
 30
0.0
  0
VERTEX
  5
2BBF
  8
3
 10
34.94127549540002
 20
-24.5894734343
 30
0.0
  0
VERTEX
  5
2BC0
  8
3
 10
34.43440306420001
 20
-24.3163341538
 30
0.0
  0
VERTEX
  5
2BC1
  8
3
 10
34.11106798550003
 20
-23.98062804920001
 30
0.0
  0
VERTEX
  5
2BC2
  8
3
 10
34.0
 20
-23.6121840812
 30
0.0
  0
VERTEX
  5
2BC3
  8
3
 10
34.11106798550003
 20
-23.2437401132
 30
0.0
  0
VERTEX
  5
2BC4
  8
3
 10
34.43440306420001
 20
-22.90803400860001
 30
0.0
  0
VERTEX
  5
2BC5
  8
3
 10
34.94127549540002
 20
-22.63489472810001
 30
0.0
  0
VERTEX
  5
2BC6
  8
3
 10
35.58664743910003
 20
-22.4485918954
 30
0.0
  0
VERTEX
  5
2BC7
  8
3
 10
36.31317476600003
 20
-22.36567933480001
 30
0.0
  0
VERTEX
  5
2BC8
  8
3
 10
37.05630233490001
 20
-22.39352419100001
 30
0.0
  0
VERTEX
  5
2BC9
  8
3
 10
37.75
 20
-22.5296523265
 30
0.0
  0
SEQEND
  5
2D5E
  8
3
  0
POLYLINE
  5
12D5
  8
3
 66
     1
 10
0.0
 20
0.0
 30
0.0
  0
VERTEX
  5
2BCA
  8
3
 10
37.52750000000003
 20
-22.99218987350001
 30
0.0
  0
VERTEX
  5
2BCB
  8
3
 10
38.04968908310002
 20
-23.2072182711
 30
0.0
  0
VERTEX
  5
2BCC
  8
3
 10
38.40394530809999
 20
-23.49537309620001
 30
0.0
  0
VERTEX
  5
2BCD
  8
3
 10
38.5518795163
 20
-23.82542830210001
 30
0.0
  0
VERTEX
  5
2BCE
  8
3
 10
38.47746074060001
 20
-24.16161728600001
 30
0.0
  0
VERTEX
  5
2BCF
  8
3
 10
38.18875341030002
 20
-24.46750875490001
 30
0.0
  0
VERTEX
  5
2BD0
  8
3
 10
37.71704344420004
 20
-24.70995462190001
 30
0.0
  0
VERTEX
  5
2BD1
  8
3
 10
37.11344793659998
 20
-24.8626821153
 30
0.0
  0
VERTEX
  5
2BD2
  8
3
 10
36.44337582640003
 20
-24.9091408413
 30
0.0
  0
VERTEX
  5
2BD3
  8
3
 10
35.7794398241
 20
-24.84429627620001
 30
0.0
  0
VERTEX
  5
2BD4
  8
3
 10
35.19358769740006
 20
-24.6751753347
 30
0.0
  0
VERTEX
  5
2BD5
  8
3
 10
34.74930561480005
 20
-24.42010489500001
 30
0.0
  0
VERTEX
  5
2BD6
  8
3
 10
34.49473843370004
 20
-24.10672579710001
 30
0.0
  0
VERTEX
  5
2BD7
  8
3
 10
34.45747245810003
 20
-23.7689975288
 30
0.0
  0
VERTEX
  5
2BD8
  8
3
 10
34.64154603480006
 20
-23.44351818840001
 30
0.0
  0
VERTEX
  5
2BD9
  8
3
 10
35.02701193540003
 20
-23.1655585127
 30
0.0
  0
VERTEX
  5
2BDA
  8
3
 10
35.57209894870005
 20
-22.9652397457
 30
0.0
  0
VERTEX
  5
2BDB
  8
3
 10
36.21773843870005
 20
-22.8642695339
 30
0.0
  0
VERTEX
  5
2BDC
  8
3
 10
36.89396534860003
 20
-22.8735895665
 30
0.0
  0
VERTEX
  5
2BDD
  8
3
 10
37.52750000000003
 20
-22.99218987350001
 30
0.0
  0
SEQEND
  5
2D5D
  8
3
  0
POLYLINE
  5
12D6
  8
3
 66
     1
 10
0.0
 20
0.0
 30
0.0
  0
VERTEX
  5
2BDE
  8
3
 10
37.75
 20
-23.0693461157
 30
0.0
  0
VERTEX
  5
2BDF
  8
3
 10
38.33262967960002
 20
-23.30166194830001
 30
0.0
  0
VERTEX
  5
2BE0
  8
3
 10
38.75242216980001
 20
-23.60952319660001
 30
0.0
  0
VERTEX
  5
2BE1
  8
3
 10
38.97207706560005
 20
-23.96557503780001
 30
0.0
  0
VERTEX
  5
2BE2
  8
3
 10
38.97207706560005
 20
-24.33818070320001
 30
0.0
  0
VERTEX
  5
2BE3
  8
3
 10
38.75242216980001
 20
-24.69423254440001
 30
0.0
  0
VERTEX
  5
2BE4
  8
3
 10
38.33262967960002
 20
-25.00209379270001
 30
0.0
  0
VERTEX
  5
2BE5
  8
3
 10
37.75
 20
-25.2344096252
 30
0.0
  0
VERTEX
  5
2BE6
  8
3
 10
37.05630233490001
 20
-25.3705377607
 30
0.0
  0
VERTEX
  5
2BE7
  8
3
 10
36.31317476600003
 20
-25.39838261700001
 30
0.0
  0
VERTEX
  5
2BE8
  8
3
 10
35.58664743910003
 20
-25.3154700563
 30
0.0
  0
VERTEX
  5
2BE9
  8
3
 10
34.94127549540002
 20
-25.12916722360001
 30
0.0
  0
VERTEX
  5
2BEA
  8
3
 10
34.43440306420001
 20
-24.8560279431
 30
0.0
  0
VERTEX
  5
2BEB
  8
3
 10
34.11106798550003
 20
-24.52032183850001
 30
0.0
  0
VERTEX
  5
2BEC
  8
3
 10
34.0
 20
-24.1518778705
 30
0.0
  0
VERTEX
  5
2BED
  8
3
 10
34.11106798550003
 20
-23.78343390250001
 30
0.0
  0
VERTEX
  5
2BEE
  8
3
 10
34.43440306420001
 20
-23.4477277979
 30
0.0
  0
VERTEX
  5
2BEF
  8
3
 10
34.94127549540002
 20
-23.17458851740001
 30
0.0
  0
VERTEX
  5
2BF0
  8
3
 10
35.58664743910003
 20
-22.9882856847
 30
0.0
  0
VERTEX
  5
2BF1
  8
3
 10
36.31317476600003
 20
-22.90537312400001
 30
0.0
  0
VERTEX
  5
2BF2
  8
3
 10
37.05630233490001
 20
-22.9332179803
 30
0.0
  0
VERTEX
  5
2BF3
  8
3
 10
37.75
 20
-23.0693461157
 30
0.0
  0
SEQEND
  5
2D5C
  8
3
  0
POLYLINE
  5
12D7
  8
3
 66
     1
 10
0.0
 20
0.0
 30
0.0
  0
VERTEX
  5
2BF4
  8
3
 10
37.75
 20
-23.14738566710001
 30
0.0
  0
VERTEX
  5
2BF5
  8
3
 10
38.33262967960002
 20
-23.3797014996
 30
0.0
  0
VERTEX
  5
2BF6
  8
3
 10
38.75242216980001
 20
-23.6875627479
 30
0.0
  0
VERTEX
  5
2BF7
  8
3
 10
38.97207706560005
 20
-24.0436145891
 30
0.0
  0
VERTEX
  5
2BF8
  8
3
 10
38.97207706560005
 20
-24.41622025460001
 30
0.0
  0
VERTEX
  5
2BF9
  8
3
 10
38.75242216980001
 20
-24.7722720957
 30
0.0
  0
VERTEX
  5
2BFA
  8
3
 10
38.33262967960002
 20
-25.080133344
 30
0.0
  0
VERTEX
  5
2BFB
  8
3
 10
37.75
 20
-25.31244917660001
 30
0.0
  0
VERTEX
  5
2BFC
  8
3
 10
37.05630233490001
 20
-25.4485773121
 30
0.0
  0
VERTEX
  5
2BFD
  8
3
 10
36.31317476600003
 20
-25.4764221683
 30
0.0
  0
VERTEX
  5
2BFE
  8
3
 10
35.58664743910003
 20
-25.39350960760001
 30
0.0
  0
VERTEX
  5
2BFF
  8
3
 10
34.94127549540002
 20
-25.2072067749
 30
0.0
  0
VERTEX
  5
2C00
  8
3
 10
34.43440306420001
 20
-24.93406749440001
 30
0.0
  0
VERTEX
  5
2C01
  8
3
 10
34.11106798550003
 20
-24.5983613898
 30
0.0
  0
VERTEX
  5
2C02
  8
3
 10
34.0
 20
-24.22991742180001
 30
0.0
  0
VERTEX
  5
2C03
  8
3
 10
34.11106798550003
 20
-23.8614734538
 30
0.0
  0
VERTEX
  5
2C04
  8
3
 10
34.43440306420001
 20
-23.52576734930001
 30
0.0
  0
VERTEX
  5
2C05
  8
3
 10
34.94127549540002
 20
-23.25262806870001
 30
0.0
  0
VERTEX
  5
2C06
  8
3
 10
35.58664743910003
 20
-23.06632523600001
 30
0.0
  0
VERTEX
  5
2C07
  8
3
 10
36.31317476600003
 20
-22.9834126754
 30
0.0
  0
VERTEX
  5
2C08
  8
3
 10
37.05630233490001
 20
-23.01125753160001
 30
0.0
  0
VERTEX
  5
2C09
  8
3
 10
37.75
 20
-23.14738566710001
 30
0.0
  0
SEQEND
  5
2D5B
  8
3
  0
POLYLINE
  5
12D8
  8
3
 66
     1
 10
0.0
 20
0.0
 30
0.0
  0
VERTEX
  5
2C0A
  8
3
 10
37.52750000000003
 20
-23.60992321410001
 30
0.0
  0
VERTEX
  5
2C0B
  8
3
 10
38.04968908310002
 20
-23.8249516117
 30
0.0
  0
VERTEX
  5
2C0C
  8
3
 10
38.40394530809999
 20
-24.11310643680001
 30
0.0
  0
VERTEX
  5
2C0D
  8
3
 10
38.5518795163
 20
-24.44316164270001
 30
0.0
  0
VERTEX
  5
2C0E
  8
3
 10
38.47746074060001
 20
-24.77935062660001
 30
0.0
  0
VERTEX
  5
2C0F
  8
3
 10
38.18875341030002
 20
-25.08524209550001
 30
0.0
  0
VERTEX
  5
2C10
  8
3
 10
37.71704344420004
 20
-25.32768796250001
 30
0.0
  0
VERTEX
  5
2C11
  8
3
 10
37.11344793659998
 20
-25.4804154559
 30
0.0
  0
VERTEX
  5
2C12
  8
3
 10
36.44337582640003
 20
-25.52687418190001
 30
0.0
  0
VERTEX
  5
2C13
  8
3
 10
35.7794398241
 20
-25.46202961680001
 30
0.0
  0
VERTEX
  5
2C14
  8
3
 10
35.19358769740006
 20
-25.29290867530001
 30
0.0
  0
VERTEX
  5
2C15
  8
3
 10
34.74930561480005
 20
-25.03783823560001
 30
0.0
  0
VERTEX
  5
2C16
  8
3
 10
34.49473843370004
 20
-24.72445913770001
 30
0.0
  0
VERTEX
  5
2C17
  8
3
 10
34.45747245810003
 20
-24.38673086940001
 30
0.0
  0
VERTEX
  5
2C18
  8
3
 10
34.64154603480006
 20
-24.061251529
 30
0.0
  0
VERTEX
  5
2C19
  8
3
 10
35.02701193540003
 20
-23.7832918533
 30
0.0
  0
VERTEX
  5
2C1A
  8
3
 10
35.57209894870005
 20
-23.5829730863
 30
0.0
  0
VERTEX
  5
2C1B
  8
3
 10
36.21773843870005
 20
-23.48200287450001
 30
0.0
  0
VERTEX
  5
2C1C
  8
3
 10
36.89396534860003
 20
-23.4913229071
 30
0.0
  0
VERTEX
  5
2C1D
  8
3
 10
37.52750000000003
 20
-23.60992321410001
 30
0.0
  0
SEQEND
  5
2D5A
  8
3
  0
POLYLINE
  5
12D9
  8
3
 66
     1
 10
0.0
 20
0.0
 30
0.0
  0
VERTEX
  5
2C1E
  8
3
 10
37.75
 20
-23.6870794564
 30
0.0
  0
VERTEX
  5
2C1F
  8
3
 10
38.33262967960002
 20
-23.91939528890001
 30
0.0
  0
VERTEX
  5
2C20
  8
3
 10
38.75242216980001
 20
-24.22725653720001
 30
0.0
  0
VERTEX
  5
2C21
  8
3
 10
38.97207706560005
 20
-24.58330837840001
 30
0.0
  0
VERTEX
  5
2C22
  8
3
 10
38.97207706560005
 20
-24.95591404380001
 30
0.0
  0
VERTEX
  5
2C23
  8
3
 10
38.75242216980001
 20
-25.31196588500001
 30
0.0
  0
VERTEX
  5
2C24
  8
3
 10
38.33262967960002
 20
-25.61982713330001
 30
0.0
  0
VERTEX
  5
2C25
  8
3
 10
37.75
 20
-25.8521429658
 30
0.0
  0
VERTEX
  5
2C26
  8
3
 10
37.05630233490001
 20
-25.9882711013
 30
0.0
  0
VERTEX
  5
2C27
  8
3
 10
36.31317476600003
 20
-26.01611595760001
 30
0.0
  0
VERTEX
  5
2C28
  8
3
 10
35.58664743910003
 20
-25.93320339690001
 30
0.0
  0
VERTEX
  5
2C29
  8
3
 10
34.94127549540002
 20
-25.7469005642
 30
0.0
  0
VERTEX
  5
2C2A
  8
3
 10
34.43440306420001
 20
-25.4737612837
 30
0.0
  0
VERTEX
  5
2C2B
  8
3
 10
34.11106798550003
 20
-25.13805517910001
 30
0.0
  0
VERTEX
  5
2C2C
  8
3
 10
34.0
 20
-24.7696112111
 30
0.0
  0
VERTEX
  5
2C2D
  8
3
 10
34.11106798550003
 20
-24.40116724310001
 30
0.0
  0
VERTEX
  5
2C2E
  8
3
 10
34.43440306420001
 20
-24.06546113850001
 30
0.0
  0
VERTEX
  5
2C2F
  8
3
 10
34.94127549540002
 20
-23.79232185800001
 30
0.0
  0
VERTEX
  5
2C30
  8
3
 10
35.58664743910003
 20
-23.6060190253
 30
0.0
  0
VERTEX
  5
2C31
  8
3
 10
36.31317476600003
 20
-23.5231064646
 30
0.0
  0
VERTEX
  5
2C32
  8
3
 10
37.05630233490001
 20
-23.55095132090001
 30
0.0
  0
VERTEX
  5
2C33
  8
3
 10
37.75
 20
-23.6870794564
 30
0.0
  0
SEQEND
  5
2D59
  8
3
  0
POLYLINE
  5
12DA
  8
3
 66
     1
 10
0.0
 20
0.0
 30
0.0
  0
VERTEX
  5
2C34
  8
3
 10
37.75
 20
-23.76511900770001
 30
0.0
  0
VERTEX
  5
2C35
  8
3
 10
38.33262967960002
 20
-23.9974348402
 30
0.0
  0
VERTEX
  5
2C36
  8
3
 10
38.75242216980001
 20
-24.3052960885
 30
0.0
  0
VERTEX
  5
2C37
  8
3
 10
38.97207706560005
 20
-24.6613479297
 30
0.0
  0
VERTEX
  5
2C38
  8
3
 10
38.97207706560005
 20
-25.0339535952
 30
0.0
  0
VERTEX
  5
2C39
  8
3
 10
38.75242216980001
 20
-25.3900054363
 30
0.0
  0
VERTEX
  5
2C3A
  8
3
 10
38.33262967960002
 20
-25.6978666847
 30
0.0
  0
VERTEX
  5
2C3B
  8
3
 10
37.75
 20
-25.93018251720001
 30
0.0
  0
VERTEX
  5
2C3C
  8
3
 10
37.05630233490001
 20
-26.06631065270001
 30
0.0
  0
VERTEX
  5
2C3D
  8
3
 10
36.31317476600003
 20
-26.0941555089
 30
0.0
  0
VERTEX
  5
2C3E
  8
3
 10
35.58664743910003
 20
-26.01124294820001
 30
0.0
  0
VERTEX
  5
2C3F
  8
3
 10
34.94127549540002
 20
-25.82494011550001
 30
0.0
  0
VERTEX
  5
2C40
  8
3
 10
34.43440306420001
 20
-25.55180083500001
 30
0.0
  0
VERTEX
  5
2C41
  8
3
 10
34.11106798550003
 20
-25.2160947305
 30
0.0
  0
VERTEX
  5
2C42
  8
3
 10
34.0
 20
-24.84765076240001
 30
0.0
  0
VERTEX
  5
2C43
  8
3
 10
34.11106798550003
 20
-24.4792067944
 30
0.0
  0
VERTEX
  5
2C44
  8
3
 10
34.43440306420001
 20
-24.14350068990001
 30
0.0
  0
VERTEX
  5
2C45
  8
3
 10
34.94127549540002
 20
-23.8703614094
 30
0.0
  0
VERTEX
  5
2C46
  8
3
 10
35.58664743910003
 20
-23.68405857660001
 30
0.0
  0
VERTEX
  5
2C47
  8
3
 10
36.31317476600003
 20
-23.601146016
 30
0.0
  0
VERTEX
  5
2C48
  8
3
 10
37.05630233490001
 20
-23.62899087220001
 30
0.0
  0
VERTEX
  5
2C49
  8
3
 10
37.75
 20
-23.76511900770001
 30
0.0
  0
SEQEND
  5
2D58
  8
3
  0
POLYLINE
  5
12DB
  8
3
 66
     1
 10
0.0
 20
0.0
 30
0.0
  0
VERTEX
  5
2C4A
  8
3
 10
37.52750000000003
 20
-24.2276565547
 30
0.0
  0
VERTEX
  5
2C4B
  8
3
 10
38.04968908310002
 20
-24.4426849524
 30
0.0
  0
VERTEX
  5
2C4C
  8
3
 10
38.40394530809999
 20
-24.73083977740001
 30
0.0
  0
VERTEX
  5
2C4D
  8
3
 10
38.5518795163
 20
-25.0608949833
 30
0.0
  0
VERTEX
  5
2C4E
  8
3
 10
38.47746074060001
 20
-25.3970839672
 30
0.0
  0
VERTEX
  5
2C4F
  8
3
 10
38.18875341030002
 20
-25.70297543620001
 30
0.0
  0
VERTEX
  5
2C50
  8
3
 10
37.71704344420004
 20
-25.94542130310001
 30
0.0
  0
VERTEX
  5
2C51
  8
3
 10
37.11344793659998
 20
-26.09814879650001
 30
0.0
  0
VERTEX
  5
2C52
  8
3
 10
36.44337582640003
 20
-26.14460752250001
 30
0.0
  0
VERTEX
  5
2C53
  8
3
 10
35.7794398241
 20
-26.07976295740001
 30
0.0
  0
VERTEX
  5
2C54
  8
3
 10
35.19358769740006
 20
-25.91064201590001
 30
0.0
  0
VERTEX
  5
2C55
  8
3
 10
34.74930561480005
 20
-25.6555715762
 30
0.0
  0
VERTEX
  5
2C56
  8
3
 10
34.49473843370004
 20
-25.34219247830001
 30
0.0
  0
VERTEX
  5
2C57
  8
3
 10
34.45747245810003
 20
-25.00446421000001
 30
0.0
  0
VERTEX
  5
2C58
  8
3
 10
34.64154603480006
 20
-24.6789848696
 30
0.0
  0
VERTEX
  5
2C59
  8
3
 10
35.02701193540003
 20
-24.40102519390001
 30
0.0
  0
VERTEX
  5
2C5A
  8
3
 10
35.57209894870005
 20
-24.20070642690001
 30
0.0
  0
VERTEX
  5
2C5B
  8
3
 10
36.21773843870005
 20
-24.09973621510001
 30
0.0
  0
VERTEX
  5
2C5C
  8
3
 10
36.89396534860003
 20
-24.10905624770001
 30
0.0
  0
VERTEX
  5
2C5D
  8
3
 10
37.52750000000003
 20
-24.2276565547
 30
0.0
  0
SEQEND
  5
2D57
  8
3
  0
POLYLINE
  5
12DC
  8
3
 66
     1
 10
0.0
 20
0.0
 30
0.0
  0
VERTEX
  5
2C5E
  8
3
 10
37.75
 20
-24.30481279700001
 30
0.0
  0
VERTEX
  5
2C5F
  8
3
 10
38.33262967960002
 20
-24.5371286295
 30
0.0
  0
VERTEX
  5
2C60
  8
3
 10
38.75242216980001
 20
-24.8449898778
 30
0.0
  0
VERTEX
  5
2C61
  8
3
 10
38.97207706560005
 20
-25.201041719
 30
0.0
  0
VERTEX
  5
2C62
  8
3
 10
38.97207706560005
 20
-25.5736473844
 30
0.0
  0
VERTEX
  5
2C63
  8
3
 10
38.75242216980001
 20
-25.9296992256
 30
0.0
  0
VERTEX
  5
2C64
  8
3
 10
38.33262967960002
 20
-26.2375604739
 30
0.0
  0
VERTEX
  5
2C65
  8
3
 10
37.75
 20
-26.46987630640001
 30
0.0
  0
VERTEX
  5
2C66
  8
3
 10
37.05630233490001
 20
-26.60600444190001
 30
0.0
  0
VERTEX
  5
2C67
  8
3
 10
36.31317476600003
 20
-26.6338492982
 30
0.0
  0
VERTEX
  5
2C68
  8
3
 10
35.58664743910003
 20
-26.55093673750001
 30
0.0
  0
VERTEX
  5
2C69
  8
3
 10
34.94127549540002
 20
-26.3646339048
 30
0.0
  0
VERTEX
  5
2C6A
  8
3
 10
34.43440306420001
 20
-26.09149462430001
 30
0.0
  0
VERTEX
  5
2C6B
  8
3
 10
34.11106798550003
 20
-25.7557885197
 30
0.0
  0
VERTEX
  5
2C6C
  8
3
 10
34.0
 20
-25.38734455170001
 30
0.0
  0
VERTEX
  5
2C6D
  8
3
 10
34.11106798550003
 20
-25.0189005837
 30
0.0
  0
VERTEX
  5
2C6E
  8
3
 10
34.43440306420001
 20
-24.68319447910001
 30
0.0
  0
VERTEX
  5
2C6F
  8
3
 10
34.94127549540002
 20
-24.41005519860001
 30
0.0
  0
VERTEX
  5
2C70
  8
3
 10
35.58664743910003
 20
-24.22375236590001
 30
0.0
  0
VERTEX
  5
2C71
  8
3
 10
36.31317476600003
 20
-24.1408398052
 30
0.0
  0
VERTEX
  5
2C72
  8
3
 10
37.05630233490001
 20
-24.16868466150001
 30
0.0
  0
VERTEX
  5
2C73
  8
3
 10
37.75
 20
-24.30481279700001
 30
0.0
  0
SEQEND
  5
2D56
  8
3
  0
POLYLINE
  5
12DD
  8
3
 66
     1
 10
0.0
 20
0.0
 30
0.0
  0
VERTEX
  5
2C74
  8
3
 10
37.75
 20
-24.38285234830001
 30
0.0
  0
VERTEX
  5
2C75
  8
3
 10
38.33262967960002
 20
-24.61516818080001
 30
0.0
  0
VERTEX
  5
2C76
  8
3
 10
38.75242216980001
 20
-24.92302942910001
 30
0.0
  0
VERTEX
  5
2C77
  8
3
 10
38.97207706560005
 20
-25.27908127030001
 30
0.0
  0
VERTEX
  5
2C78
  8
3
 10
38.97207706560005
 20
-25.6516869358
 30
0.0
  0
VERTEX
  5
2C79
  8
3
 10
38.75242216980001
 20
-26.00773877690001
 30
0.0
  0
VERTEX
  5
2C7A
  8
3
 10
38.33262967960002
 20
-26.3156000253
 30
0.0
  0
VERTEX
  5
2C7B
  8
3
 10
37.75
 20
-26.54791585780001
 30
0.0
  0
VERTEX
  5
2C7C
  8
3
 10
37.05630233490001
 20
-26.68404399330001
 30
0.0
  0
VERTEX
  5
2C7D
  8
3
 10
36.31317476600003
 20
-26.7118888495
 30
0.0
  0
VERTEX
  5
2C7E
  8
3
 10
35.58664743910003
 20
-26.6289762888
 30
0.0
  0
VERTEX
  5
2C7F
  8
3
 10
34.94127549540002
 20
-26.44267345610001
 30
0.0
  0
VERTEX
  5
2C80
  8
3
 10
34.43440306420001
 20
-26.16953417560001
 30
0.0
  0
VERTEX
  5
2C81
  8
3
 10
34.11106798550003
 20
-25.8338280711
 30
0.0
  0
VERTEX
  5
2C82
  8
3
 10
34.0
 20
-25.46538410300001
 30
0.0
  0
VERTEX
  5
2C83
  8
3
 10
34.11106798550003
 20
-25.09694013500001
 30
0.0
  0
VERTEX
  5
2C84
  8
3
 10
34.43440306420001
 20
-24.76123403050001
 30
0.0
  0
VERTEX
  5
2C85
  8
3
 10
34.94127549540002
 20
-24.48809475
 30
0.0
  0
VERTEX
  5
2C86
  8
3
 10
35.58664743910003
 20
-24.30179191720001
 30
0.0
  0
VERTEX
  5
2C87
  8
3
 10
36.31317476600003
 20
-24.21887935660001
 30
0.0
  0
VERTEX
  5
2C88
  8
3
 10
37.05630233490001
 20
-24.2467242128
 30
0.0
  0
VERTEX
  5
2C89
  8
3
 10
37.75
 20
-24.38285234830001
 30
0.0
  0
SEQEND
  5
2D55
  8
3
  0
POLYLINE
  5
12DE
  8
3
 66
     1
 10
0.0
 20
0.0
 30
0.0
  0
VERTEX
  5
2C8A
  8
3
 10
37.52750000000003
 20
-24.8453898953
 30
0.0
  0
VERTEX
  5
2C8B
  8
3
 10
38.04968908310002
 20
-25.06041829300001
 30
0.0
  0
VERTEX
  5
2C8C
  8
3
 10
38.40394530809999
 20
-25.348573118
 30
0.0
  0
VERTEX
  5
2C8D
  8
3
 10
38.5518795163
 20
-25.6786283239
 30
0.0
  0
VERTEX
  5
2C8E
  8
3
 10
38.47746074060001
 20
-26.0148173078
 30
0.0
  0
VERTEX
  5
2C8F
  8
3
 10
38.18875341030002
 20
-26.3207087768
 30
0.0
  0
VERTEX
  5
2C90
  8
3
 10
37.71704344420004
 20
-26.5631546437
 30
0.0
  0
VERTEX
  5
2C91
  8
3
 10
37.11344793659998
 20
-26.71588213710001
 30
0.0
  0
VERTEX
  5
2C92
  8
3
 10
36.44337582640003
 20
-26.76234086310001
 30
0.0
  0
VERTEX
  5
2C93
  8
3
 10
35.7794398241
 20
-26.697496298
 30
0.0
  0
VERTEX
  5
2C94
  8
3
 10
35.19358769740006
 20
-26.52837535650001
 30
0.0
  0
VERTEX
  5
2C95
  8
3
 10
34.74930561480005
 20
-26.2733049168
 30
0.0
  0
VERTEX
  5
2C96
  8
3
 10
34.49473843370004
 20
-25.9599258189
 30
0.0
  0
VERTEX
  5
2C97
  8
3
 10
34.45747245810003
 20
-25.62219755060001
 30
0.0
  0
VERTEX
  5
2C98
  8
3
 10
34.64154603480006
 20
-25.29671821020001
 30
0.0
  0
VERTEX
  5
2C99
  8
3
 10
35.02701193540003
 20
-25.01875853450001
 30
0.0
  0
VERTEX
  5
2C9A
  8
3
 10
35.57209894870005
 20
-24.81843976750001
 30
0.0
  0
VERTEX
  5
2C9B
  8
3
 10
36.21773843870005
 20
-24.71746955570001
 30
0.0
  0
VERTEX
  5
2C9C
  8
3
 10
36.89396534860003
 20
-24.72678958830001
 30
0.0
  0
VERTEX
  5
2C9D
  8
3
 10
37.52750000000003
 20
-24.8453898953
 30
0.0
  0
SEQEND
  5
2D54
  8
3
  0
POLYLINE
  5
12DF
  8
3
 66
     1
 10
0.0
 20
0.0
 30
0.0
  0
VERTEX
  5
2C9E
  8
3
 10
37.75
 20
-24.92254613760001
 30
0.0
  0
VERTEX
  5
2C9F
  8
3
 10
38.33262967960002
 20
-25.1548619701
 30
0.0
  0
VERTEX
  5
2CA0
  8
3
 10
38.75242216980001
 20
-25.4627232184
 30
0.0
  0
VERTEX
  5
2CA1
  8
3
 10
38.97207706560005
 20
-25.8187750596
 30
0.0
  0
VERTEX
  5
2CA2
  8
3
 10
38.97207706560005
 20
-26.191380725
 30
0.0
  0
VERTEX
  5
2CA3
  8
3
 10
38.75242216980001
 20
-26.5474325662
 30
0.0
  0
VERTEX
  5
2CA4
  8
3
 10
38.33262967960002
 20
-26.8552938145
 30
0.0
  0
VERTEX
  5
2CA5
  8
3
 10
37.75
 20
-27.08760964700001
 30
0.0
  0
VERTEX
  5
2CA6
  8
3
 10
37.05630233490001
 20
-27.22373778250001
 30
0.0
  0
VERTEX
  5
2CA7
  8
3
 10
36.31317476600003
 20
-27.2515826388
 30
0.0
  0
VERTEX
  5
2CA8
  8
3
 10
35.58664743910003
 20
-27.16867007810001
 30
0.0
  0
VERTEX
  5
2CA9
  8
3
 10
34.94127549540002
 20
-26.9823672454
 30
0.0
  0
VERTEX
  5
2CAA
  8
3
 10
34.43440306420001
 20
-26.70922796490001
 30
0.0
  0
VERTEX
  5
2CAB
  8
3
 10
34.11106798550003
 20
-26.3735218603
 30
0.0
  0
VERTEX
  5
2CAC
  8
3
 10
34.0
 20
-26.00507789230001
 30
0.0
  0
VERTEX
  5
2CAD
  8
3
 10
34.11106798550003
 20
-25.6366339243
 30
0.0
  0
VERTEX
  5
2CAE
  8
3
 10
34.43440306420001
 20
-25.30092781970001
 30
0.0
  0
VERTEX
  5
2CAF
  8
3
 10
34.94127549540002
 20
-25.0277885392
 30
0.0
  0
VERTEX
  5
2CB0
  8
3
 10
35.58664743910003
 20
-24.84148570650001
 30
0.0
  0
VERTEX
  5
2CB1
  8
3
 10
36.31317476600003
 20
-24.7585731458
 30
0.0
  0
VERTEX
  5
2CB2
  8
3
 10
37.05630233490001
 20
-24.78641800210001
 30
0.0
  0
VERTEX
  5
2CB3
  8
3
 10
37.75
 20
-24.92254613760001
 30
0.0
  0
SEQEND
  5
2D53
  8
3
  0
POLYLINE
  5
12E0
  8
3
 66
     1
 10
0.0
 20
0.0
 30
0.0
  0
VERTEX
  5
2CB4
  8
3
 10
37.75
 20
-25.0005856889
 30
0.0
  0
VERTEX
  5
2CB5
  8
3
 10
38.33262967960002
 20
-25.23290152140001
 30
0.0
  0
VERTEX
  5
2CB6
  8
3
 10
38.75242216980001
 20
-25.54076276970001
 30
0.0
  0
VERTEX
  5
2CB7
  8
3
 10
38.97207706560005
 20
-25.89681461090001
 30
0.0
  0
VERTEX
  5
2CB8
  8
3
 10
38.97207706560005
 20
-26.26942027640001
 30
0.0
  0
VERTEX
  5
2CB9
  8
3
 10
38.75242216980001
 20
-26.62547211750001
 30
0.0
  0
VERTEX
  5
2CBA
  8
3
 10
38.33262967960002
 20
-26.93333336590001
 30
0.0
  0
VERTEX
  5
2CBB
  8
3
 10
37.75
 20
-27.1656491984
 30
0.0
  0
VERTEX
  5
2CBC
  8
3
 10
37.05630233490001
 20
-27.30177733390001
 30
0.0
  0
VERTEX
  5
2CBD
  8
3
 10
36.31317476600003
 20
-27.32962219010001
 30
0.0
  0
VERTEX
  5
2CBE
  8
3
 10
35.58664743910003
 20
-27.2467096295
 30
0.0
  0
VERTEX
  5
2CBF
  8
3
 10
34.94127549540002
 20
-27.06040679670001
 30
0.0
  0
VERTEX
  5
2CC0
  8
3
 10
34.43440306420001
 20
-26.7872675162
 30
0.0
  0
VERTEX
  5
2CC1
  8
3
 10
34.11106798550003
 20
-26.45156141170001
 30
0.0
  0
VERTEX
  5
2CC2
  8
3
 10
34.0
 20
-26.0831174436
 30
0.0
  0
VERTEX
  5
2CC3
  8
3
 10
34.11106798550003
 20
-25.71467347560001
 30
0.0
  0
VERTEX
  5
2CC4
  8
3
 10
34.43440306420001
 20
-25.3789673711
 30
0.0
  0
VERTEX
  5
2CC5
  8
3
 10
34.94127549540002
 20
-25.1058280906
 30
0.0
  0
VERTEX
  5
2CC6
  8
3
 10
35.58664743910003
 20
-24.9195252578
 30
0.0
  0
VERTEX
  5
2CC7
  8
3
 10
36.31317476600003
 20
-24.83661269720001
 30
0.0
  0
VERTEX
  5
2CC8
  8
3
 10
37.05630233490001
 20
-24.8644575534
 30
0.0
  0
VERTEX
  5
2CC9
  8
3
 10
37.75
 20
-25.0005856889
 30
0.0
  0
SEQEND
  5
2D52
  8
3
  0
POLYLINE
  5
12E1
  8
3
 66
     1
 10
0.0
 20
0.0
 30
0.0
  0
VERTEX
  5
2CCA
  8
3
 10
37.52750000000003
 20
-25.4631232359
 30
0.0
  0
VERTEX
  5
2CCB
  8
3
 10
38.04968908310002
 20
-25.67815163360001
 30
0.0
  0
VERTEX
  5
2CCC
  8
3
 10
38.40394530809999
 20
-25.9663064586
 30
0.0
  0
VERTEX
  5
2CCD
  8
3
 10
38.5518795163
 20
-26.29636166450001
 30
0.0
  0
VERTEX
  5
2CCE
  8
3
 10
38.47746074060001
 20
-26.6325506484
 30
0.0
  0
VERTEX
  5
2CCF
  8
3
 10
38.18875341030002
 20
-26.9384421174
 30
0.0
  0
VERTEX
  5
2CD0
  8
3
 10
37.71704344420004
 20
-27.1808879843
 30
0.0
  0
VERTEX
  5
2CD1
  8
3
 10
37.11344793659998
 20
-27.33361547770001
 30
0.0
  0
VERTEX
  5
2CD2
  8
3
 10
36.44337582640003
 20
-27.3800742037
 30
0.0
  0
VERTEX
  5
2CD3
  8
3
 10
35.7794398241
 20
-27.3152296386
 30
0.0
  0
VERTEX
  5
2CD4
  8
3
 10
35.19358769740006
 20
-27.1461086971
 30
0.0
  0
VERTEX
  5
2CD5
  8
3
 10
34.74930561480005
 20
-26.89103825740001
 30
0.0
  0
VERTEX
  5
2CD6
  8
3
 10
34.49473843370004
 20
-26.5776591595
 30
0.0
  0
VERTEX
  5
2CD7
  8
3
 10
34.45747245810003
 20
-26.2399308912
 30
0.0
  0
VERTEX
  5
2CD8
  8
3
 10
34.64154603480006
 20
-25.91445155080001
 30
0.0
  0
VERTEX
  5
2CD9
  8
3
 10
35.02701193540003
 20
-25.63649187510001
 30
0.0
  0
VERTEX
  5
2CDA
  8
3
 10
35.57209894870005
 20
-25.43617310810001
 30
0.0
  0
VERTEX
  5
2CDB
  8
3
 10
36.21773843870005
 20
-25.3352028963
 30
0.0
  0
VERTEX
  5
2CDC
  8
3
 10
36.89396534860003
 20
-25.34452292900001
 30
0.0
  0
VERTEX
  5
2CDD
  8
3
 10
37.52750000000003
 20
-25.4631232359
 30
0.0
  0
SEQEND
  5
2D51
  8
3
  0
POLYLINE
  5
12E2
  8
3
 66
     1
 10
0.0
 20
0.0
 30
0.0
  0
VERTEX
  5
2CDE
  8
3
 10
37.75
 20
-25.54027947820001
 30
0.0
  0
VERTEX
  5
2CDF
  8
3
 10
38.33262967960002
 20
-25.77259531070001
 30
0.0
  0
VERTEX
  5
2CE0
  8
3
 10
38.75242216980001
 20
-26.08045655900001
 30
0.0
  0
VERTEX
  5
2CE1
  8
3
 10
38.97207706560005
 20
-26.43650840020001
 30
0.0
  0
VERTEX
  5
2CE2
  8
3
 10
38.97207706560005
 20
-26.8091140656
 30
0.0
  0
VERTEX
  5
2CE3
  8
3
 10
38.75242216980001
 20
-27.16516590680001
 30
0.0
  0
VERTEX
  5
2CE4
  8
3
 10
38.33262967960002
 20
-27.47302715510001
 30
0.0
  0
VERTEX
  5
2CE5
  8
3
 10
37.75
 20
-27.70534298760001
 30
0.0
  0
VERTEX
  5
2CE6
  8
3
 10
37.05630233490001
 20
-27.84147112310001
 30
0.0
  0
VERTEX
  5
2CE7
  8
3
 10
36.31317476600003
 20
-27.8693159794
 30
0.0
  0
VERTEX
  5
2CE8
  8
3
 10
35.58664743910003
 20
-27.7864034187
 30
0.0
  0
VERTEX
  5
2CE9
  8
3
 10
34.94127549540002
 20
-27.60010058600001
 30
0.0
  0
VERTEX
  5
2CEA
  8
3
 10
34.43440306420001
 20
-27.32696130550001
 30
0.0
  0
VERTEX
  5
2CEB
  8
3
 10
34.11106798550003
 20
-26.9912552009
 30
0.0
  0
VERTEX
  5
2CEC
  8
3
 10
34.0
 20
-26.62281123290001
 30
0.0
  0
VERTEX
  5
2CED
  8
3
 10
34.11106798550003
 20
-26.25436726490001
 30
0.0
  0
VERTEX
  5
2CEE
  8
3
 10
34.43440306420001
 20
-25.9186611603
 30
0.0
  0
VERTEX
  5
2CEF
  8
3
 10
34.94127549540002
 20
-25.6455218798
 30
0.0
  0
VERTEX
  5
2CF0
  8
3
 10
35.58664743910003
 20
-25.45921904710001
 30
0.0
  0
VERTEX
  5
2CF1
  8
3
 10
36.31317476600003
 20
-25.37630648640001
 30
0.0
  0
VERTEX
  5
2CF2
  8
3
 10
37.05630233490001
 20
-25.4041513427
 30
0.0
  0
VERTEX
  5
2CF3
  8
3
 10
37.75
 20
-25.54027947820001
 30
0.0
  0
SEQEND
  5
2D50
  8
3
  0
POLYLINE
  5
12E3
  8
3
 66
     1
 10
0.0
 20
0.0
 30
0.0
  0
VERTEX
  5
2CF4
  8
3
 10
37.75
 20
-25.6183190295
 30
0.0
  0
VERTEX
  5
2CF5
  8
3
 10
38.33262967960002
 20
-25.85063486200001
 30
0.0
  0
VERTEX
  5
2CF6
  8
3
 10
38.75242216980001
 20
-26.15849611040001
 30
0.0
  0
VERTEX
  5
2CF7
  8
3
 10
38.97207706560005
 20
-26.51454795150001
 30
0.0
  0
VERTEX
  5
2CF8
  8
3
 10
38.97207706560005
 20
-26.88715361700001
 30
0.0
  0
VERTEX
  5
2CF9
  8
3
 10
38.75242216980001
 20
-27.24320545810001
 30
0.0
  0
VERTEX
  5
2CFA
  8
3
 10
38.33262967960002
 20
-27.55106670650001
 30
0.0
  0
VERTEX
  5
2CFB
  8
3
 10
37.75
 20
-27.783382539
 30
0.0
  0
VERTEX
  5
2CFC
  8
3
 10
37.05630233490001
 20
-27.9195106745
 30
0.0
  0
VERTEX
  5
2CFD
  8
3
 10
36.31317476600003
 20
-27.94735553070001
 30
0.0
  0
VERTEX
  5
2CFE
  8
3
 10
35.58664743910003
 20
-27.8644429701
 30
0.0
  0
VERTEX
  5
2CFF
  8
3
 10
34.94127549540002
 20
-27.67814013730001
 30
0.0
  0
VERTEX
  5
2D00
  8
3
 10
34.43440306420001
 20
-27.4050008568
 30
0.0
  0
VERTEX
  5
2D01
  8
3
 10
34.11106798550003
 20
-27.06929475230001
 30
0.0
  0
VERTEX
  5
2D02
  8
3
 10
34.0
 20
-26.7008507843
 30
0.0
  0
VERTEX
  5
2D03
  8
3
 10
34.11106798550003
 20
-26.33240681620001
 30
0.0
  0
VERTEX
  5
2D04
  8
3
 10
34.43440306420001
 20
-25.9967007117
 30
0.0
  0
VERTEX
  5
2D05
  8
3
 10
34.94127549540002
 20
-25.72356143120001
 30
0.0
  0
VERTEX
  5
2D06
  8
3
 10
35.58664743910003
 20
-25.5372585984
 30
0.0
  0
VERTEX
  5
2D07
  8
3
 10
36.31317476600003
 20
-25.45434603780001
 30
0.0
  0
VERTEX
  5
2D08
  8
3
 10
37.05630233490001
 20
-25.48219089400001
 30
0.0
  0
VERTEX
  5
2D09
  8
3
 10
37.75
 20
-25.6183190295
 30
0.0
  0
SEQEND
  5
2D4F
  8
3
  0
POLYLINE
  5
12E4
  8
3
 66
     1
 10
0.0
 20
0.0
 30
0.0
  0
VERTEX
  5
2D0A
  8
3
 10
37.52750000000003
 20
-26.08085657650001
 30
0.0
  0
VERTEX
  5
2D0B
  8
3
 10
38.04968908310002
 20
-26.29588497420001
 30
0.0
  0
VERTEX
  5
2D0C
  8
3
 10
38.40394530809999
 20
-26.5840397992
 30
0.0
  0
VERTEX
  5
2D0D
  8
3
 10
38.5518795163
 20
-26.91409500510001
 30
0.0
  0
VERTEX
  5
2D0E
  8
3
 10
38.47746074060001
 20
-27.25028398900001
 30
0.0
  0
VERTEX
  5
2D0F
  8
3
 10
38.18875341030002
 20
-27.55617545800001
 30
0.0
  0
VERTEX
  5
2D10
  8
3
 10
37.71704344420004
 20
-27.79862132490001
 30
0.0
  0
VERTEX
  5
2D11
  8
3
 10
37.11344793659998
 20
-27.9513488183
 30
0.0
  0
VERTEX
  5
2D12
  8
3
 10
36.44337582640003
 20
-27.9978075443
 30
0.0
  0
VERTEX
  5
2D13
  8
3
 10
35.7794398241
 20
-27.9329629792
 30
0.0
  0
VERTEX
  5
2D14
  8
3
 10
35.19358769740006
 20
-27.7638420377
 30
0.0
  0
VERTEX
  5
2D15
  8
3
 10
34.74930561480005
 20
-27.50877159800001
 30
0.0
  0
VERTEX
  5
2D16
  8
3
 10
34.49473843370004
 20
-27.1953925001
 30
0.0
  0
VERTEX
  5
2D17
  8
3
 10
34.45747245810003
 20
-26.8576642318
 30
0.0
  0
VERTEX
  5
2D18
  8
3
 10
34.64154603480006
 20
-26.53218489140001
 30
0.0
  0
VERTEX
  5
2D19
  8
3
 10
35.02701193540003
 20
-26.25422521580001
 30
0.0
  0
VERTEX
  5
2D1A
  8
3
 10
35.57209894870005
 20
-26.0539064487
 30
0.0
  0
VERTEX
  5
2D1B
  8
3
 10
36.21773843870005
 20
-25.9529362369
 30
0.0
  0
VERTEX
  5
2D1C
  8
3
 10
36.89396534860003
 20
-25.9622562696
 30
0.0
  0
VERTEX
  5
2D1D
  8
3
 10
37.52750000000003
 20
-26.08085657650001
 30
0.0
  0
SEQEND
  5
2D4E
  8
3
  0
LINE
  5
12E5
  8
3
 10
36.5
 20
-25.57661692510001
 30
0.0
 11
37.75
 21
-25.21577300690001
 31
0.0
  0
POLYLINE
  5
12E6
  8
3
 66
     1
 10
0.0
 20
0.0
 30
0.0
  0
VERTEX
  5
2D1E
  8
3
 10
37.62805156340005
 20
-26.11572480480001
 30
0.0
  0
VERTEX
  5
2D1F
  8
3
 10
36.9690702158
 20
-25.98924518520001
 30
0.0
  0
VERTEX
  5
2D20
  8
3
 10
36.26417300720004
 20
-25.97077413650001
 30
0.0
  0
VERTEX
  5
2D21
  8
3
 10
35.58236018780002
 20
-26.0621197337
 30
0.0
  0
VERTEX
  5
2D22
  8
3
 10
34.99037234670004
 20
-26.2543404332
 30
0.0
  0
VERTEX
  5
2D23
  8
3
 10
34.54615737860001
 20
-26.5286203337
 30
0.0
  0
VERTEX
  5
2D24
  8
3
 10
34.29319813950002
 20
-26.8581110076
 30
0.0
  0
VERTEX
  5
2D25
  8
3
 10
34.25625604210006
 20
-27.21055961190001
 30
0.0
  0
VERTEX
  5
2D26
  8
3
 10
34.43894723649998
 20
-27.55146602160001
 30
0.0
  0
VERTEX
  5
2D27
  8
3
 10
34.82338863550001
 20
-27.8474599421
 30
0.0
  0
VERTEX
  5
2D28
  8
3
 10
35.37194843660006
 20
-28.06956742620001
 30
0.0
  0
VERTEX
  5
2D29
  8
3
 10
36.0309297842
 20
-28.19604704570001
 30
0.0
  0
VERTEX
  5
2D2A
  8
3
 10
36.73582699280001
 20
-28.21451809440001
 30
0.0
  0
VERTEX
  5
2D2B
  8
3
 10
37.41763981220004
 20
-28.1231724972
 30
0.0
  0
VERTEX
  5
2D2C
  8
3
 10
38.00962765330002
 20
-27.9309517977
 30
0.0
  0
VERTEX
  5
2D2D
  8
3
 10
38.45384262139999
 20
-27.6566718972
 30
0.0
  0
VERTEX
  5
2D2E
  8
3
 10
38.70680186050004
 20
-27.3271812233
 30
0.0
  0
VERTEX
  5
2D2F
  8
3
 10
38.74374395790005
 20
-26.97473261900001
 30
0.0
  0
VERTEX
  5
2D30
  8
3
 10
38.56105276350002
 20
-26.63382620930001
 30
0.0
  0
VERTEX
  5
2D31
  8
3
 10
38.17661136449999
 20
-26.3378322888
 30
0.0
  0
VERTEX
  5
2D32
  8
3
 10
37.62805156340005
 20
-26.11572480480001
 30
0.0
  0
SEQEND
  5
2D4D
  8
3
  0
LINE
  5
12E7
  8
3
 10
36.5
 20
-25.57661692510001
 30
0.0
 11
35.25
 21
-25.21577300690001
 31
0.0
  0
LINE
  5
12E8
  8
3
 10
36.5
 20
-25.57661692510001
 30
0.0
 11
36.5
 21
-27.9148855154
 31
0.0
  0
LINE
  5
12E9
  8
3
 10
36.5
 20
-27.9148855154
 30
0.0
 11
35.25
 21
-27.55404159710001
 31
0.0
  0
POLYLINE
  5
12EA
  8
3
 66
     1
 10
0.0
 20
0.0
 30
0.0
  0
VERTEX
  5
2D33
  8
3
 10
38.2796822048
 20
-27.70694767890001
 30
0.0
  0
VERTEX
  5
2D34
  8
3
 10
37.84962540940001
 20
-27.96804222040001
 30
0.0
  0
VERTEX
  5
2D35
  8
3
 10
37.27331575940002
 20
-28.14517033290001
 30
0.0
  0
VERTEX
  5
2D36
  8
3
 10
36.61320534750001
 20
-28.219137437
 30
0.0
  0
VERTEX
  5
2D37
  8
3
 10
35.94082737970001
 20
-28.18192804920001
 30
0.0
  0
VERTEX
  5
2D38
  8
3
 10
35.32904444180002
 20
-28.03757438400001
 30
0.0
  0
VERTEX
  5
2D39
  8
3
 10
34.84415270790004
 20
-27.801719401
 30
0.0
  0
VERTEX
  5
2D3A
  8
3
 10
34.53869772109999
 20
-27.49992164720001
 30
0.0
  0
VERTEX
  5
2D3B
  8
3
 10
34.44578026910006
 20
-27.16488559210001
 30
0.0
  0
VERTEX
  5
2D3C
  8
3
 10
34.5754693993
 20
-26.83291759090001
 30
0.0
  0
VERTEX
  5
2D3D
  8
3
 10
34.91371128240002
 20
-26.53999152760001
 30
0.0
  0
VERTEX
  5
2D3E
  8
3
 10
35.42385216180003
 20
-26.3178504863
 30
0.0
  0
VERTEX
  5
2D3F
  8
3
 10
36.05061035760002
 20
-26.1905668957
 30
0.0
  0
VERTEX
  5
2D40
  8
3
 10
36.72606689410003
 20
-26.17193390790001
 30
0.0
  0
VERTEX
  5
2D41
  8
3
 10
37.37702557490002
 20
-26.26397069630001
 30
0.0
  0
VERTEX
  5
2D42
  8
3
 10
37.93294492620004
 20
-26.4567036466
 30
0.0
  0
VERTEX
  5
2D43
  8
3
 10
38.33358246040001
 20
-26.72924715320001
 30
0.0
  0
VERTEX
  5
2D44
  8
3
 10
38.53552288390006
 20
-27.05206689820001
 30
0.0
  0
VERTEX
  5
2D45
  8
3
 10
38.51688281860004
 20
-27.39018035320001
 30
0.0
  0
VERTEX
  5
2D46
  8
3
 10
38.2796822048
 20
-27.70694767890001
 30
0.0
  0
SEQEND
  5
2D4C
  8
3
  0
LINE
  5
12EB
  8
3
 10
36.5
 20
-27.9148855154
 30
0.0
 11
37.75
 21
-27.55404159710001
 31
0.0
  0
LINE
  5
12EC
  8
3
 10
37.75
 20
-24.49408517040001
 30
0.0
 11
37.75
 21
-25.21577300690001
 31
0.0
  0
LINE
  5
12ED
  8
3
 10
37.75
 20
-25.21577300690001
 30
0.0
 11
37.75
 21
-27.55404159710001
 31
0.0
  0
LINE
  5
12EE
  8
3
 10
35.25
 20
-25.21577300690001
 30
0.0
 11
35.25
 21
-27.55404159710001
 31
0.0
  0
LINE
  5
12EF
  8
3
 10
35.25
 20
-25.21577300690001
 30
0.0
 11
35.25
 21
-24.49408517040001
 31
0.0
  0
LINE
  5
12F0
  8
3
 10
36.5
 20
-24.13324125220001
 30
0.0
 11
36.5
 21
-25.57661692510001
 31
0.0
  0
LINE
  5
12F1
  8
3
 10
36.5
 20
-26.47150984240001
 30
0.0
 11
35.25
 21
-26.8323537606
 31
0.0
  0
LINE
  5
12F2
  8
3
 10
36.5
 20
-24.13324125220001
 30
0.0
 11
35.25
 21
-24.49408517040001
 31
0.0
  0
LINE
  5
12F3
  8
3
 10
37.75
 20
-26.8323537606
 30
0.0
 11
36.5
 21
-26.47150984240001
 31
0.0
  0
LINE
  5
12F4
  8
3
 10
37.75
 20
-24.49408517040001
 30
0.0
 11
36.5
 21
-24.13324125220001
 31
0.0
  0
LINE
  5
12F5
  8
3
 10
58.08599000000004
 20
0.0
 30
0.0
 11
58.08599000000004
 21
-9.525000000000006
 31
0.0
  0
LINE
  5
12F6
  8
3
 10
58.08599000000004
 20
9.525000000000006
 30
0.0
 11
58.08599000000004
 21
0.0
 31
0.0
  0
LINE
  5
12F7
  8
3
 10
57.15000000000003
 20
0.0
 30
0.0
 11
57.15000000000003
 21
-8.589010000000002
 31
0.0
  0
LINE
  5
12F8
  8
3
 10
57.15000000000003
 20
8.589010000000002
 30
0.0
 11
57.15000000000003
 21
0.0
 31
0.0
  0
LINE
  5
1302
  8
3
 10
49.010160305
 20
-25.39869
 30
0.0
 11
49.010160305
 21
-41.28131
 31
0.0
  0
LINE
  5
1303
  8
3
 10
47.44720000000001
 20
-25.65650000000001
 30
0.0
 11
47.44720000000001
 21
-41.02350000000001
 31
0.0
  0
LINE
  5
1304
  8
3
 10
48.37203951060002
 20
-25.40869000000001
 30
0.0
 11
48.37203951060002
 21
-41.27131
 31
0.0
  0
LINE
  5
1305
  8
3
 10
49.010160305
 20
41.28130999999999
 30
0.0
 11
49.010160305
 21
25.39868999999999
 31
0.0
  0
LINE
  5
1306
  8
3
 10
48.37203951060002
 20
41.27131
 30
0.0
 11
48.37203951060002
 21
25.40869000000001
 31
0.0
  0
LINE
  5
1307
  8
3
 10
47.44720000000001
 20
41.02349999999998
 30
0.0
 11
47.44720000000001
 21
25.65649999999999
 31
0.0
  0
LINE
  5
1312
  8
3
 10
63.5
 20
2.5
 30
0.0
 11
37.2255309354
 21
2.5
 31
0.0
  0
LINE
  5
1313
  8
3
 10
35.82881186150001
 20
2.5
 30
0.0
 11
35.10000000000002
 21
2.5
 31
0.0
  0
LINE
  5
1314
  8
3
 10
35.10000000000002
 20
-2.5
 30
0.0
 11
35.75610640560001
 21
-2.5
 31
0.0
  0
LINE
  5
1315
  8
3
 10
37.22699339979999
 20
-2.5
 30
0.0
 11
63.5
 21
-2.5
 31
0.0
  0
LINE
  5
1316
  8
3
 10
35.10000000000002
 20
2.5
 30
0.0
 11
34.76406743360002
 21
1.940914322299989
 31
0.0
  0
POLYLINE
  5
1317
  8
3
 66
     1
 10
0.0
 20
0.0
 30
0.0
  0
VERTEX
  5
2D47
  8
3
 10
34.00007447970006
 20
0.6694165244999937
 30
0.0
  0
VERTEX
  5
2D48
  8
3
 10
33.59784845240006
 20
0.0
 30
0.0
  0
VERTEX
  5
2D49
  8
3
 10
33.94169622030006
 20
-0.5722587851000043
 30
0.0
  0
SEQEND
  5
2D4B
  8
3
  0
LINE
  5
1318
  8
3
 10
34.76200289760004
 20
-1.937478357400011
 30
0.0
 11
35.10000000000002
 21
-2.5
 31
0.0
  0
LINE
  5
131D
  8
3
 10
63.5
 20
9.525000000000006
 30
0.0
 11
49.0
 21
9.525000000000006
 31
0.0
  0
LINE
  5
131E
  8
3
 10
49.0
 20
-9.525000000000006
 30
0.0
 11
63.5
 21
-9.525000000000006
 31
0.0
  0
LINE
  5
131F
  8
3
 10
27.79976691920001
 20
-31.3997669214
 30
0.0
 11
26.99354713750006
 21
-30.5935471276
 31
0.0
  0
LINE
  5
1320
  8
3
 10
26.99354224429999
 20
30.59354219400001
 30
0.0
 11
27.79990897700003
 21
31.3999089095
 31
0.0
  0
LINE
  5
1323
  8
3
 10
49.0
 20
8.731249999999989
 30
0.0
 11
41.06000000000006
 21
8.731249999999989
 31
0.0
  0
LINE
  5
1324
  8
3
 10
41.06000000000006
 20
-8.731250000000003
 30
0.0
 11
49.0
 21
-8.731250000000003
 31
0.0
  0
LINE
  5
1325
  8
3
 10
41.06000000000006
 20
8.731249999999989
 30
0.0
 11
38.81803881530004
 21
5.0
 31
0.0
  0
LINE
  5
1326
  8
3
 10
38.81803881530004
 20
-5.0
 30
0.0
 11
41.06000000000006
 21
-8.731250000000003
 31
0.0
  0
LINE
  5
1329
  8
3
 10
27.0
 20
25.01999999999998
 30
0.0
 11
27.0
 21
30.60041393660001
 31
0.0
  0
LINE
  5
132A
  8
3
 10
27.0
 20
-30.6004416456
 30
0.0
 11
27.0
 21
-22.60000000000001
 31
0.0
  0
LINE
  5
132B
  8
3
 10
63.5
 20
41.27474999999998
 30
0.0
 11
47.0
 21
41.27474999999998
 31
0.0
  0
LINE
  5
132C
  8
3
 10
47.0
 20
25.40525
 30
0.0
 11
63.5
 21
25.40525
 31
0.0
  0
LINE
  5
132D
  8
3
 10
63.5
 20
-25.40525000000001
 30
0.0
 11
47.0
 21
-25.40525000000001
 31
0.0
  0
LINE
  5
132E
  8
3
 10
47.0
 20
-41.27475000000001
 30
0.0
 11
63.5
 21
-41.27475000000001
 31
0.0
  0
LINE
  5
1331
  8
SK3
 10
-8.25
 20
-6.688000000000002
 30
0.0
 11
-7.235747275099982
 21
-5.0
 31
0.0
  0
LINE
  5
1332
  8
SK3
 10
-7.235747275099982
 20
5.0
 30
0.0
 11
-8.25
 21
6.687999999999988
 31
0.0
  0
LINE
  5
1335
  8
3
 10
0.0
 20
-5.0
 30
0.0
 11
38.81803881530004
 21
-5.0
 31
0.0
  0
LINE
  5
1336
  8
3
 10
38.81803881530004
 20
5.0
 30
0.0
 11
0.0
 21
5.0
 31
0.0
  0
LINE
  5
133B
  8
3
 10
26.5
 20
20.01999999999998
 30
0.0
 11
26.5
 21
25.01999999999998
 31
0.0
  0
LINE
  5
133C
  8
3
 10
18.5
 20
20.01999999999998
 30
0.0
 11
22.5
 21
17.6165575238
 31
0.0
  0
LINE
  5
133D
  8
3
 10
22.5
 20
17.6165575238
 30
0.0
 11
26.5
 21
20.01999999999998
 31
0.0
  0
LINE
  5
133E
  8
3
 10
38.60000000000002
 20
-9.973765546300001
 30
0.0
 11
38.60000000000002
 21
-4.676537180500006
 31
0.0
  0
LINE
  5
133F
  8
3
 10
34.40000000000003
 20
-4.676537180500006
 30
0.0
 11
34.40000000000003
 21
-10.96508090510001
 31
0.0
  0
LINE
  5
1340
  8
3
 10
34.40000000000003
 20
10.96508090500001
 30
0.0
 11
34.40000000000003
 21
4.67653718039999
 31
0.0
  0
LINE
  5
1341
  8
3
 10
38.60000000000002
 20
4.67653718039999
 30
0.0
 11
38.60000000000002
 21
9.973765546300001
 31
0.0
  0
LINE
  5
1342
  8
3
 10
63.5
 20
-9.62435565300001
 30
0.0
 11
38.18008995759999
 21
-9.62435565300001
 31
0.0
  0
LINE
  5
1343
  8
3
 10
38.18008995759999
 20
-14.62435565300001
 30
0.0
 11
63.5
 21
-14.62435565300001
 31
0.0
  0
LINE
  5
1344
  8
3
 10
34.56517554980002
 20
-10.51445301210001
 30
0.0
 11
33.59784845240006
 21
-12.12435565300001
 31
0.0
  0
LINE
  5
1345
  8
3
 10
33.59784845240006
 20
-12.12435565300001
 30
0.0
 11
34.56517554980002
 21
-13.73425829390001
 31
0.0
  0
LINE
  5
1346
  8
3
 10
63.5
 20
14.62435565289999
 30
0.0
 11
38.1712266216
 21
14.62435565289999
 31
0.0
  0
LINE
  5
1347
  8
3
 10
38.1712266216
 20
9.624355652899993
 30
0.0
 11
63.5
 21
9.624355652899993
 31
0.0
  0
LINE
  5
1348
  8
3
 10
34.56117813830002
 20
13.72760548389999
 30
0.0
 11
33.59784845240006
 21
12.12435565289999
 31
0.0
  0
LINE
  5
1349
  8
3
 10
33.59784845240006
 20
12.12435565289999
 30
0.0
 11
34.56117813830002
 21
10.52110582199998
 31
0.0
  0
LINE
  5
134A
  8
3
 10
34.40000000000003
 20
26.32717227499998
 30
0.0
 11
34.40000000000003
 21
13.28363040089999
 31
0.0
  0
LINE
  5
134B
  8
3
 10
38.60000000000002
 20
14.2749457596
 30
0.0
 11
38.60000000000002
 21
26.32717227499998
 31
0.0
  0
LINE
  5
134C
  8
3
 10
38.60000000000002
 20
-26.32717227510001
 30
0.0
 11
38.60000000000002
 21
-14.2749457597
 31
0.0
  0
LINE
  5
134D
  8
3
 10
34.40000000000003
 20
-13.28363040100001
 30
0.0
 11
34.40000000000003
 21
-26.32717227510001
 31
0.0
  0
LINE
  5
134E
  8
3
 10
33.875
 20
-26.32717227510001
 30
0.0
 11
33.875
 21
-27.1908092262
 31
0.0
  0
LINE
  5
134F
  8
3
 10
39.125
 20
-27.19303884710001
 30
0.0
 11
39.125
 21
-26.32717227510001
 31
0.0
  0
LINE
  5
1350
  8
3
 10
39.125
 20
26.32717227499998
 30
0.0
 11
39.125
 21
27.193038847
 31
0.0
  0
LINE
  5
1351
  8
3
 10
33.875
 20
27.19080922609999
 30
0.0
 11
33.875
 21
26.32717227499998
 31
0.0
  0
LINE
  5
1352
  8
3
 10
34.60839563600001
 20
21.81906707249999
 30
0.0
 11
35.07113098340005
 21
21.4918637705
 31
0.0
  0
LINE
  5
1353
  8
3
 10
37.92886901660006
 20
21.4918637705
 30
0.0
 11
38.39160436400005
 21
21.81906707249999
 31
0.0
  0
LINE
  5
1354
  8
3
 10
35.08549679600003
 20
21.885734144
 30
0.0
 11
35.33727836629998
 21
21.79934776339999
 31
0.0
  0
LINE
  5
1355
  8
3
 10
37.66272163370002
 20
21.79934776339999
 30
0.0
 11
37.91450320400003
 21
21.885734144
 31
0.0
  0
LINE
  5
1356
  8
3
 10
37.81081035540001
 20
23.44297151249998
 30
0.0
 11
37.66272163370002
 21
23.49378082569999
 31
0.0
  0
LINE
  5
1357
  8
3
 10
35.33727836629998
 20
23.49378082569999
 30
0.0
 11
35.18918964459999
 21
23.44297151249998
 31
0.0
  0
LINE
  5
1358
  8
3
 10
34.0
 20
22.99445074049999
 30
0.0
 11
34.0
 21
22.91641118920001
 31
0.0
  0
LINE
  5
1359
  8
3
 10
39.0
 20
22.91641118920001
 30
0.0
 11
39.0
 21
22.99445074049999
 31
0.0
  0
LINE
  5
135A
  8
3
 10
37.91450320400003
 20
24.02512778569999
 30
0.0
 11
37.66272163370002
 21
24.1115141663
 31
0.0
  0
LINE
  5
135B
  8
3
 10
35.33727836629998
 20
24.1115141663
 30
0.0
 11
35.08549679600003
 21
24.02512778569999
 31
0.0
  0
LINE
  5
135C
  8
3
 10
35.08549679600003
 20
22.50346748459998
 30
0.0
 11
35.33727836629998
 21
22.417081104
 31
0.0
  0
LINE
  5
135D
  8
3
 10
37.66272163370002
 20
22.417081104
 30
0.0
 11
37.91450320400003
 21
22.50346748459998
 31
0.0
  0
LINE
  5
135E
  8
3
 10
34.0
 20
23.6121840811
 30
0.0
 11
34.0
 21
23.53414452979999
 31
0.0
  0
LINE
  5
135F
  8
3
 10
39.0
 20
23.53414452979999
 30
0.0
 11
39.0
 21
23.6121840811
 31
0.0
  0
LINE
  5
1360
  8
3
 10
37.91450320400003
 20
24.64286112630001
 30
0.0
 11
37.66272163370002
 21
24.72924750689998
 31
0.0
  0
LINE
  5
1361
  8
3
 10
35.33727836629998
 20
24.72924750689998
 30
0.0
 11
35.08549679600003
 21
24.64286112630001
 31
0.0
  0
LINE
  5
1362
  8
3
 10
35.08549679600003
 20
23.12120082519999
 30
0.0
 11
35.33727836629998
 21
23.03481444459999
 31
0.0
  0
LINE
  5
1363
  8
3
 10
37.66272163370002
 20
23.03481444459999
 30
0.0
 11
37.91450320400003
 21
23.12120082519999
 31
0.0
  0
LINE
  5
1364
  8
3
 10
34.0
 20
24.22991742169998
 30
0.0
 11
34.0
 21
24.1518778704
 31
0.0
  0
LINE
  5
1365
  8
3
 10
39.0
 20
24.1518778704
 30
0.0
 11
39.0
 21
24.22991742169998
 31
0.0
  0
LINE
  5
1366
  8
3
 10
37.91450320400003
 20
25.26059446689999
 30
0.0
 11
37.66272163370002
 21
25.34698084749999
 31
0.0
  0
LINE
  5
1367
  8
3
 10
35.33727836629998
 20
25.34698084749999
 30
0.0
 11
35.08549679600003
 21
25.26059446689999
 31
0.0
  0
LINE
  5
1368
  8
3
 10
35.08549679600003
 20
23.7389341658
 30
0.0
 11
35.33727836629998
 21
23.6525477852
 31
0.0
  0
LINE
  5
1369
  8
3
 10
37.66272163370002
 20
23.6525477852
 30
0.0
 11
37.91450320400003
 21
23.7389341658
 31
0.0
  0
LINE
  5
136A
  8
3
 10
34.0
 20
24.84765076229999
 30
0.0
 11
34.0
 21
24.76961121099998
 31
0.0
  0
LINE
  5
136B
  8
3
 10
39.0
 20
24.76961121099998
 30
0.0
 11
39.0
 21
24.84765076229999
 31
0.0
  0
LINE
  5
136C
  8
3
 10
37.91450320400003
 20
25.8783278075
 30
0.0
 11
37.66272163370002
 21
25.9647141881
 31
0.0
  0
LINE
  5
136D
  8
3
 10
35.33727836629998
 20
25.9647141881
 30
0.0
 11
35.08549679600003
 21
25.8783278075
 31
0.0
  0
LINE
  5
136E
  8
3
 10
35.08549679600003
 20
24.35666750639999
 30
0.0
 11
35.33727836629998
 21
24.27028112579998
 31
0.0
  0
LINE
  5
136F
  8
3
 10
37.66272163370002
 20
24.27028112579998
 30
0.0
 11
37.91450320400003
 21
24.35666750639999
 31
0.0
  0
LINE
  5
1370
  8
3
 10
34.0
 20
25.46538410299999
 30
0.0
 11
34.0
 21
25.38734455159999
 31
0.0
  0
LINE
  5
1371
  8
3
 10
39.0
 20
25.38734455159999
 30
0.0
 11
39.0
 21
25.46538410299999
 31
0.0
  0
LINE
  5
1372
  8
3
 10
37.91450320400003
 20
26.49606114809998
 30
0.0
 11
37.66272163370002
 21
26.58244752869999
 31
0.0
  0
LINE
  5
1373
  8
3
 10
35.33727836629998
 20
26.58244752869999
 30
0.0
 11
35.08549679600003
 21
26.49606114809998
 31
0.0
  0
LINE
  5
1374
  8
3
 10
35.08549679600003
 20
24.974400847
 30
0.0
 11
35.33727836629998
 21
24.88801446639999
 31
0.0
  0
LINE
  5
1375
  8
3
 10
37.66272163370002
 20
24.88801446639999
 30
0.0
 11
37.91450320400003
 21
24.974400847
 31
0.0
  0
LINE
  5
1376
  8
3
 10
34.0
 20
26.0831174436
 30
0.0
 11
34.0
 21
26.00507789220001
 31
0.0
  0
LINE
  5
1377
  8
3
 10
39.0
 20
26.00507789220001
 30
0.0
 11
39.0
 21
26.0831174436
 31
0.0
  0
LINE
  5
1378
  8
3
 10
37.91450320400003
 20
27.11379448869999
 30
0.0
 11
37.66272163370002
 21
27.2001808693
 31
0.0
  0
LINE
  5
1379
  8
3
 10
35.33727836629998
 20
27.2001808693
 30
0.0
 11
35.08549679600003
 21
27.11379448869999
 31
0.0
  0
LINE
  5
137A
  8
3
 10
35.08549679600003
 20
25.59213418759998
 30
0.0
 11
35.33727836629998
 21
25.50574780709999
 31
0.0
  0
LINE
  5
137B
  8
3
 10
37.66272163370002
 20
25.50574780709999
 30
0.0
 11
37.91450320400003
 21
25.59213418759998
 31
0.0
  0
LINE
  5
137C
  8
3
 10
34.0
 20
26.70085078419999
 30
0.0
 11
34.0
 21
26.62281123279999
 31
0.0
  0
LINE
  5
137D
  8
3
 10
39.0
 20
26.62281123279999
 30
0.0
 11
39.0
 21
26.70085078419999
 31
0.0
  0
LINE
  5
137E
  8
3
 10
37.91450320400003
 20
27.73152782930001
 30
0.0
 11
37.66272163370002
 21
27.81791420989998
 31
0.0
  0
LINE
  5
137F
  8
3
 10
35.33727836629998
 20
27.81791420989998
 30
0.0
 11
35.08549679600003
 21
27.73152782930001
 31
0.0
  0
LINE
  5
1380
  8
3
 10
35.2234939594
 20
26.1625206336
 30
0.0
 11
35.33727836629998
 21
26.12348114770001
 31
0.0
  0
LINE
  5
1381
  8
3
 10
37.66272163370002
 20
26.12348114770001
 30
0.0
 11
37.7765060406
 21
26.1625206336
 31
0.0
  0
LINE
  5
1382
  8
3
 10
38.39160436400005
 20
-21.81906707260001
 30
0.0
 11
37.92886901660006
 21
-21.49186377060001
 31
0.0
  0
LINE
  5
1383
  8
3
 10
35.07113098340005
 20
-21.49186377060001
 30
0.0
 11
34.60839563600001
 21
-21.81906707260001
 31
0.0
  0
LINE
  5
1384
  8
3
 10
37.91450320400003
 20
-21.8857341441
 30
0.0
 11
37.66272163370002
 21
-21.79934776350001
 31
0.0
  0
LINE
  5
1385
  8
3
 10
35.33727836629998
 20
-21.79934776350001
 30
0.0
 11
35.08549679600003
 21
-21.8857341441
 31
0.0
  0
LINE
  5
1386
  8
3
 10
35.18918964459999
 20
-23.44297151250001
 30
0.0
 11
35.33727836629998
 21
-23.4937808258
 31
0.0
  0
LINE
  5
1387
  8
3
 10
37.66272163370002
 20
-23.4937808258
 30
0.0
 11
37.81081035540001
 21
-23.44297151250001
 31
0.0
  0
LINE
  5
1388
  8
3
 10
39.0
 20
-22.9944507406
 30
0.0
 11
39.0
 21
-22.91641118930001
 31
0.0
  0
LINE
  5
1389
  8
3
 10
34.0
 20
-22.91641118930001
 30
0.0
 11
34.0
 21
-22.9944507406
 31
0.0
  0
LINE
  5
138A
  8
3
 10
35.08549679600003
 20
-24.02512778580001
 30
0.0
 11
35.33727836629998
 21
-24.1115141664
 31
0.0
  0
LINE
  5
138B
  8
3
 10
37.66272163370002
 20
-24.1115141664
 30
0.0
 11
37.91450320400003
 21
-24.02512778580001
 31
0.0
  0
LINE
  5
138C
  8
3
 10
37.91450320400003
 20
-22.50346748470001
 30
0.0
 11
37.66272163370002
 21
-22.41708110410001
 31
0.0
  0
LINE
  5
138D
  8
3
 10
35.33727836629998
 20
-22.41708110410001
 30
0.0
 11
35.08549679600003
 21
-22.50346748470001
 31
0.0
  0
LINE
  5
138E
  8
3
 10
39.0
 20
-23.6121840812
 30
0.0
 11
39.0
 21
-23.5341445299
 31
0.0
  0
LINE
  5
138F
  8
3
 10
34.0
 20
-23.5341445299
 30
0.0
 11
34.0
 21
-23.6121840812
 31
0.0
  0
LINE
  5
1390
  8
3
 10
35.08549679600003
 20
-24.64286112640001
 30
0.0
 11
35.33727836629998
 21
-24.72924750700001
 31
0.0
  0
LINE
  5
1391
  8
3
 10
37.66272163370002
 20
-24.72924750700001
 30
0.0
 11
37.91450320400003
 21
-24.64286112640001
 31
0.0
  0
LINE
  5
1392
  8
3
 10
37.91450320400003
 20
-23.12120082530001
 30
0.0
 11
37.66272163370002
 21
-23.0348144447
 31
0.0
  0
LINE
  5
1393
  8
3
 10
35.33727836629998
 20
-23.0348144447
 30
0.0
 11
35.08549679600003
 21
-23.12120082530001
 31
0.0
  0
LINE
  5
1394
  8
3
 10
39.0
 20
-24.22991742180001
 30
0.0
 11
39.0
 21
-24.1518778705
 31
0.0
  0
LINE
  5
1395
  8
3
 10
34.0
 20
-24.1518778705
 30
0.0
 11
34.0
 21
-24.22991742180001
 31
0.0
  0
LINE
  5
1396
  8
3
 10
35.08549679600003
 20
-25.260594467
 30
0.0
 11
35.33727836629998
 21
-25.34698084760001
 31
0.0
  0
LINE
  5
1397
  8
3
 10
37.66272163370002
 20
-25.34698084760001
 30
0.0
 11
37.91450320400003
 21
-25.260594467
 31
0.0
  0
LINE
  5
1398
  8
3
 10
37.91450320400003
 20
-23.73893416590001
 30
0.0
 11
37.66272163370002
 21
-23.6525477853
 31
0.0
  0
LINE
  5
1399
  8
3
 10
35.33727836629998
 20
-23.6525477853
 30
0.0
 11
35.08549679600003
 21
-23.73893416590001
 31
0.0
  0
LINE
  5
139A
  8
3
 10
39.0
 20
-24.84765076240001
 30
0.0
 11
39.0
 21
-24.7696112111
 31
0.0
  0
LINE
  5
139B
  8
3
 10
34.0
 20
-24.7696112111
 30
0.0
 11
34.0
 21
-24.84765076240001
 31
0.0
  0
LINE
  5
139C
  8
3
 10
35.08549679600003
 20
-25.8783278076
 30
0.0
 11
35.33727836629998
 21
-25.96471418820001
 31
0.0
  0
LINE
  5
139D
  8
3
 10
37.66272163370002
 20
-25.96471418820001
 30
0.0
 11
37.91450320400003
 21
-25.8783278076
 31
0.0
  0
LINE
  5
139E
  8
3
 10
37.91450320400003
 20
-24.3566675065
 30
0.0
 11
37.66272163370002
 21
-24.27028112590001
 31
0.0
  0
LINE
  5
139F
  8
3
 10
35.33727836629998
 20
-24.27028112590001
 30
0.0
 11
35.08549679600003
 21
-24.3566675065
 31
0.0
  0
LINE
  5
13A0
  8
3
 10
39.0
 20
-25.46538410300001
 30
0.0
 11
39.0
 21
-25.38734455170001
 31
0.0
  0
LINE
  5
13A1
  8
3
 10
34.0
 20
-25.38734455170001
 30
0.0
 11
34.0
 21
-25.46538410300001
 31
0.0
  0
LINE
  5
13A2
  8
3
 10
35.08549679600003
 20
-26.4960611482
 30
0.0
 11
35.33727836629998
 21
-26.5824475288
 31
0.0
  0
LINE
  5
13A3
  8
3
 10
37.66272163370002
 20
-26.5824475288
 30
0.0
 11
37.91450320400003
 21
-26.4960611482
 31
0.0
  0
LINE
  5
13A4
  8
3
 10
37.91450320400003
 20
-24.9744008471
 30
0.0
 11
37.66272163370002
 21
-24.88801446650001
 31
0.0
  0
LINE
  5
13A5
  8
3
 10
35.33727836629998
 20
-24.88801446650001
 30
0.0
 11
35.08549679600003
 21
-24.9744008471
 31
0.0
  0
LINE
  5
13A6
  8
3
 10
39.0
 20
-26.0831174436
 30
0.0
 11
39.0
 21
-26.00507789230001
 31
0.0
  0
LINE
  5
13A7
  8
3
 10
34.0
 20
-26.00507789230001
 30
0.0
 11
34.0
 21
-26.0831174436
 31
0.0
  0
LINE
  5
13A8
  8
3
 10
35.08549679600003
 20
-27.11379448880001
 30
0.0
 11
35.33727836629998
 21
-27.2001808694
 31
0.0
  0
LINE
  5
13A9
  8
3
 10
37.66272163370002
 20
-27.2001808694
 30
0.0
 11
37.91450320400003
 21
-27.11379448880001
 31
0.0
  0
LINE
  5
13AA
  8
3
 10
37.91450320400003
 20
-25.59213418770001
 30
0.0
 11
37.66272163370002
 21
-25.50574780710001
 31
0.0
  0
LINE
  5
13AB
  8
3
 10
35.33727836629998
 20
-25.50574780710001
 30
0.0
 11
35.08549679600003
 21
-25.59213418770001
 31
0.0
  0
LINE
  5
13AC
  8
3
 10
39.0
 20
-26.7008507843
 30
0.0
 11
39.0
 21
-26.62281123290001
 31
0.0
  0
LINE
  5
13AD
  8
3
 10
34.0
 20
-26.62281123290001
 30
0.0
 11
34.0
 21
-26.7008507843
 31
0.0
  0
LINE
  5
13AE
  8
3
 10
35.08549679600003
 20
-27.73152782940001
 30
0.0
 11
35.33727836629998
 21
-27.81791421000001
 31
0.0
  0
LINE
  5
13AF
  8
3
 10
37.66272163370002
 20
-27.81791421000001
 30
0.0
 11
37.91450320400003
 21
-27.73152782940001
 31
0.0
  0
LINE
  5
13B0
  8
3
 10
37.7765060406
 20
-26.16252063370001
 30
0.0
 11
37.66272163370002
 21
-26.12348114770001
 31
0.0
  0
LINE
  5
13B1
  8
3
 10
35.33727836629998
 20
-26.12348114770001
 30
0.0
 11
35.2234939594
 21
-26.16252063370001
 31
0.0
  0
LINE
  5
13B2
  8
3
 10
63.5
 20
9.525000000000006
 30
0.0
 11
58.08599000000004
 21
9.525000000000006
 31
0.0
  0
LINE
  5
13B3
  8
3
 10
58.08599000000004
 20
-9.525000000000006
 30
0.0
 11
63.5
 21
-9.525000000000006
 31
0.0
  0
LINE
  5
13B4
  8
3
 10
58.08599000000004
 20
9.525000000000006
 30
0.0
 11
57.15000000000003
 21
8.589010000000002
 31
0.0
  0
LINE
  5
13B5
  8
3
 10
57.15000000000003
 20
-8.589010000000002
 30
0.0
 11
58.08599000000004
 21
-9.525000000000006
 31
0.0
  0
LINE
  5
13BE
  8
3
 10
48.37203951060002
 20
-25.40869000000001
 30
0.0
 11
47.44720000000001
 21
-25.65650000000001
 31
0.0
  0
LINE
  5
13BF
  8
3
 10
47.44720000000001
 20
-41.02350000000001
 30
0.0
 11
48.37203951060002
 21
-41.27131
 31
0.0
  0
LINE
  5
13C6
  8
3
 10
48.94720000000001
 20
41.27131
 30
0.0
 11
48.37203951060002
 21
41.27131
 31
0.0
  0
LINE
  5
13C8
  8
3
 10
48.37203951060002
 20
41.27131
 30
0.0
 11
47.44720000000001
 21
41.02349999999998
 31
0.0
  0
LINE
  5
13C9
  8
3
 10
47.44720000000001
 20
25.65649999999999
 30
0.0
 11
48.37203951060002
 21
25.40869000000001
 31
0.0
  0
LINE
  5
13CA
  8
1
 10
46.0
 20
0.0
 30
0.0
 11
46.0
 21
46.04999999999998
 31
0.0
  0
LINE
  5
13CB
  8
1
 10
46.0
 20
-46.05000000000001
 30
0.0
 11
46.0
 21
0.0
 31
0.0
  0
LINE
  5
13CC
  8
1
 10
62.5
 20
46.04999999999998
 30
0.0
 11
62.5
 21
-46.05000000000001
 31
0.0
  0
LINE
  5
13CD
  8
1
 10
43.0
 20
0.0
 30
0.0
 11
43.0
 21
-31.40000000000001
 31
0.0
  0
LINE
  5
13CE
  8
1
 10
43.0
 20
31.40000000000001
 30
0.0
 11
43.0
 21
0.0
 31
0.0
  0
LINE
  5
13F4
  8
SK3
 10
-7.235747275099982
 20
5.0
 30
0.0
 11
0.0
 21
5.0
 31
0.0
  0
LINE
  5
13F5
  8
SK3
 10
-7.235747275099982
 20
-5.0
 30
0.0
 11
0.0
 21
-5.0
 31
0.0
  0
LINE
  5
13F9
  8
SK4
 10
63.50000000000004
 20
0.0
 30
0.0
 11
101.6
 21
0.0
 31
0.0
  0
DIMENSION
  5
1A72
  8
SK2
  2
*D16
 10
122.9565598241589
 20
-19.05000000000001
 30
0.0
 11
121.0815598241589
 21
-0.0000000000000036
 31
0.0
 70
    32
  3
ISO-25
 13
85.09999999999997
 23
19.05000000000001
 33
0.0
 14
85.09999999999997
 24
-19.05000000000001
 34
0.0
 50
90.0
1001
ACAD
1000
DSTYLE
1002
{
1070
   287
1070
     5
1070
   271
1070
     3
1070
   272
1070
     3
1070
   279
1070
     2
1002
}
  0
DIMENSION
  5
1A81
  8
SK2
  2
*D17
 10
137.3055086009174
 20
-46.05000000000002
 30
0.0
 11
135.4305086009174
 21
-0.0000000000000213
 31
0.0
 70
    32
  3
ISO-25
 13
62.5
 23
46.04999999999998
 33
0.0
 14
62.5
 24
-46.05000000000001
 34
0.0
 50
90.0
1001
ACAD
1000
DSTYLE
1002
{
1070
   287
1070
     5
1070
   271
1070
     3
1070
   272
1070
     3
1070
   279
1070
     2
1002
}
  0
ARC
  5
2101
  8
NOCUT
 10
62.5
 20
45.04999999999998
 30
0.0
 40
1.0
 50
0.0
 51
90.0
  0
LINE
  5
2103
  8
NOCUT
 10
62.5
 20
46.04999999999998
 30
0.0
 11
46.0
 21
46.04999999999998
 31
0.0
  0
ARC
  5
2104
  8
NOCUT
 10
46.0
 20
45.04999999999998
 30
0.0
 40
1.0
 50
90.0
 51
180.0
  0
LINE
  5
2105
  8
NOCUT
 10
63.5
 20
0.0
 30
0.0
 11
63.5
 21
45.04999999999998
 31
0.0
  0
ARC
  5
2106
  8
NOCUT
 10
43.0
 20
33.40000000000001
 30
0.0
 40
2.0
 50
270.0
 51
0.0
  0
LINE
  5
2107
  8
NOCUT
 10
43.0
 20
31.40000000000001
 30
0.0
 11
21.39641016150006
 21
31.40000000000001
 31
0.0
  0
LINE
  5
210A
  8
NOCUT
 10
45.0
 20
45.04999999999998
 30
0.0
 11
45.0
 21
33.40000000000001
 31
0.0
  0
LINE
  5
210D
  8
NOCUT
 10
19.04999999999995
 20
31.2328257263
 30
0.0
 11
21.22923588780006
 21
31.2328257263
 31
0.0
  0
LINE
  5
210E
  8
NOCUT
 10
21.22923588780006
 20
31.2328257263
 30
0.0
 11
21.39641016150006
 21
31.40000000000001
 31
0.0
  0
ENDSEC
  0
EOF
