  0
SECTION
  2
HEADER
  9
$ACADVER
  1
AC1009
  9
$DWGCODEPAGE
  3
ansi_1252
  9
$INSBASE
 10
0.0
 20
0.0
 30
0.0
  9
$EXTMIN
 10
-68.25000000000003
 20
-48.27109509650273
 30
0.0
  9
$EXTMAX
 10
141.9525020780113
 20
50.83203563714093
 30
0.0
  9
$LIMMIN
 10
0.0
 20
0.0
  9
$LIMMAX
 10
420.0
 20
297.0
  9
$ORTHOMODE
 70
     1
  9
$REGENMODE
 70
     1
  9
$FILLMODE
 70
     1
  9
$QTEXTMODE
 70
     0
  9
$MIRRTEXT
 70
     0
  9
$DRAGMODE
 70
     2
  9
$LTSCALE
 40
1.0
  9
$OSMODE
 70
   279
  9
$ATTMODE
 70
     1
  9
$TEXTSIZE
 40
2.5
  9
$TRACEWID
 40
1.0
  9
$TEXTSTYLE
  7
STANDARD
  9
$CLAYER
  8
0
  9
$CELTYPE
  6
BYLAYER
  9
$CECOLOR
 62
   256
  9
$DIMSCALE
 40
1.0
  9
$DIMASZ
 40
2.5
  9
$DIMEXO
 40
0.625
  9
$DIMDLI
 40
3.75
  9
$DIMRND
 40
0.0
  9
$DIMDLE
 40
0.0
  9
$DIMEXE
 40
1.25
  9
$DIMTP
 40
0.0
  9
$DIMTM
 40
0.0
  9
$DIMTXT
 40
2.5
  9
$DIMCEN
 40
2.5
  9
$DIMTSZ
 40
0.0
  9
$DIMTOL
 70
     0
  9
$DIMLIM
 70
     0
  9
$DIMTIH
 70
     0
  9
$DIMTOH
 70
     0
  9
$DIMSE1
 70
     0
  9
$DIMSE2
 70
     0
  9
$DIMTAD
 70
     1
  9
$DIMZIN
 70
     8
  9
$DIMBLK
  1

  9
$DIMASO
 70
     1
  9
$DIMSHO
 70
     1
  9
$DIMPOST
  1

  9
$DIMAPOST
  1

  9
$DIMALT
 70
     0
  9
$DIMALTD
 70
     3
  9
$DIMALTF
 40
0.03937007874016
  9
$DIMLFAC
 40
1.0
  9
$DIMTOFL
 70
     1
  9
$DIMTVP
 40
0.0
  9
$DIMTIX
 70
     0
  9
$DIMSOXD
 70
     0
  9
$DIMSAH
 70
     0
  9
$DIMBLK1
  1

  9
$DIMBLK2
  1

  9
$DIMSTYLE
  2
ISO-25
  9
$DIMCLRD
 70
     0
  9
$DIMCLRE
 70
     0
  9
$DIMCLRT
 70
     0
  9
$DIMTFAC
 40
1.0
  9
$DIMGAP
 40
0.625
  9
$LUNITS
 70
     2
  9
$LUPREC
 70
     3
  9
$SKETCHINC
 40
1.0
  9
$FILLETRAD
 40
10.0
  9
$AUNITS
 70
     0
  9
$AUPREC
 70
     0
  9
$MENU
  1
.
  9
$ELEVATION
 40
0.0
  9
$PELEVATION
 40
0.0
  9
$THICKNESS
 40
0.0
  9
$LIMCHECK
 70
     0
  9
$CHAMFERA
 40
10.0
  9
$CHAMFERB
 40
10.0
  9
$SKPOLY
 70
     0
  9
$TDCREATE
 40
2455022.429026158
  9
$TDUPDATE
 40
2458696.404587697
  9
$TDINDWG
 40
0.001290463
  9
$TDUSRTIMER
 40
2458701.803789213
  9
$USRTIMER
 70
     1
  9
$ANGBASE
 50
0.0
  9
$ANGDIR
 70
     0
  9
$PDMODE
 70
     0
  9
$PDSIZE
 40
0.0
  9
$PLINEWID
 40
0.0
  9
$COORDS
 70
     1
  9
$SPLFRAME
 70
     0
  9
$SPLINETYPE
 70
     6
  9
$SPLINESEGS
 70
     8
  9
$ATTDIA
 70
     0
  9
$ATTREQ
 70
     1
  9
$HANDLING
 70
     1
  9
$HANDSEED
  5
2086
  9
$SURFTAB1
 70
     6
  9
$SURFTAB2
 70
     6
  9
$SURFTYPE
 70
     6
  9
$SURFU
 70
     6
  9
$SURFV
 70
     6
  9
$UCSNAME
  2

  9
$UCSORG
 10
0.0
 20
0.0
 30
0.0
  9
$UCSXDIR
 10
1.0
 20
0.0
 30
0.0
  9
$UCSYDIR
 10
0.0
 20
1.0
 30
0.0
  9
$PUCSNAME
  2

  9
$PUCSORG
 10
0.0
 20
0.0
 30
0.0
  9
$PUCSXDIR
 10
1.0
 20
0.0
 30
0.0
  9
$PUCSYDIR
 10
0.0
 20
1.0
 30
0.0
  9
$USERI1
 70
     0
  9
$USERI2
 70
     0
  9
$USERI3
 70
     0
  9
$USERI4
 70
     0
  9
$USERI5
 70
     0
  9
$USERR1
 40
0.0
  9
$USERR2
 40
0.0
  9
$USERR3
 40
0.0
  9
$USERR4
 40
0.0
  9
$USERR5
 40
0.0
  9
$WORLDVIEW
 70
     1
  9
$SHADEDGE
 70
     3
  9
$SHADEDIF
 70
    70
  9
$TILEMODE
 70
     1
  9
$MAXACTVP
 70
    64
  9
$PLIMCHECK
 70
     0
  9
$PEXTMIN
 10
1.000000000000000E+20
 20
1.000000000000000E+20
 30
1.000000000000000E+20
  9
$PEXTMAX
 10
-1.000000000000000E+20
 20
-1.000000000000000E+20
 30
-1.000000000000000E+20
  9
$PLIMMIN
 10
0.0
 20
0.0
  9
$PLIMMAX
 10
0.0
 20
0.0
  9
$UNITMODE
 70
     0
  9
$VISRETAIN
 70
     1
  9
$PLINEGEN
 70
     0
  9
$PSLTSCALE
 70
     1
  0
ENDSEC
  0
SECTION
  2
TABLES
  0
TABLE
  2
VPORT
 70
     1
  0
VPORT
  2
*ACTIVE
 70
     0
 10
0.0
 20
0.0
 11
1.0
 21
1.0
 12
163.3881658878508
 22
1.280470270319107
 13
0.0
 23
0.0
 14
10.0
 24
10.0
 15
10.0
 25
10.0
 16
0.0
 26
0.0
 36
1.0
 17
-134.1869158878508
 27
0.0
 37
0.0
 40
149.1510752293578
 41
1.332880434782609
 42
50.0
 43
0.0
 44
0.0
 50
0.0
 51
0.0
 71
    16
 72
  1000
 73
     1
 74
     3
 75
     0
 76
     0
 77
     0
 78
     0
  0
ENDTAB
  0
TABLE
  2
LTYPE
 70
     6
  0
LTYPE
  2
CONTINUOUS
 70
     0
  3
Solid line
 72
    65
 73
     0
 40
0.0
  0
LTYPE
  2
CENTER
 70
     0
  3
 Center _____  _  _____  _  _____  _  _____  _ 
 72
    65
 73
     4
 40
50.8
 49
31.75
 49
-6.35
 49
6.35
 49
-6.35
  0
LTYPE
  2
DASHED
 70
     0
  3
Dashed __  __  __  __  __  __  __  __  __  __  
 72
    65
 73
     2
 40
19.05
 49
12.7
 49
-6.35
  0
LTYPE
  2
HIDDEN
 70
     0
  3
Hidden __ __ __ __ __ __ __ __ __ __ __ __ __ __
 72
    65
 73
     2
 40
1.905
 49
1.27
 49
-0.635
  0
LTYPE
  2
CENTERX2
 70
     0
  3
Center (2x) ________  __  ________  __  _____
 72
    65
 73
     4
 40
20.32
 49
12.7
 49
-2.54
 49
2.54
 49
-2.54
  0
LTYPE
  2
PHANTOM
 70
     0
  3
Phantom ______  __  __  ______  __  __  ______
 72
    65
 73
     6
 40
12.7
 49
6.35
 49
-1.27
 49
1.27
 49
-1.27
 49
1.27
 49
-1.27
  0
ENDTAB
  0
TABLE
  2
LAYER
 70
    26
  0
LAYER
  2
0
 70
     0
 62
     7
  6
CONTINUOUS
  0
LAYER
  2
1
 70
     0
 62
     4
  6
CONTINUOUS
  0
LAYER
  2
2
 70
     0
 62
     7
  6
CONTINUOUS
  0
LAYER
  2
3
 70
     0
 62
     1
  6
DASHED
  0
LAYER
  2
4
 70
     0
 62
     2
  6
CENTER
  0
LAYER
  2
6
 70
     0
 62
     5
  6
CONTINUOUS
  0
LAYER
  2
7
 70
     0
 62
     5
  6
CONTINUOUS
  0
LAYER
  2
11
 70
     0
 62
     4
  6
CONTINUOUS
  0
LAYER
  2
SK1
 70
     0
 62
     4
  6
CONTINUOUS
  0
LAYER
  2
SK2
 70
     0
 62
     7
  6
CONTINUOUS
  0
LAYER
  2
SK3
 70
     0
 62
     1
  6
DASHED
  0
LAYER
  2
SK4
 70
     0
 62
     2
  6
CENTER
  0
LAYER
  2
SK6
 70
     0
 62
     5
  6
CONTINUOUS
  0
LAYER
  2
SK7
 70
     0
 62
     5
  6
CONTINUOUS
  0
LAYER
  2
SK11
 70
     0
 62
     4
  6
CONTINUOUS
  0
LAYER
  2
CUT
 70
     0
 62
     1
  6
CONTINUOUS
  0
LAYER
  2
NOCUT
 70
     0
 62
    -7
  6
CONTINUOUS
  0
LAYER
  2
SKVIEW1
 70
     0
 62
     4
  6
CONTINUOUS
  0
LAYER
  2
SKVIEW2
 70
     0
 62
     7
  6
CONTINUOUS
  0
LAYER
  2
SKVIEW3
 70
     0
 62
     1
  6
DASHED
  0
LAYER
  2
SKVIEW4
 70
     0
 62
     2
  6
CENTER
  0
LAYER
  2
SKVIEW6
 70
     0
 62
     5
  6
CONTINUOUS
  0
LAYER
  2
SKVIEW7
 70
     0
 62
     5
  6
CONTINUOUS
  0
LAYER
  2
SKVIEW11
 70
     0
 62
     4
  6
CONTINUOUS
  0
LAYER
  2
INFTOTAL
 70
     0
 62
     9
  6
CONTINUOUS
  0
LAYER
  2
DEFPOINTS
 70
     0
 62
     7
  6
CONTINUOUS
  0
ENDTAB
  0
TABLE
  2
STYLE
 70
     1
  0
STYLE
  2
STANDARD
 70
     0
 40
0.0
 41
1.0
 50
0.0
 71
     0
 42
2.5
  3
txt
  4

  0
ENDTAB
  0
TABLE
  2
VIEW
 70
     0
  0
ENDTAB
  0
TABLE
  2
UCS
 70
     0
  0
ENDTAB
  0
TABLE
  2
APPID
 70
     2
  0
APPID
  2
ACAD
 70
     0
  0
APPID
  2
ACAECLAYERSTANDARD
 70
     0
  0
ENDTAB
  0
TABLE
  2
DIMSTYLE
 70
     1
  0
DIMSTYLE
  2
ISO-25
 70
     0
  3

  4

  5

  6

  7

 40
1.0
 41
2.5
 42
0.625
 43
3.75
 44
1.25
 45
0.0
 46
0.0
 47
0.0
 48
0.0
140
2.5
141
2.5
142
0.0
143
0.03937007874016
144
1.0
145
0.0
146
1.0
147
0.625
 71
     0
 72
     0
 73
     0
 74
     0
 75
     0
 76
     0
 77
     1
 78
     8
170
     0
171
     3
172
     1
173
     0
174
     0
175
     0
176
     0
177
     0
178
     0
  0
ENDTAB
  0
ENDSEC
  0
SECTION
  2
BLOCKS
  0
BLOCK
  8
0
  2
$MODEL_SPACE
 70
     0
 10
0.0
 20
0.0
 30
0.0
  3
$MODEL_SPACE
  1

  0
ENDBLK
  5
21
  8
0
  0
BLOCK
 67
     1
  8
0
  2
$PAPER_SPACE
 70
     0
 10
0.0
 20
0.0
 30
0.0
  3
$PAPER_SPACE
  1

  0
ENDBLK
  5
1D
 67
     1
  8
0
  0
BLOCK
  8
0
  2
_FILLED
 70
     0
 10
0.0
 20
0.0
 30
0.0
  3
_FILLED
  1

  0
SOLID
  5
1C4
  8
0
  6
BYBLOCK
 62
     0
 10
0.0
 20
0.0
 30
0.0
 11
-1.0
 21
0.2142857143
 31
0.0
 12
-1.0
 22
-0.2142857143
 32
0.0
 13
-1.0
 23
-0.2142857143
 33
0.0
  0
ENDBLK
  5
1C5
  8
0
  6
BYBLOCK
 62
     0
  0
BLOCK
  8
0
  2
*D1
 70
     1
 10
0.0
 20
0.0
 30
0.0
  3
*D1
  1

  0
LINE
  5
1D3
  8
2
 62
     0
 10
0.0
 20
22.84999999999999
 30
0.0
 11
0.0
 21
48.91573065769793
 31
0.0
  0
LINE
  5
1D4
  8
2
 62
     0
 10
63.5
 20
34.57500000000002
 30
0.0
 11
63.5
 21
48.91573065769793
 31
0.0
  0
LINE
  5
1D5
  8
2
 62
     0
 10
2.5
 20
47.66573065769793
 30
0.0
 11
61.0
 21
47.66573065769793
 31
0.0
  0
SOLID
  5
1D6
  8
2
 62
     0
 10
2.5
 20
48.08239732436459
 30
0.0
 11
2.5
 21
47.24906399103126
 31
0.0
 12
0.0
 22
47.66573065769793
 32
0.0
 13
0.0
 23
47.66573065769793
 33
0.0
  0
SOLID
  5
1D7
  8
2
 62
     0
 10
61.0
 20
47.24906399103126
 30
0.0
 11
61.0
 21
48.08239732436459
 31
0.0
 12
63.5
 22
47.66573065769793
 32
0.0
 13
63.5
 23
47.66573065769793
 33
0.0
  0
TEXT
  5
1D8
  8
2
  6
CONTINUOUS
 62
     0
 10
28.0
 20
48.29073065769793
 30
0.0
 40
2.5
  1
63.5
  0
POINT
  5
1D9
  8
DEFPOINTS
 62
     0
 10
0.0
 20
22.22499999999999
 30
0.0
  0
POINT
  5
1DA
  8
DEFPOINTS
 62
     0
 10
63.5
 20
33.95000000000002
 30
0.0
  0
POINT
  5
1DB
  8
DEFPOINTS
 62
     0
 10
63.5
 20
47.66573065769793
 30
0.0
  0
ENDBLK
  5
1DD
  8
0
  0
BLOCK
  8
0
  2
*D2
 70
     1
 10
0.0
 20
0.0
 30
0.0
  3
*D2
  1

  0
LINE
  5
211
  8
SK2
 62
     0
 10
0.0
 20
-22.84999999999999
 30
0.0
 11
0.0
 21
-48.27109509650273
 31
0.0
  0
LINE
  5
212
  8
SK2
 62
     0
 10
19.04999999999998
 20
-30.59565231190001
 30
0.0
 11
19.04999999999998
 21
-48.27109509650273
 31
0.0
  0
LINE
  5
213
  8
SK2
 62
     0
 10
2.5
 20
-47.02109509650273
 30
0.0
 11
16.54999999999998
 21
-47.02109509650273
 31
0.0
  0
SOLID
  5
214
  8
SK2
 62
     0
 10
2.5
 20
-46.60442842983606
 30
0.0
 11
2.5
 21
-47.43776176316939
 31
0.0
 12
0.0
 22
-47.02109509650273
 32
0.0
 13
0.0
 23
-47.02109509650273
 33
0.0
  0
SOLID
  5
215
  8
SK2
 62
     0
 10
16.54999999999998
 20
-47.43776176316939
 30
0.0
 11
16.54999999999998
 21
-46.60442842983606
 31
0.0
 12
19.04999999999998
 22
-47.02109509650273
 32
0.0
 13
19.04999999999998
 23
-47.02109509650273
 33
0.0
  0
TEXT
  5
216
  8
SK2
  6
CONTINUOUS
 62
     0
 10
5.14999999999999
 20
-46.39609509650273
 30
0.0
 40
2.5
  1
19.05
  0
POINT
  5
217
  8
DEFPOINTS
 62
     0
 10
0.0
 20
-22.22499999999999
 30
0.0
  0
POINT
  5
218
  8
DEFPOINTS
 62
     0
 10
19.04999999999998
 20
-29.97065231190001
 30
0.0
  0
POINT
  5
219
  8
DEFPOINTS
 62
     0
 10
19.04999999999998
 20
-47.02109509650273
 30
0.0
  0
ENDBLK
  5
21B
  8
0
  0
BLOCK
  8
0
  2
*D3
 70
     1
 10
0.0
 20
0.0
 30
0.0
  3
*D3
  1

  0
LINE
  5
138C
  8
SK2
 62
     0
 10
63.125
 20
34.94999999564287
 30
0.0
 11
126.6525
 21
34.94999999564288
 31
0.0
  0
LINE
  5
138D
  8
SK2
 62
     0
 10
63.125
 20
-34.94999999999999
 30
0.0
 11
126.6525
 21
-34.95
 31
0.0
  0
LINE
  5
138E
  8
SK2
 62
     0
 10
125.4025
 20
32.44999999564288
 30
0.0
 11
125.4025
 21
-32.45
 31
0.0
  0
SOLID
  5
138F
  8
SK2
 62
     0
 10
125.8191666666667
 20
32.44999999564288
 30
0.0
 11
124.9858333333333
 21
32.44999999564288
 31
0.0
 12
125.4025
 22
34.94999999564288
 32
0.0
 13
125.4025
 23
34.94999999564288
 33
0.0
  0
SOLID
  5
1390
  8
SK2
 62
     0
 10
124.9858333333333
 20
-32.45
 30
0.0
 11
125.8191666666667
 21
-32.45
 31
0.0
 12
125.4025
 22
-34.95
 32
0.0
 13
125.4025
 23
-34.95
 33
0.0
  0
TEXT
  5
1391
  8
SK2
  6
CONTINUOUS
 62
     0
 10
124.7775
 20
-3.750000002178552
 30
0.0
 40
2.5
  1
69.9
 50
90.0
  0
POINT
  5
1392
  8
DEFPOINTS
 62
     0
 10
62.5
 20
34.94999999564287
 30
0.0
  0
POINT
  5
1393
  8
DEFPOINTS
 62
     0
 10
62.5
 20
-34.94999999999999
 30
0.0
  0
POINT
  5
1394
  8
DEFPOINTS
 62
     0
 10
125.4025
 20
-34.95
 30
0.0
  0
ENDBLK
  5
1396
  8
0
  0
BLOCK
  8
0
  2
*D4
 70
     1
 10
0.0
 20
0.0
 30
0.0
  3
*D4
  1

  0
LINE
  5
139B
  8
SK2
 62
     0
 10
80.125
 20
15.875
 30
0.0
 11
110.715
 21
15.875
 31
0.0
  0
LINE
  5
139C
  8
SK2
 62
     0
 10
80.125
 20
-15.875
 30
0.0
 11
110.715
 21
-15.875
 31
0.0
  0
LINE
  5
139D
  8
SK2
 62
     0
 10
109.465
 20
13.375
 30
0.0
 11
109.465
 21
-13.375
 31
0.0
  0
SOLID
  5
139E
  8
SK2
 62
     0
 10
109.8816666666667
 20
13.375
 30
0.0
 11
109.0483333333333
 21
13.375
 31
0.0
 12
109.465
 22
15.875
 32
0.0
 13
109.465
 23
15.875
 33
0.0
  0
SOLID
  5
139F
  8
SK2
 62
     0
 10
109.0483333333333
 20
-13.375
 30
0.0
 11
109.8816666666667
 21
-13.375
 31
0.0
 12
109.465
 22
-15.875
 32
0.0
 13
109.465
 23
-15.875
 33
0.0
  0
TEXT
  5
13A0
  8
SK2
  6
CONTINUOUS
 62
     0
 10
108.84
 20
-4.583333333333329
 30
0.0
 40
2.5
  1
31.75
 50
90.0
  0
POINT
  5
13A1
  8
DEFPOINTS
 62
     0
 10
79.5
 20
15.875
 30
0.0
  0
POINT
  5
13A2
  8
DEFPOINTS
 62
     0
 10
79.5
 20
-15.875
 30
0.0
  0
POINT
  5
13A3
  8
DEFPOINTS
 62
     0
 10
109.465
 20
-15.875
 30
0.0
  0
ENDBLK
  5
13A5
  8
0
  0
ENDSEC
  0
SECTION
  2
ENTITIES
  0
LINE
  5
1B2
  8
4
 10
63.5
 20
-0.0000000043571496
 30
0.0
 11
0.0
 21
0.0
 31
0.0
  0
DIMENSION
  5
1CF
  8
2
  2
*D1
 10
63.5
 20
47.66573065769793
 30
0.0
 11
31.75
 21
49.54073065769793
 31
0.0
 70
    32
  3
ISO-25
 13
0.0
 23
22.22499999999999
 33
0.0
 14
63.5
 24
33.95000000000002
 34
0.0
  0
DIMENSION
  5
20D
  8
SK2
  2
*D2
 10
19.04999999999998
 20
-47.02109509650273
 30
0.0
 11
9.52499999999999
 21
-45.14609509650273
 31
0.0
 70
    32
  3
ISO-25
 13
0.0
 23
-22.22499999999999
 33
0.0
 14
19.04999999999998
 24
-29.97065231190001
 34
0.0
  0
LINE
  5
364
  8
NOCUT
 10
63.5
 20
-0.0000000043571496
 30
0.0
 11
0.0
 21
0.0
 31
0.0
  0
LINE
  5
99D
  8
SK3
 10
-66.51794919240001
 20
0.0
 30
0.0
 11
-66.51794919240001
 21
8.149999999999991
 31
0.0
  0
LINE
  5
99E
  8
SK3
 10
-66.51794919240001
 20
-8.149999999999991
 30
0.0
 11
-66.51794919240001
 21
0.0
 31
0.0
  0
LINE
  5
99F
  8
SK3
 10
-63.48000000000002
 20
0.0
 30
0.0
 11
-63.48000000000002
 21
8.149999999999991
 31
0.0
  0
LINE
  5
9A0
  8
SK3
 10
-63.48000000000002
 20
-8.149999999999991
 30
0.0
 11
-63.48000000000002
 21
0.0
 31
0.0
  0
LINE
  5
9BF
  8
SK3
 10
-68.25000000000003
 20
-9.149999999999991
 30
0.0
 11
-66.51794919240001
 21
-8.149999999999991
 31
0.0
  0
LINE
  5
9C0
  8
SK3
 10
-66.51794919240001
 20
8.149999999999991
 30
0.0
 11
-68.25000000000003
 21
9.149999999999991
 31
0.0
  0
LINE
  5
9C1
  8
SK3
 10
-66.51794919240001
 20
-8.149999999999991
 30
0.0
 11
-63.48000000000002
 21
-8.149999999999991
 31
0.0
  0
LINE
  5
9C2
  8
SK3
 10
-63.48000000000002
 20
8.149999999999991
 30
0.0
 11
-66.51794919240001
 21
8.149999999999991
 31
0.0
  0
LINE
  5
9C3
  8
SK3
 10
-63.48000000000002
 20
-6.700000000000003
 30
0.0
 11
-8.25
 21
-6.700000000000003
 31
0.0
  0
LINE
  5
9C4
  8
SK3
 10
-8.25
 20
6.700000000000003
 30
0.0
 11
-63.48000000000002
 21
6.700000000000003
 31
0.0
  0
LINE
  5
9E1
  8
0
 10
65.49999999999994
 20
2.0
 30
0.0
 11
61.50000000000004
 21
-2.0
 31
0.0
  0
LINE
  5
9E2
  8
0
 10
61.50000000000004
 20
2.0
 30
0.0
 11
65.49999999999994
 21
-2.0
 31
0.0
  0
CIRCLE
  5
9E3
  8
0
 10
63.50000000000004
 20
0.0
 30
0.0
 40
1.5
  0
LINE
  5
9E4
  8
0
 10
3.0
 20
3.0
 30
0.0
 11
-3.0
 21
-3.0
 31
0.0
  0
LINE
  5
9E5
  8
0
 10
-3.0
 20
3.0
 30
0.0
 11
3.0
 21
-3.0
 31
0.0
  0
CIRCLE
  5
9E6
  8
0
 10
0.0
 20
0.0
 30
0.0
 40
2.5
  0
LINE
  5
9E7
  8
SK3
 10
-63.48000000000005
 20
-7.937499999800011
 30
0.0
 11
-39.75000000000003
 21
-7.937499999800011
 31
0.0
  0
LINE
  5
9E8
  8
SK3
 10
-39.75000000000003
 20
7.937500000199975
 30
0.0
 11
-39.75000000000003
 21
-7.937499999800011
 31
0.0
  0
LINE
  5
9E9
  8
SK3
 10
-39.75000000000003
 20
7.937500000199975
 30
0.0
 11
-63.48000000000005
 21
7.937500000199975
 31
0.0
  0
ARC
  5
AA1
  8
NOCUT
 10
0.5
 20
22.72499999999999
 30
0.0
 40
0.5
 50
270.0
 51
0.0
  0
LINE
  5
AA4
  8
NOCUT
 10
0.5
 20
22.22499999999999
 30
0.0
 11
0.0
 21
22.22499999999999
 31
0.0
  0
LINE
  5
AA7
  8
NOCUT
 10
14.65616676909997
 20
31.75
 30
0.0
 11
18.54999999999995
 21
31.75
 31
0.0
  0
POLYLINE
  5
AA8
  8
NOCUT
 66
     1
 10
0.0
 20
0.0
 30
0.0
  0
VERTEX
  5
1A58
  8
NOCUT
 10
18.54999999999995
 20
31.75
 30
0.0
  0
VERTEX
  5
1A59
  8
NOCUT
 10
18.57284145939997
 20
31.7263863779
 30
0.0
  0
VERTEX
  5
1A5A
  8
NOCUT
 10
19.04999999999995
 20
31.2328257263
 30
0.0
  0
SEQEND
  5
2085
  8
NOCUT
  0
POLYLINE
  5
AA9
  8
NOCUT
 66
     1
 10
0.0
 20
0.0
 30
0.0
  0
VERTEX
  5
1A5B
  8
NOCUT
 10
1.0
 20
31.2328257263
 30
0.0
  0
VERTEX
  5
1A5C
  8
NOCUT
 10
1.477158540600044
 20
31.7263863779
 30
0.0
  0
VERTEX
  5
1A5D
  8
NOCUT
 10
1.5
 20
31.75
 30
0.0
  0
SEQEND
  5
2084
  8
NOCUT
  0
LINE
  5
AAA
  8
NOCUT
 10
1.499999999999996
 20
31.75
 30
0.0
 11
7.603833230899966
 21
31.75
 31
0.0
  0
POLYLINE
  5
AAB
  8
NOCUT
 66
     1
 10
0.0
 20
0.0
 30
0.0
  0
VERTEX
  5
1A5E
  8
NOCUT
 10
7.603833230899966
 20
31.75
 30
0.0
  0
VERTEX
  5
1A5F
  8
NOCUT
 10
9.140787278000005
 20
28.9892854797
 30
0.0
  0
VERTEX
  5
1A60
  8
NOCUT
 10
9.204999999999984
 20
28.8735268612
 30
0.0
  0
SEQEND
  5
2083
  8
NOCUT
  0
POLYLINE
  5
AAC
  8
NOCUT
 66
     1
 10
0.0
 20
0.0
 30
0.0
  0
VERTEX
  5
1A61
  8
NOCUT
 10
13.05499999999995
 20
28.8735268612
 30
0.0
  0
VERTEX
  5
1A62
  8
NOCUT
 10
13.1192127219
 20
28.9892854797
 30
0.0
  0
VERTEX
  5
1A63
  8
NOCUT
 10
14.65616676909997
 20
31.75
 30
0.0
  0
SEQEND
  5
2082
  8
NOCUT
  0
ARC
  5
AAD
  8
NOCUT
 10
12.54226966779999
 20
28.55584607759999
 30
0.0
 40
0.512803993977288
 50
271.4225108534019
 51
0.9711541378997977
  0
ARC
  5
AAE
  8
NOCUT
 10
9.716236145599964
 20
28.5544130456
 30
0.0
 40
0.5113363895821054
 50
178.8654582714003
 51
268.7408767374973
  0
LINE
  5
AAF
  8
NOCUT
 10
9.704999999999984
 20
28.0432001229
 30
0.0
 11
12.55499999999995
 21
28.0432001229
 31
0.0
  0
LINE
  5
AB0
  8
NOCUT
 10
0.0
 20
0.0
 30
0.0
 11
0.0
 21
22.22499999999999
 31
0.0
  0
LINE
  5
ACA
  8
NOCUT
 10
1.0
 20
22.72499999999999
 30
0.0
 11
1.0
 21
31.2328257263
 31
0.0
  0
LINE
  5
ACB
  8
NOCUT
 10
9.204999999999984
 20
28.8735268612
 30
0.0
 11
9.20489975601786
 21
28.5544130456
 31
0.0
  0
LINE
  5
ACC
  8
NOCUT
 10
13.05499999999995
 20
28.8735268612
 30
0.0
 11
13.05507366177728
 21
28.55584607759999
 31
0.0
  0
ARC
  5
B94
  8
1
 10
0.799999999999983
 20
-22.42500000000001
 30
0.0
 40
0.5
 50
66.42182152179994
 51
90.0
  0
ARC
  5
B95
  8
1
 10
0.799999999999983
 20
22.42499999999998
 30
0.0
 40
0.5
 50
270.0
 51
293.5781784782001
  0
LINE
  5
B98
  8
1
 10
0.0
 20
-22.22499999999999
 30
0.0
 11
0.2999999999999829
 21
-21.92500000000001
 31
0.0
  0
LINE
  5
B99
  8
1
 10
0.2999999999999829
 20
21.92499999999998
 30
0.0
 11
0.0
 21
22.22499999999999
 31
0.0
  0
LINE
  5
B9C
  8
SK1
 10
0.0
 20
22.22499999999999
 30
0.0
 11
-67.3943082273
 21
12.39657058259999
 31
0.0
  0
LINE
  5
B9D
  8
SK1
 10
-67.3943082273
 20
-12.39657058270001
 30
0.0
 11
0.0
 21
-22.22499999999999
 31
0.0
  0
LINE
  5
B9E
  8
1
 10
0.2999999999999829
 20
-21.92500000000001
 30
0.0
 11
0.799999999999983
 21
-21.92500000000001
 31
0.0
  0
LINE
  5
B9F
  8
1
 10
0.799999999999983
 20
21.92499999999998
 30
0.0
 11
0.2999999999999829
 21
21.92499999999998
 31
0.0
  0
ARC
  5
BA0
  8
SK1
 10
-67.25
 20
-11.4070377962
 30
0.0
 40
1.000000000000014
 50
180.0
 51
261.7027777778003
  0
ARC
  5
BA1
  8
SK1
 10
-67.25
 20
11.40703779609998
 30
0.0
 40
1.000000000000014
 50
98.29722222219964
 51
180.0
  0
LINE
  5
BA2
  8
1
 10
14.6561667922
 20
30.49243725150001
 30
0.0
 11
13.05500004409998
 21
27.5903849293
 31
0.0
  0
LINE
  5
BA3
  8
1
 10
14.65616676899998
 20
-30.51805114620001
 30
0.0
 11
14.65616676899998
 21
30.49243720799998
 31
0.0
  0
LINE
  5
BA4
  8
1
 10
13.05500002099998
 20
-27.61768172550001
 30
0.0
 11
14.65616678619998
 21
-30.51748284710001
 31
0.0
  0
LINE
  5
BA5
  8
1
 10
13.05499999999998
 20
-27.61768156150001
 30
0.0
 11
13.05499999999998
 21
27.5896745586
 31
0.0
  0
LINE
  5
BA6
  8
1
 10
14.65616729029998
 20
-30.5174828113
 30
0.0
 11
14.76217597669998
 21
-30.54092502470002
 31
0.0
  0
LINE
  5
BA7
  8
1
 10
14.69253150219998
 20
30.50268419069999
 30
0.0
 11
14.65616753799998
 21
30.49243719839998
 31
0.0
  0
LINE
  5
BA8
  8
1
 10
18.54999999999998
 20
30.50268419069999
 30
0.0
 11
14.69253150219998
 21
30.50268419069999
 31
0.0
  0
LINE
  5
BA9
  8
1
 10
14.76217597669998
 20
-30.54092502470002
 30
0.0
 11
18.54999999999998
 21
-30.54092502470002
 31
0.0
  0
LINE
  5
BAA
  8
1
 10
9.204999955799991
 20
27.5903849293
 30
0.0
 11
7.603833207699978
 21
30.49243725150001
 31
0.0
  0
LINE
  5
BAB
  8
1
 10
9.204999999999984
 20
-27.6182445954
 30
0.0
 11
9.204999999999984
 21
27.5903848518
 31
0.0
  0
LINE
  5
BAC
  8
1
 10
7.6038332137
 20
-30.51748284710001
 30
0.0
 11
9.204999978799975
 21
-27.61768172539999
 31
0.0
  0
LINE
  5
BAD
  8
1
 10
7.603833230899994
 20
-30.5174828113
 30
0.0
 11
7.603833230899994
 21
30.49194635059999
 31
0.0
  0
LINE
  5
BAE
  8
1
 10
1.0
 20
-29.20362428180002
 30
0.0
 11
1.0
 21
29.22527756419998
 31
0.0
  0
ARC
  5
BAF
  8
1
 10
1.736068826500002
 20
28.83956144390001
 30
0.0
 40
0.8318485490646366
 50
106.4871262675995
 51
152.2338518675996
  0
POLYLINE
  5
BB0
  8
1
 66
     1
 10
0.0
 20
0.0
 30
0.0
  0
VERTEX
  5
1A64
  8
1
 10
1.499991175799977
 20
-29.70136738420001
 30
0.0
  0
VERTEX
  5
1A65
  8
1
 10
1.31486147779998
 20
-29.6078136875
 30
0.0
  0
VERTEX
  5
1A66
  8
1
 10
1.220960437199977
 20
-29.54106786380001
 30
0.0
  0
VERTEX
  5
1A67
  8
1
 10
1.131120186599986
 20
-29.45918995790001
 30
0.0
  0
VERTEX
  5
1A68
  8
1
 10
1.068966655699995
 20
-29.38420485969999
 30
0.0
  0
VERTEX
  5
1A69
  8
1
 10
1.029912598300001
 20
-29.3189781797
 30
0.0
  0
VERTEX
  5
1A6A
  8
1
 10
1.001757060399996
 20
-29.23060659110001
 30
0.0
  0
VERTEX
  5
1A6B
  8
1
 10
1.000001938499992
 20
-29.2054619834
 30
0.0
  0
SEQEND
  5
2081
  8
1
  0
LINE
  5
BB1
  8
1
 10
7.5674684974
 20
30.50268419069999
 30
0.0
 11
4.03465638199998
 21
30.50268419069999
 31
0.0
  0
LINE
  5
BB2
  8
1
 10
7.603832461599978
 20
30.49243719839998
 30
0.0
 11
7.5674684974
 21
30.50268419069999
 31
0.0
  0
LINE
  5
BB3
  8
1
 10
7.497824022700001
 20
-30.54092502470002
 30
0.0
 11
7.603832709099976
 21
-30.5174828113
 31
0.0
  0
LINE
  5
BB4
  8
1
 10
3.987796517999982
 20
-30.54092502470002
 30
0.0
 11
7.497824022700001
 21
-30.54092502470002
 31
0.0
  0
LINE
  5
BB5
  8
1
 10
1.500000037399985
 20
-29.70136454339999
 30
0.0
 11
3.987796517999982
 21
-30.54092512950001
 31
0.0
  0
LINE
  5
BB6
  8
1
 10
4.03465638199998
 20
30.5026843142
 30
0.0
 11
1.499999999899984
 21
29.6372041155
 31
0.0
  0
POLYLINE
  5
BB7
  8
1
 66
     1
 10
0.0
 20
0.0
 30
0.0
  0
VERTEX
  5
1A6C
  8
1
 10
18.81621828999999
 20
-30.4787564463
 30
0.0
  0
VERTEX
  5
1A6D
  8
1
 10
18.6790188139
 20
-30.52721612650001
 30
0.0
  0
VERTEX
  5
1A6E
  8
1
 10
18.54999999999998
 20
-30.54092502470002
 30
0.0
  0
SEQEND
  5
2080
  8
1
  0
ARC
  5
BB8
  8
1
 10
18.55943835959999
 20
29.86640550269999
 30
0.0
 40
0.6363486869715145
 50
60.60134603479981
 51
90.84984539750005
  0
ARC
  5
BB9
  8
1
 10
18.35098180669999
 20
29.95429978019999
 30
0.0
 40
0.6992094391558102
 50
1.340108450200791
 51
41.85091720829973
  0
LINE
  5
BBA
  8
1
 10
19.04999999999998
 20
29.97065231189998
 30
0.0
 11
19.04999999999998
 21
-29.97065231190001
 31
0.0
  0
ARC
  5
BBB
  8
1
 10
18.33294041069999
 20
-29.9485632036
 30
0.0
 40
0.7173997374297006
 50
312.3495695874001
 51
358.2355544919003
  0
ARC
  5
BBC
  8
1
 10
9.7449695926
 20
27.30906555679999
 30
0.0
 40
0.5407677835436584
 50
176.8865704259999
 51
265.761250323199
  0
ARC
  5
BBD
  8
1
 10
9.7179331838
 20
-27.29360212969999
 30
0.0
 40
0.4775741781478385
 50
91.55181642760164
 51
147.4596417165987
  0
ARC
  5
BBE
  8
1
 10
12.52505146019999
 20
27.30025443439999
 30
0.0
 40
0.5313222205439724
 50
273.2312498579008
 51
4.120929392898505
  0
ARC
  5
BBF
  8
1
 10
12.53972316129997
 20
-27.2977060387
 30
0.0
 40
0.4817452194643697
 50
32.86161398089808
 51
88.18276318630117
  0
LINE
  5
BC0
  8
1
 10
12.55499999999998
 20
26.7697769259
 30
0.0
 11
9.704999999999984
 21
26.7697769259
 31
0.0
  0
LINE
  5
BC1
  8
1
 10
9.704999999999984
 20
-26.81620310549999
 30
0.0
 11
12.55499999999998
 21
-26.81620310549999
 31
0.0
  0
LINE
  5
BC4
  8
1
 10
0.2999999999999829
 20
0.0
 30
0.0
 11
0.2999999999999829
 21
21.92499999999998
 31
0.0
  0
LINE
  5
BC5
  8
1
 10
0.2999999999999829
 20
-21.92500000000001
 30
0.0
 11
0.2999999999999829
 21
0.0
 31
0.0
  0
LINE
  5
BC6
  8
1
 10
0.0
 20
0.0
 30
0.0
 11
0.0
 21
22.22499999999999
 31
0.0
  0
LINE
  5
BC7
  8
1
 10
0.0
 20
-22.22499999999999
 30
0.0
 11
0.0
 21
0.0
 31
0.0
  0
LINE
  5
BCA
  8
SK1
 10
-68.25
 20
0.0
 30
0.0
 11
-68.25
 21
11.40703779609998
 31
0.0
  0
LINE
  5
BCB
  8
SK1
 10
-68.25
 20
-11.4070377962
 30
0.0
 11
-68.25
 21
0.0
 31
0.0
  0
LINE
  5
BCC
  8
1
 10
7.567468496899977
 20
30.50268419069999
 30
0.0
 11
7.6038324612
 21
30.49243719839998
 31
0.0
  0
LINE
  5
BCD
  8
1
 10
3.987796517999982
 20
-30.54092512950001
 30
0.0
 11
1.499999999899984
 21
-29.7013645289
 31
0.0
  0
LINE
  5
BDE
  8
3
 10
1.0
 20
-22.59999999999999
 30
0.0
 11
3.699999999999989
 21
-22.59999999999999
 31
0.0
  0
LINE
  5
BDF
  8
3
 10
1.0
 20
25.02000000000001
 30
0.0
 11
3.699999999999989
 21
25.02000000000001
 31
0.0
  0
LINE
  5
BE8
  8
3
 10
18.25
 20
25.02000000000001
 30
0.0
 11
19.04999999999998
 21
25.02000000000001
 31
0.0
  0
LINE
  5
BFE
  8
3
 10
3.699999999999989
 20
-22.59999999999999
 30
0.0
 11
26.69999999999999
 21
-22.59999999999999
 31
0.0
  0
LINE
  5
C08
  8
3
 10
3.699999999999989
 20
25.02000000000001
 30
0.0
 11
26.69999999999999
 21
25.01999999999998
 31
0.0
  0
LINE
  5
C10
  8
3
 10
11.13
 20
21.22
 30
0.0
 11
17.47999999999999
 21
21.22
 31
0.0
  0
LINE
  5
C11
  8
3
 10
4.780000000000001
 20
21.22
 30
0.0
 11
11.13
 21
21.22
 31
0.0
  0
LINE
  5
C12
  8
3
 10
11.13
 20
21.21000000000001
 30
0.0
 11
15.88
 21
21.21000000000001
 31
0.0
  0
LINE
  5
C13
  8
3
 10
6.379999999999995
 20
21.21000000000001
 30
0.0
 11
11.13
 21
21.21000000000001
 31
0.0
  0
LINE
  5
C26
  8
3
 10
4.780000000000001
 20
25.02000000000001
 30
0.0
 11
4.780000000000001
 21
21.22
 31
0.0
  0
LINE
  5
C27
  8
3
 10
17.47999999999999
 20
21.22
 30
0.0
 11
17.47999999999999
 21
25.02000000000001
 31
0.0
  0
LINE
  5
C28
  8
3
 10
6.379999999999995
 20
21.22
 30
0.0
 11
6.379999999999995
 21
21.21000000000001
 31
0.0
  0
LINE
  5
C29
  8
3
 10
15.88
 20
21.21000000000001
 30
0.0
 11
15.88
 21
21.22
 31
0.0
  0
LINE
  5
C2A
  8
3
 10
6.379999999999995
 20
21.21000000000001
 30
0.0
 11
11.13
 21
18.3559120596
 31
0.0
  0
LINE
  5
C2B
  8
3
 10
11.13
 20
18.3559120596
 30
0.0
 11
15.88
 21
21.21000000000001
 31
0.0
  0
LINE
  5
C2D
  8
1
 10
0.799999999999983
 20
21.92499999999998
 30
0.0
 11
0.799999999999983
 21
-21.92500000000001
 31
0.0
  0
LINE
  5
C2F
  8
1
 10
9.704999999999984
 20
26.26568698759999
 30
0.0
 11
9.704999999999984
 21
-26.08092552630001
 31
0.0
  0
LINE
  5
C30
  8
1
 10
12.55499999999998
 20
26.26578903699999
 30
0.0
 11
12.55499999999998
 21
-26.08072526110001
 31
0.0
  0
LINE
  5
C31
  8
1
 10
18.54999999999998
 20
30.50268419069999
 30
0.0
 11
18.54999999999998
 21
-30.54092502470002
 31
0.0
  0
LINE
  5
C32
  8
1
 10
1.5
 20
-29.7013645289
 30
0.0
 11
1.5
 21
29.6372041155
 31
0.0
  0
LINE
  5
C92
  8
SK4
 10
0.0
 20
0.0
 30
0.0
 11
-68.25
 21
0.0
 31
0.0
  0
TEXT
  5
D44
  8
SK6
 10
-66.17909534664395
 20
47.33203563714093
 30
0.0
 40
3.5
  1
BIG KAISER
 41
0.85
  0
TEXT
  5
D45
  8
SK6
 10
-66.17909534664395
 20
42.08203563714093
 30
0.0
 40
3.5
  1
BCV40H-SMC1.250-2.5
 41
0.85
  0
INSERT
  5
D46
  8
SK6
  2
_FILLED
 10
-17.9836627818344
 20
-19.60235774778011
 30
0.0
 41
3.5
 42
3.5
 43
3.5
 50
55.49325986033524
  0
POLYLINE
  5
D47
  8
SK6
 66
     1
 10
0.0
 20
0.0
 30
0.0
  0
VERTEX
  5
1A6F
  8
SK6
 10
-19.966423916232
 20
-22.48656618059532
 30
0.0
  0
VERTEX
  5
1A70
  8
SK6
 10
-33.4822656830344
 20
-42.14728280658011
 30
0.0
  0
VERTEX
  5
1A71
  8
SK6
 10
-35.35726568303438
 20
-40.39728280658011
 30
0.0
  0
VERTEX
  5
1A72
  8
SK6
 10
-38.85726568303438
 20
-40.39728280658011
 30
0.0
  0
SEQEND
  5
207F
  8
SK6
  0
TEXT
  5
D48
  8
SK6
 10
-53.86143234970106
 20
-43.89728280658011
 30
0.0
 40
3.5
  1
BCV40
 41
0.85
  0
ARC
  5
F46
  8
SK1
 10
63.69999999999999
 20
-16.07499999999999
 30
0.0
 40
0.4000000000000023
 50
75.00000000000534
 51
119.9999999999987
  0
ARC
  5
F47
  8
SK1
 10
63.69999999999999
 20
16.07500000000002
 30
0.0
 40
0.4000000000000173
 50
239.9999999999942
 51
284.9999999999936
  0
LINE
  5
F48
  8
SK1
 10
64.49907116050002
 20
-15.875
 30
0.0
 11
79.5
 21
-15.875
 31
0.0
  0
LINE
  5
F49
  8
SK1
 10
79.5
 20
15.875
 30
0.0
 11
64.49907116050002
 21
15.875
 31
0.0
  0
ARC
  5
F4A
  8
SK1
 10
79.5
 20
-14.375
 30
0.0
 40
1.5
 50
270.0
 51
0.0
  0
ARC
  5
F4B
  8
SK1
 10
79.5
 20
14.375
 30
0.0
 40
1.5
 50
0.0
 51
90.0
  0
LINE
  5
F4C
  8
SK1
 10
64.49907116050002
 20
15.875
 30
0.0
 11
63.80352761800003
 21
15.68862966950002
 31
0.0
  0
LINE
  5
F4D
  8
SK1
 10
63.80352761800003
 20
-15.68862966949999
 30
0.0
 11
64.49907116050002
 21
-15.875
 31
0.0
  0
LINE
  5
F50
  8
SK1
 10
94.488
 20
19.05000000000001
 30
0.0
 11
83.31199999999995
 21
19.05000000000001
 31
0.0
  0
LINE
  5
F51
  8
SK1
 10
83.31199999999995
 20
-19.04999999999998
 30
0.0
 11
94.488
 21
-19.04999999999998
 31
0.0
  0
LINE
  5
F52
  8
SK1
 10
94.488
 20
-19.04999999999998
 30
0.0
 11
95.25
 21
-18.28799999999998
 31
0.0
  0
LINE
  5
F53
  8
SK1
 10
95.25
 20
18.28800000000001
 30
0.0
 11
94.488
 21
19.05000000000001
 31
0.0
  0
LINE
  5
F54
  8
SK1
 10
83.31199999999995
 20
19.05000000000001
 30
0.0
 11
82.55000000000001
 21
18.28800000000001
 31
0.0
  0
LINE
  5
F55
  8
SK1
 10
82.55000000000001
 20
-18.28799999999998
 30
0.0
 11
83.31199999999995
 21
-19.04999999999998
 31
0.0
  0
ARC
  5
F56
  8
SK1
 10
81.73719999999997
 20
-8.750299999999982
 30
0.0
 40
0.81280000000001
 50
0.0
 51
90.0
  0
ARC
  5
F57
  8
SK1
 10
81.73719999999997
 20
8.75030000000001
 30
0.0
 40
0.81280000000001
 50
270.0
 51
0.0
  0
LINE
  5
F58
  8
SK1
 10
81.73719999999997
 20
7.9375
 30
0.0
 11
81.0
 21
7.9375
 31
0.0
  0
LINE
  5
F59
  8
SK1
 10
81.0
 20
-7.9375
 30
0.0
 11
81.73719999999997
 21
-7.9375
 31
0.0
  0
LINE
  5
F5A
  8
SK1
 10
63.52833781249996
 20
-19.04619
 30
0.0
 11
63.5
 21
-19.04619
 31
0.0
  0
LINE
  5
F93
  8
SK1
 10
64.49907116050002
 20
0.0
 30
0.0
 11
64.49907116050002
 21
15.875
 31
0.0
  0
LINE
  5
F94
  8
SK1
 10
64.49907116050002
 20
-15.875
 30
0.0
 11
64.49907116050002
 21
0.0
 31
0.0
  0
LINE
  5
F95
  8
SK1
 10
81.0
 20
0.0
 30
0.0
 11
81.0
 21
14.375
 31
0.0
  0
LINE
  5
F96
  8
SK1
 10
81.0
 20
-14.375
 30
0.0
 11
81.0
 21
0.0
 31
0.0
  0
LINE
  5
FA1
  8
SK1
 10
94.488
 20
19.05000000000001
 30
0.0
 11
94.488
 21
-19.04999999999998
 31
0.0
  0
LINE
  5
FA2
  8
SK1
 10
83.31199999999995
 20
19.05000000000001
 30
0.0
 11
83.31199999999995
 21
-19.04999999999998
 31
0.0
  0
LINE
  5
FA3
  8
SK1
 10
95.25
 20
18.28800000000001
 30
0.0
 11
95.25
 21
-18.28799999999998
 31
0.0
  0
LINE
  5
FA4
  8
SK1
 10
82.55000000000001
 20
18.28800000000001
 30
0.0
 11
82.55000000000001
 21
-18.28799999999998
 31
0.0
  0
LINE
  5
FA5
  8
SK1
 10
69.9008
 20
-19.04999999999998
 30
0.0
 11
63.5
 21
-19.04999999999998
 31
0.0
  0
LINE
  5
FA6
  8
SK1
 10
69.9008
 20
-19.04999999999998
 30
0.0
 11
69.9008
 21
-31.75
 31
0.0
  0
LINE
  5
FA7
  8
SK1
 10
69.9008
 20
-31.75
 30
0.0
 11
63.5
 21
-31.75
 31
0.0
  0
LINE
  5
FA8
  8
SK1
 10
69.9008
 20
31.75
 30
0.0
 11
63.5
 21
31.75
 31
0.0
  0
LINE
  5
FA9
  8
SK1
 10
69.9008
 20
31.75
 30
0.0
 11
69.9008
 21
19.05000000000001
 31
0.0
  0
LINE
  5
FAA
  8
SK1
 10
69.9008
 20
19.05000000000001
 30
0.0
 11
63.5
 21
19.05000000000001
 31
0.0
  0
LINE
  5
FCD
  8
SK3
 10
80.13398377599998
 20
-8.5
 30
0.0
 11
80.13398377599998
 21
8.5
 31
0.0
  0
LINE
  5
FD0
  8
SK3
 10
78.0
 20
8.5
 30
0.0
 11
78.0
 21
-8.5
 31
0.0
  0
LINE
  5
104E
  8
SK3
 10
87.3125
 20
2.00660000000002
 30
0.0
 11
87.3125
 21
0.0
 31
0.0
  0
LINE
  5
104F
  8
SK3
 10
87.3125
 20
0.0
 30
0.0
 11
95.25
 21
0.0
 31
0.0
  0
LINE
  5
1050
  8
SK3
 10
87.3125
 20
0.0
 30
0.0
 11
87.3125
 21
-2.006599999999992
 31
0.0
  0
LINE
  5
1051
  8
SK3
 10
86.35999999999996
 20
4.013200000000012
 30
0.0
 11
86.35999999999996
 21
-4.013199999999983
 31
0.0
  0
LINE
  5
1052
  8
SK3
 10
87.3125
 20
-2.006599999999992
 30
0.0
 11
87.3125
 21
-4.013199999999983
 31
0.0
  0
LINE
  5
1053
  8
SK3
 10
87.3125
 20
4.013200000000012
 30
0.0
 11
87.3125
 21
2.00660000000002
 31
0.0
  0
LINE
  5
1054
  8
SK3
 10
87.3125
 20
-4.013199999999983
 30
0.0
 11
95.25
 21
-4.013199999999983
 31
0.0
  0
LINE
  5
1055
  8
SK3
 10
87.3125
 20
4.013200000000012
 30
0.0
 11
95.25
 21
4.013200000000012
 31
0.0
  0
LINE
  5
1066
  8
SK3
 10
81.0
 20
2.0
 30
0.0
 11
63.5
 21
2.0
 31
0.0
  0
LINE
  5
1067
  8
SK3
 10
63.5
 20
-2.0
 30
0.0
 11
81.0
 21
-2.0
 31
0.0
  0
LINE
  5
1070
  8
SK3
 10
81.0
 20
8.999994700000002
 30
0.0
 11
80.13398377599998
 21
8.5
 31
0.0
  0
LINE
  5
1071
  8
SK3
 10
80.13398377599998
 20
-8.5
 30
0.0
 11
81.0
 21
-8.999994700000002
 31
0.0
  0
LINE
  5
1072
  8
SK3
 10
80.13398377599998
 20
8.5
 30
0.0
 11
78.0
 21
8.5
 31
0.0
  0
LINE
  5
1073
  8
SK3
 10
78.0
 20
-8.5
 30
0.0
 11
80.13398377599998
 21
-8.5
 31
0.0
  0
LINE
  5
107A
  8
SK3
 10
78.0
 20
7.34187
 30
0.0
 11
63.5
 21
7.34187
 31
0.0
  0
LINE
  5
107B
  8
SK3
 10
63.5
 20
-7.34187
 30
0.0
 11
78.0
 21
-7.34187
 31
0.0
  0
LINE
  5
109B
  8
SK3
 10
81.0
 20
-7.959292143499994
 30
0.0
 11
63.5
 21
-7.959292143499994
 31
0.0
  0
LINE
  5
109C
  8
SK3
 10
63.5
 20
-11.95929214349999
 30
0.0
 11
81.0
 21
-11.95929214349999
 31
0.0
  0
LINE
  5
10A1
  8
SK3
 10
81.0
 20
11.95929214349999
 30
0.0
 11
63.5
 21
11.95929214349999
 31
0.0
  0
LINE
  5
10A2
  8
SK3
 10
63.5
 20
7.959292143499994
 30
0.0
 11
81.0
 21
7.959292143499994
 31
0.0
  0
LINE
  5
110F
  8
SK3
 10
81.0
 20
7.9375
 30
0.0
 11
63.5
 21
7.9375
 31
0.0
  0
LINE
  5
1110
  8
SK3
 10
63.5
 20
-7.9375
 30
0.0
 11
81.0
 21
-7.9375
 31
0.0
  0
LINE
  5
1113
  8
SK3
 10
86.35999999999996
 20
4.013200000000012
 30
0.0
 11
83.9486261637
 21
0.0
 31
0.0
  0
LINE
  5
1114
  8
SK3
 10
83.9486261637
 20
0.0
 30
0.0
 11
86.35999999999996
 21
-4.013199999999983
 31
0.0
  0
LINE
  5
1115
  8
SK3
 10
87.3125
 20
4.013200000000012
 30
0.0
 11
86.35999999999996
 21
4.013200000000012
 31
0.0
  0
LINE
  5
1116
  8
SK3
 10
86.35999999999996
 20
-4.013199999999983
 30
0.0
 11
87.3125
 21
-4.013199999999983
 31
0.0
  0
LINE
  5
112F
  8
SK1
 10
63.80352761800003
 20
15.68862966950002
 30
0.0
 11
63.80352761800003
 21
-15.68862966949999
 31
0.0
  0
LINE
  5
1130
  8
SK1
 10
79.5
 20
15.875
 30
0.0
 11
79.5
 21
-15.875
 31
0.0
  0
LINE
  5
113F
  8
SK1
 10
81.73719999999997
 20
7.9375
 30
0.0
 11
81.73719999999997
 21
-7.9375
 31
0.0
  0
LINE
  5
1142
  8
1
 10
46.0
 20
-34.94999999999999
 30
0.0
 11
62.5
 21
-34.94999999999999
 31
0.0
  0
LINE
  5
1144
  8
1
 10
62.5
 20
34.95000000000002
 30
0.0
 11
46.0
 21
34.95000000000002
 31
0.0
  0
ARC
  5
1145
  8
1
 10
62.5
 20
-33.94999999999999
 30
0.0
 40
1.0
 50
270.0
 51
0.0
  0
ARC
  5
1146
  8
1
 10
62.5
 20
33.95000000000002
 30
0.0
 40
1.0
 50
0.0
 51
90.0
  0
ARC
  5
1147
  8
1
 10
46.0
 20
33.95000000000002
 30
0.0
 40
1.0
 50
90.0
 51
180.0
  0
ARC
  5
1148
  8
1
 10
46.0
 20
-33.94999999999999
 30
0.0
 40
1.0
 50
180.0
 51
270.0
  0
ARC
  5
1149
  8
1
 10
43.0
 20
33.40000000000001
 30
0.0
 40
2.0
 50
270.0
 51
0.0
  0
ARC
  5
114A
  8
1
 10
43.0
 20
-33.40000000000001
 30
0.0
 40
2.0
 50
0.0
 51
90.0
  0
LINE
  5
114B
  8
1
 10
29.18400012529997
 20
-31.40000000000001
 30
0.0
 11
43.0
 21
-31.40000000000001
 31
0.0
  0
LINE
  5
114C
  8
1
 10
43.0
 20
31.40000000000001
 30
0.0
 11
29.18400012529997
 21
31.40000000000001
 31
0.0
  0
LINE
  5
116A
  8
1
 10
63.5
 20
-31.75380999999999
 30
0.0
 11
63.52833781249996
 21
-31.75380999999999
 31
0.0
  0
LINE
  5
116B
  8
1
 10
63.52833781249996
 20
31.75381000000002
 30
0.0
 11
63.5
 21
31.75381000000002
 31
0.0
  0
LINE
  5
116C
  8
1
 10
63.5
 20
19.04619
 30
0.0
 11
63.52833781249996
 21
19.04619
 31
0.0
  0
CIRCLE
  5
116D
  8
1
 10
55.5
 20
0.0
 30
0.0
 40
2.624999999999943
  0
LINE
  5
116E
  8
1
 10
63.5
 20
0.0
 30
0.0
 11
63.5
 21
33.95000000000002
 31
0.0
  0
LINE
  5
116F
  8
1
 10
63.5
 20
-33.94999999999999
 30
0.0
 11
63.5
 21
0.0
 31
0.0
  0
LINE
  5
1170
  8
1
 10
45.0
 20
-33.94999999999999
 30
0.0
 11
45.0
 21
33.95000000000002
 31
0.0
  0
CIRCLE
  5
1171
  8
1
 10
55.5
 20
0.0
 30
0.0
 40
2.525000000000006
  0
LINE
  5
118E
  8
1
 10
20.69999999999999
 20
-30.0665282583
 30
0.0
 11
20.69999999999999
 21
30.06652825840001
 31
0.0
  0
LINE
  5
118F
  8
1
 10
20.69999999999999
 20
30.06652825840001
 30
0.0
 11
21.04641016149998
 21
30.2411704772
 31
0.0
  0
LINE
  5
1190
  8
1
 10
21.04641016149998
 20
-30.24117047709998
 30
0.0
 11
21.04641016149998
 21
30.2411704772
 31
0.0
  0
LINE
  5
1191
  8
1
 10
21.04641016149998
 20
-30.24117047709998
 30
0.0
 11
20.69999999999999
 21
-30.0665282583
 31
0.0
  0
POLYLINE
  5
1192
  8
1
 66
     1
 10
0.0
 20
0.0
 30
0.0
  0
VERTEX
  5
1A73
  8
1
 10
21.04641016149998
 20
30.2411704772
 30
0.0
  0
VERTEX
  5
1A74
  8
1
 10
23.34244053309999
 20
30.4027257207
 30
0.0
  0
VERTEX
  5
1A75
  8
1
 10
24.90745344859999
 20
30.58864939930001
 30
0.0
  0
VERTEX
  5
1A76
  8
1
 10
26.35550425280002
 20
30.81376389010001
 30
0.0
  0
VERTEX
  5
1A77
  8
1
 10
27.4926144579
 20
31.025183089
 30
0.0
  0
VERTEX
  5
1A78
  8
1
 10
28.41022555939998
 20
31.21731406430001
 30
0.0
  0
VERTEX
  5
1A79
  8
1
 10
28.9300979784
 20
31.33447608010002
 30
0.0
  0
VERTEX
  5
1A7A
  8
1
 10
29.19049814030001
 20
31.3953797538
 30
0.0
  0
VERTEX
  5
1A7B
  8
1
 10
29.18400012529997
 20
31.39384271860001
 30
0.0
  0
SEQEND
  5
207E
  8
1
  0
ARC
  5
1193
  8
1
 10
19.00265866440003
 20
-73.970620808
 30
0.0
 40
43.77718294300798
 50
76.551463863
 51
87.32415597840006
  0
LINE
  5
1196
  8
1
 10
19.04999999999995
 20
30.039723571876
 30
0.0
 11
20.69999999999999
 21
30.06652825840001
 31
0.0
  0
LINE
  5
1197
  8
1
 10
20.69999999999999
 20
-30.0665282583
 30
0.0
 11
19.0445360445006
 21
-30.03963480850581
 31
0.0
  0
LINE
  5
11A8
  8
1
 10
56.75
 20
0.7216878364999957
 30
0.0
 11
55.5
 21
1.44337567300002
 31
0.0
  0
LINE
  5
11A9
  8
1
 10
54.25
 20
0.7216878364999957
 30
0.0
 11
55.5
 21
1.44337567300002
 31
0.0
  0
LINE
  5
11AA
  8
1
 10
56.75
 20
-0.7216878364999957
 30
0.0
 11
55.5
 21
-1.443375672999991
 31
0.0
  0
LINE
  5
11AB
  8
1
 10
56.75
 20
-0.7216878364999957
 30
0.0
 11
56.75
 21
0.7216878364999957
 31
0.0
  0
CIRCLE
  5
11AC
  8
1
 10
55.5
 20
0.0
 30
0.0
 40
2.054999999999978
  0
LINE
  5
11AD
  8
1
 10
54.25
 20
-0.7216878364999957
 30
0.0
 11
54.25
 21
0.7216878364999957
 31
0.0
  0
LINE
  5
11AE
  8
1
 10
54.25
 20
-0.7216878364999957
 30
0.0
 11
55.5
 21
-1.443375672999991
 31
0.0
  0
CIRCLE
  5
11AF
  8
1
 10
55.5
 20
0.0
 30
0.0
 40
2.256103126841964
  0
POLYLINE
  5
11CB
  8
3
 66
     1
 10
0.0
 20
0.0
 30
0.0
  0
VERTEX
  5
1A7C
  8
3
 10
58.125
 20
30.26758786230002
 30
0.0
  0
VERTEX
  5
1A7D
  8
3
 10
57.97751101360001
 20
30.69201482330001
 30
0.0
  0
VERTEX
  5
1A7E
  8
3
 10
57.5518877952
 20
31.05295459410002
 30
0.0
  0
VERTEX
  5
1A7F
  8
3
 10
56.89472017559996
 20
31.3181655626
 30
0.0
  0
VERTEX
  5
1A80
  8
3
 10
56.07917037120001
 20
31.46641812359999
 30
0.0
  0
VERTEX
  5
1A81
  8
3
 10
55.19960790810001
 20
31.48709473709999
 30
0.0
  0
VERTEX
  5
1A82
  8
3
 10
54.35564144860001
 20
31.37957636100001
 30
0.0
  0
VERTEX
  5
1A83
  8
3
 10
53.63957072369999
 20
31.15100486310001
 30
0.0
  0
VERTEX
  5
1A84
  8
3
 10
53.13136793170003
 20
30.81745378159999
 30
0.0
  0
VERTEX
  5
1A85
  8
3
 10
52.89030005390003
 20
30.40809749320002
 30
0.0
  0
VERTEX
  5
1A86
  8
3
 10
52.94342546030003
 20
29.96547364130001
 30
0.0
  0
VERTEX
  5
1A87
  8
3
 10
53.28320351989998
 20
29.54016159080001
 30
0.0
  0
VERTEX
  5
1A88
  8
3
 10
53.87253348919995
 20
29.18518310330001
 30
0.0
  0
VERTEX
  5
1A89
  8
3
 10
54.64668017299999
 20
28.94992528900002
 30
0.0
  0
VERTEX
  5
1A8A
  8
3
 10
54.9708155985
 20
28.92000575770001
 30
0.0
  0
SEQEND
  5
207D
  8
3
  0
POLYLINE
  5
11CE
  8
3
 66
     1
 10
0.0
 20
0.0
 30
0.0
  0
VERTEX
  5
1A8B
  8
3
 10
56.00705509639999
 20
28.91836423540002
 30
0.0
  0
VERTEX
  5
1A8C
  8
3
 10
56.38258895270002
 20
28.95568376810002
 30
0.0
  0
VERTEX
  5
1A8D
  8
3
 10
57.14921359580001
 20
29.1947536115
 30
0.0
  0
VERTEX
  5
1A8E
  8
3
 10
57.73200125290003
 20
29.55313380270002
 30
0.0
  0
VERTEX
  5
1A8F
  8
3
 10
58.06367783389999
 20
29.98160784660001
 30
0.0
  0
VERTEX
  5
1A90
  8
3
 10
58.125
 20
30.26758786230002
 30
0.0
  0
SEQEND
  5
207C
  8
3
  0
ARC
  5
11CF
  8
3
 10
56.22774883200003
 20
-30.92444647009998
 30
0.0
 40
2.007741324195496
 50
19.09666928110051
 51
92.66276542950054
  0
POLYLINE
  5
11D0
  8
3
 66
     1
 10
0.0
 20
0.0
 30
0.0
  0
VERTEX
  5
1A91
  8
3
 10
54.97417283030001
 20
-28.9161496971
 30
0.0
  0
VERTEX
  5
1A92
  8
3
 10
54.35564144860001
 20
-29.01714784219999
 30
0.0
  0
VERTEX
  5
1A93
  8
3
 10
53.63957072369999
 20
-29.29913340209998
 30
0.0
  0
VERTEX
  5
1A94
  8
3
 10
53.13136793170003
 20
-29.6859913982
 30
0.0
  0
VERTEX
  5
1A95
  8
3
 10
52.89030005390003
 20
-30.1250936207
 30
0.0
  0
VERTEX
  5
1A96
  8
3
 10
52.94342546030003
 20
-30.56091601750001
 30
0.0
  0
VERTEX
  5
1A97
  8
3
 10
53.28320351989998
 20
-30.9460201775
 30
0.0
  0
VERTEX
  5
1A98
  8
3
 10
53.87253348919995
 20
-31.24478931709999
 30
0.0
  0
VERTEX
  5
1A99
  8
3
 10
54.64668017299999
 20
-31.43235761899999
 30
0.0
  0
VERTEX
  5
1A9A
  8
3
 10
55.51661372550001
 20
-31.4945729314
 30
0.0
  0
VERTEX
  5
1A9B
  8
3
 10
56.38258895270002
 20
-31.42786129819999
 30
0.0
  0
VERTEX
  5
1A9C
  8
3
 10
57.14921359580001
 20
-31.2369875636
 30
0.0
  0
VERTEX
  5
1A9D
  8
3
 10
57.73200125290003
 20
-30.9347254235
 30
0.0
  0
VERTEX
  5
1A9E
  8
3
 10
58.06367783389999
 20
-30.5456831642
 30
0.0
  0
VERTEX
  5
1A9F
  8
3
 10
58.125
 20
-30.2675878622
 30
0.0
  0
VERTEX
  5
1AA0
  8
3
 10
58.125
 20
-30.2675878622
 30
0.0
  0
SEQEND
  5
207B
  8
3
  0
CIRCLE
  5
11D1
  8
3
 10
55.5
 20
0.0
 30
0.0
 40
2.099999999999994
  0
LINE
  5
11D3
  8
3
 10
51.0
 20
2.0
 30
0.0
 11
51.0
 21
-2.0
 31
0.0
  0
LINE
  5
11EE
  8
3
 10
42.19999999999999
 20
7.34187
 30
0.0
 11
42.19999999999999
 21
-7.34187
 31
0.0
  0
POLYLINE
  5
11EF
  8
3
 66
     1
 10
0.0
 20
0.0
 30
0.0
  0
VERTEX
  5
1AA1
  8
3
 10
55.5
 20
7.142601359300016
 30
0.0
  0
VERTEX
  5
1AA2
  8
3
 10
56.17881147060001
 20
7.114528594999996
 30
0.0
  0
VERTEX
  5
1AA3
  8
3
 10
56.7807739406
 20
7.0248524422
 30
0.0
  0
VERTEX
  5
1AA4
  8
3
 10
57.25604233339999
 20
6.855363423800014
 30
0.0
  0
VERTEX
  5
1AA5
  8
3
 10
57.54069591729996
 20
6.591516763200019
 30
0.0
  0
VERTEX
  5
1AA6
  8
3
 10
57.5901991499
 20
6.254497762499994
 30
0.0
  0
VERTEX
  5
1AA7
  8
3
 10
57.41657023429997
 20
5.885470292799994
 30
0.0
  0
VERTEX
  5
1AA8
  8
3
 10
57.04061961500003
 20
5.523451856700007
 30
0.0
  0
VERTEX
  5
1AA9
  8
3
 10
56.48159824329997
 20
5.223388291399999
 30
0.0
  0
VERTEX
  5
1AAA
  8
3
 10
55.80233887180003
 20
5.059163961699994
 30
0.0
  0
VERTEX
  5
1AAB
  8
3
 10
55.10988140499995
 20
5.070238859900002
 30
0.0
  0
VERTEX
  5
1AAC
  8
3
 10
54.4762875326
 20
5.239977535799994
 30
0.0
  0
VERTEX
  5
1AAD
  8
3
 10
53.93923233970003
 20
5.538239863100017
 30
0.0
  0
VERTEX
  5
1AAE
  8
3
 10
53.5597170241
 20
5.918418927100021
 30
0.0
  0
VERTEX
  5
1AAF
  8
3
 10
53.40292034859999
 20
6.302167470499995
 30
0.0
  0
VERTEX
  5
1AB0
  8
3
 10
53.47917134599999
 20
6.624567060700002
 30
0.0
  0
VERTEX
  5
1AB1
  8
3
 10
53.76564118009998
 20
6.867043579300002
 30
0.0
  0
VERTEX
  5
1AB2
  8
3
 10
54.2461186493
 20
7.030900774800017
 30
0.0
  0
VERTEX
  5
1AB3
  8
3
 10
54.8831681337
 20
7.119658210599994
 30
0.0
  0
VERTEX
  5
1AB4
  8
3
 10
55.5
 20
7.142601359300016
 30
0.0
  0
SEQEND
  5
207A
  8
3
  0
POLYLINE
  5
11F0
  8
3
 66
     1
 10
0.0
 20
0.0
 30
0.0
  0
VERTEX
  5
1AB5
  8
3
 10
55.5
 20
-5.042601359200006
 30
0.0
  0
VERTEX
  5
1AB6
  8
3
 10
56.17881147060001
 20
-5.127265404699983
 30
0.0
  0
VERTEX
  5
1AB7
  8
3
 10
56.7807739406
 20
-5.360635475199985
 30
0.0
  0
VERTEX
  5
1AB8
  8
3
 10
57.25604233339999
 20
-5.703705782199989
 30
0.0
  0
VERTEX
  5
1AB9
  8
3
 10
57.54069591729996
 20
-6.095976479099988
 30
0.0
  0
VERTEX
  5
1ABA
  8
3
 10
57.5901991499
 20
-6.457148973800003
 30
0.0
  0
VERTEX
  5
1ABB
  8
3
 10
57.41657023429997
 20
-6.743816689400006
 30
0.0
  0
VERTEX
  5
1ABC
  8
3
 10
57.04061961500003
 20
-6.950508688599996
 30
0.0
  0
VERTEX
  5
1ABD
  8
3
 10
56.48159824329997
 20
-7.079853989599997
 30
0.0
  0
VERTEX
  5
1ABE
  8
3
 10
55.80233887180003
 20
-7.137286000100005
 30
0.0
  0
VERTEX
  5
1ABF
  8
3
 10
55.10988140499995
 20
-7.133684396299998
 30
0.0
  0
VERTEX
  5
1AC0
  8
3
 10
54.4762875326
 20
-7.073556763400006
 30
0.0
  0
VERTEX
  5
1AC1
  8
3
 10
53.93923233970003
 20
-6.943232500299985
 30
0.0
  0
VERTEX
  5
1AC2
  8
3
 10
53.5597170241
 20
-6.721725825699991
 30
0.0
  0
VERTEX
  5
1AC3
  8
3
 10
53.40292034859999
 20
-6.412878517799982
 30
0.0
  0
VERTEX
  5
1AC4
  8
3
 10
53.47917134599999
 20
-6.053382719799998
 30
0.0
  0
VERTEX
  5
1AC5
  8
3
 10
53.76564118009998
 20
-5.682982987900004
 30
0.0
  0
VERTEX
  5
1AC6
  8
3
 10
54.2461186493
 20
-5.34632915009999
 30
0.0
  0
VERTEX
  5
1AC7
  8
3
 10
54.8831681337
 20
-5.112292163000006
 30
0.0
  0
VERTEX
  5
1AC8
  8
3
 10
55.5
 20
-5.042601359200006
 30
0.0
  0
SEQEND
  5
2079
  8
3
  0
LINE
  5
11F1
  8
3
 10
40.79286254209995
 20
-5.0
 30
0.0
 11
40.79286254209995
 21
5.0
 31
0.0
  0
LINE
  5
11F2
  8
SK3
 10
-8.25
 20
0.0
 30
0.0
 11
-8.25
 21
6.700000000000004
 31
0.0
  0
LINE
  5
11F3
  8
SK3
 10
-8.25
 20
-6.700000000000003
 30
0.0
 11
-8.25
 21
0.0
 31
0.0
  0
LINE
  5
11F4
  8
SK3
 10
-7.23574727510001
 20
0.0
 30
0.0
 11
-7.23574727510001
 21
-5.0
 31
0.0
  0
LINE
  5
11F5
  8
SK3
 10
-7.23574727510001
 20
5.0
 30
0.0
 11
-7.23574727510001
 21
0.0
 31
0.0
  0
LINE
  5
11F6
  8
3
 10
48.5
 20
31.75050000000002
 30
0.0
 11
48.5
 21
19.04949999999999
 31
0.0
  0
LINE
  5
11F7
  8
3
 10
48.5
 20
-19.04949999999999
 30
0.0
 11
48.5
 21
-31.75049999999999
 31
0.0
  0
LINE
  5
11FA
  8
3
 10
22.5
 20
20.02000000000001
 30
0.0
 11
26.5
 21
20.02000000000001
 31
0.0
  0
LINE
  5
11FB
  8
3
 10
18.5
 20
20.02000000000001
 30
0.0
 11
22.5
 21
20.02000000000001
 31
0.0
  0
POLYLINE
  5
11FC
  8
3
 66
     1
 10
0.0
 20
0.0
 30
0.0
  0
VERTEX
  5
1AC9
  8
3
 10
56.68743420869998
 20
9.959292143499994
 30
0.0
  0
VERTEX
  5
1ACA
  8
3
 10
56.33071350799997
 20
9.453265142199996
 30
0.0
  0
VERTEX
  5
1ACB
  8
3
 10
56.193066558
 20
9.197810412899997
 30
0.0
  0
VERTEX
  5
1ACC
  8
3
 10
56.14145720699997
 20
8.992649534400016
 30
0.0
  0
VERTEX
  5
1ACD
  8
3
 10
56.16926547529999
 20
8.795409611400004
 30
0.0
  0
VERTEX
  5
1ACE
  8
3
 10
56.31240975639997
 20
8.558026521599999
 30
0.0
  0
VERTEX
  5
1ACF
  8
3
 10
56.7612023872
 20
8.178747309100004
 30
0.0
  0
VERTEX
  5
1AD0
  8
3
 10
57.26244969089998
 20
7.966347333100003
 30
0.0
  0
VERTEX
  5
1AD1
  8
3
 10
57.49671859419999
 20
7.996171789100003
 30
0.0
  0
VERTEX
  5
1AD2
  8
3
 10
57.59896407419996
 20
8.195206790700013
 30
0.0
  0
VERTEX
  5
1AD3
  8
3
 10
57.55243416139996
 20
8.49275846110001
 30
0.0
  0
VERTEX
  5
1AD4
  8
3
 10
57.40274057400001
 20
8.851869260600012
 30
0.0
  0
VERTEX
  5
1AD5
  8
3
 10
57.0654809664
 20
9.42200847640001
 30
0.0
  0
VERTEX
  5
1AD6
  8
3
 10
56.50877979900002
 20
10.2051346833
 30
0.0
  0
VERTEX
  5
1AD7
  8
3
 10
56.2826480155
 20
10.54389812780002
 30
0.0
  0
VERTEX
  5
1AD8
  8
3
 10
56.1623756697
 20
10.80887286160001
 30
0.0
  0
VERTEX
  5
1AD9
  8
3
 10
56.14198546979998
 20
10.9991363771
 30
0.0
  0
VERTEX
  5
1ADA
  8
3
 10
56.1899948734
 20
11.17363864110001
 30
0.0
  0
VERTEX
  5
1ADB
  8
3
 10
56.38676977739999
 20
11.4423764357
 30
0.0
  0
VERTEX
  5
1ADC
  8
3
 10
56.94378092549999
 20
11.8424305138
 30
0.0
  0
VERTEX
  5
1ADD
  8
3
 10
57.33023572659999
 20
11.958995582
 30
0.0
  0
VERTEX
  5
1ADE
  8
3
 10
57.53158622259997
 20
11.89485241650002
 30
0.0
  0
VERTEX
  5
1ADF
  8
3
 10
57.59958565459999
 20
11.67010904610001
 30
0.0
  0
VERTEX
  5
1AE0
  8
3
 10
57.53105246370001
 20
11.36169224740001
 30
0.0
  0
VERTEX
  5
1AE1
  8
3
 10
57.36184255019998
 20
10.9876602436
 30
0.0
  0
VERTEX
  5
1AE2
  8
3
 10
56.9897946255
 20
10.3842264557
 30
0.0
  0
VERTEX
  5
1AE3
  8
3
 10
56.68743420869998
 20
9.959292143499994
 30
0.0
  0
SEQEND
  5
2078
  8
3
  0
POLYLINE
  5
11FD
  8
3
 66
     1
 10
0.0
 20
0.0
 30
0.0
  0
VERTEX
  5
1AE4
  8
3
 10
55.5
 20
30.08350166190002
 30
0.0
  0
VERTEX
  5
1AE5
  8
3
 10
56.14893568809998
 20
30.032111004
 30
0.0
  0
VERTEX
  5
1AE6
  8
3
 10
56.7343490298
 20
29.88296950599999
 30
0.0
  0
VERTEX
  5
1AE7
  8
3
 10
57.19893568809999
 20
29.6506761768
 30
0.0
  0
VERTEX
  5
1AE8
  8
3
 10
57.49721868419999
 20
29.35796950600002
 30
0.0
  0
VERTEX
  5
1AE9
  8
3
 10
57.59999999999997
 20
29.0335016619
 30
0.0
  0
VERTEX
  5
1AEA
  8
3
 10
57.49721868419999
 20
28.70903381780002
 30
0.0
  0
VERTEX
  5
1AEB
  8
3
 10
57.19893568809999
 20
28.416327147
 30
0.0
  0
VERTEX
  5
1AEC
  8
3
 10
56.7343490298
 20
28.18403381780001
 30
0.0
  0
VERTEX
  5
1AED
  8
3
 10
56.14893568809998
 20
28.03489231980001
 30
0.0
  0
VERTEX
  5
1AEE
  8
3
 10
55.5
 20
27.98350166189999
 30
0.0
  0
VERTEX
  5
1AEF
  8
3
 10
54.85106431180003
 20
28.03489231980001
 30
0.0
  0
VERTEX
  5
1AF0
  8
3
 10
54.26565097010001
 20
28.18403381780001
 30
0.0
  0
VERTEX
  5
1AF1
  8
3
 10
53.80106431179996
 20
28.416327147
 30
0.0
  0
VERTEX
  5
1AF2
  8
3
 10
53.50278131570002
 20
28.70903381780002
 30
0.0
  0
VERTEX
  5
1AF3
  8
3
 10
53.40000000000003
 20
29.0335016619
 30
0.0
  0
VERTEX
  5
1AF4
  8
3
 10
53.50278131570002
 20
29.35796950600002
 30
0.0
  0
VERTEX
  5
1AF5
  8
3
 10
53.80106431179996
 20
29.6506761768
 30
0.0
  0
VERTEX
  5
1AF6
  8
3
 10
54.26565097010001
 20
29.88296950599999
 30
0.0
  0
VERTEX
  5
1AF7
  8
3
 10
54.85106431180003
 20
30.032111004
 30
0.0
  0
VERTEX
  5
1AF8
  8
3
 10
55.5
 20
30.08350166190002
 30
0.0
  0
SEQEND
  5
2077
  8
3
  0
POLYLINE
  5
11FE
  8
3
 66
     1
 10
0.0
 20
0.0
 30
0.0
  0
VERTEX
  5
1AF9
  8
3
 10
54.31256579120003
 20
9.959292143499994
 30
0.0
  0
VERTEX
  5
1AFA
  8
3
 10
53.75109016389996
 20
10.787499451
 30
0.0
  0
VERTEX
  5
1AFB
  8
3
 10
53.51062284929998
 20
11.25416683930001
 30
0.0
  0
VERTEX
  5
1AFC
  8
3
 10
53.40177186060004
 20
11.64660780360001
 30
0.0
  0
VERTEX
  5
1AFD
  8
3
 10
53.44405004480001
 20
11.86517626240001
 30
0.0
  0
VERTEX
  5
1AFE
  8
3
 10
53.59022767560003
 20
11.9541548782
 30
0.0
  0
VERTEX
  5
1AFF
  8
3
 10
53.92127092129999
 20
11.90139755430002
 30
0.0
  0
VERTEX
  5
1B00
  8
3
 10
54.47272230530001
 20
11.5707670514
 30
0.0
  0
VERTEX
  5
1B01
  8
3
 10
54.70579642809997
 20
11.3382079104
 30
0.0
  0
VERTEX
  5
1B02
  8
3
 10
54.83500349950003
 20
11.11070824770002
 30
0.0
  0
VERTEX
  5
1B03
  8
3
 10
54.85861074159999
 20
10.9269460836
 30
0.0
  0
VERTEX
  5
1B04
  8
3
 10
54.81269331209995
 20
10.73514610390001
 30
0.0
  0
VERTEX
  5
1B05
  8
3
 10
54.6228845393
 20
10.39418634170002
 30
0.0
  0
VERTEX
  5
1B06
  8
3
 10
54.07347615489999
 20
9.625888701999997
 30
0.0
  0
VERTEX
  5
1B07
  8
3
 10
53.67850865589998
 20
9.0050487357
 30
0.0
  0
VERTEX
  5
1B08
  8
3
 10
53.47256866339995
 20
8.566994553499995
 30
0.0
  0
VERTEX
  5
1B09
  8
3
 10
53.40019160610001
 20
8.21323187050001
 30
0.0
  0
VERTEX
  5
1B0A
  8
3
 10
53.46605088359996
 20
8.02613205740002
 30
0.0
  0
VERTEX
  5
1B0B
  8
3
 10
53.63276711459997
 20
7.959793777300007
 30
0.0
  0
VERTEX
  5
1B0C
  8
3
 10
54.00035665139995
 20
8.049870810700014
 30
0.0
  0
VERTEX
  5
1B0D
  8
3
 10
54.57646235980002
 20
8.43992082760002
 30
0.0
  0
VERTEX
  5
1B0E
  8
3
 10
54.76680828740001
 20
8.666049711200003
 30
0.0
  0
VERTEX
  5
1B0F
  8
3
 10
54.8499949866
 20
8.864006860199993
 30
0.0
  0
VERTEX
  5
1B10
  8
3
 10
54.8516214782
 20
9.048887460900005
 30
0.0
  0
VERTEX
  5
1B11
  8
3
 10
54.76678000010003
 20
9.284741073199996
 30
0.0
  0
VERTEX
  5
1B12
  8
3
 10
54.38545280490001
 20
9.859417565800015
 30
0.0
  0
VERTEX
  5
1B13
  8
3
 10
54.31256579120003
 20
9.959292143499994
 30
0.0
  0
SEQEND
  5
2076
  8
3
  0
POLYLINE
  5
11FF
  8
3
 66
     1
 10
0.0
 20
0.0
 30
0.0
  0
VERTEX
  5
1B14
  8
3
 10
56.68743420869998
 20
-9.959292143499994
 30
0.0
  0
VERTEX
  5
1B15
  8
3
 10
57.248909836
 20
-10.787499451
 30
0.0
  0
VERTEX
  5
1B16
  8
3
 10
57.48937715059998
 20
-11.25416683929998
 30
0.0
  0
VERTEX
  5
1B17
  8
3
 10
57.59822813930003
 20
-11.64660780360001
 30
0.0
  0
VERTEX
  5
1B18
  8
3
 10
57.5559499551
 20
-11.86517626239998
 30
0.0
  0
VERTEX
  5
1B19
  8
3
 10
57.40977232430004
 20
-11.9541548782
 30
0.0
  0
VERTEX
  5
1B1A
  8
3
 10
57.07872907860002
 20
-11.90139755429999
 30
0.0
  0
VERTEX
  5
1B1B
  8
3
 10
56.5272776946
 20
-11.5707670514
 30
0.0
  0
VERTEX
  5
1B1C
  8
3
 10
56.29420357179998
 20
-11.3382079104
 30
0.0
  0
VERTEX
  5
1B1D
  8
3
 10
56.16499650040004
 20
-11.1107082476
 30
0.0
  0
VERTEX
  5
1B1E
  8
3
 10
56.14138925829997
 20
-10.92694608349998
 30
0.0
  0
VERTEX
  5
1B1F
  8
3
 10
56.1873066878
 20
-10.73514610379999
 30
0.0
  0
VERTEX
  5
1B20
  8
3
 10
56.37711546060001
 20
-10.39418634169999
 30
0.0
  0
VERTEX
  5
1B21
  8
3
 10
56.92652384499996
 20
-9.625888701899981
 30
0.0
  0
VERTEX
  5
1B22
  8
3
 10
57.32149134399998
 20
-9.0050487357
 30
0.0
  0
VERTEX
  5
1B23
  8
3
 10
57.52743133659999
 20
-8.566994553499995
 30
0.0
  0
VERTEX
  5
1B24
  8
3
 10
57.5998083938
 20
-8.213231870499982
 30
0.0
  0
VERTEX
  5
1B25
  8
3
 10
57.53394911629999
 20
-8.026132057399991
 30
0.0
  0
VERTEX
  5
1B26
  8
3
 10
57.36723288529998
 20
-7.959793777300007
 30
0.0
  0
VERTEX
  5
1B27
  8
3
 10
56.9996433485
 20
-8.049870810599998
 30
0.0
  0
VERTEX
  5
1B28
  8
3
 10
56.42353764009999
 20
-8.439920827500003
 30
0.0
  0
VERTEX
  5
1B29
  8
3
 10
56.2331917125
 20
-8.666049711200003
 30
0.0
  0
VERTEX
  5
1B2A
  8
3
 10
56.15000501330002
 20
-8.864006860199993
 30
0.0
  0
VERTEX
  5
1B2B
  8
3
 10
56.14837852169995
 20
-9.048887460799989
 30
0.0
  0
VERTEX
  5
1B2C
  8
3
 10
56.23321999979999
 20
-9.284741073199996
 30
0.0
  0
VERTEX
  5
1B2D
  8
3
 10
56.614547195
 20
-9.8594175657
 30
0.0
  0
VERTEX
  5
1B2E
  8
3
 10
56.68743420869998
 20
-9.959292143499994
 30
0.0
  0
SEQEND
  5
2075
  8
3
  0
POLYLINE
  5
1200
  8
3
 66
     1
 10
0.0
 20
0.0
 30
0.0
  0
VERTEX
  5
1B2F
  8
3
 10
55.5
 20
-27.98350166189999
 30
0.0
  0
VERTEX
  5
1B30
  8
3
 10
56.14893568809998
 20
-28.03489231969999
 30
0.0
  0
VERTEX
  5
1B31
  8
3
 10
56.7343490298
 20
-28.18403381779999
 30
0.0
  0
VERTEX
  5
1B32
  8
3
 10
57.19893568809999
 20
-28.41632714689999
 30
0.0
  0
VERTEX
  5
1B33
  8
3
 10
57.49721868419999
 20
-28.70903381779999
 30
0.0
  0
VERTEX
  5
1B34
  8
3
 10
57.59999999999997
 20
-29.0335016619
 30
0.0
  0
VERTEX
  5
1B35
  8
3
 10
57.49721868419999
 20
-29.3579695059
 30
0.0
  0
VERTEX
  5
1B36
  8
3
 10
57.19893568809999
 20
-29.6506761768
 30
0.0
  0
VERTEX
  5
1B37
  8
3
 10
56.7343490298
 20
-29.88296950589998
 30
0.0
  0
VERTEX
  5
1B38
  8
3
 10
56.14893568809998
 20
-30.032111004
 30
0.0
  0
VERTEX
  5
1B39
  8
3
 10
55.5
 20
-30.08350166189999
 30
0.0
  0
VERTEX
  5
1B3A
  8
3
 10
54.85106431180003
 20
-30.032111004
 30
0.0
  0
VERTEX
  5
1B3B
  8
3
 10
54.26565097010001
 20
-29.88296950589998
 30
0.0
  0
VERTEX
  5
1B3C
  8
3
 10
53.80106431179996
 20
-29.6506761768
 30
0.0
  0
VERTEX
  5
1B3D
  8
3
 10
53.50278131570002
 20
-29.3579695059
 30
0.0
  0
VERTEX
  5
1B3E
  8
3
 10
53.40000000000003
 20
-29.0335016619
 30
0.0
  0
VERTEX
  5
1B3F
  8
3
 10
53.50278131570002
 20
-28.70903381779999
 30
0.0
  0
VERTEX
  5
1B40
  8
3
 10
53.80106431179996
 20
-28.41632714689999
 30
0.0
  0
VERTEX
  5
1B41
  8
3
 10
54.26565097010001
 20
-28.18403381779999
 30
0.0
  0
VERTEX
  5
1B42
  8
3
 10
54.85106431180003
 20
-28.03489231969999
 30
0.0
  0
VERTEX
  5
1B43
  8
3
 10
55.5
 20
-27.98350166189999
 30
0.0
  0
SEQEND
  5
2074
  8
3
  0
POLYLINE
  5
1201
  8
3
 66
     1
 10
0.0
 20
0.0
 30
0.0
  0
VERTEX
  5
1B44
  8
3
 10
54.31256579120003
 20
-9.959292143499994
 30
0.0
  0
VERTEX
  5
1B45
  8
3
 10
54.66928649189998
 20
-9.453265142199996
 30
0.0
  0
VERTEX
  5
1B46
  8
3
 10
54.80693344189996
 20
-9.197810412799981
 30
0.0
  0
VERTEX
  5
1B47
  8
3
 10
54.85854279289998
 20
-8.992649534399987
 30
0.0
  0
VERTEX
  5
1B48
  8
3
 10
54.83073452460002
 20
-8.795409611299988
 30
0.0
  0
VERTEX
  5
1B49
  8
3
 10
54.68759024349998
 20
-8.558026521499983
 30
0.0
  0
VERTEX
  5
1B4A
  8
3
 10
54.23879761270001
 20
-8.178747308999988
 30
0.0
  0
VERTEX
  5
1B4B
  8
3
 10
53.73755030900003
 20
-7.966347333100003
 30
0.0
  0
VERTEX
  5
1B4C
  8
3
 10
53.50328140569997
 20
-7.996171788999987
 30
0.0
  0
VERTEX
  5
1B4D
  8
3
 10
53.4010359257
 20
-8.195206790599997
 30
0.0
  0
VERTEX
  5
1B4E
  8
3
 10
53.4475658385
 20
-8.492758460999994
 30
0.0
  0
VERTEX
  5
1B4F
  8
3
 10
53.59725942590001
 20
-8.851869260499996
 30
0.0
  0
VERTEX
  5
1B50
  8
3
 10
53.93451903349995
 20
-9.422008476299993
 30
0.0
  0
VERTEX
  5
1B51
  8
3
 10
54.49122020089999
 20
-10.2051346833
 30
0.0
  0
VERTEX
  5
1B52
  8
3
 10
54.71735198439995
 20
-10.54389812779999
 30
0.0
  0
VERTEX
  5
1B53
  8
3
 10
54.83762433019996
 20
-10.80887286149999
 30
0.0
  0
VERTEX
  5
1B54
  8
3
 10
54.85801453009998
 20
-10.9991363771
 30
0.0
  0
VERTEX
  5
1B55
  8
3
 10
54.81000512650002
 20
-11.173638641
 30
0.0
  0
VERTEX
  5
1B56
  8
3
 10
54.61323022250002
 20
-11.4423764357
 30
0.0
  0
VERTEX
  5
1B57
  8
3
 10
54.05621907439996
 20
-11.8424305138
 30
0.0
  0
VERTEX
  5
1B58
  8
3
 10
53.66976427330002
 20
-11.958995582
 30
0.0
  0
VERTEX
  5
1B59
  8
3
 10
53.46841377729999
 20
-11.89485241649999
 30
0.0
  0
VERTEX
  5
1B5A
  8
3
 10
53.40041434530002
 20
-11.67010904599999
 30
0.0
  0
VERTEX
  5
1B5B
  8
3
 10
53.46894753620001
 20
-11.3616922473
 30
0.0
  0
VERTEX
  5
1B5C
  8
3
 10
53.63815744970003
 20
-10.98766024349999
 30
0.0
  0
VERTEX
  5
1B5D
  8
3
 10
54.01020537439996
 20
-10.38422645559999
 30
0.0
  0
VERTEX
  5
1B5E
  8
3
 10
54.31256579120003
 20
-9.959292143499994
 30
0.0
  0
SEQEND
  5
2073
  8
3
  0
LINE
  5
1202
  8
3
 10
51.0
 20
-7.959292143499994
 30
0.0
 11
51.0
 21
-11.95929214349999
 31
0.0
  0
LINE
  5
1203
  8
3
 10
51.0
 20
11.95929214349999
 30
0.0
 11
51.0
 21
7.959292143499994
 31
0.0
  0
POLYLINE
  5
1204
  8
3
 66
     1
 10
0.0
 20
0.0
 30
0.0
  0
VERTEX
  5
1B5F
  8
3
 10
58.125
 20
-29.4015624585
 30
0.0
  0
VERTEX
  5
1B60
  8
3
 10
58.02765787920004
 20
-29.75567072059999
 30
0.0
  0
VERTEX
  5
1B61
  8
3
 10
57.74285093689997
 20
-30.08351639289998
 30
0.0
  0
VERTEX
  5
1B62
  8
3
 10
57.29170200089999
 20
-30.36078466159998
 30
0.0
  0
VERTEX
  5
1B63
  8
3
 10
56.70767072400002
 20
-30.56691180759998
 30
0.0
  0
VERTEX
  5
1B64
  8
3
 10
56.03407203419999
 20
-30.68661032349999
 30
0.0
  0
VERTEX
  5
1B65
  8
3
 10
55.3208636649
 20
-30.711002718
 30
0.0
  0
VERTEX
  5
1B66
  8
3
 10
54.620941018
 20
-30.63827991869999
 30
0.0
  0
VERTEX
  5
1B67
  8
3
 10
53.98621415439999
 20
-30.47383544299998
 30
0.0
  0
VERTEX
  5
1B68
  8
3
 10
53.46375786189998
 20
-30.22986538539999
 30
0.0
  0
VERTEX
  5
1B69
  8
3
 10
53.09232033350003
 20
-29.92446388889999
 30
0.0
  0
VERTEX
  5
1B6A
  8
3
 10
52.8994493916
 20
-29.5802811854
 30
0.0
  0
VERTEX
  5
1B6B
  8
3
 10
52.8994493916
 20
-29.22284373150001
 30
0.0
  0
VERTEX
  5
1B6C
  8
3
 10
53.09232033350003
 20
-28.87866102799998
 30
0.0
  0
VERTEX
  5
1B6D
  8
3
 10
53.46375786189998
 20
-28.57325953149999
 30
0.0
  0
VERTEX
  5
1B6E
  8
3
 10
53.98621415439999
 20
-28.32928947389999
 30
0.0
  0
VERTEX
  5
1B6F
  8
3
 10
54.620941018
 20
-28.16484499819998
 30
0.0
  0
VERTEX
  5
1B70
  8
3
 10
55.3208636649
 20
-28.0921221989
 30
0.0
  0
VERTEX
  5
1B71
  8
3
 10
56.03407203419999
 20
-28.11651459339998
 30
0.0
  0
VERTEX
  5
1B72
  8
3
 10
56.70767072400002
 20
-28.2362131093
 30
0.0
  0
VERTEX
  5
1B73
  8
3
 10
57.29170200089999
 20
-28.4423402553
 30
0.0
  0
VERTEX
  5
1B74
  8
3
 10
57.74285093689997
 20
-28.71960852399999
 30
0.0
  0
VERTEX
  5
1B75
  8
3
 10
58.02765787920004
 20
-29.04745419629998
 30
0.0
  0
VERTEX
  5
1B76
  8
3
 10
58.125
 20
-29.4015624585
 30
0.0
  0
SEQEND
  5
2072
  8
3
  0
POLYLINE
  5
1205
  8
3
 66
     1
 10
0.0
 20
0.0
 30
0.0
  0
VERTEX
  5
1B77
  8
3
 10
58.125
 20
29.4015624585
 30
0.0
  0
VERTEX
  5
1B78
  8
3
 10
58.02765787920004
 20
29.0474541964
 30
0.0
  0
VERTEX
  5
1B79
  8
3
 10
57.74285093689997
 20
28.71960852410001
 30
0.0
  0
VERTEX
  5
1B7A
  8
3
 10
57.29170200089999
 20
28.44234025540001
 30
0.0
  0
VERTEX
  5
1B7B
  8
3
 10
56.70767072400002
 20
28.23621310940001
 30
0.0
  0
VERTEX
  5
1B7C
  8
3
 10
56.03407203419999
 20
28.11651459340001
 30
0.0
  0
VERTEX
  5
1B7D
  8
3
 10
55.3208636649
 20
28.0921221989
 30
0.0
  0
VERTEX
  5
1B7E
  8
3
 10
54.620941018
 20
28.16484499820001
 30
0.0
  0
VERTEX
  5
1B7F
  8
3
 10
53.98621415439999
 20
28.32928947390002
 30
0.0
  0
VERTEX
  5
1B80
  8
3
 10
53.46375786189998
 20
28.5732595316
 30
0.0
  0
VERTEX
  5
1B81
  8
3
 10
53.09232033350003
 20
28.8786610281
 30
0.0
  0
VERTEX
  5
1B82
  8
3
 10
52.8994493916
 20
29.22284373159999
 30
0.0
  0
VERTEX
  5
1B83
  8
3
 10
52.8994493916
 20
29.5802811854
 30
0.0
  0
VERTEX
  5
1B84
  8
3
 10
53.09232033350003
 20
29.92446388889999
 30
0.0
  0
VERTEX
  5
1B85
  8
3
 10
53.46375786189998
 20
30.22986538540002
 30
0.0
  0
VERTEX
  5
1B86
  8
3
 10
53.98621415439999
 20
30.4738354431
 30
0.0
  0
VERTEX
  5
1B87
  8
3
 10
54.620941018
 20
30.63827991880001
 30
0.0
  0
VERTEX
  5
1B88
  8
3
 10
55.3208636649
 20
30.71100271810002
 30
0.0
  0
VERTEX
  5
1B89
  8
3
 10
56.03407203419999
 20
30.68661032360001
 30
0.0
  0
VERTEX
  5
1B8A
  8
3
 10
56.70767072400002
 20
30.5669118077
 30
0.0
  0
VERTEX
  5
1B8B
  8
3
 10
57.29170200089999
 20
30.36078466160001
 30
0.0
  0
VERTEX
  5
1B8C
  8
3
 10
57.74285093689997
 20
30.08351639290001
 30
0.0
  0
VERTEX
  5
1B8D
  8
3
 10
58.02765787920004
 20
29.75567072059999
 30
0.0
  0
VERTEX
  5
1B8E
  8
3
 10
58.125
 20
29.4015624585
 30
0.0
  0
SEQEND
  5
2071
  8
3
  0
POLYLINE
  5
1206
  8
3
 66
     1
 10
0.0
 20
0.0
 30
0.0
  0
VERTEX
  5
1B8F
  8
3
 10
55.5
 20
-28.13906245850001
 30
0.0
  0
VERTEX
  5
1B90
  8
3
 10
56.21137470599996
 20
-28.19020257930001
 30
0.0
  0
VERTEX
  5
1B91
  8
3
 10
56.865118064
 20
-28.33947987329998
 30
0.0
  0
VERTEX
  5
1B92
  8
3
 10
57.40826767519997
 20
-28.5748007819
 30
0.0
  0
VERTEX
  5
1B93
  8
3
 10
57.79682078820002
 20
-28.87710100449999
 30
0.0
  0
VERTEX
  5
1B94
  8
3
 10
57.99929914069997
 20
-29.2218899751
 30
0.0
  0
VERTEX
  5
1B95
  8
3
 10
57.99929914069997
 20
-29.58123494180001
 30
0.0
  0
VERTEX
  5
1B96
  8
3
 10
57.79682078820002
 20
-29.92602391239998
 30
0.0
  0
VERTEX
  5
1B97
  8
3
 10
57.40826767519997
 20
-30.2283241351
 30
0.0
  0
VERTEX
  5
1B98
  8
3
 10
56.865118064
 20
-30.46364504369998
 30
0.0
  0
VERTEX
  5
1B99
  8
3
 10
56.21137470599996
 20
-30.6129223376
 30
0.0
  0
VERTEX
  5
1B9A
  8
3
 10
55.5
 20
-30.66406245849998
 30
0.0
  0
VERTEX
  5
1B9B
  8
3
 10
54.7886252939
 20
-30.6129223376
 30
0.0
  0
VERTEX
  5
1B9C
  8
3
 10
54.13488193589995
 20
-30.46364504369998
 30
0.0
  0
VERTEX
  5
1B9D
  8
3
 10
53.59173232469999
 20
-30.2283241351
 30
0.0
  0
VERTEX
  5
1B9E
  8
3
 10
53.20317921169999
 20
-29.92602391239998
 30
0.0
  0
VERTEX
  5
1B9F
  8
3
 10
53.00070085919998
 20
-29.58123494180001
 30
0.0
  0
VERTEX
  5
1BA0
  8
3
 10
53.00070085919998
 20
-29.2218899751
 30
0.0
  0
VERTEX
  5
1BA1
  8
3
 10
53.20317921169999
 20
-28.87710100449999
 30
0.0
  0
VERTEX
  5
1BA2
  8
3
 10
53.59173232469999
 20
-28.5748007819
 30
0.0
  0
VERTEX
  5
1BA3
  8
3
 10
54.13488193589995
 20
-28.33947987329998
 30
0.0
  0
VERTEX
  5
1BA4
  8
3
 10
54.7886252939
 20
-28.19020257930001
 30
0.0
  0
VERTEX
  5
1BA5
  8
3
 10
55.5
 20
-28.13906245850001
 30
0.0
  0
SEQEND
  5
2070
  8
3
  0
POLYLINE
  5
1207
  8
3
 66
     1
 10
0.0
 20
0.0
 30
0.0
  0
VERTEX
  5
1BA6
  8
3
 10
55.5
 20
30.66406245850001
 30
0.0
  0
VERTEX
  5
1BA7
  8
3
 10
56.21137470599996
 20
30.61292233770001
 30
0.0
  0
VERTEX
  5
1BA8
  8
3
 10
56.865118064
 20
30.46364504370001
 30
0.0
  0
VERTEX
  5
1BA9
  8
3
 10
57.40826767519997
 20
30.2283241351
 30
0.0
  0
VERTEX
  5
1BAA
  8
3
 10
57.79682078820002
 20
29.92602391240001
 30
0.0
  0
VERTEX
  5
1BAB
  8
3
 10
57.99929914069997
 20
29.58123494180001
 30
0.0
  0
VERTEX
  5
1BAC
  8
3
 10
57.99929914069997
 20
29.22188997520001
 30
0.0
  0
VERTEX
  5
1BAD
  8
3
 10
57.79682078820002
 20
28.87710100460001
 30
0.0
  0
VERTEX
  5
1BAE
  8
3
 10
57.40826767519997
 20
28.5748007819
 30
0.0
  0
VERTEX
  5
1BAF
  8
3
 10
56.865118064
 20
28.33947987330001
 30
0.0
  0
VERTEX
  5
1BB0
  8
3
 10
56.21137470599996
 20
28.19020257930001
 30
0.0
  0
VERTEX
  5
1BB1
  8
3
 10
55.5
 20
28.13906245850001
 30
0.0
  0
VERTEX
  5
1BB2
  8
3
 10
54.7886252939
 20
28.19020257930001
 30
0.0
  0
VERTEX
  5
1BB3
  8
3
 10
54.13488193589995
 20
28.33947987330001
 30
0.0
  0
VERTEX
  5
1BB4
  8
3
 10
53.59173232469999
 20
28.5748007819
 30
0.0
  0
VERTEX
  5
1BB5
  8
3
 10
53.20317921169999
 20
28.87710100460001
 30
0.0
  0
VERTEX
  5
1BB6
  8
3
 10
53.00070085919998
 20
29.22188997520001
 30
0.0
  0
VERTEX
  5
1BB7
  8
3
 10
53.00070085919998
 20
29.58123494180001
 30
0.0
  0
VERTEX
  5
1BB8
  8
3
 10
53.20317921169999
 20
29.92602391240001
 30
0.0
  0
VERTEX
  5
1BB9
  8
3
 10
53.59173232469999
 20
30.2283241351
 30
0.0
  0
VERTEX
  5
1BBA
  8
3
 10
54.13488193589995
 20
30.46364504370001
 30
0.0
  0
VERTEX
  5
1BBB
  8
3
 10
54.7886252939
 20
30.61292233770001
 30
0.0
  0
VERTEX
  5
1BBC
  8
3
 10
55.5
 20
30.66406245850001
 30
0.0
  0
SEQEND
  5
206F
  8
3
  0
POLYLINE
  5
1208
  8
3
 66
     1
 10
0.0
 20
0.0
 30
0.0
  0
VERTEX
  5
1BBD
  8
3
 10
55.5
 20
-23.33041003579999
 30
0.0
  0
VERTEX
  5
1BBE
  8
3
 10
56.09853525080001
 20
-23.38317899259999
 30
0.0
  0
VERTEX
  5
1BBF
  8
3
 10
56.62487831689998
 20
-23.535121148
 30
0.0
  0
VERTEX
  5
1BC0
  8
3
 10
57.01554445660003
 20
-23.76791003579999
 30
0.0
  0
VERTEX
  5
1BC1
  8
3
 10
57.22341356769999
 20
-24.05346788029999
 30
0.0
  0
VERTEX
  5
1BC2
  8
3
 10
57.22341356769999
 20
-24.35735219119999
 30
0.0
  0
VERTEX
  5
1BC3
  8
3
 10
57.01554445660003
 20
-24.64291003579999
 30
0.0
  0
VERTEX
  5
1BC4
  8
3
 10
56.62487831689998
 20
-24.87569892349998
 30
0.0
  0
VERTEX
  5
1BC5
  8
3
 10
56.09853525080001
 20
-25.02764107889999
 30
0.0
  0
VERTEX
  5
1BC6
  8
3
 10
55.5
 20
-25.08041003579999
 30
0.0
  0
VERTEX
  5
1BC7
  8
3
 10
54.9014647491
 20
-25.02764107889999
 30
0.0
  0
VERTEX
  5
1BC8
  8
3
 10
54.37512168300003
 20
-24.87569892349998
 30
0.0
  0
VERTEX
  5
1BC9
  8
3
 10
53.98445554329999
 20
-24.64291003579999
 30
0.0
  0
VERTEX
  5
1BCA
  8
3
 10
53.77658643219996
 20
-24.35735219119999
 30
0.0
  0
VERTEX
  5
1BCB
  8
3
 10
53.77658643219996
 20
-24.05346788029999
 30
0.0
  0
VERTEX
  5
1BCC
  8
3
 10
53.98445554329999
 20
-23.76791003579999
 30
0.0
  0
VERTEX
  5
1BCD
  8
3
 10
54.37512168300003
 20
-23.535121148
 30
0.0
  0
VERTEX
  5
1BCE
  8
3
 10
54.9014647491
 20
-23.38317899259999
 30
0.0
  0
VERTEX
  5
1BCF
  8
3
 10
55.5
 20
-23.33041003579999
 30
0.0
  0
SEQEND
  5
206E
  8
3
  0
POLYLINE
  5
1209
  8
3
 66
     1
 10
0.0
 20
0.0
 30
0.0
  0
VERTEX
  5
1BD0
  8
3
 10
57.8167327434
 20
-24.69621498870001
 30
0.0
  0
VERTEX
  5
1BD1
  8
3
 10
57.71380680789997
 20
-25.03764947069999
 30
0.0
  0
VERTEX
  5
1BD2
  8
3
 10
57.41417442229999
 20
-25.3487460005
 30
0.0
  0
VERTEX
  5
1BD3
  8
3
 10
56.94445923910001
 20
-25.60186228640001
 30
0.0
  0
VERTEX
  5
1BD4
  8
3
 10
56.34639751359998
 20
-25.7745078355
 30
0.0
  0
VERTEX
  5
1BD5
  8
3
 10
55.67312965470001
 20
-25.85134233319999
 30
0.0
  0
VERTEX
  5
1BD6
  8
3
 10
54.98447846619996
 20
-25.8255386971
 30
0.0
  0
VERTEX
  5
1BD7
  8
3
 10
54.34163362819999
 20
-25.6993896935
 30
0.0
  0
VERTEX
  5
1BD8
  8
3
 10
53.80171472579997
 20
-25.48410421509999
 30
0.0
  0
VERTEX
  5
1BD9
  8
3
 10
53.41269592290001
 20
-25.1988113214
 30
0.0
  0
VERTEX
  5
1BDA
  8
3
 10
53.20914324710003
 20
-24.8688605378
 30
0.0
  0
VERTEX
  5
1BDB
  8
3
 10
53.20914324710003
 20
-24.52356943959998
 30
0.0
  0
VERTEX
  5
1BDC
  8
3
 10
53.41269592290001
 20
-24.1936186561
 30
0.0
  0
VERTEX
  5
1BDD
  8
3
 10
53.80171472579997
 20
-23.9083257623
 30
0.0
  0
VERTEX
  5
1BDE
  8
3
 10
54.34163362819999
 20
-23.69304028389999
 30
0.0
  0
VERTEX
  5
1BDF
  8
3
 10
54.98447846619996
 20
-23.5668912804
 30
0.0
  0
VERTEX
  5
1BE0
  8
3
 10
55.67312965470001
 20
-23.54108764430001
 30
0.0
  0
VERTEX
  5
1BE1
  8
3
 10
56.34639751359998
 20
-23.617922142
 30
0.0
  0
VERTEX
  5
1BE2
  8
3
 10
56.94445923910001
 20
-23.79056769109999
 30
0.0
  0
VERTEX
  5
1BE3
  8
3
 10
57.41417442229999
 20
-24.043683977
 30
0.0
  0
VERTEX
  5
1BE4
  8
3
 10
57.71380680789997
 20
-24.35478050679998
 30
0.0
  0
VERTEX
  5
1BE5
  8
3
 10
57.8167327434
 20
-24.69621498870001
 30
0.0
  0
SEQEND
  5
206D
  8
3
  0
POLYLINE
  5
120A
  8
3
 66
     1
 10
0.0
 20
0.0
 30
0.0
  0
VERTEX
  5
1BE6
  8
3
 10
53.44499999999999
 20
-24.85492907419999
 30
0.0
  0
VERTEX
  5
1BE7
  8
3
 10
53.54557885899999
 20
-24.53741411249999
 30
0.0
  0
VERTEX
  5
1BE8
  8
3
 10
53.83747007649998
 20
-24.25097972749998
 30
0.0
  0
VERTEX
  5
1BE9
  8
3
 10
54.2921013065
 20
-24.0236641125
 30
0.0
  0
VERTEX
  5
1BEA
  8
3
 10
54.86497007650001
 20
-23.87771850369998
 30
0.0
  0
VERTEX
  5
1BEB
  8
3
 10
55.5
 20
-23.82742907419998
 30
0.0
  0
VERTEX
  5
1BEC
  8
3
 10
56.1350299234
 20
-23.87771850369998
 30
0.0
  0
VERTEX
  5
1BED
  8
3
 10
56.70789869339995
 20
-24.0236641125
 30
0.0
  0
VERTEX
  5
1BEE
  8
3
 10
57.16252992339997
 20
-24.25097972749998
 30
0.0
  0
VERTEX
  5
1BEF
  8
3
 10
57.45442114090002
 20
-24.53741411249999
 30
0.0
  0
VERTEX
  5
1BF0
  8
3
 10
57.55500000000001
 20
-24.85492907419999
 30
0.0
  0
VERTEX
  5
1BF1
  8
3
 10
57.45442114090002
 20
-25.17244403589999
 30
0.0
  0
VERTEX
  5
1BF2
  8
3
 10
57.16252992339997
 20
-25.45887842099998
 30
0.0
  0
VERTEX
  5
1BF3
  8
3
 10
56.70789869339995
 20
-25.6861940359
 30
0.0
  0
VERTEX
  5
1BF4
  8
3
 10
56.1350299234
 20
-25.83213964469999
 30
0.0
  0
VERTEX
  5
1BF5
  8
3
 10
55.5
 20
-25.88242907419999
 30
0.0
  0
VERTEX
  5
1BF6
  8
3
 10
54.86497007650001
 20
-25.83213964469999
 30
0.0
  0
VERTEX
  5
1BF7
  8
3
 10
54.2921013065
 20
-25.6861940359
 30
0.0
  0
VERTEX
  5
1BF8
  8
3
 10
53.83747007649998
 20
-25.45887842099998
 30
0.0
  0
VERTEX
  5
1BF9
  8
3
 10
53.54557885899999
 20
-25.17244403589999
 30
0.0
  0
VERTEX
  5
1BFA
  8
3
 10
53.44499999999999
 20
-24.85492907419999
 30
0.0
  0
SEQEND
  5
206C
  8
3
  0
POLYLINE
  5
120B
  8
3
 66
     1
 10
0.0
 20
0.0
 30
0.0
  0
VERTEX
  5
1BFB
  8
3
 10
53.0
 20
-25.1247759689
 30
0.0
  0
VERTEX
  5
1BFC
  8
3
 10
53.1012675659
 20
-24.77261027279999
 30
0.0
  0
VERTEX
  5
1BFD
  8
3
 10
53.39686616789999
 20
-24.44897494699998
 30
0.0
  0
VERTEX
  5
1BFE
  8
3
 10
53.86284816509999
 20
-24.18008900089998
 30
0.0
  0
VERTEX
  5
1BFF
  8
3
 10
54.4614624674
 20
-23.9877359747
 30
0.0
  0
VERTEX
  5
1C00
  8
3
 10
55.14421290429999
 20
-23.88749916649999
 30
0.0
  0
VERTEX
  5
1C01
  8
3
 10
55.85578709559996
 20
-23.88749916649999
 30
0.0
  0
VERTEX
  5
1C02
  8
3
 10
56.53853753250002
 20
-23.9877359747
 30
0.0
  0
VERTEX
  5
1C03
  8
3
 10
57.13715183480002
 20
-24.18008900089998
 30
0.0
  0
VERTEX
  5
1C04
  8
3
 10
57.60313383199997
 20
-24.44897494699998
 30
0.0
  0
VERTEX
  5
1C05
  8
3
 10
57.89873243400001
 20
-24.77261027279999
 30
0.0
  0
VERTEX
  5
1C06
  8
3
 10
58.0
 20
-25.1247759689
 30
0.0
  0
VERTEX
  5
1C07
  8
3
 10
57.89873243400001
 20
-25.47694166489998
 30
0.0
  0
VERTEX
  5
1C08
  8
3
 10
57.60313383199997
 20
-25.80057699069999
 30
0.0
  0
VERTEX
  5
1C09
  8
3
 10
57.13715183480002
 20
-26.06946293679999
 30
0.0
  0
VERTEX
  5
1C0A
  8
3
 10
56.53853753250002
 20
-26.261815963
 30
0.0
  0
VERTEX
  5
1C0B
  8
3
 10
55.85578709559996
 20
-26.36205277119998
 30
0.0
  0
VERTEX
  5
1C0C
  8
3
 10
55.14421290429999
 20
-26.36205277119998
 30
0.0
  0
VERTEX
  5
1C0D
  8
3
 10
54.4614624674
 20
-26.261815963
 30
0.0
  0
VERTEX
  5
1C0E
  8
3
 10
53.86284816509999
 20
-26.06946293679999
 30
0.0
  0
VERTEX
  5
1C0F
  8
3
 10
53.39686616789999
 20
-25.80057699069999
 30
0.0
  0
VERTEX
  5
1C10
  8
3
 10
53.1012675659
 20
-25.47694166489998
 30
0.0
  0
VERTEX
  5
1C11
  8
3
 10
53.0
 20
-25.1247759689
 30
0.0
  0
SEQEND
  5
206B
  8
3
  0
POLYLINE
  5
120C
  8
3
 66
     1
 10
0.0
 20
0.0
 30
0.0
  0
VERTEX
  5
1C12
  8
3
 10
53.0
 20
-25.20281552020001
 30
0.0
  0
VERTEX
  5
1C13
  8
3
 10
53.1012675659
 20
-24.85064982419999
 30
0.0
  0
VERTEX
  5
1C14
  8
3
 10
53.39686616789999
 20
-24.52701449840001
 30
0.0
  0
VERTEX
  5
1C15
  8
3
 10
53.86284816509999
 20
-24.25812855229998
 30
0.0
  0
VERTEX
  5
1C16
  8
3
 10
54.4614624674
 20
-24.06577552599998
 30
0.0
  0
VERTEX
  5
1C17
  8
3
 10
55.14421290429999
 20
-23.96553871789999
 30
0.0
  0
VERTEX
  5
1C18
  8
3
 10
55.85578709559996
 20
-23.96553871789999
 30
0.0
  0
VERTEX
  5
1C19
  8
3
 10
56.53853753250002
 20
-24.06577552599998
 30
0.0
  0
VERTEX
  5
1C1A
  8
3
 10
57.13715183480002
 20
-24.25812855229998
 30
0.0
  0
VERTEX
  5
1C1B
  8
3
 10
57.60313383199997
 20
-24.52701449840001
 30
0.0
  0
VERTEX
  5
1C1C
  8
3
 10
57.89873243400001
 20
-24.85064982419999
 30
0.0
  0
VERTEX
  5
1C1D
  8
3
 10
58.0
 20
-25.20281552020001
 30
0.0
  0
VERTEX
  5
1C1E
  8
3
 10
57.89873243400001
 20
-25.55498121630001
 30
0.0
  0
VERTEX
  5
1C1F
  8
3
 10
57.60313383199997
 20
-25.878616542
 30
0.0
  0
VERTEX
  5
1C20
  8
3
 10
57.13715183480002
 20
-26.1475024881
 30
0.0
  0
VERTEX
  5
1C21
  8
3
 10
56.53853753250002
 20
-26.3398555144
 30
0.0
  0
VERTEX
  5
1C22
  8
3
 10
55.85578709559996
 20
-26.44009232259998
 30
0.0
  0
VERTEX
  5
1C23
  8
3
 10
55.14421290429999
 20
-26.44009232259998
 30
0.0
  0
VERTEX
  5
1C24
  8
3
 10
54.4614624674
 20
-26.3398555144
 30
0.0
  0
VERTEX
  5
1C25
  8
3
 10
53.86284816509999
 20
-26.1475024881
 30
0.0
  0
VERTEX
  5
1C26
  8
3
 10
53.39686616789999
 20
-25.878616542
 30
0.0
  0
VERTEX
  5
1C27
  8
3
 10
53.1012675659
 20
-25.55498121630001
 30
0.0
  0
VERTEX
  5
1C28
  8
3
 10
53.0
 20
-25.20281552020001
 30
0.0
  0
SEQEND
  5
206A
  8
3
  0
POLYLINE
  5
120D
  8
3
 66
     1
 10
0.0
 20
0.0
 30
0.0
  0
VERTEX
  5
1C29
  8
3
 10
53.44499999999999
 20
-25.4726624148
 30
0.0
  0
VERTEX
  5
1C2A
  8
3
 10
53.54557885899999
 20
-25.1551474531
 30
0.0
  0
VERTEX
  5
1C2B
  8
3
 10
53.83747007649998
 20
-24.86871306809999
 30
0.0
  0
VERTEX
  5
1C2C
  8
3
 10
54.2921013065
 20
-24.64139745309998
 30
0.0
  0
VERTEX
  5
1C2D
  8
3
 10
54.86497007650001
 20
-24.49545184429999
 30
0.0
  0
VERTEX
  5
1C2E
  8
3
 10
55.5
 20
-24.4451624148
 30
0.0
  0
VERTEX
  5
1C2F
  8
3
 10
56.1350299234
 20
-24.49545184429999
 30
0.0
  0
VERTEX
  5
1C30
  8
3
 10
56.70789869339995
 20
-24.64139745309998
 30
0.0
  0
VERTEX
  5
1C31
  8
3
 10
57.16252992339997
 20
-24.86871306809999
 30
0.0
  0
VERTEX
  5
1C32
  8
3
 10
57.45442114090002
 20
-25.1551474531
 30
0.0
  0
VERTEX
  5
1C33
  8
3
 10
57.55500000000001
 20
-25.4726624148
 30
0.0
  0
VERTEX
  5
1C34
  8
3
 10
57.45442114090002
 20
-25.79017737659998
 30
0.0
  0
VERTEX
  5
1C35
  8
3
 10
57.16252992339997
 20
-26.07661176159999
 30
0.0
  0
VERTEX
  5
1C36
  8
3
 10
56.70789869339995
 20
-26.3039273766
 30
0.0
  0
VERTEX
  5
1C37
  8
3
 10
56.1350299234
 20
-26.4498729853
 30
0.0
  0
VERTEX
  5
1C38
  8
3
 10
55.5
 20
-26.5001624148
 30
0.0
  0
VERTEX
  5
1C39
  8
3
 10
54.86497007650001
 20
-26.4498729853
 30
0.0
  0
VERTEX
  5
1C3A
  8
3
 10
54.2921013065
 20
-26.3039273766
 30
0.0
  0
VERTEX
  5
1C3B
  8
3
 10
53.83747007649998
 20
-26.07661176159999
 30
0.0
  0
VERTEX
  5
1C3C
  8
3
 10
53.54557885899999
 20
-25.79017737659998
 30
0.0
  0
VERTEX
  5
1C3D
  8
3
 10
53.44499999999999
 20
-25.4726624148
 30
0.0
  0
SEQEND
  5
2069
  8
3
  0
POLYLINE
  5
120E
  8
3
 66
     1
 10
0.0
 20
0.0
 30
0.0
  0
VERTEX
  5
1C3E
  8
3
 10
53.0
 20
-25.74250930949998
 30
0.0
  0
VERTEX
  5
1C3F
  8
3
 10
53.1012675659
 20
-25.39034361340001
 30
0.0
  0
VERTEX
  5
1C40
  8
3
 10
53.39686616789999
 20
-25.06670828759999
 30
0.0
  0
VERTEX
  5
1C41
  8
3
 10
53.86284816509999
 20
-24.79782234149999
 30
0.0
  0
VERTEX
  5
1C42
  8
3
 10
54.4614624674
 20
-24.60546931529998
 30
0.0
  0
VERTEX
  5
1C43
  8
3
 10
55.14421290429999
 20
-24.5052325071
 30
0.0
  0
VERTEX
  5
1C44
  8
3
 10
55.85578709559996
 20
-24.5052325071
 30
0.0
  0
VERTEX
  5
1C45
  8
3
 10
56.53853753250002
 20
-24.60546931529998
 30
0.0
  0
VERTEX
  5
1C46
  8
3
 10
57.13715183480002
 20
-24.79782234149999
 30
0.0
  0
VERTEX
  5
1C47
  8
3
 10
57.60313383199997
 20
-25.06670828759999
 30
0.0
  0
VERTEX
  5
1C48
  8
3
 10
57.89873243400001
 20
-25.39034361340001
 30
0.0
  0
VERTEX
  5
1C49
  8
3
 10
58.0
 20
-25.74250930949998
 30
0.0
  0
VERTEX
  5
1C4A
  8
3
 10
57.89873243400001
 20
-26.09467500549999
 30
0.0
  0
VERTEX
  5
1C4B
  8
3
 10
57.60313383199997
 20
-26.41831033130001
 30
0.0
  0
VERTEX
  5
1C4C
  8
3
 10
57.13715183480002
 20
-26.68719627740001
 30
0.0
  0
VERTEX
  5
1C4D
  8
3
 10
56.53853753250002
 20
-26.87954930359999
 30
0.0
  0
VERTEX
  5
1C4E
  8
3
 10
55.85578709559996
 20
-26.9797861118
 30
0.0
  0
VERTEX
  5
1C4F
  8
3
 10
55.14421290429999
 20
-26.9797861118
 30
0.0
  0
VERTEX
  5
1C50
  8
3
 10
54.4614624674
 20
-26.87954930359999
 30
0.0
  0
VERTEX
  5
1C51
  8
3
 10
53.86284816509999
 20
-26.68719627740001
 30
0.0
  0
VERTEX
  5
1C52
  8
3
 10
53.39686616789999
 20
-26.41831033130001
 30
0.0
  0
VERTEX
  5
1C53
  8
3
 10
53.1012675659
 20
-26.09467500549999
 30
0.0
  0
VERTEX
  5
1C54
  8
3
 10
53.0
 20
-25.74250930949998
 30
0.0
  0
SEQEND
  5
2068
  8
3
  0
POLYLINE
  5
120F
  8
3
 66
     1
 10
0.0
 20
0.0
 30
0.0
  0
VERTEX
  5
1C55
  8
3
 10
53.0
 20
-25.82054886079999
 30
0.0
  0
VERTEX
  5
1C56
  8
3
 10
53.1012675659
 20
-25.4683831648
 30
0.0
  0
VERTEX
  5
1C57
  8
3
 10
53.39686616789999
 20
-25.14474783899999
 30
0.0
  0
VERTEX
  5
1C58
  8
3
 10
53.86284816509999
 20
-24.87586189289999
 30
0.0
  0
VERTEX
  5
1C59
  8
3
 10
54.4614624674
 20
-24.68350886659999
 30
0.0
  0
VERTEX
  5
1C5A
  8
3
 10
55.14421290429999
 20
-24.5832720585
 30
0.0
  0
VERTEX
  5
1C5B
  8
3
 10
55.85578709559996
 20
-24.5832720585
 30
0.0
  0
VERTEX
  5
1C5C
  8
3
 10
56.53853753250002
 20
-24.68350886659999
 30
0.0
  0
VERTEX
  5
1C5D
  8
3
 10
57.13715183480002
 20
-24.87586189289999
 30
0.0
  0
VERTEX
  5
1C5E
  8
3
 10
57.60313383199997
 20
-25.14474783899999
 30
0.0
  0
VERTEX
  5
1C5F
  8
3
 10
57.89873243400001
 20
-25.4683831648
 30
0.0
  0
VERTEX
  5
1C60
  8
3
 10
58.0
 20
-25.82054886079999
 30
0.0
  0
VERTEX
  5
1C61
  8
3
 10
57.89873243400001
 20
-26.17271455689999
 30
0.0
  0
VERTEX
  5
1C62
  8
3
 10
57.60313383199997
 20
-26.49634988259999
 30
0.0
  0
VERTEX
  5
1C63
  8
3
 10
57.13715183480002
 20
-26.7652358288
 30
0.0
  0
VERTEX
  5
1C64
  8
3
 10
56.53853753250002
 20
-26.95758885499998
 30
0.0
  0
VERTEX
  5
1C65
  8
3
 10
55.85578709559996
 20
-27.05782566319999
 30
0.0
  0
VERTEX
  5
1C66
  8
3
 10
55.14421290429999
 20
-27.05782566319999
 30
0.0
  0
VERTEX
  5
1C67
  8
3
 10
54.4614624674
 20
-26.95758885499998
 30
0.0
  0
VERTEX
  5
1C68
  8
3
 10
53.86284816509999
 20
-26.7652358288
 30
0.0
  0
VERTEX
  5
1C69
  8
3
 10
53.39686616789999
 20
-26.49634988259999
 30
0.0
  0
VERTEX
  5
1C6A
  8
3
 10
53.1012675659
 20
-26.17271455689999
 30
0.0
  0
VERTEX
  5
1C6B
  8
3
 10
53.0
 20
-25.82054886079999
 30
0.0
  0
SEQEND
  5
2067
  8
3
  0
POLYLINE
  5
1210
  8
3
 66
     1
 10
0.0
 20
0.0
 30
0.0
  0
VERTEX
  5
1C6C
  8
3
 10
53.44499999999999
 20
-26.09039575539998
 30
0.0
  0
VERTEX
  5
1C6D
  8
3
 10
53.54557885899999
 20
-25.77288079369998
 30
0.0
  0
VERTEX
  5
1C6E
  8
3
 10
53.83747007649998
 20
-25.4864464087
 30
0.0
  0
VERTEX
  5
1C6F
  8
3
 10
54.2921013065
 20
-25.2591307937
 30
0.0
  0
VERTEX
  5
1C70
  8
3
 10
54.86497007650001
 20
-25.1131851849
 30
0.0
  0
VERTEX
  5
1C71
  8
3
 10
55.5
 20
-25.06289575540001
 30
0.0
  0
VERTEX
  5
1C72
  8
3
 10
56.1350299234
 20
-25.1131851849
 30
0.0
  0
VERTEX
  5
1C73
  8
3
 10
56.70789869339995
 20
-25.2591307937
 30
0.0
  0
VERTEX
  5
1C74
  8
3
 10
57.16252992339997
 20
-25.4864464087
 30
0.0
  0
VERTEX
  5
1C75
  8
3
 10
57.45442114090002
 20
-25.77288079369998
 30
0.0
  0
VERTEX
  5
1C76
  8
3
 10
57.55500000000001
 20
-26.09039575539998
 30
0.0
  0
VERTEX
  5
1C77
  8
3
 10
57.45442114090002
 20
-26.4079107172
 30
0.0
  0
VERTEX
  5
1C78
  8
3
 10
57.16252992339997
 20
-26.6943451022
 30
0.0
  0
VERTEX
  5
1C79
  8
3
 10
56.70789869339995
 20
-26.92166071719998
 30
0.0
  0
VERTEX
  5
1C7A
  8
3
 10
56.1350299234
 20
-27.06760632589999
 30
0.0
  0
VERTEX
  5
1C7B
  8
3
 10
55.5
 20
-27.11789575539999
 30
0.0
  0
VERTEX
  5
1C7C
  8
3
 10
54.86497007650001
 20
-27.06760632589999
 30
0.0
  0
VERTEX
  5
1C7D
  8
3
 10
54.2921013065
 20
-26.92166071719998
 30
0.0
  0
VERTEX
  5
1C7E
  8
3
 10
53.83747007649998
 20
-26.6943451022
 30
0.0
  0
VERTEX
  5
1C7F
  8
3
 10
53.54557885899999
 20
-26.4079107172
 30
0.0
  0
VERTEX
  5
1C80
  8
3
 10
53.44499999999999
 20
-26.09039575539998
 30
0.0
  0
SEQEND
  5
2066
  8
3
  0
POLYLINE
  5
1211
  8
3
 66
     1
 10
0.0
 20
0.0
 30
0.0
  0
VERTEX
  5
1C81
  8
3
 10
53.0
 20
-26.36024265009999
 30
0.0
  0
VERTEX
  5
1C82
  8
3
 10
53.1012675659
 20
-26.00807695399999
 30
0.0
  0
VERTEX
  5
1C83
  8
3
 10
53.39686616789999
 20
-25.68444162820001
 30
0.0
  0
VERTEX
  5
1C84
  8
3
 10
53.86284816509999
 20
-25.41555568210001
 30
0.0
  0
VERTEX
  5
1C85
  8
3
 10
54.4614624674
 20
-25.2232026559
 30
0.0
  0
VERTEX
  5
1C86
  8
3
 10
55.14421290429999
 20
-25.12296584769999
 30
0.0
  0
VERTEX
  5
1C87
  8
3
 10
55.85578709559996
 20
-25.12296584769999
 30
0.0
  0
VERTEX
  5
1C88
  8
3
 10
56.53853753250002
 20
-25.2232026559
 30
0.0
  0
VERTEX
  5
1C89
  8
3
 10
57.13715183480002
 20
-25.41555568210001
 30
0.0
  0
VERTEX
  5
1C8A
  8
3
 10
57.60313383199997
 20
-25.68444162820001
 30
0.0
  0
VERTEX
  5
1C8B
  8
3
 10
57.89873243400001
 20
-26.00807695399999
 30
0.0
  0
VERTEX
  5
1C8C
  8
3
 10
58.0
 20
-26.36024265009999
 30
0.0
  0
VERTEX
  5
1C8D
  8
3
 10
57.89873243400001
 20
-26.71240834610001
 30
0.0
  0
VERTEX
  5
1C8E
  8
3
 10
57.60313383199997
 20
-27.03604367189999
 30
0.0
  0
VERTEX
  5
1C8F
  8
3
 10
57.13715183480002
 20
-27.30492961799999
 30
0.0
  0
VERTEX
  5
1C90
  8
3
 10
56.53853753250002
 20
-27.49728264429999
 30
0.0
  0
VERTEX
  5
1C91
  8
3
 10
55.85578709559996
 20
-27.59751945239998
 30
0.0
  0
VERTEX
  5
1C92
  8
3
 10
55.14421290429999
 20
-27.59751945239998
 30
0.0
  0
VERTEX
  5
1C93
  8
3
 10
54.4614624674
 20
-27.49728264429999
 30
0.0
  0
VERTEX
  5
1C94
  8
3
 10
53.86284816509999
 20
-27.30492961799999
 30
0.0
  0
VERTEX
  5
1C95
  8
3
 10
53.39686616789999
 20
-27.03604367189999
 30
0.0
  0
VERTEX
  5
1C96
  8
3
 10
53.1012675659
 20
-26.71240834610001
 30
0.0
  0
VERTEX
  5
1C97
  8
3
 10
53.0
 20
-26.36024265009999
 30
0.0
  0
SEQEND
  5
2065
  8
3
  0
POLYLINE
  5
1212
  8
3
 66
     1
 10
0.0
 20
0.0
 30
0.0
  0
VERTEX
  5
1C98
  8
3
 10
53.0
 20
-26.4382822014
 30
0.0
  0
VERTEX
  5
1C99
  8
3
 10
53.1012675659
 20
-26.08611650539999
 30
0.0
  0
VERTEX
  5
1C9A
  8
3
 10
53.39686616789999
 20
-25.7624811796
 30
0.0
  0
VERTEX
  5
1C9B
  8
3
 10
53.86284816509999
 20
-25.4935952335
 30
0.0
  0
VERTEX
  5
1C9C
  8
3
 10
54.4614624674
 20
-25.3012422072
 30
0.0
  0
VERTEX
  5
1C9D
  8
3
 10
55.14421290429999
 20
-25.20100539909998
 30
0.0
  0
VERTEX
  5
1C9E
  8
3
 10
55.85578709559996
 20
-25.20100539909998
 30
0.0
  0
VERTEX
  5
1C9F
  8
3
 10
56.53853753250002
 20
-25.3012422072
 30
0.0
  0
VERTEX
  5
1CA0
  8
3
 10
57.13715183480002
 20
-25.4935952335
 30
0.0
  0
VERTEX
  5
1CA1
  8
3
 10
57.60313383199997
 20
-25.7624811796
 30
0.0
  0
VERTEX
  5
1CA2
  8
3
 10
57.89873243400001
 20
-26.08611650539999
 30
0.0
  0
VERTEX
  5
1CA3
  8
3
 10
58.0
 20
-26.4382822014
 30
0.0
  0
VERTEX
  5
1CA4
  8
3
 10
57.89873243400001
 20
-26.7904478975
 30
0.0
  0
VERTEX
  5
1CA5
  8
3
 10
57.60313383199997
 20
-27.1140832232
 30
0.0
  0
VERTEX
  5
1CA6
  8
3
 10
57.13715183480002
 20
-27.38296916939998
 30
0.0
  0
VERTEX
  5
1CA7
  8
3
 10
56.53853753250002
 20
-27.57532219559999
 30
0.0
  0
VERTEX
  5
1CA8
  8
3
 10
55.85578709559996
 20
-27.6755590038
 30
0.0
  0
VERTEX
  5
1CA9
  8
3
 10
55.14421290429999
 20
-27.6755590038
 30
0.0
  0
VERTEX
  5
1CAA
  8
3
 10
54.4614624674
 20
-27.57532219559999
 30
0.0
  0
VERTEX
  5
1CAB
  8
3
 10
53.86284816509999
 20
-27.38296916939998
 30
0.0
  0
VERTEX
  5
1CAC
  8
3
 10
53.39686616789999
 20
-27.1140832232
 30
0.0
  0
VERTEX
  5
1CAD
  8
3
 10
53.1012675659
 20
-26.7904478975
 30
0.0
  0
VERTEX
  5
1CAE
  8
3
 10
53.0
 20
-26.4382822014
 30
0.0
  0
SEQEND
  5
2064
  8
3
  0
POLYLINE
  5
1213
  8
3
 66
     1
 10
0.0
 20
0.0
 30
0.0
  0
VERTEX
  5
1CAF
  8
3
 10
53.44499999999999
 20
-26.70812909599999
 30
0.0
  0
VERTEX
  5
1CB0
  8
3
 10
53.54557885899999
 20
-26.39061413429999
 30
0.0
  0
VERTEX
  5
1CB1
  8
3
 10
53.83747007649998
 20
-26.10417974929999
 30
0.0
  0
VERTEX
  5
1CB2
  8
3
 10
54.2921013065
 20
-25.87686413430001
 30
0.0
  0
VERTEX
  5
1CB3
  8
3
 10
54.86497007650001
 20
-25.73091852549999
 30
0.0
  0
VERTEX
  5
1CB4
  8
3
 10
55.5
 20
-25.68062909599999
 30
0.0
  0
VERTEX
  5
1CB5
  8
3
 10
56.1350299234
 20
-25.73091852549999
 30
0.0
  0
VERTEX
  5
1CB6
  8
3
 10
56.70789869339995
 20
-25.87686413430001
 30
0.0
  0
VERTEX
  5
1CB7
  8
3
 10
57.16252992339997
 20
-26.10417974929999
 30
0.0
  0
VERTEX
  5
1CB8
  8
3
 10
57.45442114090002
 20
-26.39061413429999
 30
0.0
  0
VERTEX
  5
1CB9
  8
3
 10
57.55500000000001
 20
-26.70812909599999
 30
0.0
  0
VERTEX
  5
1CBA
  8
3
 10
57.45442114090002
 20
-27.02564405779998
 30
0.0
  0
VERTEX
  5
1CBB
  8
3
 10
57.16252992339997
 20
-27.31207844279999
 30
0.0
  0
VERTEX
  5
1CBC
  8
3
 10
56.70789869339995
 20
-27.5393940578
 30
0.0
  0
VERTEX
  5
1CBD
  8
3
 10
56.1350299234
 20
-27.6853396665
 30
0.0
  0
VERTEX
  5
1CBE
  8
3
 10
55.5
 20
-27.735629096
 30
0.0
  0
VERTEX
  5
1CBF
  8
3
 10
54.86497007650001
 20
-27.6853396665
 30
0.0
  0
VERTEX
  5
1CC0
  8
3
 10
54.2921013065
 20
-27.5393940578
 30
0.0
  0
VERTEX
  5
1CC1
  8
3
 10
53.83747007649998
 20
-27.31207844279999
 30
0.0
  0
VERTEX
  5
1CC2
  8
3
 10
53.54557885899999
 20
-27.02564405779998
 30
0.0
  0
VERTEX
  5
1CC3
  8
3
 10
53.44499999999999
 20
-26.70812909599999
 30
0.0
  0
SEQEND
  5
2063
  8
3
  0
POLYLINE
  5
1214
  8
3
 66
     1
 10
0.0
 20
0.0
 30
0.0
  0
VERTEX
  5
1CC4
  8
3
 10
53.0
 20
-26.9779759907
 30
0.0
  0
VERTEX
  5
1CC5
  8
3
 10
53.1012675659
 20
-26.6258102946
 30
0.0
  0
VERTEX
  5
1CC6
  8
3
 10
53.39686616789999
 20
-26.30217496879999
 30
0.0
  0
VERTEX
  5
1CC7
  8
3
 10
53.86284816509999
 20
-26.03328902269999
 30
0.0
  0
VERTEX
  5
1CC8
  8
3
 10
54.4614624674
 20
-25.84093599649998
 30
0.0
  0
VERTEX
  5
1CC9
  8
3
 10
55.14421290429999
 20
-25.7406991883
 30
0.0
  0
VERTEX
  5
1CCA
  8
3
 10
55.85578709559996
 20
-25.7406991883
 30
0.0
  0
VERTEX
  5
1CCB
  8
3
 10
56.53853753250002
 20
-25.84093599649998
 30
0.0
  0
VERTEX
  5
1CCC
  8
3
 10
57.13715183480002
 20
-26.03328902269999
 30
0.0
  0
VERTEX
  5
1CCD
  8
3
 10
57.60313383199997
 20
-26.30217496879999
 30
0.0
  0
VERTEX
  5
1CCE
  8
3
 10
57.89873243400001
 20
-26.6258102946
 30
0.0
  0
VERTEX
  5
1CCF
  8
3
 10
58.0
 20
-26.9779759907
 30
0.0
  0
VERTEX
  5
1CD0
  8
3
 10
57.89873243400001
 20
-27.33014168669999
 30
0.0
  0
VERTEX
  5
1CD1
  8
3
 10
57.60313383199997
 20
-27.6537770125
 30
0.0
  0
VERTEX
  5
1CD2
  8
3
 10
57.13715183480002
 20
-27.9226629586
 30
0.0
  0
VERTEX
  5
1CD3
  8
3
 10
56.53853753250002
 20
-28.1150159849
 30
0.0
  0
VERTEX
  5
1CD4
  8
3
 10
55.85578709559996
 20
-28.21525279299999
 30
0.0
  0
VERTEX
  5
1CD5
  8
3
 10
55.14421290429999
 20
-28.21525279299999
 30
0.0
  0
VERTEX
  5
1CD6
  8
3
 10
54.4614624674
 20
-28.1150159849
 30
0.0
  0
VERTEX
  5
1CD7
  8
3
 10
53.86284816509999
 20
-27.9226629586
 30
0.0
  0
VERTEX
  5
1CD8
  8
3
 10
53.39686616789999
 20
-27.6537770125
 30
0.0
  0
VERTEX
  5
1CD9
  8
3
 10
53.1012675659
 20
-27.33014168669999
 30
0.0
  0
VERTEX
  5
1CDA
  8
3
 10
53.0
 20
-26.9779759907
 30
0.0
  0
SEQEND
  5
2062
  8
3
  0
POLYLINE
  5
1215
  8
3
 66
     1
 10
0.0
 20
0.0
 30
0.0
  0
VERTEX
  5
1CDB
  8
3
 10
53.0
 20
-27.05601554199998
 30
0.0
  0
VERTEX
  5
1CDC
  8
3
 10
53.1012675659
 20
-26.703849846
 30
0.0
  0
VERTEX
  5
1CDD
  8
3
 10
53.39686616789999
 20
-26.38021452019998
 30
0.0
  0
VERTEX
  5
1CDE
  8
3
 10
53.86284816509999
 20
-26.11132857409999
 30
0.0
  0
VERTEX
  5
1CDF
  8
3
 10
54.4614624674
 20
-25.91897554779999
 30
0.0
  0
VERTEX
  5
1CE0
  8
3
 10
55.14421290429999
 20
-25.8187387397
 30
0.0
  0
VERTEX
  5
1CE1
  8
3
 10
55.85578709559996
 20
-25.8187387397
 30
0.0
  0
VERTEX
  5
1CE2
  8
3
 10
56.53853753250002
 20
-25.91897554779999
 30
0.0
  0
VERTEX
  5
1CE3
  8
3
 10
57.13715183480002
 20
-26.11132857409999
 30
0.0
  0
VERTEX
  5
1CE4
  8
3
 10
57.60313383199997
 20
-26.38021452019998
 30
0.0
  0
VERTEX
  5
1CE5
  8
3
 10
57.89873243400001
 20
-26.703849846
 30
0.0
  0
VERTEX
  5
1CE6
  8
3
 10
58.0
 20
-27.05601554199998
 30
0.0
  0
VERTEX
  5
1CE7
  8
3
 10
57.89873243400001
 20
-27.40818123809998
 30
0.0
  0
VERTEX
  5
1CE8
  8
3
 10
57.60313383199997
 20
-27.73181656379998
 30
0.0
  0
VERTEX
  5
1CE9
  8
3
 10
57.13715183480002
 20
-28.00070251
 30
0.0
  0
VERTEX
  5
1CEA
  8
3
 10
56.53853753250002
 20
-28.19305553620001
 30
0.0
  0
VERTEX
  5
1CEB
  8
3
 10
55.85578709559996
 20
-28.29329234439999
 30
0.0
  0
VERTEX
  5
1CEC
  8
3
 10
55.14421290429999
 20
-28.29329234439999
 30
0.0
  0
VERTEX
  5
1CED
  8
3
 10
54.4614624674
 20
-28.19305553620001
 30
0.0
  0
VERTEX
  5
1CEE
  8
3
 10
53.86284816509999
 20
-28.00070251
 30
0.0
  0
VERTEX
  5
1CEF
  8
3
 10
53.39686616789999
 20
-27.73181656379998
 30
0.0
  0
VERTEX
  5
1CF0
  8
3
 10
53.1012675659
 20
-27.40818123809998
 30
0.0
  0
VERTEX
  5
1CF1
  8
3
 10
53.0
 20
-27.05601554199998
 30
0.0
  0
SEQEND
  5
2061
  8
3
  0
POLYLINE
  5
1216
  8
3
 66
     1
 10
0.0
 20
0.0
 30
0.0
  0
VERTEX
  5
1CF2
  8
3
 10
53.44499999999999
 20
-27.3258624366
 30
0.0
  0
VERTEX
  5
1CF3
  8
3
 10
53.54557885899999
 20
-27.00834747490001
 30
0.0
  0
VERTEX
  5
1CF4
  8
3
 10
53.83747007649998
 20
-26.7219130899
 30
0.0
  0
VERTEX
  5
1CF5
  8
3
 10
54.2921013065
 20
-26.49459747489999
 30
0.0
  0
VERTEX
  5
1CF6
  8
3
 10
54.86497007650001
 20
-26.34865186619999
 30
0.0
  0
VERTEX
  5
1CF7
  8
3
 10
55.5
 20
-26.2983624366
 30
0.0
  0
VERTEX
  5
1CF8
  8
3
 10
56.1350299234
 20
-26.34865186619999
 30
0.0
  0
VERTEX
  5
1CF9
  8
3
 10
56.70789869339995
 20
-26.49459747489999
 30
0.0
  0
VERTEX
  5
1CFA
  8
3
 10
57.16252992339997
 20
-26.7219130899
 30
0.0
  0
VERTEX
  5
1CFB
  8
3
 10
57.45442114090002
 20
-27.00834747490001
 30
0.0
  0
VERTEX
  5
1CFC
  8
3
 10
57.55500000000001
 20
-27.3258624366
 30
0.0
  0
VERTEX
  5
1CFD
  8
3
 10
57.45442114090002
 20
-27.64337739839999
 30
0.0
  0
VERTEX
  5
1CFE
  8
3
 10
57.16252992339997
 20
-27.9298117834
 30
0.0
  0
VERTEX
  5
1CFF
  8
3
 10
56.70789869339995
 20
-28.15712739839998
 30
0.0
  0
VERTEX
  5
1D00
  8
3
 10
56.1350299234
 20
-28.30307300709998
 30
0.0
  0
VERTEX
  5
1D01
  8
3
 10
55.5
 20
-28.35336243659998
 30
0.0
  0
VERTEX
  5
1D02
  8
3
 10
54.86497007650001
 20
-28.30307300709998
 30
0.0
  0
VERTEX
  5
1D03
  8
3
 10
54.2921013065
 20
-28.15712739839998
 30
0.0
  0
VERTEX
  5
1D04
  8
3
 10
53.83747007649998
 20
-27.9298117834
 30
0.0
  0
VERTEX
  5
1D05
  8
3
 10
53.54557885899999
 20
-27.64337739839999
 30
0.0
  0
VERTEX
  5
1D06
  8
3
 10
53.44499999999999
 20
-27.3258624366
 30
0.0
  0
SEQEND
  5
2060
  8
3
  0
POLYLINE
  5
1217
  8
3
 66
     1
 10
0.0
 20
0.0
 30
0.0
  0
VERTEX
  5
1D07
  8
3
 10
53.0
 20
-27.59570933129999
 30
0.0
  0
VERTEX
  5
1D08
  8
3
 10
53.1012675659
 20
-27.24354363519998
 30
0.0
  0
VERTEX
  5
1D09
  8
3
 10
53.39686616789999
 20
-26.9199083094
 30
0.0
  0
VERTEX
  5
1D0A
  8
3
 10
53.86284816509999
 20
-26.6510223633
 30
0.0
  0
VERTEX
  5
1D0B
  8
3
 10
54.4614624674
 20
-26.45866933709999
 30
0.0
  0
VERTEX
  5
1D0C
  8
3
 10
55.14421290429999
 20
-26.35843252889998
 30
0.0
  0
VERTEX
  5
1D0D
  8
3
 10
55.85578709559996
 20
-26.35843252889998
 30
0.0
  0
VERTEX
  5
1D0E
  8
3
 10
56.53853753250002
 20
-26.45866933709999
 30
0.0
  0
VERTEX
  5
1D0F
  8
3
 10
57.13715183480002
 20
-26.6510223633
 30
0.0
  0
VERTEX
  5
1D10
  8
3
 10
57.60313383199997
 20
-26.9199083094
 30
0.0
  0
VERTEX
  5
1D11
  8
3
 10
57.89873243400001
 20
-27.24354363519998
 30
0.0
  0
VERTEX
  5
1D12
  8
3
 10
58.0
 20
-27.59570933129999
 30
0.0
  0
VERTEX
  5
1D13
  8
3
 10
57.89873243400001
 20
-27.9478750273
 30
0.0
  0
VERTEX
  5
1D14
  8
3
 10
57.60313383199997
 20
-28.27151035309998
 30
0.0
  0
VERTEX
  5
1D15
  8
3
 10
57.13715183480002
 20
-28.54039629919998
 30
0.0
  0
VERTEX
  5
1D16
  8
3
 10
56.53853753250002
 20
-28.73274932549998
 30
0.0
  0
VERTEX
  5
1D17
  8
3
 10
55.85578709559996
 20
-28.8329861336
 30
0.0
  0
VERTEX
  5
1D18
  8
3
 10
55.14421290429999
 20
-28.8329861336
 30
0.0
  0
VERTEX
  5
1D19
  8
3
 10
54.4614624674
 20
-28.73274932549998
 30
0.0
  0
VERTEX
  5
1D1A
  8
3
 10
53.86284816509999
 20
-28.54039629919998
 30
0.0
  0
VERTEX
  5
1D1B
  8
3
 10
53.39686616789999
 20
-28.27151035309998
 30
0.0
  0
VERTEX
  5
1D1C
  8
3
 10
53.1012675659
 20
-27.9478750273
 30
0.0
  0
VERTEX
  5
1D1D
  8
3
 10
53.0
 20
-27.59570933129999
 30
0.0
  0
SEQEND
  5
205F
  8
3
  0
POLYLINE
  5
1218
  8
3
 66
     1
 10
0.0
 20
0.0
 30
0.0
  0
VERTEX
  5
1D1E
  8
3
 10
53.0
 20
-27.67374888259999
 30
0.0
  0
VERTEX
  5
1D1F
  8
3
 10
53.1012675659
 20
-27.32158318659998
 30
0.0
  0
VERTEX
  5
1D20
  8
3
 10
53.39686616789999
 20
-26.9979478608
 30
0.0
  0
VERTEX
  5
1D21
  8
3
 10
53.86284816509999
 20
-26.7290619147
 30
0.0
  0
VERTEX
  5
1D22
  8
3
 10
54.4614624674
 20
-26.5367088884
 30
0.0
  0
VERTEX
  5
1D23
  8
3
 10
55.14421290429999
 20
-26.43647208030001
 30
0.0
  0
VERTEX
  5
1D24
  8
3
 10
55.85578709559996
 20
-26.43647208030001
 30
0.0
  0
VERTEX
  5
1D25
  8
3
 10
56.53853753250002
 20
-26.5367088884
 30
0.0
  0
VERTEX
  5
1D26
  8
3
 10
57.13715183480002
 20
-26.7290619147
 30
0.0
  0
VERTEX
  5
1D27
  8
3
 10
57.60313383199997
 20
-26.9979478608
 30
0.0
  0
VERTEX
  5
1D28
  8
3
 10
57.89873243400001
 20
-27.32158318659998
 30
0.0
  0
VERTEX
  5
1D29
  8
3
 10
58.0
 20
-27.67374888259999
 30
0.0
  0
VERTEX
  5
1D2A
  8
3
 10
57.89873243400001
 20
-28.0259145787
 30
0.0
  0
VERTEX
  5
1D2B
  8
3
 10
57.60313383199997
 20
-28.34954990439999
 30
0.0
  0
VERTEX
  5
1D2C
  8
3
 10
57.13715183480002
 20
-28.61843585059998
 30
0.0
  0
VERTEX
  5
1D2D
  8
3
 10
56.53853753250002
 20
-28.81078887679999
 30
0.0
  0
VERTEX
  5
1D2E
  8
3
 10
55.85578709559996
 20
-28.911025685
 30
0.0
  0
VERTEX
  5
1D2F
  8
3
 10
55.14421290429999
 20
-28.911025685
 30
0.0
  0
VERTEX
  5
1D30
  8
3
 10
54.4614624674
 20
-28.81078887679999
 30
0.0
  0
VERTEX
  5
1D31
  8
3
 10
53.86284816509999
 20
-28.61843585059998
 30
0.0
  0
VERTEX
  5
1D32
  8
3
 10
53.39686616789999
 20
-28.34954990439999
 30
0.0
  0
VERTEX
  5
1D33
  8
3
 10
53.1012675659
 20
-28.0259145787
 30
0.0
  0
VERTEX
  5
1D34
  8
3
 10
53.0
 20
-27.67374888259999
 30
0.0
  0
SEQEND
  5
205E
  8
3
  0
POLYLINE
  5
1219
  8
3
 66
     1
 10
0.0
 20
0.0
 30
0.0
  0
VERTEX
  5
1D35
  8
3
 10
53.44499999999999
 20
-27.94359577719999
 30
0.0
  0
VERTEX
  5
1D36
  8
3
 10
53.54557885899999
 20
-27.62608081549999
 30
0.0
  0
VERTEX
  5
1D37
  8
3
 10
53.83747007649998
 20
-27.33964643049998
 30
0.0
  0
VERTEX
  5
1D38
  8
3
 10
54.2921013065
 20
-27.1123308155
 30
0.0
  0
VERTEX
  5
1D39
  8
3
 10
54.86497007650001
 20
-26.9663852068
 30
0.0
  0
VERTEX
  5
1D3A
  8
3
 10
55.5
 20
-26.91609577719998
 30
0.0
  0
VERTEX
  5
1D3B
  8
3
 10
56.1350299234
 20
-26.9663852068
 30
0.0
  0
VERTEX
  5
1D3C
  8
3
 10
56.70789869339995
 20
-27.1123308155
 30
0.0
  0
VERTEX
  5
1D3D
  8
3
 10
57.16252992339997
 20
-27.33964643049998
 30
0.0
  0
VERTEX
  5
1D3E
  8
3
 10
57.45442114090002
 20
-27.62608081549999
 30
0.0
  0
VERTEX
  5
1D3F
  8
3
 10
57.55500000000001
 20
-27.94359577719999
 30
0.0
  0
VERTEX
  5
1D40
  8
3
 10
57.45442114090002
 20
-28.261110739
 30
0.0
  0
VERTEX
  5
1D41
  8
3
 10
57.16252992339997
 20
-28.54754512399998
 30
0.0
  0
VERTEX
  5
1D42
  8
3
 10
56.70789869339995
 20
-28.77486073899999
 30
0.0
  0
VERTEX
  5
1D43
  8
3
 10
56.1350299234
 20
-28.92080634769999
 30
0.0
  0
VERTEX
  5
1D44
  8
3
 10
55.5
 20
-28.97109577719999
 30
0.0
  0
VERTEX
  5
1D45
  8
3
 10
54.86497007650001
 20
-28.92080634769999
 30
0.0
  0
VERTEX
  5
1D46
  8
3
 10
54.2921013065
 20
-28.77486073899999
 30
0.0
  0
VERTEX
  5
1D47
  8
3
 10
53.83747007649998
 20
-28.54754512399998
 30
0.0
  0
VERTEX
  5
1D48
  8
3
 10
53.54557885899999
 20
-28.261110739
 30
0.0
  0
VERTEX
  5
1D49
  8
3
 10
53.44499999999999
 20
-27.94359577719999
 30
0.0
  0
SEQEND
  5
205D
  8
3
  0
POLYLINE
  5
121A
  8
3
 66
     1
 10
0.0
 20
0.0
 30
0.0
  0
VERTEX
  5
1D4A
  8
3
 10
53.0
 20
-28.2134426719
 30
0.0
  0
VERTEX
  5
1D4B
  8
3
 10
53.1012675659
 20
-27.8612769758
 30
0.0
  0
VERTEX
  5
1D4C
  8
3
 10
53.39686616789999
 20
-27.5376416501
 30
0.0
  0
VERTEX
  5
1D4D
  8
3
 10
53.86284816509999
 20
-27.26875570389998
 30
0.0
  0
VERTEX
  5
1D4E
  8
3
 10
54.4614624674
 20
-27.0764026777
 30
0.0
  0
VERTEX
  5
1D4F
  8
3
 10
55.14421290429999
 20
-26.97616586949999
 30
0.0
  0
VERTEX
  5
1D50
  8
3
 10
55.85578709559996
 20
-26.97616586949999
 30
0.0
  0
VERTEX
  5
1D51
  8
3
 10
56.53853753250002
 20
-27.0764026777
 30
0.0
  0
VERTEX
  5
1D52
  8
3
 10
57.13715183480002
 20
-27.26875570389998
 30
0.0
  0
VERTEX
  5
1D53
  8
3
 10
57.60313383199997
 20
-27.5376416501
 30
0.0
  0
VERTEX
  5
1D54
  8
3
 10
57.89873243400001
 20
-27.8612769758
 30
0.0
  0
VERTEX
  5
1D55
  8
3
 10
58.0
 20
-28.2134426719
 30
0.0
  0
VERTEX
  5
1D56
  8
3
 10
57.89873243400001
 20
-28.56560836789998
 30
0.0
  0
VERTEX
  5
1D57
  8
3
 10
57.60313383199997
 20
-28.8892436937
 30
0.0
  0
VERTEX
  5
1D58
  8
3
 10
57.13715183480002
 20
-29.15812963979999
 30
0.0
  0
VERTEX
  5
1D59
  8
3
 10
56.53853753250002
 20
-29.35048266609999
 30
0.0
  0
VERTEX
  5
1D5A
  8
3
 10
55.85578709559996
 20
-29.45071947419999
 30
0.0
  0
VERTEX
  5
1D5B
  8
3
 10
55.14421290429999
 20
-29.45071947419999
 30
0.0
  0
VERTEX
  5
1D5C
  8
3
 10
54.4614624674
 20
-29.35048266609999
 30
0.0
  0
VERTEX
  5
1D5D
  8
3
 10
53.86284816509999
 20
-29.15812963979999
 30
0.0
  0
VERTEX
  5
1D5E
  8
3
 10
53.39686616789999
 20
-28.8892436937
 30
0.0
  0
VERTEX
  5
1D5F
  8
3
 10
53.1012675659
 20
-28.56560836789998
 30
0.0
  0
VERTEX
  5
1D60
  8
3
 10
53.0
 20
-28.2134426719
 30
0.0
  0
SEQEND
  5
205C
  8
3
  0
POLYLINE
  5
121B
  8
3
 66
     1
 10
0.0
 20
0.0
 30
0.0
  0
VERTEX
  5
1D61
  8
3
 10
53.0
 20
-28.29148222320001
 30
0.0
  0
VERTEX
  5
1D62
  8
3
 10
53.1012675659
 20
-27.93931652719999
 30
0.0
  0
VERTEX
  5
1D63
  8
3
 10
53.39686616789999
 20
-27.61568120139998
 30
0.0
  0
VERTEX
  5
1D64
  8
3
 10
53.86284816509999
 20
-27.34679525529998
 30
0.0
  0
VERTEX
  5
1D65
  8
3
 10
54.4614624674
 20
-27.15444222899998
 30
0.0
  0
VERTEX
  5
1D66
  8
3
 10
55.14421290429999
 20
-27.05420542089999
 30
0.0
  0
VERTEX
  5
1D67
  8
3
 10
55.85578709559996
 20
-27.05420542089999
 30
0.0
  0
VERTEX
  5
1D68
  8
3
 10
56.53853753250002
 20
-27.15444222899998
 30
0.0
  0
VERTEX
  5
1D69
  8
3
 10
57.13715183480002
 20
-27.34679525529998
 30
0.0
  0
VERTEX
  5
1D6A
  8
3
 10
57.60313383199997
 20
-27.61568120139998
 30
0.0
  0
VERTEX
  5
1D6B
  8
3
 10
57.89873243400001
 20
-27.93931652719999
 30
0.0
  0
VERTEX
  5
1D6C
  8
3
 10
58.0
 20
-28.29148222320001
 30
0.0
  0
VERTEX
  5
1D6D
  8
3
 10
57.89873243400001
 20
-28.64364791929998
 30
0.0
  0
VERTEX
  5
1D6E
  8
3
 10
57.60313383199997
 20
-28.967283245
 30
0.0
  0
VERTEX
  5
1D6F
  8
3
 10
57.13715183480002
 20
-29.23616919119999
 30
0.0
  0
VERTEX
  5
1D70
  8
3
 10
56.53853753250002
 20
-29.4285222174
 30
0.0
  0
VERTEX
  5
1D71
  8
3
 10
55.85578709559996
 20
-29.52875902559998
 30
0.0
  0
VERTEX
  5
1D72
  8
3
 10
55.14421290429999
 20
-29.52875902559998
 30
0.0
  0
VERTEX
  5
1D73
  8
3
 10
54.4614624674
 20
-29.4285222174
 30
0.0
  0
VERTEX
  5
1D74
  8
3
 10
53.86284816509999
 20
-29.23616919119999
 30
0.0
  0
VERTEX
  5
1D75
  8
3
 10
53.39686616789999
 20
-28.967283245
 30
0.0
  0
VERTEX
  5
1D76
  8
3
 10
53.1012675659
 20
-28.64364791929998
 30
0.0
  0
VERTEX
  5
1D77
  8
3
 10
53.0
 20
-28.29148222320001
 30
0.0
  0
SEQEND
  5
205B
  8
3
  0
POLYLINE
  5
121C
  8
3
 66
     1
 10
0.0
 20
0.0
 30
0.0
  0
VERTEX
  5
1D78
  8
3
 10
53.44499999999999
 20
-28.56132911789999
 30
0.0
  0
VERTEX
  5
1D79
  8
3
 10
53.54557885899999
 20
-28.2438141561
 30
0.0
  0
VERTEX
  5
1D7A
  8
3
 10
53.83747007649998
 20
-27.95737977109999
 30
0.0
  0
VERTEX
  5
1D7B
  8
3
 10
54.2921013065
 20
-27.73006415609998
 30
0.0
  0
VERTEX
  5
1D7C
  8
3
 10
54.86497007650001
 20
-27.58411854739998
 30
0.0
  0
VERTEX
  5
1D7D
  8
3
 10
55.5
 20
-27.53382911789998
 30
0.0
  0
VERTEX
  5
1D7E
  8
3
 10
56.1350299234
 20
-27.58411854739998
 30
0.0
  0
VERTEX
  5
1D7F
  8
3
 10
56.70789869339995
 20
-27.73006415609998
 30
0.0
  0
VERTEX
  5
1D80
  8
3
 10
57.16252992339997
 20
-27.95737977109999
 30
0.0
  0
VERTEX
  5
1D81
  8
3
 10
57.45442114090002
 20
-28.2438141561
 30
0.0
  0
VERTEX
  5
1D82
  8
3
 10
57.55500000000001
 20
-28.56132911789999
 30
0.0
  0
VERTEX
  5
1D83
  8
3
 10
57.45442114090002
 20
-28.87884407959999
 30
0.0
  0
VERTEX
  5
1D84
  8
3
 10
57.16252992339997
 20
-29.16527846459999
 30
0.0
  0
VERTEX
  5
1D85
  8
3
 10
56.70789869339995
 20
-29.3925940796
 30
0.0
  0
VERTEX
  5
1D86
  8
3
 10
56.1350299234
 20
-29.53853968830001
 30
0.0
  0
VERTEX
  5
1D87
  8
3
 10
55.5
 20
-29.58882911789999
 30
0.0
  0
VERTEX
  5
1D88
  8
3
 10
54.86497007650001
 20
-29.53853968830001
 30
0.0
  0
VERTEX
  5
1D89
  8
3
 10
54.2921013065
 20
-29.3925940796
 30
0.0
  0
VERTEX
  5
1D8A
  8
3
 10
53.83747007649998
 20
-29.16527846459999
 30
0.0
  0
VERTEX
  5
1D8B
  8
3
 10
53.54557885899999
 20
-28.87884407959999
 30
0.0
  0
VERTEX
  5
1D8C
  8
3
 10
53.44499999999999
 20
-28.56132911789999
 30
0.0
  0
SEQEND
  5
205A
  8
3
  0
POLYLINE
  5
121D
  8
3
 66
     1
 10
0.0
 20
0.0
 30
0.0
  0
VERTEX
  5
1D8D
  8
3
 10
53.0
 20
-28.83117601249998
 30
0.0
  0
VERTEX
  5
1D8E
  8
3
 10
53.1012675659
 20
-28.47901031639998
 30
0.0
  0
VERTEX
  5
1D8F
  8
3
 10
53.39686616789999
 20
-28.15537499069998
 30
0.0
  0
VERTEX
  5
1D90
  8
3
 10
53.86284816509999
 20
-27.8864890445
 30
0.0
  0
VERTEX
  5
1D91
  8
3
 10
54.4614624674
 20
-27.69413601829999
 30
0.0
  0
VERTEX
  5
1D92
  8
3
 10
55.14421290429999
 20
-27.59389921010001
 30
0.0
  0
VERTEX
  5
1D93
  8
3
 10
55.85578709559996
 20
-27.59389921010001
 30
0.0
  0
VERTEX
  5
1D94
  8
3
 10
56.53853753250002
 20
-27.69413601829999
 30
0.0
  0
VERTEX
  5
1D95
  8
3
 10
57.13715183480002
 20
-27.8864890445
 30
0.0
  0
VERTEX
  5
1D96
  8
3
 10
57.60313383199997
 20
-28.15537499069998
 30
0.0
  0
VERTEX
  5
1D97
  8
3
 10
57.89873243400001
 20
-28.47901031639998
 30
0.0
  0
VERTEX
  5
1D98
  8
3
 10
58.0
 20
-28.83117601249998
 30
0.0
  0
VERTEX
  5
1D99
  8
3
 10
57.89873243400001
 20
-29.1833417085
 30
0.0
  0
VERTEX
  5
1D9A
  8
3
 10
57.60313383199997
 20
-29.50697703429998
 30
0.0
  0
VERTEX
  5
1D9B
  8
3
 10
57.13715183480002
 20
-29.77586298040001
 30
0.0
  0
VERTEX
  5
1D9C
  8
3
 10
56.53853753250002
 20
-29.9682160067
 30
0.0
  0
VERTEX
  5
1D9D
  8
3
 10
55.85578709559996
 20
-30.0684528148
 30
0.0
  0
VERTEX
  5
1D9E
  8
3
 10
55.14421290429999
 20
-30.0684528148
 30
0.0
  0
VERTEX
  5
1D9F
  8
3
 10
54.4614624674
 20
-29.9682160067
 30
0.0
  0
VERTEX
  5
1DA0
  8
3
 10
53.86284816509999
 20
-29.77586298040001
 30
0.0
  0
VERTEX
  5
1DA1
  8
3
 10
53.39686616789999
 20
-29.50697703429998
 30
0.0
  0
VERTEX
  5
1DA2
  8
3
 10
53.1012675659
 20
-29.1833417085
 30
0.0
  0
VERTEX
  5
1DA3
  8
3
 10
53.0
 20
-28.83117601249998
 30
0.0
  0
SEQEND
  5
2059
  8
3
  0
LINE
  5
121E
  8
3
 10
54.25
 20
-27.42413778649998
 30
0.0
 11
55.5
 21
-27.78498170469999
 31
0.0
  0
LINE
  5
121F
  8
3
 10
55.5
 20
-27.78498170469999
 30
0.0
 11
55.5
 21
-30.1232502949
 31
0.0
  0
LINE
  5
1220
  8
3
 10
56.75
 20
-27.42413778649998
 30
0.0
 11
55.5
 21
-27.78498170469999
 31
0.0
  0
POLYLINE
  5
1221
  8
3
 66
     1
 10
0.0
 20
0.0
 30
0.0
  0
VERTEX
  5
1DA4
  8
3
 10
53.0
 20
-28.90921556379999
 30
0.0
  0
VERTEX
  5
1DA5
  8
3
 10
53.1012675659
 20
-28.5570498678
 30
0.0
  0
VERTEX
  5
1DA6
  8
3
 10
53.39686616789999
 20
-28.23341454199999
 30
0.0
  0
VERTEX
  5
1DA7
  8
3
 10
53.86284816509999
 20
-27.96452859589999
 30
0.0
  0
VERTEX
  5
1DA8
  8
3
 10
54.4614624674
 20
-27.77217556959999
 30
0.0
  0
VERTEX
  5
1DA9
  8
3
 10
55.14421290429999
 20
-27.6719387615
 30
0.0
  0
VERTEX
  5
1DAA
  8
3
 10
55.85578709559996
 20
-27.6719387615
 30
0.0
  0
VERTEX
  5
1DAB
  8
3
 10
56.53853753250002
 20
-27.77217556959999
 30
0.0
  0
VERTEX
  5
1DAC
  8
3
 10
57.13715183480002
 20
-27.96452859589999
 30
0.0
  0
VERTEX
  5
1DAD
  8
3
 10
57.60313383199997
 20
-28.23341454199999
 30
0.0
  0
VERTEX
  5
1DAE
  8
3
 10
57.89873243400001
 20
-28.5570498678
 30
0.0
  0
VERTEX
  5
1DAF
  8
3
 10
58.0
 20
-28.90921556379999
 30
0.0
  0
VERTEX
  5
1DB0
  8
3
 10
57.89873243400001
 20
-29.26138125989999
 30
0.0
  0
VERTEX
  5
1DB1
  8
3
 10
57.60313383199997
 20
-29.5850165857
 30
0.0
  0
VERTEX
  5
1DB2
  8
3
 10
57.13715183480002
 20
-29.8539025318
 30
0.0
  0
VERTEX
  5
1DB3
  8
3
 10
56.53853753250002
 20
-30.04625555799998
 30
0.0
  0
VERTEX
  5
1DB4
  8
3
 10
55.85578709559996
 20
-30.14649236619999
 30
0.0
  0
VERTEX
  5
1DB5
  8
3
 10
55.14421290429999
 20
-30.14649236619999
 30
0.0
  0
VERTEX
  5
1DB6
  8
3
 10
54.4614624674
 20
-30.04625555799998
 30
0.0
  0
VERTEX
  5
1DB7
  8
3
 10
53.86284816509999
 20
-29.8539025318
 30
0.0
  0
VERTEX
  5
1DB8
  8
3
 10
53.39686616789999
 20
-29.5850165857
 30
0.0
  0
VERTEX
  5
1DB9
  8
3
 10
53.1012675659
 20
-29.26138125989999
 30
0.0
  0
VERTEX
  5
1DBA
  8
3
 10
53.0
 20
-28.90921556379999
 30
0.0
  0
SEQEND
  5
2058
  8
3
  0
POLYLINE
  5
1222
  8
3
 66
     1
 10
0.0
 20
0.0
 30
0.0
  0
VERTEX
  5
1DBB
  8
3
 10
53.44499999999999
 20
-29.1790624585
 30
0.0
  0
VERTEX
  5
1DBC
  8
3
 10
53.54557885899999
 20
-28.86154749669998
 30
0.0
  0
VERTEX
  5
1DBD
  8
3
 10
53.83747007649998
 20
-28.57511311170001
 30
0.0
  0
VERTEX
  5
1DBE
  8
3
 10
54.2921013065
 20
-28.3477974967
 30
0.0
  0
VERTEX
  5
1DBF
  8
3
 10
54.86497007650001
 20
-28.20185188799999
 30
0.0
  0
VERTEX
  5
1DC0
  8
3
 10
55.5
 20
-28.1515624585
 30
0.0
  0
VERTEX
  5
1DC1
  8
3
 10
56.1350299234
 20
-28.20185188799999
 30
0.0
  0
VERTEX
  5
1DC2
  8
3
 10
56.70789869339995
 20
-28.3477974967
 30
0.0
  0
VERTEX
  5
1DC3
  8
3
 10
57.16252992339997
 20
-28.57511311170001
 30
0.0
  0
VERTEX
  5
1DC4
  8
3
 10
57.45442114090002
 20
-28.86154749669998
 30
0.0
  0
VERTEX
  5
1DC5
  8
3
 10
57.55500000000001
 20
-29.1790624585
 30
0.0
  0
VERTEX
  5
1DC6
  8
3
 10
57.45442114090002
 20
-29.4965774202
 30
0.0
  0
VERTEX
  5
1DC7
  8
3
 10
57.16252992339997
 20
-29.7830118052
 30
0.0
  0
VERTEX
  5
1DC8
  8
3
 10
56.70789869339995
 20
-30.01032742019999
 30
0.0
  0
VERTEX
  5
1DC9
  8
3
 10
56.1350299234
 20
-30.156273029
 30
0.0
  0
VERTEX
  5
1DCA
  8
3
 10
55.5
 20
-30.2065624585
 30
0.0
  0
VERTEX
  5
1DCB
  8
3
 10
54.86497007650001
 20
-30.156273029
 30
0.0
  0
VERTEX
  5
1DCC
  8
3
 10
54.2921013065
 20
-30.01032742019999
 30
0.0
  0
VERTEX
  5
1DCD
  8
3
 10
53.83747007649998
 20
-29.7830118052
 30
0.0
  0
VERTEX
  5
1DCE
  8
3
 10
53.54557885899999
 20
-29.4965774202
 30
0.0
  0
VERTEX
  5
1DCF
  8
3
 10
53.44499999999999
 20
-29.1790624585
 30
0.0
  0
SEQEND
  5
2057
  8
3
  0
POLYLINE
  5
1223
  8
3
 66
     1
 10
0.0
 20
0.0
 30
0.0
  0
VERTEX
  5
1DD0
  8
3
 10
53.24389687310003
 20
-29.30101089499999
 30
0.0
  0
VERTEX
  5
1DD1
  8
3
 10
53.34412920489996
 20
-29.63350993039998
 30
0.0
  0
VERTEX
  5
1DD2
  8
3
 10
53.63592011769998
 20
-29.93646496719998
 30
0.0
  0
VERTEX
  5
1DD3
  8
3
 10
54.09334270840003
 20
-30.18295712119999
 30
0.0
  0
VERTEX
  5
1DD4
  8
3
 10
54.67575297249999
 20
-30.3510844825
 30
0.0
  0
VERTEX
  5
1DD5
  8
3
 10
55.33140120209998
 20
-30.42590819750001
 30
0.0
  0
VERTEX
  5
1DD6
  8
3
 10
56.00203017479998
 20
-30.4007798506
 30
0.0
  0
VERTEX
  5
1DD7
  8
3
 10
56.62805156339999
 20
-30.27793220569998
 30
0.0
  0
VERTEX
  5
1DD8
  8
3
 10
57.15384062009997
 20
-30.0682808153
 30
0.0
  0
VERTEX
  5
1DD9
  8
3
 10
57.53267868
 20
-29.79045412529999
 30
0.0
  0
VERTEX
  5
1DDA
  8
3
 10
57.7309043189
 20
-29.46913825639999
 30
0.0
  0
VERTEX
  5
1DDB
  8
3
 10
57.7309043189
 20
-29.13288353369998
 30
0.0
  0
VERTEX
  5
1DDC
  8
3
 10
57.53267868
 20
-28.81156766479998
 30
0.0
  0
VERTEX
  5
1DDD
  8
3
 10
57.15384062009997
 20
-28.5337409748
 30
0.0
  0
VERTEX
  5
1DDE
  8
3
 10
56.62805156339999
 20
-28.3240895843
 30
0.0
  0
VERTEX
  5
1DDF
  8
3
 10
56.00203017479998
 20
-28.20124193949999
 30
0.0
  0
VERTEX
  5
1DE0
  8
3
 10
55.33140120209998
 20
-28.17611359259999
 30
0.0
  0
VERTEX
  5
1DE1
  8
3
 10
54.67575297249999
 20
-28.25093730749998
 30
0.0
  0
VERTEX
  5
1DE2
  8
3
 10
54.09334270840003
 20
-28.41906466890001
 30
0.0
  0
VERTEX
  5
1DE3
  8
3
 10
53.63592011769998
 20
-28.6655568228
 30
0.0
  0
VERTEX
  5
1DE4
  8
3
 10
53.34412920489996
 20
-28.96851185969999
 30
0.0
  0
VERTEX
  5
1DE5
  8
3
 10
53.24389687310003
 20
-29.30101089499999
 30
0.0
  0
SEQEND
  5
2056
  8
3
  0
LINE
  5
1224
  8
3
 10
54.25
 20
-27.42413778649998
 30
0.0
 11
54.25
 21
-29.7624063767
 31
0.0
  0
LINE
  5
1225
  8
3
 10
54.25
 20
-26.70244994999999
 30
0.0
 11
54.25
 21
-27.42413778649998
 31
0.0
  0
LINE
  5
1226
  8
3
 10
56.75
 20
-27.42413778649998
 30
0.0
 11
56.75
 21
-29.7624063767
 31
0.0
  0
LINE
  5
1227
  8
3
 10
56.75
 20
-26.70244994999999
 30
0.0
 11
56.75
 21
-27.42413778649998
 31
0.0
  0
POLYLINE
  5
1228
  8
3
 66
     1
 10
0.0
 20
0.0
 30
0.0
  0
VERTEX
  5
1DE6
  8
3
 10
55.5
 20
-28.37406245849999
 30
0.0
  0
VERTEX
  5
1DE7
  8
3
 10
56.1350299234
 20
-28.42435188799999
 30
0.0
  0
VERTEX
  5
1DE8
  8
3
 10
56.70789869339995
 20
-28.57029749669999
 30
0.0
  0
VERTEX
  5
1DE9
  8
3
 10
57.16252992339997
 20
-28.7976131117
 30
0.0
  0
VERTEX
  5
1DEA
  8
3
 10
57.45442114090002
 20
-29.08404749669998
 30
0.0
  0
VERTEX
  5
1DEB
  8
3
 10
57.55500000000001
 20
-29.4015624585
 30
0.0
  0
VERTEX
  5
1DEC
  8
3
 10
57.45442114090002
 20
-29.71907742019999
 30
0.0
  0
VERTEX
  5
1DED
  8
3
 10
57.16252992339997
 20
-30.0055118052
 30
0.0
  0
VERTEX
  5
1DEE
  8
3
 10
56.70789869339995
 20
-30.23282742019998
 30
0.0
  0
VERTEX
  5
1DEF
  8
3
 10
56.1350299234
 20
-30.378773029
 30
0.0
  0
VERTEX
  5
1DF0
  8
3
 10
55.5
 20
-30.4290624585
 30
0.0
  0
VERTEX
  5
1DF1
  8
3
 10
54.86497007650001
 20
-30.378773029
 30
0.0
  0
VERTEX
  5
1DF2
  8
3
 10
54.2921013065
 20
-30.23282742019998
 30
0.0
  0
VERTEX
  5
1DF3
  8
3
 10
53.83747007649998
 20
-30.0055118052
 30
0.0
  0
VERTEX
  5
1DF4
  8
3
 10
53.54557885899999
 20
-29.71907742019999
 30
0.0
  0
VERTEX
  5
1DF5
  8
3
 10
53.44499999999999
 20
-29.4015624585
 30
0.0
  0
VERTEX
  5
1DF6
  8
3
 10
53.54557885899999
 20
-29.08404749669998
 30
0.0
  0
VERTEX
  5
1DF7
  8
3
 10
53.83747007649998
 20
-28.7976131117
 30
0.0
  0
VERTEX
  5
1DF8
  8
3
 10
54.2921013065
 20
-28.57029749669999
 30
0.0
  0
VERTEX
  5
1DF9
  8
3
 10
54.86497007650001
 20
-28.42435188799999
 30
0.0
  0
VERTEX
  5
1DFA
  8
3
 10
55.5
 20
-28.37406245849999
 30
0.0
  0
SEQEND
  5
2055
  8
3
  0
LINE
  5
1229
  8
3
 10
56.75
 20
-29.7624063767
 30
0.0
 11
55.5
 21
-30.1232502949
 31
0.0
  0
LINE
  5
122A
  8
3
 10
54.25
 20
-29.7624063767
 30
0.0
 11
55.5
 21
-30.1232502949
 31
0.0
  0
LINE
  5
122B
  8
3
 10
55.5
 20
-26.34160603179998
 30
0.0
 11
55.5
 21
-27.78498170469999
 31
0.0
  0
LINE
  5
122C
  8
3
 10
54.25
 20
-29.0407185402
 30
0.0
 11
55.5
 21
-28.679874622
 31
0.0
  0
LINE
  5
122D
  8
3
 10
54.25
 20
-26.70244994999999
 30
0.0
 11
55.5
 21
-26.34160603179998
 31
0.0
  0
LINE
  5
122E
  8
3
 10
56.75
 20
-29.0407185402
 30
0.0
 11
55.5
 21
-28.679874622
 31
0.0
  0
LINE
  5
122F
  8
3
 10
56.75
 20
-26.70244994999999
 30
0.0
 11
55.5
 21
-26.34160603179998
 31
0.0
  0
CIRCLE
  5
1230
  8
3
 10
55.5
 20
0.0
 30
0.0
 40
2.5
  0
CIRCLE
  5
1231
  8
3
 10
55.5
 20
0.0
 30
0.0
 40
2.316732743452292
  0
CIRCLE
  5
1232
  8
3
 10
55.5
 20
0.0
 30
0.0
 40
1.749999999999972
  0
POLYLINE
  5
1233
  8
3
 66
     1
 10
0.0
 20
0.0
 30
0.0
  0
VERTEX
  5
1DFB
  8
3
 10
55.5
 20
25.08041003580001
 30
0.0
  0
VERTEX
  5
1DFC
  8
3
 10
56.09853525080001
 20
25.02764107900001
 30
0.0
  0
VERTEX
  5
1DFD
  8
3
 10
56.62487831689998
 20
24.87569892350001
 30
0.0
  0
VERTEX
  5
1DFE
  8
3
 10
57.01554445660003
 20
24.64291003580001
 30
0.0
  0
VERTEX
  5
1DFF
  8
3
 10
57.22341356769999
 20
24.35735219130001
 30
0.0
  0
VERTEX
  5
1E00
  8
3
 10
57.22341356769999
 20
24.05346788030002
 30
0.0
  0
VERTEX
  5
1E01
  8
3
 10
57.01554445660003
 20
23.76791003580001
 30
0.0
  0
VERTEX
  5
1E02
  8
3
 10
56.62487831689998
 20
23.53512114810002
 30
0.0
  0
VERTEX
  5
1E03
  8
3
 10
56.09853525080001
 20
23.38317899259999
 30
0.0
  0
VERTEX
  5
1E04
  8
3
 10
55.5
 20
23.33041003580001
 30
0.0
  0
VERTEX
  5
1E05
  8
3
 10
54.9014647491
 20
23.38317899259999
 30
0.0
  0
VERTEX
  5
1E06
  8
3
 10
54.37512168300003
 20
23.53512114810002
 30
0.0
  0
VERTEX
  5
1E07
  8
3
 10
53.98445554329999
 20
23.76791003580001
 30
0.0
  0
VERTEX
  5
1E08
  8
3
 10
53.77658643219996
 20
24.05346788030002
 30
0.0
  0
VERTEX
  5
1E09
  8
3
 10
53.77658643219996
 20
24.35735219130001
 30
0.0
  0
VERTEX
  5
1E0A
  8
3
 10
53.98445554329999
 20
24.64291003580001
 30
0.0
  0
VERTEX
  5
1E0B
  8
3
 10
54.37512168300003
 20
24.87569892350001
 30
0.0
  0
VERTEX
  5
1E0C
  8
3
 10
54.9014647491
 20
25.02764107900001
 30
0.0
  0
VERTEX
  5
1E0D
  8
3
 10
55.5
 20
25.08041003580001
 30
0.0
  0
SEQEND
  5
2054
  8
3
  0
POLYLINE
  5
1234
  8
3
 66
     1
 10
0.0
 20
0.0
 30
0.0
  0
VERTEX
  5
1E0E
  8
3
 10
57.8167327434
 20
24.69621498879999
 30
0.0
  0
VERTEX
  5
1E0F
  8
3
 10
57.71380680789997
 20
24.3547805069
 30
0.0
  0
VERTEX
  5
1E10
  8
3
 10
57.41417442229999
 20
24.043683977
 30
0.0
  0
VERTEX
  5
1E11
  8
3
 10
56.94445923910001
 20
23.79056769109999
 30
0.0
  0
VERTEX
  5
1E12
  8
3
 10
56.34639751359998
 20
23.617922142
 30
0.0
  0
VERTEX
  5
1E13
  8
3
 10
55.67312965470001
 20
23.54108764439999
 30
0.0
  0
VERTEX
  5
1E14
  8
3
 10
54.98447846619996
 20
23.56689128050002
 30
0.0
  0
VERTEX
  5
1E15
  8
3
 10
54.34163362819999
 20
23.69304028400001
 30
0.0
  0
VERTEX
  5
1E16
  8
3
 10
53.80171472579997
 20
23.90832576240001
 30
0.0
  0
VERTEX
  5
1E17
  8
3
 10
53.41269592290001
 20
24.19361865620002
 30
0.0
  0
VERTEX
  5
1E18
  8
3
 10
53.20914324710003
 20
24.5235694397
 30
0.0
  0
VERTEX
  5
1E19
  8
3
 10
53.20914324710003
 20
24.86886053790002
 30
0.0
  0
VERTEX
  5
1E1A
  8
3
 10
53.41269592290001
 20
25.1988113214
 30
0.0
  0
VERTEX
  5
1E1B
  8
3
 10
53.80171472579997
 20
25.48410421520001
 30
0.0
  0
VERTEX
  5
1E1C
  8
3
 10
54.34163362819999
 20
25.69938969360001
 30
0.0
  0
VERTEX
  5
1E1D
  8
3
 10
54.98447846619996
 20
25.8255386971
 30
0.0
  0
VERTEX
  5
1E1E
  8
3
 10
55.67312965470001
 20
25.85134233319999
 30
0.0
  0
VERTEX
  5
1E1F
  8
3
 10
56.34639751359998
 20
25.7745078355
 30
0.0
  0
VERTEX
  5
1E20
  8
3
 10
56.94445923910001
 20
25.60186228640001
 30
0.0
  0
VERTEX
  5
1E21
  8
3
 10
57.41417442229999
 20
25.34874600060002
 30
0.0
  0
VERTEX
  5
1E22
  8
3
 10
57.71380680789997
 20
25.03764947070002
 30
0.0
  0
VERTEX
  5
1E23
  8
3
 10
57.8167327434
 20
24.69621498879999
 30
0.0
  0
SEQEND
  5
2053
  8
3
  0
POLYLINE
  5
1235
  8
3
 66
     1
 10
0.0
 20
0.0
 30
0.0
  0
VERTEX
  5
1E24
  8
3
 10
53.44499999999999
 20
24.8549290743
 30
0.0
  0
VERTEX
  5
1E25
  8
3
 10
53.54557885899999
 20
25.172444036
 30
0.0
  0
VERTEX
  5
1E26
  8
3
 10
53.83747007649998
 20
25.45887842100001
 30
0.0
  0
VERTEX
  5
1E27
  8
3
 10
54.2921013065
 20
25.68619403600002
 30
0.0
  0
VERTEX
  5
1E28
  8
3
 10
54.86497007650001
 20
25.83213964480001
 30
0.0
  0
VERTEX
  5
1E29
  8
3
 10
55.5
 20
25.88242907430001
 30
0.0
  0
VERTEX
  5
1E2A
  8
3
 10
56.1350299234
 20
25.83213964480001
 30
0.0
  0
VERTEX
  5
1E2B
  8
3
 10
56.70789869339995
 20
25.68619403600002
 30
0.0
  0
VERTEX
  5
1E2C
  8
3
 10
57.16252992339997
 20
25.45887842100001
 30
0.0
  0
VERTEX
  5
1E2D
  8
3
 10
57.45442114090002
 20
25.172444036
 30
0.0
  0
VERTEX
  5
1E2E
  8
3
 10
57.55500000000001
 20
24.8549290743
 30
0.0
  0
VERTEX
  5
1E2F
  8
3
 10
57.45442114090002
 20
24.5374141126
 30
0.0
  0
VERTEX
  5
1E30
  8
3
 10
57.16252992339997
 20
24.25097972750001
 30
0.0
  0
VERTEX
  5
1E31
  8
3
 10
56.70789869339995
 20
24.02366411260002
 30
0.0
  0
VERTEX
  5
1E32
  8
3
 10
56.1350299234
 20
23.8777185038
 30
0.0
  0
VERTEX
  5
1E33
  8
3
 10
55.5
 20
23.8274290743
 30
0.0
  0
VERTEX
  5
1E34
  8
3
 10
54.86497007650001
 20
23.8777185038
 30
0.0
  0
VERTEX
  5
1E35
  8
3
 10
54.2921013065
 20
24.02366411260002
 30
0.0
  0
VERTEX
  5
1E36
  8
3
 10
53.83747007649998
 20
24.25097972750001
 30
0.0
  0
VERTEX
  5
1E37
  8
3
 10
53.54557885899999
 20
24.5374141126
 30
0.0
  0
VERTEX
  5
1E38
  8
3
 10
53.44499999999999
 20
24.8549290743
 30
0.0
  0
SEQEND
  5
2052
  8
3
  0
POLYLINE
  5
1236
  8
3
 66
     1
 10
0.0
 20
0.0
 30
0.0
  0
VERTEX
  5
1E39
  8
3
 10
53.0
 20
25.1247759689
 30
0.0
  0
VERTEX
  5
1E3A
  8
3
 10
53.1012675659
 20
25.47694166490001
 30
0.0
  0
VERTEX
  5
1E3B
  8
3
 10
53.39686616789999
 20
25.80057699069999
 30
0.0
  0
VERTEX
  5
1E3C
  8
3
 10
53.86284816509999
 20
26.06946293679999
 30
0.0
  0
VERTEX
  5
1E3D
  8
3
 10
54.4614624674
 20
26.26181596310002
 30
0.0
  0
VERTEX
  5
1E3E
  8
3
 10
55.14421290429999
 20
26.36205277120001
 30
0.0
  0
VERTEX
  5
1E3F
  8
3
 10
55.85578709559996
 20
26.36205277120001
 30
0.0
  0
VERTEX
  5
1E40
  8
3
 10
56.53853753250002
 20
26.26181596310002
 30
0.0
  0
VERTEX
  5
1E41
  8
3
 10
57.13715183480002
 20
26.06946293679999
 30
0.0
  0
VERTEX
  5
1E42
  8
3
 10
57.60313383199997
 20
25.80057699069999
 30
0.0
  0
VERTEX
  5
1E43
  8
3
 10
57.89873243400001
 20
25.47694166490001
 30
0.0
  0
VERTEX
  5
1E44
  8
3
 10
58.0
 20
25.1247759689
 30
0.0
  0
VERTEX
  5
1E45
  8
3
 10
57.89873243400001
 20
24.77261027279999
 30
0.0
  0
VERTEX
  5
1E46
  8
3
 10
57.60313383199997
 20
24.4489749471
 30
0.0
  0
VERTEX
  5
1E47
  8
3
 10
57.13715183480002
 20
24.180089001
 30
0.0
  0
VERTEX
  5
1E48
  8
3
 10
56.53853753250002
 20
23.9877359747
 30
0.0
  0
VERTEX
  5
1E49
  8
3
 10
55.85578709559996
 20
23.88749916650002
 30
0.0
  0
VERTEX
  5
1E4A
  8
3
 10
55.14421290429999
 20
23.88749916650002
 30
0.0
  0
VERTEX
  5
1E4B
  8
3
 10
54.4614624674
 20
23.9877359747
 30
0.0
  0
VERTEX
  5
1E4C
  8
3
 10
53.86284816509999
 20
24.180089001
 30
0.0
  0
VERTEX
  5
1E4D
  8
3
 10
53.39686616789999
 20
24.4489749471
 30
0.0
  0
VERTEX
  5
1E4E
  8
3
 10
53.1012675659
 20
24.77261027279999
 30
0.0
  0
VERTEX
  5
1E4F
  8
3
 10
53.0
 20
25.1247759689
 30
0.0
  0
SEQEND
  5
2051
  8
3
  0
POLYLINE
  5
1237
  8
3
 66
     1
 10
0.0
 20
0.0
 30
0.0
  0
VERTEX
  5
1E50
  8
3
 10
53.0
 20
25.20281552030002
 30
0.0
  0
VERTEX
  5
1E51
  8
3
 10
53.1012675659
 20
25.55498121630001
 30
0.0
  0
VERTEX
  5
1E52
  8
3
 10
53.39686616789999
 20
25.87861654210002
 30
0.0
  0
VERTEX
  5
1E53
  8
3
 10
53.86284816509999
 20
26.14750248820002
 30
0.0
  0
VERTEX
  5
1E54
  8
3
 10
54.4614624674
 20
26.3398555144
 30
0.0
  0
VERTEX
  5
1E55
  8
3
 10
55.14421290429999
 20
26.44009232260001
 30
0.0
  0
VERTEX
  5
1E56
  8
3
 10
55.85578709559996
 20
26.44009232260001
 30
0.0
  0
VERTEX
  5
1E57
  8
3
 10
56.53853753250002
 20
26.3398555144
 30
0.0
  0
VERTEX
  5
1E58
  8
3
 10
57.13715183480002
 20
26.14750248820002
 30
0.0
  0
VERTEX
  5
1E59
  8
3
 10
57.60313383199997
 20
25.87861654210002
 30
0.0
  0
VERTEX
  5
1E5A
  8
3
 10
57.89873243400001
 20
25.55498121630001
 30
0.0
  0
VERTEX
  5
1E5B
  8
3
 10
58.0
 20
25.20281552030002
 30
0.0
  0
VERTEX
  5
1E5C
  8
3
 10
57.89873243400001
 20
24.85064982420002
 30
0.0
  0
VERTEX
  5
1E5D
  8
3
 10
57.60313383199997
 20
24.52701449840001
 30
0.0
  0
VERTEX
  5
1E5E
  8
3
 10
57.13715183480002
 20
24.25812855230001
 30
0.0
  0
VERTEX
  5
1E5F
  8
3
 10
56.53853753250002
 20
24.0657755261
 30
0.0
  0
VERTEX
  5
1E60
  8
3
 10
55.85578709559996
 20
23.96553871790002
 30
0.0
  0
VERTEX
  5
1E61
  8
3
 10
55.14421290429999
 20
23.96553871790002
 30
0.0
  0
VERTEX
  5
1E62
  8
3
 10
54.4614624674
 20
24.0657755261
 30
0.0
  0
VERTEX
  5
1E63
  8
3
 10
53.86284816509999
 20
24.25812855230001
 30
0.0
  0
VERTEX
  5
1E64
  8
3
 10
53.39686616789999
 20
24.52701449840001
 30
0.0
  0
VERTEX
  5
1E65
  8
3
 10
53.1012675659
 20
24.85064982420002
 30
0.0
  0
VERTEX
  5
1E66
  8
3
 10
53.0
 20
25.20281552030002
 30
0.0
  0
SEQEND
  5
2050
  8
3
  0
POLYLINE
  5
1238
  8
3
 66
     1
 10
0.0
 20
0.0
 30
0.0
  0
VERTEX
  5
1E67
  8
3
 10
53.44499999999999
 20
25.47266241490001
 30
0.0
  0
VERTEX
  5
1E68
  8
3
 10
53.54557885899999
 20
25.79017737660001
 30
0.0
  0
VERTEX
  5
1E69
  8
3
 10
53.83747007649998
 20
26.07661176160002
 30
0.0
  0
VERTEX
  5
1E6A
  8
3
 10
54.2921013065
 20
26.3039273766
 30
0.0
  0
VERTEX
  5
1E6B
  8
3
 10
54.86497007650001
 20
26.44987298540002
 30
0.0
  0
VERTEX
  5
1E6C
  8
3
 10
55.5
 20
26.50016241490002
 30
0.0
  0
VERTEX
  5
1E6D
  8
3
 10
56.1350299234
 20
26.44987298540002
 30
0.0
  0
VERTEX
  5
1E6E
  8
3
 10
56.70789869339995
 20
26.3039273766
 30
0.0
  0
VERTEX
  5
1E6F
  8
3
 10
57.16252992339997
 20
26.07661176160002
 30
0.0
  0
VERTEX
  5
1E70
  8
3
 10
57.45442114090002
 20
25.79017737660001
 30
0.0
  0
VERTEX
  5
1E71
  8
3
 10
57.55500000000001
 20
25.47266241490001
 30
0.0
  0
VERTEX
  5
1E72
  8
3
 10
57.45442114090002
 20
25.15514745320002
 30
0.0
  0
VERTEX
  5
1E73
  8
3
 10
57.16252992339997
 20
24.86871306809999
 30
0.0
  0
VERTEX
  5
1E74
  8
3
 10
56.70789869339995
 20
24.6413974532
 30
0.0
  0
VERTEX
  5
1E75
  8
3
 10
56.1350299234
 20
24.49545184440001
 30
0.0
  0
VERTEX
  5
1E76
  8
3
 10
55.5
 20
24.44516241490001
 30
0.0
  0
VERTEX
  5
1E77
  8
3
 10
54.86497007650001
 20
24.49545184440001
 30
0.0
  0
VERTEX
  5
1E78
  8
3
 10
54.2921013065
 20
24.6413974532
 30
0.0
  0
VERTEX
  5
1E79
  8
3
 10
53.83747007649998
 20
24.86871306809999
 30
0.0
  0
VERTEX
  5
1E7A
  8
3
 10
53.54557885899999
 20
25.15514745320002
 30
0.0
  0
VERTEX
  5
1E7B
  8
3
 10
53.44499999999999
 20
25.47266241490001
 30
0.0
  0
SEQEND
  5
204F
  8
3
  0
POLYLINE
  5
1239
  8
3
 66
     1
 10
0.0
 20
0.0
 30
0.0
  0
VERTEX
  5
1E7C
  8
3
 10
53.0
 20
25.74250930950001
 30
0.0
  0
VERTEX
  5
1E7D
  8
3
 10
53.1012675659
 20
26.09467500560001
 30
0.0
  0
VERTEX
  5
1E7E
  8
3
 10
53.39686616789999
 20
26.41831033130001
 30
0.0
  0
VERTEX
  5
1E7F
  8
3
 10
53.86284816509999
 20
26.68719627740001
 30
0.0
  0
VERTEX
  5
1E80
  8
3
 10
54.4614624674
 20
26.8795493037
 30
0.0
  0
VERTEX
  5
1E81
  8
3
 10
55.14421290429999
 20
26.97978611190001
 30
0.0
  0
VERTEX
  5
1E82
  8
3
 10
55.85578709559996
 20
26.97978611190001
 30
0.0
  0
VERTEX
  5
1E83
  8
3
 10
56.53853753250002
 20
26.8795493037
 30
0.0
  0
VERTEX
  5
1E84
  8
3
 10
57.13715183480002
 20
26.68719627740001
 30
0.0
  0
VERTEX
  5
1E85
  8
3
 10
57.60313383199997
 20
26.41831033130001
 30
0.0
  0
VERTEX
  5
1E86
  8
3
 10
57.89873243400001
 20
26.09467500560001
 30
0.0
  0
VERTEX
  5
1E87
  8
3
 10
58.0
 20
25.74250930950001
 30
0.0
  0
VERTEX
  5
1E88
  8
3
 10
57.89873243400001
 20
25.39034361349999
 30
0.0
  0
VERTEX
  5
1E89
  8
3
 10
57.60313383199997
 20
25.06670828770001
 30
0.0
  0
VERTEX
  5
1E8A
  8
3
 10
57.13715183480002
 20
24.79782234160001
 30
0.0
  0
VERTEX
  5
1E8B
  8
3
 10
56.53853753250002
 20
24.60546931530001
 30
0.0
  0
VERTEX
  5
1E8C
  8
3
 10
55.85578709559996
 20
24.50523250720002
 30
0.0
  0
VERTEX
  5
1E8D
  8
3
 10
55.14421290429999
 20
24.50523250720002
 30
0.0
  0
VERTEX
  5
1E8E
  8
3
 10
54.4614624674
 20
24.60546931530001
 30
0.0
  0
VERTEX
  5
1E8F
  8
3
 10
53.86284816509999
 20
24.79782234160001
 30
0.0
  0
VERTEX
  5
1E90
  8
3
 10
53.39686616789999
 20
25.06670828770001
 30
0.0
  0
VERTEX
  5
1E91
  8
3
 10
53.1012675659
 20
25.39034361349999
 30
0.0
  0
VERTEX
  5
1E92
  8
3
 10
53.0
 20
25.74250930950001
 30
0.0
  0
SEQEND
  5
204E
  8
3
  0
POLYLINE
  5
123A
  8
3
 66
     1
 10
0.0
 20
0.0
 30
0.0
  0
VERTEX
  5
1E93
  8
3
 10
53.0
 20
25.8205488609
 30
0.0
  0
VERTEX
  5
1E94
  8
3
 10
53.1012675659
 20
26.17271455690002
 30
0.0
  0
VERTEX
  5
1E95
  8
3
 10
53.39686616789999
 20
26.4963498827
 30
0.0
  0
VERTEX
  5
1E96
  8
3
 10
53.86284816509999
 20
26.7652358288
 30
0.0
  0
VERTEX
  5
1E97
  8
3
 10
54.4614624674
 20
26.9575888551
 30
0.0
  0
VERTEX
  5
1E98
  8
3
 10
55.14421290429999
 20
27.05782566320002
 30
0.0
  0
VERTEX
  5
1E99
  8
3
 10
55.85578709559996
 20
27.05782566320002
 30
0.0
  0
VERTEX
  5
1E9A
  8
3
 10
56.53853753250002
 20
26.9575888551
 30
0.0
  0
VERTEX
  5
1E9B
  8
3
 10
57.13715183480002
 20
26.7652358288
 30
0.0
  0
VERTEX
  5
1E9C
  8
3
 10
57.60313383199997
 20
26.4963498827
 30
0.0
  0
VERTEX
  5
1E9D
  8
3
 10
57.89873243400001
 20
26.17271455690002
 30
0.0
  0
VERTEX
  5
1E9E
  8
3
 10
58.0
 20
25.8205488609
 30
0.0
  0
VERTEX
  5
1E9F
  8
3
 10
57.89873243400001
 20
25.4683831648
 30
0.0
  0
VERTEX
  5
1EA0
  8
3
 10
57.60313383199997
 20
25.14474783900002
 30
0.0
  0
VERTEX
  5
1EA1
  8
3
 10
57.13715183480002
 20
24.87586189290002
 30
0.0
  0
VERTEX
  5
1EA2
  8
3
 10
56.53853753250002
 20
24.68350886670001
 30
0.0
  0
VERTEX
  5
1EA3
  8
3
 10
55.85578709559996
 20
24.5832720585
 30
0.0
  0
VERTEX
  5
1EA4
  8
3
 10
55.14421290429999
 20
24.5832720585
 30
0.0
  0
VERTEX
  5
1EA5
  8
3
 10
54.4614624674
 20
24.68350886670001
 30
0.0
  0
VERTEX
  5
1EA6
  8
3
 10
53.86284816509999
 20
24.87586189290002
 30
0.0
  0
VERTEX
  5
1EA7
  8
3
 10
53.39686616789999
 20
25.14474783900002
 30
0.0
  0
VERTEX
  5
1EA8
  8
3
 10
53.1012675659
 20
25.4683831648
 30
0.0
  0
VERTEX
  5
1EA9
  8
3
 10
53.0
 20
25.8205488609
 30
0.0
  0
SEQEND
  5
204D
  8
3
  0
POLYLINE
  5
123B
  8
3
 66
     1
 10
0.0
 20
0.0
 30
0.0
  0
VERTEX
  5
1EAA
  8
3
 10
53.44499999999999
 20
26.0903957555
 30
0.0
  0
VERTEX
  5
1EAB
  8
3
 10
53.54557885899999
 20
26.4079107172
 30
0.0
  0
VERTEX
  5
1EAC
  8
3
 10
53.83747007649998
 20
26.6943451022
 30
0.0
  0
VERTEX
  5
1EAD
  8
3
 10
54.2921013065
 20
26.92166071720001
 30
0.0
  0
VERTEX
  5
1EAE
  8
3
 10
54.86497007650001
 20
27.067606326
 30
0.0
  0
VERTEX
  5
1EAF
  8
3
 10
55.5
 20
27.1178957555
 30
0.0
  0
VERTEX
  5
1EB0
  8
3
 10
56.1350299234
 20
27.067606326
 30
0.0
  0
VERTEX
  5
1EB1
  8
3
 10
56.70789869339995
 20
26.92166071720001
 30
0.0
  0
VERTEX
  5
1EB2
  8
3
 10
57.16252992339997
 20
26.6943451022
 30
0.0
  0
VERTEX
  5
1EB3
  8
3
 10
57.45442114090002
 20
26.4079107172
 30
0.0
  0
VERTEX
  5
1EB4
  8
3
 10
57.55500000000001
 20
26.0903957555
 30
0.0
  0
VERTEX
  5
1EB5
  8
3
 10
57.45442114090002
 20
25.7728807938
 30
0.0
  0
VERTEX
  5
1EB6
  8
3
 10
57.16252992339997
 20
25.48644640880002
 30
0.0
  0
VERTEX
  5
1EB7
  8
3
 10
56.70789869339995
 20
25.25913079380001
 30
0.0
  0
VERTEX
  5
1EB8
  8
3
 10
56.1350299234
 20
25.11318518500002
 30
0.0
  0
VERTEX
  5
1EB9
  8
3
 10
55.5
 20
25.06289575549999
 30
0.0
  0
VERTEX
  5
1EBA
  8
3
 10
54.86497007650001
 20
25.11318518500002
 30
0.0
  0
VERTEX
  5
1EBB
  8
3
 10
54.2921013065
 20
25.25913079380001
 30
0.0
  0
VERTEX
  5
1EBC
  8
3
 10
53.83747007649998
 20
25.48644640880002
 30
0.0
  0
VERTEX
  5
1EBD
  8
3
 10
53.54557885899999
 20
25.7728807938
 30
0.0
  0
VERTEX
  5
1EBE
  8
3
 10
53.44499999999999
 20
26.0903957555
 30
0.0
  0
SEQEND
  5
204C
  8
3
  0
POLYLINE
  5
123C
  8
3
 66
     1
 10
0.0
 20
0.0
 30
0.0
  0
VERTEX
  5
1EBF
  8
3
 10
53.0
 20
26.36024265010002
 30
0.0
  0
VERTEX
  5
1EC0
  8
3
 10
53.1012675659
 20
26.71240834619999
 30
0.0
  0
VERTEX
  5
1EC1
  8
3
 10
53.39686616789999
 20
27.03604367190002
 30
0.0
  0
VERTEX
  5
1EC2
  8
3
 10
53.86284816509999
 20
27.30492961800002
 30
0.0
  0
VERTEX
  5
1EC3
  8
3
 10
54.4614624674
 20
27.49728264430001
 30
0.0
  0
VERTEX
  5
1EC4
  8
3
 10
55.14421290429999
 20
27.59751945249999
 30
0.0
  0
VERTEX
  5
1EC5
  8
3
 10
55.85578709559996
 20
27.59751945249999
 30
0.0
  0
VERTEX
  5
1EC6
  8
3
 10
56.53853753250002
 20
27.49728264430001
 30
0.0
  0
VERTEX
  5
1EC7
  8
3
 10
57.13715183480002
 20
27.30492961800002
 30
0.0
  0
VERTEX
  5
1EC8
  8
3
 10
57.60313383199997
 20
27.03604367190002
 30
0.0
  0
VERTEX
  5
1EC9
  8
3
 10
57.89873243400001
 20
26.71240834619999
 30
0.0
  0
VERTEX
  5
1ECA
  8
3
 10
58.0
 20
26.36024265010002
 30
0.0
  0
VERTEX
  5
1ECB
  8
3
 10
57.89873243400001
 20
26.00807695410001
 30
0.0
  0
VERTEX
  5
1ECC
  8
3
 10
57.60313383199997
 20
25.68444162829999
 30
0.0
  0
VERTEX
  5
1ECD
  8
3
 10
57.13715183480002
 20
25.41555568219999
 30
0.0
  0
VERTEX
  5
1ECE
  8
3
 10
56.53853753250002
 20
25.2232026559
 30
0.0
  0
VERTEX
  5
1ECF
  8
3
 10
55.85578709559996
 20
25.1229658478
 30
0.0
  0
VERTEX
  5
1ED0
  8
3
 10
55.14421290429999
 20
25.1229658478
 30
0.0
  0
VERTEX
  5
1ED1
  8
3
 10
54.4614624674
 20
25.2232026559
 30
0.0
  0
VERTEX
  5
1ED2
  8
3
 10
53.86284816509999
 20
25.41555568219999
 30
0.0
  0
VERTEX
  5
1ED3
  8
3
 10
53.39686616789999
 20
25.68444162829999
 30
0.0
  0
VERTEX
  5
1ED4
  8
3
 10
53.1012675659
 20
26.00807695410001
 30
0.0
  0
VERTEX
  5
1ED5
  8
3
 10
53.0
 20
26.36024265010002
 30
0.0
  0
SEQEND
  5
204B
  8
3
  0
POLYLINE
  5
123D
  8
3
 66
     1
 10
0.0
 20
0.0
 30
0.0
  0
VERTEX
  5
1ED6
  8
3
 10
53.0
 20
26.43828220150002
 30
0.0
  0
VERTEX
  5
1ED7
  8
3
 10
53.1012675659
 20
26.7904478975
 30
0.0
  0
VERTEX
  5
1ED8
  8
3
 10
53.39686616789999
 20
27.11408322330001
 30
0.0
  0
VERTEX
  5
1ED9
  8
3
 10
53.86284816509999
 20
27.38296916940001
 30
0.0
  0
VERTEX
  5
1EDA
  8
3
 10
54.4614624674
 20
27.57532219570001
 30
0.0
  0
VERTEX
  5
1EDB
  8
3
 10
55.14421290429999
 20
27.6755590038
 30
0.0
  0
VERTEX
  5
1EDC
  8
3
 10
55.85578709559996
 20
27.6755590038
 30
0.0
  0
VERTEX
  5
1EDD
  8
3
 10
56.53853753250002
 20
27.57532219570001
 30
0.0
  0
VERTEX
  5
1EDE
  8
3
 10
57.13715183480002
 20
27.38296916940001
 30
0.0
  0
VERTEX
  5
1EDF
  8
3
 10
57.60313383199997
 20
27.11408322330001
 30
0.0
  0
VERTEX
  5
1EE0
  8
3
 10
57.89873243400001
 20
26.7904478975
 30
0.0
  0
VERTEX
  5
1EE1
  8
3
 10
58.0
 20
26.43828220150002
 30
0.0
  0
VERTEX
  5
1EE2
  8
3
 10
57.89873243400001
 20
26.08611650540001
 30
0.0
  0
VERTEX
  5
1EE3
  8
3
 10
57.60313383199997
 20
25.7624811796
 30
0.0
  0
VERTEX
  5
1EE4
  8
3
 10
57.13715183480002
 20
25.4935952335
 30
0.0
  0
VERTEX
  5
1EE5
  8
3
 10
56.53853753250002
 20
25.30124220730002
 30
0.0
  0
VERTEX
  5
1EE6
  8
3
 10
55.85578709559996
 20
25.20100539910001
 30
0.0
  0
VERTEX
  5
1EE7
  8
3
 10
55.14421290429999
 20
25.20100539910001
 30
0.0
  0
VERTEX
  5
1EE8
  8
3
 10
54.4614624674
 20
25.30124220730002
 30
0.0
  0
VERTEX
  5
1EE9
  8
3
 10
53.86284816509999
 20
25.4935952335
 30
0.0
  0
VERTEX
  5
1EEA
  8
3
 10
53.39686616789999
 20
25.7624811796
 30
0.0
  0
VERTEX
  5
1EEB
  8
3
 10
53.1012675659
 20
26.08611650540001
 30
0.0
  0
VERTEX
  5
1EEC
  8
3
 10
53.0
 20
26.43828220150002
 30
0.0
  0
SEQEND
  5
204A
  8
3
  0
POLYLINE
  5
123E
  8
3
 66
     1
 10
0.0
 20
0.0
 30
0.0
  0
VERTEX
  5
1EED
  8
3
 10
53.44499999999999
 20
26.70812909610001
 30
0.0
  0
VERTEX
  5
1EEE
  8
3
 10
53.54557885899999
 20
27.02564405780001
 30
0.0
  0
VERTEX
  5
1EEF
  8
3
 10
53.83747007649998
 20
27.31207844280001
 30
0.0
  0
VERTEX
  5
1EF0
  8
3
 10
54.2921013065
 20
27.5393940578
 30
0.0
  0
VERTEX
  5
1EF1
  8
3
 10
54.86497007650001
 20
27.68533966660002
 30
0.0
  0
VERTEX
  5
1EF2
  8
3
 10
55.5
 20
27.73562909610001
 30
0.0
  0
VERTEX
  5
1EF3
  8
3
 10
56.1350299234
 20
27.68533966660002
 30
0.0
  0
VERTEX
  5
1EF4
  8
3
 10
56.70789869339995
 20
27.5393940578
 30
0.0
  0
VERTEX
  5
1EF5
  8
3
 10
57.16252992339997
 20
27.31207844280001
 30
0.0
  0
VERTEX
  5
1EF6
  8
3
 10
57.45442114090002
 20
27.02564405780001
 30
0.0
  0
VERTEX
  5
1EF7
  8
3
 10
57.55500000000001
 20
26.70812909610001
 30
0.0
  0
VERTEX
  5
1EF8
  8
3
 10
57.45442114090002
 20
26.39061413440001
 30
0.0
  0
VERTEX
  5
1EF9
  8
3
 10
57.16252992339997
 20
26.1041797494
 30
0.0
  0
VERTEX
  5
1EFA
  8
3
 10
56.70789869339995
 20
25.87686413439999
 30
0.0
  0
VERTEX
  5
1EFB
  8
3
 10
56.1350299234
 20
25.7309185256
 30
0.0
  0
VERTEX
  5
1EFC
  8
3
 10
55.5
 20
25.68062909610001
 30
0.0
  0
VERTEX
  5
1EFD
  8
3
 10
54.86497007650001
 20
25.7309185256
 30
0.0
  0
VERTEX
  5
1EFE
  8
3
 10
54.2921013065
 20
25.87686413439999
 30
0.0
  0
VERTEX
  5
1EFF
  8
3
 10
53.83747007649998
 20
26.1041797494
 30
0.0
  0
VERTEX
  5
1F00
  8
3
 10
53.54557885899999
 20
26.39061413440001
 30
0.0
  0
VERTEX
  5
1F01
  8
3
 10
53.44499999999999
 20
26.70812909610001
 30
0.0
  0
SEQEND
  5
2049
  8
3
  0
POLYLINE
  5
123F
  8
3
 66
     1
 10
0.0
 20
0.0
 30
0.0
  0
VERTEX
  5
1F02
  8
3
 10
53.0
 20
26.9779759907
 30
0.0
  0
VERTEX
  5
1F03
  8
3
 10
53.1012675659
 20
27.3301416868
 30
0.0
  0
VERTEX
  5
1F04
  8
3
 10
53.39686616789999
 20
27.6537770125
 30
0.0
  0
VERTEX
  5
1F05
  8
3
 10
53.86284816509999
 20
27.92266295870002
 30
0.0
  0
VERTEX
  5
1F06
  8
3
 10
54.4614624674
 20
28.1150159849
 30
0.0
  0
VERTEX
  5
1F07
  8
3
 10
55.14421290429999
 20
28.21525279310001
 30
0.0
  0
VERTEX
  5
1F08
  8
3
 10
55.85578709559996
 20
28.21525279310001
 30
0.0
  0
VERTEX
  5
1F09
  8
3
 10
56.53853753250002
 20
28.1150159849
 30
0.0
  0
VERTEX
  5
1F0A
  8
3
 10
57.13715183480002
 20
27.92266295870002
 30
0.0
  0
VERTEX
  5
1F0B
  8
3
 10
57.60313383199997
 20
27.6537770125
 30
0.0
  0
VERTEX
  5
1F0C
  8
3
 10
57.89873243400001
 20
27.3301416868
 30
0.0
  0
VERTEX
  5
1F0D
  8
3
 10
58.0
 20
26.9779759907
 30
0.0
  0
VERTEX
  5
1F0E
  8
3
 10
57.89873243400001
 20
26.62581029470002
 30
0.0
  0
VERTEX
  5
1F0F
  8
3
 10
57.60313383199997
 20
26.3021749689
 30
0.0
  0
VERTEX
  5
1F10
  8
3
 10
57.13715183480002
 20
26.03328902280001
 30
0.0
  0
VERTEX
  5
1F11
  8
3
 10
56.53853753250002
 20
25.84093599650001
 30
0.0
  0
VERTEX
  5
1F12
  8
3
 10
55.85578709559996
 20
25.74069918840001
 30
0.0
  0
VERTEX
  5
1F13
  8
3
 10
55.14421290429999
 20
25.74069918840001
 30
0.0
  0
VERTEX
  5
1F14
  8
3
 10
54.4614624674
 20
25.84093599650001
 30
0.0
  0
VERTEX
  5
1F15
  8
3
 10
53.86284816509999
 20
26.03328902280001
 30
0.0
  0
VERTEX
  5
1F16
  8
3
 10
53.39686616789999
 20
26.3021749689
 30
0.0
  0
VERTEX
  5
1F17
  8
3
 10
53.1012675659
 20
26.62581029470002
 30
0.0
  0
VERTEX
  5
1F18
  8
3
 10
53.0
 20
26.9779759907
 30
0.0
  0
SEQEND
  5
2048
  8
3
  0
POLYLINE
  5
1240
  8
3
 66
     1
 10
0.0
 20
0.0
 30
0.0
  0
VERTEX
  5
1F19
  8
3
 10
53.0
 20
27.0560155421
 30
0.0
  0
VERTEX
  5
1F1A
  8
3
 10
53.1012675659
 20
27.40818123810001
 30
0.0
  0
VERTEX
  5
1F1B
  8
3
 10
53.39686616789999
 20
27.7318165639
 30
0.0
  0
VERTEX
  5
1F1C
  8
3
 10
53.86284816509999
 20
28.00070251
 30
0.0
  0
VERTEX
  5
1F1D
  8
3
 10
54.4614624674
 20
28.19305553629999
 30
0.0
  0
VERTEX
  5
1F1E
  8
3
 10
55.14421290429999
 20
28.29329234440002
 30
0.0
  0
VERTEX
  5
1F1F
  8
3
 10
55.85578709559996
 20
28.29329234440002
 30
0.0
  0
VERTEX
  5
1F20
  8
3
 10
56.53853753250002
 20
28.19305553629999
 30
0.0
  0
VERTEX
  5
1F21
  8
3
 10
57.13715183480002
 20
28.00070251
 30
0.0
  0
VERTEX
  5
1F22
  8
3
 10
57.60313383199997
 20
27.7318165639
 30
0.0
  0
VERTEX
  5
1F23
  8
3
 10
57.89873243400001
 20
27.40818123810001
 30
0.0
  0
VERTEX
  5
1F24
  8
3
 10
58.0
 20
27.0560155421
 30
0.0
  0
VERTEX
  5
1F25
  8
3
 10
57.89873243400001
 20
26.703849846
 30
0.0
  0
VERTEX
  5
1F26
  8
3
 10
57.60313383199997
 20
26.38021452020001
 30
0.0
  0
VERTEX
  5
1F27
  8
3
 10
57.13715183480002
 20
26.11132857410001
 30
0.0
  0
VERTEX
  5
1F28
  8
3
 10
56.53853753250002
 20
25.9189755479
 30
0.0
  0
VERTEX
  5
1F29
  8
3
 10
55.85578709559996
 20
25.8187387397
 30
0.0
  0
VERTEX
  5
1F2A
  8
3
 10
55.14421290429999
 20
25.8187387397
 30
0.0
  0
VERTEX
  5
1F2B
  8
3
 10
54.4614624674
 20
25.9189755479
 30
0.0
  0
VERTEX
  5
1F2C
  8
3
 10
53.86284816509999
 20
26.11132857410001
 30
0.0
  0
VERTEX
  5
1F2D
  8
3
 10
53.39686616789999
 20
26.38021452020001
 30
0.0
  0
VERTEX
  5
1F2E
  8
3
 10
53.1012675659
 20
26.703849846
 30
0.0
  0
VERTEX
  5
1F2F
  8
3
 10
53.0
 20
27.0560155421
 30
0.0
  0
SEQEND
  5
2047
  8
3
  0
POLYLINE
  5
1241
  8
3
 66
     1
 10
0.0
 20
0.0
 30
0.0
  0
VERTEX
  5
1F30
  8
3
 10
53.44499999999999
 20
27.32586243670002
 30
0.0
  0
VERTEX
  5
1F31
  8
3
 10
53.54557885899999
 20
27.64337739840002
 30
0.0
  0
VERTEX
  5
1F32
  8
3
 10
53.83747007649998
 20
27.9298117834
 30
0.0
  0
VERTEX
  5
1F33
  8
3
 10
54.2921013065
 20
28.15712739840001
 30
0.0
  0
VERTEX
  5
1F34
  8
3
 10
54.86497007650001
 20
28.3030730072
 30
0.0
  0
VERTEX
  5
1F35
  8
3
 10
55.5
 20
28.3533624367
 30
0.0
  0
VERTEX
  5
1F36
  8
3
 10
56.1350299234
 20
28.3030730072
 30
0.0
  0
VERTEX
  5
1F37
  8
3
 10
56.70789869339995
 20
28.15712739840001
 30
0.0
  0
VERTEX
  5
1F38
  8
3
 10
57.16252992339997
 20
27.9298117834
 30
0.0
  0
VERTEX
  5
1F39
  8
3
 10
57.45442114090002
 20
27.64337739840002
 30
0.0
  0
VERTEX
  5
1F3A
  8
3
 10
57.55500000000001
 20
27.32586243670002
 30
0.0
  0
VERTEX
  5
1F3B
  8
3
 10
57.45442114090002
 20
27.00834747499999
 30
0.0
  0
VERTEX
  5
1F3C
  8
3
 10
57.16252992339997
 20
26.72191309000002
 30
0.0
  0
VERTEX
  5
1F3D
  8
3
 10
56.70789869339995
 20
26.49459747500001
 30
0.0
  0
VERTEX
  5
1F3E
  8
3
 10
56.1350299234
 20
26.34865186620002
 30
0.0
  0
VERTEX
  5
1F3F
  8
3
 10
55.5
 20
26.29836243670002
 30
0.0
  0
VERTEX
  5
1F40
  8
3
 10
54.86497007650001
 20
26.34865186620002
 30
0.0
  0
VERTEX
  5
1F41
  8
3
 10
54.2921013065
 20
26.49459747500001
 30
0.0
  0
VERTEX
  5
1F42
  8
3
 10
53.83747007649998
 20
26.72191309000002
 30
0.0
  0
VERTEX
  5
1F43
  8
3
 10
53.54557885899999
 20
27.00834747499999
 30
0.0
  0
VERTEX
  5
1F44
  8
3
 10
53.44499999999999
 20
27.32586243670002
 30
0.0
  0
SEQEND
  5
2046
  8
3
  0
POLYLINE
  5
1242
  8
3
 66
     1
 10
0.0
 20
0.0
 30
0.0
  0
VERTEX
  5
1F45
  8
3
 10
53.0
 20
27.59570933130001
 30
0.0
  0
VERTEX
  5
1F46
  8
3
 10
53.1012675659
 20
27.94787502740002
 30
0.0
  0
VERTEX
  5
1F47
  8
3
 10
53.39686616789999
 20
28.27151035310001
 30
0.0
  0
VERTEX
  5
1F48
  8
3
 10
53.86284816509999
 20
28.5403962993
 30
0.0
  0
VERTEX
  5
1F49
  8
3
 10
54.4614624674
 20
28.73274932550001
 30
0.0
  0
VERTEX
  5
1F4A
  8
3
 10
55.14421290429999
 20
28.83298613370002
 30
0.0
  0
VERTEX
  5
1F4B
  8
3
 10
55.85578709559996
 20
28.83298613370002
 30
0.0
  0
VERTEX
  5
1F4C
  8
3
 10
56.53853753250002
 20
28.73274932550001
 30
0.0
  0
VERTEX
  5
1F4D
  8
3
 10
57.13715183480002
 20
28.5403962993
 30
0.0
  0
VERTEX
  5
1F4E
  8
3
 10
57.60313383199997
 20
28.27151035310001
 30
0.0
  0
VERTEX
  5
1F4F
  8
3
 10
57.89873243400001
 20
27.94787502740002
 30
0.0
  0
VERTEX
  5
1F50
  8
3
 10
58.0
 20
27.59570933130001
 30
0.0
  0
VERTEX
  5
1F51
  8
3
 10
57.89873243400001
 20
27.2435436353
 30
0.0
  0
VERTEX
  5
1F52
  8
3
 10
57.60313383199997
 20
26.91990830950002
 30
0.0
  0
VERTEX
  5
1F53
  8
3
 10
57.13715183480002
 20
26.65102236340002
 30
0.0
  0
VERTEX
  5
1F54
  8
3
 10
56.53853753250002
 20
26.45866933710002
 30
0.0
  0
VERTEX
  5
1F55
  8
3
 10
55.85578709559996
 20
26.358432529
 30
0.0
  0
VERTEX
  5
1F56
  8
3
 10
55.14421290429999
 20
26.358432529
 30
0.0
  0
VERTEX
  5
1F57
  8
3
 10
54.4614624674
 20
26.45866933710002
 30
0.0
  0
VERTEX
  5
1F58
  8
3
 10
53.86284816509999
 20
26.65102236340002
 30
0.0
  0
VERTEX
  5
1F59
  8
3
 10
53.39686616789999
 20
26.91990830950002
 30
0.0
  0
VERTEX
  5
1F5A
  8
3
 10
53.1012675659
 20
27.2435436353
 30
0.0
  0
VERTEX
  5
1F5B
  8
3
 10
53.0
 20
27.59570933130001
 30
0.0
  0
SEQEND
  5
2045
  8
3
  0
POLYLINE
  5
1243
  8
3
 66
     1
 10
0.0
 20
0.0
 30
0.0
  0
VERTEX
  5
1F5C
  8
3
 10
53.0
 20
27.67374888270001
 30
0.0
  0
VERTEX
  5
1F5D
  8
3
 10
53.1012675659
 20
28.0259145787
 30
0.0
  0
VERTEX
  5
1F5E
  8
3
 10
53.39686616789999
 20
28.34954990450001
 30
0.0
  0
VERTEX
  5
1F5F
  8
3
 10
53.86284816509999
 20
28.61843585060001
 30
0.0
  0
VERTEX
  5
1F60
  8
3
 10
54.4614624674
 20
28.81078887690001
 30
0.0
  0
VERTEX
  5
1F61
  8
3
 10
55.14421290429999
 20
28.911025685
 30
0.0
  0
VERTEX
  5
1F62
  8
3
 10
55.85578709559996
 20
28.911025685
 30
0.0
  0
VERTEX
  5
1F63
  8
3
 10
56.53853753250002
 20
28.81078887690001
 30
0.0
  0
VERTEX
  5
1F64
  8
3
 10
57.13715183480002
 20
28.61843585060001
 30
0.0
  0
VERTEX
  5
1F65
  8
3
 10
57.60313383199997
 20
28.34954990450001
 30
0.0
  0
VERTEX
  5
1F66
  8
3
 10
57.89873243400001
 20
28.0259145787
 30
0.0
  0
VERTEX
  5
1F67
  8
3
 10
58.0
 20
27.67374888270001
 30
0.0
  0
VERTEX
  5
1F68
  8
3
 10
57.89873243400001
 20
27.32158318660001
 30
0.0
  0
VERTEX
  5
1F69
  8
3
 10
57.60313383199997
 20
26.99794786090001
 30
0.0
  0
VERTEX
  5
1F6A
  8
3
 10
57.13715183480002
 20
26.7290619147
 30
0.0
  0
VERTEX
  5
1F6B
  8
3
 10
56.53853753250002
 20
26.53670888850002
 30
0.0
  0
VERTEX
  5
1F6C
  8
3
 10
55.85578709559996
 20
26.43647208030001
 30
0.0
  0
VERTEX
  5
1F6D
  8
3
 10
55.14421290429999
 20
26.43647208030001
 30
0.0
  0
VERTEX
  5
1F6E
  8
3
 10
54.4614624674
 20
26.53670888850002
 30
0.0
  0
VERTEX
  5
1F6F
  8
3
 10
53.86284816509999
 20
26.7290619147
 30
0.0
  0
VERTEX
  5
1F70
  8
3
 10
53.39686616789999
 20
26.99794786090001
 30
0.0
  0
VERTEX
  5
1F71
  8
3
 10
53.1012675659
 20
27.32158318660001
 30
0.0
  0
VERTEX
  5
1F72
  8
3
 10
53.0
 20
27.67374888270001
 30
0.0
  0
SEQEND
  5
2044
  8
3
  0
POLYLINE
  5
1244
  8
3
 66
     1
 10
0.0
 20
0.0
 30
0.0
  0
VERTEX
  5
1F73
  8
3
 10
53.44499999999999
 20
27.9435957773
 30
0.0
  0
VERTEX
  5
1F74
  8
3
 10
53.54557885899999
 20
28.261110739
 30
0.0
  0
VERTEX
  5
1F75
  8
3
 10
53.83747007649998
 20
28.54754512400001
 30
0.0
  0
VERTEX
  5
1F76
  8
3
 10
54.2921013065
 20
28.77486073900002
 30
0.0
  0
VERTEX
  5
1F77
  8
3
 10
54.86497007650001
 20
28.92080634780001
 30
0.0
  0
VERTEX
  5
1F78
  8
3
 10
55.5
 20
28.97109577730001
 30
0.0
  0
VERTEX
  5
1F79
  8
3
 10
56.1350299234
 20
28.92080634780001
 30
0.0
  0
VERTEX
  5
1F7A
  8
3
 10
56.70789869339995
 20
28.77486073900002
 30
0.0
  0
VERTEX
  5
1F7B
  8
3
 10
57.16252992339997
 20
28.54754512400001
 30
0.0
  0
VERTEX
  5
1F7C
  8
3
 10
57.45442114090002
 20
28.261110739
 30
0.0
  0
VERTEX
  5
1F7D
  8
3
 10
57.55500000000001
 20
27.9435957773
 30
0.0
  0
VERTEX
  5
1F7E
  8
3
 10
57.45442114090002
 20
27.62608081560001
 30
0.0
  0
VERTEX
  5
1F7F
  8
3
 10
57.16252992339997
 20
27.3396464306
 30
0.0
  0
VERTEX
  5
1F80
  8
3
 10
56.70789869339995
 20
27.11233081560002
 30
0.0
  0
VERTEX
  5
1F81
  8
3
 10
56.1350299234
 20
26.9663852068
 30
0.0
  0
VERTEX
  5
1F82
  8
3
 10
55.5
 20
26.9160957773
 30
0.0
  0
VERTEX
  5
1F83
  8
3
 10
54.86497007650001
 20
26.9663852068
 30
0.0
  0
VERTEX
  5
1F84
  8
3
 10
54.2921013065
 20
27.11233081560002
 30
0.0
  0
VERTEX
  5
1F85
  8
3
 10
53.83747007649998
 20
27.3396464306
 30
0.0
  0
VERTEX
  5
1F86
  8
3
 10
53.54557885899999
 20
27.62608081560001
 30
0.0
  0
VERTEX
  5
1F87
  8
3
 10
53.44499999999999
 20
27.9435957773
 30
0.0
  0
SEQEND
  5
2043
  8
3
  0
POLYLINE
  5
1245
  8
3
 66
     1
 10
0.0
 20
0.0
 30
0.0
  0
VERTEX
  5
1F88
  8
3
 10
53.0
 20
28.2134426719
 30
0.0
  0
VERTEX
  5
1F89
  8
3
 10
53.1012675659
 20
28.565608368
 30
0.0
  0
VERTEX
  5
1F8A
  8
3
 10
53.39686616789999
 20
28.8892436937
 30
0.0
  0
VERTEX
  5
1F8B
  8
3
 10
53.86284816509999
 20
29.15812963990001
 30
0.0
  0
VERTEX
  5
1F8C
  8
3
 10
54.4614624674
 20
29.35048266610002
 30
0.0
  0
VERTEX
  5
1F8D
  8
3
 10
55.14421290429999
 20
29.4507194743
 30
0.0
  0
VERTEX
  5
1F8E
  8
3
 10
55.85578709559996
 20
29.4507194743
 30
0.0
  0
VERTEX
  5
1F8F
  8
3
 10
56.53853753250002
 20
29.35048266610002
 30
0.0
  0
VERTEX
  5
1F90
  8
3
 10
57.13715183480002
 20
29.15812963990001
 30
0.0
  0
VERTEX
  5
1F91
  8
3
 10
57.60313383199997
 20
28.8892436937
 30
0.0
  0
VERTEX
  5
1F92
  8
3
 10
57.89873243400001
 20
28.565608368
 30
0.0
  0
VERTEX
  5
1F93
  8
3
 10
58.0
 20
28.2134426719
 30
0.0
  0
VERTEX
  5
1F94
  8
3
 10
57.89873243400001
 20
27.86127697590001
 30
0.0
  0
VERTEX
  5
1F95
  8
3
 10
57.60313383199997
 20
27.5376416501
 30
0.0
  0
VERTEX
  5
1F96
  8
3
 10
57.13715183480002
 20
27.268755704
 30
0.0
  0
VERTEX
  5
1F97
  8
3
 10
56.53853753250002
 20
27.0764026777
 30
0.0
  0
VERTEX
  5
1F98
  8
3
 10
55.85578709559996
 20
26.97616586960001
 30
0.0
  0
VERTEX
  5
1F99
  8
3
 10
55.14421290429999
 20
26.97616586960001
 30
0.0
  0
VERTEX
  5
1F9A
  8
3
 10
54.4614624674
 20
27.0764026777
 30
0.0
  0
VERTEX
  5
1F9B
  8
3
 10
53.86284816509999
 20
27.268755704
 30
0.0
  0
VERTEX
  5
1F9C
  8
3
 10
53.39686616789999
 20
27.5376416501
 30
0.0
  0
VERTEX
  5
1F9D
  8
3
 10
53.1012675659
 20
27.86127697590001
 30
0.0
  0
VERTEX
  5
1F9E
  8
3
 10
53.0
 20
28.2134426719
 30
0.0
  0
SEQEND
  5
2042
  8
3
  0
POLYLINE
  5
1246
  8
3
 66
     1
 10
0.0
 20
0.0
 30
0.0
  0
VERTEX
  5
1F9F
  8
3
 10
53.0
 20
28.29148222329999
 30
0.0
  0
VERTEX
  5
1FA0
  8
3
 10
53.1012675659
 20
28.64364791930001
 30
0.0
  0
VERTEX
  5
1FA1
  8
3
 10
53.39686616789999
 20
28.96728324510002
 30
0.0
  0
VERTEX
  5
1FA2
  8
3
 10
53.86284816509999
 20
29.23616919120002
 30
0.0
  0
VERTEX
  5
1FA3
  8
3
 10
54.4614624674
 20
29.42852221750002
 30
0.0
  0
VERTEX
  5
1FA4
  8
3
 10
55.14421290429999
 20
29.52875902560001
 30
0.0
  0
VERTEX
  5
1FA5
  8
3
 10
55.85578709559996
 20
29.52875902560001
 30
0.0
  0
VERTEX
  5
1FA6
  8
3
 10
56.53853753250002
 20
29.42852221750002
 30
0.0
  0
VERTEX
  5
1FA7
  8
3
 10
57.13715183480002
 20
29.23616919120002
 30
0.0
  0
VERTEX
  5
1FA8
  8
3
 10
57.60313383199997
 20
28.96728324510002
 30
0.0
  0
VERTEX
  5
1FA9
  8
3
 10
57.89873243400001
 20
28.64364791930001
 30
0.0
  0
VERTEX
  5
1FAA
  8
3
 10
58.0
 20
28.29148222329999
 30
0.0
  0
VERTEX
  5
1FAB
  8
3
 10
57.89873243400001
 20
27.93931652720002
 30
0.0
  0
VERTEX
  5
1FAC
  8
3
 10
57.60313383199997
 20
27.6156812015
 30
0.0
  0
VERTEX
  5
1FAD
  8
3
 10
57.13715183480002
 20
27.34679525530001
 30
0.0
  0
VERTEX
  5
1FAE
  8
3
 10
56.53853753250002
 20
27.1544422291
 30
0.0
  0
VERTEX
  5
1FAF
  8
3
 10
55.85578709559996
 20
27.05420542090002
 30
0.0
  0
VERTEX
  5
1FB0
  8
3
 10
55.14421290429999
 20
27.05420542090002
 30
0.0
  0
VERTEX
  5
1FB1
  8
3
 10
54.4614624674
 20
27.1544422291
 30
0.0
  0
VERTEX
  5
1FB2
  8
3
 10
53.86284816509999
 20
27.34679525530001
 30
0.0
  0
VERTEX
  5
1FB3
  8
3
 10
53.39686616789999
 20
27.6156812015
 30
0.0
  0
VERTEX
  5
1FB4
  8
3
 10
53.1012675659
 20
27.93931652720002
 30
0.0
  0
VERTEX
  5
1FB5
  8
3
 10
53.0
 20
28.29148222329999
 30
0.0
  0
SEQEND
  5
2041
  8
3
  0
POLYLINE
  5
1247
  8
3
 66
     1
 10
0.0
 20
0.0
 30
0.0
  0
VERTEX
  5
1FB6
  8
3
 10
53.44499999999999
 20
28.56132911790002
 30
0.0
  0
VERTEX
  5
1FB7
  8
3
 10
53.54557885899999
 20
28.87884407960001
 30
0.0
  0
VERTEX
  5
1FB8
  8
3
 10
53.83747007649998
 20
29.16527846459999
 30
0.0
  0
VERTEX
  5
1FB9
  8
3
 10
54.2921013065
 20
29.3925940796
 30
0.0
  0
VERTEX
  5
1FBA
  8
3
 10
54.86497007650001
 20
29.53853968839999
 30
0.0
  0
VERTEX
  5
1FBB
  8
3
 10
55.5
 20
29.58882911790002
 30
0.0
  0
VERTEX
  5
1FBC
  8
3
 10
56.1350299234
 20
29.53853968839999
 30
0.0
  0
VERTEX
  5
1FBD
  8
3
 10
56.70789869339995
 20
29.3925940796
 30
0.0
  0
VERTEX
  5
1FBE
  8
3
 10
57.16252992339997
 20
29.16527846459999
 30
0.0
  0
VERTEX
  5
1FBF
  8
3
 10
57.45442114090002
 20
28.87884407960001
 30
0.0
  0
VERTEX
  5
1FC0
  8
3
 10
57.55500000000001
 20
28.56132911790002
 30
0.0
  0
VERTEX
  5
1FC1
  8
3
 10
57.45442114090002
 20
28.24381415620002
 30
0.0
  0
VERTEX
  5
1FC2
  8
3
 10
57.16252992339997
 20
27.95737977120001
 30
0.0
  0
VERTEX
  5
1FC3
  8
3
 10
56.70789869339995
 20
27.7300641562
 30
0.0
  0
VERTEX
  5
1FC4
  8
3
 10
56.1350299234
 20
27.58411854740001
 30
0.0
  0
VERTEX
  5
1FC5
  8
3
 10
55.5
 20
27.53382911790001
 30
0.0
  0
VERTEX
  5
1FC6
  8
3
 10
54.86497007650001
 20
27.58411854740001
 30
0.0
  0
VERTEX
  5
1FC7
  8
3
 10
54.2921013065
 20
27.7300641562
 30
0.0
  0
VERTEX
  5
1FC8
  8
3
 10
53.83747007649998
 20
27.95737977120001
 30
0.0
  0
VERTEX
  5
1FC9
  8
3
 10
53.54557885899999
 20
28.24381415620002
 30
0.0
  0
VERTEX
  5
1FCA
  8
3
 10
53.44499999999999
 20
28.56132911790002
 30
0.0
  0
SEQEND
  5
2040
  8
3
  0
POLYLINE
  5
1248
  8
3
 66
     1
 10
0.0
 20
0.0
 30
0.0
  0
VERTEX
  5
1FCB
  8
3
 10
53.0
 20
28.83117601250001
 30
0.0
  0
VERTEX
  5
1FCC
  8
3
 10
53.1012675659
 20
29.18334170860001
 30
0.0
  0
VERTEX
  5
1FCD
  8
3
 10
53.39686616789999
 20
29.50697703430001
 30
0.0
  0
VERTEX
  5
1FCE
  8
3
 10
53.86284816509999
 20
29.77586298049999
 30
0.0
  0
VERTEX
  5
1FCF
  8
3
 10
54.4614624674
 20
29.9682160067
 30
0.0
  0
VERTEX
  5
1FD0
  8
3
 10
55.14421290429999
 20
30.06845281490001
 30
0.0
  0
VERTEX
  5
1FD1
  8
3
 10
55.85578709559996
 20
30.06845281490001
 30
0.0
  0
VERTEX
  5
1FD2
  8
3
 10
56.53853753250002
 20
29.9682160067
 30
0.0
  0
VERTEX
  5
1FD3
  8
3
 10
57.13715183480002
 20
29.77586298049999
 30
0.0
  0
VERTEX
  5
1FD4
  8
3
 10
57.60313383199997
 20
29.50697703430001
 30
0.0
  0
VERTEX
  5
1FD5
  8
3
 10
57.89873243400001
 20
29.18334170860001
 30
0.0
  0
VERTEX
  5
1FD6
  8
3
 10
58.0
 20
28.83117601250001
 30
0.0
  0
VERTEX
  5
1FD7
  8
3
 10
57.89873243400001
 20
28.47901031649999
 30
0.0
  0
VERTEX
  5
1FD8
  8
3
 10
57.60313383199997
 20
28.15537499070001
 30
0.0
  0
VERTEX
  5
1FD9
  8
3
 10
57.13715183480002
 20
27.88648904460001
 30
0.0
  0
VERTEX
  5
1FDA
  8
3
 10
56.53853753250002
 20
27.69413601830001
 30
0.0
  0
VERTEX
  5
1FDB
  8
3
 10
55.85578709559996
 20
27.59389921019999
 30
0.0
  0
VERTEX
  5
1FDC
  8
3
 10
55.14421290429999
 20
27.59389921019999
 30
0.0
  0
VERTEX
  5
1FDD
  8
3
 10
54.4614624674
 20
27.69413601830001
 30
0.0
  0
VERTEX
  5
1FDE
  8
3
 10
53.86284816509999
 20
27.88648904460001
 30
0.0
  0
VERTEX
  5
1FDF
  8
3
 10
53.39686616789999
 20
28.15537499070001
 30
0.0
  0
VERTEX
  5
1FE0
  8
3
 10
53.1012675659
 20
28.47901031649999
 30
0.0
  0
VERTEX
  5
1FE1
  8
3
 10
53.0
 20
28.83117601250001
 30
0.0
  0
SEQEND
  5
203F
  8
3
  0
LINE
  5
1249
  8
3
 10
55.5
 20
27.7849817048
 30
0.0
 11
55.5
 21
30.12325029500002
 31
0.0
  0
LINE
  5
124A
  8
3
 10
56.75
 20
27.42413778650001
 30
0.0
 11
55.5
 21
27.7849817048
 31
0.0
  0
LINE
  5
124B
  8
3
 10
54.25
 20
27.42413778650001
 30
0.0
 11
55.5
 21
27.7849817048
 31
0.0
  0
POLYLINE
  5
124C
  8
3
 66
     1
 10
0.0
 20
0.0
 30
0.0
  0
VERTEX
  5
1FE2
  8
3
 10
53.0
 20
28.90921556390001
 30
0.0
  0
VERTEX
  5
1FE3
  8
3
 10
53.1012675659
 20
29.26138125990002
 30
0.0
  0
VERTEX
  5
1FE4
  8
3
 10
53.39686616789999
 20
29.5850165857
 30
0.0
  0
VERTEX
  5
1FE5
  8
3
 10
53.86284816509999
 20
29.8539025318
 30
0.0
  0
VERTEX
  5
1FE6
  8
3
 10
54.4614624674
 20
30.0462555581
 30
0.0
  0
VERTEX
  5
1FE7
  8
3
 10
55.14421290429999
 20
30.14649236619999
 30
0.0
  0
VERTEX
  5
1FE8
  8
3
 10
55.85578709559996
 20
30.14649236619999
 30
0.0
  0
VERTEX
  5
1FE9
  8
3
 10
56.53853753250002
 20
30.0462555581
 30
0.0
  0
VERTEX
  5
1FEA
  8
3
 10
57.13715183480002
 20
29.8539025318
 30
0.0
  0
VERTEX
  5
1FEB
  8
3
 10
57.60313383199997
 20
29.5850165857
 30
0.0
  0
VERTEX
  5
1FEC
  8
3
 10
57.89873243400001
 20
29.26138125990002
 30
0.0
  0
VERTEX
  5
1FED
  8
3
 10
58.0
 20
28.90921556390001
 30
0.0
  0
VERTEX
  5
1FEE
  8
3
 10
57.89873243400001
 20
28.5570498678
 30
0.0
  0
VERTEX
  5
1FEF
  8
3
 10
57.60313383199997
 20
28.23341454210001
 30
0.0
  0
VERTEX
  5
1FF0
  8
3
 10
57.13715183480002
 20
27.96452859590002
 30
0.0
  0
VERTEX
  5
1FF1
  8
3
 10
56.53853753250002
 20
27.77217556970001
 30
0.0
  0
VERTEX
  5
1FF2
  8
3
 10
55.85578709559996
 20
27.6719387615
 30
0.0
  0
VERTEX
  5
1FF3
  8
3
 10
55.14421290429999
 20
27.6719387615
 30
0.0
  0
VERTEX
  5
1FF4
  8
3
 10
54.4614624674
 20
27.77217556970001
 30
0.0
  0
VERTEX
  5
1FF5
  8
3
 10
53.86284816509999
 20
27.96452859590002
 30
0.0
  0
VERTEX
  5
1FF6
  8
3
 10
53.39686616789999
 20
28.23341454210001
 30
0.0
  0
VERTEX
  5
1FF7
  8
3
 10
53.1012675659
 20
28.5570498678
 30
0.0
  0
VERTEX
  5
1FF8
  8
3
 10
53.0
 20
28.90921556390001
 30
0.0
  0
SEQEND
  5
203E
  8
3
  0
POLYLINE
  5
124D
  8
3
 66
     1
 10
0.0
 20
0.0
 30
0.0
  0
VERTEX
  5
1FF9
  8
3
 10
53.44499999999999
 20
29.1790624585
 30
0.0
  0
VERTEX
  5
1FFA
  8
3
 10
53.54557885899999
 20
29.4965774202
 30
0.0
  0
VERTEX
  5
1FFB
  8
3
 10
53.83747007649998
 20
29.7830118052
 30
0.0
  0
VERTEX
  5
1FFC
  8
3
 10
54.2921013065
 20
30.01032742020001
 30
0.0
  0
VERTEX
  5
1FFD
  8
3
 10
54.86497007650001
 20
30.156273029
 30
0.0
  0
VERTEX
  5
1FFE
  8
3
 10
55.5
 20
30.2065624585
 30
0.0
  0
VERTEX
  5
1FFF
  8
3
 10
56.1350299234
 20
30.156273029
 30
0.0
  0
VERTEX
  5
2000
  8
3
 10
56.70789869339995
 20
30.01032742020001
 30
0.0
  0
VERTEX
  5
2001
  8
3
 10
57.16252992339997
 20
29.7830118052
 30
0.0
  0
VERTEX
  5
2002
  8
3
 10
57.45442114090002
 20
29.4965774202
 30
0.0
  0
VERTEX
  5
2003
  8
3
 10
57.55500000000001
 20
29.1790624585
 30
0.0
  0
VERTEX
  5
2004
  8
3
 10
57.45442114090002
 20
28.8615474968
 30
0.0
  0
VERTEX
  5
2005
  8
3
 10
57.16252992339997
 20
28.57511311179999
 30
0.0
  0
VERTEX
  5
2006
  8
3
 10
56.70789869339995
 20
28.34779749680001
 30
0.0
  0
VERTEX
  5
2007
  8
3
 10
56.1350299234
 20
28.20185188799999
 30
0.0
  0
VERTEX
  5
2008
  8
3
 10
55.5
 20
28.1515624585
 30
0.0
  0
VERTEX
  5
2009
  8
3
 10
54.86497007650001
 20
28.20185188799999
 30
0.0
  0
VERTEX
  5
200A
  8
3
 10
54.2921013065
 20
28.34779749680001
 30
0.0
  0
VERTEX
  5
200B
  8
3
 10
53.83747007649998
 20
28.57511311179999
 30
0.0
  0
VERTEX
  5
200C
  8
3
 10
53.54557885899999
 20
28.8615474968
 30
0.0
  0
VERTEX
  5
200D
  8
3
 10
53.44499999999999
 20
29.1790624585
 30
0.0
  0
SEQEND
  5
203D
  8
3
  0
POLYLINE
  5
124E
  8
3
 66
     1
 10
0.0
 20
0.0
 30
0.0
  0
VERTEX
  5
200E
  8
3
 10
53.24389687310003
 20
29.30101089510001
 30
0.0
  0
VERTEX
  5
200F
  8
3
 10
53.34412920489996
 20
28.9685118598
 30
0.0
  0
VERTEX
  5
2010
  8
3
 10
53.63592011769998
 20
28.66555682290002
 30
0.0
  0
VERTEX
  5
2011
  8
3
 10
54.09334270840003
 20
28.41906466899999
 30
0.0
  0
VERTEX
  5
2012
  8
3
 10
54.67575297249999
 20
28.2509373076
 30
0.0
  0
VERTEX
  5
2013
  8
3
 10
55.33140120209998
 20
28.17611359260002
 30
0.0
  0
VERTEX
  5
2014
  8
3
 10
56.00203017479998
 20
28.20124193949999
 30
0.0
  0
VERTEX
  5
2015
  8
3
 10
56.62805156339999
 20
28.32408958440001
 30
0.0
  0
VERTEX
  5
2016
  8
3
 10
57.15384062009997
 20
28.5337409748
 30
0.0
  0
VERTEX
  5
2017
  8
3
 10
57.53267868
 20
28.81156766480001
 30
0.0
  0
VERTEX
  5
2018
  8
3
 10
57.7309043189
 20
29.13288353370001
 30
0.0
  0
VERTEX
  5
2019
  8
3
 10
57.7309043189
 20
29.4691382565
 30
0.0
  0
VERTEX
  5
201A
  8
3
 10
57.53267868
 20
29.79045412530002
 30
0.0
  0
VERTEX
  5
201B
  8
3
 10
57.15384062009997
 20
30.0682808153
 30
0.0
  0
VERTEX
  5
201C
  8
3
 10
56.62805156339999
 20
30.2779322058
 30
0.0
  0
VERTEX
  5
201D
  8
3
 10
56.00203017479998
 20
30.4007798506
 30
0.0
  0
VERTEX
  5
201E
  8
3
 10
55.33140120209998
 20
30.42590819750001
 30
0.0
  0
VERTEX
  5
201F
  8
3
 10
54.67575297249999
 20
30.35108448260002
 30
0.0
  0
VERTEX
  5
2020
  8
3
 10
54.09334270840003
 20
30.18295712120002
 30
0.0
  0
VERTEX
  5
2021
  8
3
 10
53.63592011769998
 20
29.9364649673
 30
0.0
  0
VERTEX
  5
2022
  8
3
 10
53.34412920489996
 20
29.63350993040001
 30
0.0
  0
VERTEX
  5
2023
  8
3
 10
53.24389687310003
 20
29.30101089510001
 30
0.0
  0
SEQEND
  5
203C
  8
3
  0
LINE
  5
124F
  8
3
 10
54.25
 20
27.42413778650001
 30
0.0
 11
54.25
 21
26.70244995000002
 31
0.0
  0
LINE
  5
1250
  8
3
 10
54.25
 20
27.42413778650001
 30
0.0
 11
54.25
 21
29.7624063767
 31
0.0
  0
LINE
  5
1251
  8
3
 10
56.75
 20
27.42413778650001
 30
0.0
 11
56.75
 21
26.70244995000002
 31
0.0
  0
LINE
  5
1252
  8
3
 10
56.75
 20
27.42413778650001
 30
0.0
 11
56.75
 21
29.7624063767
 31
0.0
  0
POLYLINE
  5
1253
  8
3
 66
     1
 10
0.0
 20
0.0
 30
0.0
  0
VERTEX
  5
2024
  8
3
 10
55.5
 20
30.4290624585
 30
0.0
  0
VERTEX
  5
2025
  8
3
 10
56.1350299234
 20
30.378773029
 30
0.0
  0
VERTEX
  5
2026
  8
3
 10
56.70789869339995
 20
30.23282742020001
 30
0.0
  0
VERTEX
  5
2027
  8
3
 10
57.16252992339997
 20
30.0055118052
 30
0.0
  0
VERTEX
  5
2028
  8
3
 10
57.45442114090002
 20
29.71907742019999
 30
0.0
  0
VERTEX
  5
2029
  8
3
 10
57.55500000000001
 20
29.4015624585
 30
0.0
  0
VERTEX
  5
202A
  8
3
 10
57.45442114090002
 20
29.0840474968
 30
0.0
  0
VERTEX
  5
202B
  8
3
 10
57.16252992339997
 20
28.79761311180002
 30
0.0
  0
VERTEX
  5
202C
  8
3
 10
56.70789869339995
 20
28.57029749680001
 30
0.0
  0
VERTEX
  5
202D
  8
3
 10
56.1350299234
 20
28.42435188800002
 30
0.0
  0
VERTEX
  5
202E
  8
3
 10
55.5
 20
28.37406245850002
 30
0.0
  0
VERTEX
  5
202F
  8
3
 10
54.86497007650001
 20
28.42435188800002
 30
0.0
  0
VERTEX
  5
2030
  8
3
 10
54.2921013065
 20
28.57029749680001
 30
0.0
  0
VERTEX
  5
2031
  8
3
 10
53.83747007649998
 20
28.79761311180002
 30
0.0
  0
VERTEX
  5
2032
  8
3
 10
53.54557885899999
 20
29.0840474968
 30
0.0
  0
VERTEX
  5
2033
  8
3
 10
53.44499999999999
 20
29.4015624585
 30
0.0
  0
VERTEX
  5
2034
  8
3
 10
53.54557885899999
 20
29.71907742019999
 30
0.0
  0
VERTEX
  5
2035
  8
3
 10
53.83747007649998
 20
30.0055118052
 30
0.0
  0
VERTEX
  5
2036
  8
3
 10
54.2921013065
 20
30.23282742020001
 30
0.0
  0
VERTEX
  5
2037
  8
3
 10
54.86497007650001
 20
30.378773029
 30
0.0
  0
VERTEX
  5
2038
  8
3
 10
55.5
 20
30.4290624585
 30
0.0
  0
SEQEND
  5
203B
  8
3
  0
LINE
  5
1254
  8
3
 10
56.75
 20
29.7624063767
 30
0.0
 11
55.5
 21
30.12325029500002
 31
0.0
  0
LINE
  5
1255
  8
3
 10
54.25
 20
29.7624063767
 30
0.0
 11
55.5
 21
30.12325029500002
 31
0.0
  0
LINE
  5
1256
  8
3
 10
55.5
 20
26.34160603180001
 30
0.0
 11
55.5
 21
27.7849817048
 31
0.0
  0
LINE
  5
1257
  8
3
 10
56.75
 20
29.04071854030002
 30
0.0
 11
55.5
 21
28.679874622
 31
0.0
  0
LINE
  5
1258
  8
3
 10
56.75
 20
26.70244995000002
 30
0.0
 11
55.5
 21
26.34160603180001
 31
0.0
  0
LINE
  5
1259
  8
3
 10
54.25
 20
29.04071854030002
 30
0.0
 11
55.5
 21
28.679874622
 31
0.0
  0
LINE
  5
125A
  8
3
 10
54.25
 20
26.70244995000002
 30
0.0
 11
55.5
 21
26.34160603180001
 31
0.0
  0
LINE
  5
125B
  8
3
 10
59.58967000000001
 20
7.9375
 30
0.0
 11
59.58967000000001
 21
-7.9375
 31
0.0
  0
LINE
  5
125C
  8
3
 10
58.75020000000001
 20
7.098029999999994
 30
0.0
 11
58.75020000000001
 21
-7.098029999999994
 31
0.0
  0
LINE
  5
1265
  8
3
 10
51.89776030490003
 20
-19.04619
 30
0.0
 11
51.89776030490003
 21
-31.75380999999999
 31
0.0
  0
LINE
  5
1266
  8
3
 10
49.83480000000003
 20
-19.304
 30
0.0
 11
49.83480000000003
 21
-31.49599999999998
 31
0.0
  0
LINE
  5
1267
  8
3
 10
50.75963951059998
 20
-19.05618999999999
 30
0.0
 11
50.75963951059998
 21
-31.74381
 31
0.0
  0
LINE
  5
1268
  8
3
 10
51.89776030490003
 20
31.75381000000002
 30
0.0
 11
51.89776030490003
 21
19.04619
 31
0.0
  0
LINE
  5
1269
  8
3
 10
49.83480000000003
 20
31.49600000000001
 30
0.0
 11
49.83480000000003
 21
19.304
 31
0.0
  0
LINE
  5
126A
  8
3
 10
50.75963951059998
 20
31.74381
 30
0.0
 11
50.75963951059998
 21
19.05619000000002
 31
0.0
  0
LINE
  5
1275
  8
3
 10
63.5
 20
2.0
 30
0.0
 11
56.14689797369999
 21
2.0
 31
0.0
  0
LINE
  5
1276
  8
3
 10
56.15012668539998
 20
-2.0
 30
0.0
 11
63.5
 21
-2.0
 31
0.0
  0
LINE
  5
1277
  8
3
 10
54.84987331450003
 20
2.0
 30
0.0
 11
51.0
 21
2.0
 31
0.0
  0
LINE
  5
1278
  8
3
 10
51.0
 20
-2.0
 30
0.0
 11
54.85310202620002
 21
-2.0
 31
0.0
  0
LINE
  5
1279
  8
3
 10
51.0
 20
2.0
 30
0.0
 11
49.79827876190001
 21
0.0
 31
0.0
  0
LINE
  5
127A
  8
3
 10
49.79827876190001
 20
0.0
 30
0.0
 11
51.0
 21
-2.0
 31
0.0
  0
LINE
  5
127D
  8
3
 10
27.5
 20
29.69
 30
0.0
 11
29.20999999999998
 21
31.40000000000001
 31
0.0
  0
LINE
  5
127E
  8
3
 10
29.20999999999998
 20
-31.40000000000001
 30
0.0
 11
27.5
 21
-29.69
 31
0.0
  0
ARC
  5
1285
  8
3
 10
26.69999999999999
 20
25.81999999999999
 30
0.0
 40
0.8000000000000114
 50
270.0
 51
0.0
  0
ARC
  5
1286
  8
3
 10
26.69999999999999
 20
-23.40000000000001
 30
0.0
 40
0.8000000000000114
 50
0.0
 51
90.0
  0
LINE
  5
1287
  8
3
 10
27.5
 20
-29.69
 30
0.0
 11
27.5
 21
-23.40000000000001
 31
0.0
  0
LINE
  5
1288
  8
3
 10
27.5
 20
25.81999999999999
 30
0.0
 11
27.5
 21
29.69
 31
0.0
  0
LINE
  5
1289
  8
3
 10
63.5
 20
7.34187
 30
0.0
 11
42.19999999999999
 21
7.34187
 31
0.0
  0
LINE
  5
128A
  8
3
 10
42.19999999999999
 20
-7.34187
 30
0.0
 11
63.5
 21
-7.34187
 31
0.0
  0
LINE
  5
128B
  8
3
 10
42.19999999999999
 20
7.34187
 30
0.0
 11
40.79286254209995
 21
5.0
 31
0.0
  0
LINE
  5
128C
  8
3
 10
40.79286254209995
 20
-5.0
 30
0.0
 11
42.19999999999999
 21
-7.34187
 31
0.0
  0
LINE
  5
128F
  8
SK3
 10
-8.25
 20
-6.687999999999988
 30
0.0
 11
-7.23574727510001
 21
-5.0
 31
0.0
  0
LINE
  5
1290
  8
SK3
 10
-7.23574727510001
 20
5.0
 30
0.0
 11
-8.25
 21
6.688000000000017
 31
0.0
  0
LINE
  5
1291
  8
3
 10
63.5
 20
31.75050000000002
 30
0.0
 11
48.5
 21
31.75050000000002
 31
0.0
  0
LINE
  5
1292
  8
3
 10
48.5
 20
19.04949999999999
 30
0.0
 11
63.5
 21
19.04949999999999
 31
0.0
  0
LINE
  5
1293
  8
3
 10
63.5
 20
-19.04949999999999
 30
0.0
 11
48.5
 21
-19.04949999999999
 31
0.0
  0
LINE
  5
1294
  8
3
 10
48.5
 20
-31.75049999999999
 30
0.0
 11
63.5
 21
-31.75049999999999
 31
0.0
  0
LINE
  5
1295
  8
3
 10
48.5
 20
31.75050000000002
 30
0.0
 11
44.68423463879998
 21
25.40000000000001
 31
0.0
  0
LINE
  5
1296
  8
3
 10
44.68423463879998
 20
25.40000000000001
 30
0.0
 11
48.5
 21
19.04949999999999
 31
0.0
  0
LINE
  5
1297
  8
3
 10
48.5
 20
-19.04949999999999
 30
0.0
 11
44.68423463879998
 21
-25.40000000000001
 31
0.0
  0
LINE
  5
1298
  8
3
 10
44.68423463879998
 20
-25.40000000000001
 30
0.0
 11
48.5
 21
-31.75049999999999
 31
0.0
  0
LINE
  5
129B
  8
3
 10
0.2999999999999829
 20
-5.0
 30
0.0
 11
40.79286254209995
 21
-5.0
 31
0.0
  0
LINE
  5
129C
  8
3
 10
40.79286254209995
 20
5.0
 30
0.0
 11
0.0
 21
5.0
 31
0.0
  0
LINE
  5
129F
  8
3
 10
18.5
 20
20.02000000000001
 30
0.0
 11
22.5
 21
17.61655752390001
 31
0.0
  0
LINE
  5
12A0
  8
3
 10
22.5
 20
17.61655752390001
 30
0.0
 11
26.5
 21
20.02000000000001
 31
0.0
  0
LINE
  5
12A1
  8
3
 10
26.5
 20
20.02000000000001
 30
0.0
 11
26.5
 21
25.02000000000001
 31
0.0
  0
LINE
  5
12A2
  8
3
 10
53.40000000000003
 20
8.230611515899994
 30
0.0
 11
53.40000000000003
 21
6.354557527899999
 31
0.0
  0
LINE
  5
12A3
  8
3
 10
53.40000000000003
 20
29.0335016619
 30
0.0
 11
53.40000000000003
 21
11.6833290296
 31
0.0
  0
LINE
  5
12A4
  8
3
 10
57.59999999999997
 20
11.68652749720002
 30
0.0
 11
57.59999999999997
 21
29.0335016619
 31
0.0
  0
LINE
  5
12A5
  8
3
 10
57.59999999999997
 20
6.352347565900004
 30
0.0
 11
57.59999999999997
 21
8.233604687300016
 31
0.0
  0
LINE
  5
12A6
  8
3
 10
57.59999999999997
 20
-8.230611515800007
 30
0.0
 11
57.59999999999997
 21
-6.352347565799988
 31
0.0
  0
LINE
  5
12A7
  8
3
 10
57.59999999999997
 20
-29.0335016619
 30
0.0
 11
57.59999999999997
 21
-11.6833290296
 31
0.0
  0
LINE
  5
12A8
  8
3
 10
53.40000000000003
 20
-11.68652749719999
 30
0.0
 11
53.40000000000003
 21
-29.0335016619
 31
0.0
  0
LINE
  5
12A9
  8
3
 10
53.40000000000003
 20
-6.354557527899999
 30
0.0
 11
53.40000000000003
 21
-8.2336046872
 31
0.0
  0
LINE
  5
12AA
  8
3
 10
63.5
 20
-7.959292143499994
 30
0.0
 11
57.34204078400001
 21
-7.959292143499994
 31
0.0
  0
LINE
  5
12AB
  8
3
 10
57.33418134710001
 20
-11.95929214349999
 30
0.0
 11
63.5
 21
-11.95929214349999
 31
0.0
  0
LINE
  5
12AC
  8
3
 10
53.6664502241
 20
-7.959292143499994
 30
0.0
 11
51.0
 21
-7.959292143499994
 31
0.0
  0
LINE
  5
12AD
  8
3
 10
51.0
 20
-11.95929214349999
 30
0.0
 11
53.6570690895
 21
-11.95929214349999
 31
0.0
  0
LINE
  5
12AE
  8
3
 10
51.0
 20
-7.959292143499994
 30
0.0
 11
49.79827876190001
 21
-9.959292143499994
 31
0.0
  0
LINE
  5
12AF
  8
3
 10
49.79827876190001
 20
-9.959292143499994
 30
0.0
 11
51.0
 21
-11.95929214349999
 31
0.0
  0
LINE
  5
12B0
  8
3
 10
63.5
 20
11.95929214349999
 30
0.0
 11
57.34293091039996
 21
11.95929214349999
 31
0.0
  0
LINE
  5
12B1
  8
3
 10
57.33354977580001
 20
7.959292143499994
 30
0.0
 11
63.5
 21
7.959292143499994
 31
0.0
  0
LINE
  5
12B2
  8
3
 10
53.6658186528
 20
11.95929214349999
 30
0.0
 11
51.0
 21
11.95929214349999
 31
0.0
  0
LINE
  5
12B3
  8
3
 10
51.0
 20
7.959292143499994
 30
0.0
 11
53.65795921590001
 21
7.959292143499994
 31
0.0
  0
LINE
  5
12B4
  8
3
 10
51.0
 20
11.95929214349999
 30
0.0
 11
49.79827876190001
 21
9.959292143499994
 31
0.0
  0
LINE
  5
12B5
  8
3
 10
49.79827876190001
 20
9.959292143499994
 30
0.0
 11
51.0
 21
7.959292143499994
 31
0.0
  0
LINE
  5
12B6
  8
3
 10
58.125
 20
-30.2675878622
 30
0.0
 11
58.125
 21
-29.4015624585
 31
0.0
  0
LINE
  5
12B7
  8
3
 10
52.875
 20
-29.4015624585
 30
0.0
 11
52.875
 21
-30.26550752590001
 31
0.0
  0
LINE
  5
12B8
  8
3
 10
52.875
 20
30.26550752599999
 30
0.0
 11
52.875
 21
29.4015624585
 31
0.0
  0
LINE
  5
12B9
  8
3
 10
58.125
 20
29.4015624585
 30
0.0
 11
58.125
 21
30.26758786230002
 31
0.0
  0
LINE
  5
12BA
  8
3
 10
57.56165386679999
 20
-28.67265774359998
 30
0.0
 11
57.21464281990001
 21
-28.42728387919999
 31
0.0
  0
LINE
  5
12BB
  8
3
 10
53.78535718000001
 20
-28.42728387919999
 30
0.0
 11
53.43834613309997
 21
-28.67265774359998
 31
0.0
  0
LINE
  5
12BC
  8
3
 10
53.43834613309997
 20
28.6726577437
 30
0.0
 11
53.78535718000001
 21
28.42728387920002
 31
0.0
  0
LINE
  5
12BD
  8
3
 10
57.21464281990001
 20
28.42728387920002
 30
0.0
 11
57.56165386679999
 21
28.6726577437
 31
0.0
  0
LINE
  5
12BE
  8
3
 10
57.3916043639
 20
-24.02743185219998
 30
0.0
 11
56.9288690166
 21
-23.70022855019999
 31
0.0
  0
LINE
  5
12BF
  8
3
 10
54.07113098330001
 20
-23.70022855019999
 30
0.0
 11
53.60839563600001
 21
-24.02743185219998
 31
0.0
  0
LINE
  5
12C0
  8
3
 10
56.91450320400003
 20
-24.09409892369999
 30
0.0
 11
56.66272163369996
 21
-24.00771254309998
 31
0.0
  0
LINE
  5
12C1
  8
3
 10
54.3372783662
 20
-24.00771254309998
 30
0.0
 11
54.08549679589999
 21
-24.09409892369999
 31
0.0
  0
LINE
  5
12C2
  8
3
 10
54.1891896445
 20
-25.65133629209998
 30
0.0
 11
54.3372783662
 21
-25.70214560540001
 31
0.0
  0
LINE
  5
12C3
  8
3
 10
56.66272163369996
 20
-25.70214560540001
 30
0.0
 11
56.81081035540001
 21
-25.65133629209998
 31
0.0
  0
LINE
  5
12C4
  8
3
 10
58.0
 20
-25.20281552020001
 30
0.0
 11
58.0
 21
-25.1247759689
 31
0.0
  0
LINE
  5
12C5
  8
3
 10
53.0
 20
-25.1247759689
 30
0.0
 11
53.0
 21
-25.20281552020001
 31
0.0
  0
LINE
  5
12C6
  8
3
 10
54.08549679589999
 20
-26.23349256539998
 30
0.0
 11
54.3372783662
 21
-26.31987894599999
 31
0.0
  0
LINE
  5
12C7
  8
3
 10
56.66272163369996
 20
-26.31987894599999
 30
0.0
 11
56.91450320400003
 21
-26.23349256539998
 31
0.0
  0
LINE
  5
12C8
  8
3
 10
56.91450320400003
 20
-24.7118322643
 30
0.0
 11
56.66272163369996
 21
-24.6254458837
 31
0.0
  0
LINE
  5
12C9
  8
3
 10
54.3372783662
 20
-24.6254458837
 30
0.0
 11
54.08549679589999
 21
-24.7118322643
 31
0.0
  0
LINE
  5
12CA
  8
3
 10
58.0
 20
-25.82054886079999
 30
0.0
 11
58.0
 21
-25.74250930949998
 31
0.0
  0
LINE
  5
12CB
  8
3
 10
53.0
 20
-25.74250930949998
 30
0.0
 11
53.0
 21
-25.82054886079999
 31
0.0
  0
LINE
  5
12CC
  8
3
 10
54.08549679589999
 20
-26.851225906
 30
0.0
 11
54.3372783662
 21
-26.9376122866
 31
0.0
  0
LINE
  5
12CD
  8
3
 10
56.66272163369996
 20
-26.9376122866
 30
0.0
 11
56.91450320400003
 21
-26.851225906
 31
0.0
  0
LINE
  5
12CE
  8
3
 10
56.91450320400003
 20
-25.32956560489998
 30
0.0
 11
56.66272163369996
 21
-25.24317922429998
 31
0.0
  0
LINE
  5
12CF
  8
3
 10
54.3372783662
 20
-25.24317922429998
 30
0.0
 11
54.08549679589999
 21
-25.32956560489998
 31
0.0
  0
LINE
  5
12D0
  8
3
 10
58.0
 20
-26.4382822014
 30
0.0
 11
58.0
 21
-26.36024265009999
 31
0.0
  0
LINE
  5
12D1
  8
3
 10
53.0
 20
-26.36024265009999
 30
0.0
 11
53.0
 21
-26.4382822014
 31
0.0
  0
LINE
  5
12D2
  8
3
 10
54.08549679589999
 20
-27.46895924659998
 30
0.0
 11
54.3372783662
 21
-27.55534562719998
 31
0.0
  0
LINE
  5
12D3
  8
3
 10
56.66272163369996
 20
-27.55534562719998
 30
0.0
 11
56.91450320400003
 21
-27.46895924659998
 31
0.0
  0
LINE
  5
12D4
  8
3
 10
56.91450320400003
 20
-25.94729894549999
 30
0.0
 11
56.66272163369996
 21
-25.86091256489999
 31
0.0
  0
LINE
  5
12D5
  8
3
 10
54.3372783662
 20
-25.86091256489999
 30
0.0
 11
54.08549679589999
 21
-25.94729894549999
 31
0.0
  0
LINE
  5
12D6
  8
3
 10
58.0
 20
-27.05601554199998
 30
0.0
 11
58.0
 21
-26.9779759907
 31
0.0
  0
LINE
  5
12D7
  8
3
 10
53.0
 20
-26.9779759907
 30
0.0
 11
53.0
 21
-27.05601554199998
 31
0.0
  0
LINE
  5
12D8
  8
3
 10
54.08549679589999
 20
-28.08669258719999
 30
0.0
 11
54.3372783662
 21
-28.1730789678
 31
0.0
  0
LINE
  5
12D9
  8
3
 10
56.66272163369996
 20
-28.1730789678
 30
0.0
 11
56.91450320400003
 21
-28.08669258719999
 31
0.0
  0
LINE
  5
12DA
  8
3
 10
56.91450320400003
 20
-26.56503228610001
 30
0.0
 11
56.66272163369996
 21
-26.4786459055
 31
0.0
  0
LINE
  5
12DB
  8
3
 10
54.3372783662
 20
-26.4786459055
 30
0.0
 11
54.08549679589999
 21
-26.56503228610001
 31
0.0
  0
LINE
  5
12DC
  8
3
 10
58.0
 20
-27.67374888259999
 30
0.0
 11
58.0
 21
-27.59570933129999
 31
0.0
  0
LINE
  5
12DD
  8
3
 10
53.0
 20
-27.59570933129999
 30
0.0
 11
53.0
 21
-27.67374888259999
 31
0.0
  0
LINE
  5
12DE
  8
3
 10
54.08549679589999
 20
-28.7044259278
 30
0.0
 11
54.3372783662
 21
-28.79081230840001
 31
0.0
  0
LINE
  5
12DF
  8
3
 10
56.66272163369996
 20
-28.79081230840001
 30
0.0
 11
56.91450320400003
 21
-28.7044259278
 31
0.0
  0
LINE
  5
12E0
  8
3
 10
56.91450320400003
 20
-27.18276562669999
 30
0.0
 11
56.66272163369996
 21
-27.09637924609999
 31
0.0
  0
LINE
  5
12E1
  8
3
 10
54.3372783662
 20
-27.09637924609999
 30
0.0
 11
54.08549679589999
 21
-27.18276562669999
 31
0.0
  0
LINE
  5
12E2
  8
3
 10
58.0
 20
-28.29148222320001
 30
0.0
 11
58.0
 21
-28.2134426719
 31
0.0
  0
LINE
  5
12E3
  8
3
 10
53.0
 20
-28.2134426719
 30
0.0
 11
53.0
 21
-28.29148222320001
 31
0.0
  0
LINE
  5
12E4
  8
3
 10
54.08549679589999
 20
-29.32215926839999
 30
0.0
 11
54.3372783662
 21
-29.40854564899999
 31
0.0
  0
LINE
  5
12E5
  8
3
 10
56.66272163369996
 20
-29.40854564899999
 30
0.0
 11
56.91450320400003
 21
-29.32215926839999
 31
0.0
  0
LINE
  5
12E6
  8
3
 10
56.91450320400003
 20
-27.8004989673
 30
0.0
 11
56.66272163369996
 21
-27.7141125867
 31
0.0
  0
LINE
  5
12E7
  8
3
 10
54.3372783662
 20
-27.7141125867
 30
0.0
 11
54.08549679589999
 21
-27.8004989673
 31
0.0
  0
LINE
  5
12E8
  8
3
 10
58.0
 20
-28.90921556379999
 30
0.0
 11
58.0
 21
-28.83117601249998
 31
0.0
  0
LINE
  5
12E9
  8
3
 10
53.0
 20
-28.83117601249998
 30
0.0
 11
53.0
 21
-28.90921556379999
 31
0.0
  0
LINE
  5
12EA
  8
3
 10
54.08549679589999
 20
-29.939892609
 30
0.0
 11
54.3372783662
 21
-30.0262789896
 31
0.0
  0
LINE
  5
12EB
  8
3
 10
56.66272163369996
 20
-30.0262789896
 30
0.0
 11
56.91450320400003
 21
-29.939892609
 31
0.0
  0
LINE
  5
12EC
  8
3
 10
56.7765060406
 20
-28.37088541329999
 30
0.0
 11
56.66272163369996
 21
-28.33184592729998
 31
0.0
  0
LINE
  5
12ED
  8
3
 10
54.3372783662
 20
-28.33184592729998
 30
0.0
 11
54.22349395930001
 21
-28.37088541329999
 31
0.0
  0
LINE
  5
12EE
  8
3
 10
53.60839563600001
 20
24.02743185220001
 30
0.0
 11
54.07113098330001
 21
23.70022855030001
 31
0.0
  0
LINE
  5
12EF
  8
3
 10
56.9288690166
 20
23.70022855030001
 30
0.0
 11
57.3916043639
 21
24.02743185220001
 31
0.0
  0
LINE
  5
12F0
  8
3
 10
54.08549679589999
 20
24.09409892370002
 30
0.0
 11
54.3372783662
 21
24.00771254310001
 31
0.0
  0
LINE
  5
12F1
  8
3
 10
56.66272163369996
 20
24.00771254310001
 30
0.0
 11
56.91450320400003
 21
24.09409892370002
 31
0.0
  0
LINE
  5
12F2
  8
3
 10
56.81081035540001
 20
25.6513362922
 30
0.0
 11
56.66272163369996
 21
25.70214560540001
 31
0.0
  0
LINE
  5
12F3
  8
3
 10
54.3372783662
 20
25.70214560540001
 30
0.0
 11
54.1891896445
 21
25.6513362922
 31
0.0
  0
LINE
  5
12F4
  8
3
 10
53.0
 20
25.20281552030002
 30
0.0
 11
53.0
 21
25.1247759689
 31
0.0
  0
LINE
  5
12F5
  8
3
 10
58.0
 20
25.1247759689
 30
0.0
 11
58.0
 21
25.20281552030002
 31
0.0
  0
LINE
  5
12F6
  8
3
 10
56.91450320400003
 20
26.23349256540001
 30
0.0
 11
56.66272163369996
 21
26.31987894600002
 31
0.0
  0
LINE
  5
12F7
  8
3
 10
54.3372783662
 20
26.31987894600002
 30
0.0
 11
54.08549679589999
 21
26.23349256540001
 31
0.0
  0
LINE
  5
12F8
  8
3
 10
54.08549679589999
 20
24.7118322643
 30
0.0
 11
54.3372783662
 21
24.6254458837
 31
0.0
  0
LINE
  5
12F9
  8
3
 10
56.66272163369996
 20
24.6254458837
 30
0.0
 11
56.91450320400003
 21
24.7118322643
 31
0.0
  0
LINE
  5
12FA
  8
3
 10
53.0
 20
25.8205488609
 30
0.0
 11
53.0
 21
25.74250930950001
 31
0.0
  0
LINE
  5
12FB
  8
3
 10
58.0
 20
25.74250930950001
 30
0.0
 11
58.0
 21
25.8205488609
 31
0.0
  0
LINE
  5
12FC
  8
3
 10
56.91450320400003
 20
26.851225906
 30
0.0
 11
56.66272163369996
 21
26.9376122866
 31
0.0
  0
LINE
  5
12FD
  8
3
 10
54.3372783662
 20
26.9376122866
 30
0.0
 11
54.08549679589999
 21
26.851225906
 31
0.0
  0
LINE
  5
12FE
  8
3
 10
54.08549679589999
 20
25.32956560490001
 30
0.0
 11
54.3372783662
 21
25.2431792244
 31
0.0
  0
LINE
  5
12FF
  8
3
 10
56.66272163369996
 20
25.2431792244
 30
0.0
 11
56.91450320400003
 21
25.32956560490001
 31
0.0
  0
LINE
  5
1300
  8
3
 10
53.0
 20
26.43828220150002
 30
0.0
 11
53.0
 21
26.36024265010002
 31
0.0
  0
LINE
  5
1301
  8
3
 10
58.0
 20
26.36024265010002
 30
0.0
 11
58.0
 21
26.43828220150002
 31
0.0
  0
LINE
  5
1302
  8
3
 10
56.91450320400003
 20
27.46895924660001
 30
0.0
 11
56.66272163369996
 21
27.55534562720001
 31
0.0
  0
LINE
  5
1303
  8
3
 10
54.3372783662
 20
27.55534562720001
 30
0.0
 11
54.08549679589999
 21
27.46895924660001
 31
0.0
  0
LINE
  5
1304
  8
3
 10
54.08549679589999
 20
25.94729894549999
 30
0.0
 11
54.3372783662
 21
25.86091256500001
 31
0.0
  0
LINE
  5
1305
  8
3
 10
56.66272163369996
 20
25.86091256500001
 30
0.0
 11
56.91450320400003
 21
25.94729894549999
 31
0.0
  0
LINE
  5
1306
  8
3
 10
53.0
 20
27.0560155421
 30
0.0
 11
53.0
 21
26.9779759907
 31
0.0
  0
LINE
  5
1307
  8
3
 10
58.0
 20
26.9779759907
 30
0.0
 11
58.0
 21
27.0560155421
 31
0.0
  0
LINE
  5
1308
  8
3
 10
56.91450320400003
 20
28.08669258720002
 30
0.0
 11
56.66272163369996
 21
28.1730789678
 31
0.0
  0
LINE
  5
1309
  8
3
 10
54.3372783662
 20
28.1730789678
 30
0.0
 11
54.08549679589999
 21
28.08669258720002
 31
0.0
  0
LINE
  5
130A
  8
3
 10
54.08549679589999
 20
26.56503228610001
 30
0.0
 11
54.3372783662
 21
26.47864590560002
 31
0.0
  0
LINE
  5
130B
  8
3
 10
56.66272163369996
 20
26.47864590560002
 30
0.0
 11
56.91450320400003
 21
26.56503228610001
 31
0.0
  0
LINE
  5
130C
  8
3
 10
53.0
 20
27.67374888270001
 30
0.0
 11
53.0
 21
27.59570933130001
 31
0.0
  0
LINE
  5
130D
  8
3
 10
58.0
 20
27.59570933130001
 30
0.0
 11
58.0
 21
27.67374888270001
 31
0.0
  0
LINE
  5
130E
  8
3
 10
56.91450320400003
 20
28.7044259278
 30
0.0
 11
56.66272163369996
 21
28.79081230840001
 31
0.0
  0
LINE
  5
130F
  8
3
 10
54.3372783662
 20
28.79081230840001
 30
0.0
 11
54.08549679589999
 21
28.7044259278
 31
0.0
  0
LINE
  5
1310
  8
3
 10
54.08549679589999
 20
27.18276562680001
 30
0.0
 11
54.3372783662
 21
27.0963792462
 31
0.0
  0
LINE
  5
1311
  8
3
 10
56.66272163369996
 20
27.0963792462
 30
0.0
 11
56.91450320400003
 21
27.18276562680001
 31
0.0
  0
LINE
  5
1312
  8
3
 10
53.0
 20
28.29148222329999
 30
0.0
 11
53.0
 21
28.2134426719
 31
0.0
  0
LINE
  5
1313
  8
3
 10
58.0
 20
28.2134426719
 30
0.0
 11
58.0
 21
28.29148222329999
 31
0.0
  0
LINE
  5
1314
  8
3
 10
56.91450320400003
 20
29.32215926840001
 30
0.0
 11
56.66272163369996
 21
29.40854564900002
 31
0.0
  0
LINE
  5
1315
  8
3
 10
54.3372783662
 20
29.40854564900002
 30
0.0
 11
54.08549679589999
 21
29.32215926840001
 31
0.0
  0
LINE
  5
1316
  8
3
 10
54.08549679589999
 20
27.80049896740002
 30
0.0
 11
54.3372783662
 21
27.71411258680001
 31
0.0
  0
LINE
  5
1317
  8
3
 10
56.66272163369996
 20
27.71411258680001
 30
0.0
 11
56.91450320400003
 21
27.80049896740002
 31
0.0
  0
LINE
  5
1318
  8
3
 10
53.0
 20
28.90921556390001
 30
0.0
 11
53.0
 21
28.83117601250001
 31
0.0
  0
LINE
  5
1319
  8
3
 10
58.0
 20
28.83117601250001
 30
0.0
 11
58.0
 21
28.90921556390001
 31
0.0
  0
LINE
  5
131A
  8
3
 10
56.91450320400003
 20
29.939892609
 30
0.0
 11
56.66272163369996
 21
30.0262789896
 31
0.0
  0
LINE
  5
131B
  8
3
 10
54.3372783662
 20
30.0262789896
 30
0.0
 11
54.08549679589999
 21
29.939892609
 31
0.0
  0
LINE
  5
131C
  8
3
 10
54.22349395930001
 20
28.37088541330002
 30
0.0
 11
54.3372783662
 21
28.3318459274
 31
0.0
  0
LINE
  5
131D
  8
3
 10
56.66272163369996
 20
28.3318459274
 30
0.0
 11
56.7765060406
 21
28.37088541330002
 31
0.0
  0
LINE
  5
131E
  8
3
 10
63.5
 20
7.9375
 30
0.0
 11
59.58967000000001
 21
7.9375
 31
0.0
  0
LINE
  5
131F
  8
3
 10
59.58967000000001
 20
-7.9375
 30
0.0
 11
63.5
 21
-7.9375
 31
0.0
  0
LINE
  5
1320
  8
3
 10
59.58967000000001
 20
7.9375
 30
0.0
 11
58.75020000000001
 21
7.098029999999994
 31
0.0
  0
LINE
  5
1321
  8
3
 10
58.75020000000001
 20
-7.098029999999994
 30
0.0
 11
59.58967000000001
 21
-7.9375
 31
0.0
  0
LINE
  5
1326
  8
3
 10
63.5
 20
-19.04619
 30
0.0
 11
51.89776030490003
 21
-19.04619
 31
0.0
  0
LINE
  5
1327
  8
3
 10
51.89776030490003
 20
-31.75380999999999
 30
0.0
 11
63.5
 21
-31.75380999999999
 31
0.0
  0
ARC
  5
1328
  8
3
 10
51.83480000000003
 20
-18.85299000000001
 30
0.0
 40
0.2031999999999812
 50
270.0
 51
288.0498306932939
  0
ARC
  5
1329
  8
3
 10
51.83480000000003
 20
-31.94701000000001
 30
0.0
 40
0.2032000000000096
 50
71.95016930670864
 51
90.0
  0
LINE
  5
132A
  8
3
 10
50.75963951059998
 20
-19.05618999999999
 30
0.0
 11
49.83480000000003
 21
-19.304
 31
0.0
  0
LINE
  5
132B
  8
3
 10
49.83480000000003
 20
-31.49599999999998
 30
0.0
 11
50.75963951059998
 21
-31.74381
 31
0.0
  0
LINE
  5
132C
  8
3
 10
51.83480000000003
 20
-19.05618999999999
 30
0.0
 11
50.75963951059998
 21
-19.05618999999999
 31
0.0
  0
LINE
  5
132D
  8
3
 10
50.75963951059998
 20
-31.74381
 30
0.0
 11
51.83480000000003
 21
-31.74381
 31
0.0
  0
LINE
  5
132E
  8
3
 10
63.5
 20
31.75381000000002
 30
0.0
 11
51.89776030490003
 21
31.75381000000002
 31
0.0
  0
LINE
  5
132F
  8
3
 10
51.89776030490003
 20
19.04619
 30
0.0
 11
63.5
 21
19.04619
 31
0.0
  0
ARC
  5
1330
  8
3
 10
51.83480000000003
 20
31.94701000000001
 30
0.0
 40
0.2032000000000096
 50
270.0
 51
288.0498306932913
  0
ARC
  5
1331
  8
3
 10
51.83480000000003
 20
18.85299000000001
 30
0.0
 40
0.2031999999999812
 50
71.95016930670616
 51
90.0
  0
LINE
  5
1332
  8
3
 10
50.75963951059998
 20
31.74381
 30
0.0
 11
49.83480000000003
 21
31.49600000000001
 31
0.0
  0
LINE
  5
1333
  8
3
 10
49.83480000000003
 20
19.304
 30
0.0
 11
50.75963951059998
 21
19.05619000000002
 31
0.0
  0
LINE
  5
1334
  8
3
 10
51.83480000000003
 20
31.74381
 30
0.0
 11
50.75963951059998
 21
31.74381
 31
0.0
  0
LINE
  5
1335
  8
3
 10
50.75963951059998
 20
19.05619000000002
 30
0.0
 11
51.83480000000003
 21
19.05619000000002
 31
0.0
  0
LINE
  5
1336
  8
1
 10
62.5
 20
34.95000000000002
 30
0.0
 11
62.5
 21
-34.94999999999999
 31
0.0
  0
LINE
  5
1337
  8
1
 10
46.0
 20
0.0
 30
0.0
 11
46.0
 21
34.95000000000002
 31
0.0
  0
LINE
  5
1338
  8
1
 10
46.0
 20
-34.94999999999999
 30
0.0
 11
46.0
 21
0.0
 31
0.0
  0
LINE
  5
1339
  8
1
 10
43.0
 20
0.0
 30
0.0
 11
43.0
 21
-31.40000000000001
 31
0.0
  0
LINE
  5
133A
  8
1
 10
43.0
 20
31.40000000000001
 30
0.0
 11
43.0
 21
0.0
 31
0.0
  0
LINE
  5
135A
  8
SK3
 10
-7.23574727510001
 20
5.0
 30
0.0
 11
0.0
 21
5.0
 31
0.0
  0
LINE
  5
135B
  8
SK3
 10
-7.23574727510001
 20
-5.0
 30
0.0
 11
0.2999999999999829
 21
-5.0
 31
0.0
  0
LINE
  5
135D
  8
NOCUT
 10
63.52833781249996
 20
31.75380999564287
 30
0.0
 11
63.5
 21
31.75380999564287
 31
0.0
  0
ARC
  5
135F
  8
NOCUT
 10
43.00000000000001
 20
33.39999999564286
 30
0.0
 40
2.0
 50
270.0
 51
0.0
  0
ARC
  5
1360
  8
NOCUT
 10
46.00000000000001
 20
33.94999999564287
 30
0.0
 40
1.0
 50
90.0
 51
180.0
  0
ARC
  5
1361
  8
NOCUT
 10
62.5
 20
33.94999999564287
 30
0.0
 40
1.0
 50
0.0
 51
90.0
  0
LINE
  5
1362
  8
NOCUT
 10
62.5
 20
34.94999999564287
 30
0.0
 11
46.00000000000001
 21
34.94999999564287
 31
0.0
  0
LINE
  5
1363
  8
NOCUT
 10
63.5
 20
-0.0000000043571475
 30
0.0
 11
63.5
 21
33.94999999564287
 31
0.0
  0
LINE
  5
1364
  8
NOCUT
 10
43.00000000000001
 20
31.39999999564286
 30
0.0
 11
20.86717426934281
 21
31.39999999564286
 31
0.0
  0
LINE
  5
137A
  8
NOCUT
 10
45.00000000000001
 20
33.94999999564287
 30
0.0
 11
45.00000000000001
 21
33.39999999564286
 31
0.0
  0
LINE
  5
137B
  8
NOCUT
 10
19.04999999999995
 20
31.2328257263
 30
0.0
 11
20.69999999999995
 21
31.2328257263
 31
0.0
  0
LINE
  5
137C
  8
NOCUT
 10
20.69999999999995
 20
31.2328257263
 30
0.0
 11
20.86717426934281
 21
31.39999999564286
 31
0.0
  0
LINE
  5
1386
  8
SK4
 10
63.49999999999999
 20
0.0
 30
0.0
 11
95.25
 21
0.0000000000000142
 31
0.0
  0
DIMENSION
  5
1388
  8
SK2
  2
*D3
 10
125.4025
 20
-34.95
 30
0.0
 11
123.5275
 21
-0.0000000021785596
 31
0.0
 70
    32
  3
ISO-25
 13
62.5
 23
34.94999999564287
 33
0.0
 14
62.5
 24
-34.94999999999999
 34
0.0
 50
90.0
1001
ACAD
1000
DSTYLE
1002
{
1070
   287
1070
     5
1070
   271
1070
     3
1070
   272
1070
     3
1070
   279
1070
     2
1002
}
  0
DIMENSION
  5
1397
  8
SK2
  2
*D4
 10
109.465
 20
-15.875
 30
0.0
 11
107.59
 21
-0.0000000000000018
 31
0.0
 70
    32
  3
ISO-25
 13
79.5
 23
15.875
 33
0.0
 14
79.5
 24
-15.875
 34
0.0
 50
90.0
1001
ACAD
1000
DSTYLE
1002
{
1070
   287
1070
     5
1070
   271
1070
     3
1070
   272
1070
     3
1070
   279
1070
     2
1002
}
  0
ENDSEC
  0
EOF
