  0
SECTION
  2
HEADER
  9
$ACADVER
  1
AC1009
  9
$DWGCODEPAGE
  3
ansi_1252
  9
$INSBASE
 10
0.0
 20
0.0
 30
0.0
  9
$EXTMIN
 10
-68.25000000000003
 20
-48.27109509650273
 30
0.0
  9
$EXTMAX
 10
141.9525020780113
 20
50.83203563714093
 30
0.0
  9
$LIMMIN
 10
0.0
 20
0.0
  9
$LIMMAX
 10
420.0
 20
297.0
  9
$ORTHOMODE
 70
     1
  9
$REGENMODE
 70
     1
  9
$FILLMODE
 70
     1
  9
$QTEXTMODE
 70
     0
  9
$MIRRTEXT
 70
     0
  9
$DRAGMODE
 70
     2
  9
$LTSCALE
 40
1.0
  9
$OSMODE
 70
   279
  9
$ATTMODE
 70
     1
  9
$TEXTSIZE
 40
2.5
  9
$TRACEWID
 40
1.0
  9
$TEXTSTYLE
  7
STANDARD
  9
$CLAYER
  8
0
  9
$CELTYPE
  6
BYLAYER
  9
$CECOLOR
 62
   256
  9
$DIMSCALE
 40
1.0
  9
$DIMASZ
 40
2.5
  9
$DIMEXO
 40
0.625
  9
$DIMDLI
 40
3.75
  9
$DIMRND
 40
0.0
  9
$DIMDLE
 40
0.0
  9
$DIMEXE
 40
1.25
  9
$DIMTP
 40
0.0
  9
$DIMTM
 40
0.0
  9
$DIMTXT
 40
2.5
  9
$DIMCEN
 40
2.5
  9
$DIMTSZ
 40
0.0
  9
$DIMTOL
 70
     0
  9
$DIMLIM
 70
     0
  9
$DIMTIH
 70
     0
  9
$DIMTOH
 70
     0
  9
$DIMSE1
 70
     0
  9
$DIMSE2
 70
     0
  9
$DIMTAD
 70
     1
  9
$DIMZIN
 70
     8
  9
$DIMBLK
  1

  9
$DIMASO
 70
     1
  9
$DIMSHO
 70
     1
  9
$DIMPOST
  1

  9
$DIMAPOST
  1

  9
$DIMALT
 70
     0
  9
$DIMALTD
 70
     3
  9
$DIMALTF
 40
0.03937007874016
  9
$DIMLFAC
 40
1.0
  9
$DIMTOFL
 70
     1
  9
$DIMTVP
 40
0.0
  9
$DIMTIX
 70
     0
  9
$DIMSOXD
 70
     0
  9
$DIMSAH
 70
     0
  9
$DIMBLK1
  1

  9
$DIMBLK2
  1

  9
$DIMSTYLE
  2
ISO-25
  9
$DIMCLRD
 70
     0
  9
$DIMCLRE
 70
     0
  9
$DIMCLRT
 70
     0
  9
$DIMTFAC
 40
1.0
  9
$DIMGAP
 40
0.625
  9
$LUNITS
 70
     2
  9
$LUPREC
 70
     3
  9
$SKETCHINC
 40
1.0
  9
$FILLETRAD
 40
1.0
  9
$AUNITS
 70
     0
  9
$AUPREC
 70
     0
  9
$MENU
  1
.
  9
$ELEVATION
 40
0.0
  9
$PELEVATION
 40
0.0
  9
$THICKNESS
 40
0.0
  9
$LIMCHECK
 70
     0
  9
$CHAMFERA
 40
10.0
  9
$CHAMFERB
 40
10.0
  9
$SKPOLY
 70
     0
  9
$TDCREATE
 40
2455022.429026158
  9
$TDUPDATE
 40
2458696.404587697
  9
$TDINDWG
 40
0.001290463
  9
$TDUSRTIMER
 40
2458701.80300978
  9
$USRTIMER
 70
     1
  9
$ANGBASE
 50
0.0
  9
$ANGDIR
 70
     0
  9
$PDMODE
 70
     0
  9
$PDSIZE
 40
0.0
  9
$PLINEWID
 40
0.0
  9
$COORDS
 70
     1
  9
$SPLFRAME
 70
     0
  9
$SPLINETYPE
 70
     6
  9
$SPLINESEGS
 70
     8
  9
$ATTDIA
 70
     0
  9
$ATTREQ
 70
     1
  9
$HANDLING
 70
     1
  9
$HANDSEED
  5
188D
  9
$SURFTAB1
 70
     6
  9
$SURFTAB2
 70
     6
  9
$SURFTYPE
 70
     6
  9
$SURFU
 70
     6
  9
$SURFV
 70
     6
  9
$UCSNAME
  2

  9
$UCSORG
 10
0.0
 20
0.0
 30
0.0
  9
$UCSXDIR
 10
1.0
 20
0.0
 30
0.0
  9
$UCSYDIR
 10
0.0
 20
1.0
 30
0.0
  9
$PUCSNAME
  2

  9
$PUCSORG
 10
0.0
 20
0.0
 30
0.0
  9
$PUCSXDIR
 10
1.0
 20
0.0
 30
0.0
  9
$PUCSYDIR
 10
0.0
 20
1.0
 30
0.0
  9
$USERI1
 70
     0
  9
$USERI2
 70
     0
  9
$USERI3
 70
     0
  9
$USERI4
 70
     0
  9
$USERI5
 70
     0
  9
$USERR1
 40
0.0
  9
$USERR2
 40
0.0
  9
$USERR3
 40
0.0
  9
$USERR4
 40
0.0
  9
$USERR5
 40
0.0
  9
$WORLDVIEW
 70
     1
  9
$SHADEDGE
 70
     3
  9
$SHADEDIF
 70
    70
  9
$TILEMODE
 70
     1
  9
$MAXACTVP
 70
    64
  9
$PLIMCHECK
 70
     0
  9
$PEXTMIN
 10
1.000000000000000E+20
 20
1.000000000000000E+20
 30
1.000000000000000E+20
  9
$PEXTMAX
 10
-1.000000000000000E+20
 20
-1.000000000000000E+20
 30
-1.000000000000000E+20
  9
$PLIMMIN
 10
0.0
 20
0.0
  9
$PLIMMAX
 10
0.0
 20
0.0
  9
$UNITMODE
 70
     0
  9
$VISRETAIN
 70
     1
  9
$PLINEGEN
 70
     0
  9
$PSLTSCALE
 70
     1
  0
ENDSEC
  0
SECTION
  2
TABLES
  0
TABLE
  2
VPORT
 70
     1
  0
VPORT
  2
*ACTIVE
 70
     0
 10
0.0
 20
0.0
 11
1.0
 21
1.0
 12
149.9146476539055
 22
1.280470270319107
 13
0.0
 23
0.0
 14
10.0
 24
10.0
 15
10.0
 25
10.0
 16
0.0
 26
0.0
 36
1.0
 17
-134.1869158878504
 27
0.0
 37
0.0
 40
128.5295877500772
 41
1.332880434782609
 42
50.0
 43
0.0
 44
0.0
 50
0.0
 51
0.0
 71
    16
 72
  1000
 73
     1
 74
     3
 75
     0
 76
     0
 77
     0
 78
     0
  0
ENDTAB
  0
TABLE
  2
LTYPE
 70
     6
  0
LTYPE
  2
CONTINUOUS
 70
     0
  3
Solid line
 72
    65
 73
     0
 40
0.0
  0
LTYPE
  2
CENTER
 70
     0
  3
 Center _____  _  _____  _  _____  _  _____  _ 
 72
    65
 73
     4
 40
50.8
 49
31.75
 49
-6.35
 49
6.35
 49
-6.35
  0
LTYPE
  2
DASHED
 70
     0
  3
Dashed __  __  __  __  __  __  __  __  __  __  
 72
    65
 73
     2
 40
19.05
 49
12.7
 49
-6.35
  0
LTYPE
  2
HIDDEN
 70
     0
  3
Hidden __ __ __ __ __ __ __ __ __ __ __ __ __ __
 72
    65
 73
     2
 40
1.905
 49
1.27
 49
-0.635
  0
LTYPE
  2
CENTERX2
 70
     0
  3
Center (2x) ________  __  ________  __  _____
 72
    65
 73
     4
 40
20.32
 49
12.7
 49
-2.54
 49
2.54
 49
-2.54
  0
LTYPE
  2
PHANTOM
 70
     0
  3
Phantom ______  __  __  ______  __  __  ______
 72
    65
 73
     6
 40
12.7
 49
6.35
 49
-1.27
 49
1.27
 49
-1.27
 49
1.27
 49
-1.27
  0
ENDTAB
  0
TABLE
  2
LAYER
 70
    26
  0
LAYER
  2
0
 70
     0
 62
     7
  6
CONTINUOUS
  0
LAYER
  2
1
 70
     0
 62
     4
  6
CONTINUOUS
  0
LAYER
  2
2
 70
     0
 62
     7
  6
CONTINUOUS
  0
LAYER
  2
3
 70
     0
 62
     1
  6
DASHED
  0
LAYER
  2
4
 70
     0
 62
     2
  6
CENTER
  0
LAYER
  2
6
 70
     0
 62
     5
  6
CONTINUOUS
  0
LAYER
  2
7
 70
     0
 62
     5
  6
CONTINUOUS
  0
LAYER
  2
11
 70
     0
 62
     4
  6
CONTINUOUS
  0
LAYER
  2
SK1
 70
     0
 62
     4
  6
CONTINUOUS
  0
LAYER
  2
SK2
 70
     0
 62
     7
  6
CONTINUOUS
  0
LAYER
  2
SK3
 70
     0
 62
     1
  6
DASHED
  0
LAYER
  2
SK4
 70
     0
 62
     2
  6
CENTER
  0
LAYER
  2
SK6
 70
     0
 62
     5
  6
CONTINUOUS
  0
LAYER
  2
SK7
 70
     0
 62
     5
  6
CONTINUOUS
  0
LAYER
  2
SK11
 70
     0
 62
     4
  6
CONTINUOUS
  0
LAYER
  2
CUT
 70
     0
 62
     1
  6
CONTINUOUS
  0
LAYER
  2
NOCUT
 70
     0
 62
    -7
  6
CONTINUOUS
  0
LAYER
  2
SKVIEW1
 70
     0
 62
     4
  6
CONTINUOUS
  0
LAYER
  2
SKVIEW2
 70
     0
 62
     7
  6
CONTINUOUS
  0
LAYER
  2
SKVIEW3
 70
     0
 62
     1
  6
DASHED
  0
LAYER
  2
SKVIEW4
 70
     0
 62
     2
  6
CENTER
  0
LAYER
  2
SKVIEW6
 70
     0
 62
     5
  6
CONTINUOUS
  0
LAYER
  2
SKVIEW7
 70
     0
 62
     5
  6
CONTINUOUS
  0
LAYER
  2
SKVIEW11
 70
     0
 62
     4
  6
CONTINUOUS
  0
LAYER
  2
INFTOTAL
 70
     0
 62
     9
  6
CONTINUOUS
  0
LAYER
  2
DEFPOINTS
 70
     0
 62
     7
  6
CONTINUOUS
  0
ENDTAB
  0
TABLE
  2
STYLE
 70
     1
  0
STYLE
  2
STANDARD
 70
     0
 40
0.0
 41
1.0
 50
0.0
 71
     0
 42
2.5
  3
txt
  4

  0
ENDTAB
  0
TABLE
  2
VIEW
 70
     0
  0
ENDTAB
  0
TABLE
  2
UCS
 70
     0
  0
ENDTAB
  0
TABLE
  2
APPID
 70
     2
  0
APPID
  2
ACAD
 70
     0
  0
APPID
  2
ACAECLAYERSTANDARD
 70
     0
  0
ENDTAB
  0
TABLE
  2
DIMSTYLE
 70
     1
  0
DIMSTYLE
  2
ISO-25
 70
     0
  3

  4

  5

  6

  7

 40
1.0
 41
2.5
 42
0.625
 43
3.75
 44
1.25
 45
0.0
 46
0.0
 47
0.0
 48
0.0
140
2.5
141
2.5
142
0.0
143
0.03937007874016
144
1.0
145
0.0
146
1.0
147
0.625
 71
     0
 72
     0
 73
     0
 74
     0
 75
     0
 76
     0
 77
     1
 78
     8
170
     0
171
     3
172
     1
173
     0
174
     0
175
     0
176
     0
177
     0
178
     0
  0
ENDTAB
  0
ENDSEC
  0
SECTION
  2
BLOCKS
  0
BLOCK
  8
0
  2
$MODEL_SPACE
 70
     0
 10
0.0
 20
0.0
 30
0.0
  3
$MODEL_SPACE
  1

  0
ENDBLK
  5
21
  8
0
  0
BLOCK
 67
     1
  8
0
  2
$PAPER_SPACE
 70
     0
 10
0.0
 20
0.0
 30
0.0
  3
$PAPER_SPACE
  1

  0
ENDBLK
  5
1D
 67
     1
  8
0
  0
BLOCK
  8
0
  2
_FILLED
 70
     0
 10
0.0
 20
0.0
 30
0.0
  3
_FILLED
  1

  0
SOLID
  5
1C4
  8
0
  6
BYBLOCK
 62
     0
 10
0.0
 20
0.0
 30
0.0
 11
-1.0
 21
0.2142857143
 31
0.0
 12
-1.0
 22
-0.2142857143
 32
0.0
 13
-1.0
 23
-0.2142857143
 33
0.0
  0
ENDBLK
  5
1C5
  8
0
  6
BYBLOCK
 62
     0
  0
BLOCK
  8
0
  2
*D1
 70
     1
 10
0.0
 20
0.0
 30
0.0
  3
*D1
  1

  0
LINE
  5
1D3
  8
2
 62
     0
 10
0.0
 20
22.84999999999999
 30
0.0
 11
0.0
 21
48.91573065769793
 31
0.0
  0
LINE
  5
1D4
  8
2
 62
     0
 10
50.79999999999998
 20
27.42529999999999
 30
0.0
 11
50.79999999999998
 21
48.91573065769793
 31
0.0
  0
LINE
  5
1D5
  8
2
 62
     0
 10
2.5
 20
47.66573065769793
 30
0.0
 11
48.29999999999998
 21
47.66573065769793
 31
0.0
  0
SOLID
  5
1D6
  8
2
 62
     0
 10
2.5
 20
48.08239732436459
 30
0.0
 11
2.5
 21
47.24906399103126
 31
0.0
 12
0.0
 22
47.66573065769793
 32
0.0
 13
0.0
 23
47.66573065769793
 33
0.0
  0
SOLID
  5
1D7
  8
2
 62
     0
 10
48.29999999999998
 20
47.24906399103126
 30
0.0
 11
48.29999999999998
 21
48.08239732436459
 31
0.0
 12
50.79999999999998
 22
47.66573065769793
 32
0.0
 13
50.79999999999998
 23
47.66573065769793
 33
0.0
  0
TEXT
  5
1D8
  8
2
  6
CONTINUOUS
 62
     0
 10
21.85833333333332
 20
48.29073065769793
 30
0.0
 40
2.5
  1
50.8
  0
POINT
  5
1D9
  8
DEFPOINTS
 62
     0
 10
0.0
 20
22.22499999999999
 30
0.0
  0
POINT
  5
1DA
  8
DEFPOINTS
 62
     0
 10
50.79999999999998
 20
26.80029999999999
 30
0.0
  0
POINT
  5
1DB
  8
DEFPOINTS
 62
     0
 10
50.79999999999998
 20
47.66573065769793
 30
0.0
  0
ENDBLK
  5
1DD
  8
0
  0
BLOCK
  8
0
  2
*D2
 70
     1
 10
0.0
 20
0.0
 30
0.0
  3
*D2
  1

  0
LINE
  5
211
  8
SK2
 62
     0
 10
0.0
 20
-22.84999999999999
 30
0.0
 11
0.0
 21
-48.27109509650273
 31
0.0
  0
LINE
  5
212
  8
SK2
 62
     0
 10
19.04999999999998
 20
-30.59565231190001
 30
0.0
 11
19.04999999999998
 21
-48.27109509650273
 31
0.0
  0
LINE
  5
213
  8
SK2
 62
     0
 10
2.5
 20
-47.02109509650273
 30
0.0
 11
16.54999999999998
 21
-47.02109509650273
 31
0.0
  0
SOLID
  5
214
  8
SK2
 62
     0
 10
2.5
 20
-46.60442842983606
 30
0.0
 11
2.5
 21
-47.43776176316939
 31
0.0
 12
0.0
 22
-47.02109509650273
 32
0.0
 13
0.0
 23
-47.02109509650273
 33
0.0
  0
SOLID
  5
215
  8
SK2
 62
     0
 10
16.54999999999998
 20
-47.43776176316939
 30
0.0
 11
16.54999999999998
 21
-46.60442842983606
 31
0.0
 12
19.04999999999998
 22
-47.02109509650273
 32
0.0
 13
19.04999999999998
 23
-47.02109509650273
 33
0.0
  0
TEXT
  5
216
  8
SK2
  6
CONTINUOUS
 62
     0
 10
5.14999999999999
 20
-46.39609509650273
 30
0.0
 40
2.5
  1
19.05
  0
POINT
  5
217
  8
DEFPOINTS
 62
     0
 10
0.0
 20
-22.22499999999999
 30
0.0
  0
POINT
  5
218
  8
DEFPOINTS
 62
     0
 10
19.04999999999998
 20
-29.97065231190001
 30
0.0
  0
POINT
  5
219
  8
DEFPOINTS
 62
     0
 10
19.04999999999998
 20
-47.02109509650273
 30
0.0
  0
ENDBLK
  5
21B
  8
0
  0
BLOCK
  8
0
  2
*D3
 70
     1
 10
0.0
 20
0.0
 30
0.0
  3
*D3
  1

  0
LINE
  5
147F
  8
SK2
 62
     0
 10
50.42499999999998
 20
27.80029999999999
 30
0.0
 11
99.70546353211013
 21
27.80029999999999
 31
0.0
  0
LINE
  5
1480
  8
SK2
 62
     0
 10
50.42499999999998
 20
-27.80030000000001
 30
0.0
 11
99.70546353211013
 21
-27.80030000000001
 31
0.0
  0
LINE
  5
1481
  8
SK2
 62
     0
 10
98.45546353211013
 20
25.30029999999999
 30
0.0
 11
98.45546353211013
 21
-25.30030000000001
 31
0.0
  0
SOLID
  5
1482
  8
SK2
 62
     0
 10
98.8721301987768
 20
25.30029999999999
 30
0.0
 11
98.03879686544346
 21
25.30029999999999
 31
0.0
 12
98.45546353211013
 22
27.80029999999999
 32
0.0
 13
98.45546353211013
 23
27.80029999999999
 33
0.0
  0
SOLID
  5
1483
  8
SK2
 62
     0
 10
98.03879686544346
 20
-25.30030000000001
 30
0.0
 11
98.8721301987768
 21
-25.30030000000001
 31
0.0
 12
98.45546353211013
 22
-27.80030000000001
 32
0.0
 13
98.45546353211013
 23
-27.80030000000001
 33
0.0
  0
TEXT
  5
1484
  8
SK2
  6
CONTINUOUS
 62
     0
 10
97.83046353211013
 20
-3.750000000000014
 30
0.0
 40
2.5
  1
55.6
 50
90.0
  0
POINT
  5
1485
  8
DEFPOINTS
 62
     0
 10
49.79999999999998
 20
27.80029999999999
 30
0.0
  0
POINT
  5
1486
  8
DEFPOINTS
 62
     0
 10
49.79999999999998
 20
-27.80030000000001
 30
0.0
  0
POINT
  5
1487
  8
DEFPOINTS
 62
     0
 10
98.45546353211013
 20
-27.80030000000001
 30
0.0
  0
ENDBLK
  5
1489
  8
0
  0
BLOCK
  8
0
  2
*D4
 70
     1
 10
0.0
 20
0.0
 30
0.0
  3
*D4
  1

  0
LINE
  5
148E
  8
SK2
 62
     0
 10
67.42499999999998
 20
12.69999999999999
 30
0.0
 11
90.17656322629972
 21
12.69999999999999
 31
0.0
  0
LINE
  5
148F
  8
SK2
 62
     0
 10
67.42499999999998
 20
-12.7
 30
0.0
 11
90.17656322629972
 21
-12.7
 31
0.0
  0
LINE
  5
1490
  8
SK2
 62
     0
 10
88.92656322629972
 20
10.19999999999999
 30
0.0
 11
88.92656322629972
 21
-10.2
 31
0.0
  0
SOLID
  5
1491
  8
SK2
 62
     0
 10
89.34322989296639
 20
10.19999999999999
 30
0.0
 11
88.50989655963305
 21
10.19999999999999
 31
0.0
 12
88.92656322629972
 22
12.69999999999999
 32
0.0
 13
88.92656322629972
 23
12.69999999999999
 33
0.0
  0
SOLID
  5
1492
  8
SK2
 62
     0
 10
88.50989655963305
 20
-10.2
 30
0.0
 11
89.34322989296639
 21
-10.2
 31
0.0
 12
88.92656322629972
 22
-12.7
 32
0.0
 13
88.92656322629972
 23
-12.7
 33
0.0
  0
TEXT
  5
1493
  8
SK2
  6
CONTINUOUS
 62
     0
 10
88.30156322629972
 20
-3.750000000000014
 30
0.0
 40
2.5
  1
25.4
 50
90.0
  0
POINT
  5
1494
  8
DEFPOINTS
 62
     0
 10
66.79999999999998
 20
12.69999999999999
 30
0.0
  0
POINT
  5
1495
  8
DEFPOINTS
 62
     0
 10
66.79999999999998
 20
-12.7
 30
0.0
  0
POINT
  5
1496
  8
DEFPOINTS
 62
     0
 10
88.92656322629972
 20
-12.7
 30
0.0
  0
ENDBLK
  5
1498
  8
0
  0
ENDSEC
  0
SECTION
  2
ENTITIES
  0
LINE
  5
1B2
  8
4
 10
50.79999999999998
 20
-0.0000000034857197
 30
0.0
 11
0.0
 21
0.0
 31
0.0
  0
DIMENSION
  5
1CF
  8
2
  2
*D1
 10
50.79999999999998
 20
47.66573065769793
 30
0.0
 11
25.39999999999999
 21
49.54073065769793
 31
0.0
 70
    32
  3
ISO-25
 13
0.0
 23
22.22499999999999
 33
0.0
 14
50.79999999999998
 24
26.80029999999999
 34
0.0
  0
DIMENSION
  5
20D
  8
SK2
  2
*D2
 10
19.04999999999998
 20
-47.02109509650273
 30
0.0
 11
9.52499999999999
 21
-45.14609509650273
 31
0.0
 70
    32
  3
ISO-25
 13
0.0
 23
-22.22499999999999
 33
0.0
 14
19.04999999999998
 24
-29.97065231190001
 34
0.0
  0
LINE
  5
364
  8
NOCUT
 10
50.79999999999998
 20
-0.0000000034857197
 30
0.0
 11
0.0
 21
0.0
 31
0.0
  0
LINE
  5
99D
  8
SK3
 10
-66.51794919240001
 20
0.0
 30
0.0
 11
-66.51794919240001
 21
8.149999999999991
 31
0.0
  0
LINE
  5
99E
  8
SK3
 10
-66.51794919240001
 20
-8.149999999999991
 30
0.0
 11
-66.51794919240001
 21
0.0
 31
0.0
  0
LINE
  5
99F
  8
SK3
 10
-63.48000000000002
 20
0.0
 30
0.0
 11
-63.48000000000002
 21
8.149999999999991
 31
0.0
  0
LINE
  5
9A0
  8
SK3
 10
-63.48000000000002
 20
-8.149999999999991
 30
0.0
 11
-63.48000000000002
 21
0.0
 31
0.0
  0
LINE
  5
9BF
  8
SK3
 10
-68.25000000000003
 20
-9.149999999999991
 30
0.0
 11
-66.51794919240001
 21
-8.149999999999991
 31
0.0
  0
LINE
  5
9C0
  8
SK3
 10
-66.51794919240001
 20
8.149999999999991
 30
0.0
 11
-68.25000000000003
 21
9.149999999999991
 31
0.0
  0
LINE
  5
9C1
  8
SK3
 10
-66.51794919240001
 20
-8.149999999999991
 30
0.0
 11
-63.48000000000002
 21
-8.149999999999991
 31
0.0
  0
LINE
  5
9C2
  8
SK3
 10
-63.48000000000002
 20
8.149999999999991
 30
0.0
 11
-66.51794919240001
 21
8.149999999999991
 31
0.0
  0
LINE
  5
9C3
  8
SK3
 10
-63.48000000000002
 20
-6.700000000000003
 30
0.0
 11
-8.25
 21
-6.700000000000003
 31
0.0
  0
LINE
  5
9C4
  8
SK3
 10
-8.25
 20
6.700000000000003
 30
0.0
 11
-63.48000000000002
 21
6.700000000000003
 31
0.0
  0
LINE
  5
9E1
  8
0
 10
52.79999999999993
 20
1.99999999651428
 30
0.0
 11
48.80000000000003
 21
-2.00000000348572
 31
0.0
  0
LINE
  5
9E2
  8
0
 10
48.80000000000003
 20
1.99999999651428
 30
0.0
 11
52.79999999999993
 21
-2.00000000348572
 31
0.0
  0
CIRCLE
  5
9E3
  8
0
 10
50.80000000000003
 20
-0.0000000034857197
 30
0.0
 40
1.5
  0
LINE
  5
9E4
  8
0
 10
3.0
 20
3.0
 30
0.0
 11
-3.0
 21
-3.0
 31
0.0
  0
LINE
  5
9E5
  8
0
 10
-3.0
 20
3.0
 30
0.0
 11
3.0
 21
-3.0
 31
0.0
  0
CIRCLE
  5
9E6
  8
0
 10
0.0
 20
0.0
 30
0.0
 40
2.5
  0
LINE
  5
9E7
  8
SK3
 10
-63.48000000000005
 20
-7.937499999800011
 30
0.0
 11
-39.75000000000003
 21
-7.937499999800011
 31
0.0
  0
LINE
  5
9E8
  8
SK3
 10
-39.75000000000003
 20
7.937500000199975
 30
0.0
 11
-39.75000000000003
 21
-7.937499999800011
 31
0.0
  0
LINE
  5
9E9
  8
SK3
 10
-39.75000000000003
 20
7.937500000199975
 30
0.0
 11
-63.48000000000005
 21
7.937500000199975
 31
0.0
  0
ARC
  5
AA1
  8
NOCUT
 10
0.5
 20
22.72499999999999
 30
0.0
 40
0.5
 50
270.0
 51
0.0
  0
LINE
  5
AA4
  8
NOCUT
 10
0.5
 20
22.22499999999999
 30
0.0
 11
0.0
 21
22.22499999999999
 31
0.0
  0
LINE
  5
AA7
  8
NOCUT
 10
14.65616676909997
 20
31.75
 30
0.0
 11
18.54999999999995
 21
31.75
 31
0.0
  0
POLYLINE
  5
AA8
  8
NOCUT
 66
     1
 10
0.0
 20
0.0
 30
0.0
  0
VERTEX
  5
16D9
  8
NOCUT
 10
18.54999999999995
 20
31.75
 30
0.0
  0
VERTEX
  5
16DA
  8
NOCUT
 10
18.57284145939997
 20
31.7263863779
 30
0.0
  0
VERTEX
  5
16DB
  8
NOCUT
 10
19.04999999999995
 20
31.2328257263
 30
0.0
  0
SEQEND
  5
188C
  8
NOCUT
  0
POLYLINE
  5
AA9
  8
NOCUT
 66
     1
 10
0.0
 20
0.0
 30
0.0
  0
VERTEX
  5
16DC
  8
NOCUT
 10
1.0
 20
31.2328257263
 30
0.0
  0
VERTEX
  5
16DD
  8
NOCUT
 10
1.477158540600044
 20
31.7263863779
 30
0.0
  0
VERTEX
  5
16DE
  8
NOCUT
 10
1.5
 20
31.75
 30
0.0
  0
SEQEND
  5
188B
  8
NOCUT
  0
LINE
  5
AAA
  8
NOCUT
 10
1.499999999999996
 20
31.75
 30
0.0
 11
7.603833230899966
 21
31.75
 31
0.0
  0
POLYLINE
  5
AAB
  8
NOCUT
 66
     1
 10
0.0
 20
0.0
 30
0.0
  0
VERTEX
  5
16DF
  8
NOCUT
 10
7.603833230899966
 20
31.75
 30
0.0
  0
VERTEX
  5
16E0
  8
NOCUT
 10
9.140787278000005
 20
28.9892854797
 30
0.0
  0
VERTEX
  5
16E1
  8
NOCUT
 10
9.204999999999984
 20
28.8735268612
 30
0.0
  0
SEQEND
  5
188A
  8
NOCUT
  0
POLYLINE
  5
AAC
  8
NOCUT
 66
     1
 10
0.0
 20
0.0
 30
0.0
  0
VERTEX
  5
16E2
  8
NOCUT
 10
13.05499999999995
 20
28.8735268612
 30
0.0
  0
VERTEX
  5
16E3
  8
NOCUT
 10
13.1192127219
 20
28.9892854797
 30
0.0
  0
VERTEX
  5
16E4
  8
NOCUT
 10
14.65616676909997
 20
31.75
 30
0.0
  0
SEQEND
  5
1889
  8
NOCUT
  0
ARC
  5
AAD
  8
NOCUT
 10
12.54226966779999
 20
28.55584607759999
 30
0.0
 40
0.512803993977288
 50
271.4225108534019
 51
0.9711541378997977
  0
ARC
  5
AAE
  8
NOCUT
 10
9.716236145599964
 20
28.5544130456
 30
0.0
 40
0.5113363895821054
 50
178.8654582714003
 51
268.7408767374973
  0
LINE
  5
AAF
  8
NOCUT
 10
9.704999999999984
 20
28.0432001229
 30
0.0
 11
12.55499999999995
 21
28.0432001229
 31
0.0
  0
LINE
  5
AB0
  8
NOCUT
 10
0.0
 20
0.0
 30
0.0
 11
0.0
 21
22.22499999999999
 31
0.0
  0
LINE
  5
ACA
  8
NOCUT
 10
1.0
 20
22.72499999999999
 30
0.0
 11
1.0
 21
31.2328257263
 31
0.0
  0
LINE
  5
ACB
  8
NOCUT
 10
9.204999999999984
 20
28.8735268612
 30
0.0
 11
9.20489975601786
 21
28.5544130456
 31
0.0
  0
LINE
  5
ACC
  8
NOCUT
 10
13.05499999999995
 20
28.8735268612
 30
0.0
 11
13.05507366177728
 21
28.55584607759999
 31
0.0
  0
LINE
  5
ACD
  8
NOCUT
 10
19.04999999999995
 20
31.2328257263
 30
0.0
 11
19.04999999999995
 21
28.80029999999999
 31
0.0
  0
ARC
  5
B94
  8
1
 10
0.799999999999983
 20
-22.42500000000001
 30
0.0
 40
0.5
 50
66.42182152179994
 51
90.0
  0
ARC
  5
B95
  8
1
 10
0.799999999999983
 20
22.42499999999998
 30
0.0
 40
0.5
 50
270.0
 51
293.5781784782001
  0
LINE
  5
B98
  8
1
 10
0.0
 20
-22.22499999999999
 30
0.0
 11
0.2999999999999829
 21
-21.92500000000001
 31
0.0
  0
LINE
  5
B99
  8
1
 10
0.2999999999999829
 20
21.92499999999998
 30
0.0
 11
0.0
 21
22.22499999999999
 31
0.0
  0
LINE
  5
B9C
  8
SK1
 10
0.0
 20
22.22499999999999
 30
0.0
 11
-67.3943082273
 21
12.39657058259999
 31
0.0
  0
LINE
  5
B9D
  8
SK1
 10
-67.3943082273
 20
-12.39657058270001
 30
0.0
 11
0.0
 21
-22.22499999999999
 31
0.0
  0
LINE
  5
B9E
  8
1
 10
0.2999999999999829
 20
-21.92500000000001
 30
0.0
 11
0.799999999999983
 21
-21.92500000000001
 31
0.0
  0
LINE
  5
B9F
  8
1
 10
0.799999999999983
 20
21.92499999999998
 30
0.0
 11
0.2999999999999829
 21
21.92499999999998
 31
0.0
  0
ARC
  5
BA0
  8
SK1
 10
-67.25
 20
-11.4070377962
 30
0.0
 40
1.000000000000014
 50
180.0
 51
261.7027777778003
  0
ARC
  5
BA1
  8
SK1
 10
-67.25
 20
11.40703779609998
 30
0.0
 40
1.000000000000014
 50
98.29722222219964
 51
180.0
  0
LINE
  5
BA2
  8
1
 10
14.6561667922
 20
30.49243725150001
 30
0.0
 11
13.05500004409998
 21
27.5903849293
 31
0.0
  0
LINE
  5
BA3
  8
1
 10
14.65616676899998
 20
-30.51805114620001
 30
0.0
 11
14.65616676899998
 21
30.49243720799998
 31
0.0
  0
LINE
  5
BA4
  8
1
 10
13.05500002099998
 20
-27.61768172550001
 30
0.0
 11
14.65616678619998
 21
-30.51748284710001
 31
0.0
  0
LINE
  5
BA5
  8
1
 10
13.05499999999998
 20
-27.61768156150001
 30
0.0
 11
13.05499999999998
 21
27.5896745586
 31
0.0
  0
LINE
  5
BA6
  8
1
 10
14.65616729029998
 20
-30.5174828113
 30
0.0
 11
14.76217597669998
 21
-30.54092502470002
 31
0.0
  0
LINE
  5
BA7
  8
1
 10
14.69253150219998
 20
30.50268419069999
 30
0.0
 11
14.65616753799998
 21
30.49243719839998
 31
0.0
  0
LINE
  5
BA8
  8
1
 10
18.54999999999998
 20
30.50268419069999
 30
0.0
 11
14.69253150219998
 21
30.50268419069999
 31
0.0
  0
LINE
  5
BA9
  8
1
 10
14.76217597669998
 20
-30.54092502470002
 30
0.0
 11
18.54999999999998
 21
-30.54092502470002
 31
0.0
  0
LINE
  5
BAA
  8
1
 10
9.204999955799991
 20
27.5903849293
 30
0.0
 11
7.603833207699978
 21
30.49243725150001
 31
0.0
  0
LINE
  5
BAB
  8
1
 10
9.204999999999984
 20
-27.6182445954
 30
0.0
 11
9.204999999999984
 21
27.5903848518
 31
0.0
  0
LINE
  5
BAC
  8
1
 10
7.6038332137
 20
-30.51748284710001
 30
0.0
 11
9.204999978799975
 21
-27.61768172539999
 31
0.0
  0
LINE
  5
BAD
  8
1
 10
7.603833230899994
 20
-30.5174828113
 30
0.0
 11
7.603833230899994
 21
30.49194635059999
 31
0.0
  0
LINE
  5
BAE
  8
1
 10
1.0
 20
-29.20362428180002
 30
0.0
 11
1.0
 21
29.22527756419998
 31
0.0
  0
ARC
  5
BAF
  8
1
 10
1.736068826500002
 20
28.83956144390001
 30
0.0
 40
0.8318485490646366
 50
106.4871262675995
 51
152.2338518675996
  0
POLYLINE
  5
BB0
  8
1
 66
     1
 10
0.0
 20
0.0
 30
0.0
  0
VERTEX
  5
16E5
  8
1
 10
1.499991175799977
 20
-29.70136738420001
 30
0.0
  0
VERTEX
  5
16E6
  8
1
 10
1.31486147779998
 20
-29.6078136875
 30
0.0
  0
VERTEX
  5
16E7
  8
1
 10
1.220960437199977
 20
-29.54106786380001
 30
0.0
  0
VERTEX
  5
16E8
  8
1
 10
1.131120186599986
 20
-29.45918995790001
 30
0.0
  0
VERTEX
  5
16E9
  8
1
 10
1.068966655699995
 20
-29.38420485969999
 30
0.0
  0
VERTEX
  5
16EA
  8
1
 10
1.029912598300001
 20
-29.3189781797
 30
0.0
  0
VERTEX
  5
16EB
  8
1
 10
1.001757060399996
 20
-29.23060659110001
 30
0.0
  0
VERTEX
  5
16EC
  8
1
 10
1.000001938499992
 20
-29.2054619834
 30
0.0
  0
SEQEND
  5
1888
  8
1
  0
LINE
  5
BB1
  8
1
 10
7.5674684974
 20
30.50268419069999
 30
0.0
 11
4.03465638199998
 21
30.50268419069999
 31
0.0
  0
LINE
  5
BB2
  8
1
 10
7.603832461599978
 20
30.49243719839998
 30
0.0
 11
7.5674684974
 21
30.50268419069999
 31
0.0
  0
LINE
  5
BB3
  8
1
 10
7.497824022700001
 20
-30.54092502470002
 30
0.0
 11
7.603832709099976
 21
-30.5174828113
 31
0.0
  0
LINE
  5
BB4
  8
1
 10
3.987796517999982
 20
-30.54092502470002
 30
0.0
 11
7.497824022700001
 21
-30.54092502470002
 31
0.0
  0
LINE
  5
BB5
  8
1
 10
1.500000037399985
 20
-29.70136454339999
 30
0.0
 11
3.987796517999982
 21
-30.54092512950001
 31
0.0
  0
LINE
  5
BB6
  8
1
 10
4.03465638199998
 20
30.5026843142
 30
0.0
 11
1.499999999899984
 21
29.6372041155
 31
0.0
  0
POLYLINE
  5
BB7
  8
1
 66
     1
 10
0.0
 20
0.0
 30
0.0
  0
VERTEX
  5
16ED
  8
1
 10
18.81621828999999
 20
-30.4787564463
 30
0.0
  0
VERTEX
  5
16EE
  8
1
 10
18.6790188139
 20
-30.52721612650001
 30
0.0
  0
VERTEX
  5
16EF
  8
1
 10
18.54999999999998
 20
-30.54092502470002
 30
0.0
  0
SEQEND
  5
1887
  8
1
  0
ARC
  5
BB8
  8
1
 10
18.55943835959999
 20
29.86640550269999
 30
0.0
 40
0.6363486869715145
 50
60.60134603479981
 51
90.84984539750005
  0
ARC
  5
BB9
  8
1
 10
18.35098180669999
 20
29.95429978019999
 30
0.0
 40
0.6992094391558102
 50
1.340108450200791
 51
41.85091720829973
  0
LINE
  5
BBA
  8
1
 10
19.04999999999998
 20
29.97065231189998
 30
0.0
 11
19.04999999999998
 21
-29.97065231190001
 31
0.0
  0
ARC
  5
BBB
  8
1
 10
18.33294041069999
 20
-29.9485632036
 30
0.0
 40
0.7173997374297006
 50
312.3495695874001
 51
358.2355544919003
  0
ARC
  5
BBC
  8
1
 10
9.7449695926
 20
27.30906555679999
 30
0.0
 40
0.5407677835436584
 50
176.8865704259999
 51
265.761250323199
  0
ARC
  5
BBD
  8
1
 10
9.7179331838
 20
-27.29360212969999
 30
0.0
 40
0.4775741781478385
 50
91.55181642760164
 51
147.4596417165987
  0
ARC
  5
BBE
  8
1
 10
12.52505146019999
 20
27.30025443439999
 30
0.0
 40
0.5313222205439724
 50
273.2312498579008
 51
4.120929392898505
  0
ARC
  5
BBF
  8
1
 10
12.53972316129997
 20
-27.2977060387
 30
0.0
 40
0.4817452194643697
 50
32.86161398089808
 51
88.18276318630117
  0
LINE
  5
BC0
  8
1
 10
12.55499999999998
 20
26.7697769259
 30
0.0
 11
9.704999999999984
 21
26.7697769259
 31
0.0
  0
LINE
  5
BC1
  8
1
 10
9.704999999999984
 20
-26.81620310549999
 30
0.0
 11
12.55499999999998
 21
-26.81620310549999
 31
0.0
  0
LINE
  5
BC4
  8
1
 10
0.2999999999999829
 20
0.0
 30
0.0
 11
0.2999999999999829
 21
21.92499999999998
 31
0.0
  0
LINE
  5
BC5
  8
1
 10
0.2999999999999829
 20
-21.92500000000001
 30
0.0
 11
0.2999999999999829
 21
0.0
 31
0.0
  0
LINE
  5
BC6
  8
1
 10
0.0
 20
0.0
 30
0.0
 11
0.0
 21
22.22499999999999
 31
0.0
  0
LINE
  5
BC7
  8
1
 10
0.0
 20
-22.22499999999999
 30
0.0
 11
0.0
 21
0.0
 31
0.0
  0
LINE
  5
BCA
  8
SK1
 10
-68.25
 20
0.0
 30
0.0
 11
-68.25
 21
11.40703779609998
 31
0.0
  0
LINE
  5
BCB
  8
SK1
 10
-68.25
 20
-11.4070377962
 30
0.0
 11
-68.25
 21
0.0
 31
0.0
  0
LINE
  5
BCC
  8
1
 10
7.567468496899977
 20
30.50268419069999
 30
0.0
 11
7.6038324612
 21
30.49243719839998
 31
0.0
  0
LINE
  5
BCD
  8
1
 10
3.987796517999982
 20
-30.54092512950001
 30
0.0
 11
1.499999999899984
 21
-29.7013645289
 31
0.0
  0
LINE
  5
BDE
  8
3
 10
1.0
 20
-22.59999999999999
 30
0.0
 11
3.699999999999989
 21
-22.59999999999999
 31
0.0
  0
LINE
  5
BDF
  8
3
 10
1.0
 20
25.02000000000001
 30
0.0
 11
3.699999999999989
 21
25.02000000000001
 31
0.0
  0
LINE
  5
BE8
  8
3
 10
18.25
 20
25.02000000000001
 30
0.0
 11
19.04999999999998
 21
25.02000000000001
 31
0.0
  0
LINE
  5
BFE
  8
3
 10
3.699999999999989
 20
-22.59999999999999
 30
0.0
 11
26.25000000004368
 21
-22.60000000000002
 31
0.0
  0
LINE
  5
C08
  8
3
 10
3.699999999999989
 20
25.02000000000001
 30
0.0
 11
18.25
 21
25.02000000000001
 31
0.0
  0
LINE
  5
C10
  8
3
 10
11.13
 20
21.22
 30
0.0
 11
17.47999999999999
 21
21.22
 31
0.0
  0
LINE
  5
C11
  8
3
 10
4.780000000000001
 20
21.22
 30
0.0
 11
11.13
 21
21.22
 31
0.0
  0
LINE
  5
C12
  8
3
 10
11.13
 20
21.21000000000001
 30
0.0
 11
15.88
 21
21.21000000000001
 31
0.0
  0
LINE
  5
C13
  8
3
 10
6.379999999999995
 20
21.21000000000001
 30
0.0
 11
11.13
 21
21.21000000000001
 31
0.0
  0
LINE
  5
C26
  8
3
 10
4.780000000000001
 20
25.02000000000001
 30
0.0
 11
4.780000000000001
 21
21.22
 31
0.0
  0
LINE
  5
C27
  8
3
 10
17.47999999999999
 20
21.22
 30
0.0
 11
17.47999999999999
 21
25.02000000000001
 31
0.0
  0
LINE
  5
C28
  8
3
 10
6.379999999999995
 20
21.22
 30
0.0
 11
6.379999999999995
 21
21.21000000000001
 31
0.0
  0
LINE
  5
C29
  8
3
 10
15.88
 20
21.21000000000001
 30
0.0
 11
15.88
 21
21.22
 31
0.0
  0
LINE
  5
C2A
  8
3
 10
6.379999999999995
 20
21.21000000000001
 30
0.0
 11
11.13
 21
18.3559120596
 31
0.0
  0
LINE
  5
C2B
  8
3
 10
11.13
 20
18.3559120596
 30
0.0
 11
15.88
 21
21.21000000000001
 31
0.0
  0
LINE
  5
C2D
  8
1
 10
0.799999999999983
 20
21.92499999999998
 30
0.0
 11
0.799999999999983
 21
-21.92500000000001
 31
0.0
  0
LINE
  5
C2F
  8
1
 10
9.704999999999984
 20
26.26568698759999
 30
0.0
 11
9.704999999999984
 21
-26.08092552630001
 31
0.0
  0
LINE
  5
C30
  8
1
 10
12.55499999999998
 20
26.26578903699999
 30
0.0
 11
12.55499999999998
 21
-26.08072526110001
 31
0.0
  0
LINE
  5
C31
  8
1
 10
18.54999999999998
 20
30.50268419069999
 30
0.0
 11
18.54999999999998
 21
-30.54092502470002
 31
0.0
  0
LINE
  5
C32
  8
1
 10
1.5
 20
-29.7013645289
 30
0.0
 11
1.5
 21
29.6372041155
 31
0.0
  0
LINE
  5
C92
  8
SK4
 10
0.0
 20
0.0
 30
0.0
 11
-68.25
 21
0.0
 31
0.0
  0
TEXT
  5
D44
  8
SK6
 10
-66.17909534664395
 20
47.33203563714093
 30
0.0
 40
3.5
  1
BIG KAISER
 41
0.85
  0
TEXT
  5
D45
  8
SK6
 10
-66.17909534664395
 20
42.08203563714093
 30
0.0
 40
3.5
  1
BCV40H-SMC1.000-2
 41
0.85
  0
INSERT
  5
D46
  8
SK6
  2
_FILLED
 10
-17.9836627818344
 20
-19.60235774778011
 30
0.0
 41
3.5
 42
3.5
 43
3.5
 50
55.49325986033524
  0
POLYLINE
  5
D47
  8
SK6
 66
     1
 10
0.0
 20
0.0
 30
0.0
  0
VERTEX
  5
16F0
  8
SK6
 10
-19.966423916232
 20
-22.48656618059532
 30
0.0
  0
VERTEX
  5
16F1
  8
SK6
 10
-33.4822656830344
 20
-42.14728280658011
 30
0.0
  0
VERTEX
  5
16F2
  8
SK6
 10
-35.35726568303438
 20
-40.39728280658011
 30
0.0
  0
VERTEX
  5
16F3
  8
SK6
 10
-38.85726568303438
 20
-40.39728280658011
 30
0.0
  0
SEQEND
  5
1886
  8
SK6
  0
TEXT
  5
D48
  8
SK6
 10
-53.86143234970106
 20
-43.89728280658011
 30
0.0
 40
3.5
  1
BCV40
 41
0.85
  0
LINE
  5
F33
  8
1
 10
27.04863488785577
 20
-27.79990478091276
 30
0.0
 11
49.79999999999998
 21
-27.80030000000001
 31
0.0
  0
LINE
  5
F35
  8
1
 10
49.79999999999998
 20
27.80029999999999
 30
0.0
 11
27.35000000085761
 21
27.80029999999999
 31
0.0
  0
ARC
  5
F36
  8
1
 10
49.79999999999998
 20
-26.80030000000001
 30
0.0
 40
1.000000000000007
 50
270.0
 51
0.0
  0
ARC
  5
F37
  8
1
 10
49.79999999999998
 20
26.80029999999999
 30
0.0
 40
1.000000000000002
 50
0.0
 51
90.0
  0
ARC
  5
F40
  8
SK1
 10
51.0
 20
-12.90000000000001
 30
0.0
 40
0.3999999999999959
 50
75.0000000000014
 51
119.9999999999987
  0
ARC
  5
F41
  8
SK1
 10
51.0
 20
12.90000000000001
 30
0.0
 40
0.3999999999999985
 50
240.0000000000013
 51
284.9999999999985
  0
LINE
  5
F42
  8
SK1
 10
51.79907116050001
 20
-12.7
 30
0.0
 11
66.79999999999998
 21
-12.7
 31
0.0
  0
LINE
  5
F43
  8
SK1
 10
66.79999999999998
 20
12.69999999999999
 30
0.0
 11
51.79907116050001
 21
12.69999999999999
 31
0.0
  0
ARC
  5
F44
  8
SK1
 10
66.79999999999998
 20
-11.2
 30
0.0
 40
1.5
 50
270.0
 51
0.0
  0
ARC
  5
F45
  8
SK1
 10
66.79999999999998
 20
11.19999999999999
 30
0.0
 40
1.500000000000001
 50
0.0
 51
90.0
  0
LINE
  5
F46
  8
SK1
 10
51.79907116050001
 20
12.69999999999999
 30
0.0
 11
51.10352761799999
 21
12.51362966950001
 31
0.0
  0
LINE
  5
F47
  8
SK1
 10
51.10352761799999
 20
-12.51362966950001
 30
0.0
 11
51.79907116050001
 21
-12.7
 31
0.0
  0
LINE
  5
F4A
  8
SK1
 10
78.613
 20
-14.986
 30
0.0
 11
79.375
 21
-14.224
 31
0.0
  0
LINE
  5
F4B
  8
SK1
 10
79.375
 20
14.22399999999999
 30
0.0
 11
78.613
 21
14.98599999999999
 31
0.0
  0
LINE
  5
F4C
  8
SK1
 10
70.612
 20
14.98599999999999
 30
0.0
 11
69.85
 21
14.22399999999999
 31
0.0
  0
LINE
  5
F4D
  8
SK1
 10
69.85
 20
-14.224
 30
0.0
 11
70.612
 21
-14.986
 31
0.0
  0
LINE
  5
F4E
  8
SK1
 10
78.613
 20
14.98599999999999
 30
0.0
 11
70.612
 21
14.98599999999999
 31
0.0
  0
LINE
  5
F4F
  8
SK1
 10
70.612
 20
-14.986
 30
0.0
 11
78.613
 21
-14.986
 31
0.0
  0
ARC
  5
F50
  8
SK1
 10
69.18959999999998
 20
-7.010400000000004
 30
0.0
 40
0.6604000000000099
 50
0.0
 51
90.0
  0
ARC
  5
F51
  8
SK1
 10
69.18959999999998
 20
7.010400000000004
 30
0.0
 40
0.6604000000000099
 50
270.0
 51
0.0
  0
LINE
  5
F52
  8
SK1
 10
69.18959999999998
 20
6.349999999999994
 30
0.0
 11
68.29999999999998
 21
6.349999999999994
 31
0.0
  0
LINE
  5
F53
  8
SK1
 10
68.29999999999998
 20
-6.350000000000009
 30
0.0
 11
69.18959999999998
 21
-6.350000000000009
 31
0.0
  0
LINE
  5
F54
  8
1
 10
50.82850530269999
 20
-16.67669000000001
 30
0.0
 11
50.79999999999998
 21
-16.67669000000001
 31
0.0
  0
LINE
  5
F55
  8
1
 10
50.79999999999998
 20
-26.20931
 30
0.0
 11
50.82850530269999
 21
-26.20931
 31
0.0
  0
LINE
  5
F56
  8
1
 10
50.82850530269999
 20
26.20930999999999
 30
0.0
 11
50.79999999999998
 21
26.20930999999999
 31
0.0
  0
LINE
  5
F57
  8
1
 10
50.79999999999998
 20
16.67669000000001
 30
0.0
 11
50.82850530269999
 21
16.67669000000001
 31
0.0
  0
ARC
  5
F73
  8
1
 10
20.04010092404368
 20
-27.6205603457
 30
0.0
 40
0.9906139359833545
 50
89.4274412133004
 51
181.8440296264009
  0
ARC
  5
F74
  8
1
 10
20.03106871285762
 20
27.29978118939999
 30
0.0
 40
0.9870169482758755
 50
186.2934349319848
 51
271.0990179786
  0
ARC
  5
F7B
  8
1
 10
18.6818110427437
 20
-56.3333712796
 30
0.0
 40
29.73486928988999
 50
73.65736244709998
 51
87.36272118540002
  0
ARC
  5
F7C
  8
1
 10
17.98848914635763
 20
55.08890924240001
 30
0.0
 40
28.84971227517986
 50
274.0976707222
 51
288.9339318964
  0
CIRCLE
  5
F7D
  8
1
 10
43.79999999999998
 20
0.0
 30
0.0
 40
2.249999999999972
  0
LINE
  5
F7E
  8
1
 10
50.79999999999998
 20
0.0
 30
0.0
 11
50.79999999999998
 21
26.80029999999999
 31
0.0
  0
LINE
  5
F7F
  8
1
 10
50.79999999999998
 20
-26.80030000000001
 30
0.0
 11
50.79999999999998
 21
0.0
 31
0.0
  0
LINE
  5
F84
  8
SK1
 10
51.79907116050001
 20
0.0
 30
0.0
 11
51.79907116050001
 21
12.69999999999999
 31
0.0
  0
LINE
  5
F85
  8
SK1
 10
51.79907116050001
 20
-12.7
 30
0.0
 11
51.79907116050001
 21
0.0
 31
0.0
  0
LINE
  5
F86
  8
SK1
 10
68.29999999999998
 20
0.0
 30
0.0
 11
68.29999999999998
 21
11.19999999999999
 31
0.0
  0
LINE
  5
F87
  8
SK1
 10
68.29999999999998
 20
-11.2
 30
0.0
 11
68.29999999999998
 21
0.0
 31
0.0
  0
LINE
  5
F8B
  8
1
 10
44.76230203289998
 20
-0.6382069654999896
 30
0.0
 11
44.83385446139999
 21
0.5142745238999851
 31
0.0
  0
LINE
  5
F8C
  8
1
 10
43.87155242859998
 20
1.152481489400003
 30
0.0
 11
44.83385446139999
 21
0.5142745238999851
 31
0.0
  0
LINE
  5
F8D
  8
1
 10
42.83769796709998
 20
0.6382069654999896
 30
0.0
 11
43.87155242859998
 21
1.152481489400003
 31
0.0
  0
LINE
  5
F8E
  8
1
 10
42.83769796709998
 20
0.6382069654999896
 30
0.0
 11
42.7661455386
 21
-0.5142745237999975
 31
0.0
  0
LINE
  5
F8F
  8
1
 10
43.72844757139998
 20
-1.152481489300015
 30
0.0
 11
42.7661455386
 21
-0.5142745237999975
 31
0.0
  0
LINE
  5
F90
  8
1
 10
43.72844757139998
 20
-1.152481489300015
 30
0.0
 11
44.76230203289998
 21
-0.6382069654999896
 31
0.0
  0
CIRCLE
  5
F91
  8
1
 10
43.79999999999998
 20
0.0
 30
0.0
 40
1.610000000000007
  0
CIRCLE
  5
F92
  8
1
 10
43.79999999999998
 20
0.0
 30
0.0
 40
2.000000000000033
  0
LINE
  5
F93
  8
SK1
 10
79.375
 20
0.0
 30
0.0
 11
79.375
 21
-14.224
 31
0.0
  0
LINE
  5
F94
  8
SK1
 10
79.375
 20
14.22399999999999
 30
0.0
 11
79.375
 21
0.0
 31
0.0
  0
LINE
  5
F95
  8
SK1
 10
78.613
 20
0.0
 30
0.0
 11
78.613
 21
-14.986
 31
0.0
  0
LINE
  5
F96
  8
SK1
 10
78.613
 20
14.98599999999999
 30
0.0
 11
78.613
 21
0.0
 31
0.0
  0
LINE
  5
F97
  8
SK1
 10
70.612
 20
0.0
 30
0.0
 11
70.612
 21
-14.986
 31
0.0
  0
LINE
  5
F98
  8
SK1
 10
70.612
 20
14.98599999999999
 30
0.0
 11
70.612
 21
0.0
 31
0.0
  0
LINE
  5
F99
  8
SK1
 10
69.85
 20
0.0
 30
0.0
 11
69.85
 21
-14.224
 31
0.0
  0
LINE
  5
F9A
  8
SK1
 10
69.85
 20
14.22399999999999
 30
0.0
 11
69.85
 21
0.0
 31
0.0
  0
LINE
  5
F9B
  8
SK1
 10
55.7022
 20
-16.68049999999999
 30
0.0
 11
50.79999999999998
 21
-16.68049999999999
 31
0.0
  0
LINE
  5
F9C
  8
SK1
 10
55.7022
 20
-16.68049999999999
 30
0.0
 11
55.7022
 21
-26.2055
 31
0.0
  0
LINE
  5
F9D
  8
SK1
 10
55.7022
 20
-26.2055
 30
0.0
 11
50.79999999999998
 21
-26.2055
 31
0.0
  0
LINE
  5
F9E
  8
SK1
 10
55.7022
 20
26.2055
 30
0.0
 11
50.79999999999998
 21
26.2055
 31
0.0
  0
LINE
  5
F9F
  8
SK1
 10
55.7022
 20
26.2055
 30
0.0
 11
55.7022
 21
16.68049999999999
 31
0.0
  0
LINE
  5
FA0
  8
SK1
 10
55.7022
 20
16.68049999999999
 30
0.0
 11
50.79999999999998
 21
16.68049999999999
 31
0.0
  0
POLYLINE
  5
FB6
  8
3
 66
     1
 10
0.0
 20
0.0
 30
0.0
  0
VERTEX
  5
16F4
  8
3
 10
43.79999999999998
 20
25.12178384839999
 30
0.0
  0
VERTEX
  5
16F5
  8
3
 10
43.05662027989999
 20
25.0672427154
 30
0.0
  0
VERTEX
  5
16F6
  8
3
 10
42.39706865369999
 20
24.90705046419998
 30
0.0
  0
VERTEX
  5
16F7
  8
3
 10
41.8941539516
 20
24.6514438506
 30
0.0
  0
VERTEX
  5
16F8
  8
3
 10
41.6055417375
 20
24.3203422704
 30
0.0
  0
VERTEX
  5
16F9
  8
3
 10
41.56472361209998
 20
23.94624666249999
 30
0.0
  0
VERTEX
  5
16FA
  8
3
 10
41.77469704480001
 20
23.57073524699999
 30
0.0
  0
VERTEX
  5
16FB
  8
3
 10
42.2118978638
 20
23.2392275629
 30
0.0
  0
VERTEX
  5
16FC
  8
3
 10
42.82919745550001
 20
22.99661282380001
 30
0.0
  0
VERTEX
  5
16FD
  8
3
 10
43.55644377190001
 20
22.8793213164
 30
0.0
  0
VERTEX
  5
16FE
  8
3
 10
44.3092334273
 20
22.9050278325
 30
0.0
  0
VERTEX
  5
16FF
  8
3
 10
45.00370384319999
 20
23.0689421399
 30
0.0
  0
VERTEX
  5
1700
  8
3
 10
45.5643004575
 20
23.34721182819999
 30
0.0
  0
VERTEX
  5
1701
  8
3
 10
45.9272666409
 20
23.70091453149999
 30
0.0
  0
VERTEX
  5
1702
  8
3
 10
46.04996460019998
 20
24.0820742141
 30
0.0
  0
VERTEX
  5
1703
  8
3
 10
45.91964486789999
 20
24.44425342939999
 30
0.0
  0
VERTEX
  5
1704
  8
3
 10
45.55188392029999
 20
24.75063666149998
 30
0.0
  0
VERTEX
  5
1705
  8
3
 10
44.98617638030001
 20
24.974727543
 30
0.0
  0
VERTEX
  5
1706
  8
3
 10
44.28562286319999
 20
25.09895312859999
 30
0.0
  0
VERTEX
  5
1707
  8
3
 10
43.79999999999998
 20
25.12178384839999
 30
0.0
  0
SEQEND
  5
1885
  8
3
  0
POLYLINE
  5
FB7
  8
3
 66
     1
 10
0.0
 20
0.0
 30
0.0
  0
VERTEX
  5
1708
  8
3
 10
43.79999999999998
 20
-22.87178384840001
 30
0.0
  0
VERTEX
  5
1709
  8
3
 10
43.05662027989999
 20
-22.94359335830001
 30
0.0
  0
VERTEX
  5
170A
  8
3
 10
42.39706865369999
 20
-23.1479928649
 30
0.0
  0
VERTEX
  5
170B
  8
3
 10
41.8941539516
 20
-23.45551289950001
 30
0.0
  0
VERTEX
  5
170C
  8
3
 10
41.6055417375
 20
-23.82349930320001
 30
0.0
  0
VERTEX
  5
170D
  8
3
 10
41.56472361209998
 20
-24.2032281203
 30
0.0
  0
VERTEX
  5
170E
  8
3
 10
41.77469704480001
 20
-24.55086173870001
 30
0.0
  0
VERTEX
  5
170F
  8
3
 10
42.2118978638
 20
-24.8331007087
 30
0.0
  0
VERTEX
  5
1710
  8
3
 10
42.82919745550001
 20
-25.02640158610001
 30
0.0
  0
VERTEX
  5
1711
  8
3
 10
43.55644377190001
 20
-25.11610033170001
 30
0.0
  0
VERTEX
  5
1712
  8
3
 10
44.3092334273
 20
-25.09664397509999
 30
0.0
  0
VERTEX
  5
1713
  8
3
 10
45.00370384319999
 20
-24.9698884984
 30
0.0
  0
VERTEX
  5
1714
  8
3
 10
45.5643004575
 20
-24.74354412950001
 30
0.0
  0
VERTEX
  5
1715
  8
3
 10
45.9272666409
 20
-24.43387881340001
 30
0.0
  0
VERTEX
  5
1716
  8
3
 10
46.04996460019998
 20
-24.06945288919999
 30
0.0
  0
VERTEX
  5
1717
  8
3
 10
45.91964486789999
 20
-23.68953120640001
 30
0.0
  0
VERTEX
  5
1718
  8
3
 10
45.55188392029999
 20
-23.33875751310001
 30
0.0
  0
VERTEX
  5
1719
  8
3
 10
44.98617638030001
 20
-23.06279511880001
 30
0.0
  0
VERTEX
  5
171A
  8
3
 10
44.28562286319999
 20
-22.90198466390001
 30
0.0
  0
VERTEX
  5
171B
  8
3
 10
43.79999999999998
 20
-22.87178384840001
 30
0.0
  0
SEQEND
  5
1884
  8
3
  0
CIRCLE
  5
FB8
  8
3
 10
43.79999999999998
 20
0.0
 30
0.0
 40
1.649999999999981
  0
LINE
  5
FBB
  8
3
 10
43.79999999999998
 20
1.75
 30
0.0
 11
43.79999999999998
 21
1.650000000000006
 31
0.0
  0
LINE
  5
FBC
  8
3
 10
43.79999999999998
 20
-1.650000000000006
 30
0.0
 11
43.79999999999998
 21
-1.75
 31
0.0
  0
LINE
  5
FE4
  8
3
 10
18.5999999999576
 20
25.01999999999998
 30
0.0
 11
26.05271184282921
 21
25.01999999999998
 31
0.0
  0
LINE
  5
FE6
  8
3
 10
-8.25
 20
0.0
 30
0.0
 11
-8.25
 21
6.700000000000002
 31
0.0
  0
LINE
  5
FE7
  8
3
 10
-8.25
 20
-6.700000000000003
 30
0.0
 11
-8.25
 21
0.0
 31
0.0
  0
LINE
  5
FE8
  8
3
 10
-7.689018500300008
 20
0.0
 30
0.0
 11
-7.689018500300008
 21
-5.754370000000009
 31
0.0
  0
LINE
  5
FE9
  8
3
 10
-7.689018500300008
 20
5.754369999999994
 30
0.0
 11
-7.689018500300008
 21
0.0
 31
0.0
  0
POLYLINE
  5
FEC
  8
3
 66
     1
 10
0.0
 20
0.0
 30
0.0
  0
VERTEX
  5
171C
  8
3
 10
43.79999999999998
 20
5.599170668599982
 30
0.0
  0
VERTEX
  5
171D
  8
3
 10
44.3332876108
 20
5.577178781699985
 30
0.0
  0
VERTEX
  5
171E
  8
3
 10
44.8061993753
 20
5.506890582300002
 30
0.0
  0
VERTEX
  5
171F
  8
3
 10
45.17964787599999
 20
5.373922949600001
 30
0.0
  0
VERTEX
  5
1720
  8
3
 10
45.40337080660001
 20
5.166746755299982
 30
0.0
  0
VERTEX
  5
1721
  8
3
 10
45.44231430779999
 20
4.90199044389999
 30
0.0
  0
VERTEX
  5
1722
  8
3
 10
45.305979949
 20
4.612017624599986
 30
0.0
  0
VERTEX
  5
1723
  8
3
 10
45.01072289339999
 20
4.327451844099983
 30
0.0
  0
VERTEX
  5
1724
  8
3
 10
44.57157427749999
 20
4.09146383640001
 30
0.0
  0
VERTEX
  5
1725
  8
3
 10
44.0378650509
 20
3.962230515599998
 30
0.0
  0
VERTEX
  5
1726
  8
3
 10
43.49382359769999
 20
3.970856426099999
 30
0.0
  0
VERTEX
  5
1727
  8
3
 10
42.99606914809999
 20
4.104218922000001
 30
0.0
  0
VERTEX
  5
1728
  8
3
 10
42.574058135
 20
4.338628126200007
 30
0.0
  0
VERTEX
  5
1729
  8
3
 10
42.2757008241
 20
4.637477207199993
 30
0.0
  0
VERTEX
  5
172A
  8
3
 10
42.15232165309999
 20
4.939104983100009
 30
0.0
  0
VERTEX
  5
172B
  8
3
 10
42.21205183629999
 20
5.192409302199991
 30
0.0
  0
VERTEX
  5
172C
  8
3
 10
42.4369070491
 20
5.382835439800004
 30
0.0
  0
VERTEX
  5
172D
  8
3
 10
42.8142080328
 20
5.511474322299989
 30
0.0
  0
VERTEX
  5
172E
  8
3
 10
43.31465760379999
 20
5.581139607799997
 30
0.0
  0
VERTEX
  5
172F
  8
3
 10
43.79999999999998
 20
5.599170668599982
 30
0.0
  0
SEQEND
  5
1883
  8
3
  0
POLYLINE
  5
FED
  8
3
 66
     1
 10
0.0
 20
0.0
 30
0.0
  0
VERTEX
  5
1730
  8
3
 10
43.79999999999998
 20
-3.949170668600004
 30
0.0
  0
VERTEX
  5
1731
  8
3
 10
44.3332876108
 20
-4.015735755500003
 30
0.0
  0
VERTEX
  5
1732
  8
3
 10
44.8061993753
 20
-4.199196880700001
 30
0.0
  0
VERTEX
  5
1733
  8
3
 10
45.17964787599999
 20
-4.468897127800005
 30
0.0
  0
VERTEX
  5
1734
  8
3
 10
45.40337080660001
 20
-4.777257273299995
 30
0.0
  0
VERTEX
  5
1735
  8
3
 10
45.44231430779999
 20
-5.061061856900011
 30
0.0
  0
VERTEX
  5
1736
  8
3
 10
45.305979949
 20
-5.286201867399996
 30
0.0
  0
VERTEX
  5
1737
  8
3
 10
45.01072289339999
 20
-5.448455891999998
 30
0.0
  0
VERTEX
  5
1738
  8
3
 10
44.57157427749999
 20
-5.549946998500005
 30
0.0
  0
VERTEX
  5
1739
  8
3
 10
44.0378650509
 20
-5.594995108999996
 30
0.0
  0
VERTEX
  5
173A
  8
3
 10
43.49382359769999
 20
-5.59220031640001
 30
0.0
  0
VERTEX
  5
173B
  8
3
 10
42.99606914809999
 20
-5.545119746300003
 30
0.0
  0
VERTEX
  5
173C
  8
3
 10
42.574058135
 20
-5.442967994
 30
0.0
  0
VERTEX
  5
173D
  8
3
 10
42.2757008241
 20
-5.269151191300011
 30
0.0
  0
VERTEX
  5
173E
  8
3
 10
42.15232165309999
 20
-5.026603927699995
 30
0.0
  0
VERTEX
  5
173F
  8
3
 10
42.21205183629999
 20
-4.744167593400007
 30
0.0
  0
VERTEX
  5
1740
  8
3
 10
42.4369070491
 20
-4.453062560299998
 30
0.0
  0
VERTEX
  5
1741
  8
3
 10
42.8142080328
 20
-4.188328753000008
 30
0.0
  0
VERTEX
  5
1742
  8
3
 10
43.31465760379999
 20
-4.004135245599997
 30
0.0
  0
VERTEX
  5
1743
  8
3
 10
43.79999999999998
 20
-3.949170668600004
 30
0.0
  0
SEQEND
  5
1882
  8
3
  0
LINE
  5
FEE
  8
3
 10
39.59999999999999
 20
26.20425
 30
0.0
 11
39.59999999999999
 21
16.68174999999999
 31
0.0
  0
LINE
  5
FEF
  8
3
 10
39.59999999999999
 20
-16.68174999999999
 30
0.0
 11
39.59999999999999
 21
-26.20425
 31
0.0
  0
LINE
  5
FF1
  8
3
 10
22.04999999995762
 20
20.02000000000001
 30
0.0
 11
26.04999999995762
 21
20.02000000000001
 31
0.0
  0
LINE
  5
FF2
  8
3
 10
18.04999999995762
 20
20.02000000000001
 30
0.0
 11
22.04999999995762
 21
20.02000000000001
 31
0.0
  0
POLYLINE
  5
FF3
  8
3
 66
     1
 10
0.0
 20
0.0
 30
0.0
  0
VERTEX
  5
1744
  8
3
 10
43.79999999999998
 20
8.3307597381
 30
0.0
  0
VERTEX
  5
1745
  8
3
 10
44.04615588440001
 20
8.27837439679999
 30
0.0
  0
VERTEX
  5
1746
  8
3
 10
44.38336586840001
 20
8.068142678399994
 30
0.0
  0
VERTEX
  5
1747
  8
3
 10
44.94374037449998
 20
7.493565616799998
 30
0.0
  0
VERTEX
  5
1748
  8
3
 10
45.2542250441
 20
7.043656785999985
 30
0.0
  0
VERTEX
  5
1749
  8
3
 10
45.40869611509999
 20
6.71230598790001
 30
0.0
  0
VERTEX
  5
174A
  8
3
 10
45.4471813447
 20
6.449290144499997
 30
0.0
  0
VERTEX
  5
174B
  8
3
 10
45.3741193683
 20
6.309675430799984
 30
0.0
  0
VERTEX
  5
174C
  8
3
 10
45.2117241572
 20
6.260899641899982
 30
0.0
  0
VERTEX
  5
174D
  8
3
 10
44.8503275157
 20
6.334093831300009
 30
0.0
  0
VERTEX
  5
174E
  8
3
 10
44.2619997701
 20
6.57446572149999
 30
0.0
  0
VERTEX
  5
174F
  8
3
 10
44.0139613181
 20
6.654802368300011
 30
0.0
  0
VERTEX
  5
1750
  8
3
 10
43.79999999999998
 20
6.680759738099994
 30
0.0
  0
SEQEND
  5
1881
  8
3
  0
POLYLINE
  5
FF4
  8
3
 66
     1
 10
0.0
 20
0.0
 30
0.0
  0
VERTEX
  5
1751
  8
3
 10
43.79999999999998
 20
7.690710231899999
 30
0.0
  0
VERTEX
  5
1752
  8
3
 10
44.04615588440001
 20
7.743095573299996
 30
0.0
  0
VERTEX
  5
1753
  8
3
 10
44.38336586840001
 20
7.953327291600004
 30
0.0
  0
VERTEX
  5
1754
  8
3
 10
44.94374037449998
 20
8.5279043532
 30
0.0
  0
VERTEX
  5
1755
  8
3
 10
45.2542250441
 20
8.977813183999984
 30
0.0
  0
VERTEX
  5
1756
  8
3
 10
45.40869611509999
 20
9.309163982099989
 30
0.0
  0
VERTEX
  5
1757
  8
3
 10
45.4471813447
 20
9.572179825599989
 30
0.0
  0
VERTEX
  5
1758
  8
3
 10
45.3741193683
 20
9.711794539199985
 30
0.0
  0
VERTEX
  5
1759
  8
3
 10
45.2117241572
 20
9.760570328099988
 30
0.0
  0
VERTEX
  5
175A
  8
3
 10
44.8503275157
 20
9.687376138699989
 30
0.0
  0
VERTEX
  5
175B
  8
3
 10
44.2619997701
 20
9.447004248500008
 30
0.0
  0
VERTEX
  5
175C
  8
3
 10
44.0139613181
 20
9.366667601699987
 30
0.0
  0
VERTEX
  5
175D
  8
3
 10
43.79999999999998
 20
9.340710231900005
 30
0.0
  0
SEQEND
  5
1880
  8
3
  0
LINE
  5
FF5
  8
3
 10
43.79999999999998
 20
7.690710231899999
 30
0.0
 11
43.79999999999998
 21
6.680759738099994
 31
0.0
  0
POLYLINE
  5
FF6
  8
3
 66
     1
 10
0.0
 20
0.0
 30
0.0
  0
VERTEX
  5
175E
  8
3
 10
43.79999999999998
 20
24.03474062909999
 30
0.0
  0
VERTEX
  5
175F
  8
3
 10
43.26424587579999
 20
23.99003985350001
 30
0.0
  0
VERTEX
  5
1760
  8
3
 10
42.7865490241
 20
23.86078154929999
 30
0.0
  0
VERTEX
  5
1761
  8
3
 10
42.4186753109
 20
23.66097285949999
 30
0.0
  0
VERTEX
  5
1762
  8
3
 10
42.20048956119999
 20
23.4122661559
 30
0.0
  0
VERTEX
  5
1763
  8
3
 10
42.15563558649998
 20
23.14161266899998
 30
0.0
  0
VERTEX
  5
1764
  8
3
 10
42.28897401099999
 20
22.8783419037
 30
0.0
  0
VERTEX
  5
1765
  8
3
 10
42.58605554740001
 20
22.6509833325
 30
0.0
  0
VERTEX
  5
1766
  8
3
 10
43.01468680150001
 20
22.4841747843
 30
0.0
  0
VERTEX
  5
1767
  8
3
 10
43.528418926
 20
22.39599255369998
 30
0.0
  0
VERTEX
  5
1768
  8
3
 10
44.07158107399999
 20
22.39599255369998
 30
0.0
  0
VERTEX
  5
1769
  8
3
 10
44.58531319849999
 20
22.4841747843
 30
0.0
  0
VERTEX
  5
176A
  8
3
 10
45.01394445259999
 20
22.6509833325
 30
0.0
  0
VERTEX
  5
176B
  8
3
 10
45.311025989
 20
22.8783419037
 30
0.0
  0
VERTEX
  5
176C
  8
3
 10
45.44436441349998
 20
23.14161266899998
 30
0.0
  0
VERTEX
  5
176D
  8
3
 10
45.39951043880001
 20
23.4122661559
 30
0.0
  0
VERTEX
  5
176E
  8
3
 10
45.18132468909999
 20
23.66097285949999
 30
0.0
  0
VERTEX
  5
176F
  8
3
 10
44.8134509759
 20
23.86078154929999
 30
0.0
  0
VERTEX
  5
1770
  8
3
 10
44.33575412420001
 20
23.99003985350001
 30
0.0
  0
VERTEX
  5
1771
  8
3
 10
43.79999999999998
 20
24.03474062909999
 30
0.0
  0
SEQEND
  5
187F
  8
3
  0
POLYLINE
  5
FF7
  8
3
 66
     1
 10
0.0
 20
0.0
 30
0.0
  0
VERTEX
  5
1772
  8
3
 10
43.79999999999998
 20
-22.38474062900001
 30
0.0
  0
VERTEX
  5
1773
  8
3
 10
43.26424587579999
 20
-22.4294414046
 30
0.0
  0
VERTEX
  5
1774
  8
3
 10
42.7865490241
 20
-22.55869970880001
 30
0.0
  0
VERTEX
  5
1775
  8
3
 10
42.4186753109
 20
-22.7585083986
 30
0.0
  0
VERTEX
  5
1776
  8
3
 10
42.20048956119999
 20
-23.00721510210001
 30
0.0
  0
VERTEX
  5
1777
  8
3
 10
42.15563558649998
 20
-23.27786858900001
 30
0.0
  0
VERTEX
  5
1778
  8
3
 10
42.28897401099999
 20
-23.5411393544
 30
0.0
  0
VERTEX
  5
1779
  8
3
 10
42.58605554740001
 20
-23.7684979256
 30
0.0
  0
VERTEX
  5
177A
  8
3
 10
43.01468680150001
 20
-23.93530647380001
 30
0.0
  0
VERTEX
  5
177B
  8
3
 10
43.528418926
 20
-24.02348870430001
 30
0.0
  0
VERTEX
  5
177C
  8
3
 10
44.07158107399999
 20
-24.02348870430001
 30
0.0
  0
VERTEX
  5
177D
  8
3
 10
44.58531319849999
 20
-23.93530647380001
 30
0.0
  0
VERTEX
  5
177E
  8
3
 10
45.01394445259999
 20
-23.7684979256
 30
0.0
  0
VERTEX
  5
177F
  8
3
 10
45.311025989
 20
-23.5411393544
 30
0.0
  0
VERTEX
  5
1780
  8
3
 10
45.44436441349998
 20
-23.27786858900001
 30
0.0
  0
VERTEX
  5
1781
  8
3
 10
45.39951043880001
 20
-23.00721510210001
 30
0.0
  0
VERTEX
  5
1782
  8
3
 10
45.18132468909999
 20
-22.7585083986
 30
0.0
  0
VERTEX
  5
1783
  8
3
 10
44.8134509759
 20
-22.55869970880001
 30
0.0
  0
VERTEX
  5
1784
  8
3
 10
44.33575412420001
 20
-22.4294414046
 30
0.0
  0
VERTEX
  5
1785
  8
3
 10
43.79999999999998
 20
-22.38474062900001
 30
0.0
  0
SEQEND
  5
187E
  8
3
  0
POLYLINE
  5
FF8
  8
3
 66
     1
 10
0.0
 20
0.0
 30
0.0
  0
VERTEX
  5
1786
  8
3
 10
43.79999999999998
 20
-8.3307597381
 30
0.0
  0
VERTEX
  5
1787
  8
3
 10
44.04615588440001
 20
-8.278374396700002
 30
0.0
  0
VERTEX
  5
1788
  8
3
 10
44.38336586840001
 20
-8.068142678400008
 30
0.0
  0
VERTEX
  5
1789
  8
3
 10
44.94374037449998
 20
-7.493565616799998
 30
0.0
  0
VERTEX
  5
178A
  8
3
 10
45.2542250441
 20
-7.043656786
 30
0.0
  0
VERTEX
  5
178B
  8
3
 10
45.40869611509999
 20
-6.71230598790001
 30
0.0
  0
VERTEX
  5
178C
  8
3
 10
45.4471813447
 20
-6.449290144499997
 30
0.0
  0
VERTEX
  5
178D
  8
3
 10
45.3741193683
 20
-6.309675430799999
 30
0.0
  0
VERTEX
  5
178E
  8
3
 10
45.2117241572
 20
-6.260899641900011
 30
0.0
  0
VERTEX
  5
178F
  8
3
 10
44.8503275157
 20
-6.334093831300009
 30
0.0
  0
VERTEX
  5
1790
  8
3
 10
44.2619997701
 20
-6.574465721500005
 30
0.0
  0
VERTEX
  5
1791
  8
3
 10
44.0139613181
 20
-6.654802368300011
 30
0.0
  0
VERTEX
  5
1792
  8
3
 10
43.79999999999998
 20
-6.680759738100008
 30
0.0
  0
SEQEND
  5
187D
  8
3
  0
LINE
  5
FF9
  8
3
 10
43.79999999999998
 20
-7.690710231899999
 30
0.0
 11
43.79999999999998
 21
-6.680759738100008
 31
0.0
  0
POLYLINE
  5
FFA
  8
3
 66
     1
 10
0.0
 20
0.0
 30
0.0
  0
VERTEX
  5
1793
  8
3
 10
43.79999999999998
 20
-7.690710231899999
 30
0.0
  0
VERTEX
  5
1794
  8
3
 10
44.04615588440001
 20
-7.743095573200009
 30
0.0
  0
VERTEX
  5
1795
  8
3
 10
44.38336586840001
 20
-7.953327291600004
 30
0.0
  0
VERTEX
  5
1796
  8
3
 10
44.94374037449998
 20
-8.5279043532
 30
0.0
  0
VERTEX
  5
1797
  8
3
 10
45.2542250441
 20
-8.977813183999999
 30
0.0
  0
VERTEX
  5
1798
  8
3
 10
45.40869611509999
 20
-9.309163982100003
 30
0.0
  0
VERTEX
  5
1799
  8
3
 10
45.4471813447
 20
-9.572179825500001
 30
0.0
  0
VERTEX
  5
179A
  8
3
 10
45.3741193683
 20
-9.7117945392
 30
0.0
  0
VERTEX
  5
179B
  8
3
 10
45.2117241572
 20
-9.760570328100002
 30
0.0
  0
VERTEX
  5
179C
  8
3
 10
44.8503275157
 20
-9.687376138700003
 30
0.0
  0
VERTEX
  5
179D
  8
3
 10
44.2619997701
 20
-9.447004248500008
 30
0.0
  0
VERTEX
  5
179E
  8
3
 10
44.0139613181
 20
-9.366667601700001
 30
0.0
  0
VERTEX
  5
179F
  8
3
 10
43.79999999999998
 20
-9.340710231900005
 30
0.0
  0
SEQEND
  5
187C
  8
3
  0
LINE
  5
FFB
  8
3
 10
43.79999999999998
 20
-8.3307597381
 30
0.0
 11
43.79999999999998
 21
-9.340710231900005
 31
0.0
  0
LINE
  5
FFC
  8
3
 10
43.79999999999998
 20
9.340710231900005
 30
0.0
 11
43.79999999999998
 21
8.3307597381
 31
0.0
  0
POLYLINE
  5
1001
  8
3
 66
     1
 10
0.0
 20
0.0
 30
0.0
  0
VERTEX
  5
17A0
  8
3
 10
43.79999999999998
 20
-22.08474062900001
 30
0.0
  0
VERTEX
  5
17A1
  8
3
 10
44.43389825290001
 20
-22.1303110337
 30
0.0
  0
VERTEX
  5
17A2
  8
3
 10
45.0164418393
 20
-22.2633304046
 30
0.0
  0
VERTEX
  5
17A3
  8
3
 10
45.50043654230001
 20
-22.47302230330001
 30
0.0
  0
VERTEX
  5
17A4
  8
3
 10
45.84667198949998
 20
-22.7423987394
 30
0.0
  0
VERTEX
  5
17A5
  8
3
 10
46.0270982442
 20
-23.049636436
 30
0.0
  0
VERTEX
  5
17A6
  8
3
 10
46.0270982442
 20
-23.36984482210001
 30
0.0
  0
VERTEX
  5
17A7
  8
3
 10
45.84667198949998
 20
-23.6770825187
 30
0.0
  0
VERTEX
  5
17A8
  8
3
 10
45.50043654230001
 20
-23.94645895470001
 30
0.0
  0
VERTEX
  5
17A9
  8
3
 10
45.0164418393
 20
-24.15615085350001
 30
0.0
  0
VERTEX
  5
17AA
  8
3
 10
44.43389825290001
 20
-24.28917022429999
 30
0.0
  0
VERTEX
  5
17AB
  8
3
 10
43.79999999999998
 20
-24.33474062900001
 30
0.0
  0
VERTEX
  5
17AC
  8
3
 10
43.16610174709999
 20
-24.28917022429999
 30
0.0
  0
VERTEX
  5
17AD
  8
3
 10
42.58355816069999
 20
-24.15615085350001
 30
0.0
  0
VERTEX
  5
17AE
  8
3
 10
42.09956345769999
 20
-23.94645895470001
 30
0.0
  0
VERTEX
  5
17AF
  8
3
 10
41.75332801049998
 20
-23.6770825187
 30
0.0
  0
VERTEX
  5
17B0
  8
3
 10
41.57290175579999
 20
-23.36984482210001
 30
0.0
  0
VERTEX
  5
17B1
  8
3
 10
41.57290175579999
 20
-23.049636436
 30
0.0
  0
VERTEX
  5
17B2
  8
3
 10
41.75332801049998
 20
-22.7423987394
 30
0.0
  0
VERTEX
  5
17B3
  8
3
 10
42.09956345769999
 20
-22.47302230330001
 30
0.0
  0
VERTEX
  5
17B4
  8
3
 10
42.58355816069999
 20
-22.2633304046
 30
0.0
  0
VERTEX
  5
17B5
  8
3
 10
43.16610174709999
 20
-22.1303110337
 30
0.0
  0
VERTEX
  5
17B6
  8
3
 10
43.79999999999998
 20
-22.08474062900001
 30
0.0
  0
SEQEND
  5
187B
  8
3
  0
POLYLINE
  5
1002
  8
3
 66
     1
 10
0.0
 20
0.0
 30
0.0
  0
VERTEX
  5
17B7
  8
3
 10
43.79999999999998
 20
24.3347406291
 30
0.0
  0
VERTEX
  5
17B8
  8
3
 10
44.43389825290001
 20
24.28917022440001
 30
0.0
  0
VERTEX
  5
17B9
  8
3
 10
45.0164418393
 20
24.15615085350001
 30
0.0
  0
VERTEX
  5
17BA
  8
3
 10
45.50043654230001
 20
23.94645895470001
 30
0.0
  0
VERTEX
  5
17BB
  8
3
 10
45.84667198949998
 20
23.67708251869999
 30
0.0
  0
VERTEX
  5
17BC
  8
3
 10
46.0270982442
 20
23.36984482209999
 30
0.0
  0
VERTEX
  5
17BD
  8
3
 10
46.0270982442
 20
23.04963643599999
 30
0.0
  0
VERTEX
  5
17BE
  8
3
 10
45.84667198949998
 20
22.74239873939999
 30
0.0
  0
VERTEX
  5
17BF
  8
3
 10
45.50043654230001
 20
22.4730223034
 30
0.0
  0
VERTEX
  5
17C0
  8
3
 10
45.0164418393
 20
22.2633304046
 30
0.0
  0
VERTEX
  5
17C1
  8
3
 10
44.43389825290001
 20
22.1303110337
 30
0.0
  0
VERTEX
  5
17C2
  8
3
 10
43.79999999999998
 20
22.0847406291
 30
0.0
  0
VERTEX
  5
17C3
  8
3
 10
43.16610174709999
 20
22.1303110337
 30
0.0
  0
VERTEX
  5
17C4
  8
3
 10
42.58355816069999
 20
22.2633304046
 30
0.0
  0
VERTEX
  5
17C5
  8
3
 10
42.09956345769999
 20
22.4730223034
 30
0.0
  0
VERTEX
  5
17C6
  8
3
 10
41.75332801049998
 20
22.74239873939999
 30
0.0
  0
VERTEX
  5
17C7
  8
3
 10
41.57290175579999
 20
23.04963643599999
 30
0.0
  0
VERTEX
  5
17C8
  8
3
 10
41.57290175579999
 20
23.36984482209999
 30
0.0
  0
VERTEX
  5
17C9
  8
3
 10
41.75332801049998
 20
23.67708251869999
 30
0.0
  0
VERTEX
  5
17CA
  8
3
 10
42.09956345769999
 20
23.94645895470001
 30
0.0
  0
VERTEX
  5
17CB
  8
3
 10
42.58355816069999
 20
24.15615085350001
 30
0.0
  0
VERTEX
  5
17CC
  8
3
 10
43.16610174709999
 20
24.28917022440001
 30
0.0
  0
VERTEX
  5
17CD
  8
3
 10
43.79999999999998
 20
24.3347406291
 30
0.0
  0
SEQEND
  5
187A
  8
3
  0
CIRCLE
  5
1003
  8
3
 10
43.79999999999998
 20
0.0
 30
0.0
 40
1.249999999999993
  0
POLYLINE
  5
1004
  8
3
 66
     1
 10
0.0
 20
0.0
 30
0.0
  0
VERTEX
  5
17CE
  8
3
 10
42.00931154509999
 20
18.2424566576
 30
0.0
  0
VERTEX
  5
17CF
  8
3
 10
42.35141986389999
 20
18.4865772487
 30
0.0
  0
VERTEX
  5
17D0
  8
3
 10
42.82224088469999
 20
18.6694331482
 30
0.0
  0
VERTEX
  5
17D1
  8
3
 10
43.3799400938
 20
18.7747768072
 30
0.0
  0
VERTEX
  5
17D2
  8
3
 10
43.9749634689
 20
18.7932479792
 30
0.0
  0
VERTEX
  5
17D3
  8
3
 10
44.554440572
 20
18.72320541939999
 30
0.0
  0
VERTEX
  5
17D4
  8
3
 10
45.06688231940001
 20
18.57087271679998
 30
0.0
  0
VERTEX
  5
17D5
  8
3
 10
45.46675601319998
 20
18.34978530039999
 30
0.0
  0
VERTEX
  5
17D6
  8
3
 10
45.71853112069999
 20
18.07958775739999
 30
0.0
  0
VERTEX
  5
17D7
  8
3
 10
45.79983631889999
 20
17.7842883253
 30
0.0
  0
VERTEX
  5
17D8
  8
3
 10
45.70344728399999
 20
17.49012565449999
 30
0.0
  0
VERTEX
  5
17D9
  8
3
 10
45.43792860470001
 20
17.22323738910001
 30
0.0
  0
VERTEX
  5
17DA
  8
3
 10
45.02687278100001
 20
17.00733772289999
 30
0.0
  0
VERTEX
  5
17DB
  8
3
 10
44.50680392659999
 20
16.86161028859999
 30
0.0
  0
VERTEX
  5
17DC
  8
3
 10
43.9239324417
 20
16.7990036082
 30
0.0
  0
VERTEX
  5
17DD
  8
3
 10
43.33004901539999
 20
16.82508056009999
 30
0.0
  0
VERTEX
  5
17DE
  8
3
 10
42.77792279639999
 20
16.93752409269999
 30
0.0
  0
VERTEX
  5
17DF
  8
3
 10
42.3166126223
 20
17.12634310449999
 30
0.0
  0
VERTEX
  5
17E0
  8
3
 10
41.9871079264
 20
17.3747601979
 30
0.0
  0
VERTEX
  5
17E1
  8
3
 10
41.81868664699999
 20
17.66070242390001
 30
0.0
  0
VERTEX
  5
17E2
  8
3
 10
41.8263137539
 20
17.95876256079998
 30
0.0
  0
VERTEX
  5
17E3
  8
3
 10
42.00931154509999
 20
18.2424566576
 30
0.0
  0
SEQEND
  5
1879
  8
3
  0
POLYLINE
  5
1005
  8
3
 66
     1
 10
0.0
 20
0.0
 30
0.0
  0
VERTEX
  5
17E4
  8
3
 10
42.68081971569998
 20
17.4259220539
 30
0.0
  0
VERTEX
  5
17E5
  8
3
 10
42.97905918960001
 20
17.61887909390001
 30
0.0
  0
VERTEX
  5
17E6
  8
3
 10
43.4022794601
 20
17.74008250099999
 30
0.0
  0
VERTEX
  5
17E7
  8
3
 10
43.8860490774
 20
17.7710801552
 30
0.0
  0
VERTEX
  5
17E8
  8
3
 10
44.35671850270001
 20
17.7071529447
 30
0.0
  0
VERTEX
  5
17E9
  8
3
 10
44.7426325827
 20
17.55803320769999
 30
0.0
  0
VERTEX
  5
17EA
  8
3
 10
44.98503939689999
 20
17.34642307249999
 30
0.0
  0
VERTEX
  5
17EB
  8
3
 10
45.04703470530001
 20
17.1045382639
 30
0.0
  0
VERTEX
  5
17EC
  8
3
 10
44.91918028429998
 20
16.8692035512
 30
0.0
  0
VERTEX
  5
17ED
  8
3
 10
44.62094081039999
 20
16.67624651119999
 30
0.0
  0
VERTEX
  5
17EE
  8
3
 10
44.19772053989999
 20
16.55504310410001
 30
0.0
  0
VERTEX
  5
17EF
  8
3
 10
43.71395092259999
 20
16.5240454499
 30
0.0
  0
VERTEX
  5
17F0
  8
3
 10
43.24328149729999
 20
16.5879726604
 30
0.0
  0
VERTEX
  5
17F1
  8
3
 10
42.8573674173
 20
16.7370923974
 30
0.0
  0
VERTEX
  5
17F2
  8
3
 10
42.6149606031
 20
16.94870253260001
 30
0.0
  0
VERTEX
  5
17F3
  8
3
 10
42.55296529469999
 20
17.19058734129999
 30
0.0
  0
VERTEX
  5
17F4
  8
3
 10
42.68081971569998
 20
17.4259220539
 30
0.0
  0
SEQEND
  5
1878
  8
3
  0
POLYLINE
  5
1006
  8
3
 66
     1
 10
0.0
 20
0.0
 30
0.0
  0
VERTEX
  5
17F5
  8
3
 10
42.00931154509999
 20
24.32614083499999
 30
0.0
  0
VERTEX
  5
17F6
  8
3
 10
42.35141986389999
 20
24.57026142609999
 30
0.0
  0
VERTEX
  5
17F7
  8
3
 10
42.82224088469999
 20
24.7531173257
 30
0.0
  0
VERTEX
  5
17F8
  8
3
 10
43.3799400938
 20
24.85846098459999
 30
0.0
  0
VERTEX
  5
17F9
  8
3
 10
43.9749634689
 20
24.87693215659999
 30
0.0
  0
VERTEX
  5
17FA
  8
3
 10
44.554440572
 20
24.80688959689999
 30
0.0
  0
VERTEX
  5
17FB
  8
3
 10
45.06688231940001
 20
24.6545568942
 30
0.0
  0
VERTEX
  5
17FC
  8
3
 10
45.46675601319998
 20
24.4334694778
 30
0.0
  0
VERTEX
  5
17FD
  8
3
 10
45.71853112069999
 20
24.1632719349
 30
0.0
  0
VERTEX
  5
17FE
  8
3
 10
45.79983631889999
 20
23.86797250269998
 30
0.0
  0
VERTEX
  5
17FF
  8
3
 10
45.70344728399999
 20
23.57380983190001
 30
0.0
  0
VERTEX
  5
1800
  8
3
 10
45.43792860470001
 20
23.30692156660001
 30
0.0
  0
VERTEX
  5
1801
  8
3
 10
45.02687278100001
 20
23.09102190030001
 30
0.0
  0
VERTEX
  5
1802
  8
3
 10
44.50680392659999
 20
22.94529446600001
 30
0.0
  0
VERTEX
  5
1803
  8
3
 10
43.9239324417
 20
22.8826877857
 30
0.0
  0
VERTEX
  5
1804
  8
3
 10
43.33004901539999
 20
22.90876473759999
 30
0.0
  0
VERTEX
  5
1805
  8
3
 10
42.77792279639999
 20
23.0212082701
 30
0.0
  0
VERTEX
  5
1806
  8
3
 10
42.3166126223
 20
23.210027282
 30
0.0
  0
VERTEX
  5
1807
  8
3
 10
41.9871079264
 20
23.45844437529999
 30
0.0
  0
VERTEX
  5
1808
  8
3
 10
41.81868664699999
 20
23.74438660129999
 30
0.0
  0
VERTEX
  5
1809
  8
3
 10
41.8263137539
 20
24.04244673829999
 30
0.0
  0
VERTEX
  5
180A
  8
3
 10
42.00931154509999
 20
24.32614083499999
 30
0.0
  0
SEQEND
  5
1877
  8
3
  0
LINE
  5
1007
  8
3
 10
43.72844757139998
 20
22.66014834879999
 30
0.0
 11
42.76614553849998
 21
22.34104486609999
 31
0.0
  0
LINE
  5
1008
  8
3
 10
43.72844757139998
 20
22.66014834879999
 30
0.0
 11
43.72844757139998
 21
24.65200677749999
 31
0.0
  0
LINE
  5
1009
  8
3
 10
43.72844757139998
 20
22.66014834879999
 30
0.0
 11
44.76230203289998
 21
22.40301108689999
 31
0.0
  0
LINE
  5
100A
  8
3
 10
43.72844757139998
 20
24.65200677749999
 30
0.0
 11
44.76230203289998
 21
24.39486951559999
 31
0.0
  0
LINE
  5
100B
  8
3
 10
43.72844757139998
 20
24.65200677749999
 30
0.0
 11
42.7661455386
 21
24.33290329479999
 31
0.0
  0
POLYLINE
  5
100C
  8
3
 66
     1
 10
0.0
 20
0.0
 30
0.0
  0
VERTEX
  5
180B
  8
3
 10
42.35849579379999
 20
24.4342927486
 30
0.0
  0
VERTEX
  5
180C
  8
3
 10
42.66942733639999
 20
24.64889460749998
 30
0.0
  0
VERTEX
  5
180D
  8
3
 10
43.10287396979999
 20
24.80138909229998
 30
0.0
  0
VERTEX
  5
180E
  8
3
 10
43.61186502549998
 20
24.87525105949999
 30
0.0
  0
VERTEX
  5
180F
  8
3
 10
44.14124342489998
 20
24.8624764187
 30
0.0
  0
VERTEX
  5
1810
  8
3
 10
44.6336428043
 20
24.76444950059999
 30
0.0
  0
VERTEX
  5
1811
  8
3
 10
45.0357040506
 20
24.59179304259999
 30
0.0
  0
VERTEX
  5
1812
  8
3
 10
45.30385758899999
 20
24.3632170512
 30
0.0
  0
VERTEX
  5
1813
  8
3
 10
45.40904482299999
 20
24.1034912817
 30
0.0
  0
VERTEX
  5
1814
  8
3
 10
45.33986708340001
 20
23.84076105130001
 30
0.0
  0
VERTEX
  5
1815
  8
3
 10
45.1038208519
 20
23.6034972571
 30
0.0
  0
VERTEX
  5
1816
  8
3
 10
44.7264854002
 20
23.41741111269999
 30
0.0
  0
VERTEX
  5
1817
  8
3
 10
44.24875087949999
 20
23.30266793940001
 30
0.0
  0
VERTEX
  5
1818
  8
3
 10
43.72238723789999
 20
23.27170194039999
 30
0.0
  0
VERTEX
  5
1819
  8
3
 10
43.20443414339999
 20
23.3278687621
 30
0.0
  0
VERTEX
  5
181A
  8
3
 10
42.75101985059999
 20
23.4650818579
 30
0.0
  0
VERTEX
  5
181B
  8
3
 10
42.41127883350001
 20
23.6684720598
 30
0.0
  0
VERTEX
  5
181C
  8
3
 10
42.22202730309999
 20
23.91599888350001
 30
0.0
  0
VERTEX
  5
181D
  8
3
 10
42.20377359919999
 20
24.1808389569
 30
0.0
  0
VERTEX
  5
181E
  8
3
 10
42.35849579379999
 20
24.4342927486
 30
0.0
  0
SEQEND
  5
1876
  8
3
  0
LINE
  5
100D
  8
3
 10
44.76230203289998
 20
24.39486951559999
 30
0.0
 11
44.83385446139999
 21
23.81862877090001
 31
0.0
  0
LINE
  5
100E
  8
3
 10
44.76230203289998
 20
22.40301108689999
 30
0.0
 11
44.76230203289998
 21
24.39486951559999
 31
0.0
  0
LINE
  5
100F
  8
3
 10
44.76230203289998
 20
22.40301108689999
 30
0.0
 11
44.83385446139999
 21
21.82677034220001
 31
0.0
  0
LINE
  5
1010
  8
3
 10
42.83769796709998
 20
21.7648041214
 30
0.0
 11
42.83769796709998
 21
23.7566625501
 31
0.0
  0
LINE
  5
1011
  8
3
 10
42.83769796709998
 20
23.7566625501
 30
0.0
 11
42.7661455386
 21
24.33290329479999
 31
0.0
  0
LINE
  5
1012
  8
3
 10
42.76614553849998
 20
22.34104486609999
 30
0.0
 11
42.7661455386
 21
24.33290329479999
 31
0.0
  0
LINE
  5
1013
  8
3
 10
42.83769796709998
 20
21.7648041214
 30
0.0
 11
42.76614553849998
 21
22.34104486609999
 31
0.0
  0
LINE
  5
1014
  8
3
 10
43.87155242859998
 20
21.50766685950001
 30
0.0
 11
43.87155242859998
 21
23.4995252882
 31
0.0
  0
LINE
  5
1015
  8
3
 10
44.83385446139999
 20
21.82677034220001
 30
0.0
 11
44.83385446139999
 21
23.81862877090001
 31
0.0
  0
LINE
  5
1016
  8
3
 10
43.87155242859998
 20
23.4995252882
 30
0.0
 11
44.83385446139999
 21
23.81862877090001
 31
0.0
  0
LINE
  5
1017
  8
3
 10
43.87155242859998
 20
21.50766685950001
 30
0.0
 11
44.83385446139999
 21
21.82677034220001
 31
0.0
  0
LINE
  5
1018
  8
3
 10
42.83769796709998
 20
23.7566625501
 30
0.0
 11
43.87155242859998
 21
23.4995252882
 31
0.0
  0
LINE
  5
1019
  8
3
 10
42.83769796709998
 20
21.7648041214
 30
0.0
 11
43.87155242859998
 21
21.50766685950001
 31
0.0
  0
POLYLINE
  5
101A
  8
3
 66
     1
 10
0.0
 20
0.0
 30
0.0
  0
VERTEX
  5
181F
  8
3
 10
42.00931154509999
 20
-17.3517070532
 30
0.0
  0
VERTEX
  5
1820
  8
3
 10
42.35141986389999
 20
-17.1075864621
 30
0.0
  0
VERTEX
  5
1821
  8
3
 10
42.82224088469999
 20
-16.9247305625
 30
0.0
  0
VERTEX
  5
1822
  8
3
 10
43.3799400938
 20
-16.81938690360001
 30
0.0
  0
VERTEX
  5
1823
  8
3
 10
43.9749634689
 20
-16.80091573160001
 30
0.0
  0
VERTEX
  5
1824
  8
3
 10
44.554440572
 20
-16.8709582914
 30
0.0
  0
VERTEX
  5
1825
  8
3
 10
45.06688231940001
 20
-17.02329099400001
 30
0.0
  0
VERTEX
  5
1826
  8
3
 10
45.46675601319998
 20
-17.2443784104
 30
0.0
  0
VERTEX
  5
1827
  8
3
 10
45.71853112069999
 20
-17.5145759534
 30
0.0
  0
VERTEX
  5
1828
  8
3
 10
45.79983631889999
 20
-17.80987538550001
 30
0.0
  0
VERTEX
  5
1829
  8
3
 10
45.70344728399999
 20
-18.1040380563
 30
0.0
  0
VERTEX
  5
182A
  8
3
 10
45.43792860470001
 20
-18.37092632170001
 30
0.0
  0
VERTEX
  5
182B
  8
3
 10
45.02687278100001
 20
-18.5868259879
 30
0.0
  0
VERTEX
  5
182C
  8
3
 10
44.50680392659999
 20
-18.7325534222
 30
0.0
  0
VERTEX
  5
182D
  8
3
 10
43.9239324417
 20
-18.79516010250001
 30
0.0
  0
VERTEX
  5
182E
  8
3
 10
43.33004901539999
 20
-18.7690831507
 30
0.0
  0
VERTEX
  5
182F
  8
3
 10
42.77792279639999
 20
-18.6566396181
 30
0.0
  0
VERTEX
  5
1830
  8
3
 10
42.3166126223
 20
-18.46782060620001
 30
0.0
  0
VERTEX
  5
1831
  8
3
 10
41.9871079264
 20
-18.2194035129
 30
0.0
  0
VERTEX
  5
1832
  8
3
 10
41.81868664699999
 20
-17.93346128690001
 30
0.0
  0
VERTEX
  5
1833
  8
3
 10
41.8263137539
 20
-17.63540115000001
 30
0.0
  0
VERTEX
  5
1834
  8
3
 10
42.00931154509999
 20
-17.3517070532
 30
0.0
  0
SEQEND
  5
1875
  8
3
  0
POLYLINE
  5
101B
  8
3
 66
     1
 10
0.0
 20
0.0
 30
0.0
  0
VERTEX
  5
1835
  8
3
 10
42.68081971569998
 20
-16.8692035512
 30
0.0
  0
VERTEX
  5
1836
  8
3
 10
42.97905918960001
 20
-16.67624651120001
 30
0.0
  0
VERTEX
  5
1837
  8
3
 10
43.4022794601
 20
-16.55504310410001
 30
0.0
  0
VERTEX
  5
1838
  8
3
 10
43.8860490774
 20
-16.5240454499
 30
0.0
  0
VERTEX
  5
1839
  8
3
 10
44.35671850270001
 20
-16.5879726604
 30
0.0
  0
VERTEX
  5
183A
  8
3
 10
44.7426325827
 20
-16.7370923974
 30
0.0
  0
VERTEX
  5
183B
  8
3
 10
44.98503939689999
 20
-16.94870253260001
 30
0.0
  0
VERTEX
  5
183C
  8
3
 10
45.04703470530001
 20
-17.1905873412
 30
0.0
  0
VERTEX
  5
183D
  8
3
 10
44.91918028429998
 20
-17.4259220539
 30
0.0
  0
VERTEX
  5
183E
  8
3
 10
44.62094081039999
 20
-17.61887909390001
 30
0.0
  0
VERTEX
  5
183F
  8
3
 10
44.19772053989999
 20
-17.740082501
 30
0.0
  0
VERTEX
  5
1840
  8
3
 10
43.71395092259999
 20
-17.7710801552
 30
0.0
  0
VERTEX
  5
1841
  8
3
 10
43.24328149729999
 20
-17.7071529447
 30
0.0
  0
VERTEX
  5
1842
  8
3
 10
42.8573674173
 20
-17.55803320770001
 30
0.0
  0
VERTEX
  5
1843
  8
3
 10
42.6149606031
 20
-17.3464230725
 30
0.0
  0
VERTEX
  5
1844
  8
3
 10
42.55296529469999
 20
-17.10453826380001
 30
0.0
  0
VERTEX
  5
1845
  8
3
 10
42.68081971569998
 20
-16.8692035512
 30
0.0
  0
SEQEND
  5
1874
  8
3
  0
POLYLINE
  5
101C
  8
3
 66
     1
 10
0.0
 20
0.0
 30
0.0
  0
VERTEX
  5
1846
  8
3
 10
42.00931154509999
 20
-23.4353912306
 30
0.0
  0
VERTEX
  5
1847
  8
3
 10
42.35141986389999
 20
-23.19127063960001
 30
0.0
  0
VERTEX
  5
1848
  8
3
 10
42.82224088469999
 20
-23.00841474000001
 30
0.0
  0
VERTEX
  5
1849
  8
3
 10
43.3799400938
 20
-22.90307108100001
 30
0.0
  0
VERTEX
  5
184A
  8
3
 10
43.9749634689
 20
-22.884599909
 30
0.0
  0
VERTEX
  5
184B
  8
3
 10
44.554440572
 20
-22.9546424688
 30
0.0
  0
VERTEX
  5
184C
  8
3
 10
45.06688231940001
 20
-23.10697517139999
 30
0.0
  0
VERTEX
  5
184D
  8
3
 10
45.46675601319998
 20
-23.32806258780001
 30
0.0
  0
VERTEX
  5
184E
  8
3
 10
45.71853112069999
 20
-23.59826013080001
 30
0.0
  0
VERTEX
  5
184F
  8
3
 10
45.79983631889999
 20
-23.89355956290001
 30
0.0
  0
VERTEX
  5
1850
  8
3
 10
45.70344728399999
 20
-24.1877222338
 30
0.0
  0
VERTEX
  5
1851
  8
3
 10
45.43792860470001
 20
-24.4546104991
 30
0.0
  0
VERTEX
  5
1852
  8
3
 10
45.02687278100001
 20
-24.6705101653
 30
0.0
  0
VERTEX
  5
1853
  8
3
 10
44.50680392659999
 20
-24.8162375996
 30
0.0
  0
VERTEX
  5
1854
  8
3
 10
43.9239324417
 20
-24.87884428000001
 30
0.0
  0
VERTEX
  5
1855
  8
3
 10
43.33004901539999
 20
-24.8527673281
 30
0.0
  0
VERTEX
  5
1856
  8
3
 10
42.77792279639999
 20
-24.7403237955
 30
0.0
  0
VERTEX
  5
1857
  8
3
 10
42.3166126223
 20
-24.55150478370001
 30
0.0
  0
VERTEX
  5
1858
  8
3
 10
41.9871079264
 20
-24.3030876903
 30
0.0
  0
VERTEX
  5
1859
  8
3
 10
41.81868664699999
 20
-24.0171454643
 30
0.0
  0
VERTEX
  5
185A
  8
3
 10
41.8263137539
 20
-23.71908532739999
 30
0.0
  0
VERTEX
  5
185B
  8
3
 10
42.00931154509999
 20
-23.4353912306
 30
0.0
  0
SEQEND
  5
1873
  8
3
  0
LINE
  5
101D
  8
3
 10
43.87155242859998
 20
-22.66014834880001
 30
0.0
 11
44.83385446139999
 21
-22.341044866
 31
0.0
  0
LINE
  5
101E
  8
3
 10
42.83769796709998
 20
-22.40301108689999
 30
0.0
 11
43.87155242859998
 21
-22.66014834880001
 31
0.0
  0
LINE
  5
101F
  8
3
 10
43.87155242859998
 20
-22.66014834880001
 30
0.0
 11
43.87155242859998
 21
-24.65200677750001
 31
0.0
  0
LINE
  5
1020
  8
3
 10
42.83769796709998
 20
-24.39486951560001
 30
0.0
 11
43.87155242859998
 21
-24.65200677750001
 31
0.0
  0
LINE
  5
1021
  8
3
 10
43.87155242859998
 20
-24.65200677750001
 30
0.0
 11
44.83385446139999
 21
-24.3329032947
 31
0.0
  0
POLYLINE
  5
1022
  8
3
 66
     1
 10
0.0
 20
0.0
 30
0.0
  0
VERTEX
  5
185C
  8
3
 10
42.35849579379999
 20
-23.7172393171
 30
0.0
  0
VERTEX
  5
185D
  8
3
 10
42.66942733639999
 20
-23.50263745820001
 30
0.0
  0
VERTEX
  5
185E
  8
3
 10
43.10287396979999
 20
-23.3501429733
 30
0.0
  0
VERTEX
  5
185F
  8
3
 10
43.61186502549998
 20
-23.27628100620001
 30
0.0
  0
VERTEX
  5
1860
  8
3
 10
44.14124342489998
 20
-23.28905564690001
 30
0.0
  0
VERTEX
  5
1861
  8
3
 10
44.6336428043
 20
-23.3870825651
 30
0.0
  0
VERTEX
  5
1862
  8
3
 10
45.0357040506
 20
-23.55973902300001
 30
0.0
  0
VERTEX
  5
1863
  8
3
 10
45.30385758899999
 20
-23.78831501440001
 30
0.0
  0
VERTEX
  5
1864
  8
3
 10
45.40904482299999
 20
-24.04804078390001
 30
0.0
  0
VERTEX
  5
1865
  8
3
 10
45.33986708340001
 20
-24.3107710144
 30
0.0
  0
VERTEX
  5
1866
  8
3
 10
45.1038208519
 20
-24.54803480859999
 30
0.0
  0
VERTEX
  5
1867
  8
3
 10
44.7264854002
 20
-24.73412095290001
 30
0.0
  0
VERTEX
  5
1868
  8
3
 10
44.24875087949999
 20
-24.8488641262
 30
0.0
  0
VERTEX
  5
1869
  8
3
 10
43.72238723789999
 20
-24.8798301253
 30
0.0
  0
VERTEX
  5
186A
  8
3
 10
43.20443414339999
 20
-24.8236633036
 30
0.0
  0
VERTEX
  5
186B
  8
3
 10
42.75101985059999
 20
-24.68645020779999
 30
0.0
  0
VERTEX
  5
186C
  8
3
 10
42.41127883350001
 20
-24.48306000580001
 30
0.0
  0
VERTEX
  5
186D
  8
3
 10
42.22202730309999
 20
-24.2355331821
 30
0.0
  0
VERTEX
  5
186E
  8
3
 10
42.20377359919999
 20
-23.97069310880001
 30
0.0
  0
VERTEX
  5
186F
  8
3
 10
42.35849579379999
 20
-23.7172393171
 30
0.0
  0
SEQEND
  5
1872
  8
3
  0
LINE
  5
1023
  8
3
 10
42.83769796709998
 20
-24.39486951560001
 30
0.0
 11
42.7661455386
 21
-23.81862877090001
 31
0.0
  0
LINE
  5
1024
  8
3
 10
42.83769796709998
 20
-22.40301108689999
 30
0.0
 11
42.83769796709998
 21
-24.39486951560001
 31
0.0
  0
LINE
  5
1025
  8
3
 10
42.83769796709998
 20
-22.40301108689999
 30
0.0
 11
42.76614553849998
 21
-21.82677034220001
 31
0.0
  0
LINE
  5
1026
  8
3
 10
44.76230203289998
 20
-21.7648041214
 30
0.0
 11
44.76230203289998
 21
-23.7566625501
 31
0.0
  0
LINE
  5
1027
  8
3
 10
44.76230203289998
 20
-23.7566625501
 30
0.0
 11
44.83385446139999
 21
-24.3329032947
 31
0.0
  0
LINE
  5
1028
  8
3
 10
44.76230203289998
 20
-21.7648041214
 30
0.0
 11
44.83385446139999
 21
-22.341044866
 31
0.0
  0
LINE
  5
1029
  8
3
 10
44.83385446139999
 20
-22.341044866
 30
0.0
 11
44.83385446139999
 21
-24.3329032947
 31
0.0
  0
LINE
  5
102A
  8
3
 10
43.72844757139998
 20
-21.5076668594
 30
0.0
 11
43.72844757139998
 21
-23.4995252881
 31
0.0
  0
LINE
  5
102B
  8
3
 10
42.76614553849998
 20
-21.82677034220001
 30
0.0
 11
42.7661455386
 21
-23.81862877090001
 31
0.0
  0
LINE
  5
102C
  8
3
 10
43.72844757139998
 20
-23.4995252881
 30
0.0
 11
42.7661455386
 21
-23.81862877090001
 31
0.0
  0
LINE
  5
102D
  8
3
 10
43.72844757139998
 20
-21.5076668594
 30
0.0
 11
42.76614553849998
 21
-21.82677034220001
 31
0.0
  0
LINE
  5
102E
  8
3
 10
43.72844757139998
 20
-23.4995252881
 30
0.0
 11
44.76230203289998
 21
-23.7566625501
 31
0.0
  0
LINE
  5
102F
  8
3
 10
43.72844757139998
 20
-21.5076668594
 30
0.0
 11
44.76230203289998
 21
-21.7648041214
 31
0.0
  0
LINE
  5
1030
  8
3
 10
49.98085
 20
0.0
 30
0.0
 11
49.98085
 21
-6.350000000000009
 31
0.0
  0
LINE
  5
1031
  8
3
 10
49.98085
 20
6.349999999999994
 30
0.0
 11
49.98085
 21
0.0
 31
0.0
  0
LINE
  5
1032
  8
3
 10
49.2252
 20
0.0
 30
0.0
 11
49.2252
 21
-5.594350000000006
 31
0.0
  0
LINE
  5
1033
  8
3
 10
49.2252
 20
5.594349999999991
 30
0.0
 11
49.2252
 21
0.0
 31
0.0
  0
LINE
  5
103D
  8
3
 10
42.279160305
 20
-21.44300000000001
 30
0.0
 11
42.279160305
 21
-26.20931
 31
0.0
  0
LINE
  5
103E
  8
3
 10
42.279160305
 20
-16.67669000000001
 30
0.0
 11
42.279160305
 21
-21.44300000000001
 31
0.0
  0
LINE
  5
103F
  8
3
 10
41.6410395106
 20
-21.44300000000001
 30
0.0
 11
41.6410395106
 21
-26.19931
 31
0.0
  0
LINE
  5
1040
  8
3
 10
41.6410395106
 20
-16.68669
 30
0.0
 11
41.6410395106
 21
-21.44300000000001
 31
0.0
  0
LINE
  5
1041
  8
3
 10
40.71619999999999
 20
-21.44300000000001
 30
0.0
 11
40.71619999999999
 21
-25.95150000000001
 31
0.0
  0
LINE
  5
1042
  8
3
 10
40.71619999999999
 20
-16.93450000000001
 30
0.0
 11
40.71619999999999
 21
-21.44300000000001
 31
0.0
  0
LINE
  5
1043
  8
3
 10
42.279160305
 20
26.20930999999999
 30
0.0
 11
42.279160305
 21
16.67669000000001
 31
0.0
  0
LINE
  5
1044
  8
3
 10
40.71619999999999
 20
25.95150000000001
 30
0.0
 11
40.71619999999999
 21
16.93449999999999
 31
0.0
  0
LINE
  5
1045
  8
3
 10
41.6410395106
 20
26.19931
 30
0.0
 11
41.6410395106
 21
16.68669
 31
0.0
  0
LINE
  5
1050
  8
3
 10
50.79999999999998
 20
1.75
 30
0.0
 11
43.79999999999998
 21
1.75
 31
0.0
  0
LINE
  5
1051
  8
3
 10
43.79999999999998
 20
-1.75
 30
0.0
 11
50.79999999999998
 21
-1.75
 31
0.0
  0
LINE
  5
1054
  8
3
 10
26.55000000085763
 20
27.0003000001
 30
0.0
 11
27.35000000095762
 21
27.80030000010001
 31
0.0
  0
LINE
  5
1057
  8
3
 10
27.0500000000437
 20
-27.79990482010001
 30
0.0
 11
27.0500000000437
 21
-23.4
 31
0.0
  0
ARC
  5
1058
  8
3
 10
26.25000000004368
 20
-23.4
 30
0.0
 40
0.79999999999999
 50
0.0
 51
90.0
  0
LINE
  5
105B
  8
3
 10
26.54999999995762
 20
25.7697353728
 30
0.0
 11
26.54999999995762
 21
27.00076770699999
 31
0.0
  0
LINE
  5
1060
  8
3
 10
-8.25
 20
-6.688000000000002
 30
0.0
 11
-7.689018500300008
 21
-5.754370000000009
 31
0.0
  0
LINE
  5
1061
  8
3
 10
-7.689018500300008
 20
5.754369999999994
 30
0.0
 11
-8.25
 21
6.687999999999988
 31
0.0
  0
LINE
  5
1064
  8
3
 10
50.79999999999998
 20
5.754369999999994
 30
0.0
 11
0.0000000000000071
 21
5.754369999999994
 31
0.0
  0
LINE
  5
1065
  8
3
 10
0.0
 20
-5.754370000000009
 30
0.0
 11
50.79999999999998
 21
-5.754370000000009
 31
0.0
  0
LINE
  5
1068
  8
3
 10
50.79999999999998
 20
26.20425
 30
0.0
 11
39.59999999999999
 21
26.20425
 31
0.0
  0
LINE
  5
1069
  8
3
 10
39.59999999999999
 20
16.68174999999999
 30
0.0
 11
50.79999999999998
 21
16.68174999999999
 31
0.0
  0
LINE
  5
106A
  8
3
 10
39.59999999999999
 20
26.20425
 30
0.0
 11
36.73915237769998
 21
21.44299999999998
 31
0.0
  0
LINE
  5
106B
  8
3
 10
36.73915237769998
 20
21.44299999999998
 30
0.0
 11
39.59999999999999
 21
16.68174999999999
 31
0.0
  0
LINE
  5
106C
  8
3
 10
50.79999999999998
 20
-16.68174999999999
 30
0.0
 11
39.59999999999999
 21
-16.68174999999999
 31
0.0
  0
LINE
  5
106D
  8
3
 10
39.59999999999999
 20
-26.20425
 30
0.0
 11
50.79999999999998
 21
-26.20425
 31
0.0
  0
LINE
  5
106E
  8
3
 10
39.59999999999999
 20
-16.68174999999999
 30
0.0
 11
36.73915237769998
 21
-21.44300000000001
 31
0.0
  0
LINE
  5
106F
  8
3
 10
36.73915237769998
 20
-21.44300000000001
 30
0.0
 11
39.59999999999999
 21
-26.20425
 31
0.0
  0
LINE
  5
1070
  8
3
 10
18.04999999995762
 20
25.01999999999998
 30
0.0
 11
18.04999999995762
 21
20.02000000000001
 31
0.0
  0
LINE
  5
1071
  8
3
 10
26.04999999995762
 20
20.02000000000001
 30
0.0
 11
26.04999999995762
 21
25.01999999999998
 31
0.0
  0
LINE
  5
1072
  8
3
 10
18.04999999995762
 20
20.02000000000001
 30
0.0
 11
22.04999999995762
 21
17.61655752389998
 31
0.0
  0
LINE
  5
1073
  8
3
 10
22.04999999995762
 20
17.61655752389998
 30
0.0
 11
26.04999999995762
 21
20.02000000000001
 31
0.0
  0
ARC
  5
1074
  8
3
 10
25.80971558435762
 20
25.710092446
 30
0.0
 40
0.731624743743326
 50
282.9498900390008
 51
4.611434985599217
  0
LINE
  5
1075
  8
3
 10
42.15000000000001
 20
23.2097406291
 30
0.0
 11
42.15000000000001
 21
4.980511645799993
 31
0.0
  0
LINE
  5
1076
  8
3
 10
45.44999999999999
 20
9.517509393899985
 30
0.0
 11
45.44999999999999
 21
23.2097406291
 31
0.0
  0
LINE
  5
1077
  8
3
 10
45.44999999999999
 20
4.978787621199984
 30
0.0
 11
45.44999999999999
 21
6.503960576099985
 31
0.0
  0
LINE
  5
1078
  8
3
 10
45.44999999999999
 20
-6.503960576099999
 30
0.0
 11
45.44999999999999
 21
-4.978787621199999
 31
0.0
  0
LINE
  5
1079
  8
3
 10
45.44999999999999
 20
-23.20974062900001
 30
0.0
 11
45.44999999999999
 21
-9.5175093939
 31
0.0
  0
LINE
  5
107A
  8
3
 10
42.15000000000001
 20
-4.980511645800007
 30
0.0
 11
42.15000000000001
 21
-23.20974062900001
 31
0.0
  0
LINE
  5
107B
  8
3
 10
50.79999999999998
 20
-6.260734984999999
 30
0.0
 11
45.19554104540001
 21
-6.260734984999999
 31
0.0
  0
LINE
  5
107C
  8
3
 10
45.19554104540001
 20
-9.760734985
 30
0.0
 11
50.79999999999998
 21
-9.760734985
 31
0.0
  0
LINE
  5
107D
  8
3
 10
50.79999999999998
 20
9.760734985
 30
0.0
 11
45.19554104540001
 21
9.760734985
 31
0.0
  0
LINE
  5
107E
  8
3
 10
45.19554104540001
 20
6.260734984999999
 30
0.0
 11
50.79999999999998
 21
6.260734984999999
 31
0.0
  0
LINE
  5
107F
  8
3
 10
46.04999999999998
 20
-24.0756257148
 30
0.0
 11
46.04999999999998
 21
-23.20974062900001
 31
0.0
  0
LINE
  5
1080
  8
3
 10
41.54999999999998
 20
-23.20974062900001
 30
0.0
 11
41.54999999999998
 21
-24.073782978
 31
0.0
  0
LINE
  5
1081
  8
3
 10
41.54999999999998
 20
24.073782978
 30
0.0
 11
41.54999999999998
 21
23.2097406291
 31
0.0
  0
LINE
  5
1082
  8
3
 10
46.04999999999998
 20
23.2097406291
 30
0.0
 11
46.04999999999998
 21
24.0756257148
 31
0.0
  0
LINE
  5
1083
  8
3
 10
42.16700683810001
 20
17.2197315862
 30
0.0
 11
42.7793792738
 21
16.7867188843
 31
0.0
  0
LINE
  5
1084
  8
3
 10
44.82062072619999
 20
16.7867188843
 30
0.0
 11
45.43299316189999
 21
17.2197315862
 31
0.0
  0
LINE
  5
1085
  8
3
 10
41.79999999999998
 20
23.88076603279998
 30
0.0
 11
41.79999999999998
 21
17.79708185539999
 31
0.0
  0
LINE
  5
1086
  8
3
 10
45.79999999999998
 20
17.79708185539999
 30
0.0
 11
45.79999999999998
 21
23.88076603279998
 31
0.0
  0
LINE
  5
1087
  8
3
 10
45.43299316189999
 20
-17.2197315862
 30
0.0
 11
44.82062072619999
 21
-16.7867188843
 31
0.0
  0
LINE
  5
1088
  8
3
 10
42.7793792738
 20
-16.7867188843
 30
0.0
 11
42.16700683810001
 21
-17.2197315862
 31
0.0
  0
LINE
  5
1089
  8
3
 10
45.79999999999998
 20
-23.88076603280001
 30
0.0
 11
45.79999999999998
 21
-17.79708185539999
 31
0.0
  0
LINE
  5
108A
  8
3
 10
41.79999999999998
 20
-17.79708185539999
 30
0.0
 11
41.79999999999998
 21
-23.88076603280001
 31
0.0
  0
LINE
  5
108B
  8
3
 10
50.79999999999998
 20
6.349999999999994
 30
0.0
 11
49.98085
 21
6.349999999999994
 31
0.0
  0
LINE
  5
108C
  8
3
 10
49.98085
 20
-6.350000000000009
 30
0.0
 11
50.79999999999998
 21
-6.350000000000009
 31
0.0
  0
LINE
  5
108D
  8
3
 10
49.98085
 20
6.349999999999994
 30
0.0
 11
49.2252
 21
5.594349999999991
 31
0.0
  0
LINE
  5
108E
  8
3
 10
49.2252
 20
-5.594350000000006
 30
0.0
 11
49.98085
 21
-6.350000000000009
 31
0.0
  0
LINE
  5
1093
  8
3
 10
50.79999999999998
 20
-16.67669000000001
 30
0.0
 11
42.279160305
 21
-16.67669000000001
 31
0.0
  0
LINE
  5
1094
  8
3
 10
42.279160305
 20
-26.20931
 30
0.0
 11
50.79999999999998
 21
-26.20931
 31
0.0
  0
ARC
  5
1095
  8
3
 10
42.21619999999999
 20
-16.48349
 30
0.0
 40
0.2031999999999988
 50
270.0
 51
288.0498306933002
  0
ARC
  5
1096
  8
3
 10
42.21619999999999
 20
-26.40251000000001
 30
0.0
 40
0.2032000000000025
 50
71.95016930669978
 51
90.0
  0
LINE
  5
1097
  8
3
 10
42.21619999999999
 20
-16.68669
 30
0.0
 11
41.6410395106
 21
-16.68669
 31
0.0
  0
LINE
  5
1098
  8
3
 10
41.6410395106
 20
-26.19931
 30
0.0
 11
42.21619999999999
 21
-26.19931
 31
0.0
  0
LINE
  5
1099
  8
3
 10
41.6410395106
 20
-16.68669
 30
0.0
 11
40.71619999999999
 21
-16.93450000000001
 31
0.0
  0
LINE
  5
109A
  8
3
 10
40.71619999999999
 20
-25.95150000000001
 30
0.0
 11
41.6410395106
 21
-26.19931
 31
0.0
  0
LINE
  5
109B
  8
3
 10
50.79999999999998
 20
26.20930999999999
 30
0.0
 11
42.279160305
 21
26.20930999999999
 31
0.0
  0
LINE
  5
109C
  8
3
 10
42.279160305
 20
16.67669000000001
 30
0.0
 11
50.79999999999998
 21
16.67669000000001
 31
0.0
  0
ARC
  5
109D
  8
3
 10
42.21619999999999
 20
26.40251000000001
 30
0.0
 40
0.2032000000000007
 50
270.0
 51
288.0498306933002
  0
ARC
  5
109E
  8
3
 10
42.21619999999999
 20
16.48348999999999
 30
0.0
 40
0.2032000000000007
 50
71.95016930669978
 51
90.0
  0
LINE
  5
109F
  8
3
 10
41.6410395106
 20
26.19931
 30
0.0
 11
40.71619999999999
 21
25.95150000000001
 31
0.0
  0
LINE
  5
10A0
  8
3
 10
40.71619999999999
 20
16.93449999999999
 30
0.0
 11
41.6410395106
 21
16.68669
 31
0.0
  0
LINE
  5
10A1
  8
3
 10
42.21619999999999
 20
26.19931
 30
0.0
 11
41.6410395106
 21
26.19931
 31
0.0
  0
LINE
  5
10A2
  8
3
 10
41.6410395106
 20
16.68669
 30
0.0
 11
42.21619999999999
 21
16.68669
 31
0.0
  0
LINE
  5
10A3
  8
1
 10
49.79999999999998
 20
27.80029999999999
 30
0.0
 11
49.79999999999998
 21
-27.80030000000001
 31
0.0
  0
LINE
  5
10A4
  8
1
 10
20.0500000000437
 20
26.31294581180001
 30
0.0
 11
20.0500000000437
 21
-26.629995871
 31
0.0
  0
LINE
  5
10A8
  8
SK1
 10
51.10352761799999
 20
12.51362966950001
 30
0.0
 11
51.10352761799999
 21
-12.51362966950001
 31
0.0
  0
LINE
  5
10A9
  8
SK1
 10
66.79999999999998
 20
12.69999999999999
 30
0.0
 11
66.79999999999998
 21
-12.7
 31
0.0
  0
LINE
  5
10C2
  8
SK1
 10
69.18959999999998
 20
0.0
 30
0.0
 11
69.18959999999998
 21
-6.350000000000009
 31
0.0
  0
LINE
  5
10C3
  8
SK1
 10
69.18959999999998
 20
6.349999999999994
 30
0.0
 11
69.18959999999998
 21
0.0
 31
0.0
  0
LINE
  5
12D7
  8
SK3
 10
-7.689018500300008
 20
5.754369999999994
 30
0.0
 11
0.0
 21
5.754369999999995
 31
0.0
  0
LINE
  5
12D8
  8
SK3
 10
-7.689018500300008
 20
-5.754370000000009
 30
0.0
 11
0.0
 21
-5.754370000000009
 31
0.0
  0
LINE
  5
138B
  8
SK3
 10
67.43397771389999
 20
-6.75
 30
0.0
 11
67.43397771389999
 21
6.75
 31
0.0
  0
LINE
  5
138D
  8
SK3
 10
65.29999999999998
 20
6.75
 30
0.0
 11
65.29999999999998
 21
-6.75
 31
0.0
  0
LINE
  5
13DC
  8
SK3
 10
72.263
 20
2.006599999999992
 30
0.0
 11
72.263
 21
0.0
 31
0.0
  0
LINE
  5
13DD
  8
SK3
 10
72.263
 20
0.0
 30
0.0
 11
72.263
 21
-2.006599999999992
 31
0.0
  0
LINE
  5
13DE
  8
SK3
 10
72.263
 20
0.0
 30
0.0
 11
79.375
 21
0.0
 31
0.0
  0
LINE
  5
13DF
  8
SK3
 10
71.755
 20
0.0
 30
0.0
 11
71.755
 21
-4.013200000000012
 31
0.0
  0
LINE
  5
13E0
  8
SK3
 10
71.755
 20
4.013199999999983
 30
0.0
 11
71.755
 21
0.0
 31
0.0
  0
LINE
  5
13E1
  8
SK3
 10
72.263
 20
4.013199999999983
 30
0.0
 11
72.263
 21
2.006599999999992
 31
0.0
  0
LINE
  5
13E2
  8
SK3
 10
72.263
 20
-2.006599999999992
 30
0.0
 11
72.263
 21
-4.013200000000012
 31
0.0
  0
LINE
  5
13E3
  8
SK3
 10
72.263
 20
4.013199999999983
 30
0.0
 11
79.375
 21
4.013199999999983
 31
0.0
  0
LINE
  5
13E4
  8
SK3
 10
72.263
 20
-4.013200000000012
 30
0.0
 11
79.375
 21
-4.013200000000012
 31
0.0
  0
LINE
  5
13F8
  8
SK3
 10
68.29999999999998
 20
1.75
 30
0.0
 11
50.79999999999998
 21
1.75
 31
0.0
  0
LINE
  5
13F9
  8
SK3
 10
50.79999999999998
 20
-1.75
 30
0.0
 11
68.29999999999998
 21
-1.75
 31
0.0
  0
LINE
  5
1401
  8
SK3
 10
68.29999999999998
 20
7.249998199999993
 30
0.0
 11
67.43397771389999
 21
6.75
 31
0.0
  0
LINE
  5
1402
  8
SK3
 10
67.43397771389999
 20
-6.75
 30
0.0
 11
68.29999999999998
 21
-7.249998199999993
 31
0.0
  0
LINE
  5
1404
  8
SK3
 10
67.43397771389999
 20
6.75
 30
0.0
 11
65.29999999999998
 21
6.75
 31
0.0
  0
LINE
  5
1405
  8
SK3
 10
65.29999999999998
 20
-6.75
 30
0.0
 11
67.43397771389999
 21
-6.75
 31
0.0
  0
LINE
  5
1423
  8
SK3
 10
68.29999999999998
 20
-6.260734984999999
 30
0.0
 11
50.79999999999998
 21
-6.260734984999999
 31
0.0
  0
LINE
  5
1424
  8
SK3
 10
50.79999999999998
 20
-9.760734985
 30
0.0
 11
68.29999999999998
 21
-9.760734985
 31
0.0
  0
LINE
  5
1425
  8
SK3
 10
68.29999999999998
 20
9.760734985
 30
0.0
 11
50.79999999999998
 21
9.760734985
 31
0.0
  0
LINE
  5
1426
  8
SK3
 10
50.79999999999998
 20
6.260734984999999
 30
0.0
 11
68.29999999999998
 21
6.260734984999999
 31
0.0
  0
LINE
  5
1433
  8
SK3
 10
68.29999999999998
 20
6.349999999999994
 30
0.0
 11
50.79999999999998
 21
6.349999999999994
 31
0.0
  0
LINE
  5
1434
  8
SK3
 10
50.79999999999998
 20
-6.349999999999994
 30
0.0
 11
68.29999999999998
 21
-6.349999999999994
 31
0.0
  0
LINE
  5
1437
  8
SK3
 10
71.755
 20
4.013199999999983
 30
0.0
 11
69.34362616370001
 21
0.0
 31
0.0
  0
LINE
  5
1438
  8
SK3
 10
69.34362616370001
 20
0.0
 30
0.0
 11
71.755
 21
-4.013200000000012
 31
0.0
  0
LINE
  5
1439
  8
SK3
 10
72.263
 20
4.013199999999983
 30
0.0
 11
71.755
 21
4.013199999999983
 31
0.0
  0
LINE
  5
143A
  8
SK3
 10
71.755
 20
-4.013200000000012
 30
0.0
 11
72.263
 21
-4.013200000000012
 31
0.0
  0
LINE
  5
1479
  8
SK4
 10
50.8
 20
0.0
 30
0.0
 11
79.375
 21
0.0
 31
0.0
  0
DIMENSION
  5
147B
  8
SK2
  2
*D3
 10
98.45546353211013
 20
-27.80030000000001
 30
0.0
 11
96.58046353211013
 21
-0.0000000000000107
 31
0.0
 70
    32
  3
ISO-25
 13
49.79999999999998
 23
27.80029999999999
 33
0.0
 14
49.79999999999998
 24
-27.80030000000001
 34
0.0
 50
90.0
1001
ACAD
1000
DSTYLE
1002
{
1070
   287
1070
     5
1070
   271
1070
     2
1070
   272
1070
     3
1070
   279
1070
     2
1002
}
  0
DIMENSION
  5
148A
  8
SK2
  2
*D4
 10
88.92656322629972
 20
-12.7
 30
0.0
 11
87.05156322629972
 21
-0.0000000000000089
 31
0.0
 70
    32
  3
ISO-25
 13
66.79999999999998
 23
12.69999999999999
 33
0.0
 14
66.79999999999998
 24
-12.7
 34
0.0
 50
90.0
1001
ACAD
1000
DSTYLE
1002
{
1070
   287
1070
     5
1070
   271
1070
     3
1070
   272
1070
     3
1070
   279
1070
     2
1002
}
  0
LINE
  5
1499
  8
NOCUT
 10
49.8
 20
27.80029999999999
 30
0.0
 11
20.04999999999995
 21
27.80029999999999
 31
0.0
  0
LINE
  5
149B
  8
NOCUT
 10
50.82850530270001
 20
26.20930999999999
 30
0.0
 11
50.8
 21
26.20930999999999
 31
0.0
  0
ARC
  5
149C
  8
NOCUT
 10
49.8
 20
26.80029999999999
 30
0.0
 40
1.000000000000002
 50
0.0
 51
90.0
  0
LINE
  5
149D
  8
NOCUT
 10
50.8
 20
0.0
 30
0.0
 11
50.8
 21
26.80029999999999
 31
0.0
  0
ARC
  5
149F
  8
NOCUT
 10
20.04999999999995
 20
28.80029999999999
 30
0.0
 40
1.0
 50
180.0
 51
270.0
  0
ENDSEC
  0
EOF
