  0
SECTION
  2
HEADER
  9
$ACADVER
  1
AC1009
  9
$DWGCODEPAGE
  3
ansi_1252
  9
$INSBASE
 10
0.0
 20
0.0
 30
0.0
  9
$EXTMIN
 10
-68.25000000000003
 20
-48.27109509650273
 30
0.0
  9
$EXTMAX
 10
214.5599398530159
 20
50.83203563714093
 30
0.0
  9
$LIMMIN
 10
0.0
 20
0.0
  9
$LIMMAX
 10
420.0
 20
297.0
  9
$ORTHOMODE
 70
     1
  9
$REGENMODE
 70
     1
  9
$FILLMODE
 70
     1
  9
$QTEXTMODE
 70
     0
  9
$MIRRTEXT
 70
     0
  9
$DRAGMODE
 70
     2
  9
$LTSCALE
 40
1.0
  9
$OSMODE
 70
   511
  9
$ATTMODE
 70
     1
  9
$TEXTSIZE
 40
2.5
  9
$TRACEWID
 40
1.0
  9
$TEXTSTYLE
  7
STANDARD
  9
$CLAYER
  8
0
  9
$CELTYPE
  6
BYLAYER
  9
$CECOLOR
 62
   256
  9
$DIMSCALE
 40
1.0
  9
$DIMASZ
 40
2.5
  9
$DIMEXO
 40
0.625
  9
$DIMDLI
 40
3.75
  9
$DIMRND
 40
0.0
  9
$DIMDLE
 40
0.0
  9
$DIMEXE
 40
1.25
  9
$DIMTP
 40
0.0
  9
$DIMTM
 40
0.0
  9
$DIMTXT
 40
2.5
  9
$DIMCEN
 40
2.5
  9
$DIMTSZ
 40
0.0
  9
$DIMTOL
 70
     0
  9
$DIMLIM
 70
     0
  9
$DIMTIH
 70
     0
  9
$DIMTOH
 70
     0
  9
$DIMSE1
 70
     0
  9
$DIMSE2
 70
     0
  9
$DIMTAD
 70
     1
  9
$DIMZIN
 70
     8
  9
$DIMBLK
  1

  9
$DIMASO
 70
     1
  9
$DIMSHO
 70
     1
  9
$DIMPOST
  1

  9
$DIMAPOST
  1

  9
$DIMALT
 70
     0
  9
$DIMALTD
 70
     3
  9
$DIMALTF
 40
0.03937007874016
  9
$DIMLFAC
 40
1.0
  9
$DIMTOFL
 70
     1
  9
$DIMTVP
 40
0.0
  9
$DIMTIX
 70
     0
  9
$DIMSOXD
 70
     0
  9
$DIMSAH
 70
     0
  9
$DIMBLK1
  1

  9
$DIMBLK2
  1

  9
$DIMSTYLE
  2
ISO-25
  9
$DIMCLRD
 70
     0
  9
$DIMCLRE
 70
     0
  9
$DIMCLRT
 70
     0
  9
$DIMTFAC
 40
1.0
  9
$DIMGAP
 40
0.625
  9
$LUNITS
 70
     2
  9
$LUPREC
 70
     3
  9
$SKETCHINC
 40
1.0
  9
$FILLETRAD
 40
10.0
  9
$AUNITS
 70
     0
  9
$AUPREC
 70
     0
  9
$MENU
  1
.
  9
$ELEVATION
 40
0.0
  9
$PELEVATION
 40
0.0
  9
$THICKNESS
 40
0.0
  9
$LIMCHECK
 70
     0
  9
$CHAMFERA
 40
10.0
  9
$CHAMFERB
 40
10.0
  9
$SKPOLY
 70
     0
  9
$TDCREATE
 40
2455022.429026158
  9
$TDUPDATE
 40
2458697.303263461
  9
$TDINDWG
 40
0.0183480903
  9
$TDUSRTIMER
 40
0.0001200463
  9
$USRTIMER
 70
     1
  9
$ANGBASE
 50
0.0
  9
$ANGDIR
 70
     0
  9
$PDMODE
 70
     0
  9
$PDSIZE
 40
0.0
  9
$PLINEWID
 40
0.0
  9
$COORDS
 70
     1
  9
$SPLFRAME
 70
     0
  9
$SPLINETYPE
 70
     6
  9
$SPLINESEGS
 70
     8
  9
$ATTDIA
 70
     0
  9
$ATTREQ
 70
     1
  9
$HANDLING
 70
     1
  9
$HANDSEED
  5
275A
  9
$SURFTAB1
 70
     6
  9
$SURFTAB2
 70
     6
  9
$SURFTYPE
 70
     6
  9
$SURFU
 70
     6
  9
$SURFV
 70
     6
  9
$UCSNAME
  2

  9
$UCSORG
 10
0.0
 20
0.0
 30
0.0
  9
$UCSXDIR
 10
1.0
 20
0.0
 30
0.0
  9
$UCSYDIR
 10
0.0
 20
1.0
 30
0.0
  9
$PUCSNAME
  2

  9
$PUCSORG
 10
0.0
 20
0.0
 30
0.0
  9
$PUCSXDIR
 10
1.0
 20
0.0
 30
0.0
  9
$PUCSYDIR
 10
0.0
 20
1.0
 30
0.0
  9
$USERI1
 70
     0
  9
$USERI2
 70
     0
  9
$USERI3
 70
     0
  9
$USERI4
 70
     0
  9
$USERI5
 70
     0
  9
$USERR1
 40
0.0
  9
$USERR2
 40
0.0
  9
$USERR3
 40
0.0
  9
$USERR4
 40
0.0
  9
$USERR5
 40
0.0
  9
$WORLDVIEW
 70
     1
  9
$SHADEDGE
 70
     3
  9
$SHADEDIF
 70
    70
  9
$TILEMODE
 70
     1
  9
$MAXACTVP
 70
    64
  9
$PLIMCHECK
 70
     0
  9
$PEXTMIN
 10
1.000000000000000E+20
 20
1.000000000000000E+20
 30
1.000000000000000E+20
  9
$PEXTMAX
 10
-1.000000000000000E+20
 20
-1.000000000000000E+20
 30
-1.000000000000000E+20
  9
$PLIMMIN
 10
0.0
 20
0.0
  9
$PLIMMAX
 10
0.0
 20
0.0
  9
$UNITMODE
 70
     0
  9
$VISRETAIN
 70
     1
  9
$PLINEGEN
 70
     0
  9
$PSLTSCALE
 70
     1
  0
ENDSEC
  0
SECTION
  2
TABLES
  0
TABLE
  2
VPORT
 70
     1
  0
VPORT
  2
*ACTIVE
 70
     0
 10
0.0
 20
0.0
 11
1.0
 21
1.0
 12
207.3418858143583
 22
1.280470270319107
 13
0.0
 23
0.0
 14
10.0
 24
10.0
 15
10.0
 25
10.0
 16
0.0
 26
0.0
 36
1.0
 17
-134.1869158878504
 27
0.0
 37
0.0
 40
103.2167902357304
 41
2.794759825327511
 42
50.0
 43
0.0
 44
0.0
 50
0.0
 51
0.0
 71
    16
 72
  1000
 73
     1
 74
     3
 75
     0
 76
     0
 77
     0
 78
     0
  0
ENDTAB
  0
TABLE
  2
LTYPE
 70
     6
  0
LTYPE
  2
CONTINUOUS
 70
     0
  3
Solid line
 72
    65
 73
     0
 40
0.0
  0
LTYPE
  2
CENTER
 70
     0
  3
 Center _____  _  _____  _  _____  _  _____  _ 
 72
    65
 73
     4
 40
50.8
 49
31.75
 49
-6.35
 49
6.35
 49
-6.35
  0
LTYPE
  2
DASHED
 70
     0
  3
Dashed __  __  __  __  __  __  __  __  __  __  
 72
    65
 73
     2
 40
19.05
 49
12.7
 49
-6.35
  0
LTYPE
  2
HIDDEN
 70
     0
  3
Hidden __ __ __ __ __ __ __ __ __ __ __ __ __ __
 72
    65
 73
     2
 40
1.905
 49
1.27
 49
-0.635
  0
LTYPE
  2
CENTERX2
 70
     0
  3
Center (2x) ________  __  ________  __  _____
 72
    65
 73
     4
 40
20.32
 49
12.7
 49
-2.54
 49
2.54
 49
-2.54
  0
LTYPE
  2
PHANTOM
 70
     0
  3
Phantom ______  __  __  ______  __  __  ______
 72
    65
 73
     6
 40
12.7
 49
6.35
 49
-1.27
 49
1.27
 49
-1.27
 49
1.27
 49
-1.27
  0
ENDTAB
  0
TABLE
  2
LAYER
 70
    26
  0
LAYER
  2
0
 70
     0
 62
     7
  6
CONTINUOUS
  0
LAYER
  2
1
 70
     0
 62
     4
  6
CONTINUOUS
  0
LAYER
  2
2
 70
     0
 62
     7
  6
CONTINUOUS
  0
LAYER
  2
3
 70
     0
 62
     1
  6
DASHED
  0
LAYER
  2
4
 70
     0
 62
     2
  6
CENTER
  0
LAYER
  2
6
 70
     0
 62
     5
  6
CONTINUOUS
  0
LAYER
  2
7
 70
     0
 62
     5
  6
CONTINUOUS
  0
LAYER
  2
11
 70
     0
 62
     4
  6
CONTINUOUS
  0
LAYER
  2
SK1
 70
     0
 62
     4
  6
CONTINUOUS
  0
LAYER
  2
SK2
 70
     0
 62
     7
  6
CONTINUOUS
  0
LAYER
  2
SK3
 70
     0
 62
     1
  6
DASHED
  0
LAYER
  2
SK4
 70
     0
 62
     2
  6
CENTER
  0
LAYER
  2
SK6
 70
     0
 62
     5
  6
CONTINUOUS
  0
LAYER
  2
SK7
 70
     0
 62
     5
  6
CONTINUOUS
  0
LAYER
  2
SK11
 70
     0
 62
     4
  6
CONTINUOUS
  0
LAYER
  2
CUT
 70
     0
 62
     1
  6
CONTINUOUS
  0
LAYER
  2
NOCUT
 70
     0
 62
    -7
  6
CONTINUOUS
  0
LAYER
  2
SKVIEW1
 70
     0
 62
     4
  6
CONTINUOUS
  0
LAYER
  2
SKVIEW2
 70
     0
 62
     7
  6
CONTINUOUS
  0
LAYER
  2
SKVIEW3
 70
     0
 62
     1
  6
DASHED
  0
LAYER
  2
SKVIEW4
 70
     0
 62
     2
  6
CENTER
  0
LAYER
  2
SKVIEW6
 70
     0
 62
     5
  6
CONTINUOUS
  0
LAYER
  2
SKVIEW7
 70
     0
 62
     5
  6
CONTINUOUS
  0
LAYER
  2
SKVIEW11
 70
     0
 62
     4
  6
CONTINUOUS
  0
LAYER
  2
INFTOTAL
 70
     0
 62
     9
  6
CONTINUOUS
  0
LAYER
  2
DEFPOINTS
 70
     0
 62
     7
  6
CONTINUOUS
  0
ENDTAB
  0
TABLE
  2
STYLE
 70
     1
  0
STYLE
  2
STANDARD
 70
     0
 40
0.0
 41
1.0
 50
0.0
 71
     0
 42
2.5
  3
txt
  4

  0
ENDTAB
  0
TABLE
  2
VIEW
 70
     0
  0
ENDTAB
  0
TABLE
  2
UCS
 70
     0
  0
ENDTAB
  0
TABLE
  2
APPID
 70
     2
  0
APPID
  2
ACAD
 70
     0
  0
APPID
  2
ACAECLAYERSTANDARD
 70
     0
  0
ENDTAB
  0
TABLE
  2
DIMSTYLE
 70
     1
  0
DIMSTYLE
  2
ISO-25
 70
     0
  3

  4

  5

  6

  7

 40
1.0
 41
2.5
 42
0.625
 43
3.75
 44
1.25
 45
0.0
 46
0.0
 47
0.0
 48
0.0
140
2.5
141
2.5
142
0.0
143
0.03937007874016
144
1.0
145
0.0
146
1.0
147
0.625
 71
     0
 72
     0
 73
     0
 74
     0
 75
     0
 76
     0
 77
     1
 78
     8
170
     0
171
     3
172
     1
173
     0
174
     0
175
     0
176
     0
177
     0
178
     0
  0
ENDTAB
  0
ENDSEC
  0
SECTION
  2
BLOCKS
  0
BLOCK
  8
0
  2
$MODEL_SPACE
 70
     0
 10
0.0
 20
0.0
 30
0.0
  3
$MODEL_SPACE
  1

  0
ENDBLK
  5
21
  8
0
  0
BLOCK
 67
     1
  8
0
  2
$PAPER_SPACE
 70
     0
 10
0.0
 20
0.0
 30
0.0
  3
$PAPER_SPACE
  1

  0
ENDBLK
  5
1D
 67
     1
  8
0
  0
BLOCK
  8
0
  2
_FILLED
 70
     0
 10
0.0
 20
0.0
 30
0.0
  3
_FILLED
  1

  0
SOLID
  5
1C4
  8
0
  6
BYBLOCK
 62
     0
 10
0.0
 20
0.0
 30
0.0
 11
-1.0
 21
0.2142857143
 31
0.0
 12
-1.0
 22
-0.2142857143
 32
0.0
 13
-1.0
 23
-0.2142857143
 33
0.0
  0
ENDBLK
  5
1C5
  8
0
  6
BYBLOCK
 62
     0
  0
BLOCK
  8
0
  2
*D1
 70
     1
 10
0.0
 20
0.0
 30
0.0
  3
*D1
  1

  0
LINE
  5
1D3
  8
2
 62
     0
 10
0.0
 20
22.84999999999999
 30
0.0
 11
0.0
 21
48.91573065769793
 31
0.0
  0
LINE
  5
1D4
  8
2
 62
     0
 10
152.4
 20
21.07499999999995
 30
0.0
 11
152.4
 21
48.91573065769793
 31
0.0
  0
LINE
  5
1D5
  8
2
 62
     0
 10
2.5
 20
47.66573065769793
 30
0.0
 11
149.9
 21
47.66573065769793
 31
0.0
  0
SOLID
  5
1D6
  8
2
 62
     0
 10
2.5
 20
48.08239732436459
 30
0.0
 11
2.5
 21
47.24906399103126
 31
0.0
 12
0.0
 22
47.66573065769793
 32
0.0
 13
0.0
 23
47.66573065769793
 33
0.0
  0
SOLID
  5
1D7
  8
2
 62
     0
 10
149.9
 20
47.24906399103126
 30
0.0
 11
149.9
 21
48.08239732436459
 31
0.0
 12
152.4
 22
47.66573065769793
 32
0.0
 13
152.4
 23
47.66573065769793
 33
0.0
  0
TEXT
  5
1D8
  8
2
  6
CONTINUOUS
 62
     0
 10
71.61666666666666
 20
48.29073065769793
 30
0.0
 40
2.5
  1
152.4
  0
POINT
  5
1D9
  8
DEFPOINTS
 62
     0
 10
0.0
 20
22.22499999999999
 30
0.0
  0
POINT
  5
1DA
  8
DEFPOINTS
 62
     0
 10
152.4
 20
20.44999999999995
 30
0.0
  0
POINT
  5
1DB
  8
DEFPOINTS
 62
     0
 10
152.4
 20
47.66573065769793
 30
0.0
  0
ENDBLK
  5
1DD
  8
0
  0
BLOCK
  8
0
  2
*D2
 70
     1
 10
0.0
 20
0.0
 30
0.0
  3
*D2
  1

  0
LINE
  5
211
  8
SK2
 62
     0
 10
0.0
 20
-22.84999999999999
 30
0.0
 11
0.0
 21
-48.27109509650273
 31
0.0
  0
LINE
  5
212
  8
SK2
 62
     0
 10
35.04999999999998
 20
-21.84999999999999
 30
0.0
 11
35.04999999999998
 21
-48.27109509650273
 31
0.0
  0
LINE
  5
213
  8
SK2
 62
     0
 10
2.5
 20
-47.02109509650273
 30
0.0
 11
32.54999999999998
 21
-47.02109509650273
 31
0.0
  0
SOLID
  5
214
  8
SK2
 62
     0
 10
2.5
 20
-46.60442842983606
 30
0.0
 11
2.5
 21
-47.43776176316939
 31
0.0
 12
0.0
 22
-47.02109509650273
 32
0.0
 13
0.0
 23
-47.02109509650273
 33
0.0
  0
SOLID
  5
215
  8
SK2
 62
     0
 10
32.54999999999998
 20
-47.43776176316939
 30
0.0
 11
32.54999999999998
 21
-46.60442842983606
 31
0.0
 12
35.04999999999998
 22
-47.02109509650273
 32
0.0
 13
35.04999999999998
 23
-47.02109509650273
 33
0.0
  0
TEXT
  5
216
  8
SK2
  6
CONTINUOUS
 62
     0
 10
12.73333333333333
 20
-46.39609509650273
 30
0.0
 40
2.5
  1
35.05
  0
POINT
  5
217
  8
DEFPOINTS
 62
     0
 10
0.0
 20
-22.22499999999999
 30
0.0
  0
POINT
  5
218
  8
DEFPOINTS
 62
     0
 10
35.04999999999998
 20
-21.22499999999999
 30
0.0
  0
POINT
  5
219
  8
DEFPOINTS
 62
     0
 10
35.04999999999998
 20
-47.02109509650273
 30
0.0
  0
ENDBLK
  5
21B
  8
0
  0
BLOCK
  8
0
  2
*D3
 70
     1
 10
0.0
 20
0.0
 30
0.0
  3
*D3
  1

  0
LINE
  5
55C
  8
SK2
 62
     0
 10
34.67499999999998
 20
22.22500000000001
 30
0.0
 11
214.5599398530159
 21
22.225
 31
0.0
  0
LINE
  5
55D
  8
SK2
 62
     0
 10
34.67499999999998
 20
-22.22500000000001
 30
0.0
 11
214.5599398530159
 21
-22.22500000000002
 31
0.0
  0
LINE
  5
55E
  8
SK2
 62
     0
 10
213.3099398530159
 20
19.725
 30
0.0
 11
213.3099398530159
 21
-19.72500000000002
 31
0.0
  0
SOLID
  5
55F
  8
SK2
 62
     0
 10
213.7266065196826
 20
19.725
 30
0.0
 11
212.8932731863493
 21
19.725
 31
0.0
 12
213.3099398530159
 22
22.225
 32
0.0
 13
213.3099398530159
 23
22.225
 33
0.0
  0
SOLID
  5
560
  8
SK2
 62
     0
 10
212.8932731863493
 20
-19.72500000000002
 30
0.0
 11
213.7266065196826
 21
-19.72500000000002
 31
0.0
 12
213.3099398530159
 22
-22.22500000000002
 32
0.0
 13
213.3099398530159
 23
-22.22500000000002
 33
0.0
  0
TEXT
  5
561
  8
SK2
  6
CONTINUOUS
 62
     0
 10
212.6849398530159
 20
-5.0
 30
0.0
 40
2.5
  1
44.45
 50
90.0
  0
POINT
  5
562
  8
DEFPOINTS
 62
     0
 10
34.04999999999998
 20
22.22500000000001
 30
0.0
  0
POINT
  5
563
  8
DEFPOINTS
 62
     0
 10
34.04999999999998
 20
-22.22500000000001
 30
0.0
  0
POINT
  5
564
  8
DEFPOINTS
 62
     0
 10
213.3099398530159
 20
-22.22500000000002
 30
0.0
  0
ENDBLK
  5
566
  8
0
  0
BLOCK
  8
0
  2
*D4
 70
     1
 10
0.0
 20
0.0
 30
0.0
  3
*D4
  1

  0
LINE
  5
12C0
  8
SK2
 62
     0
 10
152.025
 20
21.44999999999995
 30
0.0
 11
202.9542708204854
 21
21.44999999999995
 31
0.0
  0
LINE
  5
12C1
  8
SK2
 62
     0
 10
152.025
 20
-21.45
 30
0.0
 11
202.9542708204854
 21
-21.45
 31
0.0
  0
LINE
  5
12C2
  8
SK2
 62
     0
 10
201.7042708204854
 20
18.94999999999995
 30
0.0
 11
201.7042708204854
 21
-18.95
 31
0.0
  0
SOLID
  5
12C3
  8
SK2
 62
     0
 10
202.120937487152
 20
18.94999999999995
 30
0.0
 11
201.2876041538187
 21
18.94999999999995
 31
0.0
 12
201.7042708204854
 22
21.44999999999995
 32
0.0
 13
201.7042708204854
 23
21.44999999999995
 33
0.0
  0
SOLID
  5
12C4
  8
SK2
 62
     0
 10
201.2876041538187
 20
-18.95
 30
0.0
 11
202.120937487152
 21
-18.95
 31
0.0
 12
201.7042708204854
 22
-21.45
 32
0.0
 13
201.7042708204854
 23
-21.45
 33
0.0
  0
TEXT
  5
12C5
  8
SK2
  6
CONTINUOUS
 62
     0
 10
201.0792708204854
 20
-3.750000000000028
 30
0.0
 40
2.5
  1
42.9
 50
90.0
  0
POINT
  5
12C6
  8
DEFPOINTS
 62
     0
 10
151.4
 20
21.44999999999995
 30
0.0
  0
POINT
  5
12C7
  8
DEFPOINTS
 62
     0
 10
151.4
 20
-21.45
 30
0.0
  0
POINT
  5
12C8
  8
DEFPOINTS
 62
     0
 10
201.7042708204854
 20
-21.45
 30
0.0
  0
ENDBLK
  5
12BF
  8
0
  0
BLOCK
  8
0
  2
*D5
 70
     1
 10
0.0
 20
0.0
 30
0.0
  3
*D5
  1

  0
LINE
  5
12CF
  8
SK2
 62
     0
 10
169.025
 20
9.525000000000048
 30
0.0
 11
192.9487494992547
 21
9.525000000000047
 31
0.0
  0
LINE
  5
12D0
  8
SK2
 62
     0
 10
169.025
 20
-9.525000000000006
 30
0.0
 11
192.9487494992547
 21
-9.525000000000007
 31
0.0
  0
LINE
  5
12D1
  8
SK2
 62
     0
 10
191.6987494992547
 20
7.025000000000047
 30
0.0
 11
191.6987494992547
 21
-7.025000000000007
 31
0.0
  0
SOLID
  5
12D2
  8
SK2
 62
     0
 10
192.1154161659213
 20
7.025000000000047
 30
0.0
 11
191.282082832588
 21
7.025000000000047
 31
0.0
 12
191.6987494992547
 22
9.525000000000047
 32
0.0
 13
191.6987494992547
 23
9.525000000000047
 33
0.0
  0
SOLID
  5
12D3
  8
SK2
 62
     0
 10
191.282082832588
 20
-7.025000000000007
 30
0.0
 11
192.1154161659213
 21
-7.025000000000007
 31
0.0
 12
191.6987494992547
 22
-9.525000000000007
 32
0.0
 13
191.6987494992547
 23
-9.525000000000007
 33
0.0
  0
TEXT
  5
12D4
  8
SK2
  6
CONTINUOUS
 62
     0
 10
191.0737494992547
 20
-4.374999999999972
 30
0.0
 40
2.5
  1
19.05
 50
90.0
  0
POINT
  5
12D5
  8
DEFPOINTS
 62
     0
 10
168.4
 20
9.525000000000048
 30
0.0
  0
POINT
  5
12D6
  8
DEFPOINTS
 62
     0
 10
168.4
 20
-9.525000000000006
 30
0.0
  0
POINT
  5
12D7
  8
DEFPOINTS
 62
     0
 10
191.6987494992547
 20
-9.525000000000007
 30
0.0
  0
ENDBLK
  5
12CE
  8
0
  0
ENDSEC
  0
SECTION
  2
ENTITIES
  0
LINE
  5
1B2
  8
4
 10
152.4
 20
-0.0000000104571591
 30
0.0
 11
0.0
 21
0.0
 31
0.0
  0
DIMENSION
  5
1CF
  8
2
  2
*D1
 10
152.4
 20
47.66573065769793
 30
0.0
 11
76.19999999999999
 21
49.54073065769793
 31
0.0
 70
    32
  3
ISO-25
 13
0.0
 23
22.22499999999999
 33
0.0
 14
152.4
 24
20.44999999999995
 34
0.0
  0
DIMENSION
  5
20D
  8
SK2
  2
*D2
 10
35.04999999999998
 20
-47.02109509650273
 30
0.0
 11
17.52499999999999
 21
-45.14609509650273
 31
0.0
 70
    32
  3
ISO-25
 13
0.0
 23
-22.22499999999999
 33
0.0
 14
35.04999999999998
 24
-21.22499999999999
 34
0.0
  0
LINE
  5
364
  8
NOCUT
 10
152.4
 20
-0.0000000104571591
 30
0.0
 11
0.0
 21
0.0
 31
0.0
  0
DIMENSION
  5
558
  8
SK2
  2
*D3
 10
213.3099398530159
 20
-22.22500000000002
 30
0.0
 11
211.4349398530159
 21
-0.0000000000000107
 31
0.0
 70
    32
  3
ISO-25
 13
34.04999999999998
 23
22.22500000000001
 33
0.0
 14
34.04999999999998
 24
-22.22500000000001
 34
0.0
 50
90.0
1001
ACAD
1000
DSTYLE
1002
{
1070
   287
1070
     5
1070
   271
1070
     3
1070
   272
1070
     3
1070
   279
1070
     2
1002
}
  0
LINE
  5
99D
  8
SK3
 10
-66.51794919240001
 20
0.0
 30
0.0
 11
-66.51794919240001
 21
8.149999999999991
 31
0.0
  0
LINE
  5
99E
  8
SK3
 10
-66.51794919240001
 20
-8.149999999999991
 30
0.0
 11
-66.51794919240001
 21
0.0
 31
0.0
  0
LINE
  5
99F
  8
SK3
 10
-63.48000000000002
 20
0.0
 30
0.0
 11
-63.48000000000002
 21
8.149999999999991
 31
0.0
  0
LINE
  5
9A0
  8
SK3
 10
-63.48000000000002
 20
-8.149999999999991
 30
0.0
 11
-63.48000000000002
 21
0.0
 31
0.0
  0
LINE
  5
9BF
  8
SK3
 10
-68.25000000000003
 20
-9.149999999999991
 30
0.0
 11
-66.51794919240001
 21
-8.149999999999991
 31
0.0
  0
LINE
  5
9C0
  8
SK3
 10
-66.51794919240001
 20
8.149999999999991
 30
0.0
 11
-68.25000000000003
 21
9.149999999999991
 31
0.0
  0
LINE
  5
9C1
  8
SK3
 10
-66.51794919240001
 20
-8.149999999999991
 30
0.0
 11
-63.48000000000002
 21
-8.149999999999991
 31
0.0
  0
LINE
  5
9C2
  8
SK3
 10
-63.48000000000002
 20
8.149999999999991
 30
0.0
 11
-66.51794919240001
 21
8.149999999999991
 31
0.0
  0
LINE
  5
9C3
  8
SK3
 10
-63.48000000000002
 20
-6.700000000000003
 30
0.0
 11
-8.25
 21
-6.700000000000003
 31
0.0
  0
LINE
  5
9C4
  8
SK3
 10
-8.25
 20
6.700000000000003
 30
0.0
 11
-63.48000000000002
 21
6.700000000000003
 31
0.0
  0
LINE
  5
9E1
  8
0
 10
154.35
 20
2.0
 30
0.0
 11
150.35
 21
-2.0
 31
0.0
  0
LINE
  5
9E2
  8
0
 10
150.35
 20
2.0
 30
0.0
 11
154.35
 21
-2.0
 31
0.0
  0
CIRCLE
  5
9E3
  8
0
 10
152.3500000000001
 20
0.0
 30
0.0
 40
1.5
  0
LINE
  5
9E4
  8
0
 10
3.0
 20
3.0
 30
0.0
 11
-3.0
 21
-3.0
 31
0.0
  0
LINE
  5
9E5
  8
0
 10
-3.0
 20
3.0
 30
0.0
 11
3.0
 21
-3.0
 31
0.0
  0
CIRCLE
  5
9E6
  8
0
 10
0.0
 20
0.0
 30
0.0
 40
2.5
  0
LINE
  5
9E7
  8
SK3
 10
-63.48000000000005
 20
-7.937499999800011
 30
0.0
 11
-39.75000000000003
 21
-7.937499999800011
 31
0.0
  0
LINE
  5
9E8
  8
SK3
 10
-39.75000000000003
 20
7.937500000199975
 30
0.0
 11
-39.75000000000003
 21
-7.937499999800011
 31
0.0
  0
LINE
  5
9E9
  8
SK3
 10
-39.75000000000003
 20
7.937500000199975
 30
0.0
 11
-63.48000000000005
 21
7.937500000199975
 31
0.0
  0
ARC
  5
AA1
  8
NOCUT
 10
0.5
 20
22.72499999999999
 30
0.0
 40
0.5
 50
270.0
 51
0.0
  0
LINE
  5
AA4
  8
NOCUT
 10
0.5
 20
22.22499999999999
 30
0.0
 11
0.0
 21
22.22499999999999
 31
0.0
  0
LINE
  5
AA5
  8
NOCUT
 10
34.5
 20
22.22499999999999
 30
0.0
 11
20.04999999999998
 21
22.22499999999999
 31
0.0
  0
LINE
  5
AA7
  8
NOCUT
 10
14.65616676909997
 20
30.7125381562
 30
0.0
 11
18.54999999999995
 21
30.7125381562
 31
0.0
  0
POLYLINE
  5
AA8
  8
NOCUT
 66
     1
 10
0.0
 20
0.0
 30
0.0
  0
VERTEX
  5
25B2
  8
NOCUT
 10
18.54999999999995
 20
30.7125381562
 30
0.0
  0
VERTEX
  5
25B3
  8
NOCUT
 10
18.57284145939997
 20
30.6889245341
 30
0.0
  0
VERTEX
  5
25B4
  8
NOCUT
 10
19.04999999999995
 20
30.1953638825
 30
0.0
  0
SEQEND
  5
273F
  8
NOCUT
  0
POLYLINE
  5
AA9
  8
NOCUT
 66
     1
 10
0.0
 20
0.0
 30
0.0
  0
VERTEX
  5
25B5
  8
NOCUT
 10
1.0
 20
30.1953638825
 30
0.0
  0
VERTEX
  5
25B6
  8
NOCUT
 10
1.477158540600044
 20
30.6889245341
 30
0.0
  0
VERTEX
  5
25B7
  8
NOCUT
 10
1.5
 20
30.7125381562
 30
0.0
  0
SEQEND
  5
2740
  8
NOCUT
  0
LINE
  5
AAA
  8
NOCUT
 10
1.499999999999996
 20
30.7125381562
 30
0.0
 11
7.603833230899966
 21
30.7125381562
 31
0.0
  0
POLYLINE
  5
AAB
  8
NOCUT
 66
     1
 10
0.0
 20
0.0
 30
0.0
  0
VERTEX
  5
25B8
  8
NOCUT
 10
7.603833230899966
 20
30.7125381562
 30
0.0
  0
VERTEX
  5
25B9
  8
NOCUT
 10
9.140787278000005
 20
27.9518236359
 30
0.0
  0
VERTEX
  5
25BA
  8
NOCUT
 10
9.204999999999984
 20
27.8360650174
 30
0.0
  0
SEQEND
  5
2741
  8
NOCUT
  0
POLYLINE
  5
AAC
  8
NOCUT
 66
     1
 10
0.0
 20
0.0
 30
0.0
  0
VERTEX
  5
25BB
  8
NOCUT
 10
13.05499999999995
 20
27.8360650174
 30
0.0
  0
VERTEX
  5
25BC
  8
NOCUT
 10
13.1192127219
 20
27.9518236359
 30
0.0
  0
VERTEX
  5
25BD
  8
NOCUT
 10
14.65616676909997
 20
30.7125381562
 30
0.0
  0
SEQEND
  5
2742
  8
NOCUT
  0
ARC
  5
AAD
  8
NOCUT
 10
12.54226966779999
 20
27.51838423379999
 30
0.0
 40
0.512803993977288
 50
271.4225108534019
 51
0.9711541378997977
  0
ARC
  5
AAE
  8
NOCUT
 10
9.716236145599964
 20
27.5169512018
 30
0.0
 40
0.5113363895821054
 50
178.8654582714003
 51
268.7408767374973
  0
LINE
  5
AAF
  8
NOCUT
 10
9.704999999999984
 20
27.0057382791
 30
0.0
 11
12.55499999999995
 21
27.0057382791
 31
0.0
  0
LINE
  5
AB0
  8
NOCUT
 10
0.0
 20
0.0
 30
0.0
 11
0.0
 21
22.22499999999999
 31
0.0
  0
LINE
  5
ACA
  8
NOCUT
 10
1.0
 20
22.72499999999999
 30
0.0
 11
1.0
 21
30.1953638825
 31
0.0
  0
LINE
  5
ACB
  8
NOCUT
 10
9.204999999999984
 20
27.8360650174
 30
0.0
 11
9.20489975601786
 21
27.5169512018
 31
0.0
  0
LINE
  5
ACC
  8
NOCUT
 10
13.05499999999995
 20
27.8360650174
 30
0.0
 11
13.05507366177728
 21
27.51838423379999
 31
0.0
  0
LINE
  5
ACD
  8
NOCUT
 10
19.04999999999995
 20
30.1953638825
 30
0.0
 11
19.04999999999995
 21
23.22499999999999
 31
0.0
  0
ARC
  5
B91
  8
1
 10
20.04999999999998
 20
-23.22499999999999
 30
0.0
 40
1.0
 50
90.0
 51
180.0
  0
ARC
  5
B93
  8
1
 10
20.04999999999998
 20
23.22499999999999
 30
0.0
 40
1.0
 50
180.0
 51
270.0
  0
ARC
  5
B94
  8
1
 10
0.799999999999983
 20
-22.42500000000001
 30
0.0
 40
0.5
 50
66.42182152179994
 51
90.0
  0
ARC
  5
B95
  8
1
 10
0.799999999999983
 20
22.42499999999998
 30
0.0
 40
0.5
 50
270.0
 51
293.5781784782001
  0
LINE
  5
B96
  8
1
 10
20.04999999999998
 20
-22.22499999999999
 30
0.0
 11
34.54999999999998
 21
-22.22499999999999
 31
0.0
  0
LINE
  5
B97
  8
1
 10
34.54999999999998
 20
22.22499999999999
 30
0.0
 11
20.04999999999998
 21
22.22499999999999
 31
0.0
  0
LINE
  5
B98
  8
1
 10
0.0
 20
-22.22499999999999
 30
0.0
 11
0.2999999999999829
 21
-21.92500000000001
 31
0.0
  0
LINE
  5
B99
  8
1
 10
0.2999999999999829
 20
21.92499999999998
 30
0.0
 11
0.0
 21
22.22499999999999
 31
0.0
  0
LINE
  5
B9C
  8
SK1
 10
0.0
 20
22.22499999999999
 30
0.0
 11
-67.3943082273
 21
12.39657058259999
 31
0.0
  0
LINE
  5
B9D
  8
SK1
 10
-67.3943082273
 20
-12.39657058270001
 30
0.0
 11
0.0
 21
-22.22499999999999
 31
0.0
  0
LINE
  5
B9E
  8
1
 10
0.2999999999999829
 20
-21.92500000000001
 30
0.0
 11
0.799999999999983
 21
-21.92500000000001
 31
0.0
  0
LINE
  5
B9F
  8
1
 10
0.799999999999983
 20
21.92499999999998
 30
0.0
 11
0.2999999999999829
 21
21.92499999999998
 31
0.0
  0
ARC
  5
BA0
  8
SK1
 10
-67.25
 20
-11.4070377962
 30
0.0
 40
1.000000000000014
 50
180.0
 51
261.7027777778003
  0
ARC
  5
BA1
  8
SK1
 10
-67.25
 20
11.40703779609998
 30
0.0
 40
1.000000000000014
 50
98.29722222219964
 51
180.0
  0
LINE
  5
BA2
  8
1
 10
14.6561667922
 20
30.49243725150001
 30
0.0
 11
13.05500004409998
 21
27.5903849293
 31
0.0
  0
LINE
  5
BA3
  8
1
 10
14.65616676899998
 20
-30.51805114620001
 30
0.0
 11
14.65616676899998
 21
30.49243720799998
 31
0.0
  0
LINE
  5
BA4
  8
1
 10
13.05500002099998
 20
-27.61768172550001
 30
0.0
 11
14.65616678619998
 21
-30.51748284710001
 31
0.0
  0
LINE
  5
BA5
  8
1
 10
13.05499999999998
 20
-27.61768156150001
 30
0.0
 11
13.05499999999998
 21
27.5896745586
 31
0.0
  0
LINE
  5
BA6
  8
1
 10
14.65616729029998
 20
-30.5174828113
 30
0.0
 11
14.76217597669998
 21
-30.54092502470002
 31
0.0
  0
LINE
  5
BA7
  8
1
 10
14.69253150219998
 20
30.50268419069999
 30
0.0
 11
14.65616753799998
 21
30.49243719839998
 31
0.0
  0
LINE
  5
BA8
  8
1
 10
18.54999999999998
 20
30.50268419069999
 30
0.0
 11
14.69253150219998
 21
30.50268419069999
 31
0.0
  0
LINE
  5
BA9
  8
1
 10
14.76217597669998
 20
-30.54092502470002
 30
0.0
 11
18.54999999999998
 21
-30.54092502470002
 31
0.0
  0
LINE
  5
BAA
  8
1
 10
9.204999955799991
 20
27.5903849293
 30
0.0
 11
7.603833207699978
 21
30.49243725150001
 31
0.0
  0
LINE
  5
BAB
  8
1
 10
9.204999999999984
 20
-27.6182445954
 30
0.0
 11
9.204999999999984
 21
27.5903848518
 31
0.0
  0
LINE
  5
BAC
  8
1
 10
7.6038332137
 20
-30.51748284710001
 30
0.0
 11
9.204999978799975
 21
-27.61768172539999
 31
0.0
  0
LINE
  5
BAD
  8
1
 10
7.603833230899994
 20
-30.5174828113
 30
0.0
 11
7.603833230899994
 21
30.49194635059999
 31
0.0
  0
LINE
  5
BAE
  8
1
 10
1.0
 20
-29.20362428180002
 30
0.0
 11
1.0
 21
29.22527756419998
 31
0.0
  0
ARC
  5
BAF
  8
1
 10
1.736068826500002
 20
28.83956144390001
 30
0.0
 40
0.8318485490646366
 50
106.4871262675995
 51
152.2338518675996
  0
POLYLINE
  5
BB0
  8
1
 66
     1
 10
0.0
 20
0.0
 30
0.0
  0
VERTEX
  5
25BE
  8
1
 10
1.499991175799977
 20
-29.70136738420001
 30
0.0
  0
VERTEX
  5
25BF
  8
1
 10
1.31486147779998
 20
-29.6078136875
 30
0.0
  0
VERTEX
  5
25C0
  8
1
 10
1.220960437199977
 20
-29.54106786380001
 30
0.0
  0
VERTEX
  5
25C1
  8
1
 10
1.131120186599986
 20
-29.45918995790001
 30
0.0
  0
VERTEX
  5
25C2
  8
1
 10
1.068966655699995
 20
-29.38420485969999
 30
0.0
  0
VERTEX
  5
25C3
  8
1
 10
1.029912598300001
 20
-29.3189781797
 30
0.0
  0
VERTEX
  5
25C4
  8
1
 10
1.001757060399996
 20
-29.23060659110001
 30
0.0
  0
VERTEX
  5
25C5
  8
1
 10
1.000001938499992
 20
-29.2054619834
 30
0.0
  0
SEQEND
  5
2743
  8
1
  0
LINE
  5
BB1
  8
1
 10
7.5674684974
 20
30.50268419069999
 30
0.0
 11
4.03465638199998
 21
30.50268419069999
 31
0.0
  0
LINE
  5
BB2
  8
1
 10
7.603832461599978
 20
30.49243719839998
 30
0.0
 11
7.5674684974
 21
30.50268419069999
 31
0.0
  0
LINE
  5
BB3
  8
1
 10
7.497824022700001
 20
-30.54092502470002
 30
0.0
 11
7.603832709099976
 21
-30.5174828113
 31
0.0
  0
LINE
  5
BB4
  8
1
 10
3.987796517999982
 20
-30.54092502470002
 30
0.0
 11
7.497824022700001
 21
-30.54092502470002
 31
0.0
  0
LINE
  5
BB5
  8
1
 10
1.500000037399985
 20
-29.70136454339999
 30
0.0
 11
3.987796517999982
 21
-30.54092512950001
 31
0.0
  0
LINE
  5
BB6
  8
1
 10
4.03465638199998
 20
30.5026843142
 30
0.0
 11
1.499999999899984
 21
29.6372041155
 31
0.0
  0
POLYLINE
  5
BB7
  8
1
 66
     1
 10
0.0
 20
0.0
 30
0.0
  0
VERTEX
  5
25C6
  8
1
 10
18.81621828999999
 20
-30.4787564463
 30
0.0
  0
VERTEX
  5
25C7
  8
1
 10
18.6790188139
 20
-30.52721612650001
 30
0.0
  0
VERTEX
  5
25C8
  8
1
 10
18.54999999999998
 20
-30.54092502470002
 30
0.0
  0
SEQEND
  5
2744
  8
1
  0
ARC
  5
BB8
  8
1
 10
18.55943835959999
 20
29.86640550269999
 30
0.0
 40
0.6363486869715145
 50
60.60134603479981
 51
90.84984539750005
  0
ARC
  5
BB9
  8
1
 10
18.35098180669999
 20
29.95429978019999
 30
0.0
 40
0.6992094391558102
 50
1.340108450200791
 51
41.85091720829973
  0
LINE
  5
BBA
  8
1
 10
19.04999999999998
 20
29.97065231189998
 30
0.0
 11
19.04999999999998
 21
-29.97065231190001
 31
0.0
  0
ARC
  5
BBB
  8
1
 10
18.33294041069999
 20
-29.9485632036
 30
0.0
 40
0.7173997374297006
 50
312.3495695874001
 51
358.2355544919003
  0
ARC
  5
BBC
  8
1
 10
9.7449695926
 20
27.30906555679999
 30
0.0
 40
0.5407677835436584
 50
176.8865704259999
 51
265.761250323199
  0
ARC
  5
BBD
  8
1
 10
9.7179331838
 20
-27.29360212969999
 30
0.0
 40
0.4775741781478385
 50
91.55181642760164
 51
147.4596417165987
  0
ARC
  5
BBE
  8
1
 10
12.52505146019999
 20
27.30025443439999
 30
0.0
 40
0.5313222205439724
 50
273.2312498579008
 51
4.120929392898505
  0
ARC
  5
BBF
  8
1
 10
12.53972316129997
 20
-27.2977060387
 30
0.0
 40
0.4817452194643697
 50
32.86161398089808
 51
88.18276318630117
  0
LINE
  5
BC0
  8
1
 10
12.55499999999998
 20
26.7697769259
 30
0.0
 11
9.704999999999984
 21
26.7697769259
 31
0.0
  0
LINE
  5
BC1
  8
1
 10
9.704999999999984
 20
-26.81620310549999
 30
0.0
 11
12.55499999999998
 21
-26.81620310549999
 31
0.0
  0
LINE
  5
BC4
  8
1
 10
0.2999999999999829
 20
0.0
 30
0.0
 11
0.2999999999999829
 21
21.92499999999998
 31
0.0
  0
LINE
  5
BC5
  8
1
 10
0.2999999999999829
 20
-21.92500000000001
 30
0.0
 11
0.2999999999999829
 21
0.0
 31
0.0
  0
LINE
  5
BC6
  8
1
 10
0.0
 20
0.0
 30
0.0
 11
0.0
 21
22.22499999999999
 31
0.0
  0
LINE
  5
BC7
  8
1
 10
0.0
 20
-22.22499999999999
 30
0.0
 11
0.0
 21
0.0
 31
0.0
  0
LINE
  5
BCA
  8
SK1
 10
-68.25
 20
0.0
 30
0.0
 11
-68.25
 21
11.40703779609998
 31
0.0
  0
LINE
  5
BCB
  8
SK1
 10
-68.25
 20
-11.4070377962
 30
0.0
 11
-68.25
 21
0.0
 31
0.0
  0
LINE
  5
BCC
  8
1
 10
7.567468496899977
 20
30.50268419069999
 30
0.0
 11
7.6038324612
 21
30.49243719839998
 31
0.0
  0
LINE
  5
BCD
  8
1
 10
3.987796517999982
 20
-30.54092512950001
 30
0.0
 11
1.499999999899984
 21
-29.7013645289
 31
0.0
  0
LINE
  5
BDE
  8
3
 10
1.0
 20
-22.59999999999999
 30
0.0
 11
3.699999999999989
 21
-22.59999999999999
 31
0.0
  0
LINE
  5
BDF
  8
3
 10
1.0
 20
25.02000000000001
 30
0.0
 11
3.699999999999989
 21
25.02000000000001
 31
0.0
  0
LINE
  5
BE8
  8
3
 10
18.25
 20
25.02000000000001
 30
0.0
 11
19.04999999999998
 21
25.02000000000001
 31
0.0
  0
LINE
  5
BFE
  8
3
 10
3.699999999999989
 20
-22.59999999999999
 30
0.0
 11
18.25
 21
-22.59999999999999
 31
0.0
  0
LINE
  5
C08
  8
3
 10
3.699999999999989
 20
25.02000000000001
 30
0.0
 11
18.25
 21
25.02000000000001
 31
0.0
  0
LINE
  5
C10
  8
3
 10
11.13
 20
21.22
 30
0.0
 11
17.47999999999999
 21
21.22
 31
0.0
  0
LINE
  5
C11
  8
3
 10
4.780000000000001
 20
21.22
 30
0.0
 11
11.13
 21
21.22
 31
0.0
  0
LINE
  5
C12
  8
3
 10
11.13
 20
21.21000000000001
 30
0.0
 11
15.88
 21
21.21000000000001
 31
0.0
  0
LINE
  5
C13
  8
3
 10
6.379999999999995
 20
21.21000000000001
 30
0.0
 11
11.13
 21
21.21000000000001
 31
0.0
  0
LINE
  5
C26
  8
3
 10
4.780000000000001
 20
25.02000000000001
 30
0.0
 11
4.780000000000001
 21
21.22
 31
0.0
  0
LINE
  5
C27
  8
3
 10
17.47999999999999
 20
21.22
 30
0.0
 11
17.47999999999999
 21
25.02000000000001
 31
0.0
  0
LINE
  5
C28
  8
3
 10
6.379999999999995
 20
21.22
 30
0.0
 11
6.379999999999995
 21
21.21000000000001
 31
0.0
  0
LINE
  5
C29
  8
3
 10
15.88
 20
21.21000000000001
 30
0.0
 11
15.88
 21
21.22
 31
0.0
  0
LINE
  5
C2A
  8
3
 10
6.379999999999995
 20
21.21000000000001
 30
0.0
 11
11.13
 21
18.3559120596
 31
0.0
  0
LINE
  5
C2B
  8
3
 10
11.13
 20
18.3559120596
 30
0.0
 11
15.88
 21
21.21000000000001
 31
0.0
  0
LINE
  5
C2C
  8
1
 10
20.04999999999998
 20
22.22499999999999
 30
0.0
 11
20.04999999999998
 21
-22.22499999999999
 31
0.0
  0
LINE
  5
C2D
  8
1
 10
0.799999999999983
 20
21.92499999999998
 30
0.0
 11
0.799999999999983
 21
-21.92500000000001
 31
0.0
  0
LINE
  5
C2F
  8
1
 10
9.704999999999984
 20
26.26568698759999
 30
0.0
 11
9.704999999999984
 21
-26.08092552630001
 31
0.0
  0
LINE
  5
C30
  8
1
 10
12.55499999999998
 20
26.26578903699999
 30
0.0
 11
12.55499999999998
 21
-26.08072526110001
 31
0.0
  0
LINE
  5
C31
  8
1
 10
18.54999999999998
 20
30.50268419069999
 30
0.0
 11
18.54999999999998
 21
-30.54092502470002
 31
0.0
  0
LINE
  5
C32
  8
1
 10
1.5
 20
-29.7013645289
 30
0.0
 11
1.5
 21
29.6372041155
 31
0.0
  0
LINE
  5
C92
  8
SK4
 10
0.0
 20
0.0
 30
0.0
 11
-68.25
 21
0.0
 31
0.0
  0
TEXT
  5
D44
  8
SK6
 10
-66.17909534664395
 20
47.33203563714093
 30
0.0
 40
3.5
  1
BIG KAISER
 41
0.85
  0
TEXT
  5
D45
  8
SK6
 10
-66.17909534664395
 20
42.08203563714093
 30
0.0
 40
3.5
  1
BCV40-SMC.750-6
 41
0.85
  0
INSERT
  5
D46
  8
SK6
  2
_FILLED
 10
-17.9836627818344
 20
-19.60235774778011
 30
0.0
 41
3.5
 42
3.5
 43
3.5
 50
55.49325986033524
  0
POLYLINE
  5
D47
  8
SK6
 66
     1
 10
0.0
 20
0.0
 30
0.0
  0
VERTEX
  5
25C9
  8
SK6
 10
-19.966423916232
 20
-22.48656618059532
 30
0.0
  0
VERTEX
  5
25CA
  8
SK6
 10
-33.4822656830344
 20
-42.14728280658011
 30
0.0
  0
VERTEX
  5
25CB
  8
SK6
 10
-35.35726568303438
 20
-40.39728280658011
 30
0.0
  0
VERTEX
  5
25CC
  8
SK6
 10
-38.85726568303438
 20
-40.39728280658011
 30
0.0
  0
SEQEND
  5
2745
  8
SK6
  0
TEXT
  5
D48
  8
SK6
 10
-53.86143234970106
 20
-43.89728280658011
 30
0.0
 40
3.5
  1
BCV40
 41
0.85
  0
LINE
  5
F39
  8
SK1
 10
180.213
 20
11.04900000000004
 30
0.0
 11
172.212
 21
11.04900000000004
 31
0.0
  0
LINE
  5
F3A
  8
SK1
 10
172.212
 20
-11.04900000000001
 30
0.0
 11
180.213
 21
-11.04900000000001
 31
0.0
  0
LINE
  5
F3B
  8
SK1
 10
172.212
 20
11.04900000000004
 30
0.0
 11
171.4499999999999
 21
10.28700000000005
 31
0.0
  0
LINE
  5
F3C
  8
SK1
 10
171.4499999999999
 20
-10.28700000000001
 30
0.0
 11
172.212
 21
-11.04900000000001
 31
0.0
  0
LINE
  5
F3D
  8
SK1
 10
180.213
 20
-11.04900000000001
 30
0.0
 11
180.975
 21
-10.28700000000001
 31
0.0
  0
LINE
  5
F3E
  8
SK1
 10
180.975
 20
10.28700000000005
 30
0.0
 11
180.213
 21
11.04900000000004
 31
0.0
  0
ARC
  5
F3F
  8
SK1
 10
170.942
 20
-5.270499999999998
 30
0.0
 40
0.5080000000000382
 50
0.0
 51
90.0
  0
ARC
  5
F40
  8
SK1
 10
170.942
 20
5.270500000000041
 30
0.0
 40
0.5080000000000382
 50
270.0
 51
0.0
  0
LINE
  5
F41
  8
SK1
 10
170.942
 20
4.762499999999946
 30
0.0
 11
169.9
 21
4.762499999999946
 31
0.0
  0
LINE
  5
F42
  8
SK1
 10
169.9
 20
-4.762500000000017
 30
0.0
 11
170.942
 21
-4.762500000000017
 31
0.0
  0
LINE
  5
F4B
  8
1
 10
35.04999999999998
 20
-21.45
 30
0.0
 11
151.4
 21
-21.45
 31
0.0
  0
LINE
  5
F4C
  8
1
 10
151.4
 20
21.44999999999995
 30
0.0
 11
35.04999999999998
 21
21.44999999999995
 31
0.0
  0
ARC
  5
F4D
  8
1
 10
151.4
 20
-20.45
 30
0.0
 40
1.0
 50
270.0
 51
0.0
  0
ARC
  5
F4E
  8
1
 10
151.4
 20
20.44999999999995
 30
0.0
 40
1.0
 50
0.0
 51
90.0
  0
ARC
  5
F4F
  8
SK1
 10
152.6
 20
-9.724999999999994
 30
0.0
 40
0.3999999999999969
 50
74.99999999999702
 51
119.9999999999983
  0
ARC
  5
F50
  8
SK1
 10
152.6
 20
9.725000000000037
 30
0.0
 40
0.3999999999999969
 50
240.0000000000015
 51
285.000000000003
  0
LINE
  5
F51
  8
SK1
 10
153.3990711605
 20
-9.525000000000006
 30
0.0
 11
168.4
 21
-9.525000000000006
 31
0.0
  0
LINE
  5
F52
  8
SK1
 10
168.4
 20
9.525000000000048
 30
0.0
 11
153.3990711605
 21
9.525000000000048
 31
0.0
  0
ARC
  5
F53
  8
SK1
 10
168.4
 20
-8.025000000000006
 30
0.0
 40
1.5
 50
270.0
 51
0.0
  0
ARC
  5
F54
  8
SK1
 10
168.4
 20
8.025000000000048
 30
0.0
 40
1.5
 50
0.0
 51
90.0
  0
LINE
  5
F55
  8
SK1
 10
153.3990711605
 20
9.525000000000048
 30
0.0
 11
152.703527618
 21
9.338629669500037
 31
0.0
  0
LINE
  5
F56
  8
SK1
 10
152.703527618
 20
-9.338629669499994
 30
0.0
 11
153.3990711605
 21
-9.525000000000006
 31
0.0
  0
CIRCLE
  5
F57
  8
1
 10
146.05
 20
0.0
 30
0.0
 40
1.219499999999982
  0
CIRCLE
  5
F58
  8
1
 10
146.05
 20
0.0
 30
0.0
 40
1.5
  0
LINE
  5
F59
  8
1
 10
145.3
 20
-0.4330127018999974
 30
0.0
 11
146.05
 21
-0.8660254037999948
 31
0.0
  0
LINE
  5
F5A
  8
1
 10
146.8
 20
-0.4330127018999974
 30
0.0
 11
146.05
 21
-0.8660254037999948
 31
0.0
  0
LINE
  5
F5B
  8
1
 10
146.8
 20
0.4330127018999974
 30
0.0
 11
146.8
 21
-0.4330127018999974
 31
0.0
  0
LINE
  5
F5C
  8
1
 10
146.8
 20
0.4330127018999974
 30
0.0
 11
146.05
 21
0.8660254037999948
 31
0.0
  0
LINE
  5
F5D
  8
1
 10
145.3
 20
0.4330127018999974
 30
0.0
 11
146.05
 21
0.8660254037999948
 31
0.0
  0
LINE
  5
F5E
  8
1
 10
145.3
 20
0.4330127018999974
 30
0.0
 11
145.3
 21
-0.4330127018999974
 31
0.0
  0
LINE
  5
F5F
  8
SK1
 10
180.213
 20
11.04900000000004
 30
0.0
 11
180.213
 21
-11.04900000000001
 31
0.0
  0
LINE
  5
F60
  8
SK1
 10
172.212
 20
11.04900000000004
 30
0.0
 11
172.212
 21
-11.04900000000001
 31
0.0
  0
LINE
  5
F61
  8
SK1
 10
171.4499999999999
 20
10.28700000000005
 30
0.0
 11
171.4499999999999
 21
-10.28700000000001
 31
0.0
  0
LINE
  5
F62
  8
SK1
 10
180.975
 20
10.28700000000005
 30
0.0
 11
180.975
 21
-10.28700000000001
 31
0.0
  0
LINE
  5
F63
  8
SK1
 10
156.3624
 20
19.84375000000004
 30
0.0
 11
152.4
 21
19.84375000000004
 31
0.0
  0
LINE
  5
F64
  8
SK1
 10
156.3624
 20
19.84375000000004
 30
0.0
 11
156.3624
 21
11.90625000000004
 31
0.0
  0
LINE
  5
F65
  8
SK1
 10
156.3624
 20
11.90625000000004
 30
0.0
 11
152.4
 21
11.90625000000004
 31
0.0
  0
LINE
  5
F66
  8
SK1
 10
156.3624
 20
-11.90625
 30
0.0
 11
152.4
 21
-11.90625
 31
0.0
  0
LINE
  5
F67
  8
SK1
 10
156.3624
 20
-11.90625
 30
0.0
 11
156.3624
 21
-19.84375
 31
0.0
  0
LINE
  5
F68
  8
SK1
 10
156.3624
 20
-19.84375
 30
0.0
 11
152.4
 21
-19.84375
 31
0.0
  0
CIRCLE
  5
F6D
  8
1
 10
146.05
 20
0.0
 30
0.0
 40
1.625
  0
LINE
  5
F6E
  8
1
 10
152.4
 20
0.0
 30
0.0
 11
152.4
 21
20.44999999999995
 31
0.0
  0
LINE
  5
F6F
  8
1
 10
152.4
 20
-20.45
 30
0.0
 11
152.4
 21
0.0
 31
0.0
  0
LINE
  5
F70
  8
SK1
 10
153.3990711605
 20
0.0
 30
0.0
 11
153.3990711605
 21
9.525000000000048
 31
0.0
  0
LINE
  5
F71
  8
SK1
 10
153.3990711605
 20
-9.525000000000006
 30
0.0
 11
153.3990711605
 21
0.0
 31
0.0
  0
LINE
  5
F72
  8
SK1
 10
169.9
 20
0.7651740380999854
 30
0.0
 11
169.9
 21
8.025000000000048
 31
0.0
  0
ARC
  5
F73
  8
SK1
 10
238.1809610841
 20
0.0
 30
0.0
 40
68.28524831815687
 50
179.3579556113
 51
180.6420443887
  0
LINE
  5
F74
  8
SK1
 10
169.9
 20
-8.025000000000006
 30
0.0
 11
169.9
 21
-0.7651740381000138
 31
0.0
  0
POLYLINE
  5
F7D
  8
3
 66
     1
 10
0.0
 20
0.0
 30
0.0
 70
   128
  0
VERTEX
  5
25CD
  8
3
 10
146.05
 20
-14.56310519030001
 30
0.0
  0
VERTEX
  5
25CE
  8
3
 10
145.536969785
 20
-14.5178746559
 30
0.0
  0
VERTEX
  5
25CF
  8
3
 10
145.0858185855
 20
-14.3876385227
 30
0.0
  0
VERTEX
  5
25D0
  8
3
 10
144.7509618943
 20
-14.18810519030001
 30
0.0
  0
VERTEX
  5
25D1
  8
3
 10
144.5727883704999
 20
-13.94334132360001
 30
0.0
  0
VERTEX
  5
25D2
  8
3
 10
144.5727883704999
 20
-13.68286905710001
 30
0.0
  0
VERTEX
  5
25D3
  8
3
 10
144.7509618943
 20
-13.43810519030001
 30
0.0
  0
VERTEX
  5
25D4
  8
3
 10
145.0858185855
 20
-13.238571858
 30
0.0
  0
VERTEX
  5
25D5
  8
3
 10
145.536969785
 20
-13.1083357248
 30
0.0
  0
VERTEX
  5
25D6
  8
3
 10
146.05
 20
-13.06310519030001
 30
0.0
  0
VERTEX
  5
25D7
  8
3
 10
146.5630302149999
 20
-13.1083357248
 30
0.0
  0
VERTEX
  5
25D8
  8
3
 10
147.0141814144999
 20
-13.238571858
 30
0.0
  0
VERTEX
  5
25D9
  8
3
 10
147.3490381056999
 20
-13.43810519030001
 30
0.0
  0
VERTEX
  5
25DA
  8
3
 10
147.5272116294999
 20
-13.68286905710001
 30
0.0
  0
VERTEX
  5
25DB
  8
3
 10
147.5272116294999
 20
-13.94334132360001
 30
0.0
  0
VERTEX
  5
25DC
  8
3
 10
147.3490381056999
 20
-14.18810519030001
 30
0.0
  0
VERTEX
  5
25DD
  8
3
 10
147.0141814144999
 20
-14.3876385227
 30
0.0
  0
VERTEX
  5
25DE
  8
3
 10
146.5630302149999
 20
-14.5178746559
 30
0.0
  0
VERTEX
  5
25DF
  8
3
 10
146.05
 20
-14.56310519030001
 30
0.0
  0
SEQEND
  5
2746
  8
3
  0
POLYLINE
  5
F7E
  8
3
 66
     1
 10
0.0
 20
0.0
 30
0.0
 70
   128
  0
VERTEX
  5
25E0
  8
3
 10
146.05
 20
-13.88009248840001
 30
0.0
  0
VERTEX
  5
25E1
  8
3
 10
145.6673165676
 20
-13.8420322547
 30
0.0
  0
VERTEX
  5
25E2
  8
3
 10
145.3428932188
 20
-13.73364587900001
 30
0.0
  0
VERTEX
  5
25E3
  8
3
 10
145.1261204674999
 20
-13.57143420460001
 30
0.0
  0
VERTEX
  5
25E4
  8
3
 10
145.05
 20
-13.38009248840001
 30
0.0
  0
VERTEX
  5
25E5
  8
3
 10
145.1261204674999
 20
-13.1887507723
 30
0.0
  0
VERTEX
  5
25E6
  8
3
 10
145.3428932188
 20
-13.0265390979
 30
0.0
  0
VERTEX
  5
25E7
  8
3
 10
145.6673165676
 20
-12.91815272220001
 30
0.0
  0
VERTEX
  5
25E8
  8
3
 10
146.05
 20
-12.88009248840001
 30
0.0
  0
VERTEX
  5
25E9
  8
3
 10
146.4326834324
 20
-12.91815272220001
 30
0.0
  0
VERTEX
  5
25EA
  8
3
 10
146.7571067812
 20
-13.0265390979
 30
0.0
  0
VERTEX
  5
25EB
  8
3
 10
146.9738795325
 20
-13.1887507723
 30
0.0
  0
VERTEX
  5
25EC
  8
3
 10
147.05
 20
-13.38009248840001
 30
0.0
  0
VERTEX
  5
25ED
  8
3
 10
146.9738795325
 20
-13.57143420460001
 30
0.0
  0
VERTEX
  5
25EE
  8
3
 10
146.7571067812
 20
-13.73364587900001
 30
0.0
  0
VERTEX
  5
25EF
  8
3
 10
146.4326834324
 20
-13.8420322547
 30
0.0
  0
VERTEX
  5
25F0
  8
3
 10
146.05
 20
-13.88009248840001
 30
0.0
  0
SEQEND
  5
2747
  8
3
  0
POLYLINE
  5
F7F
  8
3
 66
     1
 10
0.0
 20
0.0
 30
0.0
 70
   128
  0
VERTEX
  5
25F1
  8
3
 10
146.05
 20
-18.3199695074
 30
0.0
  0
VERTEX
  5
25F2
  8
3
 10
145.536969785
 20
-18.274738973
 30
0.0
  0
VERTEX
  5
25F3
  8
3
 10
145.0858185855
 20
-18.14450283970001
 30
0.0
  0
VERTEX
  5
25F4
  8
3
 10
144.7509618943
 20
-17.9449695074
 30
0.0
  0
VERTEX
  5
25F5
  8
3
 10
144.5727883704999
 20
-17.7002056406
 30
0.0
  0
VERTEX
  5
25F6
  8
3
 10
144.5727883704999
 20
-17.4397333741
 30
0.0
  0
VERTEX
  5
25F7
  8
3
 10
144.7509618943
 20
-17.1949695074
 30
0.0
  0
VERTEX
  5
25F8
  8
3
 10
145.0858185855
 20
-16.99543617500001
 30
0.0
  0
VERTEX
  5
25F9
  8
3
 10
145.536969785
 20
-16.86520004180001
 30
0.0
  0
VERTEX
  5
25FA
  8
3
 10
146.05
 20
-16.8199695074
 30
0.0
  0
VERTEX
  5
25FB
  8
3
 10
146.5630302149999
 20
-16.86520004180001
 30
0.0
  0
VERTEX
  5
25FC
  8
3
 10
147.0141814144999
 20
-16.99543617500001
 30
0.0
  0
VERTEX
  5
25FD
  8
3
 10
147.3490381056999
 20
-17.1949695074
 30
0.0
  0
VERTEX
  5
25FE
  8
3
 10
147.5272116294999
 20
-17.4397333741
 30
0.0
  0
VERTEX
  5
25FF
  8
3
 10
147.5272116294999
 20
-17.7002056406
 30
0.0
  0
VERTEX
  5
2600
  8
3
 10
147.3490381056999
 20
-17.9449695074
 30
0.0
  0
VERTEX
  5
2601
  8
3
 10
147.0141814144999
 20
-18.14450283970001
 30
0.0
  0
VERTEX
  5
2602
  8
3
 10
146.5630302149999
 20
-18.274738973
 30
0.0
  0
VERTEX
  5
2603
  8
3
 10
146.05
 20
-18.3199695074
 30
0.0
  0
SEQEND
  5
2748
  8
3
  0
LINE
  5
F80
  8
3
 10
146.8
 20
-16.10807251040001
 30
0.0
 11
146.05
 21
-16.3245788613
 31
0.0
  0
LINE
  5
F81
  8
3
 10
146.05
 20
-16.3245788613
 30
0.0
 11
146.05
 21
-18.14323220930001
 31
0.0
  0
LINE
  5
F82
  8
3
 10
145.3
 20
-16.10807251040001
 30
0.0
 11
146.05
 21
-16.3245788613
 31
0.0
  0
LINE
  5
F83
  8
3
 10
146.8
 20
-16.10807251040001
 30
0.0
 11
146.8
 21
-17.9267258583
 31
0.0
  0
LINE
  5
F84
  8
3
 10
146.8
 20
-16.10807251040001
 30
0.0
 11
146.8
 21
-15.67505980850001
 31
0.0
  0
LINE
  5
F85
  8
3
 10
145.3
 20
-16.10807251040001
 30
0.0
 11
145.3
 21
-17.9267258583
 31
0.0
  0
LINE
  5
F86
  8
3
 10
145.3
 20
-16.10807251040001
 30
0.0
 11
145.3
 21
-15.67505980850001
 31
0.0
  0
POLYLINE
  5
F87
  8
3
 66
     1
 10
0.0
 20
0.0
 30
0.0
 70
   128
  0
VERTEX
  5
2604
  8
3
 10
146.05
 20
-18.3199695074
 30
0.0
  0
VERTEX
  5
2605
  8
3
 10
145.5833175542
 20
-18.2735550523
 30
0.0
  0
VERTEX
  5
2606
  8
3
 10
145.1876832803
 20
-18.14137786720001
 30
0.0
  0
VERTEX
  5
2607
  8
3
 10
144.9233289101
 20
-17.94356073030001
 30
0.0
  0
VERTEX
  5
2608
  8
3
 10
144.8305
 20
-17.7102195074
 30
0.0
  0
VERTEX
  5
2609
  8
3
 10
144.9233289101
 20
-17.4768782845
 30
0.0
  0
VERTEX
  5
260A
  8
3
 10
145.1876832803
 20
-17.2790611475
 30
0.0
  0
VERTEX
  5
260B
  8
3
 10
145.5833175542
 20
-17.1468839624
 30
0.0
  0
VERTEX
  5
260C
  8
3
 10
146.05
 20
-17.10046950740001
 30
0.0
  0
VERTEX
  5
260D
  8
3
 10
146.5166824458
 20
-17.1468839624
 30
0.0
  0
VERTEX
  5
260E
  8
3
 10
146.9123167196
 20
-17.2790611475
 30
0.0
  0
VERTEX
  5
260F
  8
3
 10
147.1766710898999
 20
-17.4768782845
 30
0.0
  0
VERTEX
  5
2610
  8
3
 10
147.2695
 20
-17.7102195074
 30
0.0
  0
VERTEX
  5
2611
  8
3
 10
147.1766710898999
 20
-17.94356073030001
 30
0.0
  0
VERTEX
  5
2612
  8
3
 10
146.9123167196
 20
-18.14137786720001
 30
0.0
  0
VERTEX
  5
2613
  8
3
 10
146.5166824458
 20
-18.2735550523
 30
0.0
  0
VERTEX
  5
2614
  8
3
 10
146.05
 20
-18.3199695074
 30
0.0
  0
SEQEND
  5
2749
  8
3
  0
LINE
  5
F88
  8
3
 10
145.3
 20
-17.9267258583
 30
0.0
 11
146.05
 21
-18.14323220930001
 31
0.0
  0
LINE
  5
F89
  8
3
 10
146.8
 20
-17.9267258583
 30
0.0
 11
146.05
 21
-18.14323220930001
 31
0.0
  0
LINE
  5
F8A
  8
3
 10
146.05
 20
-15.4585534575
 30
0.0
 11
146.05
 21
-16.3245788613
 31
0.0
  0
LINE
  5
F8B
  8
3
 10
145.3
 20
-17.49371315640001
 30
0.0
 11
146.05
 21
-17.2772068055
 31
0.0
  0
LINE
  5
F8C
  8
3
 10
145.3
 20
-15.67505980850001
 30
0.0
 11
146.05
 21
-15.4585534575
 31
0.0
  0
LINE
  5
F8D
  8
3
 10
146.8
 20
-17.49371315640001
 30
0.0
 11
146.05
 21
-17.2772068055
 31
0.0
  0
LINE
  5
F8E
  8
3
 10
146.8
 20
-15.67505980850001
 30
0.0
 11
146.05
 21
-15.4585534575
 31
0.0
  0
POLYLINE
  5
F8F
  8
3
 66
     1
 10
0.0
 20
0.0
 30
0.0
 70
   128
  0
VERTEX
  5
2615
  8
3
 10
146.05
 20
13.06310519040004
 30
0.0
  0
VERTEX
  5
2616
  8
3
 10
145.536969785
 20
13.10833572479994
 30
0.0
  0
VERTEX
  5
2617
  8
3
 10
145.0858185855
 20
13.23857185800004
 30
0.0
  0
VERTEX
  5
2618
  8
3
 10
144.7509618943
 20
13.43810519040004
 30
0.0
  0
VERTEX
  5
2619
  8
3
 10
144.5727883704999
 20
13.68286905710004
 30
0.0
  0
VERTEX
  5
261A
  8
3
 10
144.5727883704999
 20
13.94334132360004
 30
0.0
  0
VERTEX
  5
261B
  8
3
 10
144.7509618943
 20
14.18810519040004
 30
0.0
  0
VERTEX
  5
261C
  8
3
 10
145.0858185855
 20
14.38763852270004
 30
0.0
  0
VERTEX
  5
261D
  8
3
 10
145.536969785
 20
14.51787465600005
 30
0.0
  0
VERTEX
  5
261E
  8
3
 10
146.05
 20
14.56310519040004
 30
0.0
  0
VERTEX
  5
261F
  8
3
 10
146.5630302149999
 20
14.51787465600005
 30
0.0
  0
VERTEX
  5
2620
  8
3
 10
147.0141814144999
 20
14.38763852270004
 30
0.0
  0
VERTEX
  5
2621
  8
3
 10
147.3490381056999
 20
14.18810519040004
 30
0.0
  0
VERTEX
  5
2622
  8
3
 10
147.5272116294999
 20
13.94334132360004
 30
0.0
  0
VERTEX
  5
2623
  8
3
 10
147.5272116294999
 20
13.68286905710004
 30
0.0
  0
VERTEX
  5
2624
  8
3
 10
147.3490381056999
 20
13.43810519040004
 30
0.0
  0
VERTEX
  5
2625
  8
3
 10
147.0141814144999
 20
13.23857185800004
 30
0.0
  0
VERTEX
  5
2626
  8
3
 10
146.5630302149999
 20
13.10833572479994
 30
0.0
  0
VERTEX
  5
2627
  8
3
 10
146.05
 20
13.06310519040004
 30
0.0
  0
SEQEND
  5
274A
  8
3
  0
POLYLINE
  5
F90
  8
3
 66
     1
 10
0.0
 20
0.0
 30
0.0
 70
   128
  0
VERTEX
  5
2628
  8
3
 10
146.05
 20
12.88009248850004
 30
0.0
  0
VERTEX
  5
2629
  8
3
 10
145.6673165676
 20
12.91815272220005
 30
0.0
  0
VERTEX
  5
262A
  8
3
 10
145.3428932188
 20
13.02653909789994
 30
0.0
  0
VERTEX
  5
262B
  8
3
 10
145.1261204674999
 20
13.18875077229994
 30
0.0
  0
VERTEX
  5
262C
  8
3
 10
145.05
 20
13.38009248850004
 30
0.0
  0
VERTEX
  5
262D
  8
3
 10
145.1261204674999
 20
13.57143420469994
 30
0.0
  0
VERTEX
  5
262E
  8
3
 10
145.3428932188
 20
13.73364587910004
 30
0.0
  0
VERTEX
  5
262F
  8
3
 10
145.6673165676
 20
13.84203225470004
 30
0.0
  0
VERTEX
  5
2630
  8
3
 10
146.05
 20
13.88009248850004
 30
0.0
  0
VERTEX
  5
2631
  8
3
 10
146.4326834324
 20
13.84203225470004
 30
0.0
  0
VERTEX
  5
2632
  8
3
 10
146.7571067812
 20
13.73364587910004
 30
0.0
  0
VERTEX
  5
2633
  8
3
 10
146.9738795325
 20
13.57143420469994
 30
0.0
  0
VERTEX
  5
2634
  8
3
 10
147.05
 20
13.38009248850004
 30
0.0
  0
VERTEX
  5
2635
  8
3
 10
146.9738795325
 20
13.18875077229994
 30
0.0
  0
VERTEX
  5
2636
  8
3
 10
146.7571067812
 20
13.02653909789994
 30
0.0
  0
VERTEX
  5
2637
  8
3
 10
146.4326834324
 20
12.91815272220005
 30
0.0
  0
VERTEX
  5
2638
  8
3
 10
146.05
 20
12.88009248850004
 30
0.0
  0
SEQEND
  5
274B
  8
3
  0
POLYLINE
  5
F91
  8
3
 66
     1
 10
0.0
 20
0.0
 30
0.0
 70
   128
  0
VERTEX
  5
2639
  8
3
 10
146.05
 20
16.81996950740005
 30
0.0
  0
VERTEX
  5
263A
  8
3
 10
145.536969785
 20
16.86520004180004
 30
0.0
  0
VERTEX
  5
263B
  8
3
 10
145.0858185855
 20
16.99543617510004
 30
0.0
  0
VERTEX
  5
263C
  8
3
 10
144.7509618943
 20
17.19496950740005
 30
0.0
  0
VERTEX
  5
263D
  8
3
 10
144.5727883704999
 20
17.43973337419995
 30
0.0
  0
VERTEX
  5
263E
  8
3
 10
144.5727883704999
 20
17.70020564070005
 30
0.0
  0
VERTEX
  5
263F
  8
3
 10
144.7509618943
 20
17.94496950740005
 30
0.0
  0
VERTEX
  5
2640
  8
3
 10
145.0858185855
 20
18.14450283980004
 30
0.0
  0
VERTEX
  5
2641
  8
3
 10
145.536969785
 20
18.27473897299994
 30
0.0
  0
VERTEX
  5
2642
  8
3
 10
146.05
 20
18.31996950740005
 30
0.0
  0
VERTEX
  5
2643
  8
3
 10
146.5630302149999
 20
18.27473897299994
 30
0.0
  0
VERTEX
  5
2644
  8
3
 10
147.0141814144999
 20
18.14450283980004
 30
0.0
  0
VERTEX
  5
2645
  8
3
 10
147.3490381056999
 20
17.94496950740005
 30
0.0
  0
VERTEX
  5
2646
  8
3
 10
147.5272116294999
 20
17.70020564070005
 30
0.0
  0
VERTEX
  5
2647
  8
3
 10
147.5272116294999
 20
17.43973337419995
 30
0.0
  0
VERTEX
  5
2648
  8
3
 10
147.3490381056999
 20
17.19496950740005
 30
0.0
  0
VERTEX
  5
2649
  8
3
 10
147.0141814144999
 20
16.99543617510004
 30
0.0
  0
VERTEX
  5
264A
  8
3
 10
146.5630302149999
 20
16.86520004180004
 30
0.0
  0
VERTEX
  5
264B
  8
3
 10
146.05
 20
16.81996950740005
 30
0.0
  0
SEQEND
  5
274C
  8
3
  0
LINE
  5
F92
  8
3
 10
146.8
 20
16.10807251040004
 30
0.0
 11
146.05
 21
16.32457886140004
 31
0.0
  0
LINE
  5
F93
  8
3
 10
146.05
 20
16.32457886140004
 30
0.0
 11
146.05
 21
18.14323220930004
 31
0.0
  0
LINE
  5
F94
  8
3
 10
145.3
 20
16.10807251040004
 30
0.0
 11
146.05
 21
16.32457886140004
 31
0.0
  0
LINE
  5
F95
  8
3
 10
146.8
 20
16.10807251040004
 30
0.0
 11
146.8
 21
17.92672585840005
 31
0.0
  0
LINE
  5
F96
  8
3
 10
146.8
 20
15.67505980850004
 30
0.0
 11
146.8
 21
16.10807251040004
 31
0.0
  0
LINE
  5
F97
  8
3
 10
145.3
 20
16.10807251040004
 30
0.0
 11
145.3
 21
17.92672585840005
 31
0.0
  0
LINE
  5
F98
  8
3
 10
145.3
 20
15.67505980850004
 30
0.0
 11
145.3
 21
16.10807251040004
 31
0.0
  0
POLYLINE
  5
F99
  8
3
 66
     1
 10
0.0
 20
0.0
 30
0.0
 70
   128
  0
VERTEX
  5
264C
  8
3
 10
146.05
 20
17.10046950740004
 30
0.0
  0
VERTEX
  5
264D
  8
3
 10
145.5833175542
 20
17.14688396250004
 30
0.0
  0
VERTEX
  5
264E
  8
3
 10
145.1876832803
 20
17.27906114760005
 30
0.0
  0
VERTEX
  5
264F
  8
3
 10
144.9233289101
 20
17.47687828450005
 30
0.0
  0
VERTEX
  5
2650
  8
3
 10
144.8305
 20
17.71021950739994
 30
0.0
  0
VERTEX
  5
2651
  8
3
 10
144.9233289101
 20
17.94356073030004
 30
0.0
  0
VERTEX
  5
2652
  8
3
 10
145.1876832803
 20
18.14137786720005
 30
0.0
  0
VERTEX
  5
2653
  8
3
 10
145.5833175542
 20
18.27355505239994
 30
0.0
  0
VERTEX
  5
2654
  8
3
 10
146.05
 20
18.31996950740005
 30
0.0
  0
VERTEX
  5
2655
  8
3
 10
146.5166824458
 20
18.27355505239994
 30
0.0
  0
VERTEX
  5
2656
  8
3
 10
146.9123167196
 20
18.14137786720005
 30
0.0
  0
VERTEX
  5
2657
  8
3
 10
147.1766710898999
 20
17.94356073030004
 30
0.0
  0
VERTEX
  5
2658
  8
3
 10
147.2695
 20
17.71021950739994
 30
0.0
  0
VERTEX
  5
2659
  8
3
 10
147.1766710898999
 20
17.47687828450005
 30
0.0
  0
VERTEX
  5
265A
  8
3
 10
146.9123167196
 20
17.27906114760005
 30
0.0
  0
VERTEX
  5
265B
  8
3
 10
146.5166824458
 20
17.14688396250004
 30
0.0
  0
VERTEX
  5
265C
  8
3
 10
146.05
 20
17.10046950740004
 30
0.0
  0
SEQEND
  5
274D
  8
3
  0
LINE
  5
F9A
  8
3
 10
145.3
 20
17.92672585840005
 30
0.0
 11
146.05
 21
18.14323220930004
 31
0.0
  0
LINE
  5
F9B
  8
3
 10
146.8
 20
17.92672585840005
 30
0.0
 11
146.05
 21
18.14323220930004
 31
0.0
  0
LINE
  5
F9C
  8
3
 10
146.05
 20
15.45855345760005
 30
0.0
 11
146.05
 21
16.32457886140004
 31
0.0
  0
LINE
  5
F9D
  8
3
 10
145.3
 20
17.49371315650004
 30
0.0
 11
146.05
 21
17.27720680549994
 31
0.0
  0
LINE
  5
F9E
  8
3
 10
145.3
 20
15.67505980850004
 30
0.0
 11
146.05
 21
15.45855345760005
 31
0.0
  0
LINE
  5
F9F
  8
3
 10
146.8
 20
17.49371315650004
 30
0.0
 11
146.05
 21
17.27720680549994
 31
0.0
  0
LINE
  5
FA0
  8
3
 10
146.8
 20
15.67505980850004
 30
0.0
 11
146.05
 21
15.45855345760005
 31
0.0
  0
CIRCLE
  5
FA1
  8
3
 10
146.05
 20
0.0
 30
0.0
 40
1.0
  0
LINE
  5
FA2
  8
SK3
 10
155.575
 20
4.132579999999948
 30
0.0
 11
155.575
 21
-4.13257999999999
 31
0.0
  0
LINE
  5
FA3
  8
SK3
 10
156.20492
 20
4.762499999999946
 30
0.0
 11
156.20492
 21
-4.762500000000017
 31
0.0
  0
LINE
  5
FA4
  8
SK3
 10
176.149
 20
0.0
 30
0.0
 11
180.975
 21
0.0
 31
0.0
  0
LINE
  5
FA5
  8
SK3
 10
176.149
 20
1.619249999999994
 30
0.0
 11
176.149
 21
0.0
 31
0.0
  0
LINE
  5
FA6
  8
SK3
 10
176.149
 20
0.0
 30
0.0
 11
176.149
 21
-1.619249999999994
 31
0.0
  0
LINE
  5
FA7
  8
SK3
 10
175.895
 20
3.238499999999945
 30
0.0
 11
175.895
 21
-3.238500000000016
 31
0.0
  0
LINE
  5
FA8
  8
SK3
 10
176.149
 20
3.238499999999945
 30
0.0
 11
176.149
 21
1.619249999999994
 31
0.0
  0
LINE
  5
FA9
  8
SK3
 10
176.149
 20
-1.619249999999994
 30
0.0
 11
176.149
 21
-3.238500000000016
 31
0.0
  0
LINE
  5
FAA
  8
SK3
 10
176.149
 20
3.238499999999945
 30
0.0
 11
180.975
 21
3.238499999999945
 31
0.0
  0
LINE
  5
FAB
  8
SK3
 10
176.149
 20
-3.238500000000016
 30
0.0
 11
180.975
 21
-3.238500000000016
 31
0.0
  0
LINE
  5
FAD
  8
3
 10
142.8749999999999
 20
19.58975000000004
 30
0.0
 11
142.8749999999999
 21
12.16024999999995
 31
0.0
  0
LINE
  5
FAE
  8
3
 10
143.7998395106
 20
19.83756000000004
 30
0.0
 11
143.7998395106
 21
11.91244000000005
 31
0.0
  0
LINE
  5
FB0
  8
3
 10
142.8749999999999
 20
-12.16025
 30
0.0
 11
142.8749999999999
 21
-19.58975000000001
 31
0.0
  0
LINE
  5
FB1
  8
3
 10
143.7998395106
 20
-11.91244
 30
0.0
 11
143.7998395106
 21
-19.83756000000001
 31
0.0
  0
POLYLINE
  5
FB2
  8
3
 66
     1
 10
0.0
 20
0.0
 30
0.0
 70
   128
  0
VERTEX
  5
265D
  8
3
 10
146.05
 20
19.33536171870004
 30
0.0
  0
VERTEX
  5
265E
  8
3
 10
145.5129908661
 20
19.29555081210005
 30
0.0
  0
VERTEX
  5
265F
  8
3
 10
145.0365365561
 20
19.17876553829994
 30
0.0
  0
VERTEX
  5
2660
  8
3
 10
144.6733724419
 20
18.99290686570004
 30
0.0
  0
VERTEX
  5
2661
  8
3
 10
144.4650541575
 20
18.75293370829995
 30
0.0
  0
VERTEX
  5
2662
  8
3
 10
144.4356701224
 20
18.48259010959994
 30
0.0
  0
VERTEX
  5
2663
  8
3
 10
144.5875171929
 20
18.21193461210004
 30
0.0
  0
VERTEX
  5
2664
  8
3
 10
144.9035462479
 20
17.97363338500004
 30
0.0
  0
VERTEX
  5
2665
  8
3
 10
145.3494967282
 20
17.79966319570005
 30
0.0
  0
VERTEX
  5
2666
  8
3
 10
145.8747351917
 20
17.71572322920004
 30
0.0
  0
VERTEX
  5
2667
  8
3
 10
146.4185205994
 20
17.73428019759994
 30
0.0
  0
VERTEX
  5
2668
  8
3
 10
146.9201867111
 20
17.85200046690004
 30
0.0
  0
VERTEX
  5
2669
  8
3
 10
147.3249081131
 20
18.05194480480004
 30
0.0
  0
VERTEX
  5
266A
  8
3
 10
147.5867017334
 20
18.30642435650005
 30
0.0
  0
VERTEX
  5
266B
  8
3
 10
147.6749682768
 20
18.58131972380004
 30
0.0
  0
VERTEX
  5
266C
  8
3
 10
147.5804450811
 20
18.84333386680004
 30
0.0
  0
VERTEX
  5
266D
  8
3
 10
147.3143452853
 20
19.06560264790004
 30
0.0
  0
VERTEX
  5
266E
  8
3
 10
146.9054208905
 20
19.22848129459994
 30
0.0
  0
VERTEX
  5
266F
  8
3
 10
146.3993520818
 20
19.31883386080004
 30
0.0
  0
VERTEX
  5
2670
  8
3
 10
146.05
 20
19.33536171870004
 30
0.0
  0
SEQEND
  5
274E
  8
3
  0
POLYLINE
  5
FB3
  8
3
 66
     1
 10
0.0
 20
0.0
 30
0.0
 70
   128
  0
VERTEX
  5
2671
  8
3
 10
146.05
 20
-17.7103617187
 30
0.0
  0
VERTEX
  5
2672
  8
3
 10
145.5129908661
 20
-17.76184738890001
 30
0.0
  0
VERTEX
  5
2673
  8
3
 10
145.0365365561
 20
-17.9085227079
 30
0.0
  0
VERTEX
  5
2674
  8
3
 10
144.6733724419
 20
-18.1294709582
 30
0.0
  0
VERTEX
  5
2675
  8
3
 10
144.4650541575
 20
-18.3943647799
 30
0.0
  0
VERTEX
  5
2676
  8
3
 10
144.4356701224
 20
-18.6685041927
 30
0.0
  0
VERTEX
  5
2677
  8
3
 10
144.5875171929
 20
-18.92029118820001
 30
0.0
  0
VERTEX
  5
2678
  8
3
 10
144.9035462479
 20
-19.12527082540001
 30
0.0
  0
VERTEX
  5
2679
  8
3
 10
145.3494967282
 20
-19.26592380220001
 30
0.0
  0
VERTEX
  5
267A
  8
3
 10
145.8747351917
 20
-19.33124396470001
 30
0.0
  0
VERTEX
  5
267B
  8
3
 10
146.4185205994
 20
-19.3169417431
 30
0.0
  0
VERTEX
  5
267C
  8
3
 10
146.9201867111
 20
-19.22437071120001
 30
0.0
  0
VERTEX
  5
267D
  8
3
 10
147.3249081131
 20
-19.0595331648
 30
0.0
  0
VERTEX
  5
267E
  8
3
 10
147.5867017334
 20
-18.83479239330001
 30
0.0
  0
VERTEX
  5
267F
  8
3
 10
147.6749682768
 20
-18.571165936
 30
0.0
  0
VERTEX
  5
2680
  8
3
 10
147.5804450811
 20
-18.297107857
 30
0.0
  0
VERTEX
  5
2681
  8
3
 10
147.3143452853
 20
-18.0447912062
 30
0.0
  0
VERTEX
  5
2682
  8
3
 10
146.9054208905
 20
-17.8468590234
 30
0.0
  0
VERTEX
  5
2683
  8
3
 10
146.3993520818
 20
-17.7318309865
 30
0.0
  0
VERTEX
  5
2684
  8
3
 10
146.05
 20
-17.7103617187
 30
0.0
  0
SEQEND
  5
274F
  8
3
  0
CIRCLE
  5
FB4
  8
3
 10
146.05
 20
0.0
 30
0.0
 40
1.249999999999943
  0
LINE
  5
FB5
  8
3
 10
145.9
 20
-1.24096736460001
 30
0.0
 11
145.9
 21
-1.25
 31
0.0
  0
LINE
  5
FB6
  8
3
 10
145.9
 20
1.25
 30
0.0
 11
145.9
 21
1.24096736460001
 31
0.0
  0
LINE
  5
FB7
  8
SK3
 10
169.0339745113
 20
-5.0
 30
0.0
 11
169.0339745113
 21
5.000000000000043
 31
0.0
  0
LINE
  5
FB8
  8
SK3
 10
166.9
 20
5.000000000000043
 30
0.0
 11
166.9
 21
-5.0
 31
0.0
  0
LINE
  5
FB9
  8
3
 10
150.85
 20
4.762499999999946
 30
0.0
 11
150.85
 21
-4.762500000000017
 31
0.0
  0
POLYLINE
  5
FBA
  8
3
 66
     1
 10
0.0
 20
0.0
 30
0.0
 70
   128
  0
VERTEX
  5
2685
  8
3
 10
146.05
 20
4.112355261500042
 30
0.0
  0
VERTEX
  5
2686
  8
3
 10
146.4533243646
 20
4.096375736400049
 30
0.0
  0
VERTEX
  5
2687
  8
3
 10
146.810967507
 20
4.04491720459994
 30
0.0
  0
VERTEX
  5
2688
  8
3
 10
147.0941288873
 20
3.946298200200047
 30
0.0
  0
VERTEX
  5
2689
  8
3
 10
147.2643225446
 20
3.790726274300042
 30
0.0
  0
VERTEX
  5
268A
  8
3
 10
147.2943347720999
 20
3.590621123300039
 30
0.0
  0
VERTEX
  5
268B
  8
3
 10
147.1919823487
 20
3.370724205800045
 30
0.0
  0
VERTEX
  5
268C
  8
3
 10
146.9697056336
 20
3.153881953999942
 30
0.0
  0
VERTEX
  5
268D
  8
3
 10
146.6378992186999
 20
2.972764701499941
 30
0.0
  0
VERTEX
  5
268E
  8
3
 10
146.2335148957
 20
2.872747027300036
 30
0.0
  0
VERTEX
  5
268F
  8
3
 10
145.8216942721
 20
2.878468796900037
 30
0.0
  0
VERTEX
  5
2690
  8
3
 10
145.4453472149
 20
2.979436637400042
 30
0.0
  0
VERTEX
  5
2691
  8
3
 10
145.1252443947
 20
3.157617998800035
 30
0.0
  0
VERTEX
  5
2692
  8
3
 10
144.8974561859
 20
3.385442496299945
 30
0.0
  0
VERTEX
  5
2693
  8
3
 10
144.8020582608999
 20
3.615129631999949
 30
0.0
  0
VERTEX
  5
2694
  8
3
 10
144.8453951283
 20
3.806951760300038
 30
0.0
  0
VERTEX
  5
2695
  8
3
 10
145.013333237
 20
3.950284350300038
 30
0.0
  0
VERTEX
  5
2696
  8
3
 10
145.2968580455999
 20
4.046643126200038
 30
0.0
  0
VERTEX
  5
2697
  8
3
 10
145.675021045
 20
4.098657833799948
 30
0.0
  0
VERTEX
  5
2698
  8
3
 10
146.05
 20
4.112355261500042
 30
0.0
  0
SEQEND
  5
2750
  8
3
  0
POLYLINE
  5
FBB
  8
3
 66
     1
 10
0.0
 20
0.0
 30
0.0
 70
   128
  0
VERTEX
  5
2699
  8
3
 10
146.05
 20
-2.862355261499999
 30
0.0
  0
VERTEX
  5
269A
  8
3
 10
146.4533243646
 20
-2.913231849499994
 30
0.0
  0
VERTEX
  5
269B
  8
3
 10
146.810967507
 20
-3.053237592300007
 30
0.0
  0
VERTEX
  5
269C
  8
3
 10
147.0941288873
 20
-3.259061074700014
 30
0.0
  0
VERTEX
  5
269D
  8
3
 10
147.2643225446
 20
-3.494211927700007
 30
0.0
  0
VERTEX
  5
269E
  8
3
 10
147.2943347720999
 20
-3.709494900099997
 30
0.0
  0
VERTEX
  5
269F
  8
3
 10
147.1919823487
 20
-3.879031509700013
 30
0.0
  0
VERTEX
  5
26A0
  8
3
 10
146.9697056336
 20
-4.000428791100006
 30
0.0
  0
VERTEX
  5
26A1
  8
3
 10
146.6378992186999
 20
-4.075885052399997
 30
0.0
  0
VERTEX
  5
26A2
  8
3
 10
146.2335148957
 20
-4.109202559400018
 30
0.0
  0
VERTEX
  5
26A3
  8
3
 10
145.8216942721
 20
-4.107442553499993
 30
0.0
  0
VERTEX
  5
26A4
  8
3
 10
145.4453472149
 20
-4.073463606600001
 30
0.0
  0
VERTEX
  5
26A5
  8
3
 10
145.1252443947
 20
-3.998645388600011
 30
0.0
  0
VERTEX
  5
26A6
  8
3
 10
144.8974561859
 20
-3.869325495100014
 30
0.0
  0
VERTEX
  5
26A7
  8
3
 10
144.8020582608999
 20
-3.686833298200014
 30
0.0
  0
VERTEX
  5
26A8
  8
3
 10
144.8453951283
 20
-3.473144775500003
 30
0.0
  0
VERTEX
  5
26A9
  8
3
 10
145.013333237
 20
-3.251841781100012
 30
0.0
  0
VERTEX
  5
26AA
  8
3
 10
145.2968580455999
 20
-3.049007322500017
 30
0.0
  0
VERTEX
  5
26AB
  8
3
 10
145.675021045
 20
-2.906227213800008
 30
0.0
  0
VERTEX
  5
26AC
  8
3
 10
146.05
 20
-2.862355261499999
 30
0.0
  0
SEQEND
  5
2751
  8
3
  0
LINE
  5
FBC
  8
3
 10
141.2
 20
19.84250000000004
 30
0.0
 11
141.2
 21
11.90750000000004
 31
0.0
  0
LINE
  5
FBD
  8
3
 10
141.2
 20
-11.9075
 30
0.0
 11
141.2
 21
-19.8425
 31
0.0
  0
POLYLINE
  5
FBE
  8
3
 66
     1
 10
0.0
 20
0.0
 30
0.0
 70
   128
  0
VERTEX
  5
26AD
  8
3
 10
146.05
 20
18.01045998100004
 30
0.0
  0
VERTEX
  5
26AE
  8
3
 10
146.5283542904
 20
17.96288468879995
 30
0.0
  0
VERTEX
  5
26AF
  8
3
 10
146.9338834764999
 20
17.82740171920004
 30
0.0
  0
VERTEX
  5
26B0
  8
3
 10
147.2048494156
 20
17.62463712619994
 30
0.0
  0
VERTEX
  5
26B1
  8
3
 10
147.3
 20
17.38545998100004
 30
0.0
  0
VERTEX
  5
26B2
  8
3
 10
147.2048494156
 20
17.14628283580004
 30
0.0
  0
VERTEX
  5
26B3
  8
3
 10
146.9338834764999
 20
16.94351824280004
 30
0.0
  0
VERTEX
  5
26B4
  8
3
 10
146.5283542904
 20
16.80803527320005
 30
0.0
  0
VERTEX
  5
26B5
  8
3
 10
146.05
 20
16.76045998100004
 30
0.0
  0
VERTEX
  5
26B6
  8
3
 10
145.5716457095
 20
16.80803527320005
 30
0.0
  0
VERTEX
  5
26B7
  8
3
 10
145.1661165235
 20
16.94351824280004
 30
0.0
  0
VERTEX
  5
26B8
  8
3
 10
144.8951505844
 20
17.14628283580004
 30
0.0
  0
VERTEX
  5
26B9
  8
3
 10
144.8
 20
17.38545998100004
 30
0.0
  0
VERTEX
  5
26BA
  8
3
 10
144.8951505844
 20
17.62463712619994
 30
0.0
  0
VERTEX
  5
26BB
  8
3
 10
145.1661165235
 20
17.82740171920004
 30
0.0
  0
VERTEX
  5
26BC
  8
3
 10
145.5716457095
 20
17.96288468879995
 30
0.0
  0
VERTEX
  5
26BD
  8
3
 10
146.05
 20
18.01045998100004
 30
0.0
  0
SEQEND
  5
2752
  8
3
  0
ARC
  5
FBF
  8
3
 10
142.4482374071
 20
2.530835233300039
 30
0.0
 40
5.499807044570964
 50
49.08877359770013
 51
51.12560407629995
  0
POLYLINE
  5
FC0
  8
3
 66
     1
 10
0.0
 20
0.0
 30
0.0
 70
   128
  0
VERTEX
  5
26BE
  8
3
 10
146.05
 20
6.687177826500047
 30
0.0
  0
VERTEX
  5
26BF
  8
3
 10
146.2796868973
 20
6.875450701799949
 30
0.0
  0
VERTEX
  5
26C0
  8
3
 10
146.5015520826999
 20
7.036028544700045
 30
0.0
  0
VERTEX
  5
26C1
  8
3
 10
146.7080402035999
 20
7.163443069399946
 30
0.0
  0
VERTEX
  5
26C2
  8
3
 10
146.8921195545
 20
7.253355327000037
 30
0.0
  0
VERTEX
  5
26C3
  8
3
 10
147.0475215341
 20
7.30270346359994
 30
0.0
  0
VERTEX
  5
26C4
  8
3
 10
147.1689541141999
 20
7.309806987400037
 30
0.0
  0
VERTEX
  5
26C5
  8
3
 10
147.252282054
 20
7.274423996600035
 30
0.0
  0
VERTEX
  5
26C6
  8
3
 10
147.2946677204
 20
7.197759416299945
 30
0.0
  0
VERTEX
  5
26C7
  8
3
 10
147.2946677204
 20
7.08242396699994
 30
0.0
  0
VERTEX
  5
26C8
  8
3
 10
147.252282054
 20
6.932345258999945
 30
0.0
  0
VERTEX
  5
26C9
  8
3
 10
147.1689541141999
 20
6.752634042700038
 30
0.0
  0
VERTEX
  5
26CA
  8
3
 10
147.0475215341
 20
6.549410168100039
 30
0.0
  0
VERTEX
  5
26CB
  8
3
 10
146.8921195545
 20
6.329594180500038
 30
0.0
  0
VERTEX
  5
26CC
  8
3
 10
146.7080402035999
 20
6.100671649699947
 30
0.0
  0
VERTEX
  5
26CD
  8
3
 10
146.5015520826999
 20
5.870438257899949
 30
0.0
  0
VERTEX
  5
26CE
  8
3
 10
146.2796868973
 20
5.646734327200036
 30
0.0
  0
VERTEX
  5
26CF
  8
3
 10
146.05
 20
5.437177826500047
 30
0.0
  0
SEQEND
  5
2753
  8
3
  0
ARC
  5
FC1
  8
3
 10
149.9881775137
 20
9.982709960499946
 30
0.0
 40
6.014241806756751
 50
227.1759333214001
 51
229.0948581844999
  0
LINE
  5
FC2
  8
3
 10
145.9
 20
5.571597954799941
 30
0.0
 11
145.9
 21
5.311790333599944
 31
0.0
  0
ARC
  5
FC3
  8
3
 10
142.4482374071
 20
9.59352041960004
 30
0.0
 40
5.499807044493211
 50
308.8743959237
 51
310.9112264022994
  0
POLYLINE
  5
FC4
  8
3
 66
     1
 10
0.0
 20
0.0
 30
0.0
 70
   128
  0
VERTEX
  5
26D0
  8
3
 10
146.05
 20
5.437177826500047
 30
0.0
  0
VERTEX
  5
26D1
  8
3
 10
146.2796868973
 20
5.248904951300048
 30
0.0
  0
VERTEX
  5
26D2
  8
3
 10
146.5015520826999
 20
5.088327108400037
 30
0.0
  0
VERTEX
  5
26D3
  8
3
 10
146.7080402035999
 20
4.960912583700036
 30
0.0
  0
VERTEX
  5
26D4
  8
3
 10
146.8921195545
 20
4.871000326000043
 30
0.0
  0
VERTEX
  5
26D5
  8
3
 10
147.0475215341
 20
4.821652189400041
 30
0.0
  0
VERTEX
  5
26D6
  8
3
 10
147.1689541141999
 20
4.814548665600043
 30
0.0
  0
VERTEX
  5
26D7
  8
3
 10
147.252282054
 20
4.849931656499948
 30
0.0
  0
VERTEX
  5
26D8
  8
3
 10
147.2946677204
 20
4.926596236700036
 30
0.0
  0
VERTEX
  5
26D9
  8
3
 10
147.2946677204
 20
5.041931686099943
 30
0.0
  0
VERTEX
  5
26DA
  8
3
 10
147.252282054
 20
5.192010394100038
 30
0.0
  0
VERTEX
  5
26DB
  8
3
 10
147.1689541141999
 20
5.371721610300042
 30
0.0
  0
VERTEX
  5
26DC
  8
3
 10
147.0475215341
 20
5.574945484899942
 30
0.0
  0
VERTEX
  5
26DD
  8
3
 10
146.8921195545
 20
5.794761472500042
 30
0.0
  0
VERTEX
  5
26DE
  8
3
 10
146.7080402035999
 20
6.023684003299948
 30
0.0
  0
VERTEX
  5
26DF
  8
3
 10
146.5015520826999
 20
6.253917395099947
 30
0.0
  0
VERTEX
  5
26E0
  8
3
 10
146.2796868973
 20
6.477621325900046
 30
0.0
  0
VERTEX
  5
26E1
  8
3
 10
146.05
 20
6.687177826500047
 30
0.0
  0
SEQEND
  5
2754
  8
3
  0
ARC
  5
FC5
  8
3
 10
149.9881775137
 20
2.141645692500049
 30
0.0
 40
6.014241806756751
 50
130.9051418155001
 51
132.8240666786002
  0
LINE
  5
FC6
  8
3
 10
145.9
 20
6.55275769820004
 30
0.0
 11
145.9
 21
6.812565319400036
 31
0.0
  0
POLYLINE
  5
FC7
  8
3
 66
     1
 10
0.0
 20
0.0
 30
0.0
 70
   128
  0
VERTEX
  5
26E2
  8
3
 10
146.05
 20
-16.760459981
 30
0.0
  0
VERTEX
  5
26E3
  8
3
 10
146.5283542904
 20
-16.8080352731
 30
0.0
  0
VERTEX
  5
26E4
  8
3
 10
146.9338834764999
 20
-16.94351824270001
 30
0.0
  0
VERTEX
  5
26E5
  8
3
 10
147.2048494156
 20
-17.14628283570001
 30
0.0
  0
VERTEX
  5
26E6
  8
3
 10
147.3
 20
-17.385459981
 30
0.0
  0
VERTEX
  5
26E7
  8
3
 10
147.2048494156
 20
-17.6246371262
 30
0.0
  0
VERTEX
  5
26E8
  8
3
 10
146.9338834764999
 20
-17.8274017192
 30
0.0
  0
VERTEX
  5
26E9
  8
3
 10
146.5283542904
 20
-17.9628846888
 30
0.0
  0
VERTEX
  5
26EA
  8
3
 10
146.05
 20
-18.010459981
 30
0.0
  0
VERTEX
  5
26EB
  8
3
 10
145.5716457095
 20
-17.9628846888
 30
0.0
  0
VERTEX
  5
26EC
  8
3
 10
145.1661165235
 20
-17.8274017192
 30
0.0
  0
VERTEX
  5
26ED
  8
3
 10
144.8951505844
 20
-17.6246371262
 30
0.0
  0
VERTEX
  5
26EE
  8
3
 10
144.8
 20
-17.385459981
 30
0.0
  0
VERTEX
  5
26EF
  8
3
 10
144.8951505844
 20
-17.14628283570001
 30
0.0
  0
VERTEX
  5
26F0
  8
3
 10
145.1661165235
 20
-16.94351824270001
 30
0.0
  0
VERTEX
  5
26F1
  8
3
 10
145.5716457095
 20
-16.8080352731
 30
0.0
  0
VERTEX
  5
26F2
  8
3
 10
146.05
 20
-16.760459981
 30
0.0
  0
SEQEND
  5
2755
  8
3
  0
ARC
  5
FC8
  8
3
 10
142.4482374071
 20
-2.530835233299996
 30
0.0
 40
5.499807044570987
 50
308.8743959237002
 51
310.9112264022996
  0
LINE
  5
FC9
  8
3
 10
145.9
 20
-6.812565319300006
 30
0.0
 11
145.9
 21
-6.552757698199997
 31
0.0
  0
ARC
  5
FCA
  8
3
 10
149.9881775137
 20
-2.141645692400004
 30
0.0
 40
6.014241806841759
 50
227.1759333214002
 51
229.0948581844999
  0
POLYLINE
  5
FCB
  8
3
 66
     1
 10
0.0
 20
0.0
 30
0.0
 70
   128
  0
VERTEX
  5
26F3
  8
3
 10
146.05
 20
-6.687177826500005
 30
0.0
  0
VERTEX
  5
26F4
  8
3
 10
146.2796868973
 20
-6.477621325800015
 30
0.0
  0
VERTEX
  5
26F5
  8
3
 10
146.5015520826999
 20
-6.253917395100018
 30
0.0
  0
VERTEX
  5
26F6
  8
3
 10
146.7080402035999
 20
-6.023684003299991
 30
0.0
  0
VERTEX
  5
26F7
  8
3
 10
146.8921195545
 20
-5.794761472499999
 30
0.0
  0
VERTEX
  5
26F8
  8
3
 10
147.0475215341
 20
-5.574945484900013
 30
0.0
  0
VERTEX
  5
26F9
  8
3
 10
147.1689541141999
 20
-5.3717216103
 30
0.0
  0
VERTEX
  5
26FA
  8
3
 10
147.252282054
 20
-5.192010393999993
 30
0.0
  0
VERTEX
  5
26FB
  8
3
 10
147.2946677204
 20
-5.041931685999998
 30
0.0
  0
VERTEX
  5
26FC
  8
3
 10
147.2946677204
 20
-4.926596236699993
 30
0.0
  0
VERTEX
  5
26FD
  8
3
 10
147.252282054
 20
-4.849931656400003
 30
0.0
  0
VERTEX
  5
26FE
  8
3
 10
147.1689541141999
 20
-4.814548665500013
 30
0.0
  0
VERTEX
  5
26FF
  8
3
 10
147.0475215341
 20
-4.821652189399998
 30
0.0
  0
VERTEX
  5
2700
  8
3
 10
146.8921195545
 20
-4.871000325900013
 30
0.0
  0
VERTEX
  5
2701
  8
3
 10
146.7080402035999
 20
-4.960912583599992
 30
0.0
  0
VERTEX
  5
2702
  8
3
 10
146.5015520826999
 20
-5.088327108300007
 30
0.0
  0
VERTEX
  5
2703
  8
3
 10
146.2796868973
 20
-5.248904951200018
 30
0.0
  0
VERTEX
  5
2704
  8
3
 10
146.05
 20
-5.437177826500005
 30
0.0
  0
SEQEND
  5
2756
  8
3
  0
ARC
  5
FCC
  8
3
 10
142.4482374071
 20
-9.593520419599997
 30
0.0
 40
5.499807044570986
 50
49.08877359769992
 51
51.12560407629982
  0
LINE
  5
FCD
  8
3
 10
145.9
 20
-5.311790333600015
 30
0.0
 11
145.9
 21
-5.571597954699996
 31
0.0
  0
ARC
  5
FCE
  8
3
 10
149.9881775137
 20
-9.982709960400001
 30
0.0
 40
6.014241806759064
 50
130.9051418155001
 51
132.8240666785997
  0
POLYLINE
  5
FCF
  8
3
 66
     1
 10
0.0
 20
0.0
 30
0.0
 70
   128
  0
VERTEX
  5
2705
  8
3
 10
146.05
 20
-5.437177826500005
 30
0.0
  0
VERTEX
  5
2706
  8
3
 10
146.2796868973
 20
-5.646734327100006
 30
0.0
  0
VERTEX
  5
2707
  8
3
 10
146.5015520826999
 20
-5.870438257899991
 30
0.0
  0
VERTEX
  5
2708
  8
3
 10
146.7080402035999
 20
-6.10067164969999
 30
0.0
  0
VERTEX
  5
2709
  8
3
 10
146.8921195545
 20
-6.32959418050001
 30
0.0
  0
VERTEX
  5
270A
  8
3
 10
147.0475215341
 20
-6.549410168099996
 30
0.0
  0
VERTEX
  5
270B
  8
3
 10
147.1689541141999
 20
-6.752634042700009
 30
0.0
  0
VERTEX
  5
270C
  8
3
 10
147.252282054
 20
-6.9323452589
 30
0.0
  0
VERTEX
  5
270D
  8
3
 10
147.2946677204
 20
-7.082423966899995
 30
0.0
  0
VERTEX
  5
270E
  8
3
 10
147.2946677204
 20
-7.1977594162
 30
0.0
  0
VERTEX
  5
270F
  8
3
 10
147.252282054
 20
-7.274423996499991
 30
0.0
  0
VERTEX
  5
2710
  8
3
 10
147.1689541141999
 20
-7.309806987400009
 30
0.0
  0
VERTEX
  5
2711
  8
3
 10
147.0475215341
 20
-7.302703463600011
 30
0.0
  0
VERTEX
  5
2712
  8
3
 10
146.8921195545
 20
-7.253355327000008
 30
0.0
  0
VERTEX
  5
2713
  8
3
 10
146.7080402035999
 20
-7.163443069300001
 30
0.0
  0
VERTEX
  5
2714
  8
3
 10
146.5015520826999
 20
-7.036028544600015
 30
0.0
  0
VERTEX
  5
2715
  8
3
 10
146.2796868973
 20
-6.875450701700004
 30
0.0
  0
VERTEX
  5
2716
  8
3
 10
146.05
 20
-6.687177826500005
 30
0.0
  0
SEQEND
  5
2757
  8
3
  0
LINE
  5
FD0
  8
3
 10
145.9
 20
-6.552757698199997
 30
0.0
 11
145.9
 21
-6.812565319300006
 31
0.0
  0
LINE
  5
FD1
  8
3
 10
145.9
 20
6.812565319400036
 30
0.0
 11
145.9
 21
6.55275769820004
 31
0.0
  0
LINE
  5
FD2
  8
3
 10
145.9
 20
-5.571597954699996
 30
0.0
 11
145.9
 21
-5.311790333600015
 31
0.0
  0
LINE
  5
FD3
  8
3
 10
145.9
 20
5.311790333599944
 30
0.0
 11
145.9
 21
5.571597954799941
 31
0.0
  0
POLYLINE
  5
FD4
  8
3
 66
     1
 10
0.0
 20
0.0
 30
0.0
 70
   128
  0
VERTEX
  5
2717
  8
3
 10
146.05
 20
-16.8977195074
 30
0.0
  0
VERTEX
  5
2718
  8
3
 10
146.5776366374
 20
-16.9417429985
 30
0.0
  0
VERTEX
  5
2719
  8
3
 10
147.0480956581
 20
-17.0690428435
 30
0.0
  0
VERTEX
  5
271A
  8
3
 10
147.4103955272
 20
-17.26582412890001
 30
0.0
  0
VERTEX
  5
271B
  8
3
 10
147.6252754321
 20
-17.51076254910001
 30
0.0
  0
VERTEX
  5
271C
  8
3
 10
147.6694498011
 20
-17.77731522560001
 30
0.0
  0
VERTEX
  5
271D
  8
3
 10
147.5381316558
 20
-18.0365970399
 30
0.0
  0
VERTEX
  5
271E
  8
3
 10
147.2455513547999
 20
-18.26051078430001
 30
0.0
  0
VERTEX
  5
271F
  8
3
 10
146.8234145136999
 20
-18.4247919302
 30
0.0
  0
VERTEX
  5
2720
  8
3
 10
146.3174662091999
 20
-18.51163806640001
 30
0.0
  0
VERTEX
  5
2721
  8
3
 10
145.7825337908
 20
-18.51163806640001
 30
0.0
  0
VERTEX
  5
2722
  8
3
 10
145.2765854863
 20
-18.4247919302
 30
0.0
  0
VERTEX
  5
2723
  8
3
 10
144.8544486450999
 20
-18.26051078430001
 30
0.0
  0
VERTEX
  5
2724
  8
3
 10
144.5618683442
 20
-18.0365970399
 30
0.0
  0
VERTEX
  5
2725
  8
3
 10
144.4305501989
 20
-17.77731522560001
 30
0.0
  0
VERTEX
  5
2726
  8
3
 10
144.4747245678
 20
-17.51076254910001
 30
0.0
  0
VERTEX
  5
2727
  8
3
 10
144.6896044727999
 20
-17.26582412890001
 30
0.0
  0
VERTEX
  5
2728
  8
3
 10
145.0519043419
 20
-17.0690428435
 30
0.0
  0
VERTEX
  5
2729
  8
3
 10
145.5223633624999
 20
-16.9417429985
 30
0.0
  0
VERTEX
  5
272A
  8
3
 10
146.05
 20
-16.8977195074
 30
0.0
  0
SEQEND
  5
2758
  8
3
  0
POLYLINE
  5
FD5
  8
3
 66
     1
 10
0.0
 20
0.0
 30
0.0
 70
   128
  0
VERTEX
  5
272B
  8
3
 10
146.05
 20
18.52271950739994
 30
0.0
  0
VERTEX
  5
272C
  8
3
 10
146.5776366374
 20
18.47869601630005
 30
0.0
  0
VERTEX
  5
272D
  8
3
 10
147.0480956581
 20
18.35139617130004
 30
0.0
  0
VERTEX
  5
272E
  8
3
 10
147.4103955272
 20
18.15461488590005
 30
0.0
  0
VERTEX
  5
272F
  8
3
 10
147.6252754321
 20
17.90967646569995
 30
0.0
  0
VERTEX
  5
2730
  8
3
 10
147.6694498011
 20
17.64312378919995
 30
0.0
  0
VERTEX
  5
2731
  8
3
 10
147.5381316558
 20
17.38384197490004
 30
0.0
  0
VERTEX
  5
2732
  8
3
 10
147.2455513547999
 20
17.15992823049994
 30
0.0
  0
VERTEX
  5
2733
  8
3
 10
146.8234145136999
 20
16.99564708460004
 30
0.0
  0
VERTEX
  5
2734
  8
3
 10
146.3174662091999
 20
16.90880094840004
 30
0.0
  0
VERTEX
  5
2735
  8
3
 10
145.7825337908
 20
16.90880094840004
 30
0.0
  0
VERTEX
  5
2736
  8
3
 10
145.2765854863
 20
16.99564708460004
 30
0.0
  0
VERTEX
  5
2737
  8
3
 10
144.8544486450999
 20
17.15992823049994
 30
0.0
  0
VERTEX
  5
2738
  8
3
 10
144.5618683442
 20
17.38384197490004
 30
0.0
  0
VERTEX
  5
2739
  8
3
 10
144.4305501989
 20
17.64312378919995
 30
0.0
  0
VERTEX
  5
273A
  8
3
 10
144.4747245678
 20
17.90967646569995
 30
0.0
  0
VERTEX
  5
273B
  8
3
 10
144.6896044727999
 20
18.15461488590005
 30
0.0
  0
VERTEX
  5
273C
  8
3
 10
145.0519043419
 20
18.35139617130004
 30
0.0
  0
VERTEX
  5
273D
  8
3
 10
145.5223633624999
 20
18.47869601630005
 30
0.0
  0
VERTEX
  5
273E
  8
3
 10
146.05
 20
18.52271950739994
 30
0.0
  0
SEQEND
  5
2759
  8
3
  0
LINE
  5
FD6
  8
3
 10
147.2747448713999
 20
-13.38009248840001
 30
0.0
 11
146.8664965809
 21
-13.0914173539
 31
0.0
  0
LINE
  5
FD7
  8
3
 10
145.2335034191
 20
-13.0914173539
 30
0.0
 11
144.8252551286
 21
-13.38009248840001
 31
0.0
  0
LINE
  5
FD8
  8
3
 10
147.55
 20
-17.5699695074
 30
0.0
 11
147.55
 21
-13.81310519030001
 31
0.0
  0
LINE
  5
FD9
  8
3
 10
144.55
 20
-13.81310519030001
 30
0.0
 11
144.55
 21
-17.5699695074
 31
0.0
  0
LINE
  5
FDA
  8
3
 10
144.8252551286
 20
13.38009248850004
 30
0.0
 11
145.2335034191
 21
13.09141735390004
 31
0.0
  0
LINE
  5
FDB
  8
3
 10
146.8664965809
 20
13.09141735390004
 30
0.0
 11
147.2747448713999
 21
13.38009248850004
 31
0.0
  0
LINE
  5
FDC
  8
3
 10
144.55
 20
17.56996950740005
 30
0.0
 11
144.55
 21
13.81310519040004
 31
0.0
  0
LINE
  5
FDD
  8
3
 10
147.55
 20
13.81310519040004
 30
0.0
 11
147.55
 21
17.56996950740005
 31
0.0
  0
LINE
  5
FDE
  8
SK3
 10
156.20492
 20
4.762499999999946
 30
0.0
 11
155.575
 21
4.132579999999948
 31
0.0
  0
LINE
  5
FDF
  8
SK3
 10
155.575
 20
-4.13257999999999
 30
0.0
 11
156.20492
 21
-4.762500000000017
 31
0.0
  0
LINE
  5
FE0
  8
SK3
 10
169.9
 20
4.762499999999946
 30
0.0
 11
156.20492
 21
4.762499999999946
 31
0.0
  0
LINE
  5
FE1
  8
SK3
 10
156.20492
 20
-4.762500000000017
 30
0.0
 11
169.9
 21
-4.762500000000017
 31
0.0
  0
LINE
  5
FE2
  8
SK3
 10
175.895
 20
3.238499999999945
 30
0.0
 11
173.9491128853
 21
0.0
 31
0.0
  0
LINE
  5
FE3
  8
SK3
 10
173.9491128853
 20
0.0
 30
0.0
 11
175.895
 21
-3.238500000000016
 31
0.0
  0
LINE
  5
FE4
  8
SK3
 10
176.149
 20
3.238499999999945
 30
0.0
 11
175.895
 21
3.238499999999945
 31
0.0
  0
LINE
  5
FE5
  8
SK3
 10
175.895
 20
-3.238500000000016
 30
0.0
 11
176.149
 21
-3.238500000000016
 31
0.0
  0
LINE
  5
FEA
  8
3
 10
143.7998395106
 20
19.83756000000004
 30
0.0
 11
142.8749999999999
 21
19.58975000000004
 31
0.0
  0
LINE
  5
FEB
  8
3
 10
142.8749999999999
 20
12.16024999999995
 30
0.0
 11
143.7998395106
 21
11.91244000000005
 31
0.0
  0
LINE
  5
FF2
  8
3
 10
143.7998395106
 20
-11.91244
 30
0.0
 11
142.8749999999999
 21
-12.16025
 31
0.0
  0
LINE
  5
FF3
  8
3
 10
142.8749999999999
 20
-19.58975000000001
 30
0.0
 11
143.7998395106
 21
-19.83756000000001
 31
0.0
  0
LINE
  5
FFD
  8
SK3
 10
169.9
 20
1.25
 30
0.0
 11
152.4
 21
1.25
 31
0.0
  0
LINE
  5
FFE
  8
SK3
 10
152.4
 20
-1.25
 30
0.0
 11
169.9
 21
-1.25
 31
0.0
  0
LINE
  5
FFF
  8
3
 10
145.9
 20
-1.25
 30
0.0
 11
146.05
 21
-1.25
 31
0.0
  0
LINE
  5
1000
  8
3
 10
146.05
 20
1.25
 30
0.0
 11
145.9
 21
1.25
 31
0.0
  0
LINE
  5
1001
  8
SK3
 10
169.9
 20
5.500000049000036
 30
0.0
 11
169.0339745113
 21
5.000000000000043
 31
0.0
  0
LINE
  5
1002
  8
SK3
 10
169.0339745113
 20
-5.0
 30
0.0
 11
169.9
 21
-5.500000048999993
 31
0.0
  0
LINE
  5
1003
  8
SK3
 10
169.0339745113
 20
5.000000000000043
 30
0.0
 11
166.9
 21
5.000000000000043
 31
0.0
  0
LINE
  5
1004
  8
SK3
 10
166.9
 20
-5.0
 30
0.0
 11
169.0339745113
 21
-5.0
 31
0.0
  0
LINE
  5
1005
  8
SK3
 10
166.9
 20
4.762499999999946
 30
0.0
 11
152.4
 21
4.762499999999946
 31
0.0
  0
LINE
  5
1006
  8
SK3
 10
152.4
 20
-4.762500000000017
 30
0.0
 11
166.9
 21
-4.762500000000017
 31
0.0
  0
LINE
  5
1007
  8
3
 10
144.8
 20
4.216400000000036
 30
0.0
 11
0.0
 21
4.216400000000036
 31
0.0
  0
LINE
  5
1008
  8
3
 10
0.0
 20
-4.216399999999993
 30
0.0
 11
144.8
 21
-4.216399999999993
 31
0.0
  0
LINE
  5
1009
  8
3
 10
141.2
 20
19.84250000000004
 30
0.0
 11
138.816085494
 21
15.87500000000004
 31
0.0
  0
LINE
  5
100A
  8
3
 10
138.816085494
 20
15.87500000000004
 30
0.0
 11
141.2
 21
11.90750000000004
 31
0.0
  0
LINE
  5
100B
  8
3
 10
152.4
 20
19.84250000000004
 30
0.0
 11
141.2
 21
19.84250000000004
 31
0.0
  0
LINE
  5
100C
  8
3
 10
141.2
 20
11.90750000000004
 30
0.0
 11
152.4
 21
11.90750000000004
 31
0.0
  0
LINE
  5
100D
  8
3
 10
152.4
 20
-11.9075
 30
0.0
 11
141.2
 21
-11.9075
 31
0.0
  0
LINE
  5
100E
  8
3
 10
141.2
 20
-19.8425
 30
0.0
 11
152.4
 21
-19.8425
 31
0.0
  0
LINE
  5
100F
  8
3
 10
141.2
 20
-11.9075
 30
0.0
 11
138.816085494
 21
-15.875
 31
0.0
  0
LINE
  5
1010
  8
3
 10
138.816085494
 20
-15.875
 30
0.0
 11
141.2
 21
-19.8425
 31
0.0
  0
LINE
  5
1011
  8
3
 10
144.8
 20
17.38545998100004
 30
0.0
 11
144.8
 21
3.649075917000047
 31
0.0
  0
LINE
  5
1012
  8
3
 10
147.3
 20
7.144709581200047
 30
0.0
 11
147.3
 21
17.38545998100004
 31
0.0
  0
LINE
  5
1013
  8
3
 10
147.3
 20
3.647904971099948
 30
0.0
 11
147.3
 21
4.979646071800047
 31
0.0
  0
LINE
  5
1014
  8
3
 10
147.3
 20
-4.979646071700017
 30
0.0
 11
147.3
 21
-3.64790497109999
 31
0.0
  0
LINE
  5
1015
  8
3
 10
147.3
 20
-17.385459981
 30
0.0
 11
147.3
 21
-7.144709581200004
 31
0.0
  0
LINE
  5
1016
  8
3
 10
144.8
 20
-3.649075917000005
 30
0.0
 11
144.8
 21
-17.385459981
 31
0.0
  0
LINE
  5
1017
  8
SK3
 10
169.9
 20
-4.812177826500005
 30
0.0
 11
152.4
 21
-4.812177826500005
 31
0.0
  0
LINE
  5
1018
  8
SK3
 10
152.4
 20
-7.312177826500005
 30
0.0
 11
169.9705915006
 21
-7.312177826500005
 31
0.0
  0
LINE
  5
1019
  8
SK3
 10
169.9705915006
 20
7.312177826500047
 30
0.0
 11
152.4
 21
7.312177826500047
 31
0.0
  0
LINE
  5
101A
  8
SK3
 10
152.4
 20
4.812177826500047
 30
0.0
 11
169.9
 21
4.812177826500047
 31
0.0
  0
LINE
  5
101B
  8
3
 10
147.376806944
 20
-17.2411224137
 30
0.0
 11
147.0706207260999
 21
-17.02461606270001
 31
0.0
  0
LINE
  5
101C
  8
3
 10
145.0293792738
 20
-17.02461606270001
 30
0.0
 11
144.723193056
 21
-17.2411224137
 31
0.0
  0
LINE
  5
101D
  8
3
 10
147.675
 20
-18.57613942500001
 30
0.0
 11
147.675
 21
-17.7102195074
 31
0.0
  0
LINE
  5
101E
  8
3
 10
144.425
 20
-17.7102195074
 30
0.0
 11
144.425
 21
-18.57490299280001
 31
0.0
  0
LINE
  5
101F
  8
3
 10
144.723193056
 20
17.24112241370004
 30
0.0
 11
145.0293792738
 21
17.02461606270005
 31
0.0
  0
LINE
  5
1020
  8
3
 10
147.0706207260999
 20
17.02461606270005
 30
0.0
 11
147.376806944
 21
17.24112241370004
 31
0.0
  0
LINE
  5
1021
  8
3
 10
144.425
 20
18.57490299279995
 30
0.0
 11
144.425
 21
17.71021950739994
 31
0.0
  0
LINE
  5
1022
  8
3
 10
147.675
 20
17.71021950739994
 30
0.0
 11
147.675
 21
18.57613942510004
 31
0.0
  0
LINE
  5
1023
  8
SK1
 10
170.942
 20
4.762499999999946
 30
0.0
 11
170.942
 21
-4.762500000000017
 31
0.0
  0
LINE
  5
1026
  8
1
 10
151.4
 20
21.44999999999995
 30
0.0
 11
151.4
 21
-21.45
 31
0.0
  0
LINE
  5
1027
  8
SK1
 10
152.2136296695
 20
-9.82303901169999
 30
0.0
 11
152.2136296695
 21
9.823039011800049
 31
0.0
  0
LINE
  5
1028
  8
SK1
 10
152.703527618
 20
9.338629669500037
 30
0.0
 11
152.703527618
 21
-9.338629669499994
 31
0.0
  0
LINE
  5
1029
  8
SK1
 10
168.4
 20
9.525000000000048
 30
0.0
 11
168.4
 21
-9.525000000000006
 31
0.0
  0
LINE
  5
12A6
  8
3
 10
152.4
 20
7.312177826500047
 30
0.0
 11
147.3
 21
7.312177826500047
 31
0.0
  0
LINE
  5
12A7
  8
3
 10
152.4
 20
4.812177826500047
 30
0.0
 11
147.0475215341
 21
4.821652189400041
 31
0.0
  0
LINE
  5
12A9
  8
3
 10
152.4
 20
4.762499999999946
 30
0.0
 11
150.85
 21
4.762499999999946
 31
0.0
  0
LINE
  5
12AB
  8
3
 10
152.4
 20
-4.762500000000017
 30
0.0
 11
150.85
 21
-4.762500000000017
 31
0.0
  0
LINE
  5
12AC
  8
3
 10
152.4
 20
-4.812177826500005
 30
0.0
 11
147.3
 21
-4.812177826500005
 31
0.0
  0
LINE
  5
12AD
  8
3
 10
152.4
 20
-7.312177826500005
 30
0.0
 11
147.3
 21
-7.312177826500005
 31
0.0
  0
DIMENSION
  5
12BA
  8
SK2
  2
*D4
 10
201.7042708204854
 20
-21.45
 30
0.0
 11
199.8292708204854
 21
-0.0000000000000284
 31
0.0
 70
    32
  3
ISO-25
 13
151.4
 23
21.44999999999995
 33
0.0
 14
151.4
 24
-21.45
 34
0.0
 50
90.0
1001
ACAD
1000
DSTYLE
1002
{
1070
   287
1070
     5
1070
   144
1040
1.0
1070
   271
1070
     3
1070
   272
1070
     3
1070
   279
1070
     2
1002
}
  0
DIMENSION
  5
12C9
  8
SK2
  2
*D5
 10
191.6987494992547
 20
-9.525000000000007
 30
0.0
 11
189.8237494992547
 21
0.0000000000000195
 31
0.0
 70
    32
  3
ISO-25
 13
168.4
 23
9.525000000000048
 33
0.0
 14
168.4
 24
-9.525000000000006
 34
0.0
 50
90.0
1001
ACAD
1000
DSTYLE
1002
{
1070
   287
1070
     5
1070
   144
1040
1.0
1070
   271
1070
     3
1070
   272
1070
     3
1070
   279
1070
     2
1002
}
  0
LINE
  5
12D8
  8
SK4
 10
180.975
 20
0.0
 30
0.0
 11
152.4
 21
0.0
 31
0.0
  0
LINE
  5
16AE
  8
1
 10
34.27499999999996
 20
-22.22500000000001
 30
0.0
 11
35.05
 21
-21.45
 31
0.0
  0
LINE
  5
16AF
  8
1
 10
35.05
 20
21.44999999999999
 30
0.0
 11
34.27499999999996
 21
22.22499999999999
 31
0.0
  0
LINE
  5
16B0
  8
1
 10
34.27499999999996
 20
0.0
 30
0.0
 11
34.27499999999996
 21
22.22499999999999
 31
0.0
  0
LINE
  5
16B1
  8
1
 10
34.27499999999996
 20
-22.22500000000001
 30
0.0
 11
34.27499999999996
 21
0.0
 31
0.0
  0
LINE
  5
16B2
  8
1
 10
35.05
 20
0.0
 30
0.0
 11
35.05
 21
-21.45
 31
0.0
  0
LINE
  5
16B3
  8
1
 10
35.05
 20
21.44999999999999
 30
0.0
 11
35.05
 21
0.0
 31
0.0
  0
ARC
  5
16E0
  8
NOCUT
 10
20.04999999999998
 20
23.22499999999999
 30
0.0
 40
1.0
 50
180.0
 51
269.9999999999996
  0
LINE
  5
16E1
  8
NOCUT
 10
35.05
 20
21.44999999999999
 30
0.0
 11
34.27499999999996
 21
22.22499999999999
 31
0.0
  0
LINE
  5
16E2
  8
NOCUT
 10
151.4
 20
21.44999999999995
 30
0.0
 11
35.04999999999998
 21
21.44999999999995
 31
0.0
  0
ARC
  5
16E3
  8
NOCUT
 10
151.4
 20
20.44999999999995
 30
0.0
 40
1.0
 50
0.0
 51
90.0
  0
LINE
  5
16E4
  8
NOCUT
 10
152.4
 20
0.0
 30
0.0
 11
152.4
 21
20.44999999999995
 31
0.0
  0
LINE
  5
1959
  8
SK3
 10
-8.25
 20
0.0
 30
0.0
 11
-8.25
 21
6.700000000000004
 31
0.0
  0
LINE
  5
195A
  8
SK3
 10
-8.25
 20
-6.700000000000003
 30
0.0
 11
-8.25
 21
0.0
 31
0.0
  0
LINE
  5
195B
  8
SK3
 10
-6.76491289400002
 20
0.0
 30
0.0
 11
-6.76491289400002
 21
-4.216400000000021
 31
0.0
  0
LINE
  5
195C
  8
SK3
 10
-6.76491289400002
 20
4.216400000000021
 30
0.0
 11
-6.76491289400002
 21
0.0
 31
0.0
  0
LINE
  5
195D
  8
SK3
 10
-8.25
 20
-6.688000000000102
 30
0.0
 11
-6.76491289400002
 21
-4.216400000000021
 31
0.0
  0
LINE
  5
195E
  8
SK3
 10
-6.76491289400002
 20
4.216400000000021
 30
0.0
 11
-8.25
 21
6.687999999999874
 31
0.0
  0
LINE
  5
1963
  8
SK3
 10
0.0
 20
4.216400000000036
 30
0.0
 11
-6.76491289400002
 21
4.216400000000021
 31
0.0
  0
LINE
  5
1964
  8
SK3
 10
0.0
 20
-4.216399999999993
 30
0.0
 11
-6.76491289400002
 21
-4.216400000000021
 31
0.0
  0
ENDSEC
  0
EOF
