  0
SECTION
  2
HEADER
  9
$ACADVER
  1
AC1009
  9
$DWGCODEPAGE
  3
ansi_1252
  9
$INSBASE
 10
0.0
 20
0.0
 30
0.0
  9
$EXTMIN
 10
-68.25000000000003
 20
-48.27109509650273
 30
0.0
  9
$EXTMAX
 10
141.9525020780113
 20
50.83203563714093
 30
0.0
  9
$LIMMIN
 10
0.0
 20
0.0
  9
$LIMMAX
 10
420.0
 20
297.0
  9
$ORTHOMODE
 70
     1
  9
$REGENMODE
 70
     1
  9
$FILLMODE
 70
     1
  9
$QTEXTMODE
 70
     0
  9
$MIRRTEXT
 70
     0
  9
$DRAGMODE
 70
     2
  9
$LTSCALE
 40
1.0
  9
$OSMODE
 70
   279
  9
$ATTMODE
 70
     1
  9
$TEXTSIZE
 40
2.5
  9
$TRACEWID
 40
1.0
  9
$TEXTSTYLE
  7
STANDARD
  9
$CLAYER
  8
0
  9
$CELTYPE
  6
BYLAYER
  9
$CECOLOR
 62
   256
  9
$DIMSCALE
 40
1.0
  9
$DIMASZ
 40
2.5
  9
$DIMEXO
 40
0.625
  9
$DIMDLI
 40
3.75
  9
$DIMRND
 40
0.0
  9
$DIMDLE
 40
0.0
  9
$DIMEXE
 40
1.25
  9
$DIMTP
 40
0.0
  9
$DIMTM
 40
0.0
  9
$DIMTXT
 40
2.5
  9
$DIMCEN
 40
2.5
  9
$DIMTSZ
 40
0.0
  9
$DIMTOL
 70
     0
  9
$DIMLIM
 70
     0
  9
$DIMTIH
 70
     0
  9
$DIMTOH
 70
     0
  9
$DIMSE1
 70
     0
  9
$DIMSE2
 70
     0
  9
$DIMTAD
 70
     1
  9
$DIMZIN
 70
     8
  9
$DIMBLK
  1

  9
$DIMASO
 70
     1
  9
$DIMSHO
 70
     1
  9
$DIMPOST
  1

  9
$DIMAPOST
  1

  9
$DIMALT
 70
     0
  9
$DIMALTD
 70
     3
  9
$DIMALTF
 40
0.03937007874016
  9
$DIMLFAC
 40
1.0
  9
$DIMTOFL
 70
     1
  9
$DIMTVP
 40
0.0
  9
$DIMTIX
 70
     0
  9
$DIMSOXD
 70
     0
  9
$DIMSAH
 70
     0
  9
$DIMBLK1
  1

  9
$DIMBLK2
  1

  9
$DIMSTYLE
  2
ISO-25
  9
$DIMCLRD
 70
     0
  9
$DIMCLRE
 70
     0
  9
$DIMCLRT
 70
     0
  9
$DIMTFAC
 40
1.0
  9
$DIMGAP
 40
0.625
  9
$LUNITS
 70
     2
  9
$LUPREC
 70
     3
  9
$SKETCHINC
 40
1.0
  9
$FILLETRAD
 40
2.0
  9
$AUNITS
 70
     0
  9
$AUPREC
 70
     0
  9
$MENU
  1
.
  9
$ELEVATION
 40
0.0
  9
$PELEVATION
 40
0.0
  9
$THICKNESS
 40
0.0
  9
$LIMCHECK
 70
     0
  9
$CHAMFERA
 40
10.0
  9
$CHAMFERB
 40
10.0
  9
$SKPOLY
 70
     0
  9
$TDCREATE
 40
2455022.429026158
  9
$TDUPDATE
 40
2458696.404587697
  9
$TDINDWG
 40
0.001290463
  9
$TDUSRTIMER
 40
2458701.754405683
  9
$USRTIMER
 70
     1
  9
$ANGBASE
 50
0.0
  9
$ANGDIR
 70
     0
  9
$PDMODE
 70
     0
  9
$PDSIZE
 40
0.0
  9
$PLINEWID
 40
0.0
  9
$COORDS
 70
     1
  9
$SPLFRAME
 70
     0
  9
$SPLINETYPE
 70
     6
  9
$SPLINESEGS
 70
     8
  9
$ATTDIA
 70
     0
  9
$ATTREQ
 70
     1
  9
$HANDLING
 70
     1
  9
$HANDSEED
  5
2530
  9
$SURFTAB1
 70
     6
  9
$SURFTAB2
 70
     6
  9
$SURFTYPE
 70
     6
  9
$SURFU
 70
     6
  9
$SURFV
 70
     6
  9
$UCSNAME
  2

  9
$UCSORG
 10
0.0
 20
0.0
 30
0.0
  9
$UCSXDIR
 10
1.0
 20
0.0
 30
0.0
  9
$UCSYDIR
 10
0.0
 20
1.0
 30
0.0
  9
$PUCSNAME
  2

  9
$PUCSORG
 10
0.0
 20
0.0
 30
0.0
  9
$PUCSXDIR
 10
1.0
 20
0.0
 30
0.0
  9
$PUCSYDIR
 10
0.0
 20
1.0
 30
0.0
  9
$USERI1
 70
     0
  9
$USERI2
 70
     0
  9
$USERI3
 70
     0
  9
$USERI4
 70
     0
  9
$USERI5
 70
     0
  9
$USERR1
 40
0.0
  9
$USERR2
 40
0.0
  9
$USERR3
 40
0.0
  9
$USERR4
 40
0.0
  9
$USERR5
 40
0.0
  9
$WORLDVIEW
 70
     1
  9
$SHADEDGE
 70
     3
  9
$SHADEDIF
 70
    70
  9
$TILEMODE
 70
     1
  9
$MAXACTVP
 70
    64
  9
$PLIMCHECK
 70
     0
  9
$PEXTMIN
 10
1.000000000000000E+20
 20
1.000000000000000E+20
 30
1.000000000000000E+20
  9
$PEXTMAX
 10
-1.000000000000000E+20
 20
-1.000000000000000E+20
 30
-1.000000000000000E+20
  9
$PLIMMIN
 10
0.0
 20
0.0
  9
$PLIMMAX
 10
0.0
 20
0.0
  9
$UNITMODE
 70
     0
  9
$VISRETAIN
 70
     1
  9
$PLINEGEN
 70
     0
  9
$PSLTSCALE
 70
     1
  0
ENDSEC
  0
SECTION
  2
TABLES
  0
TABLE
  2
VPORT
 70
     1
  0
VPORT
  2
*ACTIVE
 70
     0
 10
0.0
 20
0.0
 11
1.0
 21
1.0
 12
160.724186458378
 22
-0.3696149145780367
 13
0.0
 23
0.0
 14
10.0
 24
10.0
 15
10.0
 25
10.0
 16
0.0
 26
0.0
 36
1.0
 17
-134.1869158878504
 27
0.0
 37
0.0
 40
145.0738017588307
 41
1.332880434782609
 42
50.0
 43
0.0
 44
0.0
 50
0.0
 51
0.0
 71
    16
 72
  1000
 73
     1
 74
     3
 75
     0
 76
     0
 77
     0
 78
     0
  0
ENDTAB
  0
TABLE
  2
LTYPE
 70
     6
  0
LTYPE
  2
CONTINUOUS
 70
     0
  3
Solid line
 72
    65
 73
     0
 40
0.0
  0
LTYPE
  2
CENTER
 70
     0
  3
 Center _____  _  _____  _  _____  _  _____  _ 
 72
    65
 73
     4
 40
50.8
 49
31.75
 49
-6.35
 49
6.35
 49
-6.35
  0
LTYPE
  2
DASHED
 70
     0
  3
Dashed __  __  __  __  __  __  __  __  __  __  
 72
    65
 73
     2
 40
19.05
 49
12.7
 49
-6.35
  0
LTYPE
  2
HIDDEN
 70
     0
  3
Hidden __ __ __ __ __ __ __ __ __ __ __ __ __ __
 72
    65
 73
     2
 40
1.905
 49
1.27
 49
-0.635
  0
LTYPE
  2
CENTERX2
 70
     0
  3
Center (2x) ________  __  ________  __  _____
 72
    65
 73
     4
 40
20.32
 49
12.7
 49
-2.54
 49
2.54
 49
-2.54
  0
LTYPE
  2
PHANTOM
 70
     0
  3
Phantom ______  __  __  ______  __  __  ______
 72
    65
 73
     6
 40
12.7
 49
6.35
 49
-1.27
 49
1.27
 49
-1.27
 49
1.27
 49
-1.27
  0
ENDTAB
  0
TABLE
  2
LAYER
 70
    26
  0
LAYER
  2
0
 70
     0
 62
     7
  6
CONTINUOUS
  0
LAYER
  2
1
 70
     0
 62
     4
  6
CONTINUOUS
  0
LAYER
  2
2
 70
     0
 62
     7
  6
CONTINUOUS
  0
LAYER
  2
3
 70
     0
 62
     1
  6
DASHED
  0
LAYER
  2
4
 70
     0
 62
     2
  6
CENTER
  0
LAYER
  2
6
 70
     0
 62
     5
  6
CONTINUOUS
  0
LAYER
  2
7
 70
     0
 62
     5
  6
CONTINUOUS
  0
LAYER
  2
11
 70
     0
 62
     4
  6
CONTINUOUS
  0
LAYER
  2
SK1
 70
     0
 62
     4
  6
CONTINUOUS
  0
LAYER
  2
SK2
 70
     0
 62
     7
  6
CONTINUOUS
  0
LAYER
  2
SK3
 70
     0
 62
     1
  6
DASHED
  0
LAYER
  2
SK4
 70
     0
 62
     2
  6
CENTER
  0
LAYER
  2
SK6
 70
     0
 62
     5
  6
CONTINUOUS
  0
LAYER
  2
SK7
 70
     0
 62
     5
  6
CONTINUOUS
  0
LAYER
  2
SK11
 70
     0
 62
     4
  6
CONTINUOUS
  0
LAYER
  2
CUT
 70
     0
 62
     1
  6
CONTINUOUS
  0
LAYER
  2
NOCUT
 70
     0
 62
    -7
  6
CONTINUOUS
  0
LAYER
  2
SKVIEW1
 70
     0
 62
     4
  6
CONTINUOUS
  0
LAYER
  2
SKVIEW2
 70
     0
 62
     7
  6
CONTINUOUS
  0
LAYER
  2
SKVIEW3
 70
     0
 62
     1
  6
DASHED
  0
LAYER
  2
SKVIEW4
 70
     0
 62
     2
  6
CENTER
  0
LAYER
  2
SKVIEW6
 70
     0
 62
     5
  6
CONTINUOUS
  0
LAYER
  2
SKVIEW7
 70
     0
 62
     5
  6
CONTINUOUS
  0
LAYER
  2
SKVIEW11
 70
     0
 62
     4
  6
CONTINUOUS
  0
LAYER
  2
INFTOTAL
 70
     0
 62
     9
  6
CONTINUOUS
  0
LAYER
  2
DEFPOINTS
 70
     0
 62
     7
  6
CONTINUOUS
  0
ENDTAB
  0
TABLE
  2
STYLE
 70
     1
  0
STYLE
  2
STANDARD
 70
     0
 40
0.0
 41
1.0
 50
0.0
 71
     0
 42
2.5
  3
txt
  4

  0
ENDTAB
  0
TABLE
  2
VIEW
 70
     0
  0
ENDTAB
  0
TABLE
  2
UCS
 70
     0
  0
ENDTAB
  0
TABLE
  2
APPID
 70
     2
  0
APPID
  2
ACAD
 70
     0
  0
APPID
  2
ACAECLAYERSTANDARD
 70
     0
  0
ENDTAB
  0
TABLE
  2
DIMSTYLE
 70
     1
  0
DIMSTYLE
  2
ISO-25
 70
     0
  3

  4

  5

  6

  7

 40
1.0
 41
2.5
 42
0.625
 43
3.75
 44
1.25
 45
0.0
 46
0.0
 47
0.0
 48
0.0
140
2.5
141
2.5
142
0.0
143
0.03937007874016
144
1.0
145
0.0
146
1.0
147
0.625
 71
     0
 72
     0
 73
     0
 74
     0
 75
     0
 76
     0
 77
     1
 78
     8
170
     0
171
     3
172
     1
173
     0
174
     0
175
     0
176
     0
177
     0
178
     0
  0
ENDTAB
  0
ENDSEC
  0
SECTION
  2
BLOCKS
  0
BLOCK
  8
0
  2
$MODEL_SPACE
 70
     0
 10
0.0
 20
0.0
 30
0.0
  3
$MODEL_SPACE
  1

  0
ENDBLK
  5
21
  8
0
  0
BLOCK
 67
     1
  8
0
  2
$PAPER_SPACE
 70
     0
 10
0.0
 20
0.0
 30
0.0
  3
$PAPER_SPACE
  1

  0
ENDBLK
  5
1D
 67
     1
  8
0
  0
BLOCK
  8
0
  2
_FILLED
 70
     0
 10
0.0
 20
0.0
 30
0.0
  3
_FILLED
  1

  0
SOLID
  5
1C4
  8
0
  6
BYBLOCK
 62
     0
 10
0.0
 20
0.0
 30
0.0
 11
-1.0
 21
0.2142857143
 31
0.0
 12
-1.0
 22
-0.2142857143
 32
0.0
 13
-1.0
 23
-0.2142857143
 33
0.0
  0
ENDBLK
  5
1C5
  8
0
  6
BYBLOCK
 62
     0
  0
BLOCK
  8
0
  2
*D1
 70
     1
 10
0.0
 20
0.0
 30
0.0
  3
*D1
  1

  0
LINE
  5
1D3
  8
2
 62
     0
 10
0.0
 20
22.84999999999999
 30
0.0
 11
0.0
 21
55.2486257286738
 31
0.0
  0
LINE
  5
1D4
  8
2
 62
     0
 10
50.79999999999995
 20
45.67499999999998
 30
0.0
 11
50.79999999999995
 21
55.2486257286738
 31
0.0
  0
LINE
  5
1D5
  8
2
 62
     0
 10
2.5
 20
53.9986257286738
 30
0.0
 11
48.29999999999995
 21
53.9986257286738
 31
0.0
  0
SOLID
  5
1D6
  8
2
 62
     0
 10
2.5
 20
54.41529239534047
 30
0.0
 11
2.5
 21
53.58195906200714
 31
0.0
 12
0.0
 22
53.9986257286738
 32
0.0
 13
0.0
 23
53.9986257286738
 33
0.0
  0
SOLID
  5
1D7
  8
2
 62
     0
 10
48.29999999999995
 20
53.58195906200714
 30
0.0
 11
48.29999999999995
 21
54.41529239534047
 31
0.0
 12
50.79999999999995
 22
53.9986257286738
 32
0.0
 13
50.79999999999995
 23
53.9986257286738
 33
0.0
  0
TEXT
  5
1D8
  8
2
  6
CONTINUOUS
 62
     0
 10
21.85833333333331
 20
54.6236257286738
 30
0.0
 40
2.5
  1
50.8
  0
POINT
  5
1D9
  8
DEFPOINTS
 62
     0
 10
0.0
 20
22.22499999999999
 30
0.0
  0
POINT
  5
1DA
  8
DEFPOINTS
 62
     0
 10
50.79999999999995
 20
45.04999999999998
 30
0.0
  0
POINT
  5
1DB
  8
DEFPOINTS
 62
     0
 10
50.79999999999995
 20
53.9986257286738
 30
0.0
  0
ENDBLK
  5
1DD
  8
0
  0
BLOCK
  8
0
  2
*D2
 70
     1
 10
0.0
 20
0.0
 30
0.0
  3
*D2
  1

  0
LINE
  5
211
  8
SK2
 62
     0
 10
0.0
 20
-22.84999999999999
 30
0.0
 11
0.0
 21
-57.86285555782988
 31
0.0
  0
LINE
  5
212
  8
SK2
 62
     0
 10
35.04999999999995
 20
-45.67500000000001
 30
0.0
 11
35.04999999999995
 21
-57.86285555782988
 31
0.0
  0
LINE
  5
213
  8
SK2
 62
     0
 10
2.5
 20
-56.61285555782988
 30
0.0
 11
32.54999999999995
 21
-56.61285555782988
 31
0.0
  0
SOLID
  5
214
  8
SK2
 62
     0
 10
2.5
 20
-56.19618889116322
 30
0.0
 11
2.5
 21
-57.02952222449655
 31
0.0
 12
0.0
 22
-56.61285555782988
 32
0.0
 13
0.0
 23
-56.61285555782988
 33
0.0
  0
SOLID
  5
215
  8
SK2
 62
     0
 10
32.54999999999995
 20
-57.02952222449655
 30
0.0
 11
32.54999999999995
 21
-56.19618889116322
 31
0.0
 12
35.04999999999995
 22
-56.61285555782988
 32
0.0
 13
35.04999999999995
 23
-56.61285555782988
 33
0.0
  0
TEXT
  5
216
  8
SK2
  6
CONTINUOUS
 62
     0
 10
12.73333333333331
 20
-55.98785555782988
 30
0.0
 40
2.5
  1
35.05
  0
POINT
  5
217
  8
DEFPOINTS
 62
     0
 10
0.0
 20
-22.22499999999999
 30
0.0
  0
POINT
  5
218
  8
DEFPOINTS
 62
     0
 10
35.04999999999995
 20
-45.05000000000001
 30
0.0
  0
POINT
  5
219
  8
DEFPOINTS
 62
     0
 10
35.04999999999995
 20
-56.61285555782988
 30
0.0
  0
ENDBLK
  5
21B
  8
0
  0
BLOCK
  8
0
  2
*D3
 70
     1
 10
0.0
 20
0.0
 30
0.0
  3
*D3
  1

  0
LINE
  5
1321
  8
SK2
 62
     0
 10
73.02500000000009
 20
19.04999999999998
 30
0.0
 11
104.0273782492356
 21
19.04999999999998
 31
0.0
  0
LINE
  5
1322
  8
SK2
 62
     0
 10
73.02500000000009
 20
-19.05000000000001
 30
0.0
 11
104.0273782492356
 21
-19.05000000000001
 31
0.0
  0
LINE
  5
1323
  8
SK2
 62
     0
 10
102.7773782492356
 20
16.54999999999998
 30
0.0
 11
102.7773782492356
 21
-16.55000000000001
 31
0.0
  0
SOLID
  5
1324
  8
SK2
 62
     0
 10
103.1940449159022
 20
16.54999999999998
 30
0.0
 11
102.3607115825689
 21
16.54999999999998
 31
0.0
 12
102.7773782492356
 22
19.04999999999998
 32
0.0
 13
102.7773782492356
 23
19.04999999999998
 33
0.0
  0
SOLID
  5
1325
  8
SK2
 62
     0
 10
102.3607115825689
 20
-16.55000000000001
 30
0.0
 11
103.1940449159022
 21
-16.55000000000001
 31
0.0
 12
102.7773782492356
 22
-19.05000000000001
 32
0.0
 13
102.7773782492356
 23
-19.05000000000001
 33
0.0
  0
TEXT
  5
1326
  8
SK2
  6
CONTINUOUS
 62
     0
 10
102.1523782492356
 20
-3.333333333333343
 30
0.0
 40
2.5
  1
38.1
 50
90.0
  0
POINT
  5
1327
  8
DEFPOINTS
 62
     0
 10
72.40000000000009
 20
19.04999999999998
 30
0.0
  0
POINT
  5
1328
  8
DEFPOINTS
 62
     0
 10
72.40000000000009
 20
-19.05000000000001
 30
0.0
  0
POINT
  5
1329
  8
DEFPOINTS
 62
     0
 10
102.7773782492356
 20
-19.05000000000001
 30
0.0
  0
ENDBLK
  5
132B
  8
0
  0
BLOCK
  8
0
  2
*D4
 70
     1
 10
0.0
 20
0.0
 30
0.0
  3
*D4
  1

  0
LINE
  5
1330
  8
SK2
 62
     0
 10
50.42499999999995
 20
46.04999999999998
 30
0.0
 11
121.3245411410551
 21
46.04999999999998
 31
0.0
  0
LINE
  5
1331
  8
SK2
 62
     0
 10
50.42499999999995
 20
-46.05000000000001
 30
0.0
 11
121.3245411410551
 21
-46.05000000000002
 31
0.0
  0
LINE
  5
1332
  8
SK2
 62
     0
 10
120.0745411410551
 20
43.54999999999998
 30
0.0
 11
120.0745411410551
 21
-43.55000000000002
 31
0.0
  0
SOLID
  5
1333
  8
SK2
 62
     0
 10
120.4912078077218
 20
43.54999999999998
 30
0.0
 11
119.6578744743885
 21
43.54999999999998
 31
0.0
 12
120.0745411410551
 22
46.04999999999998
 32
0.0
 13
120.0745411410551
 23
46.04999999999998
 33
0.0
  0
SOLID
  5
1334
  8
SK2
 62
     0
 10
119.6578744743885
 20
-43.55000000000002
 30
0.0
 11
120.4912078077218
 21
-43.55000000000002
 31
0.0
 12
120.0745411410551
 22
-46.05000000000002
 32
0.0
 13
120.0745411410551
 23
-46.05000000000002
 33
0.0
  0
TEXT
  5
1335
  8
SK2
  6
CONTINUOUS
 62
     0
 10
119.4495411410551
 20
-3.333333333333357
 30
0.0
 40
2.5
  1
92.1
 50
90.0
  0
POINT
  5
1336
  8
DEFPOINTS
 62
     0
 10
49.79999999999995
 20
46.04999999999998
 30
0.0
  0
POINT
  5
1337
  8
DEFPOINTS
 62
     0
 10
49.79999999999995
 20
-46.05000000000001
 30
0.0
  0
POINT
  5
1338
  8
DEFPOINTS
 62
     0
 10
120.0745411410551
 20
-46.05000000000002
 30
0.0
  0
ENDBLK
  5
133A
  8
0
  0
ENDSEC
  0
SECTION
  2
ENTITIES
  0
LINE
  5
1B2
  8
4
 10
50.79999999999996
 20
-0.0000000034857197
 30
0.0
 11
0.0
 21
0.0
 31
0.0
  0
DIMENSION
  5
1CF
  8
2
  2
*D1
 10
50.79999999999995
 20
53.9986257286738
 30
0.0
 11
25.39999999999998
 21
55.8736257286738
 31
0.0
 70
    32
  3
ISO-25
 13
0.0
 23
22.22499999999999
 33
0.0
 14
50.79999999999995
 24
45.04999999999998
 34
0.0
  0
DIMENSION
  5
20D
  8
SK2
  2
*D2
 10
35.04999999999995
 20
-56.61285555782988
 30
0.0
 11
17.52499999999998
 21
-54.73785555782988
 31
0.0
 70
    32
  3
ISO-25
 13
0.0
 23
-22.22499999999999
 33
0.0
 14
35.04999999999995
 24
-45.05000000000001
 34
0.0
  0
LINE
  5
364
  8
NOCUT
 10
50.79999999999995
 20
-0.0000000034857197
 30
0.0
 11
0.0
 21
0.0
 31
0.0
  0
LINE
  5
99D
  8
SK3
 10
-66.51794919240001
 20
0.0
 30
0.0
 11
-66.51794919240001
 21
8.149999999999991
 31
0.0
  0
LINE
  5
99E
  8
SK3
 10
-66.51794919240001
 20
-8.149999999999991
 30
0.0
 11
-66.51794919240001
 21
0.0
 31
0.0
  0
LINE
  5
99F
  8
SK3
 10
-63.48000000000002
 20
0.0
 30
0.0
 11
-63.48000000000002
 21
8.149999999999991
 31
0.0
  0
LINE
  5
9A0
  8
SK3
 10
-63.48000000000002
 20
-8.149999999999991
 30
0.0
 11
-63.48000000000002
 21
0.0
 31
0.0
  0
LINE
  5
9BF
  8
SK3
 10
-68.25000000000003
 20
-9.149999999999991
 30
0.0
 11
-66.51794919240001
 21
-8.149999999999991
 31
0.0
  0
LINE
  5
9C0
  8
SK3
 10
-66.51794919240001
 20
8.149999999999991
 30
0.0
 11
-68.25000000000003
 21
9.149999999999991
 31
0.0
  0
LINE
  5
9C1
  8
SK3
 10
-66.51794919240001
 20
-8.149999999999991
 30
0.0
 11
-63.48000000000002
 21
-8.149999999999991
 31
0.0
  0
LINE
  5
9C2
  8
SK3
 10
-63.48000000000002
 20
8.149999999999991
 30
0.0
 11
-66.51794919240001
 21
8.149999999999991
 31
0.0
  0
LINE
  5
9C3
  8
SK3
 10
-63.48000000000002
 20
-6.700000000000003
 30
0.0
 11
-25.75000000000003
 21
-6.700000000000003
 31
0.0
  0
LINE
  5
9C4
  8
SK3
 10
-25.75000000000003
 20
6.700000000000003
 30
0.0
 11
-63.48000000000002
 21
6.700000000000003
 31
0.0
  0
LINE
  5
9E1
  8
0
 10
52.74999999999995
 20
1.999999996514294
 30
0.0
 11
48.75000000000004
 21
-2.000000003485706
 31
0.0
  0
LINE
  5
9E2
  8
0
 10
48.75000000000004
 20
1.999999996514294
 30
0.0
 11
52.74999999999995
 21
-2.000000003485706
 31
0.0
  0
CIRCLE
  5
9E3
  8
0
 10
50.75000000000004
 20
-0.0000000034857054
 30
0.0
 40
1.5
  0
LINE
  5
9E4
  8
0
 10
3.0
 20
3.0
 30
0.0
 11
-3.0
 21
-3.0
 31
0.0
  0
LINE
  5
9E5
  8
0
 10
-3.0
 20
3.0
 30
0.0
 11
3.0
 21
-3.0
 31
0.0
  0
CIRCLE
  5
9E6
  8
0
 10
0.0
 20
0.0
 30
0.0
 40
2.5
  0
LINE
  5
9E7
  8
SK3
 10
-63.48000000000005
 20
-7.937499999800011
 30
0.0
 11
-39.75000000000003
 21
-7.937499999800011
 31
0.0
  0
LINE
  5
9E8
  8
SK3
 10
-39.75000000000003
 20
7.937500000199975
 30
0.0
 11
-39.75000000000003
 21
-7.937499999800011
 31
0.0
  0
LINE
  5
9E9
  8
SK3
 10
-39.75000000000003
 20
7.937500000199975
 30
0.0
 11
-63.48000000000005
 21
7.937500000199975
 31
0.0
  0
ARC
  5
AA1
  8
NOCUT
 10
0.5
 20
22.72499999999999
 30
0.0
 40
0.5
 50
270.0
 51
0.0
  0
LINE
  5
AA4
  8
NOCUT
 10
0.5
 20
22.22499999999999
 30
0.0
 11
0.0
 21
22.22499999999999
 31
0.0
  0
LINE
  5
AA5
  8
NOCUT
 10
33.04999999999998
 20
22.22499999999999
 30
0.0
 11
20.04999999999998
 21
22.22499999999999
 31
0.0
  0
LINE
  5
AA7
  8
NOCUT
 10
14.65616676909997
 20
30.7125381562
 30
0.0
 11
18.54999999999995
 21
30.7125381562
 31
0.0
  0
POLYLINE
  5
AA8
  8
NOCUT
 66
     1
 10
0.0
 20
0.0
 30
0.0
  0
VERTEX
  5
1F7B
  8
NOCUT
 10
18.54999999999995
 20
30.7125381562
 30
0.0
  0
VERTEX
  5
1F7C
  8
NOCUT
 10
18.57284145939997
 20
30.6889245341
 30
0.0
  0
VERTEX
  5
1F7D
  8
NOCUT
 10
19.04999999999995
 20
30.1953638825
 30
0.0
  0
SEQEND
  5
252F
  8
NOCUT
  0
POLYLINE
  5
AA9
  8
NOCUT
 66
     1
 10
0.0
 20
0.0
 30
0.0
  0
VERTEX
  5
1F7E
  8
NOCUT
 10
1.0
 20
30.1953638825
 30
0.0
  0
VERTEX
  5
1F7F
  8
NOCUT
 10
1.477158540600044
 20
30.6889245341
 30
0.0
  0
VERTEX
  5
1F80
  8
NOCUT
 10
1.5
 20
30.7125381562
 30
0.0
  0
SEQEND
  5
252E
  8
NOCUT
  0
LINE
  5
AAA
  8
NOCUT
 10
1.499999999999996
 20
30.7125381562
 30
0.0
 11
7.603833230899966
 21
30.7125381562
 31
0.0
  0
POLYLINE
  5
AAB
  8
NOCUT
 66
     1
 10
0.0
 20
0.0
 30
0.0
  0
VERTEX
  5
1F81
  8
NOCUT
 10
7.603833230899966
 20
30.7125381562
 30
0.0
  0
VERTEX
  5
1F82
  8
NOCUT
 10
9.140787278000005
 20
27.9518236359
 30
0.0
  0
VERTEX
  5
1F83
  8
NOCUT
 10
9.204999999999984
 20
27.8360650174
 30
0.0
  0
SEQEND
  5
252D
  8
NOCUT
  0
POLYLINE
  5
AAC
  8
NOCUT
 66
     1
 10
0.0
 20
0.0
 30
0.0
  0
VERTEX
  5
1F84
  8
NOCUT
 10
13.05499999999995
 20
27.8360650174
 30
0.0
  0
VERTEX
  5
1F85
  8
NOCUT
 10
13.1192127219
 20
27.9518236359
 30
0.0
  0
VERTEX
  5
1F86
  8
NOCUT
 10
14.65616676909997
 20
30.7125381562
 30
0.0
  0
SEQEND
  5
252C
  8
NOCUT
  0
ARC
  5
AAD
  8
NOCUT
 10
12.54226966779999
 20
27.51838423379999
 30
0.0
 40
0.512803993977288
 50
271.4225108534019
 51
0.9711541378997977
  0
ARC
  5
AAE
  8
NOCUT
 10
9.716236145599964
 20
27.5169512018
 30
0.0
 40
0.5113363895821054
 50
178.8654582714003
 51
268.7408767374973
  0
LINE
  5
AAF
  8
NOCUT
 10
9.704999999999984
 20
27.0057382791
 30
0.0
 11
12.55499999999995
 21
27.0057382791
 31
0.0
  0
LINE
  5
AB0
  8
NOCUT
 10
0.0
 20
0.0
 30
0.0
 11
0.0
 21
22.22499999999999
 31
0.0
  0
LINE
  5
ACA
  8
NOCUT
 10
1.0
 20
22.72499999999999
 30
0.0
 11
1.0
 21
30.1953638825
 31
0.0
  0
LINE
  5
ACB
  8
NOCUT
 10
9.204999999999984
 20
27.8360650174
 30
0.0
 11
9.20489975601786
 21
27.5169512018
 31
0.0
  0
LINE
  5
ACC
  8
NOCUT
 10
13.05499999999995
 20
27.8360650174
 30
0.0
 11
13.05507366177728
 21
27.51838423379999
 31
0.0
  0
LINE
  5
ACD
  8
NOCUT
 10
19.04999999999995
 20
30.1953638825
 30
0.0
 11
19.04999999999995
 21
23.22499999999999
 31
0.0
  0
ARC
  5
B91
  8
1
 10
20.04999999999998
 20
-23.22499999999999
 30
0.0
 40
1.0
 50
90.0
 51
180.0
  0
ARC
  5
B93
  8
1
 10
20.04999999999998
 20
23.22499999999999
 30
0.0
 40
1.0
 50
180.0
 51
270.0
  0
ARC
  5
B94
  8
1
 10
0.799999999999983
 20
-22.42500000000001
 30
0.0
 40
0.5
 50
66.42182152179994
 51
90.0
  0
ARC
  5
B95
  8
1
 10
0.799999999999983
 20
22.42499999999998
 30
0.0
 40
0.5
 50
270.0
 51
293.5781784782001
  0
LINE
  5
B96
  8
1
 10
20.04999999999998
 20
-22.22499999999999
 30
0.0
 11
33.04999999999995
 21
-22.22499999999999
 31
0.0
  0
LINE
  5
B97
  8
1
 10
33.04999999999995
 20
22.22499999999999
 30
0.0
 11
20.04999999999998
 21
22.22499999999999
 31
0.0
  0
LINE
  5
B98
  8
1
 10
0.0
 20
-22.22499999999999
 30
0.0
 11
0.2999999999999829
 21
-21.92500000000001
 31
0.0
  0
LINE
  5
B99
  8
1
 10
0.2999999999999829
 20
21.92499999999998
 30
0.0
 11
0.0
 21
22.22499999999999
 31
0.0
  0
LINE
  5
B9C
  8
SK1
 10
0.0
 20
22.22499999999999
 30
0.0
 11
-67.3943082273
 21
12.39657058259999
 31
0.0
  0
LINE
  5
B9D
  8
SK1
 10
-67.3943082273
 20
-12.39657058270001
 30
0.0
 11
0.0
 21
-22.22499999999999
 31
0.0
  0
LINE
  5
B9E
  8
1
 10
0.2999999999999829
 20
-21.92500000000001
 30
0.0
 11
0.799999999999983
 21
-21.92500000000001
 31
0.0
  0
LINE
  5
B9F
  8
1
 10
0.799999999999983
 20
21.92499999999998
 30
0.0
 11
0.2999999999999829
 21
21.92499999999998
 31
0.0
  0
ARC
  5
BA0
  8
SK1
 10
-67.25
 20
-11.4070377962
 30
0.0
 40
1.000000000000014
 50
180.0
 51
261.7027777778003
  0
ARC
  5
BA1
  8
SK1
 10
-67.25
 20
11.40703779609998
 30
0.0
 40
1.000000000000014
 50
98.29722222219964
 51
180.0
  0
LINE
  5
BA2
  8
1
 10
14.6561667922
 20
30.49243725150001
 30
0.0
 11
13.05500004409998
 21
27.5903849293
 31
0.0
  0
LINE
  5
BA3
  8
1
 10
14.65616676899998
 20
-30.51805114620001
 30
0.0
 11
14.65616676899998
 21
30.49243720799998
 31
0.0
  0
LINE
  5
BA4
  8
1
 10
13.05500002099998
 20
-27.61768172550001
 30
0.0
 11
14.65616678619998
 21
-30.51748284710001
 31
0.0
  0
LINE
  5
BA5
  8
1
 10
13.05499999999998
 20
-27.61768156150001
 30
0.0
 11
13.05499999999998
 21
27.5896745586
 31
0.0
  0
LINE
  5
BA6
  8
1
 10
14.65616729029998
 20
-30.5174828113
 30
0.0
 11
14.76217597669998
 21
-30.54092502470002
 31
0.0
  0
LINE
  5
BA7
  8
1
 10
14.69253150219998
 20
30.50268419069999
 30
0.0
 11
14.65616753799998
 21
30.49243719839998
 31
0.0
  0
LINE
  5
BA8
  8
1
 10
18.54999999999998
 20
30.50268419069999
 30
0.0
 11
14.69253150219998
 21
30.50268419069999
 31
0.0
  0
LINE
  5
BA9
  8
1
 10
14.76217597669998
 20
-30.54092502470002
 30
0.0
 11
18.54999999999998
 21
-30.54092502470002
 31
0.0
  0
LINE
  5
BAA
  8
1
 10
9.204999955799991
 20
27.5903849293
 30
0.0
 11
7.603833207699978
 21
30.49243725150001
 31
0.0
  0
LINE
  5
BAB
  8
1
 10
9.204999999999984
 20
-27.6182445954
 30
0.0
 11
9.204999999999984
 21
27.5903848518
 31
0.0
  0
LINE
  5
BAC
  8
1
 10
7.6038332137
 20
-30.51748284710001
 30
0.0
 11
9.204999978799975
 21
-27.61768172539999
 31
0.0
  0
LINE
  5
BAD
  8
1
 10
7.603833230899994
 20
-30.5174828113
 30
0.0
 11
7.603833230899994
 21
30.49194635059999
 31
0.0
  0
LINE
  5
BAE
  8
1
 10
1.0
 20
-29.20362428180002
 30
0.0
 11
1.0
 21
29.22527756419998
 31
0.0
  0
ARC
  5
BAF
  8
1
 10
1.736068826500002
 20
28.83956144390001
 30
0.0
 40
0.8318485490646366
 50
106.4871262675995
 51
152.2338518675996
  0
POLYLINE
  5
BB0
  8
1
 66
     1
 10
0.0
 20
0.0
 30
0.0
  0
VERTEX
  5
1F87
  8
1
 10
1.499991175799977
 20
-29.70136738420001
 30
0.0
  0
VERTEX
  5
1F88
  8
1
 10
1.31486147779998
 20
-29.6078136875
 30
0.0
  0
VERTEX
  5
1F89
  8
1
 10
1.220960437199977
 20
-29.54106786380001
 30
0.0
  0
VERTEX
  5
1F8A
  8
1
 10
1.131120186599986
 20
-29.45918995790001
 30
0.0
  0
VERTEX
  5
1F8B
  8
1
 10
1.068966655699995
 20
-29.38420485969999
 30
0.0
  0
VERTEX
  5
1F8C
  8
1
 10
1.029912598300001
 20
-29.3189781797
 30
0.0
  0
VERTEX
  5
1F8D
  8
1
 10
1.001757060399996
 20
-29.23060659110001
 30
0.0
  0
VERTEX
  5
1F8E
  8
1
 10
1.000001938499992
 20
-29.2054619834
 30
0.0
  0
SEQEND
  5
252B
  8
1
  0
LINE
  5
BB1
  8
1
 10
7.5674684974
 20
30.50268419069999
 30
0.0
 11
4.03465638199998
 21
30.50268419069999
 31
0.0
  0
LINE
  5
BB2
  8
1
 10
7.603832461599978
 20
30.49243719839998
 30
0.0
 11
7.5674684974
 21
30.50268419069999
 31
0.0
  0
LINE
  5
BB3
  8
1
 10
7.497824022700001
 20
-30.54092502470002
 30
0.0
 11
7.603832709099976
 21
-30.5174828113
 31
0.0
  0
LINE
  5
BB4
  8
1
 10
3.987796517999982
 20
-30.54092502470002
 30
0.0
 11
7.497824022700001
 21
-30.54092502470002
 31
0.0
  0
LINE
  5
BB5
  8
1
 10
1.500000037399985
 20
-29.70136454339999
 30
0.0
 11
3.987796517999982
 21
-30.54092512950001
 31
0.0
  0
LINE
  5
BB6
  8
1
 10
4.03465638199998
 20
30.5026843142
 30
0.0
 11
1.499999999899984
 21
29.6372041155
 31
0.0
  0
POLYLINE
  5
BB7
  8
1
 66
     1
 10
0.0
 20
0.0
 30
0.0
  0
VERTEX
  5
1F8F
  8
1
 10
18.81621828999999
 20
-30.4787564463
 30
0.0
  0
VERTEX
  5
1F90
  8
1
 10
18.6790188139
 20
-30.52721612650001
 30
0.0
  0
VERTEX
  5
1F91
  8
1
 10
18.54999999999998
 20
-30.54092502470002
 30
0.0
  0
SEQEND
  5
252A
  8
1
  0
ARC
  5
BB8
  8
1
 10
18.55943835959999
 20
29.86640550269999
 30
0.0
 40
0.6363486869715145
 50
60.60134603479981
 51
90.84984539750005
  0
ARC
  5
BB9
  8
1
 10
18.35098180669999
 20
29.95429978019999
 30
0.0
 40
0.6992094391558102
 50
1.340108450200791
 51
41.85091720829973
  0
LINE
  5
BBA
  8
1
 10
19.04999999999998
 20
29.97065231189998
 30
0.0
 11
19.04999999999998
 21
-29.97065231190001
 31
0.0
  0
ARC
  5
BBB
  8
1
 10
18.33294041069999
 20
-29.9485632036
 30
0.0
 40
0.7173997374297006
 50
312.3495695874001
 51
358.2355544919003
  0
ARC
  5
BBC
  8
1
 10
9.7449695926
 20
27.30906555679999
 30
0.0
 40
0.5407677835436584
 50
176.8865704259999
 51
265.761250323199
  0
ARC
  5
BBD
  8
1
 10
9.7179331838
 20
-27.29360212969999
 30
0.0
 40
0.4775741781478385
 50
91.55181642760164
 51
147.4596417165987
  0
ARC
  5
BBE
  8
1
 10
12.52505146019999
 20
27.30025443439999
 30
0.0
 40
0.5313222205439724
 50
273.2312498579008
 51
4.120929392898505
  0
ARC
  5
BBF
  8
1
 10
12.53972316129997
 20
-27.2977060387
 30
0.0
 40
0.4817452194643697
 50
32.86161398089808
 51
88.18276318630117
  0
LINE
  5
BC0
  8
1
 10
12.55499999999998
 20
26.7697769259
 30
0.0
 11
9.704999999999984
 21
26.7697769259
 31
0.0
  0
LINE
  5
BC1
  8
1
 10
9.704999999999984
 20
-26.81620310549999
 30
0.0
 11
12.55499999999998
 21
-26.81620310549999
 31
0.0
  0
LINE
  5
BC4
  8
1
 10
0.2999999999999829
 20
0.0
 30
0.0
 11
0.2999999999999829
 21
21.92499999999998
 31
0.0
  0
LINE
  5
BC5
  8
1
 10
0.2999999999999829
 20
-21.92500000000001
 30
0.0
 11
0.2999999999999829
 21
0.0
 31
0.0
  0
LINE
  5
BC6
  8
1
 10
0.0
 20
0.0
 30
0.0
 11
0.0
 21
22.22499999999999
 31
0.0
  0
LINE
  5
BC7
  8
1
 10
0.0
 20
-22.22499999999999
 30
0.0
 11
0.0
 21
0.0
 31
0.0
  0
LINE
  5
BC8
  8
1
 10
35.04999999999998
 20
0.0
 30
0.0
 11
35.04999999999998
 21
-21.72499999999999
 31
0.0
  0
LINE
  5
BC9
  8
1
 10
35.04999999999998
 20
21.72499999999999
 30
0.0
 11
35.04999999999998
 21
0.0
 31
0.0
  0
LINE
  5
BCA
  8
SK1
 10
-68.25
 20
0.0
 30
0.0
 11
-68.25
 21
11.40703779609998
 31
0.0
  0
LINE
  5
BCB
  8
SK1
 10
-68.25
 20
-11.4070377962
 30
0.0
 11
-68.25
 21
0.0
 31
0.0
  0
LINE
  5
BCC
  8
1
 10
7.567468496899977
 20
30.50268419069999
 30
0.0
 11
7.6038324612
 21
30.49243719839998
 31
0.0
  0
LINE
  5
BCD
  8
1
 10
3.987796517999982
 20
-30.54092512950001
 30
0.0
 11
1.499999999899984
 21
-29.7013645289
 31
0.0
  0
LINE
  5
BDE
  8
3
 10
1.0
 20
-22.59999999999999
 30
0.0
 11
3.699999999999989
 21
-22.59999999999999
 31
0.0
  0
LINE
  5
BDF
  8
3
 10
1.0
 20
25.02000000000001
 30
0.0
 11
3.699999999999989
 21
25.02000000000001
 31
0.0
  0
LINE
  5
BE8
  8
3
 10
18.25
 20
25.02000000000001
 30
0.0
 11
19.04999999999998
 21
25.02000000000001
 31
0.0
  0
LINE
  5
BFE
  8
3
 10
3.699999999999989
 20
-22.59999999999999
 30
0.0
 11
18.25
 21
-22.59999999999999
 31
0.0
  0
LINE
  5
C08
  8
3
 10
3.699999999999989
 20
25.02000000000001
 30
0.0
 11
18.25
 21
25.02000000000001
 31
0.0
  0
LINE
  5
C10
  8
3
 10
11.13
 20
21.22
 30
0.0
 11
17.47999999999999
 21
21.22
 31
0.0
  0
LINE
  5
C11
  8
3
 10
4.780000000000001
 20
21.22
 30
0.0
 11
11.13
 21
21.22
 31
0.0
  0
LINE
  5
C12
  8
3
 10
11.13
 20
21.21000000000001
 30
0.0
 11
15.88
 21
21.21000000000001
 31
0.0
  0
LINE
  5
C13
  8
3
 10
6.379999999999995
 20
21.21000000000001
 30
0.0
 11
11.13
 21
21.21000000000001
 31
0.0
  0
LINE
  5
C26
  8
3
 10
4.780000000000001
 20
25.02000000000001
 30
0.0
 11
4.780000000000001
 21
21.22
 31
0.0
  0
LINE
  5
C27
  8
3
 10
17.47999999999999
 20
21.22
 30
0.0
 11
17.47999999999999
 21
25.02000000000001
 31
0.0
  0
LINE
  5
C28
  8
3
 10
6.379999999999995
 20
21.22
 30
0.0
 11
6.379999999999995
 21
21.21000000000001
 31
0.0
  0
LINE
  5
C29
  8
3
 10
15.88
 20
21.21000000000001
 30
0.0
 11
15.88
 21
21.22
 31
0.0
  0
LINE
  5
C2A
  8
3
 10
6.379999999999995
 20
21.21000000000001
 30
0.0
 11
11.13
 21
18.3559120596
 31
0.0
  0
LINE
  5
C2B
  8
3
 10
11.13
 20
18.3559120596
 30
0.0
 11
15.88
 21
21.21000000000001
 31
0.0
  0
LINE
  5
C2C
  8
1
 10
20.04999999999998
 20
22.22499999999999
 30
0.0
 11
20.04999999999998
 21
-22.22499999999999
 31
0.0
  0
LINE
  5
C2D
  8
1
 10
0.799999999999983
 20
21.92499999999998
 30
0.0
 11
0.799999999999983
 21
-21.92500000000001
 31
0.0
  0
LINE
  5
C2F
  8
1
 10
9.704999999999984
 20
26.26568698759999
 30
0.0
 11
9.704999999999984
 21
-26.08092552630001
 31
0.0
  0
LINE
  5
C30
  8
1
 10
12.55499999999998
 20
26.26578903699999
 30
0.0
 11
12.55499999999998
 21
-26.08072526110001
 31
0.0
  0
LINE
  5
C31
  8
1
 10
18.54999999999998
 20
30.50268419069999
 30
0.0
 11
18.54999999999998
 21
-30.54092502470002
 31
0.0
  0
LINE
  5
C32
  8
1
 10
1.5
 20
-29.7013645289
 30
0.0
 11
1.5
 21
29.6372041155
 31
0.0
  0
LINE
  5
C92
  8
SK4
 10
0.0
 20
0.0
 30
0.0
 11
-68.25
 21
0.0
 31
0.0
  0
TEXT
  5
D44
  8
SK6
 10
-66.17909534664395
 20
47.33203563714093
 30
0.0
 40
3.5
  1
BIG KAISER
 41
0.85
  0
TEXT
  5
D45
  8
SK6
 10
-66.17909534664395
 20
42.08203563714093
 30
0.0
 40
3.5
  1
BCV40-SMC1.500-2
 41
0.85
  0
INSERT
  5
D46
  8
SK6
  2
_FILLED
 10
-17.9836627818344
 20
-19.60235774778011
 30
0.0
 41
3.5
 42
3.5
 43
3.5
 50
55.49325986033524
  0
POLYLINE
  5
D47
  8
SK6
 66
     1
 10
0.0
 20
0.0
 30
0.0
  0
VERTEX
  5
1F92
  8
SK6
 10
-19.966423916232
 20
-22.48656618059532
 30
0.0
  0
VERTEX
  5
1F93
  8
SK6
 10
-33.4822656830344
 20
-42.14728280658011
 30
0.0
  0
VERTEX
  5
1F94
  8
SK6
 10
-35.35726568303438
 20
-40.39728280658011
 30
0.0
  0
VERTEX
  5
1F95
  8
SK6
 10
-38.85726568303438
 20
-40.39728280658011
 30
0.0
  0
SEQEND
  5
2529
  8
SK6
  0
TEXT
  5
D48
  8
SK6
 10
-53.86143234970106
 20
-43.89728280658011
 30
0.0
 40
3.5
  1
BCV40
 41
0.85
  0
ARC
  5
E7B
  8
NOCUT
 10
20.04999999999998
 20
23.22499999999999
 30
0.0
 40
1.0
 50
180.0
 51
270.0
  0
LINE
  5
F3E
  8
1
 10
50.82856745539993
 20
-25.39869000000002
 30
0.0
 11
50.79999999999995
 21
-25.39869000000002
 31
0.0
  0
LINE
  5
F3F
  8
1
 10
50.79999999999995
 20
-41.28131
 30
0.0
 11
50.82856745539993
 21
-41.28131
 31
0.0
  0
LINE
  5
F40
  8
1
 10
35.04999999999995
 20
-25.57536498450001
 30
0.0
 11
34.74720000000002
 21
-25.65650000000001
 31
0.0
  0
LINE
  5
F41
  8
1
 10
34.74720000000002
 20
-41.02350000000001
 30
0.0
 11
35.04999999999995
 21
-41.10463501550001
 31
0.0
  0
LINE
  5
F42
  8
1
 10
50.82856745539993
 20
41.28130999999999
 30
0.0
 11
50.79999999999995
 21
41.28130999999999
 31
0.0
  0
LINE
  5
F43
  8
1
 10
50.79999999999995
 20
25.39868999999999
 30
0.0
 11
50.82856745539993
 21
25.39868999999999
 31
0.0
  0
LINE
  5
F44
  8
1
 10
35.04999999999995
 20
41.10463501550001
 30
0.0
 11
34.74720000000002
 21
41.02349999999998
 31
0.0
  0
LINE
  5
F45
  8
1
 10
34.74720000000002
 20
25.65649999999999
 30
0.0
 11
35.04999999999995
 21
25.5753649845
 31
0.0
  0
LINE
  5
F46
  8
1
 10
36.04999999999995
 20
-46.05000000000001
 30
0.0
 11
49.79999999999995
 21
-46.05000000000001
 31
0.0
  0
LINE
  5
F47
  8
1
 10
49.79999999999995
 20
46.04999999999998
 30
0.0
 11
36.04999999999995
 21
46.04999999999998
 31
0.0
  0
ARC
  5
F48
  8
1
 10
36.04999999999995
 20
45.04999999999998
 30
0.0
 40
1.0
 50
90.0
 51
180.0
  0
ARC
  5
F49
  8
1
 10
36.04999999999995
 20
-45.05000000000001
 30
0.0
 40
1.0
 50
180.0
 51
270.0
  0
ARC
  5
F4A
  8
1
 10
49.79999999999995
 20
-45.05000000000001
 30
0.0
 40
1.000000000000007
 50
270.0
 51
0.0
  0
ARC
  5
F4B
  8
1
 10
49.79999999999995
 20
45.04999999999998
 30
0.0
 40
1.0
 50
0.0
 51
90.0
  0
ARC
  5
F4C
  8
1
 10
33.04999999999995
 20
24.22499999999999
 30
0.0
 40
2.000000000000007
 50
270.0
 51
0.0
  0
ARC
  5
F4D
  8
1
 10
33.04999999999995
 20
-24.22500000000001
 30
0.0
 40
2.000000000000001
 50
0.0
 51
90.0
  0
LINE
  5
F64
  8
1
 10
30.04999999999995
 20
0.7216878364999957
 30
0.0
 11
28.79999999999995
 21
1.443375672999991
 31
0.0
  0
LINE
  5
F65
  8
1
 10
27.54999999999995
 20
0.7216878364999957
 30
0.0
 11
28.79999999999995
 21
1.443375672999991
 31
0.0
  0
LINE
  5
F66
  8
1
 10
30.04999999999995
 20
-0.7216878365000241
 30
0.0
 11
28.79999999999995
 21
-1.44337567300002
 31
0.0
  0
LINE
  5
F67
  8
1
 10
30.04999999999995
 20
-0.7216878365000241
 30
0.0
 11
30.04999999999995
 21
0.7216878364999957
 31
0.0
  0
CIRCLE
  5
F68
  8
1
 10
28.79999999999995
 20
0.0
 30
0.0
 40
2.055
  0
LINE
  5
F69
  8
1
 10
27.54999999999995
 20
-0.7216878365000241
 30
0.0
 11
28.79999999999995
 21
-1.44337567300002
 31
0.0
  0
LINE
  5
F6A
  8
1
 10
27.54999999999995
 20
-0.7216878365000241
 30
0.0
 11
27.54999999999995
 21
0.7216878364999957
 31
0.0
  0
CIRCLE
  5
F6B
  8
1
 10
28.79999999999995
 20
0.0
 30
0.0
 40
2.256103126841936
  0
CIRCLE
  5
F6C
  8
1
 10
28.79999999999995
 20
0.0
 30
0.0
 40
2.5
  0
LINE
  5
F78
  8
1
 10
34.74720000000002
 20
-25.65650000000001
 30
0.0
 11
34.74720000000002
 21
-41.02350000000001
 31
0.0
  0
LINE
  5
F7C
  8
1
 10
34.74720000000002
 20
41.02349999999998
 30
0.0
 11
34.74720000000002
 21
25.65649999999999
 31
0.0
  0
LINE
  5
F7D
  8
1
 10
35.04999999999995
 20
-45.05000000000001
 30
0.0
 11
35.04999999999995
 21
45.04999999999998
 31
0.0
  0
LINE
  5
F7E
  8
1
 10
50.79999999999995
 20
0.0
 30
0.0
 11
50.79999999999995
 21
45.04999999999998
 31
0.0
  0
LINE
  5
F7F
  8
1
 10
50.79999999999995
 20
-45.05000000000001
 30
0.0
 11
50.79999999999995
 21
0.0
 31
0.0
  0
CIRCLE
  5
F9A
  8
1
 10
28.79999999999995
 20
0.0
 30
0.0
 40
2.625000000000455
  0
POLYLINE
  5
FB8
  8
3
 66
     1
 10
0.0
 20
0.0
 30
0.0
  0
VERTEX
  5
1F96
  8
3
 10
30.31554445660004
 20
-13.6137621764
 30
0.0
  0
VERTEX
  5
1F97
  8
3
 10
30.52341356770012
 20
-13.89932002100002
 30
0.0
  0
VERTEX
  5
1F98
  8
3
 10
30.52341356770012
 20
-14.20320433190003
 30
0.0
  0
VERTEX
  5
1F99
  8
3
 10
30.31554445660004
 20
-14.4887621764
 30
0.0
  0
VERTEX
  5
1F9A
  8
3
 10
29.92487831690005
 20
-14.7215510641
 30
0.0
  0
VERTEX
  5
1F9B
  8
3
 10
29.39853525080002
 20
-14.87349321960002
 30
0.0
  0
VERTEX
  5
1F9C
  8
3
 10
28.79999999999995
 20
-14.9262621764
 30
0.0
  0
VERTEX
  5
1F9D
  8
3
 10
28.20146474920011
 20
-14.87349321960002
 30
0.0
  0
VERTEX
  5
1F9E
  8
3
 10
27.67512168300004
 20
-14.7215510641
 30
0.0
  0
VERTEX
  5
1F9F
  8
3
 10
27.2844555434001
 20
-14.4887621764
 30
0.0
  0
VERTEX
  5
1FA0
  8
3
 10
27.07658643219997
 20
-14.20320433190003
 30
0.0
  0
VERTEX
  5
1FA1
  8
3
 10
27.07658643219997
 20
-13.89932002100002
 30
0.0
  0
VERTEX
  5
1FA2
  8
3
 10
27.2844555434001
 20
-13.6137621764
 30
0.0
  0
VERTEX
  5
1FA3
  8
3
 10
27.67512168300004
 20
-13.38097328870001
 30
0.0
  0
VERTEX
  5
1FA4
  8
3
 10
28.20146474920011
 20
-13.22903113320001
 30
0.0
  0
VERTEX
  5
1FA5
  8
3
 10
28.79999999999995
 20
-13.1762621764
 30
0.0
  0
VERTEX
  5
1FA6
  8
3
 10
29.39853525080002
 20
-13.22903113320001
 30
0.0
  0
VERTEX
  5
1FA7
  8
3
 10
29.92487831690005
 20
-13.38097328870001
 30
0.0
  0
VERTEX
  5
1FA8
  8
3
 10
30.31554445660004
 20
-13.6137621764
 30
0.0
  0
SEQEND
  5
2528
  8
3
  0
POLYLINE
  5
FBB
  8
3
 66
     1
 10
0.0
 20
0.0
 30
0.0
  0
VERTEX
  5
1FA9
  8
3
 10
29.95836637170009
 20
-15.5452418342
 30
0.0
  0
VERTEX
  5
1FAA
  8
3
 10
29.31552153379994
 20
-15.67139083770002
 30
0.0
  0
VERTEX
  5
1FAB
  8
3
 10
28.62687034520013
 20
-15.69719447380001
 30
0.0
  0
VERTEX
  5
1FAC
  8
3
 10
27.95360248630004
 20
-15.62035997620001
 30
0.0
  0
VERTEX
  5
1FAD
  8
3
 10
27.35554076080007
 20
-15.44771442700002
 30
0.0
  0
VERTEX
  5
1FAE
  8
3
 10
26.88582557759992
 20
-15.1945981412
 30
0.0
  0
VERTEX
  5
1FAF
  8
3
 10
26.58619319209993
 20
-14.88350161130001
 30
0.0
  0
VERTEX
  5
1FB0
  8
3
 10
26.48326725650008
 20
-14.54206712940001
 30
0.0
  0
VERTEX
  5
1FB1
  8
3
 10
26.58619319209993
 20
-14.20063264750002
 30
0.0
  0
VERTEX
  5
1FB2
  8
3
 10
26.88582557759992
 20
-13.88953611760002
 30
0.0
  0
VERTEX
  5
1FB3
  8
3
 10
27.35554076080007
 20
-13.6364198318
 30
0.0
  0
VERTEX
  5
1FB4
  8
3
 10
27.95360248630004
 20
-13.46377428260001
 30
0.0
  0
VERTEX
  5
1FB5
  8
3
 10
28.62687034520013
 20
-13.38693978500001
 30
0.0
  0
VERTEX
  5
1FB6
  8
3
 10
29.31552153379994
 20
-13.4127434211
 30
0.0
  0
VERTEX
  5
1FB7
  8
3
 10
29.95836637170009
 20
-13.53889242460002
 30
0.0
  0
VERTEX
  5
1FB8
  8
3
 10
30.4982852741
 20
-13.754177903
 30
0.0
  0
VERTEX
  5
1FB9
  8
3
 10
30.8873040771
 20
-14.0394707968
 30
0.0
  0
VERTEX
  5
1FBA
  8
3
 10
31.09085675279994
 20
-14.36942158030001
 30
0.0
  0
VERTEX
  5
1FBB
  8
3
 10
31.09085675279994
 20
-14.71471267850001
 30
0.0
  0
VERTEX
  5
1FBC
  8
3
 10
30.8873040771
 20
-15.04466346200002
 30
0.0
  0
VERTEX
  5
1FBD
  8
3
 10
30.4982852741
 20
-15.32995635580002
 30
0.0
  0
VERTEX
  5
1FBE
  8
3
 10
29.95836637170009
 20
-15.5452418342
 30
0.0
  0
SEQEND
  5
2527
  8
3
  0
POLYLINE
  5
FBC
  8
3
 66
     1
 10
0.0
 20
0.0
 30
0.0
  0
VERTEX
  5
1FBF
  8
3
 10
27.77250000000004
 20
-13.81094011250002
 30
0.0
  0
VERTEX
  5
1FC0
  8
3
 10
28.40603465139998
 20
-13.6923398056
 30
0.0
  0
VERTEX
  5
1FC1
  8
3
 10
29.08226156130013
 20
-13.6830197729
 30
0.0
  0
VERTEX
  5
1FC2
  8
3
 10
29.72790105130002
 20
-13.78398998470001
 30
0.0
  0
VERTEX
  5
1FC3
  8
3
 10
30.27298806449994
 20
-13.9843087518
 30
0.0
  0
VERTEX
  5
1FC4
  8
3
 10
30.65845396520012
 20
-14.26226842740002
 30
0.0
  0
VERTEX
  5
1FC5
  8
3
 10
30.84252754189993
 20
-14.58774776780001
 30
0.0
  0
VERTEX
  5
1FC6
  8
3
 10
30.80526156630003
 20
-14.92547603610001
 30
0.0
  0
VERTEX
  5
1FC7
  8
3
 10
30.55069438510009
 20
-15.238855134
 30
0.0
  0
VERTEX
  5
1FC8
  8
3
 10
30.10641230250008
 20
-15.49392557370001
 30
0.0
  0
VERTEX
  5
1FC9
  8
3
 10
29.52056017590007
 20
-15.66304651520002
 30
0.0
  0
VERTEX
  5
1FCA
  8
3
 10
28.85662417349999
 20
-15.72789108040001
 30
0.0
  0
VERTEX
  5
1FCB
  8
3
 10
28.18655206340009
 20
-15.6814323543
 30
0.0
  0
VERTEX
  5
1FCC
  8
3
 10
27.58295655579991
 20
-15.52870486100002
 30
0.0
  0
VERTEX
  5
1FCD
  8
3
 10
27.11124658969993
 20
-15.28625899400001
 30
0.0
  0
VERTEX
  5
1FCE
  8
3
 10
26.82253925930013
 20
-14.98036752500002
 30
0.0
  0
VERTEX
  5
1FCF
  8
3
 10
26.74812048369995
 20
-14.64417854110002
 30
0.0
  0
VERTEX
  5
1FD0
  8
3
 10
26.89605469189996
 20
-14.31412333520001
 30
0.0
  0
VERTEX
  5
1FD1
  8
3
 10
27.25031091689993
 20
-14.02596851020002
 30
0.0
  0
VERTEX
  5
1FD2
  8
3
 10
27.77250000000004
 20
-13.81094011250002
 30
0.0
  0
SEQEND
  5
2526
  8
3
  0
POLYLINE
  5
FBD
  8
3
 66
     1
 10
0.0
 20
0.0
 30
0.0
  0
VERTEX
  5
1FD3
  8
3
 10
27.54999999999995
 20
-13.88809635480001
 30
0.0
  0
VERTEX
  5
1FD4
  8
3
 10
28.24369766509994
 20
-13.75196821930001
 30
0.0
  0
VERTEX
  5
1FD5
  8
3
 10
28.98682523389994
 20
-13.72412336300002
 30
0.0
  0
VERTEX
  5
1FD6
  8
3
 10
29.71335256089992
 20
-13.8070359237
 30
0.0
  0
VERTEX
  5
1FD7
  8
3
 10
30.3587245046001
 20
-13.99333875640002
 30
0.0
  0
VERTEX
  5
1FD8
  8
3
 10
30.86559693580011
 20
-14.2664780369
 30
0.0
  0
VERTEX
  5
1FD9
  8
3
 10
31.18893201440005
 20
-14.6021841415
 30
0.0
  0
VERTEX
  5
1FDA
  8
3
 10
31.29999999999995
 20
-14.97062810950001
 30
0.0
  0
VERTEX
  5
1FDB
  8
3
 10
31.18893201440005
 20
-15.33907207750002
 30
0.0
  0
VERTEX
  5
1FDC
  8
3
 10
30.86559693580011
 20
-15.6747781821
 30
0.0
  0
VERTEX
  5
1FDD
  8
3
 10
30.3587245046001
 20
-15.9479174626
 30
0.0
  0
VERTEX
  5
1FDE
  8
3
 10
29.71335256089992
 20
-16.13422029530003
 30
0.0
  0
VERTEX
  5
1FDF
  8
3
 10
28.98682523389994
 20
-16.21713285600001
 30
0.0
  0
VERTEX
  5
1FE0
  8
3
 10
28.24369766509994
 20
-16.18928799970001
 30
0.0
  0
VERTEX
  5
1FE1
  8
3
 10
27.54999999999995
 20
-16.05315986420001
 30
0.0
  0
VERTEX
  5
1FE2
  8
3
 10
26.96737032040005
 20
-15.82084403170001
 30
0.0
  0
VERTEX
  5
1FE3
  8
3
 10
26.5475778302
 20
-15.51298278340002
 30
0.0
  0
VERTEX
  5
1FE4
  8
3
 10
26.32792293440002
 20
-15.15693094220001
 30
0.0
  0
VERTEX
  5
1FE5
  8
3
 10
26.32792293440002
 20
-14.78432527680002
 30
0.0
  0
VERTEX
  5
1FE6
  8
3
 10
26.5475778302
 20
-14.4282734356
 30
0.0
  0
VERTEX
  5
1FE7
  8
3
 10
26.96737032040005
 20
-14.12041218730002
 30
0.0
  0
VERTEX
  5
1FE8
  8
3
 10
27.54999999999995
 20
-13.88809635480001
 30
0.0
  0
SEQEND
  5
2525
  8
3
  0
POLYLINE
  5
FBE
  8
3
 66
     1
 10
0.0
 20
0.0
 30
0.0
  0
VERTEX
  5
1FE9
  8
3
 10
27.54999999999995
 20
-13.96613590610002
 30
0.0
  0
VERTEX
  5
1FEA
  8
3
 10
28.24369766509994
 20
-13.83000777060002
 30
0.0
  0
VERTEX
  5
1FEB
  8
3
 10
28.98682523389994
 20
-13.80216291440001
 30
0.0
  0
VERTEX
  5
1FEC
  8
3
 10
29.71335256089992
 20
-13.88507547510002
 30
0.0
  0
VERTEX
  5
1FED
  8
3
 10
30.3587245046001
 20
-14.07137830780002
 30
0.0
  0
VERTEX
  5
1FEE
  8
3
 10
30.86559693580011
 20
-14.34451758830002
 30
0.0
  0
VERTEX
  5
1FEF
  8
3
 10
31.18893201440005
 20
-14.6802236929
 30
0.0
  0
VERTEX
  5
1FF0
  8
3
 10
31.29999999999995
 20
-15.04866766090001
 30
0.0
  0
VERTEX
  5
1FF1
  8
3
 10
31.18893201440005
 20
-15.41711162890002
 30
0.0
  0
VERTEX
  5
1FF2
  8
3
 10
30.86559693580011
 20
-15.75281773340001
 30
0.0
  0
VERTEX
  5
1FF3
  8
3
 10
30.3587245046001
 20
-16.025957014
 30
0.0
  0
VERTEX
  5
1FF4
  8
3
 10
29.71335256089992
 20
-16.21225984670002
 30
0.0
  0
VERTEX
  5
1FF5
  8
3
 10
28.98682523389994
 20
-16.29517240730002
 30
0.0
  0
VERTEX
  5
1FF6
  8
3
 10
28.24369766509994
 20
-16.26732755110001
 30
0.0
  0
VERTEX
  5
1FF7
  8
3
 10
27.54999999999995
 20
-16.13119941560001
 30
0.0
  0
VERTEX
  5
1FF8
  8
3
 10
26.96737032040005
 20
-15.8988835831
 30
0.0
  0
VERTEX
  5
1FF9
  8
3
 10
26.5475778302
 20
-15.59102233480002
 30
0.0
  0
VERTEX
  5
1FFA
  8
3
 10
26.32792293440002
 20
-15.2349704936
 30
0.0
  0
VERTEX
  5
1FFB
  8
3
 10
26.32792293440002
 20
-14.8623648281
 30
0.0
  0
VERTEX
  5
1FFC
  8
3
 10
26.5475778302
 20
-14.506312987
 30
0.0
  0
VERTEX
  5
1FFD
  8
3
 10
26.96737032040005
 20
-14.19845173870002
 30
0.0
  0
VERTEX
  5
1FFE
  8
3
 10
27.54999999999995
 20
-13.96613590610002
 30
0.0
  0
SEQEND
  5
2524
  8
3
  0
POLYLINE
  5
FBF
  8
3
 66
     1
 10
0.0
 20
0.0
 30
0.0
  0
VERTEX
  5
1FFF
  8
3
 10
27.77250000000004
 20
-14.4286734531
 30
0.0
  0
VERTEX
  5
2000
  8
3
 10
28.40603465139998
 20
-14.31007314620001
 30
0.0
  0
VERTEX
  5
2001
  8
3
 10
29.08226156130013
 20
-14.30075311350001
 30
0.0
  0
VERTEX
  5
2002
  8
3
 10
29.72790105130002
 20
-14.40172332530003
 30
0.0
  0
VERTEX
  5
2003
  8
3
 10
30.27298806449994
 20
-14.60204209240001
 30
0.0
  0
VERTEX
  5
2004
  8
3
 10
30.65845396520012
 20
-14.880001768
 30
0.0
  0
VERTEX
  5
2005
  8
3
 10
30.84252754189993
 20
-15.20548110840002
 30
0.0
  0
VERTEX
  5
2006
  8
3
 10
30.80526156630003
 20
-15.54320937670002
 30
0.0
  0
VERTEX
  5
2007
  8
3
 10
30.55069438510009
 20
-15.85658847460002
 30
0.0
  0
VERTEX
  5
2008
  8
3
 10
30.10641230250008
 20
-16.11165891430002
 30
0.0
  0
VERTEX
  5
2009
  8
3
 10
29.52056017590007
 20
-16.28077985580001
 30
0.0
  0
VERTEX
  5
200A
  8
3
 10
28.85662417349999
 20
-16.345624421
 30
0.0
  0
VERTEX
  5
200B
  8
3
 10
28.18655206340009
 20
-16.29916569490001
 30
0.0
  0
VERTEX
  5
200C
  8
3
 10
27.58295655579991
 20
-16.14643820160001
 30
0.0
  0
VERTEX
  5
200D
  8
3
 10
27.11124658969993
 20
-15.90399233460002
 30
0.0
  0
VERTEX
  5
200E
  8
3
 10
26.82253925930013
 20
-15.5981008656
 30
0.0
  0
VERTEX
  5
200F
  8
3
 10
26.74812048369995
 20
-15.2619118817
 30
0.0
  0
VERTEX
  5
2010
  8
3
 10
26.89605469189996
 20
-14.93185667580002
 30
0.0
  0
VERTEX
  5
2011
  8
3
 10
27.25031091689993
 20
-14.6437018508
 30
0.0
  0
VERTEX
  5
2012
  8
3
 10
27.77250000000004
 20
-14.4286734531
 30
0.0
  0
SEQEND
  5
2523
  8
3
  0
POLYLINE
  5
FC0
  8
3
 66
     1
 10
0.0
 20
0.0
 30
0.0
  0
VERTEX
  5
2013
  8
3
 10
30.21450320400004
 20
-14.55768440490002
 30
0.0
  0
VERTEX
  5
2014
  8
3
 10
30.3587245046001
 20
-14.611072097
 30
0.0
  0
VERTEX
  5
2015
  8
3
 10
30.86559693580011
 20
-14.88421137750001
 30
0.0
  0
VERTEX
  5
2016
  8
3
 10
31.18893201440005
 20
-15.21991748210002
 30
0.0
  0
VERTEX
  5
2017
  8
3
 10
31.29999999999995
 20
-15.58836145010002
 30
0.0
  0
VERTEX
  5
2018
  8
3
 10
31.18893201440005
 20
-15.9568054181
 30
0.0
  0
VERTEX
  5
2019
  8
3
 10
30.86559693580011
 20
-16.29251152270001
 30
0.0
  0
VERTEX
  5
201A
  8
3
 10
30.3587245046001
 20
-16.56565080320001
 30
0.0
  0
VERTEX
  5
201B
  8
3
 10
29.71335256089992
 20
-16.75195363590001
 30
0.0
  0
VERTEX
  5
201C
  8
3
 10
28.98682523389994
 20
-16.83486619660002
 30
0.0
  0
VERTEX
  5
201D
  8
3
 10
28.24369766509994
 20
-16.8070213403
 30
0.0
  0
VERTEX
  5
201E
  8
3
 10
27.54999999999995
 20
-16.67089320480002
 30
0.0
  0
VERTEX
  5
201F
  8
3
 10
26.96737032040005
 20
-16.43857737230002
 30
0.0
  0
VERTEX
  5
2020
  8
3
 10
26.5475778302
 20
-16.130716124
 30
0.0
  0
VERTEX
  5
2021
  8
3
 10
26.32792293440002
 20
-15.77466428280002
 30
0.0
  0
VERTEX
  5
2022
  8
3
 10
26.32792293440002
 20
-15.4020586174
 30
0.0
  0
VERTEX
  5
2023
  8
3
 10
26.5475778302
 20
-15.04600677620002
 30
0.0
  0
VERTEX
  5
2024
  8
3
 10
26.96737032040005
 20
-14.7381455279
 30
0.0
  0
VERTEX
  5
2025
  8
3
 10
27.54999999999995
 20
-14.50582969540002
 30
0.0
  0
VERTEX
  5
2026
  8
3
 10
27.54999999999995
 20
-14.50582969540002
 30
0.0
  0
SEQEND
  5
2522
  8
3
  0
POLYLINE
  5
FC1
  8
3
 66
     1
 10
0.0
 20
0.0
 30
0.0
  0
VERTEX
  5
2027
  8
3
 10
27.54999999999995
 20
-14.5838692467
 30
0.0
  0
VERTEX
  5
2028
  8
3
 10
28.24369766509994
 20
-14.4477411112
 30
0.0
  0
VERTEX
  5
2029
  8
3
 10
28.98682523389994
 20
-14.419896255
 30
0.0
  0
VERTEX
  5
202A
  8
3
 10
29.71335256089992
 20
-14.50280881570001
 30
0.0
  0
VERTEX
  5
202B
  8
3
 10
30.3587245046001
 20
-14.6891116484
 30
0.0
  0
VERTEX
  5
202C
  8
3
 10
30.86559693580011
 20
-14.9622509289
 30
0.0
  0
VERTEX
  5
202D
  8
3
 10
31.18893201440005
 20
-15.29795703350001
 30
0.0
  0
VERTEX
  5
202E
  8
3
 10
31.29999999999995
 20
-15.66640100150002
 30
0.0
  0
VERTEX
  5
202F
  8
3
 10
31.18893201440005
 20
-16.0348449695
 30
0.0
  0
VERTEX
  5
2030
  8
3
 10
30.86559693580011
 20
-16.37055107410001
 30
0.0
  0
VERTEX
  5
2031
  8
3
 10
30.3587245046001
 20
-16.64369035460001
 30
0.0
  0
VERTEX
  5
2032
  8
3
 10
29.71335256089992
 20
-16.8299931873
 30
0.0
  0
VERTEX
  5
2033
  8
3
 10
28.98682523389994
 20
-16.9129057479
 30
0.0
  0
VERTEX
  5
2034
  8
3
 10
28.24369766509994
 20
-16.88506089170002
 30
0.0
  0
VERTEX
  5
2035
  8
3
 10
27.54999999999995
 20
-16.74893275620002
 30
0.0
  0
VERTEX
  5
2036
  8
3
 10
26.96737032040005
 20
-16.51661692370001
 30
0.0
  0
VERTEX
  5
2037
  8
3
 10
26.5475778302
 20
-16.2087556754
 30
0.0
  0
VERTEX
  5
2038
  8
3
 10
26.32792293440002
 20
-15.85270383420001
 30
0.0
  0
VERTEX
  5
2039
  8
3
 10
26.32792293440002
 20
-15.4800981688
 30
0.0
  0
VERTEX
  5
203A
  8
3
 10
26.5475778302
 20
-15.12404632760001
 30
0.0
  0
VERTEX
  5
203B
  8
3
 10
26.96737032040005
 20
-14.8161850793
 30
0.0
  0
VERTEX
  5
203C
  8
3
 10
27.54999999999995
 20
-14.5838692467
 30
0.0
  0
SEQEND
  5
2521
  8
3
  0
POLYLINE
  5
FC2
  8
3
 66
     1
 10
0.0
 20
0.0
 30
0.0
  0
VERTEX
  5
203D
  8
3
 10
27.77250000000004
 20
-15.04640679370002
 30
0.0
  0
VERTEX
  5
203E
  8
3
 10
28.40603465139998
 20
-14.92780648680002
 30
0.0
  0
VERTEX
  5
203F
  8
3
 10
29.08226156130013
 20
-14.91848645410002
 30
0.0
  0
VERTEX
  5
2040
  8
3
 10
29.72790105130002
 20
-15.01945666590001
 30
0.0
  0
VERTEX
  5
2041
  8
3
 10
30.27298806449994
 20
-15.21977543300002
 30
0.0
  0
VERTEX
  5
2042
  8
3
 10
30.65845396520012
 20
-15.49773510860001
 30
0.0
  0
VERTEX
  5
2043
  8
3
 10
30.84252754189993
 20
-15.82321444900001
 30
0.0
  0
VERTEX
  5
2044
  8
3
 10
30.80526156630003
 20
-16.1609427173
 30
0.0
  0
VERTEX
  5
2045
  8
3
 10
30.55069438510009
 20
-16.4743218152
 30
0.0
  0
VERTEX
  5
2046
  8
3
 10
30.10641230250008
 20
-16.72939225490001
 30
0.0
  0
VERTEX
  5
2047
  8
3
 10
29.52056017590007
 20
-16.89851319640002
 30
0.0
  0
VERTEX
  5
2048
  8
3
 10
28.85662417349999
 20
-16.96335776160001
 30
0.0
  0
VERTEX
  5
2049
  8
3
 10
28.18655206340009
 20
-16.91689903550002
 30
0.0
  0
VERTEX
  5
204A
  8
3
 10
27.58295655579991
 20
-16.76417154220002
 30
0.0
  0
VERTEX
  5
204B
  8
3
 10
27.11124658969993
 20
-16.5217256752
 30
0.0
  0
VERTEX
  5
204C
  8
3
 10
26.82253925930013
 20
-16.21583420620001
 30
0.0
  0
VERTEX
  5
204D
  8
3
 10
26.74812048369995
 20
-15.87964522230001
 30
0.0
  0
VERTEX
  5
204E
  8
3
 10
26.89605469189996
 20
-15.5495900164
 30
0.0
  0
VERTEX
  5
204F
  8
3
 10
27.25031091689993
 20
-15.26143519140001
 30
0.0
  0
VERTEX
  5
2050
  8
3
 10
27.77250000000004
 20
-15.04640679370002
 30
0.0
  0
SEQEND
  5
2520
  8
3
  0
POLYLINE
  5
FC3
  8
3
 66
     1
 10
0.0
 20
0.0
 30
0.0
  0
VERTEX
  5
2051
  8
3
 10
27.54999999999995
 20
-15.12356303600001
 30
0.0
  0
VERTEX
  5
2052
  8
3
 10
28.24369766509994
 20
-14.98743490050001
 30
0.0
  0
VERTEX
  5
2053
  8
3
 10
28.98682523389994
 20
-14.95959004420001
 30
0.0
  0
VERTEX
  5
2054
  8
3
 10
29.71335256089992
 20
-15.04250260490002
 30
0.0
  0
VERTEX
  5
2055
  8
3
 10
30.3587245046001
 20
-15.22880543760002
 30
0.0
  0
VERTEX
  5
2056
  8
3
 10
30.86559693580011
 20
-15.50194471810002
 30
0.0
  0
VERTEX
  5
2057
  8
3
 10
31.18893201440005
 20
-15.8376508227
 30
0.0
  0
VERTEX
  5
2058
  8
3
 10
31.29999999999995
 20
-16.20609479070001
 30
0.0
  0
VERTEX
  5
2059
  8
3
 10
31.18893201440005
 20
-16.57453875870002
 30
0.0
  0
VERTEX
  5
205A
  8
3
 10
30.86559693580011
 20
-16.91024486330002
 30
0.0
  0
VERTEX
  5
205B
  8
3
 10
30.3587245046001
 20
-17.1833841438
 30
0.0
  0
VERTEX
  5
205C
  8
3
 10
29.71335256089992
 20
-17.36968697650002
 30
0.0
  0
VERTEX
  5
205D
  8
3
 10
28.98682523389994
 20
-17.4525995372
 30
0.0
  0
VERTEX
  5
205E
  8
3
 10
28.24369766509994
 20
-17.42475468090001
 30
0.0
  0
VERTEX
  5
205F
  8
3
 10
27.54999999999995
 20
-17.28862654550002
 30
0.0
  0
VERTEX
  5
2060
  8
3
 10
26.96737032040005
 20
-17.0563107129
 30
0.0
  0
VERTEX
  5
2061
  8
3
 10
26.5475778302
 20
-16.74844946460001
 30
0.0
  0
VERTEX
  5
2062
  8
3
 10
26.32792293440002
 20
-16.3923976234
 30
0.0
  0
VERTEX
  5
2063
  8
3
 10
26.32792293440002
 20
-16.01979195800001
 30
0.0
  0
VERTEX
  5
2064
  8
3
 10
26.5475778302
 20
-15.6637401168
 30
0.0
  0
VERTEX
  5
2065
  8
3
 10
26.96737032040005
 20
-15.35587886850001
 30
0.0
  0
VERTEX
  5
2066
  8
3
 10
27.54999999999995
 20
-15.12356303600001
 30
0.0
  0
SEQEND
  5
251F
  8
3
  0
POLYLINE
  5
FC4
  8
3
 66
     1
 10
0.0
 20
0.0
 30
0.0
  0
VERTEX
  5
2067
  8
3
 10
27.54999999999995
 20
-15.20160258730002
 30
0.0
  0
VERTEX
  5
2068
  8
3
 10
28.24369766509994
 20
-15.0654744519
 30
0.0
  0
VERTEX
  5
2069
  8
3
 10
28.98682523389994
 20
-15.03762959560001
 30
0.0
  0
VERTEX
  5
206A
  8
3
 10
29.71335256089992
 20
-15.12054215630002
 30
0.0
  0
VERTEX
  5
206B
  8
3
 10
30.3587245046001
 20
-15.30684498900001
 30
0.0
  0
VERTEX
  5
206C
  8
3
 10
30.86559693580011
 20
-15.57998426950002
 30
0.0
  0
VERTEX
  5
206D
  8
3
 10
31.18893201440005
 20
-15.91569037410002
 30
0.0
  0
VERTEX
  5
206E
  8
3
 10
31.29999999999995
 20
-16.2841343421
 30
0.0
  0
VERTEX
  5
206F
  8
3
 10
31.18893201440005
 20
-16.65257831010001
 30
0.0
  0
VERTEX
  5
2070
  8
3
 10
30.86559693580011
 20
-16.98828441470002
 30
0.0
  0
VERTEX
  5
2071
  8
3
 10
30.3587245046001
 20
-17.26142369520002
 30
0.0
  0
VERTEX
  5
2072
  8
3
 10
29.71335256089992
 20
-17.44772652790002
 30
0.0
  0
VERTEX
  5
2073
  8
3
 10
28.98682523389994
 20
-17.5306390886
 30
0.0
  0
VERTEX
  5
2074
  8
3
 10
28.24369766509994
 20
-17.5027942323
 30
0.0
  0
VERTEX
  5
2075
  8
3
 10
27.54999999999995
 20
-17.3666660968
 30
0.0
  0
VERTEX
  5
2076
  8
3
 10
26.96737032040005
 20
-17.13435026430002
 30
0.0
  0
VERTEX
  5
2077
  8
3
 10
26.5475778302
 20
-16.82648901600001
 30
0.0
  0
VERTEX
  5
2078
  8
3
 10
26.32792293440002
 20
-16.47043717480003
 30
0.0
  0
VERTEX
  5
2079
  8
3
 10
26.32792293440002
 20
-16.09783150940001
 30
0.0
  0
VERTEX
  5
207A
  8
3
 10
26.5475778302
 20
-15.7417796682
 30
0.0
  0
VERTEX
  5
207B
  8
3
 10
26.96737032040005
 20
-15.43391841990001
 30
0.0
  0
VERTEX
  5
207C
  8
3
 10
27.54999999999995
 20
-15.20160258730002
 30
0.0
  0
SEQEND
  5
251E
  8
3
  0
POLYLINE
  5
FC5
  8
3
 66
     1
 10
0.0
 20
0.0
 30
0.0
  0
VERTEX
  5
207D
  8
3
 10
27.77250000000004
 20
-15.6641401343
 30
0.0
  0
VERTEX
  5
207E
  8
3
 10
28.40603465139998
 20
-15.54553982740001
 30
0.0
  0
VERTEX
  5
207F
  8
3
 10
29.08226156130013
 20
-15.5362197947
 30
0.0
  0
VERTEX
  5
2080
  8
3
 10
29.72790105130002
 20
-15.63719000650002
 30
0.0
  0
VERTEX
  5
2081
  8
3
 10
30.27298806449994
 20
-15.83750877360001
 30
0.0
  0
VERTEX
  5
2082
  8
3
 10
30.65845396520012
 20
-16.11546844920002
 30
0.0
  0
VERTEX
  5
2083
  8
3
 10
30.84252754189993
 20
-16.44094778960002
 30
0.0
  0
VERTEX
  5
2084
  8
3
 10
30.80526156630003
 20
-16.77867605790001
 30
0.0
  0
VERTEX
  5
2085
  8
3
 10
30.55069438510009
 20
-17.09205515580001
 30
0.0
  0
VERTEX
  5
2086
  8
3
 10
30.10641230250008
 20
-17.34712559550002
 30
0.0
  0
VERTEX
  5
2087
  8
3
 10
29.52056017590007
 20
-17.516246537
 30
0.0
  0
VERTEX
  5
2088
  8
3
 10
28.85662417349999
 20
-17.58109110220002
 30
0.0
  0
VERTEX
  5
2089
  8
3
 10
28.18655206340009
 20
-17.53463237610001
 30
0.0
  0
VERTEX
  5
208A
  8
3
 10
27.58295655579991
 20
-17.3819048828
 30
0.0
  0
VERTEX
  5
208B
  8
3
 10
27.11124658969993
 20
-17.13945901580001
 30
0.0
  0
VERTEX
  5
208C
  8
3
 10
26.82253925930013
 20
-16.8335675468
 30
0.0
  0
VERTEX
  5
208D
  8
3
 10
26.74812048369995
 20
-16.49737856290002
 30
0.0
  0
VERTEX
  5
208E
  8
3
 10
26.89605469189996
 20
-16.16732335700001
 30
0.0
  0
VERTEX
  5
208F
  8
3
 10
27.25031091689993
 20
-15.87916853200002
 30
0.0
  0
VERTEX
  5
2090
  8
3
 10
27.77250000000004
 20
-15.6641401343
 30
0.0
  0
SEQEND
  5
251D
  8
3
  0
POLYLINE
  5
FC6
  8
3
 66
     1
 10
0.0
 20
0.0
 30
0.0
  0
VERTEX
  5
2091
  8
3
 10
27.54999999999995
 20
-15.74129637660002
 30
0.0
  0
VERTEX
  5
2092
  8
3
 10
28.24369766509994
 20
-15.60516824110002
 30
0.0
  0
VERTEX
  5
2093
  8
3
 10
28.98682523389994
 20
-15.57732338490001
 30
0.0
  0
VERTEX
  5
2094
  8
3
 10
29.71335256089992
 20
-15.66023594550001
 30
0.0
  0
VERTEX
  5
2095
  8
3
 10
30.3587245046001
 20
-15.8465387782
 30
0.0
  0
VERTEX
  5
2096
  8
3
 10
30.86559693580011
 20
-16.1196780587
 30
0.0
  0
VERTEX
  5
2097
  8
3
 10
31.18893201440005
 20
-16.45538416330001
 30
0.0
  0
VERTEX
  5
2098
  8
3
 10
31.29999999999995
 20
-16.82382813130002
 30
0.0
  0
VERTEX
  5
2099
  8
3
 10
31.18893201440005
 20
-17.1922720993
 30
0.0
  0
VERTEX
  5
209A
  8
3
 10
30.86559693580011
 20
-17.52797820390001
 30
0.0
  0
VERTEX
  5
209B
  8
3
 10
30.3587245046001
 20
-17.80111748440001
 30
0.0
  0
VERTEX
  5
209C
  8
3
 10
29.71335256089992
 20
-17.9874203171
 30
0.0
  0
VERTEX
  5
209D
  8
3
 10
28.98682523389994
 20
-18.07033287780001
 30
0.0
  0
VERTEX
  5
209E
  8
3
 10
28.24369766509994
 20
-18.04248802160001
 30
0.0
  0
VERTEX
  5
209F
  8
3
 10
27.54999999999995
 20
-17.90635988610001
 30
0.0
  0
VERTEX
  5
20A0
  8
3
 10
26.96737032040005
 20
-17.67404405350001
 30
0.0
  0
VERTEX
  5
20A1
  8
3
 10
26.5475778302
 20
-17.3661828052
 30
0.0
  0
VERTEX
  5
20A2
  8
3
 10
26.32792293440002
 20
-17.01013096400001
 30
0.0
  0
VERTEX
  5
20A3
  8
3
 10
26.32792293440002
 20
-16.63752529860002
 30
0.0
  0
VERTEX
  5
20A4
  8
3
 10
26.5475778302
 20
-16.28147345740001
 30
0.0
  0
VERTEX
  5
20A5
  8
3
 10
26.96737032040005
 20
-15.97361220910003
 30
0.0
  0
VERTEX
  5
20A6
  8
3
 10
27.54999999999995
 20
-15.74129637660002
 30
0.0
  0
SEQEND
  5
251C
  8
3
  0
POLYLINE
  5
FC7
  8
3
 66
     1
 10
0.0
 20
0.0
 30
0.0
  0
VERTEX
  5
20A7
  8
3
 10
27.54999999999995
 20
-15.81933592800002
 30
0.0
  0
VERTEX
  5
20A8
  8
3
 10
28.24369766509994
 20
-15.68320779250001
 30
0.0
  0
VERTEX
  5
20A9
  8
3
 10
28.98682523389994
 20
-15.65536293620002
 30
0.0
  0
VERTEX
  5
20AA
  8
3
 10
29.71335256089992
 20
-15.7382754969
 30
0.0
  0
VERTEX
  5
20AB
  8
3
 10
30.3587245046001
 20
-15.92457832960002
 30
0.0
  0
VERTEX
  5
20AC
  8
3
 10
30.86559693580011
 20
-16.1977176101
 30
0.0
  0
VERTEX
  5
20AD
  8
3
 10
31.18893201440005
 20
-16.53342371470001
 30
0.0
  0
VERTEX
  5
20AE
  8
3
 10
31.29999999999995
 20
-16.90186768270001
 30
0.0
  0
VERTEX
  5
20AF
  8
3
 10
31.18893201440005
 20
-17.27031165070002
 30
0.0
  0
VERTEX
  5
20B0
  8
3
 10
30.86559693580011
 20
-17.6060177553
 30
0.0
  0
VERTEX
  5
20B1
  8
3
 10
30.3587245046001
 20
-17.87915703580001
 30
0.0
  0
VERTEX
  5
20B2
  8
3
 10
29.71335256089992
 20
-18.0654598685
 30
0.0
  0
VERTEX
  5
20B3
  8
3
 10
28.98682523389994
 20
-18.14837242920001
 30
0.0
  0
VERTEX
  5
20B4
  8
3
 10
28.24369766509994
 20
-18.12052757290002
 30
0.0
  0
VERTEX
  5
20B5
  8
3
 10
27.54999999999995
 20
-17.98439943740001
 30
0.0
  0
VERTEX
  5
20B6
  8
3
 10
26.96737032040005
 20
-17.75208360490001
 30
0.0
  0
VERTEX
  5
20B7
  8
3
 10
26.5475778302
 20
-17.44422235660002
 30
0.0
  0
VERTEX
  5
20B8
  8
3
 10
26.32792293440002
 20
-17.08817051540001
 30
0.0
  0
VERTEX
  5
20B9
  8
3
 10
26.32792293440002
 20
-16.71556485000002
 30
0.0
  0
VERTEX
  5
20BA
  8
3
 10
26.5475778302
 20
-16.35951300880001
 30
0.0
  0
VERTEX
  5
20BB
  8
3
 10
26.96737032040005
 20
-16.05165176050002
 30
0.0
  0
VERTEX
  5
20BC
  8
3
 10
27.54999999999995
 20
-15.81933592800002
 30
0.0
  0
SEQEND
  5
251B
  8
3
  0
POLYLINE
  5
FC8
  8
3
 66
     1
 10
0.0
 20
0.0
 30
0.0
  0
VERTEX
  5
20BD
  8
3
 10
27.77250000000004
 20
-16.28187347490001
 30
0.0
  0
VERTEX
  5
20BE
  8
3
 10
28.40603465139998
 20
-16.16327316800002
 30
0.0
  0
VERTEX
  5
20BF
  8
3
 10
29.08226156130013
 20
-16.15395313530001
 30
0.0
  0
VERTEX
  5
20C0
  8
3
 10
29.72790105130002
 20
-16.2549233471
 30
0.0
  0
VERTEX
  5
20C1
  8
3
 10
30.27298806449994
 20
-16.45524211420002
 30
0.0
  0
VERTEX
  5
20C2
  8
3
 10
30.65845396520012
 20
-16.73320178980001
 30
0.0
  0
VERTEX
  5
20C3
  8
3
 10
30.84252754189993
 20
-17.0586811302
 30
0.0
  0
VERTEX
  5
20C4
  8
3
 10
30.80526156630003
 20
-17.3964093985
 30
0.0
  0
VERTEX
  5
20C5
  8
3
 10
30.55069438510009
 20
-17.70978849640002
 30
0.0
  0
VERTEX
  5
20C6
  8
3
 10
30.10641230250008
 20
-17.9648589361
 30
0.0
  0
VERTEX
  5
20C7
  8
3
 10
29.52056017590007
 20
-18.13397987760001
 30
0.0
  0
VERTEX
  5
20C8
  8
3
 10
28.85662417349999
 20
-18.1988244428
 30
0.0
  0
VERTEX
  5
20C9
  8
3
 10
28.18655206340009
 20
-18.15236571670002
 30
0.0
  0
VERTEX
  5
20CA
  8
3
 10
27.58295655579991
 20
-17.99963822340001
 30
0.0
  0
VERTEX
  5
20CB
  8
3
 10
27.11124658969993
 20
-17.7571923564
 30
0.0
  0
VERTEX
  5
20CC
  8
3
 10
26.82253925930013
 20
-17.45130088740001
 30
0.0
  0
VERTEX
  5
20CD
  8
3
 10
26.74812048369995
 20
-17.11511190350001
 30
0.0
  0
VERTEX
  5
20CE
  8
3
 10
26.89605469189996
 20
-16.7850566976
 30
0.0
  0
VERTEX
  5
20CF
  8
3
 10
27.25031091689993
 20
-16.49690187260001
 30
0.0
  0
VERTEX
  5
20D0
  8
3
 10
27.77250000000004
 20
-16.28187347490001
 30
0.0
  0
SEQEND
  5
251A
  8
3
  0
POLYLINE
  5
FC9
  8
3
 66
     1
 10
0.0
 20
0.0
 30
0.0
  0
VERTEX
  5
20D1
  8
3
 10
27.54999999999995
 20
-16.3590297172
 30
0.0
  0
VERTEX
  5
20D2
  8
3
 10
28.24369766509994
 20
-16.2229015817
 30
0.0
  0
VERTEX
  5
20D3
  8
3
 10
28.98682523389994
 20
-16.19505672550002
 30
0.0
  0
VERTEX
  5
20D4
  8
3
 10
29.71335256089992
 20
-16.27796928610002
 30
0.0
  0
VERTEX
  5
20D5
  8
3
 10
30.3587245046001
 20
-16.46427211880001
 30
0.0
  0
VERTEX
  5
20D6
  8
3
 10
30.86559693580011
 20
-16.7374113994
 30
0.0
  0
VERTEX
  5
20D7
  8
3
 10
31.18893201440005
 20
-17.07311750390002
 30
0.0
  0
VERTEX
  5
20D8
  8
3
 10
31.29999999999995
 20
-17.4415614719
 30
0.0
  0
VERTEX
  5
20D9
  8
3
 10
31.18893201440005
 20
-17.81000543990001
 30
0.0
  0
VERTEX
  5
20DA
  8
3
 10
30.86559693580011
 20
-18.14571154450002
 30
0.0
  0
VERTEX
  5
20DB
  8
3
 10
30.3587245046001
 20
-18.41885082500002
 30
0.0
  0
VERTEX
  5
20DC
  8
3
 10
29.71335256089992
 20
-18.60515365770001
 30
0.0
  0
VERTEX
  5
20DD
  8
3
 10
28.98682523389994
 20
-18.6880662184
 30
0.0
  0
VERTEX
  5
20DE
  8
3
 10
28.24369766509994
 20
-18.66022136220002
 30
0.0
  0
VERTEX
  5
20DF
  8
3
 10
27.54999999999995
 20
-18.52409322670002
 30
0.0
  0
VERTEX
  5
20E0
  8
3
 10
26.96737032040005
 20
-18.29177739410002
 30
0.0
  0
VERTEX
  5
20E1
  8
3
 10
26.5475778302
 20
-17.98391614580001
 30
0.0
  0
VERTEX
  5
20E2
  8
3
 10
26.32792293440002
 20
-17.62786430470001
 30
0.0
  0
VERTEX
  5
20E3
  8
3
 10
26.32792293440002
 20
-17.25525863920001
 30
0.0
  0
VERTEX
  5
20E4
  8
3
 10
26.5475778302
 20
-16.89920679800002
 30
0.0
  0
VERTEX
  5
20E5
  8
3
 10
26.96737032040005
 20
-16.59134554970001
 30
0.0
  0
VERTEX
  5
20E6
  8
3
 10
27.54999999999995
 20
-16.3590297172
 30
0.0
  0
SEQEND
  5
2519
  8
3
  0
POLYLINE
  5
FCA
  8
3
 66
     1
 10
0.0
 20
0.0
 30
0.0
  0
VERTEX
  5
20E7
  8
3
 10
27.54999999999995
 20
-16.4370692686
 30
0.0
  0
VERTEX
  5
20E8
  8
3
 10
28.24369766509994
 20
-16.3009411331
 30
0.0
  0
VERTEX
  5
20E9
  8
3
 10
28.98682523389994
 20
-16.2730962768
 30
0.0
  0
VERTEX
  5
20EA
  8
3
 10
29.71335256089992
 20
-16.35600883750001
 30
0.0
  0
VERTEX
  5
20EB
  8
3
 10
30.3587245046001
 20
-16.54231167020001
 30
0.0
  0
VERTEX
  5
20EC
  8
3
 10
30.86559693580011
 20
-16.81545095070001
 30
0.0
  0
VERTEX
  5
20ED
  8
3
 10
31.18893201440005
 20
-17.15115705530002
 30
0.0
  0
VERTEX
  5
20EE
  8
3
 10
31.29999999999995
 20
-17.5196010233
 30
0.0
  0
VERTEX
  5
20EF
  8
3
 10
31.18893201440005
 20
-17.88804499130001
 30
0.0
  0
VERTEX
  5
20F0
  8
3
 10
30.86559693580011
 20
-18.22375109590001
 30
0.0
  0
VERTEX
  5
20F1
  8
3
 10
30.3587245046001
 20
-18.49689037640002
 30
0.0
  0
VERTEX
  5
20F2
  8
3
 10
29.71335256089992
 20
-18.68319320910001
 30
0.0
  0
VERTEX
  5
20F3
  8
3
 10
28.98682523389994
 20
-18.76610576980002
 30
0.0
  0
VERTEX
  5
20F4
  8
3
 10
28.24369766509994
 20
-18.7382609135
 30
0.0
  0
VERTEX
  5
20F5
  8
3
 10
27.54999999999995
 20
-18.602132778
 30
0.0
  0
VERTEX
  5
20F6
  8
3
 10
26.96737032040005
 20
-18.36981694550002
 30
0.0
  0
VERTEX
  5
20F7
  8
3
 10
26.5475778302
 20
-18.06195569720001
 30
0.0
  0
VERTEX
  5
20F8
  8
3
 10
26.32792293440002
 20
-17.70590385600002
 30
0.0
  0
VERTEX
  5
20F9
  8
3
 10
26.32792293440002
 20
-17.3332981906
 30
0.0
  0
VERTEX
  5
20FA
  8
3
 10
26.5475778302
 20
-16.97724634940002
 30
0.0
  0
VERTEX
  5
20FB
  8
3
 10
26.96737032040005
 20
-16.6693851011
 30
0.0
  0
VERTEX
  5
20FC
  8
3
 10
27.54999999999995
 20
-16.4370692686
 30
0.0
  0
SEQEND
  5
2518
  8
3
  0
POLYLINE
  5
FCB
  8
3
 66
     1
 10
0.0
 20
0.0
 30
0.0
  0
VERTEX
  5
20FD
  8
3
 10
27.77250000000004
 20
-16.89960681550002
 30
0.0
  0
VERTEX
  5
20FE
  8
3
 10
28.40603465139998
 20
-16.7810065086
 30
0.0
  0
VERTEX
  5
20FF
  8
3
 10
29.08226156130013
 20
-16.7716864759
 30
0.0
  0
VERTEX
  5
2100
  8
3
 10
29.72790105130002
 20
-16.87265668770002
 30
0.0
  0
VERTEX
  5
2101
  8
3
 10
30.27298806449994
 20
-17.0729754548
 30
0.0
  0
VERTEX
  5
2102
  8
3
 10
30.65845396520012
 20
-17.35093513040002
 30
0.0
  0
VERTEX
  5
2103
  8
3
 10
30.84252754189993
 20
-17.67641447080001
 30
0.0
  0
VERTEX
  5
2104
  8
3
 10
30.80526156630003
 20
-18.01414273910001
 30
0.0
  0
VERTEX
  5
2105
  8
3
 10
30.55069438510009
 20
-18.32752183700001
 30
0.0
  0
VERTEX
  5
2106
  8
3
 10
30.10641230250008
 20
-18.58259227670001
 30
0.0
  0
VERTEX
  5
2107
  8
3
 10
29.52056017590007
 20
-18.75171321820002
 30
0.0
  0
VERTEX
  5
2108
  8
3
 10
28.85662417349999
 20
-18.81655778340001
 30
0.0
  0
VERTEX
  5
2109
  8
3
 10
28.18655206340009
 20
-18.7700990573
 30
0.0
  0
VERTEX
  5
210A
  8
3
 10
27.58295655579991
 20
-18.61737156400002
 30
0.0
  0
VERTEX
  5
210B
  8
3
 10
27.11124658969993
 20
-18.37492569700001
 30
0.0
  0
VERTEX
  5
210C
  8
3
 10
26.82253925930013
 20
-18.06903422800002
 30
0.0
  0
VERTEX
  5
210D
  8
3
 10
26.74812048369995
 20
-17.73284524410002
 30
0.0
  0
VERTEX
  5
210E
  8
3
 10
26.89605469189996
 20
-17.40279003820001
 30
0.0
  0
VERTEX
  5
210F
  8
3
 10
27.25031091689993
 20
-17.11463521320002
 30
0.0
  0
VERTEX
  5
2110
  8
3
 10
27.77250000000004
 20
-16.89960681550002
 30
0.0
  0
SEQEND
  5
2517
  8
3
  0
POLYLINE
  5
FCC
  8
3
 66
     1
 10
0.0
 20
0.0
 30
0.0
  0
VERTEX
  5
2111
  8
3
 10
27.54999999999995
 20
-16.97676305780001
 30
0.0
  0
VERTEX
  5
2112
  8
3
 10
28.24369766509994
 20
-16.84063492230001
 30
0.0
  0
VERTEX
  5
2113
  8
3
 10
28.98682523389994
 20
-16.81279006610001
 30
0.0
  0
VERTEX
  5
2114
  8
3
 10
29.71335256089992
 20
-16.8957026267
 30
0.0
  0
VERTEX
  5
2115
  8
3
 10
30.3587245046001
 20
-17.08200545950001
 30
0.0
  0
VERTEX
  5
2116
  8
3
 10
30.86559693580011
 20
-17.35514474000001
 30
0.0
  0
VERTEX
  5
2117
  8
3
 10
31.18893201440005
 20
-17.69085084450001
 30
0.0
  0
VERTEX
  5
2118
  8
3
 10
31.29999999999995
 20
-18.05929481250001
 30
0.0
  0
VERTEX
  5
2119
  8
3
 10
31.18893201440005
 20
-18.42773878050002
 30
0.0
  0
VERTEX
  5
211A
  8
3
 10
30.86559693580011
 20
-18.7634448851
 30
0.0
  0
VERTEX
  5
211B
  8
3
 10
30.3587245046001
 20
-19.0365841656
 30
0.0
  0
VERTEX
  5
211C
  8
3
 10
29.71335256089992
 20
-19.2228869983
 30
0.0
  0
VERTEX
  5
211D
  8
3
 10
28.98682523389994
 20
-19.30579955900001
 30
0.0
  0
VERTEX
  5
211E
  8
3
 10
28.24369766509994
 20
-19.2779547028
 30
0.0
  0
VERTEX
  5
211F
  8
3
 10
27.54999999999995
 20
-19.1418265673
 30
0.0
  0
VERTEX
  5
2120
  8
3
 10
26.96737032040005
 20
-18.90951073470001
 30
0.0
  0
VERTEX
  5
2121
  8
3
 10
26.5475778302
 20
-18.60164948640002
 30
0.0
  0
VERTEX
  5
2122
  8
3
 10
26.32792293440002
 20
-18.24559764530002
 30
0.0
  0
VERTEX
  5
2123
  8
3
 10
26.32792293440002
 20
-17.87299197980002
 30
0.0
  0
VERTEX
  5
2124
  8
3
 10
26.5475778302
 20
-17.51694013860001
 30
0.0
  0
VERTEX
  5
2125
  8
3
 10
26.96737032040005
 20
-17.20907889030002
 30
0.0
  0
VERTEX
  5
2126
  8
3
 10
27.54999999999995
 20
-16.97676305780001
 30
0.0
  0
SEQEND
  5
2516
  8
3
  0
POLYLINE
  5
FCD
  8
3
 66
     1
 10
0.0
 20
0.0
 30
0.0
  0
VERTEX
  5
2127
  8
3
 10
27.54999999999995
 20
-17.05480260920001
 30
0.0
  0
VERTEX
  5
2128
  8
3
 10
28.24369766509994
 20
-16.91867447370001
 30
0.0
  0
VERTEX
  5
2129
  8
3
 10
28.98682523389994
 20
-16.89082961740002
 30
0.0
  0
VERTEX
  5
212A
  8
3
 10
29.71335256089992
 20
-16.97374217810003
 30
0.0
  0
VERTEX
  5
212B
  8
3
 10
30.3587245046001
 20
-17.16004501080002
 30
0.0
  0
VERTEX
  5
212C
  8
3
 10
30.86559693580011
 20
-17.43318429130002
 30
0.0
  0
VERTEX
  5
212D
  8
3
 10
31.18893201440005
 20
-17.7688903959
 30
0.0
  0
VERTEX
  5
212E
  8
3
 10
31.29999999999995
 20
-18.13733436390001
 30
0.0
  0
VERTEX
  5
212F
  8
3
 10
31.18893201440005
 20
-18.50577833190002
 30
0.0
  0
VERTEX
  5
2130
  8
3
 10
30.86559693580011
 20
-18.8414844365
 30
0.0
  0
VERTEX
  5
2131
  8
3
 10
30.3587245046001
 20
-19.114623717
 30
0.0
  0
VERTEX
  5
2132
  8
3
 10
29.71335256089992
 20
-19.30092654970002
 30
0.0
  0
VERTEX
  5
2133
  8
3
 10
28.98682523389994
 20
-19.3838391104
 30
0.0
  0
VERTEX
  5
2134
  8
3
 10
28.24369766509994
 20
-19.35599425410001
 30
0.0
  0
VERTEX
  5
2135
  8
3
 10
27.54999999999995
 20
-19.21986611860001
 30
0.0
  0
VERTEX
  5
2136
  8
3
 10
26.96737032040005
 20
-18.9875502861
 30
0.0
  0
VERTEX
  5
2137
  8
3
 10
26.5475778302
 20
-18.67968903780002
 30
0.0
  0
VERTEX
  5
2138
  8
3
 10
26.32792293440002
 20
-18.3236371966
 30
0.0
  0
VERTEX
  5
2139
  8
3
 10
26.32792293440002
 20
-17.95103153120002
 30
0.0
  0
VERTEX
  5
213A
  8
3
 10
26.5475778302
 20
-17.59497969
 30
0.0
  0
VERTEX
  5
213B
  8
3
 10
26.96737032040005
 20
-17.28711844170002
 30
0.0
  0
VERTEX
  5
213C
  8
3
 10
27.54999999999995
 20
-17.05480260920001
 30
0.0
  0
SEQEND
  5
2515
  8
3
  0
POLYLINE
  5
FCE
  8
3
 66
     1
 10
0.0
 20
0.0
 30
0.0
  0
VERTEX
  5
213D
  8
3
 10
27.77250000000004
 20
-17.5173401561
 30
0.0
  0
VERTEX
  5
213E
  8
3
 10
28.40603465139998
 20
-17.39873984920001
 30
0.0
  0
VERTEX
  5
213F
  8
3
 10
29.08226156130013
 20
-17.3894198166
 30
0.0
  0
VERTEX
  5
2140
  8
3
 10
29.72790105130002
 20
-17.4903900283
 30
0.0
  0
VERTEX
  5
2141
  8
3
 10
30.27298806449994
 20
-17.69070879540001
 30
0.0
  0
VERTEX
  5
2142
  8
3
 10
30.65845396520012
 20
-17.968668471
 30
0.0
  0
VERTEX
  5
2143
  8
3
 10
30.84252754189993
 20
-18.29414781140002
 30
0.0
  0
VERTEX
  5
2144
  8
3
 10
30.80526156630003
 20
-18.63187607970002
 30
0.0
  0
VERTEX
  5
2145
  8
3
 10
30.55069438510009
 20
-18.94525517760002
 30
0.0
  0
VERTEX
  5
2146
  8
3
 10
30.10641230250008
 20
-19.20032561730002
 30
0.0
  0
VERTEX
  5
2147
  8
3
 10
29.52056017590007
 20
-19.36944655880001
 30
0.0
  0
VERTEX
  5
2148
  8
3
 10
28.85662417349999
 20
-19.434291124
 30
0.0
  0
VERTEX
  5
2149
  8
3
 10
28.18655206340009
 20
-19.38783239790001
 30
0.0
  0
VERTEX
  5
214A
  8
3
 10
27.58295655579991
 20
-19.23510490460001
 30
0.0
  0
VERTEX
  5
214B
  8
3
 10
27.11124658969993
 20
-18.99265903760002
 30
0.0
  0
VERTEX
  5
214C
  8
3
 10
26.82253925930013
 20
-18.6867675686
 30
0.0
  0
VERTEX
  5
214D
  8
3
 10
26.74812048369995
 20
-18.35057858480002
 30
0.0
  0
VERTEX
  5
214E
  8
3
 10
26.89605469189996
 20
-18.02052337880002
 30
0.0
  0
VERTEX
  5
214F
  8
3
 10
27.25031091689993
 20
-17.7323685538
 30
0.0
  0
VERTEX
  5
2150
  8
3
 10
27.77250000000004
 20
-17.5173401561
 30
0.0
  0
SEQEND
  5
2514
  8
3
  0
POLYLINE
  5
FCF
  8
3
 66
     1
 10
0.0
 20
0.0
 30
0.0
  0
VERTEX
  5
2151
  8
3
 10
27.54999999999995
 20
-17.59449639840003
 30
0.0
  0
VERTEX
  5
2152
  8
3
 10
28.24369766509994
 20
-17.45836826290002
 30
0.0
  0
VERTEX
  5
2153
  8
3
 10
28.98682523389994
 20
-17.43052340670002
 30
0.0
  0
VERTEX
  5
2154
  8
3
 10
29.71335256089992
 20
-17.51343596730001
 30
0.0
  0
VERTEX
  5
2155
  8
3
 10
30.3587245046001
 20
-17.69973880010002
 30
0.0
  0
VERTEX
  5
2156
  8
3
 10
30.86559693580011
 20
-17.9728780806
 30
0.0
  0
VERTEX
  5
2157
  8
3
 10
31.18893201440005
 20
-18.30858418510002
 30
0.0
  0
VERTEX
  5
2158
  8
3
 10
31.29999999999995
 20
-18.6770281531
 30
0.0
  0
VERTEX
  5
2159
  8
3
 10
31.18893201440005
 20
-19.04547212120002
 30
0.0
  0
VERTEX
  5
215A
  8
3
 10
30.86559693580011
 20
-19.38117822570001
 30
0.0
  0
VERTEX
  5
215B
  8
3
 10
30.3587245046001
 20
-19.65431750620002
 30
0.0
  0
VERTEX
  5
215C
  8
3
 10
29.71335256089992
 20
-19.84062033890001
 30
0.0
  0
VERTEX
  5
215D
  8
3
 10
28.98682523389994
 20
-19.92353289960002
 30
0.0
  0
VERTEX
  5
215E
  8
3
 10
28.24369766509994
 20
-19.89568804340001
 30
0.0
  0
VERTEX
  5
215F
  8
3
 10
27.54999999999995
 20
-19.75955990790001
 30
0.0
  0
VERTEX
  5
2160
  8
3
 10
26.96737032040005
 20
-19.52724407540001
 30
0.0
  0
VERTEX
  5
2161
  8
3
 10
26.5475778302
 20
-19.219382827
 30
0.0
  0
VERTEX
  5
2162
  8
3
 10
26.32792293440002
 20
-18.86333098590001
 30
0.0
  0
VERTEX
  5
2163
  8
3
 10
26.32792293440002
 20
-18.4907253204
 30
0.0
  0
VERTEX
  5
2164
  8
3
 10
26.5475778302
 20
-18.13467347920002
 30
0.0
  0
VERTEX
  5
2165
  8
3
 10
26.96737032040005
 20
-17.8268122309
 30
0.0
  0
VERTEX
  5
2166
  8
3
 10
27.54999999999995
 20
-17.59449639840003
 30
0.0
  0
SEQEND
  5
2513
  8
3
  0
POLYLINE
  5
FD0
  8
3
 66
     1
 10
0.0
 20
0.0
 30
0.0
  0
VERTEX
  5
2167
  8
3
 10
27.54999999999995
 20
-17.67253594980002
 30
0.0
  0
VERTEX
  5
2168
  8
3
 10
28.24369766509994
 20
-17.53640781430002
 30
0.0
  0
VERTEX
  5
2169
  8
3
 10
28.98682523389994
 20
-17.508562958
 30
0.0
  0
VERTEX
  5
216A
  8
3
 10
29.71335256089992
 20
-17.59147551870001
 30
0.0
  0
VERTEX
  5
216B
  8
3
 10
30.3587245046001
 20
-17.7777783514
 30
0.0
  0
VERTEX
  5
216C
  8
3
 10
30.86559693580011
 20
-18.05091763190001
 30
0.0
  0
VERTEX
  5
216D
  8
3
 10
31.18893201440005
 20
-18.38662373650001
 30
0.0
  0
VERTEX
  5
216E
  8
3
 10
31.29999999999995
 20
-18.75506770450002
 30
0.0
  0
VERTEX
  5
216F
  8
3
 10
31.18893201440005
 20
-19.1235116725
 30
0.0
  0
VERTEX
  5
2170
  8
3
 10
30.86559693580011
 20
-19.45921777710001
 30
0.0
  0
VERTEX
  5
2171
  8
3
 10
30.3587245046001
 20
-19.73235705760001
 30
0.0
  0
VERTEX
  5
2172
  8
3
 10
29.71335256089992
 20
-19.91865989030001
 30
0.0
  0
VERTEX
  5
2173
  8
3
 10
28.98682523389994
 20
-20.00157245100002
 30
0.0
  0
VERTEX
  5
2174
  8
3
 10
28.24369766509994
 20
-19.97372759470002
 30
0.0
  0
VERTEX
  5
2175
  8
3
 10
27.54999999999995
 20
-19.83759945920002
 30
0.0
  0
VERTEX
  5
2176
  8
3
 10
26.96737032040005
 20
-19.60528362670001
 30
0.0
  0
VERTEX
  5
2177
  8
3
 10
26.5475778302
 20
-19.2974223784
 30
0.0
  0
VERTEX
  5
2178
  8
3
 10
26.32792293440002
 20
-18.94137053720002
 30
0.0
  0
VERTEX
  5
2179
  8
3
 10
26.32792293440002
 20
-18.5687648718
 30
0.0
  0
VERTEX
  5
217A
  8
3
 10
26.5475778302
 20
-18.21271303060001
 30
0.0
  0
VERTEX
  5
217B
  8
3
 10
26.96737032040005
 20
-17.9048517823
 30
0.0
  0
VERTEX
  5
217C
  8
3
 10
27.54999999999995
 20
-17.67253594980002
 30
0.0
  0
SEQEND
  5
2512
  8
3
  0
POLYLINE
  5
FD1
  8
3
 66
     1
 10
0.0
 20
0.0
 30
0.0
  0
VERTEX
  5
217D
  8
3
 10
27.77250000000004
 20
-18.13507349670002
 30
0.0
  0
VERTEX
  5
217E
  8
3
 10
28.40603465139998
 20
-18.01647318980002
 30
0.0
  0
VERTEX
  5
217F
  8
3
 10
29.08226156130013
 20
-18.00715315720001
 30
0.0
  0
VERTEX
  5
2180
  8
3
 10
29.72790105130002
 20
-18.10812336890001
 30
0.0
  0
VERTEX
  5
2181
  8
3
 10
30.27298806449994
 20
-18.30844213600002
 30
0.0
  0
VERTEX
  5
2182
  8
3
 10
30.65845396520012
 20
-18.58640181160001
 30
0.0
  0
VERTEX
  5
2183
  8
3
 10
30.84252754189993
 20
-18.91188115200001
 30
0.0
  0
VERTEX
  5
2184
  8
3
 10
30.80526156630003
 20
-19.2496094203
 30
0.0
  0
VERTEX
  5
2185
  8
3
 10
30.55069438510009
 20
-19.5629885182
 30
0.0
  0
VERTEX
  5
2186
  8
3
 10
30.10641230250008
 20
-19.81805895790001
 30
0.0
  0
VERTEX
  5
2187
  8
3
 10
29.52056017590007
 20
-19.98717989950001
 30
0.0
  0
VERTEX
  5
2188
  8
3
 10
28.85662417349999
 20
-20.05202446460001
 30
0.0
  0
VERTEX
  5
2189
  8
3
 10
28.18655206340009
 20
-20.00556573860001
 30
0.0
  0
VERTEX
  5
218A
  8
3
 10
27.58295655579991
 20
-19.85283824520002
 30
0.0
  0
VERTEX
  5
218B
  8
3
 10
27.11124658969993
 20
-19.6103923782
 30
0.0
  0
VERTEX
  5
218C
  8
3
 10
26.82253925930013
 20
-19.30450090920002
 30
0.0
  0
VERTEX
  5
218D
  8
3
 10
26.74812048369995
 20
-18.9683119254
 30
0.0
  0
VERTEX
  5
218E
  8
3
 10
26.89605469189996
 20
-18.6382567194
 30
0.0
  0
VERTEX
  5
218F
  8
3
 10
27.25031091689993
 20
-18.35010189440001
 30
0.0
  0
VERTEX
  5
2190
  8
3
 10
27.77250000000004
 20
-18.13507349670002
 30
0.0
  0
SEQEND
  5
2511
  8
3
  0
LINE
  5
FD2
  8
3
 10
28.79999999999995
 20
-17.63083384540002
 30
0.0
 11
27.54999999999995
 21
-17.2699899271
 31
0.0
  0
POLYLINE
  5
FD3
  8
3
 66
     1
 10
0.0
 20
0.0
 30
0.0
  0
VERTEX
  5
2191
  8
3
 10
27.67194843660013
 20
-18.169941725
 30
0.0
  0
VERTEX
  5
2192
  8
3
 10
27.12338863550008
 20
-18.39204920910001
 30
0.0
  0
VERTEX
  5
2193
  8
3
 10
26.73894723650005
 20
-18.6880431296
 30
0.0
  0
VERTEX
  5
2194
  8
3
 10
26.55625604210013
 20
-19.02894953930002
 30
0.0
  0
VERTEX
  5
2195
  8
3
 10
26.5931981394001
 20
-19.38139814360002
 30
0.0
  0
VERTEX
  5
2196
  8
3
 10
26.84615737860008
 20
-19.71088881740002
 30
0.0
  0
VERTEX
  5
2197
  8
3
 10
27.2903723467
 20
-19.98516871790002
 30
0.0
  0
VERTEX
  5
2198
  8
3
 10
27.88236018769999
 20
-20.17738941740001
 30
0.0
  0
VERTEX
  5
2199
  8
3
 10
28.5641730072
 20
-20.2687350146
 30
0.0
  0
VERTEX
  5
219A
  8
3
 10
29.26907021569991
 20
-20.25026396600001
 30
0.0
  0
VERTEX
  5
219B
  8
3
 10
29.9280515634
 20
-20.12378434640002
 30
0.0
  0
VERTEX
  5
219C
  8
3
 10
30.47661136440001
 20
-19.90167686230001
 30
0.0
  0
VERTEX
  5
219D
  8
3
 10
30.86105276350008
 20
-19.60568294180001
 30
0.0
  0
VERTEX
  5
219E
  8
3
 10
31.04374395779996
 20
-19.2647765321
 30
0.0
  0
VERTEX
  5
219F
  8
3
 10
31.00680186049999
 20
-18.91232792780002
 30
0.0
  0
VERTEX
  5
21A0
  8
3
 10
30.75384262140005
 20
-18.582837254
 30
0.0
  0
VERTEX
  5
21A1
  8
3
 10
30.3096276532001
 20
-18.30855735350002
 30
0.0
  0
VERTEX
  5
21A2
  8
3
 10
29.7176398122001
 20
-18.11633665390002
 30
0.0
  0
VERTEX
  5
21A3
  8
3
 10
29.03582699279991
 20
-18.02499105680002
 30
0.0
  0
VERTEX
  5
21A4
  8
3
 10
28.33092978419995
 20
-18.04346210540001
 30
0.0
  0
VERTEX
  5
21A5
  8
3
 10
27.67194843660013
 20
-18.169941725
 30
0.0
  0
SEQEND
  5
2510
  8
3
  0
LINE
  5
FD4
  8
3
 10
30.04999999999995
 20
-17.2699899271
 30
0.0
 11
28.79999999999995
 21
-17.63083384540002
 31
0.0
  0
LINE
  5
FD5
  8
3
 10
28.79999999999995
 20
-17.63083384540002
 30
0.0
 11
28.79999999999995
 21
-19.96910243560001
 31
0.0
  0
LINE
  5
FD6
  8
3
 10
30.04999999999995
 20
-19.6082585174
 30
0.0
 11
28.79999999999995
 21
-19.96910243560001
 31
0.0
  0
POLYLINE
  5
FD7
  8
3
 66
     1
 10
0.0
 20
0.0
 30
0.0
  0
VERTEX
  5
21A6
  8
3
 10
30.57968220480006
 20
-18.73366459910002
 30
0.0
  0
VERTEX
  5
21A7
  8
3
 10
30.81688281860011
 20
-19.05043192480002
 30
0.0
  0
VERTEX
  5
21A8
  8
3
 10
30.83552288390001
 20
-19.38854537980001
 30
0.0
  0
VERTEX
  5
21A9
  8
3
 10
30.63358246029998
 20
-19.71136512480001
 30
0.0
  0
VERTEX
  5
21AA
  8
3
 10
30.23294492619993
 20
-19.9839086314
 30
0.0
  0
VERTEX
  5
21AB
  8
3
 10
29.67702557489997
 20
-20.17664158170001
 30
0.0
  0
VERTEX
  5
21AC
  8
3
 10
29.02606689410004
 20
-20.26867837010002
 30
0.0
  0
VERTEX
  5
21AD
  8
3
 10
28.35061035750005
 20
-20.25004538230002
 30
0.0
  0
VERTEX
  5
21AE
  8
3
 10
27.72385216170005
 20
-20.12276179170001
 30
0.0
  0
VERTEX
  5
21AF
  8
3
 10
27.21371128229998
 20
-19.90062075040001
 30
0.0
  0
VERTEX
  5
21B0
  8
3
 10
26.87546939930007
 20
-19.60769468710001
 30
0.0
  0
VERTEX
  5
21B1
  8
3
 10
26.74578026900008
 20
-19.27572668590003
 30
0.0
  0
VERTEX
  5
21B2
  8
3
 10
26.83869772110006
 20
-18.94069063080002
 30
0.0
  0
VERTEX
  5
21B3
  8
3
 10
27.1441527078
 20
-18.63889287700002
 30
0.0
  0
VERTEX
  5
21B4
  8
3
 10
27.62904444180003
 20
-18.40303789400002
 30
0.0
  0
VERTEX
  5
21B5
  8
3
 10
28.24082737970002
 20
-18.25868422880001
 30
0.0
  0
VERTEX
  5
21B6
  8
3
 10
28.91320534750002
 20
-18.221474841
 30
0.0
  0
VERTEX
  5
21B7
  8
3
 10
29.57331575929993
 20
-18.29544194510001
 30
0.0
  0
VERTEX
  5
21B8
  8
3
 10
30.14962540939996
 20
-18.47257005760002
 30
0.0
  0
VERTEX
  5
21B9
  8
3
 10
30.57968220480006
 20
-18.73366459910002
 30
0.0
  0
SEQEND
  5
250F
  8
3
  0
LINE
  5
FD8
  8
3
 10
28.79999999999995
 20
-19.96910243560001
 30
0.0
 11
27.54999999999995
 21
-19.6082585174
 31
0.0
  0
LINE
  5
FD9
  8
3
 10
27.54999999999995
 20
-16.54830209070002
 30
0.0
 11
27.54999999999995
 21
-17.2699899271
 31
0.0
  0
LINE
  5
FDA
  8
3
 10
27.54999999999995
 20
-17.2699899271
 30
0.0
 11
27.54999999999995
 21
-19.6082585174
 31
0.0
  0
LINE
  5
FDB
  8
3
 10
30.04999999999995
 20
-17.2699899271
 30
0.0
 11
30.04999999999995
 21
-19.6082585174
 31
0.0
  0
LINE
  5
FDC
  8
3
 10
30.04999999999995
 20
-17.2699899271
 30
0.0
 11
30.04999999999995
 21
-16.54830209070002
 31
0.0
  0
LINE
  5
FDD
  8
3
 10
28.79999999999995
 20
-16.1874581724
 30
0.0
 11
28.79999999999995
 21
-17.63083384540002
 31
0.0
  0
LINE
  5
FDE
  8
3
 10
28.79999999999995
 20
-18.52572676260002
 30
0.0
 11
30.04999999999995
 21
-18.88657068090001
 31
0.0
  0
LINE
  5
FDF
  8
3
 10
28.79999999999995
 20
-16.1874581724
 30
0.0
 11
30.04999999999995
 21
-16.54830209070002
 31
0.0
  0
LINE
  5
FE0
  8
3
 10
28.79999999999995
 20
-18.52572676260002
 30
0.0
 11
27.54999999999995
 21
-18.88657068090001
 31
0.0
  0
LINE
  5
FE1
  8
3
 10
28.79999999999995
 20
-16.1874581724
 30
0.0
 11
27.54999999999995
 21
-16.54830209070002
 31
0.0
  0
POLYLINE
  5
FE2
  8
3
 66
     1
 10
0.0
 20
0.0
 30
0.0
  0
VERTEX
  5
21BA
  8
3
 10
30.31554445660004
 20
14.4887621764
 30
0.0
  0
VERTEX
  5
21BB
  8
3
 10
30.52341356770012
 20
14.20320433179998
 30
0.0
  0
VERTEX
  5
21BC
  8
3
 10
30.52341356770012
 20
13.89932002089998
 30
0.0
  0
VERTEX
  5
21BD
  8
3
 10
30.31554445660004
 20
13.6137621764
 30
0.0
  0
VERTEX
  5
21BE
  8
3
 10
29.92487831690005
 20
13.38097328870001
 30
0.0
  0
VERTEX
  5
21BF
  8
3
 10
29.39853525080002
 20
13.22903113319998
 30
0.0
  0
VERTEX
  5
21C0
  8
3
 10
28.79999999999995
 20
13.1762621764
 30
0.0
  0
VERTEX
  5
21C1
  8
3
 10
28.20146474920011
 20
13.22903113319998
 30
0.0
  0
VERTEX
  5
21C2
  8
3
 10
27.67512168300004
 20
13.38097328870001
 30
0.0
  0
VERTEX
  5
21C3
  8
3
 10
27.2844555434001
 20
13.6137621764
 30
0.0
  0
VERTEX
  5
21C4
  8
3
 10
27.07658643219997
 20
13.89932002089998
 30
0.0
  0
VERTEX
  5
21C5
  8
3
 10
27.07658643219997
 20
14.20320433179998
 30
0.0
  0
VERTEX
  5
21C6
  8
3
 10
27.2844555434001
 20
14.4887621764
 30
0.0
  0
VERTEX
  5
21C7
  8
3
 10
27.67512168300004
 20
14.7215510641
 30
0.0
  0
VERTEX
  5
21C8
  8
3
 10
28.20146474920011
 20
14.87349321959999
 30
0.0
  0
VERTEX
  5
21C9
  8
3
 10
28.79999999999995
 20
14.9262621764
 30
0.0
  0
VERTEX
  5
21CA
  8
3
 10
29.39853525080002
 20
14.87349321959999
 30
0.0
  0
VERTEX
  5
21CB
  8
3
 10
29.92487831690005
 20
14.7215510641
 30
0.0
  0
VERTEX
  5
21CC
  8
3
 10
30.31554445660004
 20
14.4887621764
 30
0.0
  0
SEQEND
  5
250E
  8
3
  0
POLYLINE
  5
FE3
  8
3
 66
     1
 10
0.0
 20
0.0
 30
0.0
  0
VERTEX
  5
21CD
  8
3
 10
29.95836637170009
 20
13.53889242459999
 30
0.0
  0
VERTEX
  5
21CE
  8
3
 10
29.31552153379994
 20
13.41274342099999
 30
0.0
  0
VERTEX
  5
21CF
  8
3
 10
28.62687034520013
 20
13.38693978499998
 30
0.0
  0
VERTEX
  5
21D0
  8
3
 10
27.95360248630004
 20
13.46377428259999
 30
0.0
  0
VERTEX
  5
21D1
  8
3
 10
27.35554076080007
 20
13.63641983169998
 30
0.0
  0
VERTEX
  5
21D2
  8
3
 10
26.88582557759992
 20
13.88953611759999
 30
0.0
  0
VERTEX
  5
21D3
  8
3
 10
26.58619319209993
 20
14.2006326474
 30
0.0
  0
VERTEX
  5
21D4
  8
3
 10
26.48326725650008
 20
14.54206712939998
 30
0.0
  0
VERTEX
  5
21D5
  8
3
 10
26.58619319209993
 20
14.88350161129998
 30
0.0
  0
VERTEX
  5
21D6
  8
3
 10
26.88582557759992
 20
15.19459814119998
 30
0.0
  0
VERTEX
  5
21D7
  8
3
 10
27.35554076080007
 20
15.44771442699999
 30
0.0
  0
VERTEX
  5
21D8
  8
3
 10
27.95360248630004
 20
15.62035997609999
 30
0.0
  0
VERTEX
  5
21D9
  8
3
 10
28.62687034520013
 20
15.69719447379998
 30
0.0
  0
VERTEX
  5
21DA
  8
3
 10
29.31552153379994
 20
15.67139083769999
 30
0.0
  0
VERTEX
  5
21DB
  8
3
 10
29.95836637170009
 20
15.5452418342
 30
0.0
  0
VERTEX
  5
21DC
  8
3
 10
30.4982852741
 20
15.32995635579999
 30
0.0
  0
VERTEX
  5
21DD
  8
3
 10
30.8873040771
 20
15.04466346199999
 30
0.0
  0
VERTEX
  5
21DE
  8
3
 10
31.09085675279994
 20
14.71471267849998
 30
0.0
  0
VERTEX
  5
21DF
  8
3
 10
31.09085675279994
 20
14.36942158029998
 30
0.0
  0
VERTEX
  5
21E0
  8
3
 10
30.8873040771
 20
14.03947079669999
 30
0.0
  0
VERTEX
  5
21E1
  8
3
 10
30.4982852741
 20
13.754177903
 30
0.0
  0
VERTEX
  5
21E2
  8
3
 10
29.95836637170009
 20
13.53889242459999
 30
0.0
  0
SEQEND
  5
250D
  8
3
  0
POLYLINE
  5
FE4
  8
3
 66
     1
 10
0.0
 20
0.0
 30
0.0
  0
VERTEX
  5
21E3
  8
3
 10
27.77250000000004
 20
15.59062231729999
 30
0.0
  0
VERTEX
  5
21E4
  8
3
 10
28.40603465139998
 20
15.70922262419998
 30
0.0
  0
VERTEX
  5
21E5
  8
3
 10
29.08226156130013
 20
15.7185426568
 30
0.0
  0
VERTEX
  5
21E6
  8
3
 10
29.72790105130002
 20
15.61757244499998
 30
0.0
  0
VERTEX
  5
21E7
  8
3
 10
30.27298806449994
 20
15.41725367799998
 30
0.0
  0
VERTEX
  5
21E8
  8
3
 10
30.65845396520012
 20
15.13929400229998
 30
0.0
  0
VERTEX
  5
21E9
  8
3
 10
30.84252754189993
 20
14.81381466189998
 30
0.0
  0
VERTEX
  5
21EA
  8
3
 10
30.80526156630003
 20
14.4760863937
 30
0.0
  0
VERTEX
  5
21EB
  8
3
 10
30.55069438510009
 20
14.16270729569999
 30
0.0
  0
VERTEX
  5
21EC
  8
3
 10
30.10641230250008
 20
13.90763685599998
 30
0.0
  0
VERTEX
  5
21ED
  8
3
 10
29.52056017590007
 20
13.7385159145
 30
0.0
  0
VERTEX
  5
21EE
  8
3
 10
28.85662417349999
 20
13.6736713494
 30
0.0
  0
VERTEX
  5
21EF
  8
3
 10
28.18655206340009
 20
13.72013007539999
 30
0.0
  0
VERTEX
  5
21F0
  8
3
 10
27.58295655579991
 20
13.87285756879999
 30
0.0
  0
VERTEX
  5
21F1
  8
3
 10
27.11124658969993
 20
14.11530343579997
 30
0.0
  0
VERTEX
  5
21F2
  8
3
 10
26.82253925930013
 20
14.4211949047
 30
0.0
  0
VERTEX
  5
21F3
  8
3
 10
26.74812048369995
 20
14.7573838886
 30
0.0
  0
VERTEX
  5
21F4
  8
3
 10
26.89605469189996
 20
15.08743909449998
 30
0.0
  0
VERTEX
  5
21F5
  8
3
 10
27.25031091689993
 20
15.37559391959999
 30
0.0
  0
VERTEX
  5
21F6
  8
3
 10
27.77250000000004
 20
15.59062231729999
 30
0.0
  0
SEQEND
  5
250C
  8
3
  0
POLYLINE
  5
FE5
  8
3
 66
     1
 10
0.0
 20
0.0
 30
0.0
  0
VERTEX
  5
21F7
  8
3
 10
27.54999999999995
 20
16.05315986419998
 30
0.0
  0
VERTEX
  5
21F8
  8
3
 10
28.24369766509994
 20
16.18928799969999
 30
0.0
  0
VERTEX
  5
21F9
  8
3
 10
28.98682523389994
 20
16.21713285600001
 30
0.0
  0
VERTEX
  5
21FA
  8
3
 10
29.71335256089992
 20
16.1342202953
 30
0.0
  0
VERTEX
  5
21FB
  8
3
 10
30.3587245046001
 20
15.94791746259997
 30
0.0
  0
VERTEX
  5
21FC
  8
3
 10
30.86559693580011
 20
15.6747781821
 30
0.0
  0
VERTEX
  5
21FD
  8
3
 10
31.18893201440005
 20
15.33907207749999
 30
0.0
  0
VERTEX
  5
21FE
  8
3
 10
31.29999999999995
 20
14.97062810949998
 30
0.0
  0
VERTEX
  5
21FF
  8
3
 10
31.18893201440005
 20
14.60218414149998
 30
0.0
  0
VERTEX
  5
2200
  8
3
 10
30.86559693580011
 20
14.2664780369
 30
0.0
  0
VERTEX
  5
2201
  8
3
 10
30.3587245046001
 20
13.99333875639999
 30
0.0
  0
VERTEX
  5
2202
  8
3
 10
29.71335256089992
 20
13.8070359237
 30
0.0
  0
VERTEX
  5
2203
  8
3
 10
28.98682523389994
 20
13.72412336299999
 30
0.0
  0
VERTEX
  5
2204
  8
3
 10
28.24369766509994
 20
13.75196821929998
 30
0.0
  0
VERTEX
  5
2205
  8
3
 10
27.54999999999995
 20
13.88809635479998
 30
0.0
  0
VERTEX
  5
2206
  8
3
 10
26.96737032040005
 20
14.12041218729999
 30
0.0
  0
VERTEX
  5
2207
  8
3
 10
26.5475778302
 20
14.4282734356
 30
0.0
  0
VERTEX
  5
2208
  8
3
 10
26.32792293440002
 20
14.78432527679999
 30
0.0
  0
VERTEX
  5
2209
  8
3
 10
26.32792293440002
 20
15.15693094219998
 30
0.0
  0
VERTEX
  5
220A
  8
3
 10
26.5475778302
 20
15.51298278339999
 30
0.0
  0
VERTEX
  5
220B
  8
3
 10
26.96737032040005
 20
15.82084403169998
 30
0.0
  0
VERTEX
  5
220C
  8
3
 10
27.54999999999995
 20
16.05315986419998
 30
0.0
  0
SEQEND
  5
250B
  8
3
  0
POLYLINE
  5
FE6
  8
3
 66
     1
 10
0.0
 20
0.0
 30
0.0
  0
VERTEX
  5
220D
  8
3
 10
27.54999999999995
 20
16.13119941559998
 30
0.0
  0
VERTEX
  5
220E
  8
3
 10
28.24369766509994
 20
16.26732755109998
 30
0.0
  0
VERTEX
  5
220F
  8
3
 10
28.98682523389994
 20
16.29517240729999
 30
0.0
  0
VERTEX
  5
2210
  8
3
 10
29.71335256089992
 20
16.21225984669999
 30
0.0
  0
VERTEX
  5
2211
  8
3
 10
30.3587245046001
 20
16.02595701389998
 30
0.0
  0
VERTEX
  5
2212
  8
3
 10
30.86559693580011
 20
15.75281773339998
 30
0.0
  0
VERTEX
  5
2213
  8
3
 10
31.18893201440005
 20
15.41711162889999
 30
0.0
  0
VERTEX
  5
2214
  8
3
 10
31.29999999999995
 20
15.04866766079999
 30
0.0
  0
VERTEX
  5
2215
  8
3
 10
31.18893201440005
 20
14.68022369279998
 30
0.0
  0
VERTEX
  5
2216
  8
3
 10
30.86559693580011
 20
14.34451758829999
 30
0.0
  0
VERTEX
  5
2217
  8
3
 10
30.3587245046001
 20
14.07137830779999
 30
0.0
  0
VERTEX
  5
2218
  8
3
 10
29.71335256089992
 20
13.88507547499998
 30
0.0
  0
VERTEX
  5
2219
  8
3
 10
28.98682523389994
 20
13.80216291439999
 30
0.0
  0
VERTEX
  5
221A
  8
3
 10
28.24369766509994
 20
13.83000777059999
 30
0.0
  0
VERTEX
  5
221B
  8
3
 10
27.54999999999995
 20
13.96613590609999
 30
0.0
  0
VERTEX
  5
221C
  8
3
 10
26.96737032040005
 20
14.1984517386
 30
0.0
  0
VERTEX
  5
221D
  8
3
 10
26.5475778302
 20
14.50631298689999
 30
0.0
  0
VERTEX
  5
221E
  8
3
 10
26.32792293440002
 20
14.8623648281
 30
0.0
  0
VERTEX
  5
221F
  8
3
 10
26.32792293440002
 20
15.2349704936
 30
0.0
  0
VERTEX
  5
2220
  8
3
 10
26.5475778302
 20
15.5910223347
 30
0.0
  0
VERTEX
  5
2221
  8
3
 10
26.96737032040005
 20
15.8988835831
 30
0.0
  0
VERTEX
  5
2222
  8
3
 10
27.54999999999995
 20
16.13119941559998
 30
0.0
  0
SEQEND
  5
250A
  8
3
  0
POLYLINE
  5
FE7
  8
3
 66
     1
 10
0.0
 20
0.0
 30
0.0
  0
VERTEX
  5
2223
  8
3
 10
27.77250000000004
 20
16.2083556579
 30
0.0
  0
VERTEX
  5
2224
  8
3
 10
28.40603465139998
 20
16.32695596479999
 30
0.0
  0
VERTEX
  5
2225
  8
3
 10
29.08226156130013
 20
16.33627599739998
 30
0.0
  0
VERTEX
  5
2226
  8
3
 10
29.72790105130002
 20
16.23530578569998
 30
0.0
  0
VERTEX
  5
2227
  8
3
 10
30.27298806449994
 20
16.03498701859999
 30
0.0
  0
VERTEX
  5
2228
  8
3
 10
30.65845396520012
 20
15.75702734289999
 30
0.0
  0
VERTEX
  5
2229
  8
3
 10
30.84252754189993
 20
15.43154800249999
 30
0.0
  0
VERTEX
  5
222A
  8
3
 10
30.80526156630003
 20
15.09381973429998
 30
0.0
  0
VERTEX
  5
222B
  8
3
 10
30.55069438510009
 20
14.7804406363
 30
0.0
  0
VERTEX
  5
222C
  8
3
 10
30.10641230250008
 20
14.52537019669998
 30
0.0
  0
VERTEX
  5
222D
  8
3
 10
29.52056017590007
 20
14.35624925509998
 30
0.0
  0
VERTEX
  5
222E
  8
3
 10
28.85662417349999
 20
14.29140468999998
 30
0.0
  0
VERTEX
  5
222F
  8
3
 10
28.18655206340009
 20
14.33786341599998
 30
0.0
  0
VERTEX
  5
2230
  8
3
 10
27.58295655579991
 20
14.4905909094
 30
0.0
  0
VERTEX
  5
2231
  8
3
 10
27.11124658969993
 20
14.73303677639998
 30
0.0
  0
VERTEX
  5
2232
  8
3
 10
26.82253925930013
 20
15.03892824529999
 30
0.0
  0
VERTEX
  5
2233
  8
3
 10
26.74812048369995
 20
15.37511722919999
 30
0.0
  0
VERTEX
  5
2234
  8
3
 10
26.89605469189996
 20
15.7051724351
 30
0.0
  0
VERTEX
  5
2235
  8
3
 10
27.25031091689993
 20
15.9933272602
 30
0.0
  0
VERTEX
  5
2236
  8
3
 10
27.77250000000004
 20
16.2083556579
 30
0.0
  0
SEQEND
  5
2509
  8
3
  0
POLYLINE
  5
FE8
  8
3
 66
     1
 10
0.0
 20
0.0
 30
0.0
  0
VERTEX
  5
2237
  8
3
 10
27.54999999999995
 20
16.6708932048
 30
0.0
  0
VERTEX
  5
2238
  8
3
 10
28.24369766509994
 20
16.8070213403
 30
0.0
  0
VERTEX
  5
2239
  8
3
 10
28.98682523389994
 20
16.83486619659999
 30
0.0
  0
VERTEX
  5
223A
  8
3
 10
29.71335256089992
 20
16.75195363589998
 30
0.0
  0
VERTEX
  5
223B
  8
3
 10
30.3587245046001
 20
16.56565080319999
 30
0.0
  0
VERTEX
  5
223C
  8
3
 10
30.86559693580011
 20
16.29251152269998
 30
0.0
  0
VERTEX
  5
223D
  8
3
 10
31.18893201440005
 20
15.9568054181
 30
0.0
  0
VERTEX
  5
223E
  8
3
 10
31.29999999999995
 20
15.5883614501
 30
0.0
  0
VERTEX
  5
223F
  8
3
 10
31.18893201440005
 20
15.21991748209999
 30
0.0
  0
VERTEX
  5
2240
  8
3
 10
30.86559693580011
 20
14.88421137749998
 30
0.0
  0
VERTEX
  5
2241
  8
3
 10
30.3587245046001
 20
14.611072097
 30
0.0
  0
VERTEX
  5
2242
  8
3
 10
29.71335256089992
 20
14.42476926429998
 30
0.0
  0
VERTEX
  5
2243
  8
3
 10
28.98682523389994
 20
14.34185670359997
 30
0.0
  0
VERTEX
  5
2244
  8
3
 10
28.24369766509994
 20
14.36970155989999
 30
0.0
  0
VERTEX
  5
2245
  8
3
 10
27.54999999999995
 20
14.5058296954
 30
0.0
  0
VERTEX
  5
2246
  8
3
 10
26.96737032040005
 20
14.7381455279
 30
0.0
  0
VERTEX
  5
2247
  8
3
 10
26.5475778302
 20
15.04600677619999
 30
0.0
  0
VERTEX
  5
2248
  8
3
 10
26.32792293440002
 20
15.4020586174
 30
0.0
  0
VERTEX
  5
2249
  8
3
 10
26.32792293440002
 20
15.77466428279999
 30
0.0
  0
VERTEX
  5
224A
  8
3
 10
26.5475778302
 20
16.13071612399997
 30
0.0
  0
VERTEX
  5
224B
  8
3
 10
26.96737032040005
 20
16.43857737229999
 30
0.0
  0
VERTEX
  5
224C
  8
3
 10
27.54999999999995
 20
16.6708932048
 30
0.0
  0
SEQEND
  5
2508
  8
3
  0
POLYLINE
  5
FE9
  8
3
 66
     1
 10
0.0
 20
0.0
 30
0.0
  0
VERTEX
  5
224D
  8
3
 10
27.54999999999995
 20
16.74893275619999
 30
0.0
  0
VERTEX
  5
224E
  8
3
 10
28.24369766509994
 20
16.88506089169999
 30
0.0
  0
VERTEX
  5
224F
  8
3
 10
28.98682523389994
 20
16.9129057479
 30
0.0
  0
VERTEX
  5
2250
  8
3
 10
29.71335256089992
 20
16.8299931873
 30
0.0
  0
VERTEX
  5
2251
  8
3
 10
30.3587245046001
 20
16.6436903545
 30
0.0
  0
VERTEX
  5
2252
  8
3
 10
30.86559693580011
 20
16.37055107399999
 30
0.0
  0
VERTEX
  5
2253
  8
3
 10
31.18893201440005
 20
16.03484496949997
 30
0.0
  0
VERTEX
  5
2254
  8
3
 10
31.29999999999995
 20
15.66640100139998
 30
0.0
  0
VERTEX
  5
2255
  8
3
 10
31.18893201440005
 20
15.2979570334
 30
0.0
  0
VERTEX
  5
2256
  8
3
 10
30.86559693580011
 20
14.96225092889998
 30
0.0
  0
VERTEX
  5
2257
  8
3
 10
30.3587245046001
 20
14.68911164839997
 30
0.0
  0
VERTEX
  5
2258
  8
3
 10
29.71335256089992
 20
14.50280881559999
 30
0.0
  0
VERTEX
  5
2259
  8
3
 10
28.98682523389994
 20
14.419896255
 30
0.0
  0
VERTEX
  5
225A
  8
3
 10
28.24369766509994
 20
14.44774111119997
 30
0.0
  0
VERTEX
  5
225B
  8
3
 10
27.54999999999995
 20
14.5838692467
 30
0.0
  0
VERTEX
  5
225C
  8
3
 10
26.96737032040005
 20
14.81618507919998
 30
0.0
  0
VERTEX
  5
225D
  8
3
 10
26.5475778302
 20
15.12404632759998
 30
0.0
  0
VERTEX
  5
225E
  8
3
 10
26.32792293440002
 20
15.48009816869998
 30
0.0
  0
VERTEX
  5
225F
  8
3
 10
26.32792293440002
 20
15.85270383419999
 30
0.0
  0
VERTEX
  5
2260
  8
3
 10
26.5475778302
 20
16.20875567529998
 30
0.0
  0
VERTEX
  5
2261
  8
3
 10
26.96737032040005
 20
16.51661692369998
 30
0.0
  0
VERTEX
  5
2262
  8
3
 10
27.54999999999995
 20
16.74893275619999
 30
0.0
  0
SEQEND
  5
2507
  8
3
  0
POLYLINE
  5
FEA
  8
3
 66
     1
 10
0.0
 20
0.0
 30
0.0
  0
VERTEX
  5
2263
  8
3
 10
27.77250000000004
 20
16.82608899849998
 30
0.0
  0
VERTEX
  5
2264
  8
3
 10
28.40603465139998
 20
16.94468930539998
 30
0.0
  0
VERTEX
  5
2265
  8
3
 10
29.08226156130013
 20
16.95400933799999
 30
0.0
  0
VERTEX
  5
2266
  8
3
 10
29.72790105130002
 20
16.85303912629999
 30
0.0
  0
VERTEX
  5
2267
  8
3
 10
30.27298806449994
 20
16.6527203592
 30
0.0
  0
VERTEX
  5
2268
  8
3
 10
30.65845396520012
 20
16.3747606835
 30
0.0
  0
VERTEX
  5
2269
  8
3
 10
30.84252754189993
 20
16.04928134309998
 30
0.0
  0
VERTEX
  5
226A
  8
3
 10
30.80526156630003
 20
15.7115530749
 30
0.0
  0
VERTEX
  5
226B
  8
3
 10
30.55069438510009
 20
15.398173977
 30
0.0
  0
VERTEX
  5
226C
  8
3
 10
30.10641230250008
 20
15.14310353729999
 30
0.0
  0
VERTEX
  5
226D
  8
3
 10
29.52056017590007
 20
14.97398259569999
 30
0.0
  0
VERTEX
  5
226E
  8
3
 10
28.85662417349999
 20
14.90913803059999
 30
0.0
  0
VERTEX
  5
226F
  8
3
 10
28.18655206340009
 20
14.95559675659999
 30
0.0
  0
VERTEX
  5
2270
  8
3
 10
27.58295655579991
 20
15.10832424999998
 30
0.0
  0
VERTEX
  5
2271
  8
3
 10
27.11124658969993
 20
15.350770117
 30
0.0
  0
VERTEX
  5
2272
  8
3
 10
26.82253925930013
 20
15.6566615859
 30
0.0
  0
VERTEX
  5
2273
  8
3
 10
26.74812048369995
 20
15.9928505698
 30
0.0
  0
VERTEX
  5
2274
  8
3
 10
26.89605469189996
 20
16.3229057758
 30
0.0
  0
VERTEX
  5
2275
  8
3
 10
27.25031091689993
 20
16.61106060079999
 30
0.0
  0
VERTEX
  5
2276
  8
3
 10
27.77250000000004
 20
16.82608899849998
 30
0.0
  0
SEQEND
  5
2506
  8
3
  0
POLYLINE
  5
FEB
  8
3
 66
     1
 10
0.0
 20
0.0
 30
0.0
  0
VERTEX
  5
2277
  8
3
 10
27.54999999999995
 20
17.28862654539998
 30
0.0
  0
VERTEX
  5
2278
  8
3
 10
28.24369766509994
 20
17.42475468089998
 30
0.0
  0
VERTEX
  5
2279
  8
3
 10
28.98682523389994
 20
17.45259953719997
 30
0.0
  0
VERTEX
  5
227A
  8
3
 10
29.71335256089992
 20
17.36968697649999
 30
0.0
  0
VERTEX
  5
227B
  8
3
 10
30.3587245046001
 20
17.1833841438
 30
0.0
  0
VERTEX
  5
227C
  8
3
 10
30.86559693580011
 20
16.91024486329999
 30
0.0
  0
VERTEX
  5
227D
  8
3
 10
31.18893201440005
 20
16.57453875869999
 30
0.0
  0
VERTEX
  5
227E
  8
3
 10
31.29999999999995
 20
16.20609479069998
 30
0.0
  0
VERTEX
  5
227F
  8
3
 10
31.18893201440005
 20
15.8376508227
 30
0.0
  0
VERTEX
  5
2280
  8
3
 10
30.86559693580011
 20
15.50194471809999
 30
0.0
  0
VERTEX
  5
2281
  8
3
 10
30.3587245046001
 20
15.22880543759999
 30
0.0
  0
VERTEX
  5
2282
  8
3
 10
29.71335256089992
 20
15.04250260489999
 30
0.0
  0
VERTEX
  5
2283
  8
3
 10
28.98682523389994
 20
14.95959004419998
 30
0.0
  0
VERTEX
  5
2284
  8
3
 10
28.24369766509994
 20
14.98743490050001
 30
0.0
  0
VERTEX
  5
2285
  8
3
 10
27.54999999999995
 20
15.12356303599998
 30
0.0
  0
VERTEX
  5
2286
  8
3
 10
26.96737032040005
 20
15.35587886849999
 30
0.0
  0
VERTEX
  5
2287
  8
3
 10
26.5475778302
 20
15.6637401168
 30
0.0
  0
VERTEX
  5
2288
  8
3
 10
26.32792293440002
 20
16.01979195799998
 30
0.0
  0
VERTEX
  5
2289
  8
3
 10
26.32792293440002
 20
16.3923976234
 30
0.0
  0
VERTEX
  5
228A
  8
3
 10
26.5475778302
 20
16.74844946459999
 30
0.0
  0
VERTEX
  5
228B
  8
3
 10
26.96737032040005
 20
17.0563107129
 30
0.0
  0
VERTEX
  5
228C
  8
3
 10
27.54999999999995
 20
17.28862654539998
 30
0.0
  0
SEQEND
  5
2505
  8
3
  0
POLYLINE
  5
FEC
  8
3
 66
     1
 10
0.0
 20
0.0
 30
0.0
  0
VERTEX
  5
228D
  8
3
 10
27.54999999999995
 20
17.3666660968
 30
0.0
  0
VERTEX
  5
228E
  8
3
 10
28.24369766509994
 20
17.50279423229998
 30
0.0
  0
VERTEX
  5
228F
  8
3
 10
28.98682523389994
 20
17.53063908849998
 30
0.0
  0
VERTEX
  5
2290
  8
3
 10
29.71335256089992
 20
17.44772652789999
 30
0.0
  0
VERTEX
  5
2291
  8
3
 10
30.3587245046001
 20
17.26142369509998
 30
0.0
  0
VERTEX
  5
2292
  8
3
 10
30.86559693580011
 20
16.98828441459997
 30
0.0
  0
VERTEX
  5
2293
  8
3
 10
31.18893201440005
 20
16.65257831009998
 30
0.0
  0
VERTEX
  5
2294
  8
3
 10
31.29999999999995
 20
16.28413434209997
 30
0.0
  0
VERTEX
  5
2295
  8
3
 10
31.18893201440005
 20
15.91569037399998
 30
0.0
  0
VERTEX
  5
2296
  8
3
 10
30.86559693580011
 20
15.57998426949999
 30
0.0
  0
VERTEX
  5
2297
  8
3
 10
30.3587245046001
 20
15.30684498899998
 30
0.0
  0
VERTEX
  5
2298
  8
3
 10
29.71335256089992
 20
15.1205421562
 30
0.0
  0
VERTEX
  5
2299
  8
3
 10
28.98682523389994
 20
15.03762959559998
 30
0.0
  0
VERTEX
  5
229A
  8
3
 10
28.24369766509994
 20
15.06547445179999
 30
0.0
  0
VERTEX
  5
229B
  8
3
 10
27.54999999999995
 20
15.20160258729999
 30
0.0
  0
VERTEX
  5
229C
  8
3
 10
26.96737032040005
 20
15.43391841979999
 30
0.0
  0
VERTEX
  5
229D
  8
3
 10
26.5475778302
 20
15.7417796682
 30
0.0
  0
VERTEX
  5
229E
  8
3
 10
26.32792293440002
 20
16.09783150929999
 30
0.0
  0
VERTEX
  5
229F
  8
3
 10
26.32792293440002
 20
16.4704371748
 30
0.0
  0
VERTEX
  5
22A0
  8
3
 10
26.5475778302
 20
16.82648901599998
 30
0.0
  0
VERTEX
  5
22A1
  8
3
 10
26.96737032040005
 20
17.1343502643
 30
0.0
  0
VERTEX
  5
22A2
  8
3
 10
27.54999999999995
 20
17.3666660968
 30
0.0
  0
SEQEND
  5
2504
  8
3
  0
POLYLINE
  5
FED
  8
3
 66
     1
 10
0.0
 20
0.0
 30
0.0
  0
VERTEX
  5
22A3
  8
3
 10
27.77250000000004
 20
17.4438223391
 30
0.0
  0
VERTEX
  5
22A4
  8
3
 10
28.40603465139998
 20
17.56242264599999
 30
0.0
  0
VERTEX
  5
22A5
  8
3
 10
29.08226156130013
 20
17.57174267859997
 30
0.0
  0
VERTEX
  5
22A6
  8
3
 10
29.72790105130002
 20
17.4707724669
 30
0.0
  0
VERTEX
  5
22A7
  8
3
 10
30.27298806449994
 20
17.27045369979999
 30
0.0
  0
VERTEX
  5
22A8
  8
3
 10
30.65845396520012
 20
16.9924940242
 30
0.0
  0
VERTEX
  5
22A9
  8
3
 10
30.84252754189993
 20
16.66701468379998
 30
0.0
  0
VERTEX
  5
22AA
  8
3
 10
30.80526156630003
 20
16.32928641549998
 30
0.0
  0
VERTEX
  5
22AB
  8
3
 10
30.55069438510009
 20
16.01590731759998
 30
0.0
  0
VERTEX
  5
22AC
  8
3
 10
30.10641230250008
 20
15.7608368779
 30
0.0
  0
VERTEX
  5
22AD
  8
3
 10
29.52056017590007
 20
15.59171593630001
 30
0.0
  0
VERTEX
  5
22AE
  8
3
 10
28.85662417349999
 20
15.52687137119997
 30
0.0
  0
VERTEX
  5
22AF
  8
3
 10
28.18655206340009
 20
15.5733300972
 30
0.0
  0
VERTEX
  5
22B0
  8
3
 10
27.58295655579991
 20
15.72605759059999
 30
0.0
  0
VERTEX
  5
22B1
  8
3
 10
27.11124658969993
 20
15.96850345759998
 30
0.0
  0
VERTEX
  5
22B2
  8
3
 10
26.82253925930013
 20
16.2743949266
 30
0.0
  0
VERTEX
  5
22B3
  8
3
 10
26.74812048369995
 20
16.61058391039998
 30
0.0
  0
VERTEX
  5
22B4
  8
3
 10
26.89605469189996
 20
16.94063911639998
 30
0.0
  0
VERTEX
  5
22B5
  8
3
 10
27.25031091689993
 20
17.2287939414
 30
0.0
  0
VERTEX
  5
22B6
  8
3
 10
27.77250000000004
 20
17.4438223391
 30
0.0
  0
SEQEND
  5
2503
  8
3
  0
POLYLINE
  5
FEE
  8
3
 66
     1
 10
0.0
 20
0.0
 30
0.0
  0
VERTEX
  5
22B7
  8
3
 10
27.54999999999995
 20
17.90635988599999
 30
0.0
  0
VERTEX
  5
22B8
  8
3
 10
28.24369766509994
 20
18.04248802149999
 30
0.0
  0
VERTEX
  5
22B9
  8
3
 10
28.98682523389994
 20
18.07033287779998
 30
0.0
  0
VERTEX
  5
22BA
  8
3
 10
29.71335256089992
 20
17.9874203171
 30
0.0
  0
VERTEX
  5
22BB
  8
3
 10
30.3587245046001
 20
17.80111748439998
 30
0.0
  0
VERTEX
  5
22BC
  8
3
 10
30.86559693580011
 20
17.52797820390001
 30
0.0
  0
VERTEX
  5
22BD
  8
3
 10
31.18893201440005
 20
17.1922720993
 30
0.0
  0
VERTEX
  5
22BE
  8
3
 10
31.29999999999995
 20
16.82382813129999
 30
0.0
  0
VERTEX
  5
22BF
  8
3
 10
31.18893201440005
 20
16.45538416329998
 30
0.0
  0
VERTEX
  5
22C0
  8
3
 10
30.86559693580011
 20
16.11967805869998
 30
0.0
  0
VERTEX
  5
22C1
  8
3
 10
30.3587245046001
 20
15.8465387782
 30
0.0
  0
VERTEX
  5
22C2
  8
3
 10
29.71335256089992
 20
15.66023594549998
 30
0.0
  0
VERTEX
  5
22C3
  8
3
 10
28.98682523389994
 20
15.5773233848
 30
0.0
  0
VERTEX
  5
22C4
  8
3
 10
28.24369766509994
 20
15.60516824109999
 30
0.0
  0
VERTEX
  5
22C5
  8
3
 10
27.54999999999995
 20
15.74129637659999
 30
0.0
  0
VERTEX
  5
22C6
  8
3
 10
26.96737032040005
 20
15.9736122091
 30
0.0
  0
VERTEX
  5
22C7
  8
3
 10
26.5475778302
 20
16.28147345739998
 30
0.0
  0
VERTEX
  5
22C8
  8
3
 10
26.32792293440002
 20
16.6375252986
 30
0.0
  0
VERTEX
  5
22C9
  8
3
 10
26.32792293440002
 20
17.01013096399998
 30
0.0
  0
VERTEX
  5
22CA
  8
3
 10
26.5475778302
 20
17.3661828052
 30
0.0
  0
VERTEX
  5
22CB
  8
3
 10
26.96737032040005
 20
17.67404405349998
 30
0.0
  0
VERTEX
  5
22CC
  8
3
 10
27.54999999999995
 20
17.90635988599999
 30
0.0
  0
SEQEND
  5
2502
  8
3
  0
POLYLINE
  5
FEF
  8
3
 66
     1
 10
0.0
 20
0.0
 30
0.0
  0
VERTEX
  5
22CD
  8
3
 10
27.54999999999995
 20
17.98439943739999
 30
0.0
  0
VERTEX
  5
22CE
  8
3
 10
28.24369766509994
 20
18.12052757289999
 30
0.0
  0
VERTEX
  5
22CF
  8
3
 10
28.98682523389994
 20
18.14837242909999
 30
0.0
  0
VERTEX
  5
22D0
  8
3
 10
29.71335256089992
 20
18.0654598685
 30
0.0
  0
VERTEX
  5
22D1
  8
3
 10
30.3587245046001
 20
17.87915703569999
 30
0.0
  0
VERTEX
  5
22D2
  8
3
 10
30.86559693580011
 20
17.60601775519999
 30
0.0
  0
VERTEX
  5
22D3
  8
3
 10
31.18893201440005
 20
17.27031165069999
 30
0.0
  0
VERTEX
  5
22D4
  8
3
 10
31.29999999999995
 20
16.90186768269999
 30
0.0
  0
VERTEX
  5
22D5
  8
3
 10
31.18893201440005
 20
16.53342371459999
 30
0.0
  0
VERTEX
  5
22D6
  8
3
 10
30.86559693580011
 20
16.1977176101
 30
0.0
  0
VERTEX
  5
22D7
  8
3
 10
30.3587245046001
 20
15.9245783296
 30
0.0
  0
VERTEX
  5
22D8
  8
3
 10
29.71335256089992
 20
15.7382754969
 30
0.0
  0
VERTEX
  5
22D9
  8
3
 10
28.98682523389994
 20
15.65536293619999
 30
0.0
  0
VERTEX
  5
22DA
  8
3
 10
28.24369766509994
 20
15.6832077924
 30
0.0
  0
VERTEX
  5
22DB
  8
3
 10
27.54999999999995
 20
15.8193359279
 30
0.0
  0
VERTEX
  5
22DC
  8
3
 10
26.96737032040005
 20
16.05165176040001
 30
0.0
  0
VERTEX
  5
22DD
  8
3
 10
26.5475778302
 20
16.35951300879998
 30
0.0
  0
VERTEX
  5
22DE
  8
3
 10
26.32792293440002
 20
16.71556484990001
 30
0.0
  0
VERTEX
  5
22DF
  8
3
 10
26.32792293440002
 20
17.08817051539998
 30
0.0
  0
VERTEX
  5
22E0
  8
3
 10
26.5475778302
 20
17.44422235659999
 30
0.0
  0
VERTEX
  5
22E1
  8
3
 10
26.96737032040005
 20
17.75208360489998
 30
0.0
  0
VERTEX
  5
22E2
  8
3
 10
27.54999999999995
 20
17.98439943739999
 30
0.0
  0
SEQEND
  5
2501
  8
3
  0
POLYLINE
  5
FF0
  8
3
 66
     1
 10
0.0
 20
0.0
 30
0.0
  0
VERTEX
  5
22E3
  8
3
 10
27.77250000000004
 20
18.06155567969998
 30
0.0
  0
VERTEX
  5
22E4
  8
3
 10
28.40603465139998
 20
18.1801559866
 30
0.0
  0
VERTEX
  5
22E5
  8
3
 10
29.08226156130013
 20
18.18947601919999
 30
0.0
  0
VERTEX
  5
22E6
  8
3
 10
29.72790105130002
 20
18.08850580749998
 30
0.0
  0
VERTEX
  5
22E7
  8
3
 10
30.27298806449994
 20
17.8881870404
 30
0.0
  0
VERTEX
  5
22E8
  8
3
 10
30.65845396520012
 20
17.61022736479998
 30
0.0
  0
VERTEX
  5
22E9
  8
3
 10
30.84252754189993
 20
17.28474802439999
 30
0.0
  0
VERTEX
  5
22EA
  8
3
 10
30.80526156630003
 20
16.94701975609999
 30
0.0
  0
VERTEX
  5
22EB
  8
3
 10
30.55069438510009
 20
16.63364065819999
 30
0.0
  0
VERTEX
  5
22EC
  8
3
 10
30.10641230250008
 20
16.37857021849999
 30
0.0
  0
VERTEX
  5
22ED
  8
3
 10
29.52056017590007
 20
16.209449277
 30
0.0
  0
VERTEX
  5
22EE
  8
3
 10
28.85662417349999
 20
16.14460471179999
 30
0.0
  0
VERTEX
  5
22EF
  8
3
 10
28.18655206340009
 20
16.1910634379
 30
0.0
  0
VERTEX
  5
22F0
  8
3
 10
27.58295655579991
 20
16.3437909312
 30
0.0
  0
VERTEX
  5
22F1
  8
3
 10
27.11124658969993
 20
16.58623679819999
 30
0.0
  0
VERTEX
  5
22F2
  8
3
 10
26.82253925930013
 20
16.89212826719998
 30
0.0
  0
VERTEX
  5
22F3
  8
3
 10
26.74812048369995
 20
17.22831725099999
 30
0.0
  0
VERTEX
  5
22F4
  8
3
 10
26.89605469189996
 20
17.55837245699999
 30
0.0
  0
VERTEX
  5
22F5
  8
3
 10
27.25031091689993
 20
17.84652728199998
 30
0.0
  0
VERTEX
  5
22F6
  8
3
 10
27.77250000000004
 20
18.06155567969998
 30
0.0
  0
SEQEND
  5
2500
  8
3
  0
POLYLINE
  5
FF1
  8
3
 66
     1
 10
0.0
 20
0.0
 30
0.0
  0
VERTEX
  5
22F7
  8
3
 10
27.54999999999995
 20
18.5240932266
 30
0.0
  0
VERTEX
  5
22F8
  8
3
 10
28.24369766509994
 20
18.66022136209997
 30
0.0
  0
VERTEX
  5
22F9
  8
3
 10
28.98682523389994
 20
18.6880662184
 30
0.0
  0
VERTEX
  5
22FA
  8
3
 10
29.71335256089992
 20
18.60515365769999
 30
0.0
  0
VERTEX
  5
22FB
  8
3
 10
30.3587245046001
 20
18.41885082499999
 30
0.0
  0
VERTEX
  5
22FC
  8
3
 10
30.86559693580011
 20
18.14571154449999
 30
0.0
  0
VERTEX
  5
22FD
  8
3
 10
31.18893201440005
 20
17.81000543989998
 30
0.0
  0
VERTEX
  5
22FE
  8
3
 10
31.29999999999995
 20
17.44156147189997
 30
0.0
  0
VERTEX
  5
22FF
  8
3
 10
31.18893201440005
 20
17.07311750389999
 30
0.0
  0
VERTEX
  5
2300
  8
3
 10
30.86559693580011
 20
16.73741139929999
 30
0.0
  0
VERTEX
  5
2301
  8
3
 10
30.3587245046001
 20
16.46427211879998
 30
0.0
  0
VERTEX
  5
2302
  8
3
 10
29.71335256089992
 20
16.27796928609999
 30
0.0
  0
VERTEX
  5
2303
  8
3
 10
28.98682523389994
 20
16.19505672539998
 30
0.0
  0
VERTEX
  5
2304
  8
3
 10
28.24369766509994
 20
16.22290158169997
 30
0.0
  0
VERTEX
  5
2305
  8
3
 10
27.54999999999995
 20
16.3590297172
 30
0.0
  0
VERTEX
  5
2306
  8
3
 10
26.96737032040005
 20
16.59134554969998
 30
0.0
  0
VERTEX
  5
2307
  8
3
 10
26.5475778302
 20
16.89920679799999
 30
0.0
  0
VERTEX
  5
2308
  8
3
 10
26.32792293440002
 20
17.25525863919998
 30
0.0
  0
VERTEX
  5
2309
  8
3
 10
26.32792293440002
 20
17.6278643046
 30
0.0
  0
VERTEX
  5
230A
  8
3
 10
26.5475778302
 20
17.98391614579998
 30
0.0
  0
VERTEX
  5
230B
  8
3
 10
26.96737032040005
 20
18.2917773941
 30
0.0
  0
VERTEX
  5
230C
  8
3
 10
27.54999999999995
 20
18.5240932266
 30
0.0
  0
SEQEND
  5
24FF
  8
3
  0
POLYLINE
  5
FF2
  8
3
 66
     1
 10
0.0
 20
0.0
 30
0.0
  0
VERTEX
  5
230D
  8
3
 10
27.54999999999995
 20
18.602132778
 30
0.0
  0
VERTEX
  5
230E
  8
3
 10
28.24369766509994
 20
18.7382609135
 30
0.0
  0
VERTEX
  5
230F
  8
3
 10
28.98682523389994
 20
18.76610576969998
 30
0.0
  0
VERTEX
  5
2310
  8
3
 10
29.71335256089992
 20
18.68319320909998
 30
0.0
  0
VERTEX
  5
2311
  8
3
 10
30.3587245046001
 20
18.4968903763
 30
0.0
  0
VERTEX
  5
2312
  8
3
 10
30.86559693580011
 20
18.2237510958
 30
0.0
  0
VERTEX
  5
2313
  8
3
 10
31.18893201440005
 20
17.88804499130001
 30
0.0
  0
VERTEX
  5
2314
  8
3
 10
31.29999999999995
 20
17.5196010233
 30
0.0
  0
VERTEX
  5
2315
  8
3
 10
31.18893201440005
 20
17.1511570552
 30
0.0
  0
VERTEX
  5
2316
  8
3
 10
30.86559693580011
 20
16.81545095069998
 30
0.0
  0
VERTEX
  5
2317
  8
3
 10
30.3587245046001
 20
16.54231167019998
 30
0.0
  0
VERTEX
  5
2318
  8
3
 10
29.71335256089992
 20
16.35600883749999
 30
0.0
  0
VERTEX
  5
2319
  8
3
 10
28.98682523389994
 20
16.27309627679998
 30
0.0
  0
VERTEX
  5
231A
  8
3
 10
28.24369766509994
 20
16.30094113299998
 30
0.0
  0
VERTEX
  5
231B
  8
3
 10
27.54999999999995
 20
16.43706926849998
 30
0.0
  0
VERTEX
  5
231C
  8
3
 10
26.96737032040005
 20
16.66938510099999
 30
0.0
  0
VERTEX
  5
231D
  8
3
 10
26.5475778302
 20
16.97724634939999
 30
0.0
  0
VERTEX
  5
231E
  8
3
 10
26.32792293440002
 20
17.33329819049999
 30
0.0
  0
VERTEX
  5
231F
  8
3
 10
26.32792293440002
 20
17.70590385599999
 30
0.0
  0
VERTEX
  5
2320
  8
3
 10
26.5475778302
 20
18.06195569719998
 30
0.0
  0
VERTEX
  5
2321
  8
3
 10
26.96737032040005
 20
18.36981694549999
 30
0.0
  0
VERTEX
  5
2322
  8
3
 10
27.54999999999995
 20
18.602132778
 30
0.0
  0
SEQEND
  5
24FE
  8
3
  0
POLYLINE
  5
FF3
  8
3
 66
     1
 10
0.0
 20
0.0
 30
0.0
  0
VERTEX
  5
2323
  8
3
 10
27.77250000000004
 20
18.67928902029999
 30
0.0
  0
VERTEX
  5
2324
  8
3
 10
28.40603465139998
 20
18.79788932719998
 30
0.0
  0
VERTEX
  5
2325
  8
3
 10
29.08226156130013
 20
18.80720935989999
 30
0.0
  0
VERTEX
  5
2326
  8
3
 10
29.72790105130002
 20
18.7062391481
 30
0.0
  0
VERTEX
  5
2327
  8
3
 10
30.27298806449994
 20
18.50592038099998
 30
0.0
  0
VERTEX
  5
2328
  8
3
 10
30.65845396520012
 20
18.22796070539999
 30
0.0
  0
VERTEX
  5
2329
  8
3
 10
30.84252754189993
 20
17.902481365
 30
0.0
  0
VERTEX
  5
232A
  8
3
 10
30.80526156630003
 20
17.5647530967
 30
0.0
  0
VERTEX
  5
232B
  8
3
 10
30.55069438510009
 20
17.25137399880001
 30
0.0
  0
VERTEX
  5
232C
  8
3
 10
30.10641230250008
 20
16.9963035591
 30
0.0
  0
VERTEX
  5
232D
  8
3
 10
29.52056017590007
 20
16.82718261759999
 30
0.0
  0
VERTEX
  5
232E
  8
3
 10
28.85662417349999
 20
16.7623380524
 30
0.0
  0
VERTEX
  5
232F
  8
3
 10
28.18655206340009
 20
16.80879677849998
 30
0.0
  0
VERTEX
  5
2330
  8
3
 10
27.58295655579991
 20
16.96152427179999
 30
0.0
  0
VERTEX
  5
2331
  8
3
 10
27.11124658969993
 20
17.20397013879997
 30
0.0
  0
VERTEX
  5
2332
  8
3
 10
26.82253925930013
 20
17.50986160779999
 30
0.0
  0
VERTEX
  5
2333
  8
3
 10
26.74812048369995
 20
17.84605059169999
 30
0.0
  0
VERTEX
  5
2334
  8
3
 10
26.89605469189996
 20
18.1761057976
 30
0.0
  0
VERTEX
  5
2335
  8
3
 10
27.25031091689993
 20
18.46426062259999
 30
0.0
  0
VERTEX
  5
2336
  8
3
 10
27.77250000000004
 20
18.67928902029999
 30
0.0
  0
SEQEND
  5
24FD
  8
3
  0
POLYLINE
  5
FF4
  8
3
 66
     1
 10
0.0
 20
0.0
 30
0.0
  0
VERTEX
  5
2337
  8
3
 10
27.54999999999995
 20
19.14182656719998
 30
0.0
  0
VERTEX
  5
2338
  8
3
 10
28.24369766509994
 20
19.27795470269999
 30
0.0
  0
VERTEX
  5
2339
  8
3
 10
28.98682523389994
 20
19.30579955899998
 30
0.0
  0
VERTEX
  5
233A
  8
3
 10
29.71335256089992
 20
19.2228869983
 30
0.0
  0
VERTEX
  5
233B
  8
3
 10
30.3587245046001
 20
19.03658416559998
 30
0.0
  0
VERTEX
  5
233C
  8
3
 10
30.86559693580011
 20
18.76344488509997
 30
0.0
  0
VERTEX
  5
233D
  8
3
 10
31.18893201440005
 20
18.42773878049999
 30
0.0
  0
VERTEX
  5
233E
  8
3
 10
31.29999999999995
 20
18.05929481249999
 30
0.0
  0
VERTEX
  5
233F
  8
3
 10
31.18893201440005
 20
17.69085084449998
 30
0.0
  0
VERTEX
  5
2340
  8
3
 10
30.86559693580011
 20
17.3551447399
 30
0.0
  0
VERTEX
  5
2341
  8
3
 10
30.3587245046001
 20
17.08200545939999
 30
0.0
  0
VERTEX
  5
2342
  8
3
 10
29.71335256089992
 20
16.8957026267
 30
0.0
  0
VERTEX
  5
2343
  8
3
 10
28.98682523389994
 20
16.81279006599999
 30
0.0
  0
VERTEX
  5
2344
  8
3
 10
28.24369766509994
 20
16.84063492229998
 30
0.0
  0
VERTEX
  5
2345
  8
3
 10
27.54999999999995
 20
16.97676305779999
 30
0.0
  0
VERTEX
  5
2346
  8
3
 10
26.96737032040005
 20
17.20907889029999
 30
0.0
  0
VERTEX
  5
2347
  8
3
 10
26.5475778302
 20
17.51694013860001
 30
0.0
  0
VERTEX
  5
2348
  8
3
 10
26.32792293440002
 20
17.87299197979999
 30
0.0
  0
VERTEX
  5
2349
  8
3
 10
26.32792293440002
 20
18.24559764519998
 30
0.0
  0
VERTEX
  5
234A
  8
3
 10
26.5475778302
 20
18.60164948639999
 30
0.0
  0
VERTEX
  5
234B
  8
3
 10
26.96737032040005
 20
18.90951073469998
 30
0.0
  0
VERTEX
  5
234C
  8
3
 10
27.54999999999995
 20
19.14182656719998
 30
0.0
  0
SEQEND
  5
24FC
  8
3
  0
POLYLINE
  5
FF5
  8
3
 66
     1
 10
0.0
 20
0.0
 30
0.0
  0
VERTEX
  5
234D
  8
3
 10
27.54999999999995
 20
19.21986611859998
 30
0.0
  0
VERTEX
  5
234E
  8
3
 10
28.24369766509994
 20
19.35599425409998
 30
0.0
  0
VERTEX
  5
234F
  8
3
 10
28.98682523389994
 20
19.38383911029999
 30
0.0
  0
VERTEX
  5
2350
  8
3
 10
29.71335256089992
 20
19.30092654969999
 30
0.0
  0
VERTEX
  5
2351
  8
3
 10
30.3587245046001
 20
19.114623717
 30
0.0
  0
VERTEX
  5
2352
  8
3
 10
30.86559693580011
 20
18.84148443639998
 30
0.0
  0
VERTEX
  5
2353
  8
3
 10
31.18893201440005
 20
18.50577833189999
 30
0.0
  0
VERTEX
  5
2354
  8
3
 10
31.29999999999995
 20
18.13733436389998
 30
0.0
  0
VERTEX
  5
2355
  8
3
 10
31.18893201440005
 20
17.7688903959
 30
0.0
  0
VERTEX
  5
2356
  8
3
 10
30.86559693580011
 20
17.43318429129999
 30
0.0
  0
VERTEX
  5
2357
  8
3
 10
30.3587245046001
 20
17.16004501079999
 30
0.0
  0
VERTEX
  5
2358
  8
3
 10
29.71335256089992
 20
16.9737421781
 30
0.0
  0
VERTEX
  5
2359
  8
3
 10
28.98682523389994
 20
16.89082961739999
 30
0.0
  0
VERTEX
  5
235A
  8
3
 10
28.24369766509994
 20
16.91867447359999
 30
0.0
  0
VERTEX
  5
235B
  8
3
 10
27.54999999999995
 20
17.05480260909999
 30
0.0
  0
VERTEX
  5
235C
  8
3
 10
26.96737032040005
 20
17.28711844169999
 30
0.0
  0
VERTEX
  5
235D
  8
3
 10
26.5475778302
 20
17.59497968999997
 30
0.0
  0
VERTEX
  5
235E
  8
3
 10
26.32792293440002
 20
17.95103153109997
 30
0.0
  0
VERTEX
  5
235F
  8
3
 10
26.32792293440002
 20
18.3236371966
 30
0.0
  0
VERTEX
  5
2360
  8
3
 10
26.5475778302
 20
18.67968903779999
 30
0.0
  0
VERTEX
  5
2361
  8
3
 10
26.96737032040005
 20
18.9875502861
 30
0.0
  0
VERTEX
  5
2362
  8
3
 10
27.54999999999995
 20
19.21986611859998
 30
0.0
  0
SEQEND
  5
24FB
  8
3
  0
POLYLINE
  5
FF6
  8
3
 66
     1
 10
0.0
 20
0.0
 30
0.0
  0
VERTEX
  5
2363
  8
3
 10
27.77250000000004
 20
19.2970223609
 30
0.0
  0
VERTEX
  5
2364
  8
3
 10
28.40603465139998
 20
19.41562266779999
 30
0.0
  0
VERTEX
  5
2365
  8
3
 10
29.08226156130013
 20
19.4249427005
 30
0.0
  0
VERTEX
  5
2366
  8
3
 10
29.72790105130002
 20
19.32397248869998
 30
0.0
  0
VERTEX
  5
2367
  8
3
 10
30.27298806449994
 20
19.12365372159999
 30
0.0
  0
VERTEX
  5
2368
  8
3
 10
30.65845396520012
 20
18.84569404599998
 30
0.0
  0
VERTEX
  5
2369
  8
3
 10
30.84252754189993
 20
18.52021470559998
 30
0.0
  0
VERTEX
  5
236A
  8
3
 10
30.80526156630003
 20
18.18248643729999
 30
0.0
  0
VERTEX
  5
236B
  8
3
 10
30.55069438510009
 20
17.86910733939999
 30
0.0
  0
VERTEX
  5
236C
  8
3
 10
30.10641230250008
 20
17.61403689969998
 30
0.0
  0
VERTEX
  5
236D
  8
3
 10
29.52056017590007
 20
17.4449159582
 30
0.0
  0
VERTEX
  5
236E
  8
3
 10
28.85662417349999
 20
17.38007139299998
 30
0.0
  0
VERTEX
  5
236F
  8
3
 10
28.18655206340009
 20
17.42653011909999
 30
0.0
  0
VERTEX
  5
2370
  8
3
 10
27.58295655579991
 20
17.5792576124
 30
0.0
  0
VERTEX
  5
2371
  8
3
 10
27.11124658969993
 20
17.82170347939999
 30
0.0
  0
VERTEX
  5
2372
  8
3
 10
26.82253925930013
 20
18.1275949484
 30
0.0
  0
VERTEX
  5
2373
  8
3
 10
26.74812048369995
 20
18.4637839323
 30
0.0
  0
VERTEX
  5
2374
  8
3
 10
26.89605469189996
 20
18.79383913819998
 30
0.0
  0
VERTEX
  5
2375
  8
3
 10
27.25031091689993
 20
19.08199396320001
 30
0.0
  0
VERTEX
  5
2376
  8
3
 10
27.77250000000004
 20
19.2970223609
 30
0.0
  0
SEQEND
  5
24FA
  8
3
  0
POLYLINE
  5
FF7
  8
3
 66
     1
 10
0.0
 20
0.0
 30
0.0
  0
VERTEX
  5
2377
  8
3
 10
27.54999999999995
 20
19.7595599078
 30
0.0
  0
VERTEX
  5
2378
  8
3
 10
28.24369766509994
 20
19.8956880433
 30
0.0
  0
VERTEX
  5
2379
  8
3
 10
28.98682523389994
 20
19.92353289959999
 30
0.0
  0
VERTEX
  5
237A
  8
3
 10
29.71335256089992
 20
19.84062033889998
 30
0.0
  0
VERTEX
  5
237B
  8
3
 10
30.3587245046001
 20
19.65431750619999
 30
0.0
  0
VERTEX
  5
237C
  8
3
 10
30.86559693580011
 20
19.38117822569998
 30
0.0
  0
VERTEX
  5
237D
  8
3
 10
31.18893201440005
 20
19.0454721211
 30
0.0
  0
VERTEX
  5
237E
  8
3
 10
31.29999999999995
 20
18.6770281531
 30
0.0
  0
VERTEX
  5
237F
  8
3
 10
31.18893201440005
 20
18.30858418509999
 30
0.0
  0
VERTEX
  5
2380
  8
3
 10
30.86559693580011
 20
17.97287808049998
 30
0.0
  0
VERTEX
  5
2381
  8
3
 10
30.3587245046001
 20
17.69973880000001
 30
0.0
  0
VERTEX
  5
2382
  8
3
 10
29.71335256089992
 20
17.51343596729998
 30
0.0
  0
VERTEX
  5
2383
  8
3
 10
28.98682523389994
 20
17.43052340659997
 30
0.0
  0
VERTEX
  5
2384
  8
3
 10
28.24369766509994
 20
17.4583682629
 30
0.0
  0
VERTEX
  5
2385
  8
3
 10
27.54999999999995
 20
17.5944963984
 30
0.0
  0
VERTEX
  5
2386
  8
3
 10
26.96737032040005
 20
17.8268122309
 30
0.0
  0
VERTEX
  5
2387
  8
3
 10
26.5475778302
 20
18.13467347919999
 30
0.0
  0
VERTEX
  5
2388
  8
3
 10
26.32792293440002
 20
18.4907253204
 30
0.0
  0
VERTEX
  5
2389
  8
3
 10
26.32792293440002
 20
18.86333098579999
 30
0.0
  0
VERTEX
  5
238A
  8
3
 10
26.5475778302
 20
19.21938282699998
 30
0.0
  0
VERTEX
  5
238B
  8
3
 10
26.96737032040005
 20
19.52724407529999
 30
0.0
  0
VERTEX
  5
238C
  8
3
 10
27.54999999999995
 20
19.7595599078
 30
0.0
  0
SEQEND
  5
24F9
  8
3
  0
POLYLINE
  5
FF8
  8
3
 66
     1
 10
0.0
 20
0.0
 30
0.0
  0
VERTEX
  5
238D
  8
3
 10
27.54999999999995
 20
19.83759945919999
 30
0.0
  0
VERTEX
  5
238E
  8
3
 10
28.24369766509994
 20
19.97372759469999
 30
0.0
  0
VERTEX
  5
238F
  8
3
 10
28.98682523389994
 20
20.0015724509
 30
0.0
  0
VERTEX
  5
2390
  8
3
 10
29.71335256089992
 20
19.91865989030001
 30
0.0
  0
VERTEX
  5
2391
  8
3
 10
30.3587245046001
 20
19.73235705759998
 30
0.0
  0
VERTEX
  5
2392
  8
3
 10
30.86559693580011
 20
19.45921777709998
 30
0.0
  0
VERTEX
  5
2393
  8
3
 10
31.18893201440005
 20
19.12351167249997
 30
0.0
  0
VERTEX
  5
2394
  8
3
 10
31.29999999999995
 20
18.75506770449999
 30
0.0
  0
VERTEX
  5
2395
  8
3
 10
31.18893201440005
 20
18.38662373649998
 30
0.0
  0
VERTEX
  5
2396
  8
3
 10
30.86559693580011
 20
18.05091763189998
 30
0.0
  0
VERTEX
  5
2397
  8
3
 10
30.3587245046001
 20
17.77777835139997
 30
0.0
  0
VERTEX
  5
2398
  8
3
 10
29.71335256089992
 20
17.59147551869998
 30
0.0
  0
VERTEX
  5
2399
  8
3
 10
28.98682523389994
 20
17.508562958
 30
0.0
  0
VERTEX
  5
239A
  8
3
 10
28.24369766509994
 20
17.53640781419998
 30
0.0
  0
VERTEX
  5
239B
  8
3
 10
27.54999999999995
 20
17.67253594970001
 30
0.0
  0
VERTEX
  5
239C
  8
3
 10
26.96737032040005
 20
17.9048517823
 30
0.0
  0
VERTEX
  5
239D
  8
3
 10
26.5475778302
 20
18.21271303059999
 30
0.0
  0
VERTEX
  5
239E
  8
3
 10
26.32792293440002
 20
18.5687648718
 30
0.0
  0
VERTEX
  5
239F
  8
3
 10
26.32792293440002
 20
18.94137053719999
 30
0.0
  0
VERTEX
  5
23A0
  8
3
 10
26.5475778302
 20
19.2974223784
 30
0.0
  0
VERTEX
  5
23A1
  8
3
 10
26.96737032040005
 20
19.60528362669999
 30
0.0
  0
VERTEX
  5
23A2
  8
3
 10
27.54999999999995
 20
19.83759945919999
 30
0.0
  0
SEQEND
  5
24F8
  8
3
  0
POLYLINE
  5
FF9
  8
3
 66
     1
 10
0.0
 20
0.0
 30
0.0
  0
VERTEX
  5
23A3
  8
3
 10
27.77250000000004
 20
19.91475570149998
 30
0.0
  0
VERTEX
  5
23A4
  8
3
 10
28.40603465139998
 20
20.03335600839998
 30
0.0
  0
VERTEX
  5
23A5
  8
3
 10
29.08226156130013
 20
20.04267604109998
 30
0.0
  0
VERTEX
  5
23A6
  8
3
 10
29.72790105130002
 20
19.94170582929999
 30
0.0
  0
VERTEX
  5
23A7
  8
3
 10
30.27298806449994
 20
19.7413870622
 30
0.0
  0
VERTEX
  5
23A8
  8
3
 10
30.65845396520012
 20
19.46342738659999
 30
0.0
  0
VERTEX
  5
23A9
  8
3
 10
30.84252754189993
 20
19.13794804619999
 30
0.0
  0
VERTEX
  5
23AA
  8
3
 10
30.80526156630003
 20
18.8002197779
 30
0.0
  0
VERTEX
  5
23AB
  8
3
 10
30.55069438510009
 20
18.48684067999997
 30
0.0
  0
VERTEX
  5
23AC
  8
3
 10
30.10641230250008
 20
18.23177024029999
 30
0.0
  0
VERTEX
  5
23AD
  8
3
 10
29.52056017590007
 20
18.06264929879998
 30
0.0
  0
VERTEX
  5
23AE
  8
3
 10
28.85662417349999
 20
17.99780473359999
 30
0.0
  0
VERTEX
  5
23AF
  8
3
 10
28.18655206340009
 20
18.04426345969998
 30
0.0
  0
VERTEX
  5
23B0
  8
3
 10
27.58295655579991
 20
18.19699095299998
 30
0.0
  0
VERTEX
  5
23B1
  8
3
 10
27.11124658969993
 20
18.43943682
 30
0.0
  0
VERTEX
  5
23B2
  8
3
 10
26.82253925930013
 20
18.74532828899999
 30
0.0
  0
VERTEX
  5
23B3
  8
3
 10
26.74812048369995
 20
19.08151727289999
 30
0.0
  0
VERTEX
  5
23B4
  8
3
 10
26.89605469189996
 20
19.4115724788
 30
0.0
  0
VERTEX
  5
23B5
  8
3
 10
27.25031091689993
 20
19.69972730379999
 30
0.0
  0
VERTEX
  5
23B6
  8
3
 10
27.77250000000004
 20
19.91475570149998
 30
0.0
  0
SEQEND
  5
24F7
  8
3
  0
LINE
  5
FFA
  8
3
 10
28.79999999999995
 20
17.63083384539999
 30
0.0
 11
30.04999999999995
 21
17.2699899271
 31
0.0
  0
POLYLINE
  5
FFB
  8
3
 66
     1
 10
0.0
 20
0.0
 30
0.0
  0
VERTEX
  5
23B7
  8
3
 10
27.67194843660013
 20
20.12378434639999
 30
0.0
  0
VERTEX
  5
23B8
  8
3
 10
27.12338863550008
 20
19.90167686229998
 30
0.0
  0
VERTEX
  5
23B9
  8
3
 10
26.73894723650005
 20
19.60568294179998
 30
0.0
  0
VERTEX
  5
23BA
  8
3
 10
26.55625604210013
 20
19.2647765321
 30
0.0
  0
VERTEX
  5
23BB
  8
3
 10
26.5931981394001
 20
18.91232792779999
 30
0.0
  0
VERTEX
  5
23BC
  8
3
 10
26.84615737860008
 20
18.582837254
 30
0.0
  0
VERTEX
  5
23BD
  8
3
 10
27.2903723467
 20
18.3085573534
 30
0.0
  0
VERTEX
  5
23BE
  8
3
 10
27.88236018769999
 20
18.11633665389999
 30
0.0
  0
VERTEX
  5
23BF
  8
3
 10
28.5641730072
 20
18.02499105679999
 30
0.0
  0
VERTEX
  5
23C0
  8
3
 10
29.26907021569991
 20
18.04346210539998
 30
0.0
  0
VERTEX
  5
23C1
  8
3
 10
29.9280515634
 20
18.16994172499997
 30
0.0
  0
VERTEX
  5
23C2
  8
3
 10
30.47661136440001
 20
18.39204920899999
 30
0.0
  0
VERTEX
  5
23C3
  8
3
 10
30.86105276350008
 20
18.6880431296
 30
0.0
  0
VERTEX
  5
23C4
  8
3
 10
31.04374395779996
 20
19.02894953929999
 30
0.0
  0
VERTEX
  5
23C5
  8
3
 10
31.00680186049999
 20
19.38139814359999
 30
0.0
  0
VERTEX
  5
23C6
  8
3
 10
30.75384262140005
 20
19.71088881739999
 30
0.0
  0
VERTEX
  5
23C7
  8
3
 10
30.3096276532001
 20
19.9851687179
 30
0.0
  0
VERTEX
  5
23C8
  8
3
 10
29.7176398122001
 20
20.17738941739998
 30
0.0
  0
VERTEX
  5
23C9
  8
3
 10
29.03582699279991
 20
20.2687350146
 30
0.0
  0
VERTEX
  5
23CA
  8
3
 10
28.33092978419995
 20
20.25026396589999
 30
0.0
  0
VERTEX
  5
23CB
  8
3
 10
27.67194843660013
 20
20.12378434639999
 30
0.0
  0
SEQEND
  5
24F6
  8
3
  0
LINE
  5
FFC
  8
3
 10
28.79999999999995
 20
17.63083384539999
 30
0.0
 11
27.54999999999995
 21
17.2699899271
 31
0.0
  0
LINE
  5
FFD
  8
3
 10
28.79999999999995
 20
17.63083384539999
 30
0.0
 11
28.79999999999995
 21
19.96910243559998
 31
0.0
  0
LINE
  5
FFE
  8
3
 10
28.79999999999995
 20
19.96910243559998
 30
0.0
 11
27.54999999999995
 21
19.60825851729999
 31
0.0
  0
POLYLINE
  5
FFF
  8
3
 66
     1
 10
0.0
 20
0.0
 30
0.0
  0
VERTEX
  5
23CC
  8
3
 10
30.57968220480006
 20
19.7611645991
 30
0.0
  0
VERTEX
  5
23CD
  8
3
 10
30.81688281860011
 20
19.44439727339997
 30
0.0
  0
VERTEX
  5
23CE
  8
3
 10
30.83552288390001
 20
19.10628381839999
 30
0.0
  0
VERTEX
  5
23CF
  8
3
 10
30.63358246029998
 20
18.78346407339998
 30
0.0
  0
VERTEX
  5
23D0
  8
3
 10
30.23294492619993
 20
18.5109205668
 30
0.0
  0
VERTEX
  5
23D1
  8
3
 10
29.67702557489997
 20
18.31818761649998
 30
0.0
  0
VERTEX
  5
23D2
  8
3
 10
29.02606689410004
 20
18.22615082819999
 30
0.0
  0
VERTEX
  5
23D3
  8
3
 10
28.35061035750005
 20
18.24478381589998
 30
0.0
  0
VERTEX
  5
23D4
  8
3
 10
27.72385216170005
 20
18.37206740649998
 30
0.0
  0
VERTEX
  5
23D5
  8
3
 10
27.21371128229998
 20
18.59420844779999
 30
0.0
  0
VERTEX
  5
23D6
  8
3
 10
26.87546939930007
 20
18.88713451109999
 30
0.0
  0
VERTEX
  5
23D7
  8
3
 10
26.74578026900008
 20
19.2191025123
 30
0.0
  0
VERTEX
  5
23D8
  8
3
 10
26.83869772110006
 20
19.55413856739997
 30
0.0
  0
VERTEX
  5
23D9
  8
3
 10
27.1441527078
 20
19.85593632120001
 30
0.0
  0
VERTEX
  5
23DA
  8
3
 10
27.62904444180003
 20
20.09179130419997
 30
0.0
  0
VERTEX
  5
23DB
  8
3
 10
28.24082737970002
 20
20.23614496939999
 30
0.0
  0
VERTEX
  5
23DC
  8
3
 10
28.91320534750002
 20
20.27335435719999
 30
0.0
  0
VERTEX
  5
23DD
  8
3
 10
29.57331575929993
 20
20.1993872532
 30
0.0
  0
VERTEX
  5
23DE
  8
3
 10
30.14962540939996
 20
20.0222591406
 30
0.0
  0
VERTEX
  5
23DF
  8
3
 10
30.57968220480006
 20
19.7611645991
 30
0.0
  0
SEQEND
  5
24F5
  8
3
  0
LINE
  5
1000
  8
3
 10
28.79999999999995
 20
19.96910243559998
 30
0.0
 11
30.04999999999995
 21
19.60825851729999
 31
0.0
  0
LINE
  5
1001
  8
3
 10
30.04999999999995
 20
16.5483020906
 30
0.0
 11
30.04999999999995
 21
17.2699899271
 31
0.0
  0
LINE
  5
1002
  8
3
 10
30.04999999999995
 20
17.2699899271
 30
0.0
 11
30.04999999999995
 21
19.60825851729999
 31
0.0
  0
LINE
  5
1003
  8
3
 10
27.54999999999995
 20
17.2699899271
 30
0.0
 11
27.54999999999995
 21
19.60825851729999
 31
0.0
  0
LINE
  5
1004
  8
3
 10
27.54999999999995
 20
17.2699899271
 30
0.0
 11
27.54999999999995
 21
16.5483020906
 31
0.0
  0
LINE
  5
1005
  8
3
 10
28.79999999999995
 20
16.1874581724
 30
0.0
 11
28.79999999999995
 21
17.63083384539999
 31
0.0
  0
LINE
  5
1006
  8
3
 10
28.79999999999995
 20
18.52572676259999
 30
0.0
 11
27.54999999999995
 21
18.88657068089998
 31
0.0
  0
LINE
  5
1007
  8
3
 10
28.79999999999995
 20
16.1874581724
 30
0.0
 11
27.54999999999995
 21
16.5483020906
 31
0.0
  0
LINE
  5
1008
  8
3
 10
30.04999999999995
 20
18.88657068089998
 30
0.0
 11
28.79999999999995
 21
18.52572676259999
 31
0.0
  0
LINE
  5
1009
  8
3
 10
30.04999999999995
 20
16.5483020906
 30
0.0
 11
28.79999999999995
 21
16.1874581724
 31
0.0
  0
CIRCLE
  5
100A
  8
3
 10
28.79999999999995
 20
0.0
 30
0.0
 40
2.316732743452349
  0
CIRCLE
  5
100B
  8
3
 10
28.79999999999995
 20
0.0
 30
0.0
 40
1.749999999999996
  0
LINE
  5
100C
  8
3
 10
45.38598999999999
 20
0.0
 30
0.0
 11
45.38598999999999
 21
-9.525000000000006
 31
0.0
  0
LINE
  5
100D
  8
3
 10
45.38598999999999
 20
9.525000000000006
 30
0.0
 11
45.38598999999999
 21
0.0
 31
0.0
  0
LINE
  5
100E
  8
3
 10
44.45000000000005
 20
0.0
 30
0.0
 11
44.45000000000005
 21
-8.589010000000002
 31
0.0
  0
LINE
  5
100F
  8
3
 10
44.45000000000005
 20
8.589010000000002
 30
0.0
 11
44.45000000000005
 21
0.0
 31
0.0
  0
LINE
  5
1019
  8
3
 10
36.31016030489991
 20
-25.39869000000002
 30
0.0
 11
36.31016030489991
 21
-41.28131
 31
0.0
  0
LINE
  5
101A
  8
3
 10
35.67203951059992
 20
-25.40869000000001
 30
0.0
 11
35.67203951059992
 21
-41.27131000000001
 31
0.0
  0
LINE
  5
101B
  8
3
 10
36.31016030489991
 20
41.28130999999999
 30
0.0
 11
36.31016030489991
 21
25.39868999999999
 31
0.0
  0
LINE
  5
101C
  8
3
 10
35.67203951059992
 20
41.27131
 30
0.0
 11
35.67203951059992
 21
25.40868999999998
 31
0.0
  0
POLYLINE
  5
101F
  8
3
 66
     1
 10
0.0
 20
0.0
 30
0.0
  0
VERTEX
  5
23E0
  8
3
 10
28.79999999999995
 20
-20.4251921181
 30
0.0
  0
VERTEX
  5
23E1
  8
3
 10
27.93454986310007
 20
-20.36649699210002
 30
0.0
  0
VERTEX
  5
23E2
  8
3
 10
27.1667188455001
 20
-20.19245946560002
 30
0.0
  0
VERTEX
  5
23E3
  8
3
 10
26.57922254839991
 20
-19.90899442930001
 30
0.0
  0
VERTEX
  5
23E4
  8
3
 10
26.24067737619998
 20
-19.53253835450002
 30
0.0
  0
VERTEX
  5
23E5
  8
3
 10
26.19164696739995
 20
-19.09813713690002
 30
0.0
  0
VERTEX
  5
23E6
  8
3
 10
26.43369714730011
 20
-18.65407802670001
 30
0.0
  0
VERTEX
  5
23E7
  8
3
 10
26.9397496516001
 20
-18.25444359530002
 30
0.0
  0
VERTEX
  5
23E8
  8
3
 10
27.65808874439995
 20
-17.95645313970002
 30
0.0
  0
VERTEX
  5
23E9
  8
3
 10
28.50648680259997
 20
-17.81011291500002
 30
0.0
  0
VERTEX
  5
23EA
  8
3
 10
29.38323728759997
 20
-17.83967191370002
 30
0.0
  0
VERTEX
  5
23EB
  8
3
 10
30.19188691459999
 20
-18.03786829040001
 30
0.0
  0
VERTEX
  5
23EC
  8
3
 10
30.84812351770006
 20
-18.37387293750001
 30
0.0
  0
VERTEX
  5
23ED
  8
3
 10
31.27671097010011
 20
-18.79777639310001
 30
0.0
  0
VERTEX
  5
23EE
  8
3
 10
31.42499994340005
 20
-19.2471420654
 30
0.0
  0
VERTEX
  5
23EF
  8
3
 10
31.27885978840004
 20
-19.66469852020001
 30
0.0
  0
VERTEX
  5
23F0
  8
3
 10
30.85706618659992
 20
-20.01087492800002
 30
0.0
  0
VERTEX
  5
23F1
  8
3
 10
30.20241705169997
 20
-20.2607299158
 30
0.0
  0
VERTEX
  5
23F2
  8
3
 10
29.38680521619995
 20
-20.39873245380002
 30
0.0
  0
VERTEX
  5
23F3
  8
3
 10
28.79999999999995
 20
-20.4251921181
 30
0.0
  0
SEQEND
  5
24F4
  8
3
  0
POLYLINE
  5
1020
  8
3
 66
     1
 10
0.0
 20
0.0
 30
0.0
  0
VERTEX
  5
23F4
  8
3
 10
28.79999999999995
 20
17.8001921181
 30
0.0
  0
VERTEX
  5
23F5
  8
3
 10
27.93454986310007
 20
17.88826757149999
 30
0.0
  0
VERTEX
  5
23F6
  8
3
 10
27.1667188455001
 20
18.13746124899998
 30
0.0
  0
VERTEX
  5
23F7
  8
3
 10
26.57922254839991
 20
18.50943288709999
 30
0.0
  0
VERTEX
  5
23F8
  8
3
 10
26.24067737619998
 20
18.94902082489997
 30
0.0
  0
VERTEX
  5
23F9
  8
3
 10
26.19164696739995
 20
19.3932971911
 30
0.0
  0
VERTEX
  5
23FA
  8
3
 10
26.43369714730011
 20
19.7904036004
 30
0.0
  0
VERTEX
  5
23FB
  8
3
 10
26.9397496516001
 20
20.10649479359998
 30
0.0
  0
VERTEX
  5
23FC
  8
3
 10
27.65808874439995
 20
20.32006556229999
 30
0.0
  0
VERTEX
  5
23FD
  8
3
 10
28.50648680259997
 20
20.41865177849999
 30
0.0
  0
VERTEX
  5
23FE
  8
3
 10
29.38323728759997
 20
20.3990584156
 30
0.0
  0
VERTEX
  5
23FF
  8
3
 10
30.19188691459999
 20
20.26346389989999
 30
0.0
  0
VERTEX
  5
2400
  8
3
 10
30.84812351770006
 20
20.0157666783
 30
0.0
  0
VERTEX
  5
2401
  8
3
 10
31.27671097010011
 20
19.66756244179999
 30
0.0
  0
VERTEX
  5
2402
  8
3
 10
31.42499994340005
 20
19.2476871213
 30
0.0
  0
VERTEX
  5
2403
  8
3
 10
31.27885978840004
 20
18.80105556769999
 30
0.0
  0
VERTEX
  5
2404
  8
3
 10
30.85706618659992
 20
18.38019908519999
 30
0.0
  0
VERTEX
  5
2405
  8
3
 10
30.20241705169997
 20
18.04175460880001
 30
0.0
  0
VERTEX
  5
2406
  8
3
 10
29.38680521619995
 20
17.84016163429999
 30
0.0
  0
VERTEX
  5
2407
  8
3
 10
28.79999999999995
 20
17.8001921181
 30
0.0
  0
SEQEND
  5
24F3
  8
3
  0
CIRCLE
  5
1021
  8
3
 10
28.79999999999995
 20
0.0
 30
0.0
 40
2.100000000000136
  0
LINE
  5
1022
  8
3
 10
26.40000000000009
 20
2.5
 30
0.0
 11
26.40000000000009
 21
1.032395636399997
 31
0.0
  0
LINE
  5
1023
  8
3
 10
26.40000000000009
 20
-0.9774083349000193
 30
0.0
 11
26.40000000000009
 21
-2.5
 31
0.0
  0
POLYLINE
  5
1024
  8
3
 66
     1
 10
0.0
 20
0.0
 30
0.0
  0
VERTEX
  5
2408
  8
3
 10
26.70000000000005
 20
0.0
 30
0.0
  0
VERTEX
  5
2409
  8
3
 10
26.78291670010003
 20
0.5842730195999764
 30
0.0
  0
VERTEX
  5
240A
  8
3
 10
26.81199205899998
 20
0.6500585863999788
 30
0.0
  0
SEQEND
  5
24F2
  8
3
  0
POLYLINE
  5
1025
  8
3
 66
     1
 10
0.0
 20
0.0
 30
0.0
  0
VERTEX
  5
240B
  8
3
 10
30.88113696270011
 20
0.0928945220999822
 30
0.0
  0
VERTEX
  5
240C
  8
3
 10
30.89943086550011
 20
-0.048888045200016
 30
0.0
  0
VERTEX
  5
240D
  8
3
 10
30.81699145149992
 20
-0.576557045100003
 30
0.0
  0
SEQEND
  5
24F1
  8
3
  0
LINE
  5
1026
  8
3
 10
26.70607989690006
 20
-0.1206294011000182
 30
0.0
 11
26.70000000000005
 21
0.0
 31
0.0
  0
LINE
  5
1029
  8
3
 10
36.29999999999995
 20
9.525000000000006
 30
0.0
 11
36.29999999999995
 21
-9.525000000000006
 31
0.0
  0
POLYLINE
  5
102C
  8
3
 66
     1
 10
0.0
 20
0.0
 30
0.0
  0
VERTEX
  5
240E
  8
3
 10
28.36000000000013
 20
8.376098114899975
 30
0.0
  0
VERTEX
  5
240F
  8
3
 10
29.04658401420011
 20
8.385361737099998
 30
0.0
  0
VERTEX
  5
2410
  8
3
 10
29.70534192450009
 20
8.32869061849999
 30
0.0
  0
VERTEX
  5
2411
  8
3
 10
30.26986114879992
 20
8.199006145999988
 30
0.0
  0
VERTEX
  5
2412
  8
3
 10
30.68423989200005
 20
7.982314809799988
 30
0.0
  0
VERTEX
  5
2413
  8
3
 10
30.88558884310009
 20
7.681292093699994
 30
0.0
  0
VERTEX
  5
2414
  8
3
 10
30.85157137009992
 20
7.327310983099977
 30
0.0
  0
VERTEX
  5
2415
  8
3
 10
30.59851731489994
 20
6.960904517999978
 30
0.0
  0
VERTEX
  5
2416
  8
3
 10
30.14694095899995
 20
6.62607068219998
 30
0.0
  0
VERTEX
  5
2417
  8
3
 10
29.53297732910005
 20
6.382953942099988
 30
0.0
  0
VERTEX
  5
2418
  8
3
 10
28.83766447790003
 20
6.289760770399994
 30
0.0
  0
VERTEX
  5
2419
  8
3
 10
28.36000000000013
 20
6.322710669700001
 30
0.0
  0
SEQEND
  5
24F0
  8
3
  0
LINE
  5
102D
  8
3
 10
28.36000000000013
 20
8.731249999999989
 30
0.0
 11
28.36000000000013
 21
2.053387445200002
 31
0.0
  0
LINE
  5
102E
  8
3
 10
28.36000000000013
 20
-2.053387445200002
 30
0.0
 11
28.36000000000013
 21
-8.731250000000017
 31
0.0
  0
POLYLINE
  5
102F
  8
3
 66
     1
 10
0.0
 20
0.0
 30
0.0
  0
VERTEX
  5
241A
  8
3
 10
28.36000000000013
 20
-6.322710669700001
 30
0.0
  0
VERTEX
  5
241B
  8
3
 10
29.04658401420011
 20
-6.299889051200012
 30
0.0
  0
VERTEX
  5
241C
  8
3
 10
29.70534192450009
 20
-6.433867143900017
 30
0.0
  0
VERTEX
  5
241D
  8
3
 10
30.26986114879992
 20
-6.699170087300018
 30
0.0
  0
VERTEX
  5
241E
  8
3
 10
30.68423989200005
 20
-7.055147063700019
 30
0.0
  0
VERTEX
  5
241F
  8
3
 10
30.88558884310009
 20
-7.43569246520002
 30
0.0
  0
VERTEX
  5
2420
  8
3
 10
30.85157137009992
 20
-7.775702456200008
 30
0.0
  0
VERTEX
  5
2421
  8
3
 10
30.59851731489994
 20
-8.045033416199999
 30
0.0
  0
VERTEX
  5
2422
  8
3
 10
30.14694095899995
 20
-8.23720384020001
 30
0.0
  0
VERTEX
  5
2423
  8
3
 10
29.53297732910005
 20
-8.350882862399999
 30
0.0
  0
VERTEX
  5
2424
  8
3
 10
28.83766447790003
 20
-8.389422978300018
 30
0.0
  0
VERTEX
  5
2425
  8
3
 10
28.36000000000013
 20
-8.376098114900003
 30
0.0
  0
SEQEND
  5
24EF
  8
3
  0
LINE
  5
1030
  8
3
 10
28.36000000000013
 20
-2.053387445200002
 30
0.0
 11
28.36000000000013
 21
2.053387445200002
 31
0.0
  0
ARC
  5
1031
  8
3
 10
45.24987413460008
 20
-3.060968744700006
 30
0.0
 40
20.39790054475463
 50
145.8959008018001
 51
154.1640344849
  0
POLYLINE
  5
1032
  8
3
 66
     1
 10
0.0
 20
0.0
 30
0.0
  0
VERTEX
  5
2426
  8
3
 10
26.89083773800007
 20
4.95365831929999
 30
0.0
  0
VERTEX
  5
2427
  8
3
 10
26.86200086600002
 20
5.679087691599989
 30
0.0
  0
VERTEX
  5
2428
  8
3
 10
26.89083773800007
 20
5.828357957799994
 30
0.0
  0
SEQEND
  5
24EE
  8
3
  0
ARC
  5
1033
  8
3
 10
25.44883888970003
 20
7.973923638999992
 30
0.0
 40
3.346843778856061
 50
295.5217279631984
 51
330.4380571394994
  0
ARC
  5
1034
  8
3
 10
25.53562028059991
 20
-7.880796488300007
 30
0.0
 40
3.225639815166315
 50
28.88358561159953
 51
65.15662928580048
  0
POLYLINE
  5
1035
  8
3
 66
     1
 10
0.0
 20
0.0
 30
0.0
  0
VERTEX
  5
2429
  8
3
 10
26.89083773800007
 20
-5.828357957800023
 30
0.0
  0
VERTEX
  5
242A
  8
3
 10
26.86471616630001
 20
-5.061145281800009
 30
0.0
  0
VERTEX
  5
242B
  8
3
 10
26.89083773800007
 20
-4.953658319300018
 30
0.0
  0
SEQEND
  5
24ED
  8
3
  0
ARC
  5
1036
  8
3
 10
45.8954284194001
 20
3.433229624799992
 30
0.0
 40
21.14122682146072
 50
205.9815590038
 51
213.9585057095001
  0
LINE
  5
1037
  8
3
 10
26.11803881519995
 20
-5.0
 30
0.0
 11
26.11803881519995
 21
4.999999999999972
 31
0.0
  0
LINE
  5
103C
  8
SK3
 10
-25.75
 20
0.0
 30
0.0
 11
-25.75
 21
6.687997799999977
 31
0.0
  0
LINE
  5
103D
  8
SK3
 10
-25.75
 20
-6.687997800000005
 30
0.0
 11
-25.75
 21
0.0
 31
0.0
  0
LINE
  5
103E
  8
SK3
 10
-24.73574859699988
 20
0.0
 30
0.0
 11
-24.73574859699988
 21
-5.0
 31
0.0
  0
LINE
  5
103F
  8
SK3
 10
-24.73574859699988
 20
4.999999999999972
 30
0.0
 11
-24.73574859699988
 21
0.0
 31
0.0
  0
POLYLINE
  5
1044
  8
3
 66
     1
 10
0.0
 20
0.0
 30
0.0
  0
VERTEX
  5
242C
  8
3
 10
28.79999999999995
 20
-9.899621640500015
 30
0.0
  0
VERTEX
  5
242D
  8
3
 10
28.36950191479991
 20
-9.864179640200007
 30
0.0
  0
VERTEX
  5
242E
  8
3
 10
27.83703286340005
 20
-9.750604364400004
 30
0.0
  0
VERTEX
  5
242F
  8
3
 10
27.21300752110005
 20
-9.628692381700006
 30
0.0
  0
VERTEX
  5
2430
  8
3
 10
26.86808712519996
 20
-9.668426161700012
 30
0.0
  0
VERTEX
  5
2431
  8
3
 10
26.71812635330002
 20
-9.834800584900023
 30
0.0
  0
VERTEX
  5
2432
  8
3
 10
26.72272071030011
 20
-10.12983200000002
 30
0.0
  0
VERTEX
  5
2433
  8
3
 10
26.86608480940004
 20
-10.48788236980002
 30
0.0
  0
VERTEX
  5
2434
  8
3
 10
27.14265239790006
 20
-10.91443012830001
 30
0.0
  0
VERTEX
  5
2435
  8
3
 10
27.72176412559998
 20
-11.52473586090002
 30
0.0
  0
VERTEX
  5
2436
  8
3
 10
28.26818473210005
 20
-11.87833521980002
 30
0.0
  0
VERTEX
  5
2437
  8
3
 10
28.67919391000009
 20
-11.99323325820001
 30
0.0
  0
VERTEX
  5
2438
  8
3
 10
29.10734941800001
 20
-11.9585376885
 30
0.0
  0
VERTEX
  5
2439
  8
3
 10
29.58999124549996
 20
-11.73779149020001
 30
0.0
  0
VERTEX
  5
243A
  8
3
 10
30.22564794270011
 20
-11.19110083290002
 30
0.0
  0
VERTEX
  5
243B
  8
3
 10
30.69764658169993
 20
-10.55396216050002
 30
0.0
  0
VERTEX
  5
243C
  8
3
 10
30.8699924988
 20
-10.15794439880003
 30
0.0
  0
VERTEX
  5
243D
  8
3
 10
30.88648328399995
 20
-9.850175031100008
 30
0.0
  0
VERTEX
  5
243E
  8
3
 10
30.75907872619996
 20
-9.682587339800023
 30
0.0
  0
VERTEX
  5
243F
  8
3
 10
30.50128011740003
 20
-9.624450276299996
 30
0.0
  0
VERTEX
  5
2440
  8
3
 10
29.95134506630006
 20
-9.705389188600009
 30
0.0
  0
VERTEX
  5
2441
  8
3
 10
29.36685024999997
 20
-9.840150500100009
 30
0.0
  0
VERTEX
  5
2442
  8
3
 10
28.94197040640006
 20
-9.8956072947
 30
0.0
  0
VERTEX
  5
2443
  8
3
 10
28.79999999999995
 20
-9.899621640500015
 30
0.0
  0
SEQEND
  5
24EC
  8
3
  0
ARC
  5
1045
  8
3
 10
27.30863016629996
 20
-5.3910081386
 30
0.0
 40
0.6048350002230083
 50
133.6898546344082
 51
226.3101453655946
  0
ARC
  5
1046
  8
3
 10
27.30863016629996
 20
5.391008138499984
 30
0.0
 40
0.6048350002230134
 50
133.6898546344082
 51
226.3101453655918
  0
POLYLINE
  5
1047
  8
3
 66
     1
 10
0.0
 20
0.0
 30
0.0
  0
VERTEX
  5
2444
  8
3
 10
28.79999999999995
 20
11.99962164049998
 30
0.0
  0
VERTEX
  5
2445
  8
3
 10
28.36950191479991
 20
11.91958018469998
 30
0.0
  0
VERTEX
  5
2446
  8
3
 10
27.83703286340005
 20
11.61680218179998
 30
0.0
  0
VERTEX
  5
2447
  8
3
 10
27.21300752110005
 20
11.00399412019999
 30
0.0
  0
VERTEX
  5
2448
  8
3
 10
26.86808712519996
 20
10.49165920549999
 30
0.0
  0
VERTEX
  5
2449
  8
3
 10
26.71812635330002
 20
10.11012243139999
 30
0.0
  0
VERTEX
  5
244A
  8
3
 10
26.72272071030011
 20
9.821756112200006
 30
0.0
  0
VERTEX
  5
244B
  8
3
 10
26.86608480940004
 20
9.669364174799995
 30
0.0
  0
VERTEX
  5
244C
  8
3
 10
27.14265239790006
 20
9.624779429099988
 30
0.0
  0
VERTEX
  5
244D
  8
3
 10
27.72176412559998
 20
9.722679424699976
 30
0.0
  0
VERTEX
  5
244E
  8
3
 10
28.26818473210005
 20
9.8467908513
 30
0.0
  0
VERTEX
  5
244F
  8
3
 10
28.67919391000009
 20
9.896710926099985
 30
0.0
  0
VERTEX
  5
2450
  8
3
 10
29.10734941800001
 20
9.881150787699994
 30
0.0
  0
VERTEX
  5
2451
  8
3
 10
29.58999124549996
 20
9.792049001599992
 30
0.0
  0
VERTEX
  5
2452
  8
3
 10
30.22564794270011
 20
9.649177377099988
 30
0.0
  0
VERTEX
  5
2453
  8
3
 10
30.69764658169993
 20
9.654552659199993
 30
0.0
  0
VERTEX
  5
2454
  8
3
 10
30.8699924988
 20
9.804205717200006
 30
0.0
  0
VERTEX
  5
2455
  8
3
 10
30.88648328399995
 20
10.08805631509998
 30
0.0
  0
VERTEX
  5
2456
  8
3
 10
30.75907872619996
 20
10.43890112669999
 30
0.0
  0
VERTEX
  5
2457
  8
3
 10
30.50128011740003
 20
10.85556601499999
 30
0.0
  0
VERTEX
  5
2458
  8
3
 10
29.95134506630006
 20
11.46163647709997
 30
0.0
  0
VERTEX
  5
2459
  8
3
 10
29.36685024999997
 20
11.86219916269999
 30
0.0
  0
VERTEX
  5
245A
  8
3
 10
28.94197040640006
 20
11.99080284729999
 30
0.0
  0
VERTEX
  5
245B
  8
3
 10
28.79999999999995
 20
11.99962164049998
 30
0.0
  0
SEQEND
  5
24EB
  8
3
  0
LINE
  5
1048
  8
3
 10
26.40000000000009
 20
-9.62435565300001
 30
0.0
 11
26.40000000000009
 21
-14.62435565300001
 31
0.0
  0
POLYLINE
  5
1049
  8
3
 66
     1
 10
0.0
 20
0.0
 30
0.0
  0
VERTEX
  5
245C
  8
3
 10
28.79999999999995
 20
-12.24908966540002
 30
0.0
  0
VERTEX
  5
245D
  8
3
 10
29.2304980852
 20
-12.32913112130001
 30
0.0
  0
VERTEX
  5
245E
  8
3
 10
29.76296713660008
 20
-12.63190912410002
 30
0.0
  0
VERTEX
  5
245F
  8
3
 10
30.38699247880004
 20
-13.24471718570001
 30
0.0
  0
VERTEX
  5
2460
  8
3
 10
30.73191287470013
 20
-13.7570521005
 30
0.0
  0
VERTEX
  5
2461
  8
3
 10
30.88187364670011
 20
-14.1385888746
 30
0.0
  0
VERTEX
  5
2462
  8
3
 10
30.87727928970003
 20
-14.42695519370002
 30
0.0
  0
VERTEX
  5
2463
  8
3
 10
30.7339151906001
 20
-14.57934713120002
 30
0.0
  0
VERTEX
  5
2464
  8
3
 10
30.45734760200003
 20
-14.62393187680001
 30
0.0
  0
VERTEX
  5
2465
  8
3
 10
29.87823587439993
 20
-14.52603188130001
 30
0.0
  0
VERTEX
  5
2466
  8
3
 10
29.33181526790008
 20
-14.4019204546
 30
0.0
  0
VERTEX
  5
2467
  8
3
 10
28.92080609000004
 20
-14.35200037980002
 30
0.0
  0
VERTEX
  5
2468
  8
3
 10
28.49265058200012
 20
-14.36756051820001
 30
0.0
  0
VERTEX
  5
2469
  8
3
 10
28.01000875449995
 20
-14.4566623044
 30
0.0
  0
VERTEX
  5
246A
  8
3
 10
27.37435205730003
 20
-14.5995339289
 30
0.0
  0
VERTEX
  5
246B
  8
3
 10
26.90235341819994
 20
-14.59415864670001
 30
0.0
  0
VERTEX
  5
246C
  8
3
 10
26.73000750120013
 20
-14.44450558880001
 30
0.0
  0
VERTEX
  5
246D
  8
3
 10
26.71351671589991
 20
-14.16065499090001
 30
0.0
  0
VERTEX
  5
246E
  8
3
 10
26.84092127370013
 20
-13.80981017920001
 30
0.0
  0
VERTEX
  5
246F
  8
3
 10
27.09871988260011
 20
-13.39314529100002
 30
0.0
  0
VERTEX
  5
2470
  8
3
 10
27.64865493360003
 20
-12.78707482890002
 30
0.0
  0
VERTEX
  5
2471
  8
3
 10
28.23314974990012
 20
-12.38651214330002
 30
0.0
  0
VERTEX
  5
2472
  8
3
 10
28.65802959350003
 20
-12.25790845860001
 30
0.0
  0
VERTEX
  5
2473
  8
3
 10
28.79999999999995
 20
-12.24908966540002
 30
0.0
  0
SEQEND
  5
24EA
  8
3
  0
LINE
  5
104A
  8
3
 10
26.40000000000009
 20
14.62435565299998
 30
0.0
 11
26.40000000000009
 21
9.62435565299998
 31
0.0
  0
POLYLINE
  5
104B
  8
3
 66
     1
 10
0.0
 20
0.0
 30
0.0
  0
VERTEX
  5
2474
  8
3
 10
28.79999999999995
 20
14.34908966539999
 30
0.0
  0
VERTEX
  5
2475
  8
3
 10
29.2304980852
 20
14.38453166579998
 30
0.0
  0
VERTEX
  5
2476
  8
3
 10
29.76296713660008
 20
14.49810694159999
 30
0.0
  0
VERTEX
  5
2477
  8
3
 10
30.38699247880004
 20
14.62001892429998
 30
0.0
  0
VERTEX
  5
2478
  8
3
 10
30.73191287470013
 20
14.58028514419999
 30
0.0
  0
VERTEX
  5
2479
  8
3
 10
30.88187364670011
 20
14.4139107211
 30
0.0
  0
VERTEX
  5
247A
  8
3
 10
30.87727928970003
 20
14.118879306
 30
0.0
  0
VERTEX
  5
247B
  8
3
 10
30.7339151906001
 20
13.7608289362
 30
0.0
  0
VERTEX
  5
247C
  8
3
 10
30.45734760200003
 20
13.33428117759999
 30
0.0
  0
VERTEX
  5
247D
  8
3
 10
29.87823587439993
 20
12.7239754451
 30
0.0
  0
VERTEX
  5
247E
  8
3
 10
29.33181526790008
 20
12.3703760862
 30
0.0
  0
VERTEX
  5
247F
  8
3
 10
28.92080609000004
 20
12.25547804779998
 30
0.0
  0
VERTEX
  5
2480
  8
3
 10
28.49265058200012
 20
12.29017361749999
 30
0.0
  0
VERTEX
  5
2481
  8
3
 10
28.01000875449995
 20
12.51091981569999
 30
0.0
  0
VERTEX
  5
2482
  8
3
 10
27.37435205730003
 20
13.0576104731
 30
0.0
  0
VERTEX
  5
2483
  8
3
 10
26.90235341819994
 20
13.6947491455
 30
0.0
  0
VERTEX
  5
2484
  8
3
 10
26.73000750120013
 20
14.0907669071
 30
0.0
  0
VERTEX
  5
2485
  8
3
 10
26.71351671589991
 20
14.39853627489998
 30
0.0
  0
VERTEX
  5
2486
  8
3
 10
26.84092127370013
 20
14.5661239662
 30
0.0
  0
VERTEX
  5
2487
  8
3
 10
27.09871988260011
 20
14.62426102969999
 30
0.0
  0
VERTEX
  5
2488
  8
3
 10
27.64865493360003
 20
14.54332211729999
 30
0.0
  0
VERTEX
  5
2489
  8
3
 10
28.23314974990012
 20
14.40856080589998
 30
0.0
  0
VERTEX
  5
248A
  8
3
 10
28.65802959350003
 20
14.35310401119997
 30
0.0
  0
VERTEX
  5
248B
  8
3
 10
28.79999999999995
 20
14.34908966539999
 30
0.0
  0
SEQEND
  5
24E9
  8
3
  0
POLYLINE
  5
104C
  8
3
 66
     1
 10
0.0
 20
0.0
 30
0.0
  0
VERTEX
  5
248C
  8
3
 10
28.79999999999995
 20
19.4313891953
 30
0.0
  0
VERTEX
  5
248D
  8
3
 10
29.44893568819998
 20
19.37999853739998
 30
0.0
  0
VERTEX
  5
248E
  8
3
 10
30.03434902980007
 20
19.23085703939998
 30
0.0
  0
VERTEX
  5
248F
  8
3
 10
30.49893568819994
 20
18.99856371019999
 30
0.0
  0
VERTEX
  5
2490
  8
3
 10
30.79721868420006
 20
18.7058570394
 30
0.0
  0
VERTEX
  5
2491
  8
3
 10
30.90000000000009
 20
18.38138919529999
 30
0.0
  0
VERTEX
  5
2492
  8
3
 10
30.79721868420006
 20
18.05692135119997
 30
0.0
  0
VERTEX
  5
2493
  8
3
 10
30.49893568819994
 20
17.76421468039999
 30
0.0
  0
VERTEX
  5
2494
  8
3
 10
30.03434902980007
 20
17.5319213512
 30
0.0
  0
VERTEX
  5
2495
  8
3
 10
29.44893568819998
 20
17.38277985319999
 30
0.0
  0
VERTEX
  5
2496
  8
3
 10
28.79999999999995
 20
17.33138919529998
 30
0.0
  0
VERTEX
  5
2497
  8
3
 10
28.15106431179993
 20
17.38277985319999
 30
0.0
  0
VERTEX
  5
2498
  8
3
 10
27.56565097020007
 20
17.5319213512
 30
0.0
  0
VERTEX
  5
2499
  8
3
 10
27.10106431179997
 20
17.76421468039999
 30
0.0
  0
VERTEX
  5
249A
  8
3
 10
26.80278131580008
 20
18.05692135119997
 30
0.0
  0
VERTEX
  5
249B
  8
3
 10
26.70000000000005
 20
18.38138919529999
 30
0.0
  0
VERTEX
  5
249C
  8
3
 10
26.80278131580008
 20
18.7058570394
 30
0.0
  0
VERTEX
  5
249D
  8
3
 10
27.10106431179997
 20
18.99856371019999
 30
0.0
  0
VERTEX
  5
249E
  8
3
 10
27.56565097020007
 20
19.23085703939998
 30
0.0
  0
VERTEX
  5
249F
  8
3
 10
28.15106431179993
 20
19.37999853739998
 30
0.0
  0
VERTEX
  5
24A0
  8
3
 10
28.79999999999995
 20
19.4313891953
 30
0.0
  0
SEQEND
  5
24E8
  8
3
  0
POLYLINE
  5
104D
  8
3
 66
     1
 10
0.0
 20
0.0
 30
0.0
  0
VERTEX
  5
24A1
  8
3
 10
28.79999999999995
 20
-17.33138919530001
 30
0.0
  0
VERTEX
  5
24A2
  8
3
 10
29.44893568819998
 20
-17.38277985320002
 30
0.0
  0
VERTEX
  5
24A3
  8
3
 10
30.03434902980007
 20
-17.5319213512
 30
0.0
  0
VERTEX
  5
24A4
  8
3
 10
30.49893568819994
 20
-17.76421468040002
 30
0.0
  0
VERTEX
  5
24A5
  8
3
 10
30.79721868420006
 20
-18.0569213512
 30
0.0
  0
VERTEX
  5
24A6
  8
3
 10
30.90000000000009
 20
-18.38138919530002
 30
0.0
  0
VERTEX
  5
24A7
  8
3
 10
30.79721868420006
 20
-18.7058570394
 30
0.0
  0
VERTEX
  5
24A8
  8
3
 10
30.49893568819994
 20
-18.99856371020002
 30
0.0
  0
VERTEX
  5
24A9
  8
3
 10
30.03434902980007
 20
-19.23085703940001
 30
0.0
  0
VERTEX
  5
24AA
  8
3
 10
29.44893568819998
 20
-19.37999853740001
 30
0.0
  0
VERTEX
  5
24AB
  8
3
 10
28.79999999999995
 20
-19.4313891953
 30
0.0
  0
VERTEX
  5
24AC
  8
3
 10
28.15106431179993
 20
-19.37999853740001
 30
0.0
  0
VERTEX
  5
24AD
  8
3
 10
27.56565097020007
 20
-19.23085703940001
 30
0.0
  0
VERTEX
  5
24AE
  8
3
 10
27.10106431179997
 20
-18.99856371020002
 30
0.0
  0
VERTEX
  5
24AF
  8
3
 10
26.80278131580008
 20
-18.7058570394
 30
0.0
  0
VERTEX
  5
24B0
  8
3
 10
26.70000000000005
 20
-18.38138919530002
 30
0.0
  0
VERTEX
  5
24B1
  8
3
 10
26.80278131580008
 20
-18.0569213512
 30
0.0
  0
VERTEX
  5
24B2
  8
3
 10
27.10106431179997
 20
-17.76421468040002
 30
0.0
  0
VERTEX
  5
24B3
  8
3
 10
27.56565097020007
 20
-17.5319213512
 30
0.0
  0
VERTEX
  5
24B4
  8
3
 10
28.15106431179993
 20
-17.38277985320002
 30
0.0
  0
VERTEX
  5
24B5
  8
3
 10
28.79999999999995
 20
-17.33138919530001
 30
0.0
  0
SEQEND
  5
24E7
  8
3
  0
POLYLINE
  5
104E
  8
3
 66
     1
 10
0.0
 20
0.0
 30
0.0
  0
VERTEX
  5
24B6
  8
3
 10
31.42499999999995
 20
-18.38138919530002
 30
0.0
  0
VERTEX
  5
24B7
  8
3
 10
31.31866905569996
 20
-18.75116317620001
 30
0.0
  0
VERTEX
  5
24B8
  8
3
 10
31.0082905237
 20
-19.09098026820001
 30
0.0
  0
VERTEX
  5
24B9
  8
3
 10
30.51900942659995
 20
-19.3733105117
 30
0.0
  0
VERTEX
  5
24BA
  8
3
 10
29.8904644091001
 20
-19.57528118920001
 30
0.0
  0
VERTEX
  5
24BB
  8
3
 10
29.17357645040011
 20
-19.68052983780001
 30
0.0
  0
VERTEX
  5
24BC
  8
3
 10
28.42642354949999
 20
-19.68052983780001
 30
0.0
  0
VERTEX
  5
24BD
  8
3
 10
27.70953559079999
 20
-19.57528118920001
 30
0.0
  0
VERTEX
  5
24BE
  8
3
 10
27.08099057339996
 20
-19.3733105117
 30
0.0
  0
VERTEX
  5
24BF
  8
3
 10
26.59170947629991
 20
-19.09098026820001
 30
0.0
  0
VERTEX
  5
24C0
  8
3
 10
26.28133094420014
 20
-18.75116317620001
 30
0.0
  0
VERTEX
  5
24C1
  8
3
 10
26.17499999999995
 20
-18.38138919530002
 30
0.0
  0
VERTEX
  5
24C2
  8
3
 10
26.28133094420014
 20
-18.01161521450001
 30
0.0
  0
VERTEX
  5
24C3
  8
3
 10
26.59170947629991
 20
-17.67179812240002
 30
0.0
  0
VERTEX
  5
24C4
  8
3
 10
27.08099057339996
 20
-17.38946787900002
 30
0.0
  0
VERTEX
  5
24C5
  8
3
 10
27.70953559079999
 20
-17.18749720140002
 30
0.0
  0
VERTEX
  5
24C6
  8
3
 10
28.42642354949999
 20
-17.08224855290001
 30
0.0
  0
VERTEX
  5
24C7
  8
3
 10
29.17357645040011
 20
-17.08224855290001
 30
0.0
  0
VERTEX
  5
24C8
  8
3
 10
29.8904644091001
 20
-17.18749720140002
 30
0.0
  0
VERTEX
  5
24C9
  8
3
 10
30.51900942659995
 20
-17.38946787900002
 30
0.0
  0
VERTEX
  5
24CA
  8
3
 10
31.0082905237
 20
-17.67179812240002
 30
0.0
  0
VERTEX
  5
24CB
  8
3
 10
31.31866905569996
 20
-18.01161521450001
 30
0.0
  0
VERTEX
  5
24CC
  8
3
 10
31.42499999999995
 20
-18.38138919530002
 30
0.0
  0
SEQEND
  5
24E6
  8
3
  0
POLYLINE
  5
104F
  8
3
 66
     1
 10
0.0
 20
0.0
 30
0.0
  0
VERTEX
  5
24CD
  8
3
 10
31.42499999999995
 20
18.38138919529999
 30
0.0
  0
VERTEX
  5
24CE
  8
3
 10
31.31866905569996
 20
18.01161521449998
 30
0.0
  0
VERTEX
  5
24CF
  8
3
 10
31.0082905237
 20
17.67179812239999
 30
0.0
  0
VERTEX
  5
24D0
  8
3
 10
30.51900942659995
 20
17.38946787899999
 30
0.0
  0
VERTEX
  5
24D1
  8
3
 10
29.8904644091001
 20
17.18749720139999
 30
0.0
  0
VERTEX
  5
24D2
  8
3
 10
29.17357645040011
 20
17.0822485528
 30
0.0
  0
VERTEX
  5
24D3
  8
3
 10
28.42642354949999
 20
17.0822485528
 30
0.0
  0
VERTEX
  5
24D4
  8
3
 10
27.70953559079999
 20
17.18749720139999
 30
0.0
  0
VERTEX
  5
24D5
  8
3
 10
27.08099057339996
 20
17.38946787899999
 30
0.0
  0
VERTEX
  5
24D6
  8
3
 10
26.59170947629991
 20
17.67179812239999
 30
0.0
  0
VERTEX
  5
24D7
  8
3
 10
26.28133094420014
 20
18.01161521449998
 30
0.0
  0
VERTEX
  5
24D8
  8
3
 10
26.17499999999995
 20
18.38138919529999
 30
0.0
  0
VERTEX
  5
24D9
  8
3
 10
26.28133094420014
 20
18.75116317619998
 30
0.0
  0
VERTEX
  5
24DA
  8
3
 10
26.59170947629991
 20
19.09098026819998
 30
0.0
  0
VERTEX
  5
24DB
  8
3
 10
27.08099057339996
 20
19.3733105117
 30
0.0
  0
VERTEX
  5
24DC
  8
3
 10
27.70953559079999
 20
19.57528118919998
 30
0.0
  0
VERTEX
  5
24DD
  8
3
 10
28.42642354949999
 20
19.68052983779998
 30
0.0
  0
VERTEX
  5
24DE
  8
3
 10
29.17357645040011
 20
19.68052983779998
 30
0.0
  0
VERTEX
  5
24DF
  8
3
 10
29.8904644091001
 20
19.57528118919998
 30
0.0
  0
VERTEX
  5
24E0
  8
3
 10
30.51900942659995
 20
19.3733105117
 30
0.0
  0
VERTEX
  5
24E1
  8
3
 10
31.0082905237
 20
19.09098026819998
 30
0.0
  0
VERTEX
  5
24E2
  8
3
 10
31.31866905569996
 20
18.75116317619998
 30
0.0
  0
VERTEX
  5
24E3
  8
3
 10
31.42499999999995
 20
18.38138919529999
 30
0.0
  0
SEQEND
  5
24E5
  8
3
  0
LINE
  5
1050
  8
3
 10
30.69160436390007
 20
-13.87328399290001
 30
0.0
 11
30.22886901660013
 21
-13.5460806909
 31
0.0
  0
LINE
  5
1051
  8
3
 10
27.37113098340001
 20
-13.5460806909
 30
0.0
 11
26.90839563600002
 21
-13.87328399290001
 31
0.0
  0
LINE
  5
1052
  8
3
 10
30.21450320400004
 20
-13.9399510643
 30
0.0
 11
29.96272163370008
 21
-13.85356468380002
 31
0.0
  0
LINE
  5
1053
  8
3
 10
27.63727836630005
 20
-13.85356468380002
 30
0.0
 11
27.38549679590005
 21
-13.9399510643
 31
0.0
  0
LINE
  5
1054
  8
3
 10
27.48918964459995
 20
-15.49718843280002
 30
0.0
 11
27.63727836630005
 21
-15.54799774600002
 31
0.0
  0
LINE
  5
1055
  8
3
 10
29.96272163370008
 20
-15.54799774600002
 30
0.0
 11
30.11081035539996
 21
-15.49718843280002
 31
0.0
  0
LINE
  5
1056
  8
3
 10
31.29999999999995
 20
-15.04866766090001
 30
0.0
 11
31.29999999999995
 21
-14.97062810950001
 31
0.0
  0
LINE
  5
1057
  8
3
 10
26.29999999999995
 20
-14.97062810950001
 30
0.0
 11
26.29999999999995
 21
-15.04866766090001
 31
0.0
  0
LINE
  5
1058
  8
3
 10
27.38549679590005
 20
-16.079344706
 30
0.0
 11
27.63727836630005
 21
-16.1657310866
 31
0.0
  0
LINE
  5
1059
  8
3
 10
29.96272163370008
 20
-16.1657310866
 30
0.0
 11
30.21450320400004
 21
-16.079344706
 31
0.0
  0
LINE
  5
105A
  8
3
 10
30.21450320400004
 20
-14.55768440490002
 30
0.0
 11
29.96272163370008
 21
-14.4712980244
 31
0.0
  0
LINE
  5
105B
  8
3
 10
27.63727836630005
 20
-14.4712980244
 30
0.0
 11
27.38549679590005
 21
-14.55768440490002
 31
0.0
  0
LINE
  5
105C
  8
3
 10
31.29999999999995
 20
-15.66640100150002
 30
0.0
 11
31.29999999999995
 21
-15.58836145010002
 31
0.0
  0
LINE
  5
105D
  8
3
 10
26.29999999999995
 20
-15.58836145010002
 30
0.0
 11
26.29999999999995
 21
-15.66640100150002
 31
0.0
  0
LINE
  5
105E
  8
3
 10
27.38549679590005
 20
-16.69707804660001
 30
0.0
 11
27.63727836630005
 21
-16.78346442720002
 31
0.0
  0
LINE
  5
105F
  8
3
 10
29.96272163370008
 20
-16.78346442720002
 30
0.0
 11
30.21450320400004
 21
-16.69707804660001
 31
0.0
  0
LINE
  5
1060
  8
3
 10
30.21450320400004
 20
-15.17541774560001
 30
0.0
 11
29.96272163370008
 21
-15.08903136500001
 31
0.0
  0
LINE
  5
1061
  8
3
 10
27.63727836630005
 20
-15.08903136500001
 30
0.0
 11
27.38549679590005
 21
-15.17541774560001
 31
0.0
  0
LINE
  5
1062
  8
3
 10
31.29999999999995
 20
-16.2841343421
 30
0.0
 11
31.29999999999995
 21
-16.20609479070001
 31
0.0
  0
LINE
  5
1063
  8
3
 10
26.29999999999995
 20
-16.20609479070001
 30
0.0
 11
26.29999999999995
 21
-16.2841343421
 31
0.0
  0
LINE
  5
1064
  8
3
 10
27.38549679590005
 20
-17.31481138720002
 30
0.0
 11
27.63727836630005
 21
-17.4011977678
 31
0.0
  0
LINE
  5
1065
  8
3
 10
29.96272163370008
 20
-17.4011977678
 30
0.0
 11
30.21450320400004
 21
-17.31481138720002
 31
0.0
  0
LINE
  5
1066
  8
3
 10
30.21450320400004
 20
-15.7931510862
 30
0.0
 11
29.96272163370008
 21
-15.70676470560002
 31
0.0
  0
LINE
  5
1067
  8
3
 10
27.63727836630005
 20
-15.70676470560002
 30
0.0
 11
27.38549679590005
 21
-15.7931510862
 31
0.0
  0
LINE
  5
1068
  8
3
 10
31.29999999999995
 20
-16.90186768270001
 30
0.0
 11
31.29999999999995
 21
-16.82382813130002
 31
0.0
  0
LINE
  5
1069
  8
3
 10
26.29999999999995
 20
-16.82382813130002
 30
0.0
 11
26.29999999999995
 21
-16.90186768270001
 31
0.0
  0
LINE
  5
106A
  8
3
 10
27.38549679590005
 20
-17.93254472790002
 30
0.0
 11
27.63727836630005
 21
-18.01893110840001
 31
0.0
  0
LINE
  5
106B
  8
3
 10
29.96272163370008
 20
-18.01893110840001
 30
0.0
 11
30.21450320400004
 21
-17.93254472790002
 31
0.0
  0
LINE
  5
106C
  8
3
 10
30.21450320400004
 20
-16.41088442680001
 30
0.0
 11
29.96272163370008
 21
-16.32449804620001
 31
0.0
  0
LINE
  5
106D
  8
3
 10
27.63727836630005
 20
-16.32449804620001
 30
0.0
 11
27.38549679590005
 21
-16.41088442680001
 31
0.0
  0
LINE
  5
106E
  8
3
 10
31.29999999999995
 20
-17.5196010233
 30
0.0
 11
31.29999999999995
 21
-17.4415614719
 31
0.0
  0
LINE
  5
106F
  8
3
 10
26.29999999999995
 20
-17.4415614719
 30
0.0
 11
26.29999999999995
 21
-17.5196010233
 31
0.0
  0
LINE
  5
1070
  8
3
 10
27.38549679590005
 20
-18.55027806850001
 30
0.0
 11
27.63727836630005
 21
-18.63666444900002
 31
0.0
  0
LINE
  5
1071
  8
3
 10
29.96272163370008
 20
-18.63666444900002
 30
0.0
 11
30.21450320400004
 21
-18.55027806850001
 31
0.0
  0
LINE
  5
1072
  8
3
 10
30.21450320400004
 20
-17.02861776740002
 30
0.0
 11
29.96272163370008
 21
-16.94223138680002
 31
0.0
  0
LINE
  5
1073
  8
3
 10
27.63727836630005
 20
-16.94223138680002
 30
0.0
 11
27.38549679590005
 21
-17.02861776740002
 31
0.0
  0
LINE
  5
1074
  8
3
 10
31.29999999999995
 20
-18.13733436390001
 30
0.0
 11
31.29999999999995
 21
-18.05929481250001
 31
0.0
  0
LINE
  5
1075
  8
3
 10
26.29999999999995
 20
-18.05929481250001
 30
0.0
 11
26.29999999999995
 21
-18.13733436390001
 31
0.0
  0
LINE
  5
1076
  8
3
 10
27.38549679590005
 20
-19.16801140910002
 30
0.0
 11
27.63727836630005
 21
-19.25439778960001
 31
0.0
  0
LINE
  5
1077
  8
3
 10
29.96272163370008
 20
-19.25439778960001
 30
0.0
 11
30.21450320400004
 21
-19.16801140910002
 31
0.0
  0
LINE
  5
1078
  8
3
 10
30.21450320400004
 20
-17.646351108
 30
0.0
 11
29.96272163370008
 21
-17.5599647274
 31
0.0
  0
LINE
  5
1079
  8
3
 10
27.63727836630005
 20
-17.5599647274
 30
0.0
 11
27.38549679590005
 21
-17.646351108
 31
0.0
  0
LINE
  5
107A
  8
3
 10
31.29999999999995
 20
-18.75506770450002
 30
0.0
 11
31.29999999999995
 21
-18.6770281531
 31
0.0
  0
LINE
  5
107B
  8
3
 10
26.29999999999995
 20
-18.6770281531
 30
0.0
 11
26.29999999999995
 21
-18.75506770450002
 31
0.0
  0
LINE
  5
107C
  8
3
 10
27.38549679590005
 20
-19.7857447497
 30
0.0
 11
27.63727836630005
 21
-19.87213113020002
 31
0.0
  0
LINE
  5
107D
  8
3
 10
29.96272163370008
 20
-19.87213113020002
 30
0.0
 11
30.21450320400004
 21
-19.7857447497
 31
0.0
  0
LINE
  5
107E
  8
3
 10
30.07650604059995
 20
-18.21673755400002
 30
0.0
 11
29.96272163370008
 21
-18.17769806800001
 31
0.0
  0
LINE
  5
107F
  8
3
 10
27.63727836630005
 20
-18.17769806800001
 30
0.0
 11
27.52349395929991
 21
-18.21673755400002
 31
0.0
  0
LINE
  5
1080
  8
3
 10
26.90839563600002
 20
13.8732839928
 30
0.0
 11
27.37113098340001
 21
13.5460806909
 31
0.0
  0
LINE
  5
1081
  8
3
 10
30.22886901660013
 20
13.5460806909
 30
0.0
 11
30.69160436390007
 21
13.8732839928
 31
0.0
  0
LINE
  5
1082
  8
3
 10
27.38549679590005
 20
13.9399510643
 30
0.0
 11
27.63727836630005
 21
13.8535646837
 31
0.0
  0
LINE
  5
1083
  8
3
 10
29.96272163370008
 20
13.8535646837
 30
0.0
 11
30.21450320400004
 21
13.9399510643
 31
0.0
  0
LINE
  5
1084
  8
3
 10
30.11081035539996
 20
15.49718843279999
 30
0.0
 11
29.96272163370008
 21
15.54799774599999
 31
0.0
  0
LINE
  5
1085
  8
3
 10
27.63727836630005
 20
15.54799774599999
 30
0.0
 11
27.48918964459995
 21
15.49718843279999
 31
0.0
  0
LINE
  5
1086
  8
3
 10
26.29999999999995
 20
15.04866766079999
 30
0.0
 11
26.29999999999995
 21
14.97062810949998
 31
0.0
  0
LINE
  5
1087
  8
3
 10
31.29999999999995
 20
14.97062810949998
 30
0.0
 11
31.29999999999995
 21
15.04866766079999
 31
0.0
  0
LINE
  5
1088
  8
3
 10
30.21450320400004
 20
16.079344706
 30
0.0
 11
29.96272163370008
 21
16.1657310866
 31
0.0
  0
LINE
  5
1089
  8
3
 10
27.63727836630005
 20
16.1657310866
 30
0.0
 11
27.38549679590005
 21
16.079344706
 31
0.0
  0
LINE
  5
108A
  8
3
 10
27.38549679590005
 20
14.55768440489999
 30
0.0
 11
27.63727836630005
 21
14.47129802429998
 31
0.0
  0
LINE
  5
108B
  8
3
 10
29.96272163370008
 20
14.47129802429998
 30
0.0
 11
30.21450320400004
 21
14.55768440489999
 31
0.0
  0
LINE
  5
108C
  8
3
 10
26.29999999999995
 20
15.66640100139998
 30
0.0
 11
26.29999999999995
 21
15.5883614501
 31
0.0
  0
LINE
  5
108D
  8
3
 10
31.29999999999995
 20
15.5883614501
 30
0.0
 11
31.29999999999995
 21
15.66640100139998
 31
0.0
  0
LINE
  5
108E
  8
3
 10
30.21450320400004
 20
16.69707804659998
 30
0.0
 11
29.96272163370008
 21
16.78346442719999
 31
0.0
  0
LINE
  5
108F
  8
3
 10
27.63727836630005
 20
16.78346442719999
 30
0.0
 11
27.38549679590005
 21
16.69707804659998
 31
0.0
  0
LINE
  5
1090
  8
3
 10
27.38549679590005
 20
15.1754177455
 30
0.0
 11
27.63727836630005
 21
15.08903136489999
 31
0.0
  0
LINE
  5
1091
  8
3
 10
29.96272163370008
 20
15.08903136489999
 30
0.0
 11
30.21450320400004
 21
15.1754177455
 31
0.0
  0
LINE
  5
1092
  8
3
 10
26.29999999999995
 20
16.28413434209997
 30
0.0
 11
26.29999999999995
 21
16.20609479069998
 31
0.0
  0
LINE
  5
1093
  8
3
 10
31.29999999999995
 20
16.20609479069998
 30
0.0
 11
31.29999999999995
 21
16.28413434209997
 31
0.0
  0
LINE
  5
1094
  8
3
 10
30.21450320400004
 20
17.3148113872
 30
0.0
 11
29.96272163370008
 21
17.4011977678
 31
0.0
  0
LINE
  5
1095
  8
3
 10
27.63727836630005
 20
17.4011977678
 30
0.0
 11
27.38549679590005
 21
17.3148113872
 31
0.0
  0
LINE
  5
1096
  8
3
 10
27.38549679590005
 20
15.79315108609998
 30
0.0
 11
27.63727836630005
 21
15.70676470559999
 31
0.0
  0
LINE
  5
1097
  8
3
 10
29.96272163370008
 20
15.70676470559999
 30
0.0
 11
30.21450320400004
 21
15.79315108609998
 31
0.0
  0
LINE
  5
1098
  8
3
 10
26.29999999999995
 20
16.90186768269999
 30
0.0
 11
26.29999999999995
 21
16.82382813129999
 31
0.0
  0
LINE
  5
1099
  8
3
 10
31.29999999999995
 20
16.82382813129999
 30
0.0
 11
31.29999999999995
 21
16.90186768269999
 31
0.0
  0
LINE
  5
109A
  8
3
 10
30.21450320400004
 20
17.93254472779998
 30
0.0
 11
29.96272163370008
 21
18.01893110839998
 31
0.0
  0
LINE
  5
109B
  8
3
 10
27.63727836630005
 20
18.01893110839998
 30
0.0
 11
27.38549679590005
 21
17.93254472779998
 31
0.0
  0
LINE
  5
109C
  8
3
 10
27.38549679590005
 20
16.41088442669999
 30
0.0
 11
27.63727836630005
 21
16.32449804619998
 31
0.0
  0
LINE
  5
109D
  8
3
 10
29.96272163370008
 20
16.32449804619998
 30
0.0
 11
30.21450320400004
 21
16.41088442669999
 31
0.0
  0
LINE
  5
109E
  8
3
 10
26.29999999999995
 20
17.5196010233
 30
0.0
 11
26.29999999999995
 21
17.44156147189997
 31
0.0
  0
LINE
  5
109F
  8
3
 10
31.29999999999995
 20
17.44156147189997
 30
0.0
 11
31.29999999999995
 21
17.5196010233
 31
0.0
  0
LINE
  5
10A0
  8
3
 10
30.21450320400004
 20
18.55027806839999
 30
0.0
 11
29.96272163370008
 21
18.63666444899999
 31
0.0
  0
LINE
  5
10A1
  8
3
 10
27.63727836630005
 20
18.63666444899999
 30
0.0
 11
27.38549679590005
 21
18.55027806839999
 31
0.0
  0
LINE
  5
10A2
  8
3
 10
27.38549679590005
 20
17.02861776730001
 30
0.0
 11
27.63727836630005
 21
16.94223138679999
 31
0.0
  0
LINE
  5
10A3
  8
3
 10
29.96272163370008
 20
16.94223138679999
 30
0.0
 11
30.21450320400004
 21
17.02861776730001
 31
0.0
  0
LINE
  5
10A4
  8
3
 10
26.29999999999995
 20
18.13733436389998
 30
0.0
 11
26.29999999999995
 21
18.05929481249999
 31
0.0
  0
LINE
  5
10A5
  8
3
 10
31.29999999999995
 20
18.05929481249999
 30
0.0
 11
31.29999999999995
 21
18.13733436389998
 31
0.0
  0
LINE
  5
10A6
  8
3
 10
30.21450320400004
 20
19.168011409
 30
0.0
 11
29.96272163370008
 21
19.25439778960001
 31
0.0
  0
LINE
  5
10A7
  8
3
 10
27.63727836630005
 20
19.25439778960001
 30
0.0
 11
27.38549679590005
 21
19.168011409
 31
0.0
  0
LINE
  5
10A8
  8
3
 10
27.38549679590005
 20
17.64635110789999
 30
0.0
 11
27.63727836630005
 21
17.5599647274
 31
0.0
  0
LINE
  5
10A9
  8
3
 10
29.96272163370008
 20
17.5599647274
 30
0.0
 11
30.21450320400004
 21
17.64635110789999
 31
0.0
  0
LINE
  5
10AA
  8
3
 10
26.29999999999995
 20
18.75506770449999
 30
0.0
 11
26.29999999999995
 21
18.6770281531
 31
0.0
  0
LINE
  5
10AB
  8
3
 10
31.29999999999995
 20
18.6770281531
 30
0.0
 11
31.29999999999995
 21
18.75506770449999
 31
0.0
  0
LINE
  5
10AC
  8
3
 10
30.21450320400004
 20
19.78574474959998
 30
0.0
 11
29.96272163370008
 21
19.87213113019999
 31
0.0
  0
LINE
  5
10AD
  8
3
 10
27.63727836630005
 20
19.87213113019999
 30
0.0
 11
27.38549679590005
 21
19.78574474959998
 31
0.0
  0
LINE
  5
10AE
  8
3
 10
27.52349395929991
 20
18.2167375539
 30
0.0
 11
27.63727836630005
 21
18.17769806799998
 31
0.0
  0
LINE
  5
10AF
  8
3
 10
29.96272163370008
 20
18.17769806799998
 30
0.0
 11
30.07650604059995
 21
18.2167375539
 31
0.0
  0
LINE
  5
10B0
  8
3
 10
50.79999999999995
 20
9.525000000000006
 30
0.0
 11
45.38598999999999
 21
9.525000000000006
 31
0.0
  0
LINE
  5
10B1
  8
3
 10
45.38598999999999
 20
-9.525000000000006
 30
0.0
 11
50.79999999999995
 21
-9.525000000000006
 31
0.0
  0
LINE
  5
10B2
  8
3
 10
45.38598999999999
 20
9.525000000000006
 30
0.0
 11
44.45000000000005
 21
8.589010000000002
 31
0.0
  0
LINE
  5
10B3
  8
3
 10
44.45000000000005
 20
-8.589010000000002
 30
0.0
 11
45.38598999999999
 21
-9.525000000000006
 31
0.0
  0
LINE
  5
10B8
  8
3
 10
50.79999999999995
 20
-25.39869000000002
 30
0.0
 11
36.31016030489991
 21
-25.39869000000002
 31
0.0
  0
LINE
  5
10B9
  8
3
 10
36.31016030489991
 20
-41.28131
 30
0.0
 11
50.79999999999995
 21
-41.28131
 31
0.0
  0
ARC
  5
10BA
  8
3
 10
36.24720000000002
 20
-25.20549000000001
 30
0.0
 40
0.2032000000000007
 50
270.0
 51
288.0498306933218
  0
ARC
  5
10BB
  8
3
 10
36.24720000000002
 20
-41.47451000000001
 30
0.0
 40
0.2032000000000007
 50
71.95016930667825
 51
90.0
  0
LINE
  5
10BC
  8
3
 10
36.24720000000002
 20
-25.40869000000001
 30
0.0
 11
35.67203951059992
 21
-25.40869000000001
 31
0.0
  0
LINE
  5
10BD
  8
3
 10
35.67203951059992
 20
-41.27131000000001
 30
0.0
 11
36.24720000000002
 21
-41.27131000000001
 31
0.0
  0
LINE
  5
10BE
  8
3
 10
35.67203951059992
 20
-25.40869000000001
 30
0.0
 11
35.04999999999995
 21
-25.57536498450001
 31
0.0
  0
LINE
  5
10BF
  8
3
 10
35.04999999999995
 20
-41.10463501550001
 30
0.0
 11
35.67203951059992
 21
-41.27131000000001
 31
0.0
  0
LINE
  5
10C0
  8
3
 10
50.79999999999995
 20
41.28130999999999
 30
0.0
 11
36.31016030489991
 21
41.28130999999999
 31
0.0
  0
LINE
  5
10C1
  8
3
 10
36.31016030489991
 20
25.39868999999999
 30
0.0
 11
50.79999999999995
 21
25.39868999999999
 31
0.0
  0
ARC
  5
10C2
  8
3
 10
36.24720000000002
 20
41.47450999999998
 30
0.0
 40
0.2031999999999812
 50
270.0
 51
288.049830693328
  0
ARC
  5
10C3
  8
3
 10
36.24720000000002
 20
25.20549
 30
0.0
 40
0.2032000000000025
 50
71.95016930667825
 51
90.0
  0
LINE
  5
10C4
  8
3
 10
36.24720000000002
 20
41.27131
 30
0.0
 11
35.67203951059992
 21
41.27131
 31
0.0
  0
LINE
  5
10C5
  8
3
 10
35.67203951059992
 20
25.40868999999998
 30
0.0
 11
36.24720000000002
 21
25.40868999999998
 31
0.0
  0
LINE
  5
10C6
  8
3
 10
35.67203951059992
 20
41.27131
 30
0.0
 11
35.04999999999995
 21
41.10463501550001
 31
0.0
  0
LINE
  5
10C7
  8
3
 10
35.04999999999995
 20
25.5753649845
 30
0.0
 11
35.67203951059992
 21
25.40868999999998
 31
0.0
  0
LINE
  5
10D2
  8
3
 10
50.79999999999995
 20
2.5
 30
0.0
 11
29.52650195120009
 21
2.5
 31
0.0
  0
LINE
  5
10D3
  8
3
 10
28.12827023120008
 20
2.5
 30
0.0
 11
26.40000000000009
 21
2.5
 31
0.0
  0
LINE
  5
10D4
  8
3
 10
26.40000000000009
 20
-2.5
 30
0.0
 11
28.06672011289993
 21
-2.5
 31
0.0
  0
LINE
  5
10D5
  8
3
 10
29.53864179269999
 20
-2.5
 30
0.0
 11
50.79999999999995
 21
-2.5
 31
0.0
  0
LINE
  5
10D6
  8
3
 10
26.40000000000009
 20
2.5
 30
0.0
 11
24.89784845240001
 21
0.0
 31
0.0
  0
LINE
  5
10D7
  8
3
 10
24.89784845240001
 20
0.0
 30
0.0
 11
26.40000000000009
 21
-2.5
 31
0.0
  0
LINE
  5
10DC
  8
3
 10
50.79999999999995
 20
9.525000000000006
 30
0.0
 11
36.29999999999995
 21
9.525000000000006
 31
0.0
  0
LINE
  5
10DD
  8
3
 10
36.29999999999995
 20
-9.525000000000006
 30
0.0
 11
50.79999999999995
 21
-9.525000000000006
 31
0.0
  0
LINE
  5
10E0
  8
3
 10
36.29999999999995
 20
8.731249999999989
 30
0.0
 11
28.36000000000013
 21
8.731249999999989
 31
0.0
  0
LINE
  5
10E1
  8
3
 10
28.36000000000013
 20
-8.731250000000017
 30
0.0
 11
36.29999999999995
 21
-8.731250000000017
 31
0.0
  0
LINE
  5
10E2
  8
3
 10
28.36000000000013
 20
8.731249999999989
 30
0.0
 11
26.11803881519995
 21
4.999999999999972
 31
0.0
  0
LINE
  5
10E3
  8
3
 10
26.11803881519995
 20
-5.0
 30
0.0
 11
28.36000000000013
 21
-8.731250000000017
 31
0.0
  0
LINE
  5
10E6
  8
3
 10
50.79999999999995
 20
41.27474999999998
 30
0.0
 11
35.04999999999995
 21
41.27474999999998
 31
0.0
  0
LINE
  5
10E7
  8
3
 10
35.04999999999995
 20
25.40525
 30
0.0
 11
50.79999999999995
 21
25.40525
 31
0.0
  0
LINE
  5
10E8
  8
3
 10
50.79999999999995
 20
-25.40525000000001
 30
0.0
 11
35.04999999999995
 21
-25.40525000000001
 31
0.0
  0
LINE
  5
10E9
  8
3
 10
35.04999999999995
 20
-41.27475000000001
 30
0.0
 11
50.79999999999995
 21
-41.27475000000001
 31
0.0
  0
LINE
  5
10EC
  8
SK3
 10
-25.75
 20
-6.687997800000005
 30
0.0
 11
-24.73574859699988
 21
-5.0
 31
0.0
  0
LINE
  5
10ED
  8
SK3
 10
-24.73574859699988
 20
4.999999999999972
 30
0.0
 11
-25.75
 21
6.687997799999977
 31
0.0
  0
LINE
  5
10F0
  8
3
 10
0.0
 20
-5.0
 30
0.0
 11
26.11803881519995
 21
-5.0
 31
0.0
  0
LINE
  5
10F1
  8
3
 10
26.11803881519995
 20
4.999999999999972
 30
0.0
 11
0.0
 21
4.999999999999972
 31
0.0
  0
LINE
  5
10F6
  8
3
 10
30.90000000000009
 20
-9.973913014200008
 30
0.0
 11
30.90000000000009
 21
-7.556033147300013
 31
0.0
  0
LINE
  5
10F7
  8
3
 10
26.70000000000005
 20
-5.3910081386
 30
0.0
 11
26.70000000000005
 21
-9.974033318600021
 31
0.0
  0
LINE
  5
10F8
  8
3
 10
26.70000000000005
 20
9.974033318599993
 30
0.0
 11
26.70000000000005
 21
5.391008138499984
 31
0.0
  0
LINE
  5
10F9
  8
3
 10
30.90000000000009
 20
7.556033147199997
 30
0.0
 11
30.90000000000009
 21
9.97391301419998
 31
0.0
  0
LINE
  5
10FA
  8
3
 10
27.13089470289992
 20
-9.62435565300001
 30
0.0
 11
26.40000000000009
 21
-9.62435565300001
 31
0.0
  0
LINE
  5
10FB
  8
3
 10
50.79999999999995
 20
-9.62435565300001
 30
0.0
 11
30.48325167999997
 21
-9.62435565300001
 31
0.0
  0
LINE
  5
10FC
  8
3
 10
30.48171049749999
 20
-14.62435565300001
 30
0.0
 11
50.79999999999995
 21
-14.62435565300001
 31
0.0
  0
LINE
  5
10FD
  8
3
 10
26.40000000000009
 20
-14.62435565300001
 30
0.0
 11
27.14997246949997
 21
-14.62435565300001
 31
0.0
  0
LINE
  5
10FE
  8
3
 10
26.40000000000009
 20
-9.62435565300001
 30
0.0
 11
24.89784845240001
 21
-12.12435565300001
 31
0.0
  0
LINE
  5
10FF
  8
3
 10
24.89784845240001
 20
-12.12435565300001
 30
0.0
 11
26.40000000000009
 21
-14.62435565300001
 31
0.0
  0
LINE
  5
1100
  8
3
 10
27.11674831999994
 20
14.62435565299998
 30
0.0
 11
26.40000000000009
 21
14.62435565299998
 31
0.0
  0
LINE
  5
1101
  8
3
 10
50.79999999999995
 20
14.62435565299998
 30
0.0
 11
30.46910529709999
 21
14.62435565299998
 31
0.0
  0
LINE
  5
1102
  8
3
 10
30.45002753049994
 20
9.62435565299998
 30
0.0
 11
50.79999999999995
 21
9.62435565299998
 31
0.0
  0
LINE
  5
1103
  8
3
 10
26.40000000000009
 20
9.62435565299998
 30
0.0
 11
27.1182895024001
 21
9.62435565299998
 31
0.0
  0
LINE
  5
1104
  8
3
 10
26.40000000000009
 20
14.62435565299998
 30
0.0
 11
24.89784845240001
 21
12.12435565299998
 31
0.0
  0
LINE
  5
1105
  8
3
 10
24.89784845240001
 20
12.12435565299998
 30
0.0
 11
26.40000000000009
 21
9.62435565299998
 31
0.0
  0
LINE
  5
1106
  8
3
 10
26.70000000000005
 20
18.38138919529999
 30
0.0
 11
26.70000000000005
 21
14.27479829169999
 31
0.0
  0
LINE
  5
1107
  8
3
 10
30.90000000000009
 20
14.27467798729998
 30
0.0
 11
30.90000000000009
 21
18.38138919529999
 31
0.0
  0
LINE
  5
1108
  8
3
 10
30.90000000000009
 20
-18.38138919530002
 30
0.0
 11
30.90000000000009
 21
-14.2746779874
 31
0.0
  0
LINE
  5
1109
  8
3
 10
26.70000000000005
 20
-14.27479829170002
 30
0.0
 11
26.70000000000005
 21
-18.38138919530002
 31
0.0
  0
LINE
  5
110A
  8
3
 10
26.17499999999995
 20
-18.38138919530002
 30
0.0
 11
26.17499999999995
 21
-19.24406891590002
 31
0.0
  0
LINE
  5
110B
  8
3
 10
31.42499999999995
 20
-19.2474056794
 30
0.0
 11
31.42499999999995
 21
-18.38138919530002
 31
0.0
  0
LINE
  5
110C
  8
3
 10
31.42499999999995
 20
18.38138919529999
 30
0.0
 11
31.42499999999995
 21
19.24740567929999
 31
0.0
  0
LINE
  5
110D
  8
3
 10
26.17499999999995
 20
19.2440689158
 30
0.0
 11
26.17499999999995
 21
18.38138919529999
 31
0.0
  0
LINE
  5
110F
  8
1
 10
36.24720000000002
 20
-41.27131000000001
 30
0.0
 11
36.24720000000002
 21
-25.43440879440001
 31
0.0
  0
LINE
  5
1110
  8
1
 10
36.24720000000002
 20
25.41512230689997
 30
0.0
 11
36.24720000000002
 21
41.26487769309998
 31
0.0
  0
LINE
  5
1111
  8
1
 10
49.79999999999995
 20
46.04999999999998
 30
0.0
 11
49.79999999999995
 21
-46.05000000000001
 31
0.0
  0
LINE
  5
1112
  8
1
 10
36.04999999999995
 20
0.0
 30
0.0
 11
36.04999999999995
 21
46.04999999999998
 31
0.0
  0
LINE
  5
1113
  8
1
 10
36.04999999999995
 20
-46.05000000000001
 30
0.0
 11
36.04999999999995
 21
0.0
 31
0.0
  0
LINE
  5
1114
  8
1
 10
33.04999999999995
 20
0.0
 30
0.0
 11
33.04999999999995
 21
-22.22500000000001
 31
0.0
  0
LINE
  5
1115
  8
1
 10
33.04999999999995
 20
22.22499999999999
 30
0.0
 11
33.04999999999995
 21
0.0
 31
0.0
  0
LINE
  5
1127
  8
SK3
 10
-24.73574859699988
 20
4.999999999999972
 30
0.0
 11
0.0
 21
4.999999999999972
 31
0.0
  0
LINE
  5
1128
  8
SK3
 10
-24.73574859699988
 20
-5.0
 30
0.0
 11
0.0
 21
-5.0
 31
0.0
  0
LINE
  5
1129
  8
SK1
 10
88.13799999999992
 20
-23.81250000000001
 30
0.0
 11
88.90000000000009
 21
-23.05050000000001
 31
0.0
  0
LINE
  5
112B
  8
SK1
 10
88.90000000000009
 20
23.0505
 30
0.0
 11
88.13799999999992
 21
23.8125
 31
0.0
  0
LINE
  5
112C
  8
SK1
 10
88.13799999999992
 20
23.8125
 30
0.0
 11
76.96199999999999
 21
23.8125
 31
0.0
  0
LINE
  5
112D
  8
SK1
 10
76.96199999999999
 20
-23.81250000000001
 30
0.0
 11
88.13799999999992
 21
-23.81250000000001
 31
0.0
  0
LINE
  5
112E
  8
SK1
 10
76.96199999999999
 20
23.8125
 30
0.0
 11
76.20000000000005
 21
23.0505
 31
0.0
  0
LINE
  5
112F
  8
SK1
 10
76.20000000000005
 20
-23.05050000000001
 30
0.0
 11
76.96199999999999
 21
-23.81250000000001
 31
0.0
  0
ARC
  5
1130
  8
SK1
 10
75.41260000000011
 20
10.3124
 30
0.0
 40
0.7873999999999981
 50
270.0
 51
0.0
  0
ARC
  5
1131
  8
SK1
 10
75.41260000000011
 20
-10.31240000000003
 30
0.0
 40
0.7873999999999981
 50
0.0
 51
90.0
  0
LINE
  5
1132
  8
SK1
 10
75.41260000000011
 20
9.524999999999977
 30
0.0
 11
74.40000000000009
 21
9.524999999999977
 31
0.0
  0
LINE
  5
1133
  8
SK1
 10
74.40000000000009
 20
-9.525000000000006
 30
0.0
 11
75.41260000000011
 21
-9.525000000000006
 31
0.0
  0
ARC
  5
1150
  8
SK1
 10
51.0
 20
-19.25000000000001
 30
0.0
 40
0.4000000000000211
 50
75.0000000000064
 51
120.000000000004
  0
ARC
  5
1151
  8
SK1
 10
51.0
 20
19.25
 30
0.0
 40
0.4000000000000272
 50
239.999999999996
 51
284.9999999999936
  0
LINE
  5
1152
  8
SK1
 10
51.79907116050003
 20
-19.05000000000001
 30
0.0
 11
72.40000000000009
 21
-19.05000000000001
 31
0.0
  0
LINE
  5
1153
  8
SK1
 10
72.40000000000009
 20
19.04999999999998
 30
0.0
 11
51.79907116050003
 21
19.04999999999998
 31
0.0
  0
LINE
  5
1154
  8
SK1
 10
51.79907116050003
 20
19.04999999999998
 30
0.0
 11
51.10352761800004
 21
18.86362966949997
 31
0.0
  0
LINE
  5
1155
  8
SK1
 10
51.10352761800004
 20
-18.86362966950001
 30
0.0
 11
51.79907116050003
 21
-19.05000000000001
 31
0.0
  0
ARC
  5
1156
  8
SK1
 10
72.40000000000009
 20
-17.05000000000001
 30
0.0
 40
2.0
 50
270.0
 51
0.0
  0
ARC
  5
1157
  8
SK1
 10
72.40000000000009
 20
17.04999999999998
 30
0.0
 40
2.0
 50
0.0
 51
90.0
  0
LINE
  5
1163
  8
SK1
 10
88.90000000000009
 20
0.0
 30
0.0
 11
88.90000000000009
 21
-23.05050000000001
 31
0.0
  0
LINE
  5
1164
  8
SK1
 10
88.90000000000009
 20
23.0505
 30
0.0
 11
88.90000000000009
 21
0.0
 31
0.0
  0
LINE
  5
1165
  8
SK1
 10
88.13799999999992
 20
0.0
 30
0.0
 11
88.13799999999992
 21
-23.81250000000001
 31
0.0
  0
LINE
  5
1166
  8
SK1
 10
88.13799999999992
 20
23.8125
 30
0.0
 11
88.13799999999992
 21
0.0
 31
0.0
  0
LINE
  5
1167
  8
SK1
 10
76.96199999999999
 20
0.0
 30
0.0
 11
76.96199999999999
 21
-23.81250000000001
 31
0.0
  0
LINE
  5
1168
  8
SK1
 10
76.96199999999999
 20
23.8125
 30
0.0
 11
76.96199999999999
 21
0.0
 31
0.0
  0
LINE
  5
1169
  8
SK1
 10
76.20000000000005
 20
0.0
 30
0.0
 11
76.20000000000005
 21
-23.05050000000001
 31
0.0
  0
LINE
  5
116A
  8
SK1
 10
76.20000000000005
 20
23.0505
 30
0.0
 11
76.20000000000005
 21
0.0
 31
0.0
  0
LINE
  5
116B
  8
SK1
 10
58.87720000000013
 20
-25.40250000000002
 30
0.0
 11
50.79999999999995
 21
-25.40250000000002
 31
0.0
  0
LINE
  5
116C
  8
SK1
 10
58.87720000000013
 20
-25.40250000000002
 30
0.0
 11
58.87720000000013
 21
-41.2775
 31
0.0
  0
LINE
  5
116D
  8
SK1
 10
58.87720000000013
 20
-41.2775
 30
0.0
 11
50.79999999999995
 21
-41.2775
 31
0.0
  0
LINE
  5
116F
  8
SK1
 10
58.87720000000013
 20
41.27749999999997
 30
0.0
 11
50.79999999999995
 21
41.27749999999997
 31
0.0
  0
LINE
  5
1170
  8
SK1
 10
58.87720000000013
 20
41.27749999999997
 30
0.0
 11
58.87720000000013
 21
25.40249999999997
 31
0.0
  0
LINE
  5
1171
  8
SK1
 10
58.87720000000013
 20
25.40249999999997
 30
0.0
 11
50.79999999999995
 21
25.40249999999997
 31
0.0
  0
LINE
  5
1195
  8
SK1
 10
51.79907116050003
 20
0.0
 30
0.0
 11
51.79907116050003
 21
19.04999999999998
 31
0.0
  0
LINE
  5
1196
  8
SK1
 10
51.79907116050003
 20
-19.05000000000001
 30
0.0
 11
51.79907116050003
 21
0.0
 31
0.0
  0
LINE
  5
1197
  8
SK1
 10
74.40000000000009
 20
0.0
 30
0.0
 11
74.40000000000009
 21
17.04999999999998
 31
0.0
  0
LINE
  5
1198
  8
SK1
 10
74.40000000000009
 20
-17.05000000000001
 30
0.0
 11
74.40000000000009
 21
0.0
 31
0.0
  0
LINE
  5
1206
  8
SK3
 10
79.375
 20
0.0
 30
0.0
 11
88.90000000000009
 21
0.0
 31
0.0
  0
LINE
  5
1207
  8
SK3
 10
79.375
 20
0.0
 30
0.0
 11
79.375
 21
-2.400300000000016
 31
0.0
  0
LINE
  5
1208
  8
SK3
 10
79.375
 20
2.400299999999987
 30
0.0
 11
79.375
 21
0.0
 31
0.0
  0
LINE
  5
1209
  8
SK3
 10
78.74000000000001
 20
0.0
 30
0.0
 11
78.74000000000001
 21
-4.800600000000003
 31
0.0
  0
LINE
  5
120A
  8
SK3
 10
78.74000000000001
 20
4.800599999999974
 30
0.0
 11
78.74000000000001
 21
0.0
 31
0.0
  0
LINE
  5
120B
  8
SK3
 10
79.375
 20
4.800599999999974
 30
0.0
 11
79.375
 21
2.400299999999987
 31
0.0
  0
LINE
  5
120C
  8
SK3
 10
79.375
 20
-2.400300000000016
 30
0.0
 11
79.375
 21
-4.800600000000003
 31
0.0
  0
LINE
  5
120D
  8
SK3
 10
79.375
 20
4.800599999999974
 30
0.0
 11
88.90000000000009
 21
4.800599999999974
 31
0.0
  0
LINE
  5
120E
  8
SK3
 10
79.375
 20
-4.800600000000003
 30
0.0
 11
88.90000000000009
 21
-4.800600000000003
 31
0.0
  0
LINE
  5
121D
  8
SK3
 10
73.53396697519997
 20
-10.0
 30
0.0
 11
73.53396697519997
 21
10.0
 31
0.0
  0
LINE
  5
121E
  8
SK3
 10
71.40000000000009
 20
10.0
 30
0.0
 11
71.40000000000009
 21
-10.0
 31
0.0
  0
LINE
  5
12A6
  8
SK3
 10
74.40000000000009
 20
9.524999999999977
 30
0.0
 11
50.79999999999995
 21
9.524999999999977
 31
0.0
  0
LINE
  5
12A7
  8
SK3
 10
50.79999999999995
 20
-9.525000000000006
 30
0.0
 11
74.40000000000009
 21
-9.525000000000006
 31
0.0
  0
LINE
  5
12AA
  8
SK3
 10
79.375
 20
4.800599999999974
 30
0.0
 11
78.74000000000001
 21
4.800599999999974
 31
0.0
  0
LINE
  5
12AB
  8
SK3
 10
78.74000000000001
 20
-4.800600000000003
 30
0.0
 11
79.375
 21
-4.800600000000003
 31
0.0
  0
LINE
  5
12AC
  8
SK3
 10
78.74000000000001
 20
4.800599999999974
 30
0.0
 11
75.85550851230005
 21
0.0
 31
0.0
  0
LINE
  5
12AD
  8
SK3
 10
75.85550851230005
 20
0.0
 30
0.0
 11
78.74000000000001
 21
-4.800600000000003
 31
0.0
  0
LINE
  5
12C8
  8
SK3
 10
74.40000000000009
 20
2.5
 30
0.0
 11
50.79999999999995
 21
2.5
 31
0.0
  0
LINE
  5
12CB
  8
SK3
 10
50.79999999999995
 20
-2.5
 30
0.0
 11
74.40000000000009
 21
-2.5
 31
0.0
  0
LINE
  5
12CE
  8
SK3
 10
74.40000000000009
 20
10.50000439999999
 30
0.0
 11
73.53396697519997
 21
10.0
 31
0.0
  0
LINE
  5
12CF
  8
SK3
 10
73.53396697519997
 20
-10.0
 30
0.0
 11
74.40000000000009
 21
-10.50000440000002
 31
0.0
  0
LINE
  5
12D0
  8
SK3
 10
73.53396697519997
 20
10.0
 30
0.0
 11
71.40000000000009
 21
10.0
 31
0.0
  0
LINE
  5
12D1
  8
SK3
 10
71.40000000000009
 20
-10.0
 30
0.0
 11
73.53396697519997
 21
-10.0
 31
0.0
  0
LINE
  5
12D2
  8
SK3
 10
71.40000000000009
 20
9.524999999999977
 30
0.0
 11
50.79999999999995
 21
9.524999999999977
 31
0.0
  0
LINE
  5
12D3
  8
SK3
 10
50.79999999999995
 20
-9.525000000000006
 30
0.0
 11
71.40000000000009
 21
-9.525000000000006
 31
0.0
  0
LINE
  5
12F1
  8
SK3
 10
74.40000000000009
 20
-9.62435565300001
 30
0.0
 11
50.79999999999995
 21
-9.62435565300001
 31
0.0
  0
LINE
  5
12F2
  8
SK3
 10
50.79999999999995
 20
-14.62435565300001
 30
0.0
 11
74.40000000000009
 21
-14.62435565300001
 31
0.0
  0
LINE
  5
12F7
  8
SK3
 10
74.40000000000009
 20
14.62435565299998
 30
0.0
 11
50.79999999999995
 21
14.62435565299998
 31
0.0
  0
LINE
  5
12F8
  8
SK3
 10
50.79999999999995
 20
9.62435565299998
 30
0.0
 11
74.40000000000009
 21
9.62435565299998
 31
0.0
  0
LINE
  5
1304
  8
SK1
 10
75.41260000000011
 20
-9.525000000000006
 30
0.0
 11
75.41260000000011
 21
9.524999999999977
 31
0.0
  0
LINE
  5
1310
  8
SK1
 10
51.10352761800004
 20
18.86362966949997
 30
0.0
 11
51.10352761800004
 21
-18.86362966950001
 31
0.0
  0
LINE
  5
1311
  8
SK1
 10
72.40000000000009
 20
19.04999999999998
 30
0.0
 11
72.40000000000009
 21
-19.05000000000001
 31
0.0
  0
DIMENSION
  5
131D
  8
SK2
  2
*D3
 10
102.7773782492356
 20
-19.05000000000001
 30
0.0
 11
100.9023782492356
 21
-0.0000000000000178
 31
0.0
 70
    32
  3
ISO-25
 13
72.40000000000009
 23
19.04999999999998
 33
0.0
 14
72.40000000000009
 24
-19.05000000000001
 34
0.0
 50
90.0
1001
ACAD
1000
DSTYLE
1002
{
1070
   287
1070
     5
1070
   271
1070
     3
1070
   272
1070
     3
1070
   279
1070
     2
1002
}
  0
DIMENSION
  5
132C
  8
SK2
  2
*D4
 10
120.0745411410551
 20
-46.05000000000002
 30
0.0
 11
118.1995411410551
 21
-0.0000000000000213
 31
0.0
 70
    32
  3
ISO-25
 13
49.79999999999995
 23
46.04999999999998
 33
0.0
 14
49.79999999999995
 24
-46.05000000000001
 34
0.0
 50
90.0
1001
ACAD
1000
DSTYLE
1002
{
1070
   287
1070
     5
1070
   271
1070
     3
1070
   272
1070
     3
1070
   279
1070
     2
1002
}
  0
ARC
  5
133B
  8
NOCUT
 10
49.79999999999998
 20
45.04999999999998
 30
0.0
 40
1.0
 50
0.0
 51
90.0
  0
ARC
  5
133D
  8
NOCUT
 10
36.04999999999998
 20
45.04999999999998
 30
0.0
 40
1.0
 50
90.0
 51
180.0
  0
LINE
  5
133E
  8
NOCUT
 10
49.79999999999998
 20
46.04999999999998
 30
0.0
 11
36.04999999999998
 21
46.04999999999998
 31
0.0
  0
LINE
  5
133F
  8
NOCUT
 10
50.79999999999998
 20
0.0
 30
0.0
 11
50.79999999999998
 21
45.04999999999998
 31
0.0
  0
LINE
  5
1341
  8
SK2
 10
35.04999999999998
 20
45.04999999999998
 30
0.0
 11
35.04999999999998
 21
24.22499999999999
 31
0.0
  0
ARC
  5
1344
  8
SK2
 10
33.04999999999998
 20
24.22499999999999
 30
0.0
 40
2.000000000000001
 50
270.0
 51
0.0
  0
LINE
  5
1978
  8
SK4
 10
50.8
 20
0.0
 30
0.0
 11
88.90000000000009
 21
0.0
 31
0.0
  0
ENDSEC
  0
EOF
