  0
SECTION
  2
HEADER
  9
$ACADVER
  1
AC1009
  9
$DWGCODEPAGE
  3
ansi_1252
  9
$INSBASE
 10
0.0
 20
0.0
 30
0.0
  9
$EXTMIN
 10
-68.25000000000003
 20
-48.27109509650273
 30
0.0
  9
$EXTMAX
 10
141.9525020780113
 20
50.83203563714093
 30
0.0
  9
$LIMMIN
 10
0.0
 20
0.0
  9
$LIMMAX
 10
420.0
 20
297.0
  9
$ORTHOMODE
 70
     1
  9
$REGENMODE
 70
     1
  9
$FILLMODE
 70
     1
  9
$QTEXTMODE
 70
     0
  9
$MIRRTEXT
 70
     0
  9
$DRAGMODE
 70
     2
  9
$LTSCALE
 40
1.0
  9
$OSMODE
 70
   279
  9
$ATTMODE
 70
     1
  9
$TEXTSIZE
 40
2.5
  9
$TRACEWID
 40
1.0
  9
$TEXTSTYLE
  7
STANDARD
  9
$CLAYER
  8
0
  9
$CELTYPE
  6
BYLAYER
  9
$CECOLOR
 62
   256
  9
$DIMSCALE
 40
1.0
  9
$DIMASZ
 40
2.5
  9
$DIMEXO
 40
0.625
  9
$DIMDLI
 40
3.75
  9
$DIMRND
 40
0.0
  9
$DIMDLE
 40
0.0
  9
$DIMEXE
 40
1.25
  9
$DIMTP
 40
0.0
  9
$DIMTM
 40
0.0
  9
$DIMTXT
 40
2.5
  9
$DIMCEN
 40
2.5
  9
$DIMTSZ
 40
0.0
  9
$DIMTOL
 70
     0
  9
$DIMLIM
 70
     0
  9
$DIMTIH
 70
     0
  9
$DIMTOH
 70
     0
  9
$DIMSE1
 70
     0
  9
$DIMSE2
 70
     0
  9
$DIMTAD
 70
     1
  9
$DIMZIN
 70
     8
  9
$DIMBLK
  1

  9
$DIMASO
 70
     1
  9
$DIMSHO
 70
     1
  9
$DIMPOST
  1

  9
$DIMAPOST
  1

  9
$DIMALT
 70
     0
  9
$DIMALTD
 70
     3
  9
$DIMALTF
 40
0.03937007874016
  9
$DIMLFAC
 40
1.0
  9
$DIMTOFL
 70
     1
  9
$DIMTVP
 40
0.0
  9
$DIMTIX
 70
     0
  9
$DIMSOXD
 70
     0
  9
$DIMSAH
 70
     0
  9
$DIMBLK1
  1

  9
$DIMBLK2
  1

  9
$DIMSTYLE
  2
ISO-25
  9
$DIMCLRD
 70
     0
  9
$DIMCLRE
 70
     0
  9
$DIMCLRT
 70
     0
  9
$DIMTFAC
 40
1.0
  9
$DIMGAP
 40
0.625
  9
$LUNITS
 70
     2
  9
$LUPREC
 70
     3
  9
$SKETCHINC
 40
1.0
  9
$FILLETRAD
 40
2.0
  9
$AUNITS
 70
     0
  9
$AUPREC
 70
     0
  9
$MENU
  1
.
  9
$ELEVATION
 40
0.0
  9
$PELEVATION
 40
0.0
  9
$THICKNESS
 40
0.0
  9
$LIMCHECK
 70
     0
  9
$CHAMFERA
 40
10.0
  9
$CHAMFERB
 40
10.0
  9
$SKPOLY
 70
     0
  9
$TDCREATE
 40
2455022.429026158
  9
$TDUPDATE
 40
2458696.404587697
  9
$TDINDWG
 40
0.001290463
  9
$TDUSRTIMER
 40
2458701.75420272
  9
$USRTIMER
 70
     1
  9
$ANGBASE
 50
0.0
  9
$ANGDIR
 70
     0
  9
$PDMODE
 70
     0
  9
$PDSIZE
 40
0.0
  9
$PLINEWID
 40
0.0
  9
$COORDS
 70
     1
  9
$SPLFRAME
 70
     0
  9
$SPLINETYPE
 70
     6
  9
$SPLINESEGS
 70
     8
  9
$ATTDIA
 70
     0
  9
$ATTREQ
 70
     1
  9
$HANDLING
 70
     1
  9
$HANDSEED
  5
202B
  9
$SURFTAB1
 70
     6
  9
$SURFTAB2
 70
     6
  9
$SURFTYPE
 70
     6
  9
$SURFU
 70
     6
  9
$SURFV
 70
     6
  9
$UCSNAME
  2

  9
$UCSORG
 10
0.0
 20
0.0
 30
0.0
  9
$UCSXDIR
 10
1.0
 20
0.0
 30
0.0
  9
$UCSYDIR
 10
0.0
 20
1.0
 30
0.0
  9
$PUCSNAME
  2

  9
$PUCSORG
 10
0.0
 20
0.0
 30
0.0
  9
$PUCSXDIR
 10
1.0
 20
0.0
 30
0.0
  9
$PUCSYDIR
 10
0.0
 20
1.0
 30
0.0
  9
$USERI1
 70
     0
  9
$USERI2
 70
     0
  9
$USERI3
 70
     0
  9
$USERI4
 70
     0
  9
$USERI5
 70
     0
  9
$USERR1
 40
0.0
  9
$USERR2
 40
0.0
  9
$USERR3
 40
0.0
  9
$USERR4
 40
0.0
  9
$USERR5
 40
0.0
  9
$WORLDVIEW
 70
     1
  9
$SHADEDGE
 70
     3
  9
$SHADEDIF
 70
    70
  9
$TILEMODE
 70
     1
  9
$MAXACTVP
 70
    64
  9
$PLIMCHECK
 70
     0
  9
$PEXTMIN
 10
1.000000000000000E+20
 20
1.000000000000000E+20
 30
1.000000000000000E+20
  9
$PEXTMAX
 10
-1.000000000000000E+20
 20
-1.000000000000000E+20
 30
-1.000000000000000E+20
  9
$PLIMMIN
 10
0.0
 20
0.0
  9
$PLIMMAX
 10
0.0
 20
0.0
  9
$UNITMODE
 70
     0
  9
$VISRETAIN
 70
     1
  9
$PLINEGEN
 70
     0
  9
$PSLTSCALE
 70
     1
  0
ENDSEC
  0
SECTION
  2
TABLES
  0
TABLE
  2
VPORT
 70
     1
  0
VPORT
  2
*ACTIVE
 70
     0
 10
0.0
 20
0.0
 11
1.0
 21
1.0
 12
157.6408501386147
 22
1.280470270319107
 13
0.0
 23
0.0
 14
10.0
 24
10.0
 15
10.0
 25
10.0
 16
0.0
 26
0.0
 36
1.0
 17
-134.1869158878501
 27
0.0
 37
0.0
 40
140.3546942318735
 41
1.332880434782609
 42
50.0
 43
0.0
 44
0.0
 50
0.0
 51
0.0
 71
    16
 72
  1000
 73
     1
 74
     3
 75
     0
 76
     0
 77
     0
 78
     0
  0
ENDTAB
  0
TABLE
  2
LTYPE
 70
     6
  0
LTYPE
  2
CONTINUOUS
 70
     0
  3
Solid line
 72
    65
 73
     0
 40
0.0
  0
LTYPE
  2
CENTER
 70
     0
  3
 Center _____  _  _____  _  _____  _  _____  _ 
 72
    65
 73
     4
 40
50.8
 49
31.75
 49
-6.35
 49
6.35
 49
-6.35
  0
LTYPE
  2
DASHED
 70
     0
  3
Dashed __  __  __  __  __  __  __  __  __  __  
 72
    65
 73
     2
 40
19.05
 49
12.7
 49
-6.35
  0
LTYPE
  2
HIDDEN
 70
     0
  3
Hidden __ __ __ __ __ __ __ __ __ __ __ __ __ __
 72
    65
 73
     2
 40
1.905
 49
1.27
 49
-0.635
  0
LTYPE
  2
CENTERX2
 70
     0
  3
Center (2x) ________  __  ________  __  _____
 72
    65
 73
     4
 40
20.32
 49
12.7
 49
-2.54
 49
2.54
 49
-2.54
  0
LTYPE
  2
PHANTOM
 70
     0
  3
Phantom ______  __  __  ______  __  __  ______
 72
    65
 73
     6
 40
12.7
 49
6.35
 49
-1.27
 49
1.27
 49
-1.27
 49
1.27
 49
-1.27
  0
ENDTAB
  0
TABLE
  2
LAYER
 70
    26
  0
LAYER
  2
0
 70
     0
 62
     7
  6
CONTINUOUS
  0
LAYER
  2
1
 70
     0
 62
     4
  6
CONTINUOUS
  0
LAYER
  2
2
 70
     0
 62
     7
  6
CONTINUOUS
  0
LAYER
  2
3
 70
     0
 62
     1
  6
DASHED
  0
LAYER
  2
4
 70
     0
 62
     2
  6
CENTER
  0
LAYER
  2
6
 70
     0
 62
     5
  6
CONTINUOUS
  0
LAYER
  2
7
 70
     0
 62
     5
  6
CONTINUOUS
  0
LAYER
  2
11
 70
     0
 62
     4
  6
CONTINUOUS
  0
LAYER
  2
SK1
 70
     0
 62
     4
  6
CONTINUOUS
  0
LAYER
  2
SK2
 70
     0
 62
     7
  6
CONTINUOUS
  0
LAYER
  2
SK3
 70
     0
 62
     1
  6
DASHED
  0
LAYER
  2
SK4
 70
     0
 62
     2
  6
CENTER
  0
LAYER
  2
SK6
 70
     0
 62
     5
  6
CONTINUOUS
  0
LAYER
  2
SK7
 70
     0
 62
     5
  6
CONTINUOUS
  0
LAYER
  2
SK11
 70
     0
 62
     4
  6
CONTINUOUS
  0
LAYER
  2
CUT
 70
     0
 62
     1
  6
CONTINUOUS
  0
LAYER
  2
NOCUT
 70
     0
 62
    -7
  6
CONTINUOUS
  0
LAYER
  2
SKVIEW1
 70
     0
 62
     4
  6
CONTINUOUS
  0
LAYER
  2
SKVIEW2
 70
     0
 62
     7
  6
CONTINUOUS
  0
LAYER
  2
SKVIEW3
 70
     0
 62
     1
  6
DASHED
  0
LAYER
  2
SKVIEW4
 70
     0
 62
     2
  6
CENTER
  0
LAYER
  2
SKVIEW6
 70
     0
 62
     5
  6
CONTINUOUS
  0
LAYER
  2
SKVIEW7
 70
     0
 62
     5
  6
CONTINUOUS
  0
LAYER
  2
SKVIEW11
 70
     0
 62
     4
  6
CONTINUOUS
  0
LAYER
  2
INFTOTAL
 70
     0
 62
     9
  6
CONTINUOUS
  0
LAYER
  2
DEFPOINTS
 70
     0
 62
     7
  6
CONTINUOUS
  0
ENDTAB
  0
TABLE
  2
STYLE
 70
     1
  0
STYLE
  2
STANDARD
 70
     0
 40
0.0
 41
1.0
 50
0.0
 71
     0
 42
2.5
  3
txt
  4

  0
ENDTAB
  0
TABLE
  2
VIEW
 70
     0
  0
ENDTAB
  0
TABLE
  2
UCS
 70
     0
  0
ENDTAB
  0
TABLE
  2
APPID
 70
     2
  0
APPID
  2
ACAD
 70
     0
  0
APPID
  2
ACAECLAYERSTANDARD
 70
     0
  0
ENDTAB
  0
TABLE
  2
DIMSTYLE
 70
     1
  0
DIMSTYLE
  2
ISO-25
 70
     0
  3

  4

  5

  6

  7

 40
1.0
 41
2.5
 42
0.625
 43
3.75
 44
1.25
 45
0.0
 46
0.0
 47
0.0
 48
0.0
140
2.5
141
2.5
142
0.0
143
0.03937007874016
144
1.0
145
0.0
146
1.0
147
0.625
 71
     0
 72
     0
 73
     0
 74
     0
 75
     0
 76
     0
 77
     1
 78
     8
170
     0
171
     3
172
     1
173
     0
174
     0
175
     0
176
     0
177
     0
178
     0
  0
ENDTAB
  0
ENDSEC
  0
SECTION
  2
BLOCKS
  0
BLOCK
  8
0
  2
$MODEL_SPACE
 70
     0
 10
0.0
 20
0.0
 30
0.0
  3
$MODEL_SPACE
  1

  0
ENDBLK
  5
21
  8
0
  0
BLOCK
 67
     1
  8
0
  2
$PAPER_SPACE
 70
     0
 10
0.0
 20
0.0
 30
0.0
  3
$PAPER_SPACE
  1

  0
ENDBLK
  5
1D
 67
     1
  8
0
  0
BLOCK
  8
0
  2
_FILLED
 70
     0
 10
0.0
 20
0.0
 30
0.0
  3
_FILLED
  1

  0
SOLID
  5
1C4
  8
0
  6
BYBLOCK
 62
     0
 10
0.0
 20
0.0
 30
0.0
 11
-1.0
 21
0.2142857143
 31
0.0
 12
-1.0
 22
-0.2142857143
 32
0.0
 13
-1.0
 23
-0.2142857143
 33
0.0
  0
ENDBLK
  5
1C5
  8
0
  6
BYBLOCK
 62
     0
  0
BLOCK
  8
0
  2
*D1
 70
     1
 10
0.0
 20
0.0
 30
0.0
  3
*D1
  1

  0
LINE
  5
1D3
  8
2
 62
     0
 10
0.0
 20
22.84999999999999
 30
0.0
 11
0.0
 21
48.91573065769793
 31
0.0
  0
LINE
  5
1D4
  8
2
 62
     0
 10
50.79999999999995
 20
34.575
 30
0.0
 11
50.79999999999995
 21
48.91573065769793
 31
0.0
  0
LINE
  5
1D5
  8
2
 62
     0
 10
2.5
 20
47.66573065769793
 30
0.0
 11
48.29999999999995
 21
47.66573065769793
 31
0.0
  0
SOLID
  5
1D6
  8
2
 62
     0
 10
2.5
 20
48.08239732436459
 30
0.0
 11
2.5
 21
47.24906399103126
 31
0.0
 12
0.0
 22
47.66573065769793
 32
0.0
 13
0.0
 23
47.66573065769793
 33
0.0
  0
SOLID
  5
1D7
  8
2
 62
     0
 10
48.29999999999995
 20
47.24906399103126
 30
0.0
 11
48.29999999999995
 21
48.08239732436459
 31
0.0
 12
50.79999999999995
 22
47.66573065769793
 32
0.0
 13
50.79999999999995
 23
47.66573065769793
 33
0.0
  0
TEXT
  5
1D8
  8
2
  6
CONTINUOUS
 62
     0
 10
21.85833333333331
 20
48.29073065769793
 30
0.0
 40
2.5
  1
50.8
  0
POINT
  5
1D9
  8
DEFPOINTS
 62
     0
 10
0.0
 20
22.22499999999999
 30
0.0
  0
POINT
  5
1DA
  8
DEFPOINTS
 62
     0
 10
50.79999999999995
 20
33.95
 30
0.0
  0
POINT
  5
1DB
  8
DEFPOINTS
 62
     0
 10
50.79999999999995
 20
47.66573065769793
 30
0.0
  0
ENDBLK
  5
1DD
  8
0
  0
BLOCK
  8
0
  2
*D2
 70
     1
 10
0.0
 20
0.0
 30
0.0
  3
*D2
  1

  0
LINE
  5
211
  8
SK2
 62
     0
 10
0.0
 20
-22.84999999999999
 30
0.0
 11
0.0
 21
-48.27109509650273
 31
0.0
  0
LINE
  5
212
  8
SK2
 62
     0
 10
35.04999999999995
 20
-34.575
 30
0.0
 11
35.04999999999995
 21
-48.27109509650273
 31
0.0
  0
LINE
  5
213
  8
SK2
 62
     0
 10
2.5
 20
-47.02109509650273
 30
0.0
 11
32.54999999999995
 21
-47.02109509650273
 31
0.0
  0
SOLID
  5
214
  8
SK2
 62
     0
 10
2.5
 20
-46.60442842983606
 30
0.0
 11
2.5
 21
-47.43776176316939
 31
0.0
 12
0.0
 22
-47.02109509650273
 32
0.0
 13
0.0
 23
-47.02109509650273
 33
0.0
  0
SOLID
  5
215
  8
SK2
 62
     0
 10
32.54999999999995
 20
-47.43776176316939
 30
0.0
 11
32.54999999999995
 21
-46.60442842983606
 31
0.0
 12
35.04999999999995
 22
-47.02109509650273
 32
0.0
 13
35.04999999999995
 23
-47.02109509650273
 33
0.0
  0
TEXT
  5
216
  8
SK2
  6
CONTINUOUS
 62
     0
 10
12.73333333333331
 20
-46.39609509650273
 30
0.0
 40
2.5
  1
35.05
  0
POINT
  5
217
  8
DEFPOINTS
 62
     0
 10
0.0
 20
-22.22499999999999
 30
0.0
  0
POINT
  5
218
  8
DEFPOINTS
 62
     0
 10
35.04999999999995
 20
-33.95
 30
0.0
  0
POINT
  5
219
  8
DEFPOINTS
 62
     0
 10
35.04999999999995
 20
-47.02109509650273
 30
0.0
  0
ENDBLK
  5
21B
  8
0
  0
BLOCK
  8
0
  2
*D3
 70
     1
 10
0.0
 20
0.0
 30
0.0
  3
*D3
  1

  0
LINE
  5
1338
  8
SK2
 62
     0
 10
67.42499999999995
 20
15.875
 30
0.0
 11
101.4382966360857
 21
15.875
 31
0.0
  0
LINE
  5
1339
  8
SK2
 62
     0
 10
67.42499999999995
 20
-15.875
 30
0.0
 11
101.4382966360857
 21
-15.875
 31
0.0
  0
LINE
  5
133A
  8
SK2
 62
     0
 10
100.1882966360857
 20
13.375
 30
0.0
 11
100.1882966360857
 21
-13.375
 31
0.0
  0
SOLID
  5
133B
  8
SK2
 62
     0
 10
100.6049633027523
 20
13.375
 30
0.0
 11
99.77162996941898
 21
13.375
 31
0.0
 12
100.1882966360857
 22
15.875
 32
0.0
 13
100.1882966360857
 23
15.875
 33
0.0
  0
SOLID
  5
133C
  8
SK2
 62
     0
 10
99.77162996941898
 20
-13.375
 30
0.0
 11
100.6049633027523
 21
-13.375
 31
0.0
 12
100.1882966360857
 22
-15.875
 32
0.0
 13
100.1882966360857
 23
-15.875
 33
0.0
  0
TEXT
  5
133D
  8
SK2
  6
CONTINUOUS
 62
     0
 10
99.56329663608565
 20
-4.583333333333329
 30
0.0
 40
2.5
  1
31.75
 50
90.0
  0
POINT
  5
133E
  8
DEFPOINTS
 62
     0
 10
66.79999999999995
 20
15.875
 30
0.0
  0
POINT
  5
133F
  8
DEFPOINTS
 62
     0
 10
66.79999999999995
 20
-15.875
 30
0.0
  0
POINT
  5
1340
  8
DEFPOINTS
 62
     0
 10
100.1882966360857
 20
-15.875
 30
0.0
  0
ENDBLK
  5
1342
  8
0
  0
BLOCK
  8
0
  2
*D4
 70
     1
 10
0.0
 20
0.0
 30
0.0
  3
*D4
  1

  0
LINE
  5
1347
  8
SK2
 62
     0
 10
50.37500000000004
 20
34.94999999651428
 30
0.0
 11
115.1578685015291
 21
34.94999999651427
 31
0.0
  0
LINE
  5
1348
  8
SK2
 62
     0
 10
50.42499999999995
 20
-34.95
 30
0.0
 11
115.1578685015291
 21
-34.95000000000001
 31
0.0
  0
LINE
  5
1349
  8
SK2
 62
     0
 10
113.9078685015291
 20
32.44999999651427
 30
0.0
 11
113.9078685015291
 21
-32.45000000000001
 31
0.0
  0
SOLID
  5
134A
  8
SK2
 62
     0
 10
114.3245351681957
 20
32.44999999651427
 30
0.0
 11
113.4912018348624
 21
32.44999999651427
 31
0.0
 12
113.9078685015291
 22
34.94999999651427
 32
0.0
 13
113.9078685015291
 23
34.94999999651427
 33
0.0
  0
SOLID
  5
134B
  8
SK2
 62
     0
 10
113.4912018348624
 20
-32.45000000000001
 30
0.0
 11
114.3245351681957
 21
-32.45000000000001
 31
0.0
 12
113.9078685015291
 22
-34.95000000000001
 32
0.0
 13
113.9078685015291
 23
-34.95000000000001
 33
0.0
  0
TEXT
  5
134C
  8
SK2
  6
CONTINUOUS
 62
     0
 10
113.2828685015291
 20
-3.750000001742876
 30
0.0
 40
2.5
  1
69.9
 50
90.0
  0
POINT
  5
134D
  8
DEFPOINTS
 62
     0
 10
49.75000000000004
 20
34.94999999651428
 30
0.0
  0
POINT
  5
134E
  8
DEFPOINTS
 62
     0
 10
49.79999999999995
 20
-34.95
 30
0.0
  0
POINT
  5
134F
  8
DEFPOINTS
 62
     0
 10
113.9078685015291
 20
-34.95000000000001
 30
0.0
  0
ENDBLK
  5
1351
  8
0
  0
ENDSEC
  0
SECTION
  2
ENTITIES
  0
LINE
  5
1B2
  8
4
 10
50.79999999999996
 20
-0.0000000034857197
 30
0.0
 11
0.0
 21
0.0
 31
0.0
  0
DIMENSION
  5
1CF
  8
2
  2
*D1
 10
50.79999999999995
 20
47.66573065769793
 30
0.0
 11
25.39999999999998
 21
49.54073065769793
 31
0.0
 70
    32
  3
ISO-25
 13
0.0
 23
22.22499999999999
 33
0.0
 14
50.79999999999995
 24
33.95
 34
0.0
  0
DIMENSION
  5
20D
  8
SK2
  2
*D2
 10
35.04999999999995
 20
-47.02109509650273
 30
0.0
 11
17.52499999999998
 21
-45.14609509650273
 31
0.0
 70
    32
  3
ISO-25
 13
0.0
 23
-22.22499999999999
 33
0.0
 14
35.04999999999995
 24
-33.95
 34
0.0
  0
LINE
  5
364
  8
NOCUT
 10
50.79999999999995
 20
-0.0000000034857197
 30
0.0
 11
0.0
 21
0.0
 31
0.0
  0
LINE
  5
99D
  8
SK3
 10
-66.51794919240001
 20
0.0
 30
0.0
 11
-66.51794919240001
 21
8.149999999999991
 31
0.0
  0
LINE
  5
99E
  8
SK3
 10
-66.51794919240001
 20
-8.149999999999991
 30
0.0
 11
-66.51794919240001
 21
0.0
 31
0.0
  0
LINE
  5
99F
  8
SK3
 10
-63.48000000000002
 20
0.0
 30
0.0
 11
-63.48000000000002
 21
8.149999999999991
 31
0.0
  0
LINE
  5
9A0
  8
SK3
 10
-63.48000000000002
 20
-8.149999999999991
 30
0.0
 11
-63.48000000000002
 21
0.0
 31
0.0
  0
LINE
  5
9BF
  8
SK3
 10
-68.25000000000003
 20
-9.149999999999991
 30
0.0
 11
-66.51794919240001
 21
-8.149999999999991
 31
0.0
  0
LINE
  5
9C0
  8
SK3
 10
-66.51794919240001
 20
8.149999999999991
 30
0.0
 11
-68.25000000000003
 21
9.149999999999991
 31
0.0
  0
LINE
  5
9C1
  8
SK3
 10
-66.51794919240001
 20
-8.149999999999991
 30
0.0
 11
-63.48000000000002
 21
-8.149999999999991
 31
0.0
  0
LINE
  5
9C2
  8
SK3
 10
-63.48000000000002
 20
8.149999999999991
 30
0.0
 11
-66.51794919240001
 21
8.149999999999991
 31
0.0
  0
LINE
  5
9C3
  8
SK3
 10
-63.48000000000002
 20
-6.700000000000003
 30
0.0
 11
-8.250000000000007
 21
-6.700000000000003
 31
0.0
  0
LINE
  5
9C4
  8
SK3
 10
-8.25
 20
6.700000000000003
 30
0.0
 11
-63.48000000000002
 21
6.700000000000003
 31
0.0
  0
LINE
  5
9E1
  8
0
 10
52.74999999999995
 20
1.99999999651428
 30
0.0
 11
48.75000000000004
 21
-2.00000000348572
 31
0.0
  0
LINE
  5
9E2
  8
0
 10
48.75000000000004
 20
1.99999999651428
 30
0.0
 11
52.74999999999995
 21
-2.00000000348572
 31
0.0
  0
CIRCLE
  5
9E3
  8
0
 10
50.75000000000004
 20
-0.0000000034857197
 30
0.0
 40
1.5
  0
LINE
  5
9E4
  8
0
 10
3.0
 20
3.0
 30
0.0
 11
-3.0
 21
-3.0
 31
0.0
  0
LINE
  5
9E5
  8
0
 10
-3.0
 20
3.0
 30
0.0
 11
3.0
 21
-3.0
 31
0.0
  0
CIRCLE
  5
9E6
  8
0
 10
0.0
 20
0.0
 30
0.0
 40
2.5
  0
LINE
  5
9E7
  8
SK3
 10
-63.48000000000005
 20
-7.937499999800011
 30
0.0
 11
-39.75000000000003
 21
-7.937499999800011
 31
0.0
  0
LINE
  5
9E8
  8
SK3
 10
-39.75000000000003
 20
7.937500000199975
 30
0.0
 11
-39.75000000000003
 21
-7.937499999800011
 31
0.0
  0
LINE
  5
9E9
  8
SK3
 10
-39.75000000000003
 20
7.937500000199975
 30
0.0
 11
-63.48000000000005
 21
7.937500000199975
 31
0.0
  0
ARC
  5
AA1
  8
NOCUT
 10
0.5
 20
22.72499999999999
 30
0.0
 40
0.5
 50
270.0
 51
0.0
  0
LINE
  5
AA4
  8
NOCUT
 10
0.5
 20
22.22499999999999
 30
0.0
 11
0.0
 21
22.22499999999999
 31
0.0
  0
LINE
  5
AA5
  8
NOCUT
 10
33.00000000000004
 20
22.22499999999999
 30
0.0
 11
20.04999999999998
 21
22.22499999999999
 31
0.0
  0
LINE
  5
AA7
  8
NOCUT
 10
14.65616676909997
 20
30.7125381562
 30
0.0
 11
18.54999999999995
 21
30.7125381562
 31
0.0
  0
POLYLINE
  5
AA8
  8
NOCUT
 66
     1
 10
0.0
 20
0.0
 30
0.0
  0
VERTEX
  5
19FD
  8
NOCUT
 10
18.54999999999995
 20
30.7125381562
 30
0.0
  0
VERTEX
  5
19FE
  8
NOCUT
 10
18.57284145939997
 20
30.6889245341
 30
0.0
  0
VERTEX
  5
19FF
  8
NOCUT
 10
19.04999999999995
 20
30.1953638825
 30
0.0
  0
SEQEND
  5
202A
  8
NOCUT
  0
POLYLINE
  5
AA9
  8
NOCUT
 66
     1
 10
0.0
 20
0.0
 30
0.0
  0
VERTEX
  5
1A00
  8
NOCUT
 10
1.0
 20
30.1953638825
 30
0.0
  0
VERTEX
  5
1A01
  8
NOCUT
 10
1.477158540600044
 20
30.6889245341
 30
0.0
  0
VERTEX
  5
1A02
  8
NOCUT
 10
1.5
 20
30.7125381562
 30
0.0
  0
SEQEND
  5
2029
  8
NOCUT
  0
LINE
  5
AAA
  8
NOCUT
 10
1.499999999999996
 20
30.7125381562
 30
0.0
 11
7.603833230899966
 21
30.7125381562
 31
0.0
  0
POLYLINE
  5
AAB
  8
NOCUT
 66
     1
 10
0.0
 20
0.0
 30
0.0
  0
VERTEX
  5
1A03
  8
NOCUT
 10
7.603833230899966
 20
30.7125381562
 30
0.0
  0
VERTEX
  5
1A04
  8
NOCUT
 10
9.140787278000005
 20
27.9518236359
 30
0.0
  0
VERTEX
  5
1A05
  8
NOCUT
 10
9.204999999999984
 20
27.8360650174
 30
0.0
  0
SEQEND
  5
2028
  8
NOCUT
  0
POLYLINE
  5
AAC
  8
NOCUT
 66
     1
 10
0.0
 20
0.0
 30
0.0
  0
VERTEX
  5
1A06
  8
NOCUT
 10
13.05499999999995
 20
27.8360650174
 30
0.0
  0
VERTEX
  5
1A07
  8
NOCUT
 10
13.1192127219
 20
27.9518236359
 30
0.0
  0
VERTEX
  5
1A08
  8
NOCUT
 10
14.65616676909997
 20
30.7125381562
 30
0.0
  0
SEQEND
  5
2027
  8
NOCUT
  0
ARC
  5
AAD
  8
NOCUT
 10
12.54226966779999
 20
27.51838423379999
 30
0.0
 40
0.512803993977288
 50
271.4225108534019
 51
0.9711541378997977
  0
ARC
  5
AAE
  8
NOCUT
 10
9.716236145599964
 20
27.5169512018
 30
0.0
 40
0.5113363895821054
 50
178.8654582714003
 51
268.7408767374973
  0
LINE
  5
AAF
  8
NOCUT
 10
9.704999999999984
 20
27.0057382791
 30
0.0
 11
12.55499999999995
 21
27.0057382791
 31
0.0
  0
LINE
  5
AB0
  8
NOCUT
 10
0.0
 20
0.0
 30
0.0
 11
0.0
 21
22.22499999999999
 31
0.0
  0
LINE
  5
ACA
  8
NOCUT
 10
1.0
 20
22.72499999999999
 30
0.0
 11
1.0
 21
30.1953638825
 31
0.0
  0
LINE
  5
ACB
  8
NOCUT
 10
9.204999999999984
 20
27.8360650174
 30
0.0
 11
9.20489975601786
 21
27.5169512018
 31
0.0
  0
LINE
  5
ACC
  8
NOCUT
 10
13.05499999999995
 20
27.8360650174
 30
0.0
 11
13.05507366177728
 21
27.51838423379999
 31
0.0
  0
LINE
  5
ACD
  8
NOCUT
 10
19.04999999999995
 20
30.1953638825
 30
0.0
 11
19.04999999999995
 21
23.22499999999999
 31
0.0
  0
ARC
  5
B91
  8
1
 10
20.04999999999998
 20
-23.22499999999999
 30
0.0
 40
1.0
 50
90.0
 51
180.0
  0
ARC
  5
B93
  8
1
 10
20.04999999999998
 20
23.22499999999999
 30
0.0
 40
1.0
 50
180.0
 51
270.0
  0
ARC
  5
B94
  8
1
 10
0.799999999999983
 20
-22.42500000000001
 30
0.0
 40
0.5
 50
66.42182152179994
 51
90.0
  0
ARC
  5
B95
  8
1
 10
0.799999999999983
 20
22.42499999999998
 30
0.0
 40
0.5
 50
270.0
 51
293.5781784782001
  0
LINE
  5
B96
  8
1
 10
20.04999999999998
 20
-22.22499999999999
 30
0.0
 11
33.04999999999995
 21
-22.22499999999999
 31
0.0
  0
LINE
  5
B97
  8
1
 10
33.04999999999995
 20
22.22499999999999
 30
0.0
 11
20.04999999999998
 21
22.22499999999999
 31
0.0
  0
LINE
  5
B98
  8
1
 10
0.0
 20
-22.22499999999999
 30
0.0
 11
0.2999999999999829
 21
-21.92500000000001
 31
0.0
  0
LINE
  5
B99
  8
1
 10
0.2999999999999829
 20
21.92499999999998
 30
0.0
 11
0.0
 21
22.22499999999999
 31
0.0
  0
LINE
  5
B9C
  8
SK1
 10
0.0
 20
22.22499999999999
 30
0.0
 11
-67.3943082273
 21
12.39657058259999
 31
0.0
  0
LINE
  5
B9D
  8
SK1
 10
-67.3943082273
 20
-12.39657058270001
 30
0.0
 11
0.0
 21
-22.22499999999999
 31
0.0
  0
LINE
  5
B9E
  8
1
 10
0.2999999999999829
 20
-21.92500000000001
 30
0.0
 11
0.799999999999983
 21
-21.92500000000001
 31
0.0
  0
LINE
  5
B9F
  8
1
 10
0.799999999999983
 20
21.92499999999998
 30
0.0
 11
0.2999999999999829
 21
21.92499999999998
 31
0.0
  0
ARC
  5
BA0
  8
SK1
 10
-67.25
 20
-11.4070377962
 30
0.0
 40
1.000000000000014
 50
180.0
 51
261.7027777778003
  0
ARC
  5
BA1
  8
SK1
 10
-67.25
 20
11.40703779609998
 30
0.0
 40
1.000000000000014
 50
98.29722222219964
 51
180.0
  0
LINE
  5
BA2
  8
1
 10
14.6561667922
 20
30.49243725150001
 30
0.0
 11
13.05500004409998
 21
27.5903849293
 31
0.0
  0
LINE
  5
BA3
  8
1
 10
14.65616676899998
 20
-30.51805114620001
 30
0.0
 11
14.65616676899998
 21
30.49243720799998
 31
0.0
  0
LINE
  5
BA4
  8
1
 10
13.05500002099998
 20
-27.61768172550001
 30
0.0
 11
14.65616678619998
 21
-30.51748284710001
 31
0.0
  0
LINE
  5
BA5
  8
1
 10
13.05499999999998
 20
-27.61768156150001
 30
0.0
 11
13.05499999999998
 21
27.5896745586
 31
0.0
  0
LINE
  5
BA6
  8
1
 10
14.65616729029998
 20
-30.5174828113
 30
0.0
 11
14.76217597669998
 21
-30.54092502470002
 31
0.0
  0
LINE
  5
BA7
  8
1
 10
14.69253150219998
 20
30.50268419069999
 30
0.0
 11
14.65616753799998
 21
30.49243719839998
 31
0.0
  0
LINE
  5
BA8
  8
1
 10
18.54999999999998
 20
30.50268419069999
 30
0.0
 11
14.69253150219998
 21
30.50268419069999
 31
0.0
  0
LINE
  5
BA9
  8
1
 10
14.76217597669998
 20
-30.54092502470002
 30
0.0
 11
18.54999999999998
 21
-30.54092502470002
 31
0.0
  0
LINE
  5
BAA
  8
1
 10
9.204999955799991
 20
27.5903849293
 30
0.0
 11
7.603833207699978
 21
30.49243725150001
 31
0.0
  0
LINE
  5
BAB
  8
1
 10
9.204999999999984
 20
-27.6182445954
 30
0.0
 11
9.204999999999984
 21
27.5903848518
 31
0.0
  0
LINE
  5
BAC
  8
1
 10
7.6038332137
 20
-30.51748284710001
 30
0.0
 11
9.204999978799975
 21
-27.61768172539999
 31
0.0
  0
LINE
  5
BAD
  8
1
 10
7.603833230899994
 20
-30.5174828113
 30
0.0
 11
7.603833230899994
 21
30.49194635059999
 31
0.0
  0
LINE
  5
BAE
  8
1
 10
1.0
 20
-29.20362428180002
 30
0.0
 11
1.0
 21
29.22527756419998
 31
0.0
  0
ARC
  5
BAF
  8
1
 10
1.736068826500002
 20
28.83956144390001
 30
0.0
 40
0.8318485490646366
 50
106.4871262675995
 51
152.2338518675996
  0
POLYLINE
  5
BB0
  8
1
 66
     1
 10
0.0
 20
0.0
 30
0.0
  0
VERTEX
  5
1A09
  8
1
 10
1.499991175799977
 20
-29.70136738420001
 30
0.0
  0
VERTEX
  5
1A0A
  8
1
 10
1.31486147779998
 20
-29.6078136875
 30
0.0
  0
VERTEX
  5
1A0B
  8
1
 10
1.220960437199977
 20
-29.54106786380001
 30
0.0
  0
VERTEX
  5
1A0C
  8
1
 10
1.131120186599986
 20
-29.45918995790001
 30
0.0
  0
VERTEX
  5
1A0D
  8
1
 10
1.068966655699995
 20
-29.38420485969999
 30
0.0
  0
VERTEX
  5
1A0E
  8
1
 10
1.029912598300001
 20
-29.3189781797
 30
0.0
  0
VERTEX
  5
1A0F
  8
1
 10
1.001757060399996
 20
-29.23060659110001
 30
0.0
  0
VERTEX
  5
1A10
  8
1
 10
1.000001938499992
 20
-29.2054619834
 30
0.0
  0
SEQEND
  5
2026
  8
1
  0
LINE
  5
BB1
  8
1
 10
7.5674684974
 20
30.50268419069999
 30
0.0
 11
4.03465638199998
 21
30.50268419069999
 31
0.0
  0
LINE
  5
BB2
  8
1
 10
7.603832461599978
 20
30.49243719839998
 30
0.0
 11
7.5674684974
 21
30.50268419069999
 31
0.0
  0
LINE
  5
BB3
  8
1
 10
7.497824022700001
 20
-30.54092502470002
 30
0.0
 11
7.603832709099976
 21
-30.5174828113
 31
0.0
  0
LINE
  5
BB4
  8
1
 10
3.987796517999982
 20
-30.54092502470002
 30
0.0
 11
7.497824022700001
 21
-30.54092502470002
 31
0.0
  0
LINE
  5
BB5
  8
1
 10
1.500000037399985
 20
-29.70136454339999
 30
0.0
 11
3.987796517999982
 21
-30.54092512950001
 31
0.0
  0
LINE
  5
BB6
  8
1
 10
4.03465638199998
 20
30.5026843142
 30
0.0
 11
1.499999999899984
 21
29.6372041155
 31
0.0
  0
POLYLINE
  5
BB7
  8
1
 66
     1
 10
0.0
 20
0.0
 30
0.0
  0
VERTEX
  5
1A11
  8
1
 10
18.81621828999999
 20
-30.4787564463
 30
0.0
  0
VERTEX
  5
1A12
  8
1
 10
18.6790188139
 20
-30.52721612650001
 30
0.0
  0
VERTEX
  5
1A13
  8
1
 10
18.54999999999998
 20
-30.54092502470002
 30
0.0
  0
SEQEND
  5
2025
  8
1
  0
ARC
  5
BB8
  8
1
 10
18.55943835959999
 20
29.86640550269999
 30
0.0
 40
0.6363486869715145
 50
60.60134603479981
 51
90.84984539750005
  0
ARC
  5
BB9
  8
1
 10
18.35098180669999
 20
29.95429978019999
 30
0.0
 40
0.6992094391558102
 50
1.340108450200791
 51
41.85091720829973
  0
LINE
  5
BBA
  8
1
 10
19.04999999999998
 20
29.97065231189998
 30
0.0
 11
19.04999999999998
 21
-29.97065231190001
 31
0.0
  0
ARC
  5
BBB
  8
1
 10
18.33294041069999
 20
-29.9485632036
 30
0.0
 40
0.7173997374297006
 50
312.3495695874001
 51
358.2355544919003
  0
ARC
  5
BBC
  8
1
 10
9.7449695926
 20
27.30906555679999
 30
0.0
 40
0.5407677835436584
 50
176.8865704259999
 51
265.761250323199
  0
ARC
  5
BBD
  8
1
 10
9.7179331838
 20
-27.29360212969999
 30
0.0
 40
0.4775741781478385
 50
91.55181642760164
 51
147.4596417165987
  0
ARC
  5
BBE
  8
1
 10
12.52505146019999
 20
27.30025443439999
 30
0.0
 40
0.5313222205439724
 50
273.2312498579008
 51
4.120929392898505
  0
ARC
  5
BBF
  8
1
 10
12.53972316129997
 20
-27.2977060387
 30
0.0
 40
0.4817452194643697
 50
32.86161398089808
 51
88.18276318630117
  0
LINE
  5
BC0
  8
1
 10
12.55499999999998
 20
26.7697769259
 30
0.0
 11
9.704999999999984
 21
26.7697769259
 31
0.0
  0
LINE
  5
BC1
  8
1
 10
9.704999999999984
 20
-26.81620310549999
 30
0.0
 11
12.55499999999998
 21
-26.81620310549999
 31
0.0
  0
LINE
  5
BC4
  8
1
 10
0.2999999999999829
 20
0.0
 30
0.0
 11
0.2999999999999829
 21
21.92499999999998
 31
0.0
  0
LINE
  5
BC5
  8
1
 10
0.2999999999999829
 20
-21.92500000000001
 30
0.0
 11
0.2999999999999829
 21
0.0
 31
0.0
  0
LINE
  5
BC6
  8
1
 10
0.0
 20
0.0
 30
0.0
 11
0.0
 21
22.22499999999999
 31
0.0
  0
LINE
  5
BC7
  8
1
 10
0.0
 20
-22.22499999999999
 30
0.0
 11
0.0
 21
0.0
 31
0.0
  0
LINE
  5
BCA
  8
SK1
 10
-68.25
 20
0.0
 30
0.0
 11
-68.25
 21
11.40703779609998
 31
0.0
  0
LINE
  5
BCB
  8
SK1
 10
-68.25
 20
-11.4070377962
 30
0.0
 11
-68.25
 21
0.0
 31
0.0
  0
LINE
  5
BCC
  8
1
 10
7.567468496899977
 20
30.50268419069999
 30
0.0
 11
7.6038324612
 21
30.49243719839998
 31
0.0
  0
LINE
  5
BCD
  8
1
 10
3.987796517999982
 20
-30.54092512950001
 30
0.0
 11
1.499999999899984
 21
-29.7013645289
 31
0.0
  0
LINE
  5
BDE
  8
3
 10
1.0
 20
-22.59999999999999
 30
0.0
 11
3.699999999999989
 21
-22.59999999999999
 31
0.0
  0
LINE
  5
BDF
  8
3
 10
1.0
 20
25.02000000000001
 30
0.0
 11
3.699999999999989
 21
25.02000000000001
 31
0.0
  0
LINE
  5
BE8
  8
3
 10
18.25
 20
25.02000000000001
 30
0.0
 11
19.04999999999998
 21
25.02000000000001
 31
0.0
  0
LINE
  5
BFE
  8
3
 10
3.699999999999989
 20
-22.59999999999999
 30
0.0
 11
18.25
 21
-22.59999999999999
 31
0.0
  0
LINE
  5
C08
  8
3
 10
3.699999999999989
 20
25.02000000000001
 30
0.0
 11
18.25
 21
25.02000000000001
 31
0.0
  0
LINE
  5
C10
  8
3
 10
11.13
 20
21.22
 30
0.0
 11
17.47999999999999
 21
21.22
 31
0.0
  0
LINE
  5
C11
  8
3
 10
4.780000000000001
 20
21.22
 30
0.0
 11
11.13
 21
21.22
 31
0.0
  0
LINE
  5
C12
  8
3
 10
11.13
 20
21.21000000000001
 30
0.0
 11
15.88
 21
21.21000000000001
 31
0.0
  0
LINE
  5
C13
  8
3
 10
6.379999999999995
 20
21.21000000000001
 30
0.0
 11
11.13
 21
21.21000000000001
 31
0.0
  0
LINE
  5
C26
  8
3
 10
4.780000000000001
 20
25.02000000000001
 30
0.0
 11
4.780000000000001
 21
21.22
 31
0.0
  0
LINE
  5
C27
  8
3
 10
17.47999999999999
 20
21.22
 30
0.0
 11
17.47999999999999
 21
25.02000000000001
 31
0.0
  0
LINE
  5
C28
  8
3
 10
6.379999999999995
 20
21.22
 30
0.0
 11
6.379999999999995
 21
21.21000000000001
 31
0.0
  0
LINE
  5
C29
  8
3
 10
15.88
 20
21.21000000000001
 30
0.0
 11
15.88
 21
21.22
 31
0.0
  0
LINE
  5
C2A
  8
3
 10
6.379999999999995
 20
21.21000000000001
 30
0.0
 11
11.13
 21
18.3559120596
 31
0.0
  0
LINE
  5
C2B
  8
3
 10
11.13
 20
18.3559120596
 30
0.0
 11
15.88
 21
21.21000000000001
 31
0.0
  0
LINE
  5
C2C
  8
1
 10
20.04999999999998
 20
22.22499999999999
 30
0.0
 11
20.04999999999998
 21
-22.22499999999999
 31
0.0
  0
LINE
  5
C2D
  8
1
 10
0.799999999999983
 20
21.92499999999998
 30
0.0
 11
0.799999999999983
 21
-21.92500000000001
 31
0.0
  0
LINE
  5
C2F
  8
1
 10
9.704999999999984
 20
26.26568698759999
 30
0.0
 11
9.704999999999984
 21
-26.08092552630001
 31
0.0
  0
LINE
  5
C30
  8
1
 10
12.55499999999998
 20
26.26578903699999
 30
0.0
 11
12.55499999999998
 21
-26.08072526110001
 31
0.0
  0
LINE
  5
C31
  8
1
 10
18.54999999999998
 20
30.50268419069999
 30
0.0
 11
18.54999999999998
 21
-30.54092502470002
 31
0.0
  0
LINE
  5
C32
  8
1
 10
1.5
 20
-29.7013645289
 30
0.0
 11
1.5
 21
29.6372041155
 31
0.0
  0
LINE
  5
C92
  8
SK4
 10
0.0
 20
0.0
 30
0.0
 11
-68.25
 21
0.0
 31
0.0
  0
TEXT
  5
D44
  8
SK6
 10
-66.17909534664395
 20
47.33203563714093
 30
0.0
 40
3.5
  1
BIG KAISER
 41
0.85
  0
TEXT
  5
D45
  8
SK6
 10
-66.17909534664395
 20
42.08203563714093
 30
0.0
 40
3.5
  1
BCV40-SMC1.250-2
 41
0.85
  0
INSERT
  5
D46
  8
SK6
  2
_FILLED
 10
-17.9836627818344
 20
-19.60235774778011
 30
0.0
 41
3.5
 42
3.5
 43
3.5
 50
55.49325986033524
  0
POLYLINE
  5
D47
  8
SK6
 66
     1
 10
0.0
 20
0.0
 30
0.0
  0
VERTEX
  5
1A14
  8
SK6
 10
-19.966423916232
 20
-22.48656618059532
 30
0.0
  0
VERTEX
  5
1A15
  8
SK6
 10
-33.4822656830344
 20
-42.14728280658011
 30
0.0
  0
VERTEX
  5
1A16
  8
SK6
 10
-35.35726568303438
 20
-40.39728280658011
 30
0.0
  0
VERTEX
  5
1A17
  8
SK6
 10
-38.85726568303438
 20
-40.39728280658011
 30
0.0
  0
SEQEND
  5
2024
  8
SK6
  0
TEXT
  5
D48
  8
SK6
 10
-53.86143234970106
 20
-43.89728280658011
 30
0.0
 40
3.5
  1
BCV40
 41
0.85
  0
ARC
  5
E7B
  8
NOCUT
 10
20.04999999999998
 20
23.22499999999999
 30
0.0
 40
1.0
 50
180.0
 51
270.0
  0
ARC
  5
F33
  8
1
 10
36.04999999999995
 20
33.95
 30
0.0
 40
1.0
 50
90.0
 51
180.0
  0
ARC
  5
F35
  8
1
 10
36.04999999999995
 20
-33.95
 30
0.0
 40
1.0
 50
180.0
 51
270.0
  0
ARC
  5
F36
  8
1
 10
49.79999999999995
 20
-33.95
 30
0.0
 40
0.9999999999999858
 50
270.0
 51
0.0
  0
ARC
  5
F37
  8
1
 10
49.79999999999995
 20
33.95
 30
0.0
 40
0.9999999999999716
 50
0.0
 51
90.0
  0
LINE
  5
F38
  8
1
 10
36.04999999999995
 20
-34.95
 30
0.0
 11
49.79999999999995
 21
-34.95
 31
0.0
  0
LINE
  5
F39
  8
1
 10
49.79999999999995
 20
34.95
 30
0.0
 11
36.04999999999995
 21
34.95
 31
0.0
  0
ARC
  5
F3A
  8
1
 10
33.04999999999995
 20
24.22499999999998
 30
0.0
 40
2.0
 50
270.0
 51
292.6280675436014
  0
ARC
  5
F3B
  8
1
 10
33.04999999999995
 20
-24.22500000000001
 30
0.0
 40
2.0
 50
67.29427343619764
 51
90.0
  0
LINE
  5
F60
  8
1
 10
35.04999999999995
 20
-33.95
 30
0.0
 11
35.04999999999995
 21
33.95
 31
0.0
  0
LINE
  5
F61
  8
1
 10
50.79999999999995
 20
0.0
 30
0.0
 11
50.79999999999995
 21
33.95
 31
0.0
  0
LINE
  5
F62
  8
1
 10
50.79999999999995
 20
-33.95
 30
0.0
 11
50.79999999999995
 21
0.0
 31
0.0
  0
CIRCLE
  5
F63
  8
1
 10
42.79999999999995
 20
0.0
 30
0.0
 40
2.625000000000227
  0
CIRCLE
  5
F64
  8
1
 10
42.79999999999995
 20
0.0
 30
0.0
 40
2.525000000000318
  0
POLYLINE
  5
F7F
  8
1
 66
     1
 10
0.0
 20
0.0
 30
0.0
  0
VERTEX
  5
1A18
  8
1
 10
33.82227052079998
 20
-22.37571239900001
 30
0.0
  0
VERTEX
  5
1A19
  8
1
 10
33.80716294519993
 20
-22.3729423856
 30
0.0
  0
VERTEX
  5
1A1A
  8
1
 10
33.95986198719993
 20
-22.4031460928
 30
0.0
  0
VERTEX
  5
1A1B
  8
1
 10
34.27897741809988
 20
-22.5092101095
 30
0.0
  0
VERTEX
  5
1A1C
  8
1
 10
34.56585362989995
 20
-22.67797025320002
 30
0.0
  0
VERTEX
  5
1A1D
  8
1
 10
34.88718405739996
 20
-23.05114493970001
 30
0.0
  0
VERTEX
  5
1A1E
  8
1
 10
34.98969992019988
 20
-23.2994890179
 30
0.0
  0
VERTEX
  5
1A1F
  8
1
 10
35.0470315174
 20
-23.6370471246
 30
0.0
  0
VERTEX
  5
1A20
  8
1
 10
35.04999999999995
 20
-23.73970979910001
 30
0.0
  0
SEQEND
  5
2023
  8
1
  0
ARC
  5
F80
  8
1
 10
33.67790216419985
 20
23.7401922438
 30
0.0
 40
1.372097920632906
 50
276.0386443327983
 51
359.9798541741994
  0
LINE
  5
F8B
  8
1
 10
44.04999999999995
 20
0.7216878364999957
 30
0.0
 11
42.79999999999995
 21
1.443375672900004
 31
0.0
  0
LINE
  5
F8C
  8
1
 10
41.54999999999995
 20
0.7216878364999957
 30
0.0
 11
42.79999999999995
 21
1.443375672900004
 31
0.0
  0
LINE
  5
F8D
  8
1
 10
44.04999999999995
 20
-0.7216878364999957
 30
0.0
 11
42.79999999999995
 21
-1.44337567300002
 31
0.0
  0
LINE
  5
F8E
  8
1
 10
44.04999999999995
 20
-0.7216878364999957
 30
0.0
 11
44.04999999999995
 21
0.7216878364999957
 31
0.0
  0
CIRCLE
  5
F8F
  8
1
 10
42.79999999999995
 20
0.0
 30
0.0
 40
2.054999999999978
  0
LINE
  5
F90
  8
1
 10
41.54999999999995
 20
-0.7216878364999957
 30
0.0
 11
42.79999999999995
 21
-1.44337567300002
 31
0.0
  0
LINE
  5
F91
  8
1
 10
41.54999999999995
 20
-0.7216878364999957
 30
0.0
 11
41.54999999999995
 21
0.7216878364999957
 31
0.0
  0
CIRCLE
  5
F92
  8
1
 10
42.79999999999995
 20
0.0
 30
0.0
 40
2.256103126841936
  0
POLYLINE
  5
FB0
  8
3
 66
     1
 10
0.0
 20
0.0
 30
0.0
  0
VERTEX
  5
1A21
  8
3
 10
45.42499999999995
 20
30.26758786220002
 30
0.0
  0
VERTEX
  5
1A22
  8
3
 10
45.27751101359991
 20
30.6920148233
 30
0.0
  0
VERTEX
  5
1A23
  8
3
 10
44.8518877951999
 20
31.05295459399998
 30
0.0
  0
VERTEX
  5
1A24
  8
3
 10
44.19472017559997
 20
31.3181655625
 30
0.0
  0
VERTEX
  5
1A25
  8
3
 10
43.37917037119996
 20
31.46641812349999
 30
0.0
  0
VERTEX
  5
1A26
  8
3
 10
42.49960790809996
 20
31.48709473700002
 30
0.0
  0
VERTEX
  5
1A27
  8
3
 10
41.65564144859991
 20
31.3795763609
 30
0.0
  0
VERTEX
  5
1A28
  8
3
 10
40.93957072369994
 20
31.15100486299998
 30
0.0
  0
VERTEX
  5
1A29
  8
3
 10
40.43136793169992
 20
30.81745378159998
 30
0.0
  0
VERTEX
  5
1A2A
  8
3
 10
40.19030005399986
 20
30.40809749310002
 30
0.0
  0
VERTEX
  5
1A2B
  8
3
 10
40.24342546039998
 20
29.96547364129999
 30
0.0
  0
VERTEX
  5
1A2C
  8
3
 10
40.58320351989983
 20
29.54016159070001
 30
0.0
  0
VERTEX
  5
1A2D
  8
3
 10
41.17253348919985
 20
29.18518310319998
 30
0.0
  0
VERTEX
  5
1A2E
  8
3
 10
41.946680173
 20
28.94992528899998
 30
0.0
  0
VERTEX
  5
1A2F
  8
3
 10
42.27081559849989
 20
28.92000575760001
 30
0.0
  0
SEQEND
  5
2022
  8
3
  0
POLYLINE
  5
FB3
  8
3
 66
     1
 10
0.0
 20
0.0
 30
0.0
  0
VERTEX
  5
1A30
  8
3
 10
43.30705509639984
 20
28.91836423529999
 30
0.0
  0
VERTEX
  5
1A31
  8
3
 10
43.68258895279996
 20
28.95568376809997
 30
0.0
  0
VERTEX
  5
1A32
  8
3
 10
44.44921359589989
 20
29.19475361150002
 30
0.0
  0
VERTEX
  5
1A33
  8
3
 10
45.03200125289982
 20
29.55313380269997
 30
0.0
  0
VERTEX
  5
1A34
  8
3
 10
45.36367783389983
 20
29.98160784659997
 30
0.0
  0
VERTEX
  5
1A35
  8
3
 10
45.42499999999995
 20
30.26758786220002
 30
0.0
  0
SEQEND
  5
2021
  8
3
  0
ARC
  5
FB4
  8
3
 10
43.52774883209986
 20
-30.92444647020001
 30
0.0
 40
2.007741324195605
 50
19.09666928109951
 51
92.66276542949714
  0
POLYLINE
  5
FB5
  8
3
 66
     1
 10
0.0
 20
0.0
 30
0.0
  0
VERTEX
  5
1A36
  8
3
 10
42.2741728302999
 20
-28.91614969710001
 30
0.0
  0
VERTEX
  5
1A37
  8
3
 10
41.65564144859991
 20
-29.01714784230001
 30
0.0
  0
VERTEX
  5
1A38
  8
3
 10
40.93957072369994
 20
-29.29913340210001
 30
0.0
  0
VERTEX
  5
1A39
  8
3
 10
40.43136793169992
 20
-29.6859913982
 30
0.0
  0
VERTEX
  5
1A3A
  8
3
 10
40.19030005399986
 20
-30.12509362070001
 30
0.0
  0
VERTEX
  5
1A3B
  8
3
 10
40.24342546039998
 20
-30.56091601760001
 30
0.0
  0
VERTEX
  5
1A3C
  8
3
 10
40.58320351989983
 20
-30.9460201775
 30
0.0
  0
VERTEX
  5
1A3D
  8
3
 10
41.17253348919985
 20
-31.2447893172
 30
0.0
  0
VERTEX
  5
1A3E
  8
3
 10
41.946680173
 20
-31.432357619
 30
0.0
  0
VERTEX
  5
1A3F
  8
3
 10
42.81661372550002
 20
-31.4945729315
 30
0.0
  0
VERTEX
  5
1A40
  8
3
 10
43.68258895279996
 20
-31.4278612983
 30
0.0
  0
VERTEX
  5
1A41
  8
3
 10
44.44921359589989
 20
-31.23698756360001
 30
0.0
  0
VERTEX
  5
1A42
  8
3
 10
45.03200125289982
 20
-30.93472542360001
 30
0.0
  0
VERTEX
  5
1A43
  8
3
 10
45.36367783389983
 20
-30.54568316420001
 30
0.0
  0
VERTEX
  5
1A44
  8
3
 10
45.42499999999995
 20
-30.2675878623
 30
0.0
  0
VERTEX
  5
1A45
  8
3
 10
45.42499999999995
 20
-30.2675878623
 30
0.0
  0
SEQEND
  5
2020
  8
3
  0
CIRCLE
  5
FB6
  8
3
 10
42.79999999999995
 20
0.0
 30
0.0
 40
2.100000000000136
  0
LINE
  5
FB9
  8
3
 10
41.79999999999995
 20
2.0
 30
0.0
 11
41.79999999999995
 21
1.846618531199994
 31
0.0
  0
LINE
  5
FBA
  8
3
 10
41.79999999999995
 20
-1.84661853130001
 30
0.0
 11
41.79999999999995
 21
-2.0
 31
0.0
  0
LINE
  5
FC3
  8
3
 10
36.54999999999995
 20
7.9375
 30
0.0
 11
36.54999999999995
 21
-7.9375
 31
0.0
  0
POLYLINE
  5
FC4
  8
3
 66
     1
 10
0.0
 20
0.0
 30
0.0
  0
VERTEX
  5
1A46
  8
3
 10
42.79999999999995
 20
7.679134912400002
 30
0.0
  0
VERTEX
  5
1A47
  8
3
 10
43.48119068379992
 20
7.648556544000002
 30
0.0
  0
VERTEX
  5
1A48
  8
3
 10
44.08532560610001
 20
7.552291954400005
 30
0.0
  0
VERTEX
  5
1A49
  8
3
 10
44.55971885299982
 20
7.375066290199982
 30
0.0
  0
VERTEX
  5
1A4A
  8
3
 10
44.84191540619986
 20
7.106185227899999
 30
0.0
  0
VERTEX
  5
1A4B
  8
3
 10
44.8896337665999
 20
6.767506773700006
 30
0.0
  0
VERTEX
  5
1A4C
  8
3
 10
44.71269194959996
 20
6.3994741562
 30
0.0
  0
VERTEX
  5
1A4D
  8
3
 10
44.33179674119992
 20
6.042302800100003
 30
0.0
  0
VERTEX
  5
1A4E
  8
3
 10
43.76977550749984
 20
5.750789316199985
 30
0.0
  0
VERTEX
  5
1A4F
  8
3
 10
43.09070456680001
 20
5.594023020699979
 30
0.0
  0
VERTEX
  5
1A50
  8
3
 10
42.39698162319996
 20
5.607834185799987
 30
0.0
  0
VERTEX
  5
1A51
  8
3
 10
41.76085647829996
 20
5.7775006297
 30
0.0
  0
VERTEX
  5
1A52
  8
3
 10
41.22536703869991
 20
6.073223690299983
 30
0.0
  0
VERTEX
  5
1A53
  8
3
 10
40.85207697889996
 20
6.448112139199992
 30
0.0
  0
VERTEX
  5
1A54
  8
3
 10
40.7020029552998
 20
6.827769259999997
 30
0.0
  0
VERTEX
  5
1A55
  8
3
 10
40.78503560249987
 20
7.150730575099999
 30
0.0
  0
VERTEX
  5
1A56
  8
3
 10
41.08004896950001
 20
7.396863843999995
 30
0.0
  0
VERTEX
  5
1A57
  8
3
 10
41.56850056109988
 20
7.564879262999995
 30
0.0
  0
VERTEX
  5
1A58
  8
3
 10
42.20873216389987
 20
7.656403707999999
 30
0.0
  0
VERTEX
  5
1A59
  8
3
 10
42.79999999999995
 20
7.679134912400002
 30
0.0
  0
SEQEND
  5
201F
  8
3
  0
POLYLINE
  5
FC5
  8
3
 66
     1
 10
0.0
 20
0.0
 30
0.0
  0
VERTEX
  5
1A5A
  8
3
 10
42.79999999999995
 20
-5.579134912499995
 30
0.0
  0
VERTEX
  5
1A5B
  8
3
 10
43.48119068379992
 20
-5.662107638999998
 30
0.0
  0
VERTEX
  5
1A5C
  8
3
 10
44.08532560610001
 20
-5.891587861000005
 30
0.0
  0
VERTEX
  5
1A5D
  8
3
 10
44.55971885299982
 20
-6.229034197299995
 30
0.0
  0
VERTEX
  5
1A5E
  8
3
 10
44.84191540619986
 20
-6.615694174300017
 30
0.0
  0
VERTEX
  5
1A5F
  8
3
 10
44.8896337665999
 20
-6.975907161099997
 30
0.0
  0
VERTEX
  5
1A60
  8
3
 10
44.71269194959996
 20
-7.26642831060002
 30
0.0
  0
VERTEX
  5
1A61
  8
3
 10
44.33179674119992
 20
-7.478825944199997
 30
0.0
  0
VERTEX
  5
1A62
  8
3
 10
43.76977550749984
 20
-7.613458225399995
 30
0.0
  0
VERTEX
  5
1A63
  8
3
 10
43.09070456680001
 20
-7.673804464800014
 30
0.0
  0
VERTEX
  5
1A64
  8
3
 10
42.39698162319996
 20
-7.66879905410002
 30
0.0
  0
VERTEX
  5
1A65
  8
3
 10
41.76085647829996
 20
-7.602378911000017
 30
0.0
  0
VERTEX
  5
1A66
  8
3
 10
41.22536703869991
 20
-7.462659200700017
 30
0.0
  0
VERTEX
  5
1A67
  8
3
 10
40.85207697889996
 20
-7.232711338900003
 30
0.0
  0
VERTEX
  5
1A68
  8
3
 10
40.7020029552998
 20
-6.919466591200006
 30
0.0
  0
VERTEX
  5
1A69
  8
3
 10
40.78503560249987
 20
-6.55919150050002
 30
0.0
  0
VERTEX
  5
1A6A
  8
3
 10
41.08004896950001
 20
-6.191970300000008
 30
0.0
  0
VERTEX
  5
1A6B
  8
3
 10
41.56850056109988
 20
-5.863876872700018
 30
0.0
  0
VERTEX
  5
1A6C
  8
3
 10
42.20873216389987
 20
-5.641359702100004
 30
0.0
  0
VERTEX
  5
1A6D
  8
3
 10
42.79999999999995
 20
-5.579134912499995
 30
0.0
  0
SEQEND
  5
201E
  8
3
  0
LINE
  5
FC6
  8
3
 10
29.5
 20
7.34187
 30
0.0
 11
29.5
 21
-7.34187
 31
0.0
  0
LINE
  5
FC7
  8
3
 10
28.09286254209997
 20
-5.0
 30
0.0
 11
28.09286254209997
 21
5.0
 31
0.0
  0
LINE
  5
FC8
  8
3
 10
-8.25
 20
0.0
 30
0.0
 11
-8.25
 21
6.700000000000004
 31
0.0
  0
LINE
  5
FC9
  8
3
 10
-8.25
 20
-6.700000000000003
 30
0.0
 11
-8.25
 21
0.0
 31
0.0
  0
LINE
  5
FCA
  8
3
 10
-7.235747275100039
 20
0.0
 30
0.0
 11
-7.235747275100039
 21
-5.0
 31
0.0
  0
LINE
  5
FCB
  8
3
 10
-7.235747275100039
 20
5.0
 30
0.0
 11
-7.235747275100039
 21
0.0
 31
0.0
  0
LINE
  5
FCC
  8
3
 10
35.79999999999995
 20
31.7505
 30
0.0
 11
35.79999999999995
 21
19.04949999999998
 31
0.0
  0
LINE
  5
FCD
  8
3
 10
35.79999999999995
 20
-19.04949999999999
 30
0.0
 11
35.79999999999995
 21
-31.7505
 31
0.0
  0
POLYLINE
  5
FD2
  8
3
 66
     1
 10
0.0
 20
0.0
 30
0.0
  0
VERTEX
  5
1A6E
  8
3
 10
43.98743420869982
 20
9.959292143499994
 30
0.0
  0
VERTEX
  5
1A6F
  8
3
 10
43.63071350799987
 20
9.453265142199996
 30
0.0
  0
VERTEX
  5
1A70
  8
3
 10
43.49306655800001
 20
9.197810412799981
 30
0.0
  0
VERTEX
  5
1A71
  8
3
 10
43.44145720699998
 20
8.992649534399987
 30
0.0
  0
VERTEX
  5
1A72
  8
3
 10
43.46926547529984
 20
8.795409611299988
 30
0.0
  0
VERTEX
  5
1A73
  8
3
 10
43.61240975639998
 20
8.558026521499983
 30
0.0
  0
VERTEX
  5
1A74
  8
3
 10
44.0612023873
 20
8.178747308999988
 30
0.0
  0
VERTEX
  5
1A75
  8
3
 10
44.56244969089994
 20
7.966347332999987
 30
0.0
  0
VERTEX
  5
1A76
  8
3
 10
44.7967185942
 20
7.996171788999987
 30
0.0
  0
VERTEX
  5
1A77
  8
3
 10
44.89896407419997
 20
8.195206790599997
 30
0.0
  0
VERTEX
  5
1A78
  8
3
 10
44.85243416139997
 20
8.492758460999994
 30
0.0
  0
VERTEX
  5
1A79
  8
3
 10
44.70274057400002
 20
8.851869260499996
 30
0.0
  0
VERTEX
  5
1A7A
  8
3
 10
44.36548096649994
 20
9.422008476299993
 30
0.0
  0
VERTEX
  5
1A7B
  8
3
 10
43.80877979899992
 20
10.20513468319999
 30
0.0
  0
VERTEX
  5
1A7C
  8
3
 10
43.58264801559994
 20
10.5438981277
 30
0.0
  0
VERTEX
  5
1A7D
  8
3
 10
43.4623756696999
 20
10.80887286149999
 30
0.0
  0
VERTEX
  5
1A7E
  8
3
 10
43.44198546979987
 20
10.9991363771
 30
0.0
  0
VERTEX
  5
1A7F
  8
3
 10
43.48999487339984
 20
11.173638641
 30
0.0
  0
VERTEX
  5
1A80
  8
3
 10
43.68676977749988
 20
11.44237643570001
 30
0.0
  0
VERTEX
  5
1A81
  8
3
 10
44.2437809255
 20
11.84243051369999
 30
0.0
  0
VERTEX
  5
1A82
  8
3
 10
44.63023572659995
 20
11.95899558189997
 30
0.0
  0
VERTEX
  5
1A83
  8
3
 10
44.8315862226998
 20
11.89485241640001
 30
0.0
  0
VERTEX
  5
1A84
  8
3
 10
44.89958565459983
 20
11.67010904600001
 30
0.0
  0
VERTEX
  5
1A85
  8
3
 10
44.83105246369996
 20
11.36169224729998
 30
0.0
  0
VERTEX
  5
1A86
  8
3
 10
44.66184255019994
 20
10.98766024349999
 30
0.0
  0
VERTEX
  5
1A87
  8
3
 10
44.28979462550001
 20
10.38422645559999
 30
0.0
  0
VERTEX
  5
1A88
  8
3
 10
43.98743420869982
 20
9.959292143499994
 30
0.0
  0
SEQEND
  5
201D
  8
3
  0
POLYLINE
  5
FD5
  8
3
 66
     1
 10
0.0
 20
0.0
 30
0.0
  0
VERTEX
  5
1A89
  8
3
 10
42.79999999999995
 20
30.08350166179999
 30
0.0
  0
VERTEX
  5
1A8A
  8
3
 10
43.41898586619982
 20
30.03685310789997
 30
0.0
  0
VERTEX
  5
1A8B
  8
3
 10
43.98297212189982
 20
29.90105237489998
 30
0.0
  0
VERTEX
  5
1A8C
  8
3
 10
44.44184611319997
 20
29.68816595379998
 30
0.0
  0
VERTEX
  5
1A8D
  8
3
 10
44.75483487209999
 20
29.4171097374
 30
0.0
  0
VERTEX
  5
1A8E
  8
3
 10
44.8941279741
 20
29.11196826009997
 30
0.0
  0
VERTEX
  5
1A8F
  8
3
 10
44.84734861559991
 20
28.79985468119999
 30
0.0
  0
VERTEX
  5
1A90
  8
3
 10
44.61865334789991
 20
28.5085016618
 30
0.0
  0
VERTEX
  5
1A91
  8
3
 10
44.2283627493
 20
28.26379719640001
 30
0.0
  0
VERTEX
  5
1A92
  8
3
 10
43.71115585209986
 20
28.08748435050002
 30
0.0
  0
VERTEX
  5
1A93
  8
3
 10
43.11298875889997
 20
27.99522929429999
 30
0.0
  0
VERTEX
  5
1A94
  8
3
 10
42.48701124099989
 20
27.99522929429999
 30
0.0
  0
VERTEX
  5
1A95
  8
3
 10
41.8888441478
 20
28.08748435050002
 30
0.0
  0
VERTEX
  5
1A96
  8
3
 10
41.37163725069991
 20
28.26379719640001
 30
0.0
  0
VERTEX
  5
1A97
  8
3
 10
40.98134665199996
 20
28.5085016618
 30
0.0
  0
VERTEX
  5
1A98
  8
3
 10
40.7526513844
 20
28.79985468119999
 30
0.0
  0
VERTEX
  5
1A99
  8
3
 10
40.70587202589991
 20
29.11196826009997
 30
0.0
  0
VERTEX
  5
1A9A
  8
3
 10
40.84516512779987
 20
29.4171097374
 30
0.0
  0
VERTEX
  5
1A9B
  8
3
 10
41.15815388679994
 20
29.68816595379998
 30
0.0
  0
VERTEX
  5
1A9C
  8
3
 10
41.61702787799982
 20
29.90105237489998
 30
0.0
  0
VERTEX
  5
1A9D
  8
3
 10
42.18101413369982
 20
30.03685310789997
 30
0.0
  0
VERTEX
  5
1A9E
  8
3
 10
42.79999999999995
 20
30.08350166179999
 30
0.0
  0
SEQEND
  5
201C
  8
3
  0
POLYLINE
  5
FDA
  8
3
 66
     1
 10
0.0
 20
0.0
 30
0.0
  0
VERTEX
  5
1A9F
  8
3
 10
43.98743420869982
 20
-9.95929214360001
 30
0.0
  0
VERTEX
  5
1AA0
  8
3
 10
44.54890983599989
 20
-10.787499451
 30
0.0
  0
VERTEX
  5
1AA1
  8
3
 10
44.78937715059988
 20
-11.25416683930001
 30
0.0
  0
VERTEX
  5
1AA2
  8
3
 10
44.89822813929982
 20
-11.64660780360001
 30
0.0
  0
VERTEX
  5
1AA3
  8
3
 10
44.8559499552
 20
-11.86517626240001
 30
0.0
  0
VERTEX
  5
1AA4
  8
3
 10
44.70977232429982
 20
-11.9541548782
 30
0.0
  0
VERTEX
  5
1AA5
  8
3
 10
44.37872907869996
 20
-11.90139755430002
 30
0.0
  0
VERTEX
  5
1AA6
  8
3
 10
43.82727769459984
 20
-11.5707670514
 30
0.0
  0
VERTEX
  5
1AA7
  8
3
 10
43.59420357179988
 20
-11.3382079104
 30
0.0
  0
VERTEX
  5
1AA8
  8
3
 10
43.46499650049986
 20
-11.11070824770002
 30
0.0
  0
VERTEX
  5
1AA9
  8
3
 10
43.44138925829998
 20
-10.9269460836
 30
0.0
  0
VERTEX
  5
1AAA
  8
3
 10
43.4873066877999
 20
-10.73514610390001
 30
0.0
  0
VERTEX
  5
1AAB
  8
3
 10
43.67711546059991
 20
-10.39418634180001
 30
0.0
  0
VERTEX
  5
1AAC
  8
3
 10
44.22652384510002
 20
-9.625888701999997
 30
0.0
  0
VERTEX
  5
1AAD
  8
3
 10
44.62149134409992
 20
-9.005048735800017
 30
0.0
  0
VERTEX
  5
1AAE
  8
3
 10
44.82743133659983
 20
-8.566994553499995
 30
0.0
  0
VERTEX
  5
1AAF
  8
3
 10
44.89980839379996
 20
-8.21323187050001
 30
0.0
  0
VERTEX
  5
1AB0
  8
3
 10
44.83394911629989
 20
-8.02613205740002
 30
0.0
  0
VERTEX
  5
1AB1
  8
3
 10
44.66723288539993
 20
-7.959793777300007
 30
0.0
  0
VERTEX
  5
1AB2
  8
3
 10
44.29964334850001
 20
-8.049870810700014
 30
0.0
  0
VERTEX
  5
1AB3
  8
3
 10
43.72353764009995
 20
-8.43992082760002
 30
0.0
  0
VERTEX
  5
1AB4
  8
3
 10
43.53319171249996
 20
-8.666049711200003
 30
0.0
  0
VERTEX
  5
1AB5
  8
3
 10
43.45000501329991
 20
-8.864006860300009
 30
0.0
  0
VERTEX
  5
1AB6
  8
3
 10
43.4483785217999
 20
-9.048887460900005
 30
0.0
  0
VERTEX
  5
1AB7
  8
3
 10
43.53321999979994
 20
-9.284741073199996
 30
0.0
  0
VERTEX
  5
1AB8
  8
3
 10
43.91454719499984
 20
-9.859417565800015
 30
0.0
  0
VERTEX
  5
1AB9
  8
3
 10
43.98743420869982
 20
-9.95929214360001
 30
0.0
  0
SEQEND
  5
201B
  8
3
  0
POLYLINE
  5
FDD
  8
3
 66
     1
 10
0.0
 20
0.0
 30
0.0
  0
VERTEX
  5
1ABA
  8
3
 10
42.79999999999995
 20
-27.98350166190001
 30
0.0
  0
VERTEX
  5
1ABB
  8
3
 10
43.41898586619982
 20
-28.03015021580001
 30
0.0
  0
VERTEX
  5
1ABC
  8
3
 10
43.98297212189982
 20
-28.1659509489
 30
0.0
  0
VERTEX
  5
1ABD
  8
3
 10
44.44184611319997
 20
-28.37883737000001
 30
0.0
  0
VERTEX
  5
1ABE
  8
3
 10
44.75483487209999
 20
-28.64989358630001
 30
0.0
  0
VERTEX
  5
1ABF
  8
3
 10
44.8941279741
 20
-28.95503506360001
 30
0.0
  0
VERTEX
  5
1AC0
  8
3
 10
44.84734861559991
 20
-29.26714864260001
 30
0.0
  0
VERTEX
  5
1AC1
  8
3
 10
44.61865334789991
 20
-29.55850166190001
 30
0.0
  0
VERTEX
  5
1AC2
  8
3
 10
44.2283627493
 20
-29.8032061273
 30
0.0
  0
VERTEX
  5
1AC3
  8
3
 10
43.71115585209986
 20
-29.9795189732
 30
0.0
  0
VERTEX
  5
1AC4
  8
3
 10
43.11298875889997
 20
-30.0717740294
 30
0.0
  0
VERTEX
  5
1AC5
  8
3
 10
42.48701124099989
 20
-30.0717740294
 30
0.0
  0
VERTEX
  5
1AC6
  8
3
 10
41.8888441478
 20
-29.9795189732
 30
0.0
  0
VERTEX
  5
1AC7
  8
3
 10
41.37163725069991
 20
-29.8032061273
 30
0.0
  0
VERTEX
  5
1AC8
  8
3
 10
40.98134665199996
 20
-29.55850166190001
 30
0.0
  0
VERTEX
  5
1AC9
  8
3
 10
40.7526513844
 20
-29.26714864260001
 30
0.0
  0
VERTEX
  5
1ACA
  8
3
 10
40.70587202589991
 20
-28.95503506360001
 30
0.0
  0
VERTEX
  5
1ACB
  8
3
 10
40.84516512779987
 20
-28.64989358630001
 30
0.0
  0
VERTEX
  5
1ACC
  8
3
 10
41.15815388679994
 20
-28.37883737000001
 30
0.0
  0
VERTEX
  5
1ACD
  8
3
 10
41.61702787799982
 20
-28.1659509489
 30
0.0
  0
VERTEX
  5
1ACE
  8
3
 10
42.18101413369982
 20
-28.03015021580001
 30
0.0
  0
VERTEX
  5
1ACF
  8
3
 10
42.79999999999995
 20
-27.98350166190001
 30
0.0
  0
SEQEND
  5
201A
  8
3
  0
POLYLINE
  5
FE6
  8
3
 66
     1
 10
0.0
 20
0.0
 30
0.0
  0
VERTEX
  5
1AD0
  8
3
 10
45.42499999999995
 20
-29.40156245850001
 30
0.0
  0
VERTEX
  5
1AD1
  8
3
 10
45.32765787929998
 20
-29.75567072070001
 30
0.0
  0
VERTEX
  5
1AD2
  8
3
 10
45.04285093689987
 20
-30.08351639290001
 30
0.0
  0
VERTEX
  5
1AD3
  8
3
 10
44.59170200089989
 20
-30.36078466160001
 30
0.0
  0
VERTEX
  5
1AD4
  8
3
 10
44.00767072399981
 20
-30.56691180770001
 30
0.0
  0
VERTEX
  5
1AD5
  8
3
 10
43.33407203419983
 20
-30.68661032360001
 30
0.0
  0
VERTEX
  5
1AD6
  8
3
 10
42.62086366489984
 20
-30.7110027181
 30
0.0
  0
VERTEX
  5
1AD7
  8
3
 10
41.92094101799989
 20
-30.63827991880001
 30
0.0
  0
VERTEX
  5
1AD8
  8
3
 10
41.28621415439989
 20
-30.4738354431
 30
0.0
  0
VERTEX
  5
1AD9
  8
3
 10
40.76375786189988
 20
-30.2298653854
 30
0.0
  0
VERTEX
  5
1ADA
  8
3
 10
40.39232033349981
 20
-29.92446388890001
 30
0.0
  0
VERTEX
  5
1ADB
  8
3
 10
40.19944939159996
 20
-29.58028118550001
 30
0.0
  0
VERTEX
  5
1ADC
  8
3
 10
40.19944939159996
 20
-29.22284373160001
 30
0.0
  0
VERTEX
  5
1ADD
  8
3
 10
40.39232033349981
 20
-28.87866102810001
 30
0.0
  0
VERTEX
  5
1ADE
  8
3
 10
40.76375786189988
 20
-28.5732595316
 30
0.0
  0
VERTEX
  5
1ADF
  8
3
 10
41.28621415439989
 20
-28.3292894739
 30
0.0
  0
VERTEX
  5
1AE0
  8
3
 10
41.92094101799989
 20
-28.16484499820001
 30
0.0
  0
VERTEX
  5
1AE1
  8
3
 10
42.62086366489984
 20
-28.092122199
 30
0.0
  0
VERTEX
  5
1AE2
  8
3
 10
43.33407203419983
 20
-28.11651459340001
 30
0.0
  0
VERTEX
  5
1AE3
  8
3
 10
44.00767072399981
 20
-28.23621310940001
 30
0.0
  0
VERTEX
  5
1AE4
  8
3
 10
44.59170200089989
 20
-28.44234025540001
 30
0.0
  0
VERTEX
  5
1AE5
  8
3
 10
45.04285093689987
 20
-28.71960852410001
 30
0.0
  0
VERTEX
  5
1AE6
  8
3
 10
45.32765787929998
 20
-29.04745419640001
 30
0.0
  0
VERTEX
  5
1AE7
  8
3
 10
45.42499999999995
 20
-29.40156245850001
 30
0.0
  0
SEQEND
  5
2019
  8
3
  0
POLYLINE
  5
FE7
  8
3
 66
     1
 10
0.0
 20
0.0
 30
0.0
  0
VERTEX
  5
1AE8
  8
3
 10
45.42499999999995
 20
29.40156245839997
 30
0.0
  0
VERTEX
  5
1AE9
  8
3
 10
45.32765787929998
 20
29.04745419629997
 30
0.0
  0
VERTEX
  5
1AEA
  8
3
 10
45.04285093689987
 20
28.71960852399998
 30
0.0
  0
VERTEX
  5
1AEB
  8
3
 10
44.59170200089989
 20
28.44234025530001
 30
0.0
  0
VERTEX
  5
1AEC
  8
3
 10
44.00767072399981
 20
28.23621310929998
 30
0.0
  0
VERTEX
  5
1AED
  8
3
 10
43.33407203419983
 20
28.1165145934
 30
0.0
  0
VERTEX
  5
1AEE
  8
3
 10
42.62086366489984
 20
28.09212219889999
 30
0.0
  0
VERTEX
  5
1AEF
  8
3
 10
41.92094101799989
 20
28.16484499819997
 30
0.0
  0
VERTEX
  5
1AF0
  8
3
 10
41.28621415439989
 20
28.32928947389998
 30
0.0
  0
VERTEX
  5
1AF1
  8
3
 10
40.76375786189988
 20
28.57325953149997
 30
0.0
  0
VERTEX
  5
1AF2
  8
3
 10
40.39232033349981
 20
28.87866102799997
 30
0.0
  0
VERTEX
  5
1AF3
  8
3
 10
40.19944939159996
 20
29.22284373150002
 30
0.0
  0
VERTEX
  5
1AF4
  8
3
 10
40.19944939159996
 20
29.58028118540001
 30
0.0
  0
VERTEX
  5
1AF5
  8
3
 10
40.39232033349981
 20
29.92446388890001
 30
0.0
  0
VERTEX
  5
1AF6
  8
3
 10
40.76375786189988
 20
30.2298653854
 30
0.0
  0
VERTEX
  5
1AF7
  8
3
 10
41.28621415439989
 20
30.473835443
 30
0.0
  0
VERTEX
  5
1AF8
  8
3
 10
41.92094101799989
 20
30.63827991870001
 30
0.0
  0
VERTEX
  5
1AF9
  8
3
 10
42.62086366489984
 20
30.71100271799999
 30
0.0
  0
VERTEX
  5
1AFA
  8
3
 10
43.33407203419983
 20
30.68661032349998
 30
0.0
  0
VERTEX
  5
1AFB
  8
3
 10
44.00767072399981
 20
30.56691180759999
 30
0.0
  0
VERTEX
  5
1AFC
  8
3
 10
44.59170200089989
 20
30.36078466159996
 30
0.0
  0
VERTEX
  5
1AFD
  8
3
 10
45.04285093689987
 20
30.08351639289999
 30
0.0
  0
VERTEX
  5
1AFE
  8
3
 10
45.32765787929998
 20
29.75567072060001
 30
0.0
  0
VERTEX
  5
1AFF
  8
3
 10
45.42499999999995
 20
29.40156245839997
 30
0.0
  0
SEQEND
  5
2018
  8
3
  0
POLYLINE
  5
FE8
  8
3
 66
     1
 10
0.0
 20
0.0
 30
0.0
  0
VERTEX
  5
1B00
  8
3
 10
42.79999999999995
 20
-28.13906245850001
 30
0.0
  0
VERTEX
  5
1B01
  8
3
 10
43.48123684709981
 20
-28.1858793832
 30
0.0
  0
VERTEX
  5
1B02
  8
3
 10
44.1119494738
 20
-28.32285796030001
 30
0.0
  0
VERTEX
  5
1B03
  8
3
 10
44.64536080979997
 20
-28.53983911520001
 30
0.0
  0
VERTEX
  5
1B04
  8
3
 10
45.04191017639982
 20
-28.82073034840001
 30
0.0
  0
VERTEX
  5
1B05
  8
3
 10
45.2721873214
 20
-29.144699242
 30
0.0
  0
VERTEX
  5
1B06
  8
3
 10
45.31911364219991
 20
-29.48771850540001
 30
0.0
  0
VERTEX
  5
1B07
  8
3
 10
45.17920882829981
 20
-29.82434796890001
 30
0.0
  0
VERTEX
  5
1B08
  8
3
 10
44.86284897979999
 20
-30.12962136520001
 30
0.0
  0
VERTEX
  5
1B09
  8
3
 10
44.39349705939981
 20
-30.38089796300001
 30
0.0
  0
VERTEX
  5
1B0A
  8
3
 10
43.80596275179983
 20
-30.5595417267
 30
0.0
  0
VERTEX
  5
1B0B
  8
3
 10
43.1438207888998
 20
-30.65230346540001
 30
0.0
  0
VERTEX
  5
1B0C
  8
3
 10
42.45617921099984
 20
-30.65230346540001
 30
0.0
  0
VERTEX
  5
1B0D
  8
3
 10
41.79403724809981
 20
-30.5595417267
 30
0.0
  0
VERTEX
  5
1B0E
  8
3
 10
41.20650294059988
 20
-30.38089796300001
 30
0.0
  0
VERTEX
  5
1B0F
  8
3
 10
40.73715102009987
 20
-30.12962136520001
 30
0.0
  0
VERTEX
  5
1B10
  8
3
 10
40.42079117159983
 20
-29.82434796890001
 30
0.0
  0
VERTEX
  5
1B11
  8
3
 10
40.2808863578
 20
-29.48771850540001
 30
0.0
  0
VERTEX
  5
1B12
  8
3
 10
40.32781267859991
 20
-29.144699242
 30
0.0
  0
VERTEX
  5
1B13
  8
3
 10
40.55808982349981
 20
-28.82073034840001
 30
0.0
  0
VERTEX
  5
1B14
  8
3
 10
40.95463919019994
 20
-28.53983911520001
 30
0.0
  0
VERTEX
  5
1B15
  8
3
 10
41.48805052609987
 20
-28.32285796030001
 30
0.0
  0
VERTEX
  5
1B16
  8
3
 10
42.11876315279983
 20
-28.1858793832
 30
0.0
  0
VERTEX
  5
1B17
  8
3
 10
42.79999999999995
 20
-28.13906245850001
 30
0.0
  0
SEQEND
  5
2017
  8
3
  0
POLYLINE
  5
FE9
  8
3
 66
     1
 10
0.0
 20
0.0
 30
0.0
  0
VERTEX
  5
1B18
  8
3
 10
42.79999999999995
 20
30.66406245840001
 30
0.0
  0
VERTEX
  5
1B19
  8
3
 10
43.48123684709981
 20
30.6172455337
 30
0.0
  0
VERTEX
  5
1B1A
  8
3
 10
44.1119494738
 20
30.48026695670002
 30
0.0
  0
VERTEX
  5
1B1B
  8
3
 10
44.64536080979997
 20
30.26328580179997
 30
0.0
  0
VERTEX
  5
1B1C
  8
3
 10
45.04191017639982
 20
29.98239456860001
 30
0.0
  0
VERTEX
  5
1B1D
  8
3
 10
45.2721873214
 20
29.65842567490002
 30
0.0
  0
VERTEX
  5
1B1E
  8
3
 10
45.31911364219991
 20
29.31540641159997
 30
0.0
  0
VERTEX
  5
1B1F
  8
3
 10
45.17920882829981
 20
28.97877694810002
 30
0.0
  0
VERTEX
  5
1B20
  8
3
 10
44.86284897979999
 20
28.67350355179998
 30
0.0
  0
VERTEX
  5
1B21
  8
3
 10
44.39349705939981
 20
28.42222695389997
 30
0.0
  0
VERTEX
  5
1B22
  8
3
 10
43.80596275179983
 20
28.24358319030001
 30
0.0
  0
VERTEX
  5
1B23
  8
3
 10
43.1438207888998
 20
28.15082145160001
 30
0.0
  0
VERTEX
  5
1B24
  8
3
 10
42.45617921099984
 20
28.15082145160001
 30
0.0
  0
VERTEX
  5
1B25
  8
3
 10
41.79403724809981
 20
28.24358319030001
 30
0.0
  0
VERTEX
  5
1B26
  8
3
 10
41.20650294059988
 20
28.42222695389997
 30
0.0
  0
VERTEX
  5
1B27
  8
3
 10
40.73715102009987
 20
28.67350355179998
 30
0.0
  0
VERTEX
  5
1B28
  8
3
 10
40.42079117159983
 20
28.97877694810002
 30
0.0
  0
VERTEX
  5
1B29
  8
3
 10
40.2808863578
 20
29.31540641159997
 30
0.0
  0
VERTEX
  5
1B2A
  8
3
 10
40.32781267859991
 20
29.65842567490002
 30
0.0
  0
VERTEX
  5
1B2B
  8
3
 10
40.55808982349981
 20
29.98239456860001
 30
0.0
  0
VERTEX
  5
1B2C
  8
3
 10
40.95463919019994
 20
30.26328580179997
 30
0.0
  0
VERTEX
  5
1B2D
  8
3
 10
41.48805052609987
 20
30.48026695670002
 30
0.0
  0
VERTEX
  5
1B2E
  8
3
 10
42.11876315279983
 20
30.6172455337
 30
0.0
  0
VERTEX
  5
1B2F
  8
3
 10
42.79999999999995
 20
30.66406245840001
 30
0.0
  0
SEQEND
  5
2016
  8
3
  0
POLYLINE
  5
FEA
  8
3
 66
     1
 10
0.0
 20
0.0
 30
0.0
  0
VERTEX
  5
1B30
  8
3
 10
42.79999999999995
 20
25.08041003569998
 30
0.0
  0
VERTEX
  5
1B31
  8
3
 10
43.3682240710998
 20
25.03300012219997
 30
0.0
  0
VERTEX
  5
1B32
  8
3
 10
43.87487224719985
 20
24.8959079815
 30
0.0
  0
VERTEX
  5
1B33
  8
3
 10
44.26504133689991
 20
24.68398967409998
 30
0.0
  0
VERTEX
  5
1B34
  8
3
 10
44.4964504653999
 20
24.42020983699997
 30
0.0
  0
VERTEX
  5
1B35
  8
3
 10
44.54402286269988
 20
24.1331531085
 30
0.0
  0
VERTEX
  5
1B36
  8
3
 10
44.40260332159983
 20
23.85392653919997
 30
0.0
  0
VERTEX
  5
1B37
  8
3
 10
44.08751684369986
 20
23.61278866059997
 30
0.0
  0
VERTEX
  5
1B38
  8
3
 10
43.63290793779993
 20
23.43587050340001
 30
0.0
  0
VERTEX
  5
1B39
  8
3
 10
43.08804053299991
 20
23.34234389529998
 30
0.0
  0
VERTEX
  5
1B3A
  8
3
 10
42.511959467
 20
23.34234389529998
 30
0.0
  0
VERTEX
  5
1B3B
  8
3
 10
41.96709206219998
 20
23.43587050340001
 30
0.0
  0
VERTEX
  5
1B3C
  8
3
 10
41.51248315629982
 20
23.61278866059997
 30
0.0
  0
VERTEX
  5
1B3D
  8
3
 10
41.19739667829981
 20
23.85392653919997
 30
0.0
  0
VERTEX
  5
1B3E
  8
3
 10
41.05597713719999
 20
24.1331531085
 30
0.0
  0
VERTEX
  5
1B3F
  8
3
 10
41.10354953460001
 20
24.42020983699997
 30
0.0
  0
VERTEX
  5
1B40
  8
3
 10
41.33495866299995
 20
24.68398967409998
 30
0.0
  0
VERTEX
  5
1B41
  8
3
 10
41.72512775279984
 20
24.8959079815
 30
0.0
  0
VERTEX
  5
1B42
  8
3
 10
42.23177592889988
 20
25.03300012219997
 30
0.0
  0
VERTEX
  5
1B43
  8
3
 10
42.79999999999995
 20
25.08041003569998
 30
0.0
  0
SEQEND
  5
2015
  8
3
  0
POLYLINE
  5
FEB
  8
3
 66
     1
 10
0.0
 20
0.0
 30
0.0
  0
VERTEX
  5
1B44
  8
3
 10
45.11673274340001
 20
24.69621498869999
 30
0.0
  0
VERTEX
  5
1B45
  8
3
 10
45.02288878909985
 20
24.36986546909999
 30
0.0
  0
VERTEX
  5
1B46
  8
3
 10
44.74895960499998
 20
24.06995484659997
 30
0.0
  0
VERTEX
  5
1B47
  8
3
 10
44.31713730469983
 20
23.8207800963
 30
0.0
  0
VERTEX
  5
1B48
  8
3
 10
43.7624055627
 20
23.64252787469998
 30
0.0
  0
VERTEX
  5
1B49
  8
3
 10
43.12970544569998
 20
23.5496391164
 30
0.0
  0
VERTEX
  5
1B4A
  8
3
 10
42.47029455429993
 20
23.5496391164
 30
0.0
  0
VERTEX
  5
1B4B
  8
3
 10
41.83759443719987
 20
23.64252787469998
 30
0.0
  0
VERTEX
  5
1B4C
  8
3
 10
41.28286269519981
 20
23.8207800963
 30
0.0
  0
VERTEX
  5
1B4D
  8
3
 10
40.85104039489988
 20
24.06995484659997
 30
0.0
  0
VERTEX
  5
1B4E
  8
3
 10
40.57711121089983
 20
24.36986546909999
 30
0.0
  0
VERTEX
  5
1B4F
  8
3
 10
40.48326725649986
 20
24.69621498869999
 30
0.0
  0
VERTEX
  5
1B50
  8
3
 10
40.57711121089983
 20
25.02256450839998
 30
0.0
  0
VERTEX
  5
1B51
  8
3
 10
40.85104039489988
 20
25.32247513080002
 30
0.0
  0
VERTEX
  5
1B52
  8
3
 10
41.28286269519981
 20
25.57164988109999
 30
0.0
  0
VERTEX
  5
1B53
  8
3
 10
41.83759443719987
 20
25.74990210279999
 30
0.0
  0
VERTEX
  5
1B54
  8
3
 10
42.47029455429993
 20
25.84279086099998
 30
0.0
  0
VERTEX
  5
1B55
  8
3
 10
43.12970544569998
 20
25.84279086099998
 30
0.0
  0
VERTEX
  5
1B56
  8
3
 10
43.7624055627
 20
25.74990210279999
 30
0.0
  0
VERTEX
  5
1B57
  8
3
 10
44.31713730469983
 20
25.57164988109999
 30
0.0
  0
VERTEX
  5
1B58
  8
3
 10
44.74895960499998
 20
25.32247513080002
 30
0.0
  0
VERTEX
  5
1B59
  8
3
 10
45.02288878909985
 20
25.02256450839998
 30
0.0
  0
VERTEX
  5
1B5A
  8
3
 10
45.11673274340001
 20
24.69621498869999
 30
0.0
  0
SEQEND
  5
2014
  8
3
  0
POLYLINE
  5
FEC
  8
3
 66
     1
 10
0.0
 20
0.0
 30
0.0
  0
VERTEX
  5
1B5B
  8
3
 10
40.74499999999989
 20
24.85492907419997
 30
0.0
  0
VERTEX
  5
1B5C
  8
3
 10
40.83629788409985
 20
25.15779001590001
 30
0.0
  0
VERTEX
  5
1B5D
  8
3
 10
41.10207931879995
 20
25.43374043389998
 30
0.0
  0
VERTEX
  5
1B5E
  8
3
 10
41.51872845719981
 20
25.65826092239998
 30
0.0
  0
VERTEX
  5
1B5F
  8
3
 10
42.04922419489981
 20
25.8114018509
 30
0.0
  0
VERTEX
  5
1B60
  8
3
 10
42.64642965769985
 20
25.87955597579999
 30
0.0
  0
VERTEX
  5
1B61
  8
3
 10
43.25728051929991
 20
25.85666750399999
 30
0.0
  0
VERTEX
  5
1B62
  8
3
 10
43.82749999999987
 20
25.74477017659997
 30
0.0
  0
VERTEX
  5
1B63
  8
3
 10
44.30642159659988
 20
25.55380656230001
 30
0.0
  0
VERTEX
  5
1B64
  8
3
 10
44.65149102349983
 20
25.30074461620002
 30
0.0
  0
VERTEX
  5
1B65
  8
3
 10
44.83204734790002
 20
25.00807000269999
 30
0.0
  0
VERTEX
  5
1B66
  8
3
 10
44.83204734790002
 20
24.70178814570001
 30
0.0
  0
VERTEX
  5
1B67
  8
3
 10
44.65149102349983
 20
24.40911353229997
 30
0.0
  0
VERTEX
  5
1B68
  8
3
 10
44.30642159659988
 20
24.15605158619998
 30
0.0
  0
VERTEX
  5
1B69
  8
3
 10
43.82749999999987
 20
23.96508797179997
 30
0.0
  0
VERTEX
  5
1B6A
  8
3
 10
43.25728051929991
 20
23.85319064440002
 30
0.0
  0
VERTEX
  5
1B6B
  8
3
 10
42.64642965769985
 20
23.83030217260001
 30
0.0
  0
VERTEX
  5
1B6C
  8
3
 10
42.04922419489981
 20
23.8984562975
 30
0.0
  0
VERTEX
  5
1B6D
  8
3
 10
41.51872845719981
 20
24.05159722599997
 30
0.0
  0
VERTEX
  5
1B6E
  8
3
 10
41.10207931879995
 20
24.27611771460001
 30
0.0
  0
VERTEX
  5
1B6F
  8
3
 10
40.83629788409985
 20
24.5520681325
 30
0.0
  0
VERTEX
  5
1B70
  8
3
 10
40.74499999999989
 20
24.85492907419997
 30
0.0
  0
SEQEND
  5
2013
  8
3
  0
POLYLINE
  5
FED
  8
3
 66
     1
 10
0.0
 20
0.0
 30
0.0
  0
VERTEX
  5
1B71
  8
3
 10
40.29999999999995
 20
25.12477596879997
 30
0.0
  0
VERTEX
  5
1B72
  8
3
 10
40.39270678159983
 20
25.4620219328
 30
0.0
  0
VERTEX
  5
1B73
  8
3
 10
40.66395148859988
 20
25.77425590639997
 30
0.0
  0
VERTEX
  5
1B74
  8
3
 10
41.09361714189981
 20
26.03832092419999
 30
0.0
  0
VERTEX
  5
1B75
  8
3
 10
41.64983740560001
 20
26.23463249179999
 30
0.0
  0
VERTEX
  5
1B76
  8
3
 10
42.29135996729997
 20
26.3486310784
 30
0.0
  0
VERTEX
  5
1B77
  8
3
 10
42.97060603339992
 20
26.3718619303
 30
0.0
  0
VERTEX
  5
1B78
  8
3
 10
43.63719903039987
 20
26.30260212150002
 30
0.0
  0
VERTEX
  5
1B79
  8
3
 10
44.24170080529984
 20
26.14598833509997
 30
0.0
  0
VERTEX
  5
1B7A
  8
3
 10
44.73927822669998
 20
25.91363589919997
 30
0.0
  0
VERTEX
  5
1B7B
  8
3
 10
45.09302825369991
 20
25.62277733110001
 30
0.0
  0
VERTEX
  5
1B7C
  8
3
 10
45.27671486509985
 20
25.29498428019998
 30
0.0
  0
VERTEX
  5
1B7D
  8
3
 10
45.27671486509985
 20
24.95456765749999
 30
0.0
  0
VERTEX
  5
1B7E
  8
3
 10
45.09302825369991
 20
24.62677460649998
 30
0.0
  0
VERTEX
  5
1B7F
  8
3
 10
44.73927822669998
 20
24.33591603840001
 30
0.0
  0
VERTEX
  5
1B80
  8
3
 10
44.24170080529984
 20
24.1035636026
 30
0.0
  0
VERTEX
  5
1B81
  8
3
 10
43.63719903039987
 20
23.94694981620002
 30
0.0
  0
VERTEX
  5
1B82
  8
3
 10
42.97060603339992
 20
23.87769000729999
 30
0.0
  0
VERTEX
  5
1B83
  8
3
 10
42.29135996729997
 20
23.90092085919999
 30
0.0
  0
VERTEX
  5
1B84
  8
3
 10
41.64983740560001
 20
24.0149194458
 30
0.0
  0
VERTEX
  5
1B85
  8
3
 10
41.09361714189981
 20
24.21123101349998
 30
0.0
  0
VERTEX
  5
1B86
  8
3
 10
40.66395148859988
 20
24.4752960313
 30
0.0
  0
VERTEX
  5
1B87
  8
3
 10
40.39270678159983
 20
24.78753000489998
 30
0.0
  0
VERTEX
  5
1B88
  8
3
 10
40.29999999999995
 20
25.12477596879997
 30
0.0
  0
SEQEND
  5
2012
  8
3
  0
POLYLINE
  5
FEE
  8
3
 66
     1
 10
0.0
 20
0.0
 30
0.0
  0
VERTEX
  5
1B89
  8
3
 10
40.29999999999995
 20
25.20281552019999
 30
0.0
  0
VERTEX
  5
1B8A
  8
3
 10
40.39270678159983
 20
25.54006148409998
 30
0.0
  0
VERTEX
  5
1B8B
  8
3
 10
40.66395148859988
 20
25.85229545770001
 30
0.0
  0
VERTEX
  5
1B8C
  8
3
 10
41.09361714189981
 20
26.11636047549997
 30
0.0
  0
VERTEX
  5
1B8D
  8
3
 10
41.64983740560001
 20
26.31267204320001
 30
0.0
  0
VERTEX
  5
1B8E
  8
3
 10
42.29135996729997
 20
26.42667062979997
 30
0.0
  0
VERTEX
  5
1B8F
  8
3
 10
42.97060603339992
 20
26.44990148169997
 30
0.0
  0
VERTEX
  5
1B90
  8
3
 10
43.63719903039987
 20
26.3806416728
 30
0.0
  0
VERTEX
  5
1B91
  8
3
 10
44.24170080529984
 20
26.2240278865
 30
0.0
  0
VERTEX
  5
1B92
  8
3
 10
44.73927822669998
 20
25.9916754506
 30
0.0
  0
VERTEX
  5
1B93
  8
3
 10
45.09302825369991
 20
25.70081688249998
 30
0.0
  0
VERTEX
  5
1B94
  8
3
 10
45.27671486509985
 20
25.37302383160001
 30
0.0
  0
VERTEX
  5
1B95
  8
3
 10
45.27671486509985
 20
25.03260720879997
 30
0.0
  0
VERTEX
  5
1B96
  8
3
 10
45.09302825369991
 20
24.7048141579
 30
0.0
  0
VERTEX
  5
1B97
  8
3
 10
44.73927822669998
 20
24.41395558979998
 30
0.0
  0
VERTEX
  5
1B98
  8
3
 10
44.24170080529984
 20
24.18160315389999
 30
0.0
  0
VERTEX
  5
1B99
  8
3
 10
43.63719903039987
 20
24.0249893675
 30
0.0
  0
VERTEX
  5
1B9A
  8
3
 10
42.97060603339992
 20
23.95572955870001
 30
0.0
  0
VERTEX
  5
1B9B
  8
3
 10
42.29135996729997
 20
23.97896041060001
 30
0.0
  0
VERTEX
  5
1B9C
  8
3
 10
41.64983740560001
 20
24.09295899719997
 30
0.0
  0
VERTEX
  5
1B9D
  8
3
 10
41.09361714189981
 20
24.28927056480002
 30
0.0
  0
VERTEX
  5
1B9E
  8
3
 10
40.66395148859988
 20
24.55333558259998
 30
0.0
  0
VERTEX
  5
1B9F
  8
3
 10
40.39270678159983
 20
24.86556955620001
 30
0.0
  0
VERTEX
  5
1BA0
  8
3
 10
40.29999999999995
 20
25.20281552019999
 30
0.0
  0
SEQEND
  5
2011
  8
3
  0
POLYLINE
  5
FEF
  8
3
 66
     1
 10
0.0
 20
0.0
 30
0.0
  0
VERTEX
  5
1BA1
  8
3
 10
40.74499999999989
 20
25.47266241479998
 30
0.0
  0
VERTEX
  5
1BA2
  8
3
 10
40.83629788409985
 20
25.77552335650002
 30
0.0
  0
VERTEX
  5
1BA3
  8
3
 10
41.10207931879995
 20
26.0514737745
 30
0.0
  0
VERTEX
  5
1BA4
  8
3
 10
41.51872845719981
 20
26.27599426309997
 30
0.0
  0
VERTEX
  5
1BA5
  8
3
 10
42.04922419489981
 20
26.42913519150001
 30
0.0
  0
VERTEX
  5
1BA6
  8
3
 10
42.64642965769985
 20
26.4972893164
 30
0.0
  0
VERTEX
  5
1BA7
  8
3
 10
43.25728051929991
 20
26.4744008446
 30
0.0
  0
VERTEX
  5
1BA8
  8
3
 10
43.82749999999987
 20
26.36250351719998
 30
0.0
  0
VERTEX
  5
1BA9
  8
3
 10
44.30642159659988
 20
26.17153990289997
 30
0.0
  0
VERTEX
  5
1BAA
  8
3
 10
44.65149102349983
 20
25.91847795679998
 30
0.0
  0
VERTEX
  5
1BAB
  8
3
 10
44.83204734790002
 20
25.62580334330001
 30
0.0
  0
VERTEX
  5
1BAC
  8
3
 10
44.83204734790002
 20
25.31952148630002
 30
0.0
  0
VERTEX
  5
1BAD
  8
3
 10
44.65149102349983
 20
25.02684687289998
 30
0.0
  0
VERTEX
  5
1BAE
  8
3
 10
44.30642159659988
 20
24.77378492679999
 30
0.0
  0
VERTEX
  5
1BAF
  8
3
 10
43.82749999999987
 20
24.58282131239999
 30
0.0
  0
VERTEX
  5
1BB0
  8
3
 10
43.25728051929991
 20
24.47092398510001
 30
0.0
  0
VERTEX
  5
1BB1
  8
3
 10
42.64642965769985
 20
24.44803551319997
 30
0.0
  0
VERTEX
  5
1BB2
  8
3
 10
42.04922419489981
 20
24.51618963810002
 30
0.0
  0
VERTEX
  5
1BB3
  8
3
 10
41.51872845719981
 20
24.66933056659998
 30
0.0
  0
VERTEX
  5
1BB4
  8
3
 10
41.10207931879995
 20
24.89385105520002
 30
0.0
  0
VERTEX
  5
1BB5
  8
3
 10
40.83629788409985
 20
25.16980147310001
 30
0.0
  0
VERTEX
  5
1BB6
  8
3
 10
40.74499999999989
 20
25.47266241479998
 30
0.0
  0
SEQEND
  5
2010
  8
3
  0
POLYLINE
  5
FF0
  8
3
 66
     1
 10
0.0
 20
0.0
 30
0.0
  0
VERTEX
  5
1BB7
  8
3
 10
40.29999999999995
 20
25.74250930939998
 30
0.0
  0
VERTEX
  5
1BB8
  8
3
 10
40.39270678159983
 20
26.07975527340001
 30
0.0
  0
VERTEX
  5
1BB9
  8
3
 10
40.66395148859988
 20
26.39198924699998
 30
0.0
  0
VERTEX
  5
1BBA
  8
3
 10
41.09361714189981
 20
26.65605426480001
 30
0.0
  0
VERTEX
  5
1BBB
  8
3
 10
41.64983740560001
 20
26.8523658324
 30
0.0
  0
VERTEX
  5
1BBC
  8
3
 10
42.29135996729997
 20
26.96636441900002
 30
0.0
  0
VERTEX
  5
1BBD
  8
3
 10
42.97060603339992
 20
26.98959527090001
 30
0.0
  0
VERTEX
  5
1BBE
  8
3
 10
43.63719903039987
 20
26.92033546209997
 30
0.0
  0
VERTEX
  5
1BBF
  8
3
 10
44.24170080529984
 20
26.76372167569998
 30
0.0
  0
VERTEX
  5
1BC0
  8
3
 10
44.73927822669998
 20
26.53136923989997
 30
0.0
  0
VERTEX
  5
1BC1
  8
3
 10
45.09302825369991
 20
26.24051067180001
 30
0.0
  0
VERTEX
  5
1BC2
  8
3
 10
45.27671486509985
 20
25.9127176208
 30
0.0
  0
VERTEX
  5
1BC3
  8
3
 10
45.27671486509985
 20
25.5723009981
 30
0.0
  0
VERTEX
  5
1BC4
  8
3
 10
45.09302825369991
 20
25.24450794709999
 30
0.0
  0
VERTEX
  5
1BC5
  8
3
 10
44.73927822669998
 20
24.95364937899997
 30
0.0
  0
VERTEX
  5
1BC6
  8
3
 10
44.24170080529984
 20
24.72129694320002
 30
0.0
  0
VERTEX
  5
1BC7
  8
3
 10
43.63719903039987
 20
24.56468315679997
 30
0.0
  0
VERTEX
  5
1BC8
  8
3
 10
42.97060603339992
 20
24.49542334799999
 30
0.0
  0
VERTEX
  5
1BC9
  8
3
 10
42.29135996729997
 20
24.5186541998
 30
0.0
  0
VERTEX
  5
1BCA
  8
3
 10
41.64983740560001
 20
24.63265278640002
 30
0.0
  0
VERTEX
  5
1BCB
  8
3
 10
41.09361714189981
 20
24.82896435409999
 30
0.0
  0
VERTEX
  5
1BCC
  8
3
 10
40.66395148859988
 20
25.09302937190002
 30
0.0
  0
VERTEX
  5
1BCD
  8
3
 10
40.39270678159983
 20
25.40526334549999
 30
0.0
  0
VERTEX
  5
1BCE
  8
3
 10
40.29999999999995
 20
25.74250930939998
 30
0.0
  0
SEQEND
  5
200F
  8
3
  0
POLYLINE
  5
FF1
  8
3
 66
     1
 10
0.0
 20
0.0
 30
0.0
  0
VERTEX
  5
1BCF
  8
3
 10
40.29999999999995
 20
25.8205488608
 30
0.0
  0
VERTEX
  5
1BD0
  8
3
 10
40.39270678159983
 20
26.15779482469999
 30
0.0
  0
VERTEX
  5
1BD1
  8
3
 10
40.66395148859988
 20
26.47002879830002
 30
0.0
  0
VERTEX
  5
1BD2
  8
3
 10
41.09361714189981
 20
26.73409381609999
 30
0.0
  0
VERTEX
  5
1BD3
  8
3
 10
41.64983740560001
 20
26.93040538379996
 30
0.0
  0
VERTEX
  5
1BD4
  8
3
 10
42.29135996729997
 20
27.04440397039998
 30
0.0
  0
VERTEX
  5
1BD5
  8
3
 10
42.97060603339992
 20
27.06763482229998
 30
0.0
  0
VERTEX
  5
1BD6
  8
3
 10
43.63719903039987
 20
26.99837501340001
 30
0.0
  0
VERTEX
  5
1BD7
  8
3
 10
44.24170080529984
 20
26.84176122710001
 30
0.0
  0
VERTEX
  5
1BD8
  8
3
 10
44.73927822669998
 20
26.60940879120001
 30
0.0
  0
VERTEX
  5
1BD9
  8
3
 10
45.09302825369991
 20
26.31855022309999
 30
0.0
  0
VERTEX
  5
1BDA
  8
3
 10
45.27671486509985
 20
25.99075717220002
 30
0.0
  0
VERTEX
  5
1BDB
  8
3
 10
45.27671486509985
 20
25.65034054939998
 30
0.0
  0
VERTEX
  5
1BDC
  8
3
 10
45.09302825369991
 20
25.32254749850001
 30
0.0
  0
VERTEX
  5
1BDD
  8
3
 10
44.73927822669998
 20
25.03168893039999
 30
0.0
  0
VERTEX
  5
1BDE
  8
3
 10
44.24170080529984
 20
24.7993364945
 30
0.0
  0
VERTEX
  5
1BDF
  8
3
 10
43.63719903039987
 20
24.64272270810001
 30
0.0
  0
VERTEX
  5
1BE0
  8
3
 10
42.97060603339992
 20
24.57346289929997
 30
0.0
  0
VERTEX
  5
1BE1
  8
3
 10
42.29135996729997
 20
24.59669375119996
 30
0.0
  0
VERTEX
  5
1BE2
  8
3
 10
41.64983740560001
 20
24.71069233779998
 30
0.0
  0
VERTEX
  5
1BE3
  8
3
 10
41.09361714189981
 20
24.90700390539997
 30
0.0
  0
VERTEX
  5
1BE4
  8
3
 10
40.66395148859988
 20
25.17106892329998
 30
0.0
  0
VERTEX
  5
1BE5
  8
3
 10
40.39270678159983
 20
25.48330289690001
 30
0.0
  0
VERTEX
  5
1BE6
  8
3
 10
40.29999999999995
 20
25.8205488608
 30
0.0
  0
SEQEND
  5
200E
  8
3
  0
POLYLINE
  5
FF2
  8
3
 66
     1
 10
0.0
 20
0.0
 30
0.0
  0
VERTEX
  5
1BE7
  8
3
 10
40.74499999999989
 20
26.0903957554
 30
0.0
  0
VERTEX
  5
1BE8
  8
3
 10
40.83629788409985
 20
26.39325669709997
 30
0.0
  0
VERTEX
  5
1BE9
  8
3
 10
41.10207931879995
 20
26.66920711510001
 30
0.0
  0
VERTEX
  5
1BEA
  8
3
 10
41.51872845719981
 20
26.89372760369999
 30
0.0
  0
VERTEX
  5
1BEB
  8
3
 10
42.04922419489981
 20
27.04686853220001
 30
0.0
  0
VERTEX
  5
1BEC
  8
3
 10
42.64642965769985
 20
27.11502265700001
 30
0.0
  0
VERTEX
  5
1BED
  8
3
 10
43.25728051929991
 20
27.09213418520001
 30
0.0
  0
VERTEX
  5
1BEE
  8
3
 10
43.82749999999987
 20
26.98023685779999
 30
0.0
  0
VERTEX
  5
1BEF
  8
3
 10
44.30642159659988
 20
26.78927324349998
 30
0.0
  0
VERTEX
  5
1BF0
  8
3
 10
44.65149102349983
 20
26.53621129739999
 30
0.0
  0
VERTEX
  5
1BF1
  8
3
 10
44.83204734790002
 20
26.24353668390002
 30
0.0
  0
VERTEX
  5
1BF2
  8
3
 10
44.83204734790002
 20
25.93725482689997
 30
0.0
  0
VERTEX
  5
1BF3
  8
3
 10
44.65149102349983
 20
25.64458021349999
 30
0.0
  0
VERTEX
  5
1BF4
  8
3
 10
44.30642159659988
 20
25.3915182674
 30
0.0
  0
VERTEX
  5
1BF5
  8
3
 10
43.82749999999987
 20
25.200554653
 30
0.0
  0
VERTEX
  5
1BF6
  8
3
 10
43.25728051929991
 20
25.08865732569997
 30
0.0
  0
VERTEX
  5
1BF7
  8
3
 10
42.64642965769985
 20
25.06576885379998
 30
0.0
  0
VERTEX
  5
1BF8
  8
3
 10
42.04922419489981
 20
25.13392297869997
 30
0.0
  0
VERTEX
  5
1BF9
  8
3
 10
41.51872845719981
 20
25.28706390719999
 30
0.0
  0
VERTEX
  5
1BFA
  8
3
 10
41.10207931879995
 20
25.51158439579997
 30
0.0
  0
VERTEX
  5
1BFB
  8
3
 10
40.83629788409985
 20
25.78753481370002
 30
0.0
  0
VERTEX
  5
1BFC
  8
3
 10
40.74499999999989
 20
26.0903957554
 30
0.0
  0
SEQEND
  5
200D
  8
3
  0
POLYLINE
  5
FF3
  8
3
 66
     1
 10
0.0
 20
0.0
 30
0.0
  0
VERTEX
  5
1BFD
  8
3
 10
40.29999999999995
 20
26.36024264999999
 30
0.0
  0
VERTEX
  5
1BFE
  8
3
 10
40.39270678159983
 20
26.69748861399997
 30
0.0
  0
VERTEX
  5
1BFF
  8
3
 10
40.66395148859988
 20
27.0097225876
 30
0.0
  0
VERTEX
  5
1C00
  8
3
 10
41.09361714189981
 20
27.27378760540002
 30
0.0
  0
VERTEX
  5
1C01
  8
3
 10
41.64983740560001
 20
27.4700991731
 30
0.0
  0
VERTEX
  5
1C02
  8
3
 10
42.29135996729997
 20
27.58409775970001
 30
0.0
  0
VERTEX
  5
1C03
  8
3
 10
42.97060603339992
 20
27.60732861149997
 30
0.0
  0
VERTEX
  5
1C04
  8
3
 10
43.63719903039987
 20
27.53806880269998
 30
0.0
  0
VERTEX
  5
1C05
  8
3
 10
44.24170080529984
 20
27.3814550163
 30
0.0
  0
VERTEX
  5
1C06
  8
3
 10
44.73927822669998
 20
27.14910258049999
 30
0.0
  0
VERTEX
  5
1C07
  8
3
 10
45.09302825369991
 20
26.85824401239996
 30
0.0
  0
VERTEX
  5
1C08
  8
3
 10
45.27671486509985
 20
26.53045096140001
 30
0.0
  0
VERTEX
  5
1C09
  8
3
 10
45.27671486509985
 20
26.19003433870002
 30
0.0
  0
VERTEX
  5
1C0A
  8
3
 10
45.09302825369991
 20
25.8622412877
 30
0.0
  0
VERTEX
  5
1C0B
  8
3
 10
44.73927822669998
 20
25.57138271959998
 30
0.0
  0
VERTEX
  5
1C0C
  8
3
 10
44.24170080529984
 20
25.33903028379997
 30
0.0
  0
VERTEX
  5
1C0D
  8
3
 10
43.63719903039987
 20
25.18241649739998
 30
0.0
  0
VERTEX
  5
1C0E
  8
3
 10
42.97060603339992
 20
25.1131566886
 30
0.0
  0
VERTEX
  5
1C0F
  8
3
 10
42.29135996729997
 20
25.13638754040001
 30
0.0
  0
VERTEX
  5
1C10
  8
3
 10
41.64983740560001
 20
25.25038612699997
 30
0.0
  0
VERTEX
  5
1C11
  8
3
 10
41.09361714189981
 20
25.44669769470001
 30
0.0
  0
VERTEX
  5
1C12
  8
3
 10
40.66395148859988
 20
25.71076271249997
 30
0.0
  0
VERTEX
  5
1C13
  8
3
 10
40.39270678159983
 20
26.0229966861
 30
0.0
  0
VERTEX
  5
1C14
  8
3
 10
40.29999999999995
 20
26.36024264999999
 30
0.0
  0
SEQEND
  5
200C
  8
3
  0
POLYLINE
  5
FF4
  8
3
 66
     1
 10
0.0
 20
0.0
 30
0.0
  0
VERTEX
  5
1C15
  8
3
 10
40.29999999999995
 20
26.43828220140001
 30
0.0
  0
VERTEX
  5
1C16
  8
3
 10
40.39270678159983
 20
26.7755281653
 30
0.0
  0
VERTEX
  5
1C17
  8
3
 10
40.66395148859988
 20
27.08776213889998
 30
0.0
  0
VERTEX
  5
1C18
  8
3
 10
41.09361714189981
 20
27.3518271567
 30
0.0
  0
VERTEX
  5
1C19
  8
3
 10
41.64983740560001
 20
27.54813872439998
 30
0.0
  0
VERTEX
  5
1C1A
  8
3
 10
42.29135996729997
 20
27.662137311
 30
0.0
  0
VERTEX
  5
1C1B
  8
3
 10
42.97060603339992
 20
27.68536816289999
 30
0.0
  0
VERTEX
  5
1C1C
  8
3
 10
43.63719903039987
 20
27.61610835410001
 30
0.0
  0
VERTEX
  5
1C1D
  8
3
 10
44.24170080529984
 20
27.45949456770002
 30
0.0
  0
VERTEX
  5
1C1E
  8
3
 10
44.73927822669998
 20
27.22714213179997
 30
0.0
  0
VERTEX
  5
1C1F
  8
3
 10
45.09302825369991
 20
26.9362835637
 30
0.0
  0
VERTEX
  5
1C20
  8
3
 10
45.27671486509985
 20
26.60849051279997
 30
0.0
  0
VERTEX
  5
1C21
  8
3
 10
45.27671486509985
 20
26.26807389
 30
0.0
  0
VERTEX
  5
1C22
  8
3
 10
45.09302825369991
 20
25.94028083909997
 30
0.0
  0
VERTEX
  5
1C23
  8
3
 10
44.73927822669998
 20
25.64942227100001
 30
0.0
  0
VERTEX
  5
1C24
  8
3
 10
44.24170080529984
 20
25.41706983510001
 30
0.0
  0
VERTEX
  5
1C25
  8
3
 10
43.63719903039987
 20
25.26045604880001
 30
0.0
  0
VERTEX
  5
1C26
  8
3
 10
42.97060603339992
 20
25.19119623989998
 30
0.0
  0
VERTEX
  5
1C27
  8
3
 10
42.29135996729997
 20
25.21442709179998
 30
0.0
  0
VERTEX
  5
1C28
  8
3
 10
41.64983740560001
 20
25.3284256784
 30
0.0
  0
VERTEX
  5
1C29
  8
3
 10
41.09361714189981
 20
25.52473724609997
 30
0.0
  0
VERTEX
  5
1C2A
  8
3
 10
40.66395148859988
 20
25.7888022639
 30
0.0
  0
VERTEX
  5
1C2B
  8
3
 10
40.39270678159983
 20
26.10103623749997
 30
0.0
  0
VERTEX
  5
1C2C
  8
3
 10
40.29999999999995
 20
26.43828220140001
 30
0.0
  0
SEQEND
  5
200B
  8
3
  0
POLYLINE
  5
FF5
  8
3
 66
     1
 10
0.0
 20
0.0
 30
0.0
  0
VERTEX
  5
1C2D
  8
3
 10
40.74499999999989
 20
26.70812909600001
 30
0.0
  0
VERTEX
  5
1C2E
  8
3
 10
40.83629788409985
 20
27.01099003769998
 30
0.0
  0
VERTEX
  5
1C2F
  8
3
 10
41.10207931879995
 20
27.28694045570002
 30
0.0
  0
VERTEX
  5
1C30
  8
3
 10
41.51872845719981
 20
27.5114609443
 30
0.0
  0
VERTEX
  5
1C31
  8
3
 10
42.04922419489981
 20
27.66460187280002
 30
0.0
  0
VERTEX
  5
1C32
  8
3
 10
42.64642965769985
 20
27.73275599759997
 30
0.0
  0
VERTEX
  5
1C33
  8
3
 10
43.25728051929991
 20
27.70986752579996
 30
0.0
  0
VERTEX
  5
1C34
  8
3
 10
43.82749999999987
 20
27.59797019840001
 30
0.0
  0
VERTEX
  5
1C35
  8
3
 10
44.30642159659988
 20
27.40700658409999
 30
0.0
  0
VERTEX
  5
1C36
  8
3
 10
44.65149102349983
 20
27.153944638
 30
0.0
  0
VERTEX
  5
1C37
  8
3
 10
44.83204734790002
 20
26.86127002449997
 30
0.0
  0
VERTEX
  5
1C38
  8
3
 10
44.83204734790002
 20
26.55498816749999
 30
0.0
  0
VERTEX
  5
1C39
  8
3
 10
44.65149102349983
 20
26.2623135541
 30
0.0
  0
VERTEX
  5
1C3A
  8
3
 10
44.30642159659988
 20
26.00925160800001
 30
0.0
  0
VERTEX
  5
1C3B
  8
3
 10
43.82749999999987
 20
25.81828799360001
 30
0.0
  0
VERTEX
  5
1C3C
  8
3
 10
43.25728051929991
 20
25.70639066629998
 30
0.0
  0
VERTEX
  5
1C3D
  8
3
 10
42.64642965769985
 20
25.68350219439999
 30
0.0
  0
VERTEX
  5
1C3E
  8
3
 10
42.04922419489981
 20
25.75165631929998
 30
0.0
  0
VERTEX
  5
1C3F
  8
3
 10
41.51872845719981
 20
25.9047972478
 30
0.0
  0
VERTEX
  5
1C40
  8
3
 10
41.10207931879995
 20
26.12931773639998
 30
0.0
  0
VERTEX
  5
1C41
  8
3
 10
40.83629788409985
 20
26.40526815429997
 30
0.0
  0
VERTEX
  5
1C42
  8
3
 10
40.74499999999989
 20
26.70812909600001
 30
0.0
  0
SEQEND
  5
200A
  8
3
  0
POLYLINE
  5
FF6
  8
3
 66
     1
 10
0.0
 20
0.0
 30
0.0
  0
VERTEX
  5
1C43
  8
3
 10
40.29999999999995
 20
26.97797599069999
 30
0.0
  0
VERTEX
  5
1C44
  8
3
 10
40.39270678159983
 20
27.31522195459998
 30
0.0
  0
VERTEX
  5
1C45
  8
3
 10
40.66395148859988
 20
27.62745592820001
 30
0.0
  0
VERTEX
  5
1C46
  8
3
 10
41.09361714189981
 20
27.89152094599997
 30
0.0
  0
VERTEX
  5
1C47
  8
3
 10
41.64983740560001
 20
28.08783251370001
 30
0.0
  0
VERTEX
  5
1C48
  8
3
 10
42.29135996729997
 20
28.20183110029997
 30
0.0
  0
VERTEX
  5
1C49
  8
3
 10
42.97060603339992
 20
28.22506195209998
 30
0.0
  0
VERTEX
  5
1C4A
  8
3
 10
43.63719903039987
 20
28.15580214329999
 30
0.0
  0
VERTEX
  5
1C4B
  8
3
 10
44.24170080529984
 20
27.99918835690001
 30
0.0
  0
VERTEX
  5
1C4C
  8
3
 10
44.73927822669998
 20
27.7668359211
 30
0.0
  0
VERTEX
  5
1C4D
  8
3
 10
45.09302825369991
 20
27.47597735299998
 30
0.0
  0
VERTEX
  5
1C4E
  8
3
 10
45.27671486509985
 20
27.14818430200002
 30
0.0
  0
VERTEX
  5
1C4F
  8
3
 10
45.27671486509985
 20
26.80776767929997
 30
0.0
  0
VERTEX
  5
1C50
  8
3
 10
45.09302825369991
 20
26.47997462830001
 30
0.0
  0
VERTEX
  5
1C51
  8
3
 10
44.73927822669998
 20
26.18911606019999
 30
0.0
  0
VERTEX
  5
1C52
  8
3
 10
44.24170080529984
 20
25.95676362439998
 30
0.0
  0
VERTEX
  5
1C53
  8
3
 10
43.63719903039987
 20
25.800149838
 30
0.0
  0
VERTEX
  5
1C54
  8
3
 10
42.97060603339992
 20
25.73089002920001
 30
0.0
  0
VERTEX
  5
1C55
  8
3
 10
42.29135996729997
 20
25.75412088100002
 30
0.0
  0
VERTEX
  5
1C56
  8
3
 10
41.64983740560001
 20
25.86811946759998
 30
0.0
  0
VERTEX
  5
1C57
  8
3
 10
41.09361714189981
 20
26.06443103530002
 30
0.0
  0
VERTEX
  5
1C58
  8
3
 10
40.66395148859988
 20
26.32849605309998
 30
0.0
  0
VERTEX
  5
1C59
  8
3
 10
40.39270678159983
 20
26.64073002670001
 30
0.0
  0
VERTEX
  5
1C5A
  8
3
 10
40.29999999999995
 20
26.97797599069999
 30
0.0
  0
SEQEND
  5
2009
  8
3
  0
POLYLINE
  5
FF7
  8
3
 66
     1
 10
0.0
 20
0.0
 30
0.0
  0
VERTEX
  5
1C5B
  8
3
 10
40.29999999999995
 20
27.05601554199997
 30
0.0
  0
VERTEX
  5
1C5C
  8
3
 10
40.39270678159983
 20
27.393261506
 30
0.0
  0
VERTEX
  5
1C5D
  8
3
 10
40.66395148859988
 20
27.70549547959997
 30
0.0
  0
VERTEX
  5
1C5E
  8
3
 10
41.09361714189981
 20
27.9695604974
 30
0.0
  0
VERTEX
  5
1C5F
  8
3
 10
41.64983740560001
 20
28.16587206499999
 30
0.0
  0
VERTEX
  5
1C60
  8
3
 10
42.29135996729997
 20
28.27987065160001
 30
0.0
  0
VERTEX
  5
1C61
  8
3
 10
42.97060603339992
 20
28.3031015035
 30
0.0
  0
VERTEX
  5
1C62
  8
3
 10
43.63719903039987
 20
28.23384169470002
 30
0.0
  0
VERTEX
  5
1C63
  8
3
 10
44.24170080529984
 20
28.07722790829997
 30
0.0
  0
VERTEX
  5
1C64
  8
3
 10
44.73927822669998
 20
27.84487547239998
 30
0.0
  0
VERTEX
  5
1C65
  8
3
 10
45.09302825369991
 20
27.55401690430001
 30
0.0
  0
VERTEX
  5
1C66
  8
3
 10
45.27671486509985
 20
27.22622385339999
 30
0.0
  0
VERTEX
  5
1C67
  8
3
 10
45.27671486509985
 20
26.88580723060001
 30
0.0
  0
VERTEX
  5
1C68
  8
3
 10
45.09302825369991
 20
26.55801417969998
 30
0.0
  0
VERTEX
  5
1C69
  8
3
 10
44.73927822669998
 20
26.26715561160002
 30
0.0
  0
VERTEX
  5
1C6A
  8
3
 10
44.24170080529984
 20
26.03480317570002
 30
0.0
  0
VERTEX
  5
1C6B
  8
3
 10
43.63719903039987
 20
25.87818938940002
 30
0.0
  0
VERTEX
  5
1C6C
  8
3
 10
42.97060603339992
 20
25.80892958049999
 30
0.0
  0
VERTEX
  5
1C6D
  8
3
 10
42.29135996729997
 20
25.83216043239999
 30
0.0
  0
VERTEX
  5
1C6E
  8
3
 10
41.64983740560001
 20
25.94615901900001
 30
0.0
  0
VERTEX
  5
1C6F
  8
3
 10
41.09361714189981
 20
26.14247058669999
 30
0.0
  0
VERTEX
  5
1C70
  8
3
 10
40.66395148859988
 20
26.40653560450001
 30
0.0
  0
VERTEX
  5
1C71
  8
3
 10
40.39270678159983
 20
26.71876957809998
 30
0.0
  0
VERTEX
  5
1C72
  8
3
 10
40.29999999999995
 20
27.05601554199997
 30
0.0
  0
SEQEND
  5
2008
  8
3
  0
POLYLINE
  5
FF8
  8
3
 66
     1
 10
0.0
 20
0.0
 30
0.0
  0
VERTEX
  5
1C73
  8
3
 10
40.74499999999989
 20
27.32586243660002
 30
0.0
  0
VERTEX
  5
1C74
  8
3
 10
40.83629788409985
 20
27.62872337829999
 30
0.0
  0
VERTEX
  5
1C75
  8
3
 10
41.10207931879995
 20
27.90467379629997
 30
0.0
  0
VERTEX
  5
1C76
  8
3
 10
41.51872845719981
 20
28.12919428490001
 30
0.0
  0
VERTEX
  5
1C77
  8
3
 10
42.04922419489981
 20
28.28233521339997
 30
0.0
  0
VERTEX
  5
1C78
  8
3
 10
42.64642965769985
 20
28.35048933819998
 30
0.0
  0
VERTEX
  5
1C79
  8
3
 10
43.25728051929991
 20
28.32760086639998
 30
0.0
  0
VERTEX
  5
1C7A
  8
3
 10
43.82749999999987
 20
28.21570353900002
 30
0.0
  0
VERTEX
  5
1C7B
  8
3
 10
44.30642159659988
 20
28.0247399247
 30
0.0
  0
VERTEX
  5
1C7C
  8
3
 10
44.65149102349983
 20
27.77167797860001
 30
0.0
  0
VERTEX
  5
1C7D
  8
3
 10
44.83204734790002
 20
27.47900336509998
 30
0.0
  0
VERTEX
  5
1C7E
  8
3
 10
44.83204734790002
 20
27.1727215081
 30
0.0
  0
VERTEX
  5
1C7F
  8
3
 10
44.65149102349983
 20
26.88004689470002
 30
0.0
  0
VERTEX
  5
1C80
  8
3
 10
44.30642159659988
 20
26.62698494859997
 30
0.0
  0
VERTEX
  5
1C81
  8
3
 10
43.82749999999987
 20
26.43602133420002
 30
0.0
  0
VERTEX
  5
1C82
  8
3
 10
43.25728051929991
 20
26.32412400689999
 30
0.0
  0
VERTEX
  5
1C83
  8
3
 10
42.64642965769985
 20
26.301235535
 30
0.0
  0
VERTEX
  5
1C84
  8
3
 10
42.04922419489981
 20
26.36938965989999
 30
0.0
  0
VERTEX
  5
1C85
  8
3
 10
41.51872845719981
 20
26.52253058840002
 30
0.0
  0
VERTEX
  5
1C86
  8
3
 10
41.10207931879995
 20
26.74705107699999
 30
0.0
  0
VERTEX
  5
1C87
  8
3
 10
40.83629788409985
 20
27.02300149489999
 30
0.0
  0
VERTEX
  5
1C88
  8
3
 10
40.74499999999989
 20
27.32586243660002
 30
0.0
  0
SEQEND
  5
2007
  8
3
  0
POLYLINE
  5
FF9
  8
3
 66
     1
 10
0.0
 20
0.0
 30
0.0
  0
VERTEX
  5
1C89
  8
3
 10
40.29999999999995
 20
27.5957093313
 30
0.0
  0
VERTEX
  5
1C8A
  8
3
 10
40.39270678159983
 20
27.93295529519999
 30
0.0
  0
VERTEX
  5
1C8B
  8
3
 10
40.66395148859988
 20
28.24518926880002
 30
0.0
  0
VERTEX
  5
1C8C
  8
3
 10
41.09361714189981
 20
28.50925428659998
 30
0.0
  0
VERTEX
  5
1C8D
  8
3
 10
41.64983740560001
 20
28.70556585430002
 30
0.0
  0
VERTEX
  5
1C8E
  8
3
 10
42.29135996729997
 20
28.81956444089998
 30
0.0
  0
VERTEX
  5
1C8F
  8
3
 10
42.97060603339992
 20
28.84279529269999
 30
0.0
  0
VERTEX
  5
1C90
  8
3
 10
43.63719903039987
 20
28.77353548390001
 30
0.0
  0
VERTEX
  5
1C91
  8
3
 10
44.24170080529984
 20
28.61692169750002
 30
0.0
  0
VERTEX
  5
1C92
  8
3
 10
44.73927822669998
 20
28.38456926170001
 30
0.0
  0
VERTEX
  5
1C93
  8
3
 10
45.09302825369991
 20
28.09371069359999
 30
0.0
  0
VERTEX
  5
1C94
  8
3
 10
45.27671486509985
 20
27.76591764259997
 30
0.0
  0
VERTEX
  5
1C95
  8
3
 10
45.27671486509985
 20
27.42550101989998
 30
0.0
  0
VERTEX
  5
1C96
  8
3
 10
45.09302825369991
 20
27.09770796889997
 30
0.0
  0
VERTEX
  5
1C97
  8
3
 10
44.73927822669998
 20
26.8068494008
 30
0.0
  0
VERTEX
  5
1C98
  8
3
 10
44.24170080529984
 20
26.57449696499999
 30
0.0
  0
VERTEX
  5
1C99
  8
3
 10
43.63719903039987
 20
26.41788317860001
 30
0.0
  0
VERTEX
  5
1C9A
  8
3
 10
42.97060603339992
 20
26.34862336979997
 30
0.0
  0
VERTEX
  5
1C9B
  8
3
 10
42.29135996729997
 20
26.37185422170002
 30
0.0
  0
VERTEX
  5
1C9C
  8
3
 10
41.64983740560001
 20
26.48585280829998
 30
0.0
  0
VERTEX
  5
1C9D
  8
3
 10
41.09361714189981
 20
26.68216437589997
 30
0.0
  0
VERTEX
  5
1C9E
  8
3
 10
40.66395148859988
 20
26.94622939369999
 30
0.0
  0
VERTEX
  5
1C9F
  8
3
 10
40.39270678159983
 20
27.25846336729997
 30
0.0
  0
VERTEX
  5
1CA0
  8
3
 10
40.29999999999995
 20
27.5957093313
 30
0.0
  0
SEQEND
  5
2006
  8
3
  0
POLYLINE
  5
FFA
  8
3
 66
     1
 10
0.0
 20
0.0
 30
0.0
  0
VERTEX
  5
1CA1
  8
3
 10
40.29999999999995
 20
27.67374888259998
 30
0.0
  0
VERTEX
  5
1CA2
  8
3
 10
40.39270678159983
 20
28.01099484660001
 30
0.0
  0
VERTEX
  5
1CA3
  8
3
 10
40.66395148859988
 20
28.32322882019999
 30
0.0
  0
VERTEX
  5
1CA4
  8
3
 10
41.09361714189981
 20
28.58729383800001
 30
0.0
  0
VERTEX
  5
1CA5
  8
3
 10
41.64983740560001
 20
28.7836054056
 30
0.0
  0
VERTEX
  5
1CA6
  8
3
 10
42.29135996729997
 20
28.89760399220002
 30
0.0
  0
VERTEX
  5
1CA7
  8
3
 10
42.97060603339992
 20
28.92083484410001
 30
0.0
  0
VERTEX
  5
1CA8
  8
3
 10
43.63719903039987
 20
28.85157503529997
 30
0.0
  0
VERTEX
  5
1CA9
  8
3
 10
44.24170080529984
 20
28.69496124889999
 30
0.0
  0
VERTEX
  5
1CAA
  8
3
 10
44.73927822669998
 20
28.46260881299999
 30
0.0
  0
VERTEX
  5
1CAB
  8
3
 10
45.09302825369991
 20
28.17175024489997
 30
0.0
  0
VERTEX
  5
1CAC
  8
3
 10
45.27671486509985
 20
27.843957194
 30
0.0
  0
VERTEX
  5
1CAD
  8
3
 10
45.27671486509985
 20
27.50354057120002
 30
0.0
  0
VERTEX
  5
1CAE
  8
3
 10
45.09302825369991
 20
27.17574752029999
 30
0.0
  0
VERTEX
  5
1CAF
  8
3
 10
44.73927822669998
 20
26.88488895219997
 30
0.0
  0
VERTEX
  5
1CB0
  8
3
 10
44.24170080529984
 20
26.65253651629997
 30
0.0
  0
VERTEX
  5
1CB1
  8
3
 10
43.63719903039987
 20
26.49592272999998
 30
0.0
  0
VERTEX
  5
1CB2
  8
3
 10
42.97060603339992
 20
26.4266629211
 30
0.0
  0
VERTEX
  5
1CB3
  8
3
 10
42.29135996729997
 20
26.449893773
 30
0.0
  0
VERTEX
  5
1CB4
  8
3
 10
41.64983740560001
 20
26.56389235960002
 30
0.0
  0
VERTEX
  5
1CB5
  8
3
 10
41.09361714189981
 20
26.7602039273
 30
0.0
  0
VERTEX
  5
1CB6
  8
3
 10
40.66395148859988
 20
27.02426894510002
 30
0.0
  0
VERTEX
  5
1CB7
  8
3
 10
40.39270678159983
 20
27.33650291869999
 30
0.0
  0
VERTEX
  5
1CB8
  8
3
 10
40.29999999999995
 20
27.67374888259998
 30
0.0
  0
SEQEND
  5
2005
  8
3
  0
POLYLINE
  5
FFB
  8
3
 66
     1
 10
0.0
 20
0.0
 30
0.0
  0
VERTEX
  5
1CB9
  8
3
 10
40.74499999999989
 20
27.94359577719997
 30
0.0
  0
VERTEX
  5
1CBA
  8
3
 10
40.83629788409985
 20
28.24645671890001
 30
0.0
  0
VERTEX
  5
1CBB
  8
3
 10
41.10207931879995
 20
28.52240713689999
 30
0.0
  0
VERTEX
  5
1CBC
  8
3
 10
41.51872845719981
 20
28.74692762550002
 30
0.0
  0
VERTEX
  5
1CBD
  8
3
 10
42.04922419489981
 20
28.90006855399999
 30
0.0
  0
VERTEX
  5
1CBE
  8
3
 10
42.64642965769985
 20
28.96822267879999
 30
0.0
  0
VERTEX
  5
1CBF
  8
3
 10
43.25728051929991
 20
28.94533420699999
 30
0.0
  0
VERTEX
  5
1CC0
  8
3
 10
43.82749999999987
 20
28.83343687959997
 30
0.0
  0
VERTEX
  5
1CC1
  8
3
 10
44.30642159659988
 20
28.64247326530001
 30
0.0
  0
VERTEX
  5
1CC2
  8
3
 10
44.65149102349983
 20
28.38941131919997
 30
0.0
  0
VERTEX
  5
1CC3
  8
3
 10
44.83204734790002
 20
28.0967367057
 30
0.0
  0
VERTEX
  5
1CC4
  8
3
 10
44.83204734790002
 20
27.79045484870001
 30
0.0
  0
VERTEX
  5
1CC5
  8
3
 10
44.65149102349983
 20
27.49778023529997
 30
0.0
  0
VERTEX
  5
1CC6
  8
3
 10
44.30642159659988
 20
27.24471828919998
 30
0.0
  0
VERTEX
  5
1CC7
  8
3
 10
43.82749999999987
 20
27.05375467479998
 30
0.0
  0
VERTEX
  5
1CC8
  8
3
 10
43.25728051929991
 20
26.9418573475
 30
0.0
  0
VERTEX
  5
1CC9
  8
3
 10
42.64642965769985
 20
26.91896887560002
 30
0.0
  0
VERTEX
  5
1CCA
  8
3
 10
42.04922419489981
 20
26.98712300050001
 30
0.0
  0
VERTEX
  5
1CCB
  8
3
 10
41.51872845719981
 20
27.14026392899997
 30
0.0
  0
VERTEX
  5
1CCC
  8
3
 10
41.10207931879995
 20
27.36478441760001
 30
0.0
  0
VERTEX
  5
1CCD
  8
3
 10
40.83629788409985
 20
27.6407348355
 30
0.0
  0
VERTEX
  5
1CCE
  8
3
 10
40.74499999999989
 20
27.94359577719997
 30
0.0
  0
SEQEND
  5
2004
  8
3
  0
POLYLINE
  5
FFC
  8
3
 66
     1
 10
0.0
 20
0.0
 30
0.0
  0
VERTEX
  5
1CCF
  8
3
 10
40.29999999999995
 20
28.21344267190001
 30
0.0
  0
VERTEX
  5
1CD0
  8
3
 10
40.39270678159983
 20
28.5506886358
 30
0.0
  0
VERTEX
  5
1CD1
  8
3
 10
40.66395148859988
 20
28.86292260939997
 30
0.0
  0
VERTEX
  5
1CD2
  8
3
 10
41.09361714189981
 20
29.12698762719999
 30
0.0
  0
VERTEX
  5
1CD3
  8
3
 10
41.64983740560001
 20
29.32329919489997
 30
0.0
  0
VERTEX
  5
1CD4
  8
3
 10
42.29135996729997
 20
29.43729778149999
 30
0.0
  0
VERTEX
  5
1CD5
  8
3
 10
42.97060603339992
 20
29.4605286333
 30
0.0
  0
VERTEX
  5
1CD6
  8
3
 10
43.63719903039987
 20
29.39126882450002
 30
0.0
  0
VERTEX
  5
1CD7
  8
3
 10
44.24170080529984
 20
29.23465503809997
 30
0.0
  0
VERTEX
  5
1CD8
  8
3
 10
44.73927822669998
 20
29.00230260230002
 30
0.0
  0
VERTEX
  5
1CD9
  8
3
 10
45.09302825369991
 20
28.7114440342
 30
0.0
  0
VERTEX
  5
1CDA
  8
3
 10
45.27671486509985
 20
28.38365098319998
 30
0.0
  0
VERTEX
  5
1CDB
  8
3
 10
45.27671486509985
 20
28.04323436049999
 30
0.0
  0
VERTEX
  5
1CDC
  8
3
 10
45.09302825369991
 20
27.71544130959997
 30
0.0
  0
VERTEX
  5
1CDD
  8
3
 10
44.73927822669998
 20
27.4245827415
 30
0.0
  0
VERTEX
  5
1CDE
  8
3
 10
44.24170080529984
 20
27.19223030560001
 30
0.0
  0
VERTEX
  5
1CDF
  8
3
 10
43.63719903039987
 20
27.03561651920002
 30
0.0
  0
VERTEX
  5
1CE0
  8
3
 10
42.97060603339992
 20
26.96635671039998
 30
0.0
  0
VERTEX
  5
1CE1
  8
3
 10
42.29135996729997
 20
26.98958756229997
 30
0.0
  0
VERTEX
  5
1CE2
  8
3
 10
41.64983740560001
 20
27.10358614889999
 30
0.0
  0
VERTEX
  5
1CE3
  8
3
 10
41.09361714189981
 20
27.29989771649998
 30
0.0
  0
VERTEX
  5
1CE4
  8
3
 10
40.66395148859988
 20
27.56396273430001
 30
0.0
  0
VERTEX
  5
1CE5
  8
3
 10
40.39270678159983
 20
27.87619670789998
 30
0.0
  0
VERTEX
  5
1CE6
  8
3
 10
40.29999999999995
 20
28.21344267190001
 30
0.0
  0
SEQEND
  5
2003
  8
3
  0
POLYLINE
  5
FFD
  8
3
 66
     1
 10
0.0
 20
0.0
 30
0.0
  0
VERTEX
  5
1CE7
  8
3
 10
40.29999999999995
 20
28.29148222319999
 30
0.0
  0
VERTEX
  5
1CE8
  8
3
 10
40.39270678159983
 20
28.62872818719997
 30
0.0
  0
VERTEX
  5
1CE9
  8
3
 10
40.66395148859988
 20
28.9409621608
 30
0.0
  0
VERTEX
  5
1CEA
  8
3
 10
41.09361714189981
 20
29.20502717860002
 30
0.0
  0
VERTEX
  5
1CEB
  8
3
 10
41.64983740560001
 20
29.40133874620001
 30
0.0
  0
VERTEX
  5
1CEC
  8
3
 10
42.29135996729997
 20
29.51533733279997
 30
0.0
  0
VERTEX
  5
1CED
  8
3
 10
42.97060603339992
 20
29.53856818469997
 30
0.0
  0
VERTEX
  5
1CEE
  8
3
 10
43.63719903039987
 20
29.46930837589998
 30
0.0
  0
VERTEX
  5
1CEF
  8
3
 10
44.24170080529984
 20
29.3126945895
 30
0.0
  0
VERTEX
  5
1CF0
  8
3
 10
44.73927822669998
 20
29.0803421536
 30
0.0
  0
VERTEX
  5
1CF1
  8
3
 10
45.09302825369991
 20
28.78948358549998
 30
0.0
  0
VERTEX
  5
1CF2
  8
3
 10
45.27671486509985
 20
28.46169053460001
 30
0.0
  0
VERTEX
  5
1CF3
  8
3
 10
45.27671486509985
 20
28.12127391179997
 30
0.0
  0
VERTEX
  5
1CF4
  8
3
 10
45.09302825369991
 20
27.7934808609
 30
0.0
  0
VERTEX
  5
1CF5
  8
3
 10
44.73927822669998
 20
27.50262229279998
 30
0.0
  0
VERTEX
  5
1CF6
  8
3
 10
44.24170080529984
 20
27.27026985699997
 30
0.0
  0
VERTEX
  5
1CF7
  8
3
 10
43.63719903039987
 20
27.11365607059999
 30
0.0
  0
VERTEX
  5
1CF8
  8
3
 10
42.97060603339992
 20
27.04439626170002
 30
0.0
  0
VERTEX
  5
1CF9
  8
3
 10
42.29135996729997
 20
27.06762711360001
 30
0.0
  0
VERTEX
  5
1CFA
  8
3
 10
41.64983740560001
 20
27.18162570019997
 30
0.0
  0
VERTEX
  5
1CFB
  8
3
 10
41.09361714189981
 20
27.37793726790001
 30
0.0
  0
VERTEX
  5
1CFC
  8
3
 10
40.66395148859988
 20
27.64200228569997
 30
0.0
  0
VERTEX
  5
1CFD
  8
3
 10
40.39270678159983
 20
27.9542362593
 30
0.0
  0
VERTEX
  5
1CFE
  8
3
 10
40.29999999999995
 20
28.29148222319999
 30
0.0
  0
SEQEND
  5
2002
  8
3
  0
POLYLINE
  5
FFE
  8
3
 66
     1
 10
0.0
 20
0.0
 30
0.0
  0
VERTEX
  5
1CFF
  8
3
 10
40.74499999999989
 20
28.56132911779999
 30
0.0
  0
VERTEX
  5
1D00
  8
3
 10
40.83629788409985
 20
28.86419005950002
 30
0.0
  0
VERTEX
  5
1D01
  8
3
 10
41.10207931879995
 20
29.1401404775
 30
0.0
  0
VERTEX
  5
1D02
  8
3
 10
41.51872845719981
 20
29.36466096609998
 30
0.0
  0
VERTEX
  5
1D03
  8
3
 10
42.04922419489981
 20
29.5178018946
 30
0.0
  0
VERTEX
  5
1D04
  8
3
 10
42.64642965769985
 20
29.5859560194
 30
0.0
  0
VERTEX
  5
1D05
  8
3
 10
43.25728051929991
 20
29.5630675476
 30
0.0
  0
VERTEX
  5
1D06
  8
3
 10
43.82749999999987
 20
29.45117022019998
 30
0.0
  0
VERTEX
  5
1D07
  8
3
 10
44.30642159659988
 20
29.26020660589997
 30
0.0
  0
VERTEX
  5
1D08
  8
3
 10
44.65149102349983
 20
29.00714465979998
 30
0.0
  0
VERTEX
  5
1D09
  8
3
 10
44.83204734790002
 20
28.71447004630001
 30
0.0
  0
VERTEX
  5
1D0A
  8
3
 10
44.83204734790002
 20
28.40818818930002
 30
0.0
  0
VERTEX
  5
1D0B
  8
3
 10
44.65149102349983
 20
28.11551357589998
 30
0.0
  0
VERTEX
  5
1D0C
  8
3
 10
44.30642159659988
 20
27.86245162979999
 30
0.0
  0
VERTEX
  5
1D0D
  8
3
 10
43.82749999999987
 20
27.67148801549997
 30
0.0
  0
VERTEX
  5
1D0E
  8
3
 10
43.25728051929991
 20
27.55959068810002
 30
0.0
  0
VERTEX
  5
1D0F
  8
3
 10
42.64642965769985
 20
27.53670221619997
 30
0.0
  0
VERTEX
  5
1D10
  8
3
 10
42.04922419489981
 20
27.60485634110002
 30
0.0
  0
VERTEX
  5
1D11
  8
3
 10
41.51872845719981
 20
27.75799726959998
 30
0.0
  0
VERTEX
  5
1D12
  8
3
 10
41.10207931879995
 20
27.98251775820002
 30
0.0
  0
VERTEX
  5
1D13
  8
3
 10
40.83629788409985
 20
28.25846817610001
 30
0.0
  0
VERTEX
  5
1D14
  8
3
 10
40.74499999999989
 20
28.56132911779999
 30
0.0
  0
SEQEND
  5
2001
  8
3
  0
POLYLINE
  5
FFF
  8
3
 66
     1
 10
0.0
 20
0.0
 30
0.0
  0
VERTEX
  5
1D15
  8
3
 10
40.29999999999995
 20
28.83117601249997
 30
0.0
  0
VERTEX
  5
1D16
  8
3
 10
40.39270678159983
 20
29.16842197640001
 30
0.0
  0
VERTEX
  5
1D17
  8
3
 10
40.66395148859988
 20
29.48065594999998
 30
0.0
  0
VERTEX
  5
1D18
  8
3
 10
41.09361714189981
 20
29.74472096780001
 30
0.0
  0
VERTEX
  5
1D19
  8
3
 10
41.64983740560001
 20
29.94103253549999
 30
0.0
  0
VERTEX
  5
1D1A
  8
3
 10
42.29135996729997
 20
30.0550311221
 30
0.0
  0
VERTEX
  5
1D1B
  8
3
 10
42.97060603339992
 20
30.078261974
 30
0.0
  0
VERTEX
  5
1D1C
  8
3
 10
43.63719903039987
 20
30.00900216509997
 30
0.0
  0
VERTEX
  5
1D1D
  8
3
 10
44.24170080529984
 20
29.85238837869998
 30
0.0
  0
VERTEX
  5
1D1E
  8
3
 10
44.73927822669998
 20
29.62003594289997
 30
0.0
  0
VERTEX
  5
1D1F
  8
3
 10
45.09302825369991
 20
29.32917737480001
 30
0.0
  0
VERTEX
  5
1D20
  8
3
 10
45.27671486509985
 20
29.0013843238
 30
0.0
  0
VERTEX
  5
1D21
  8
3
 10
45.27671486509985
 20
28.66096770110001
 30
0.0
  0
VERTEX
  5
1D22
  8
3
 10
45.09302825369991
 20
28.33317465019998
 30
0.0
  0
VERTEX
  5
1D23
  8
3
 10
44.73927822669998
 20
28.04231608210002
 30
0.0
  0
VERTEX
  5
1D24
  8
3
 10
44.24170080529984
 20
27.80996364620002
 30
0.0
  0
VERTEX
  5
1D25
  8
3
 10
43.63719903039987
 20
27.65334985979997
 30
0.0
  0
VERTEX
  5
1D26
  8
3
 10
42.97060603339992
 20
27.58409005099999
 30
0.0
  0
VERTEX
  5
1D27
  8
3
 10
42.29135996729997
 20
27.60732090289999
 30
0.0
  0
VERTEX
  5
1D28
  8
3
 10
41.64983740560001
 20
27.7213194895
 30
0.0
  0
VERTEX
  5
1D29
  8
3
 10
41.09361714189981
 20
27.9176310571
 30
0.0
  0
VERTEX
  5
1D2A
  8
3
 10
40.66395148859988
 20
28.18169607490002
 30
0.0
  0
VERTEX
  5
1D2B
  8
3
 10
40.39270678159983
 20
28.49393004849999
 30
0.0
  0
VERTEX
  5
1D2C
  8
3
 10
40.29999999999995
 20
28.83117601249997
 30
0.0
  0
SEQEND
  5
2000
  8
3
  0
LINE
  5
1000
  8
3
 10
42.79999999999995
 20
27.7849817047
 30
0.0
 11
42.79999999999995
 21
30.12325029490002
 31
0.0
  0
LINE
  5
1001
  8
3
 10
41.54999999999995
 20
27.42413778649997
 30
0.0
 11
42.79999999999995
 21
27.7849817047
 31
0.0
  0
LINE
  5
1002
  8
3
 10
44.04999999999995
 20
27.42413778649997
 30
0.0
 11
42.79999999999995
 21
27.7849817047
 31
0.0
  0
POLYLINE
  5
1003
  8
3
 66
     1
 10
0.0
 20
0.0
 30
0.0
  0
VERTEX
  5
1D2D
  8
3
 10
40.29999999999995
 20
28.9092155638
 30
0.0
  0
VERTEX
  5
1D2E
  8
3
 10
40.39270678159983
 20
29.24646152779998
 30
0.0
  0
VERTEX
  5
1D2F
  8
3
 10
40.66395148859988
 20
29.55869550140001
 30
0.0
  0
VERTEX
  5
1D30
  8
3
 10
41.09361714189981
 20
29.82276051919997
 30
0.0
  0
VERTEX
  5
1D31
  8
3
 10
41.64983740560001
 20
30.01907208679997
 30
0.0
  0
VERTEX
  5
1D32
  8
3
 10
42.29135996729997
 20
30.13307067339998
 30
0.0
  0
VERTEX
  5
1D33
  8
3
 10
42.97060603339992
 20
30.15630152529998
 30
0.0
  0
VERTEX
  5
1D34
  8
3
 10
43.63719903039987
 20
30.0870417165
 30
0.0
  0
VERTEX
  5
1D35
  8
3
 10
44.24170080529984
 20
29.93042793010001
 30
0.0
  0
VERTEX
  5
1D36
  8
3
 10
44.73927822669998
 20
29.69807549420001
 30
0.0
  0
VERTEX
  5
1D37
  8
3
 10
45.09302825369991
 20
29.40721692609999
 30
0.0
  0
VERTEX
  5
1D38
  8
3
 10
45.27671486509985
 20
29.07942387519996
 30
0.0
  0
VERTEX
  5
1D39
  8
3
 10
45.27671486509985
 20
28.73900725249997
 30
0.0
  0
VERTEX
  5
1D3A
  8
3
 10
45.09302825369991
 20
28.41121420150002
 30
0.0
  0
VERTEX
  5
1D3B
  8
3
 10
44.73927822669998
 20
28.1203556334
 30
0.0
  0
VERTEX
  5
1D3C
  8
3
 10
44.24170080529984
 20
27.88800319759999
 30
0.0
  0
VERTEX
  5
1D3D
  8
3
 10
43.63719903039987
 20
27.7313894112
 30
0.0
  0
VERTEX
  5
1D3E
  8
3
 10
42.97060603339992
 20
27.66212960229997
 30
0.0
  0
VERTEX
  5
1D3F
  8
3
 10
42.29135996729997
 20
27.68536045419997
 30
0.0
  0
VERTEX
  5
1D40
  8
3
 10
41.64983740560001
 20
27.79935904079998
 30
0.0
  0
VERTEX
  5
1D41
  8
3
 10
41.09361714189981
 20
27.99567060850002
 30
0.0
  0
VERTEX
  5
1D42
  8
3
 10
40.66395148859988
 20
28.25973562629999
 30
0.0
  0
VERTEX
  5
1D43
  8
3
 10
40.39270678159983
 20
28.57196959990002
 30
0.0
  0
VERTEX
  5
1D44
  8
3
 10
40.29999999999995
 20
28.9092155638
 30
0.0
  0
SEQEND
  5
1FFF
  8
3
  0
POLYLINE
  5
1004
  8
3
 66
     1
 10
0.0
 20
0.0
 30
0.0
  0
VERTEX
  5
1D45
  8
3
 10
40.74499999999989
 20
29.1790624584
 30
0.0
  0
VERTEX
  5
1D46
  8
3
 10
40.83629788409985
 20
29.48192340020002
 30
0.0
  0
VERTEX
  5
1D47
  8
3
 10
41.10207931879995
 20
29.75787381810001
 30
0.0
  0
VERTEX
  5
1D48
  8
3
 10
41.51872845719981
 20
29.98239430669999
 30
0.0
  0
VERTEX
  5
1D49
  8
3
 10
42.04922419489981
 20
30.13553523520001
 30
0.0
  0
VERTEX
  5
1D4A
  8
3
 10
42.64642965769985
 20
30.20368936000001
 30
0.0
  0
VERTEX
  5
1D4B
  8
3
 10
43.25728051929991
 20
30.18080088820001
 30
0.0
  0
VERTEX
  5
1D4C
  8
3
 10
43.82749999999987
 20
30.0689035608
 30
0.0
  0
VERTEX
  5
1D4D
  8
3
 10
44.30642159659988
 20
29.87793994649998
 30
0.0
  0
VERTEX
  5
1D4E
  8
3
 10
44.65149102349983
 20
29.62487800039999
 30
0.0
  0
VERTEX
  5
1D4F
  8
3
 10
44.83204734790002
 20
29.33220338690002
 30
0.0
  0
VERTEX
  5
1D50
  8
3
 10
44.83204734790002
 20
29.02592152989997
 30
0.0
  0
VERTEX
  5
1D51
  8
3
 10
44.65149102349983
 20
28.73324691649999
 30
0.0
  0
VERTEX
  5
1D52
  8
3
 10
44.30642159659988
 20
28.4801849704
 30
0.0
  0
VERTEX
  5
1D53
  8
3
 10
43.82749999999987
 20
28.28922135609999
 30
0.0
  0
VERTEX
  5
1D54
  8
3
 10
43.25728051929991
 20
28.17732402869997
 30
0.0
  0
VERTEX
  5
1D55
  8
3
 10
42.64642965769985
 20
28.15443555679998
 30
0.0
  0
VERTEX
  5
1D56
  8
3
 10
42.04922419489981
 20
28.22258968169997
 30
0.0
  0
VERTEX
  5
1D57
  8
3
 10
41.51872845719981
 20
28.37573061019999
 30
0.0
  0
VERTEX
  5
1D58
  8
3
 10
41.10207931879995
 20
28.60025109879997
 30
0.0
  0
VERTEX
  5
1D59
  8
3
 10
40.83629788409985
 20
28.87620151669996
 30
0.0
  0
VERTEX
  5
1D5A
  8
3
 10
40.74499999999989
 20
29.1790624584
 30
0.0
  0
SEQEND
  5
1FFE
  8
3
  0
POLYLINE
  5
1005
  8
3
 66
     1
 10
0.0
 20
0.0
 30
0.0
  0
VERTEX
  5
1D5B
  8
3
 10
40.54389687309981
 20
29.301010895
 30
0.0
  0
VERTEX
  5
1D5C
  8
3
 10
40.63528490199997
 20
28.98320204379998
 30
0.0
  0
VERTEX
  5
1D5D
  8
3
 10
40.90204527409992
 20
28.69114017559998
 30
0.0
  0
VERTEX
  5
1D5E
  8
3
 10
41.32256665049999
 20
28.44848640609997
 30
0.0
  0
VERTEX
  5
1D5F
  8
3
 10
41.86278089019993
 20
28.27489910049998
 30
0.0
  0
VERTEX
  5
1D60
  8
3
 10
42.47892304840002
 20
28.18444126999999
 30
0.0
  0
VERTEX
  5
1D61
  8
3
 10
43.12107695159989
 20
28.18444126999999
 30
0.0
  0
VERTEX
  5
1D62
  8
3
 10
43.73721910969994
 20
28.27489910049998
 30
0.0
  0
VERTEX
  5
1D63
  8
3
 10
44.27743334949992
 20
28.44848640609997
 30
0.0
  0
VERTEX
  5
1D64
  8
3
 10
44.69795472589999
 20
28.69114017559998
 30
0.0
  0
VERTEX
  5
1D65
  8
3
 10
44.9647150978999
 20
28.98320204379998
 30
0.0
  0
VERTEX
  5
1D66
  8
3
 10
45.05610312679983
 20
29.301010895
 30
0.0
  0
VERTEX
  5
1D67
  8
3
 10
44.9647150978999
 20
29.61881974619997
 30
0.0
  0
VERTEX
  5
1D68
  8
3
 10
44.69795472589999
 20
29.91088161439997
 30
0.0
  0
VERTEX
  5
1D69
  8
3
 10
44.27743334949992
 20
30.15353538389998
 30
0.0
  0
VERTEX
  5
1D6A
  8
3
 10
43.73721910969994
 20
30.32712268949997
 30
0.0
  0
VERTEX
  5
1D6B
  8
3
 10
43.12107695159989
 20
30.41758052000002
 30
0.0
  0
VERTEX
  5
1D6C
  8
3
 10
42.47892304840002
 20
30.41758052000002
 30
0.0
  0
VERTEX
  5
1D6D
  8
3
 10
41.86278089019993
 20
30.32712268949997
 30
0.0
  0
VERTEX
  5
1D6E
  8
3
 10
41.32256665049999
 20
30.15353538389998
 30
0.0
  0
VERTEX
  5
1D6F
  8
3
 10
40.90204527409992
 20
29.91088161439997
 30
0.0
  0
VERTEX
  5
1D70
  8
3
 10
40.63528490199997
 20
29.61881974619997
 30
0.0
  0
VERTEX
  5
1D71
  8
3
 10
40.54389687309981
 20
29.301010895
 30
0.0
  0
SEQEND
  5
1FFD
  8
3
  0
LINE
  5
1006
  8
3
 10
41.54999999999995
 20
27.42413778649997
 30
0.0
 11
41.54999999999995
 21
26.70244994999997
 31
0.0
  0
LINE
  5
1007
  8
3
 10
41.54999999999995
 20
27.42413778649997
 30
0.0
 11
41.54999999999995
 21
29.76240637669999
 31
0.0
  0
LINE
  5
1008
  8
3
 10
44.04999999999995
 20
27.42413778649997
 30
0.0
 11
44.04999999999995
 21
26.70244994999997
 31
0.0
  0
LINE
  5
1009
  8
3
 10
44.04999999999995
 20
27.42413778649997
 30
0.0
 11
44.04999999999995
 21
29.76240637669999
 31
0.0
  0
POLYLINE
  5
100A
  8
3
 66
     1
 10
0.0
 20
0.0
 30
0.0
  0
VERTEX
  5
1D72
  8
3
 10
42.79999999999995
 20
30.4290624584
 30
0.0
  0
VERTEX
  5
1D73
  8
3
 10
43.40572188340002
 20
30.38341351639998
 30
0.0
  0
VERTEX
  5
1D74
  8
3
 10
43.95762271929993
 20
30.25052279910001
 30
0.0
  0
VERTEX
  5
1D75
  8
3
 10
44.40666369639985
 20
30.04219822989997
 30
0.0
  0
VERTEX
  5
1D76
  8
3
 10
44.7129455534
 20
29.776950361
 30
0.0
  0
VERTEX
  5
1D77
  8
3
 10
44.84925380319987
 20
29.47834762959998
 30
0.0
  0
VERTEX
  5
1D78
  8
3
 10
44.80347685949982
 20
29.17292219880001
 30
0.0
  0
VERTEX
  5
1D79
  8
3
 10
44.57968220479984
 20
28.88781245840001
 30
0.0
  0
VERTEX
  5
1D7A
  8
3
 10
44.19775497609999
 20
28.6483516601
 30
0.0
  0
VERTEX
  5
1D7B
  8
3
 10
43.69163108389989
 20
28.47581694669999
 30
0.0
  0
VERTEX
  5
1D7C
  8
3
 10
43.10628185699989
 20
28.38553878450001
 30
0.0
  0
VERTEX
  5
1D7D
  8
3
 10
42.4937181429998
 20
28.38553878450001
 30
0.0
  0
VERTEX
  5
1D7E
  8
3
 10
41.90836891610002
 20
28.47581694669999
 30
0.0
  0
VERTEX
  5
1D7F
  8
3
 10
41.40224502389992
 20
28.6483516601
 30
0.0
  0
VERTEX
  5
1D80
  8
3
 10
41.02031779519984
 20
28.88781245840001
 30
0.0
  0
VERTEX
  5
1D81
  8
3
 10
40.79652314039981
 20
29.17292219880001
 30
0.0
  0
VERTEX
  5
1D82
  8
3
 10
40.75074619679981
 20
29.47834762959998
 30
0.0
  0
VERTEX
  5
1D83
  8
3
 10
40.88705444649986
 20
29.776950361
 30
0.0
  0
VERTEX
  5
1D84
  8
3
 10
41.19333630350002
 20
30.04219822989997
 30
0.0
  0
VERTEX
  5
1D85
  8
3
 10
41.64237728069998
 20
30.25052279910001
 30
0.0
  0
VERTEX
  5
1D86
  8
3
 10
42.19427811659989
 20
30.38341351639998
 30
0.0
  0
VERTEX
  5
1D87
  8
3
 10
42.79999999999995
 20
30.4290624584
 30
0.0
  0
SEQEND
  5
1FFC
  8
3
  0
LINE
  5
100B
  8
3
 10
41.54999999999995
 20
29.76240637669999
 30
0.0
 11
42.79999999999995
 21
30.12325029490002
 31
0.0
  0
LINE
  5
100C
  8
3
 10
44.04999999999995
 20
29.76240637669999
 30
0.0
 11
42.79999999999995
 21
30.12325029490002
 31
0.0
  0
LINE
  5
100D
  8
3
 10
42.79999999999995
 20
26.34160603170001
 30
0.0
 11
42.79999999999995
 21
27.7849817047
 31
0.0
  0
LINE
  5
100E
  8
3
 10
41.54999999999995
 20
29.04071854019999
 30
0.0
 11
42.79999999999995
 21
28.67987462200001
 31
0.0
  0
LINE
  5
100F
  8
3
 10
41.54999999999995
 20
26.70244994999997
 30
0.0
 11
42.79999999999995
 21
26.34160603170001
 31
0.0
  0
LINE
  5
1010
  8
3
 10
44.04999999999995
 20
29.04071854019999
 30
0.0
 11
42.79999999999995
 21
28.67987462200001
 31
0.0
  0
LINE
  5
1011
  8
3
 10
44.04999999999995
 20
26.70244994999997
 30
0.0
 11
42.79999999999995
 21
26.34160603170001
 31
0.0
  0
POLYLINE
  5
1012
  8
3
 66
     1
 10
0.0
 20
0.0
 30
0.0
  0
VERTEX
  5
1D88
  8
3
 10
42.79999999999995
 20
-23.33041003580001
 30
0.0
  0
VERTEX
  5
1D89
  8
3
 10
43.3682240710998
 20
-23.3778199493
 30
0.0
  0
VERTEX
  5
1D8A
  8
3
 10
43.87487224719985
 20
-23.51491209010001
 30
0.0
  0
VERTEX
  5
1D8B
  8
3
 10
44.26504133689991
 20
-23.72683039750001
 30
0.0
  0
VERTEX
  5
1D8C
  8
3
 10
44.4964504653999
 20
-23.99061023460001
 30
0.0
  0
VERTEX
  5
1D8D
  8
3
 10
44.54402286269988
 20
-24.2776669631
 30
0.0
  0
VERTEX
  5
1D8E
  8
3
 10
44.40260332159983
 20
-24.55689353240001
 30
0.0
  0
VERTEX
  5
1D8F
  8
3
 10
44.08751684369986
 20
-24.79803141100001
 30
0.0
  0
VERTEX
  5
1D90
  8
3
 10
43.63290793779993
 20
-24.9749495681
 30
0.0
  0
VERTEX
  5
1D91
  8
3
 10
43.08804053299991
 20
-25.06847617630001
 30
0.0
  0
VERTEX
  5
1D92
  8
3
 10
42.511959467
 20
-25.06847617630001
 30
0.0
  0
VERTEX
  5
1D93
  8
3
 10
41.96709206219998
 20
-24.9749495681
 30
0.0
  0
VERTEX
  5
1D94
  8
3
 10
41.51248315629982
 20
-24.79803141100001
 30
0.0
  0
VERTEX
  5
1D95
  8
3
 10
41.19739667829981
 20
-24.55689353240001
 30
0.0
  0
VERTEX
  5
1D96
  8
3
 10
41.05597713719999
 20
-24.2776669631
 30
0.0
  0
VERTEX
  5
1D97
  8
3
 10
41.10354953460001
 20
-23.99061023460001
 30
0.0
  0
VERTEX
  5
1D98
  8
3
 10
41.33495866299995
 20
-23.72683039750001
 30
0.0
  0
VERTEX
  5
1D99
  8
3
 10
41.72512775279984
 20
-23.51491209010001
 30
0.0
  0
VERTEX
  5
1D9A
  8
3
 10
42.23177592889988
 20
-23.3778199493
 30
0.0
  0
VERTEX
  5
1D9B
  8
3
 10
42.79999999999995
 20
-23.33041003580001
 30
0.0
  0
SEQEND
  5
1FFB
  8
3
  0
POLYLINE
  5
1013
  8
3
 66
     1
 10
0.0
 20
0.0
 30
0.0
  0
VERTEX
  5
1D9C
  8
3
 10
45.11673274340001
 20
-24.69621498880001
 30
0.0
  0
VERTEX
  5
1D9D
  8
3
 10
45.02288878909985
 20
-25.02256450850001
 30
0.0
  0
VERTEX
  5
1D9E
  8
3
 10
44.74895960499998
 20
-25.3224751309
 30
0.0
  0
VERTEX
  5
1D9F
  8
3
 10
44.31713730469983
 20
-25.5716498812
 30
0.0
  0
VERTEX
  5
1DA0
  8
3
 10
43.7624055627
 20
-25.74990210290001
 30
0.0
  0
VERTEX
  5
1DA1
  8
3
 10
43.12970544569998
 20
-25.84279086110001
 30
0.0
  0
VERTEX
  5
1DA2
  8
3
 10
42.47029455429993
 20
-25.84279086110001
 30
0.0
  0
VERTEX
  5
1DA3
  8
3
 10
41.83759443719987
 20
-25.74990210290001
 30
0.0
  0
VERTEX
  5
1DA4
  8
3
 10
41.28286269519981
 20
-25.5716498812
 30
0.0
  0
VERTEX
  5
1DA5
  8
3
 10
40.85104039489988
 20
-25.3224751309
 30
0.0
  0
VERTEX
  5
1DA6
  8
3
 10
40.57711121089983
 20
-25.02256450850001
 30
0.0
  0
VERTEX
  5
1DA7
  8
3
 10
40.48326725649986
 20
-24.69621498880001
 30
0.0
  0
VERTEX
  5
1DA8
  8
3
 10
40.57711121089983
 20
-24.36986546910001
 30
0.0
  0
VERTEX
  5
1DA9
  8
3
 10
40.85104039489988
 20
-24.06995484670001
 30
0.0
  0
VERTEX
  5
1DAA
  8
3
 10
41.28286269519981
 20
-23.82078009640001
 30
0.0
  0
VERTEX
  5
1DAB
  8
3
 10
41.83759443719987
 20
-23.64252787470001
 30
0.0
  0
VERTEX
  5
1DAC
  8
3
 10
42.47029455429993
 20
-23.5496391165
 30
0.0
  0
VERTEX
  5
1DAD
  8
3
 10
43.12970544569998
 20
-23.5496391165
 30
0.0
  0
VERTEX
  5
1DAE
  8
3
 10
43.7624055627
 20
-23.64252787470001
 30
0.0
  0
VERTEX
  5
1DAF
  8
3
 10
44.31713730469983
 20
-23.82078009640001
 30
0.0
  0
VERTEX
  5
1DB0
  8
3
 10
44.74895960499998
 20
-24.06995484670001
 30
0.0
  0
VERTEX
  5
1DB1
  8
3
 10
45.02288878909985
 20
-24.36986546910001
 30
0.0
  0
VERTEX
  5
1DB2
  8
3
 10
45.11673274340001
 20
-24.69621498880001
 30
0.0
  0
SEQEND
  5
1FFA
  8
3
  0
POLYLINE
  5
1014
  8
3
 66
     1
 10
0.0
 20
0.0
 30
0.0
  0
VERTEX
  5
1DB3
  8
3
 10
40.74499999999989
 20
-24.8549290743
 30
0.0
  0
VERTEX
  5
1DB4
  8
3
 10
40.83629788409985
 20
-24.55206813260001
 30
0.0
  0
VERTEX
  5
1DB5
  8
3
 10
41.10207931879995
 20
-24.27611771460001
 30
0.0
  0
VERTEX
  5
1DB6
  8
3
 10
41.51872845719981
 20
-24.05159722600001
 30
0.0
  0
VERTEX
  5
1DB7
  8
3
 10
42.04922419489981
 20
-23.89845629760001
 30
0.0
  0
VERTEX
  5
1DB8
  8
3
 10
42.64642965769985
 20
-23.8303021727
 30
0.0
  0
VERTEX
  5
1DB9
  8
3
 10
43.25728051929991
 20
-23.8531906445
 30
0.0
  0
VERTEX
  5
1DBA
  8
3
 10
43.82749999999987
 20
-23.9650879719
 30
0.0
  0
VERTEX
  5
1DBB
  8
3
 10
44.30642159659988
 20
-24.15605158620001
 30
0.0
  0
VERTEX
  5
1DBC
  8
3
 10
44.65149102349983
 20
-24.40911353230001
 30
0.0
  0
VERTEX
  5
1DBD
  8
3
 10
44.83204734790002
 20
-24.70178814580001
 30
0.0
  0
VERTEX
  5
1DBE
  8
3
 10
44.83204734790002
 20
-25.00807000280001
 30
0.0
  0
VERTEX
  5
1DBF
  8
3
 10
44.65149102349983
 20
-25.30074461620001
 30
0.0
  0
VERTEX
  5
1DC0
  8
3
 10
44.30642159659988
 20
-25.55380656230001
 30
0.0
  0
VERTEX
  5
1DC1
  8
3
 10
43.82749999999987
 20
-25.7447701767
 30
0.0
  0
VERTEX
  5
1DC2
  8
3
 10
43.25728051929991
 20
-25.8566675041
 30
0.0
  0
VERTEX
  5
1DC3
  8
3
 10
42.64642965769985
 20
-25.8795559759
 30
0.0
  0
VERTEX
  5
1DC4
  8
3
 10
42.04922419489981
 20
-25.81140185100001
 30
0.0
  0
VERTEX
  5
1DC5
  8
3
 10
41.51872845719981
 20
-25.65826092250001
 30
0.0
  0
VERTEX
  5
1DC6
  8
3
 10
41.10207931879995
 20
-25.43374043390001
 30
0.0
  0
VERTEX
  5
1DC7
  8
3
 10
40.83629788409985
 20
-25.15779001600001
 30
0.0
  0
VERTEX
  5
1DC8
  8
3
 10
40.74499999999989
 20
-24.8549290743
 30
0.0
  0
SEQEND
  5
1FF9
  8
3
  0
POLYLINE
  5
1015
  8
3
 66
     1
 10
0.0
 20
0.0
 30
0.0
  0
VERTEX
  5
1DC9
  8
3
 10
40.29999999999995
 20
-25.12477596890001
 30
0.0
  0
VERTEX
  5
1DCA
  8
3
 10
40.39270678159983
 20
-24.78753000500001
 30
0.0
  0
VERTEX
  5
1DCB
  8
3
 10
40.66395148859988
 20
-24.47529603140001
 30
0.0
  0
VERTEX
  5
1DCC
  8
3
 10
41.09361714189981
 20
-24.21123101360001
 30
0.0
  0
VERTEX
  5
1DCD
  8
3
 10
41.64983740560001
 20
-24.01491944590001
 30
0.0
  0
VERTEX
  5
1DCE
  8
3
 10
42.29135996729997
 20
-23.9009208593
 30
0.0
  0
VERTEX
  5
1DCF
  8
3
 10
42.97060603339992
 20
-23.87769000740001
 30
0.0
  0
VERTEX
  5
1DD0
  8
3
 10
43.63719903039987
 20
-23.94694981630001
 30
0.0
  0
VERTEX
  5
1DD1
  8
3
 10
44.24170080529984
 20
-24.1035636026
 30
0.0
  0
VERTEX
  5
1DD2
  8
3
 10
44.73927822669998
 20
-24.3359160385
 30
0.0
  0
VERTEX
  5
1DD3
  8
3
 10
45.09302825369991
 20
-24.62677460660001
 30
0.0
  0
VERTEX
  5
1DD4
  8
3
 10
45.27671486509985
 20
-24.95456765750001
 30
0.0
  0
VERTEX
  5
1DD5
  8
3
 10
45.27671486509985
 20
-25.29498428030001
 30
0.0
  0
VERTEX
  5
1DD6
  8
3
 10
45.09302825369991
 20
-25.62277733120001
 30
0.0
  0
VERTEX
  5
1DD7
  8
3
 10
44.73927822669998
 20
-25.9136358993
 30
0.0
  0
VERTEX
  5
1DD8
  8
3
 10
44.24170080529984
 20
-26.1459883352
 30
0.0
  0
VERTEX
  5
1DD9
  8
3
 10
43.63719903039987
 20
-26.3026021216
 30
0.0
  0
VERTEX
  5
1DDA
  8
3
 10
42.97060603339992
 20
-26.3718619304
 30
0.0
  0
VERTEX
  5
1DDB
  8
3
 10
42.29135996729997
 20
-26.34863107850001
 30
0.0
  0
VERTEX
  5
1DDC
  8
3
 10
41.64983740560001
 20
-26.2346324919
 30
0.0
  0
VERTEX
  5
1DDD
  8
3
 10
41.09361714189981
 20
-26.03832092430001
 30
0.0
  0
VERTEX
  5
1DDE
  8
3
 10
40.66395148859988
 20
-25.7742559065
 30
0.0
  0
VERTEX
  5
1DDF
  8
3
 10
40.39270678159983
 20
-25.4620219329
 30
0.0
  0
VERTEX
  5
1DE0
  8
3
 10
40.29999999999995
 20
-25.12477596890001
 30
0.0
  0
SEQEND
  5
1FF8
  8
3
  0
POLYLINE
  5
1016
  8
3
 66
     1
 10
0.0
 20
0.0
 30
0.0
  0
VERTEX
  5
1DE1
  8
3
 10
40.29999999999995
 20
-25.20281552030001
 30
0.0
  0
VERTEX
  5
1DE2
  8
3
 10
40.39270678159983
 20
-24.8655695563
 30
0.0
  0
VERTEX
  5
1DE3
  8
3
 10
40.66395148859988
 20
-24.5533355827
 30
0.0
  0
VERTEX
  5
1DE4
  8
3
 10
41.09361714189981
 20
-24.28927056490001
 30
0.0
  0
VERTEX
  5
1DE5
  8
3
 10
41.64983740560001
 20
-24.0929589973
 30
0.0
  0
VERTEX
  5
1DE6
  8
3
 10
42.29135996729997
 20
-23.97896041070001
 30
0.0
  0
VERTEX
  5
1DE7
  8
3
 10
42.97060603339992
 20
-23.9557295588
 30
0.0
  0
VERTEX
  5
1DE8
  8
3
 10
43.63719903039987
 20
-24.02498936760001
 30
0.0
  0
VERTEX
  5
1DE9
  8
3
 10
44.24170080529984
 20
-24.181603154
 30
0.0
  0
VERTEX
  5
1DEA
  8
3
 10
44.73927822669998
 20
-24.41395558990001
 30
0.0
  0
VERTEX
  5
1DEB
  8
3
 10
45.09302825369991
 20
-24.704814158
 30
0.0
  0
VERTEX
  5
1DEC
  8
3
 10
45.27671486509985
 20
-25.0326072089
 30
0.0
  0
VERTEX
  5
1DED
  8
3
 10
45.27671486509985
 20
-25.37302383160001
 30
0.0
  0
VERTEX
  5
1DEE
  8
3
 10
45.09302825369991
 20
-25.70081688260001
 30
0.0
  0
VERTEX
  5
1DEF
  8
3
 10
44.73927822669998
 20
-25.9916754507
 30
0.0
  0
VERTEX
  5
1DF0
  8
3
 10
44.24170080529984
 20
-26.22402788650001
 30
0.0
  0
VERTEX
  5
1DF1
  8
3
 10
43.63719903039987
 20
-26.38064167290001
 30
0.0
  0
VERTEX
  5
1DF2
  8
3
 10
42.97060603339992
 20
-26.44990148180001
 30
0.0
  0
VERTEX
  5
1DF3
  8
3
 10
42.29135996729997
 20
-26.4266706299
 30
0.0
  0
VERTEX
  5
1DF4
  8
3
 10
41.64983740560001
 20
-26.31267204330001
 30
0.0
  0
VERTEX
  5
1DF5
  8
3
 10
41.09361714189981
 20
-26.1163604756
 30
0.0
  0
VERTEX
  5
1DF6
  8
3
 10
40.66395148859988
 20
-25.85229545780001
 30
0.0
  0
VERTEX
  5
1DF7
  8
3
 10
40.39270678159983
 20
-25.54006148420001
 30
0.0
  0
VERTEX
  5
1DF8
  8
3
 10
40.29999999999995
 20
-25.20281552030001
 30
0.0
  0
SEQEND
  5
1FF7
  8
3
  0
POLYLINE
  5
1017
  8
3
 66
     1
 10
0.0
 20
0.0
 30
0.0
  0
VERTEX
  5
1DF9
  8
3
 10
40.74499999999989
 20
-25.4726624149
 30
0.0
  0
VERTEX
  5
1DFA
  8
3
 10
40.83629788409985
 20
-25.16980147320001
 30
0.0
  0
VERTEX
  5
1DFB
  8
3
 10
41.10207931879995
 20
-24.8938510552
 30
0.0
  0
VERTEX
  5
1DFC
  8
3
 10
41.51872845719981
 20
-24.66933056670001
 30
0.0
  0
VERTEX
  5
1DFD
  8
3
 10
42.04922419489981
 20
-24.5161896382
 30
0.0
  0
VERTEX
  5
1DFE
  8
3
 10
42.64642965769985
 20
-24.44803551330001
 30
0.0
  0
VERTEX
  5
1DFF
  8
3
 10
43.25728051929991
 20
-24.4709239851
 30
0.0
  0
VERTEX
  5
1E00
  8
3
 10
43.82749999999987
 20
-24.5828213125
 30
0.0
  0
VERTEX
  5
1E01
  8
3
 10
44.30642159659988
 20
-24.7737849268
 30
0.0
  0
VERTEX
  5
1E02
  8
3
 10
44.65149102349983
 20
-25.02684687290001
 30
0.0
  0
VERTEX
  5
1E03
  8
3
 10
44.83204734790002
 20
-25.31952148640001
 30
0.0
  0
VERTEX
  5
1E04
  8
3
 10
44.83204734790002
 20
-25.62580334340001
 30
0.0
  0
VERTEX
  5
1E05
  8
3
 10
44.65149102349983
 20
-25.9184779568
 30
0.0
  0
VERTEX
  5
1E06
  8
3
 10
44.30642159659988
 20
-26.17153990290001
 30
0.0
  0
VERTEX
  5
1E07
  8
3
 10
43.82749999999987
 20
-26.36250351730001
 30
0.0
  0
VERTEX
  5
1E08
  8
3
 10
43.25728051929991
 20
-26.47440084470001
 30
0.0
  0
VERTEX
  5
1E09
  8
3
 10
42.64642965769985
 20
-26.4972893165
 30
0.0
  0
VERTEX
  5
1E0A
  8
3
 10
42.04922419489981
 20
-26.42913519160001
 30
0.0
  0
VERTEX
  5
1E0B
  8
3
 10
41.51872845719981
 20
-26.2759942631
 30
0.0
  0
VERTEX
  5
1E0C
  8
3
 10
41.10207931879995
 20
-26.05147377460001
 30
0.0
  0
VERTEX
  5
1E0D
  8
3
 10
40.83629788409985
 20
-25.7755233566
 30
0.0
  0
VERTEX
  5
1E0E
  8
3
 10
40.74499999999989
 20
-25.4726624149
 30
0.0
  0
SEQEND
  5
1FF6
  8
3
  0
POLYLINE
  5
1018
  8
3
 66
     1
 10
0.0
 20
0.0
 30
0.0
  0
VERTEX
  5
1E0F
  8
3
 10
40.29999999999995
 20
-25.74250930950001
 30
0.0
  0
VERTEX
  5
1E10
  8
3
 10
40.39270678159983
 20
-25.40526334560001
 30
0.0
  0
VERTEX
  5
1E11
  8
3
 10
40.66395148859988
 20
-25.093029372
 30
0.0
  0
VERTEX
  5
1E12
  8
3
 10
41.09361714189981
 20
-24.82896435420001
 30
0.0
  0
VERTEX
  5
1E13
  8
3
 10
41.64983740560001
 20
-24.6326527865
 30
0.0
  0
VERTEX
  5
1E14
  8
3
 10
42.29135996729997
 20
-24.51865419990001
 30
0.0
  0
VERTEX
  5
1E15
  8
3
 10
42.97060603339992
 20
-24.495423348
 30
0.0
  0
VERTEX
  5
1E16
  8
3
 10
43.63719903039987
 20
-24.5646831569
 30
0.0
  0
VERTEX
  5
1E17
  8
3
 10
44.24170080529984
 20
-24.7212969433
 30
0.0
  0
VERTEX
  5
1E18
  8
3
 10
44.73927822669998
 20
-24.95364937910001
 30
0.0
  0
VERTEX
  5
1E19
  8
3
 10
45.09302825369991
 20
-25.24450794720001
 30
0.0
  0
VERTEX
  5
1E1A
  8
3
 10
45.27671486509985
 20
-25.5723009981
 30
0.0
  0
VERTEX
  5
1E1B
  8
3
 10
45.27671486509985
 20
-25.91271762090001
 30
0.0
  0
VERTEX
  5
1E1C
  8
3
 10
45.09302825369991
 20
-26.24051067180001
 30
0.0
  0
VERTEX
  5
1E1D
  8
3
 10
44.73927822669998
 20
-26.5313692399
 30
0.0
  0
VERTEX
  5
1E1E
  8
3
 10
44.24170080529984
 20
-26.76372167580001
 30
0.0
  0
VERTEX
  5
1E1F
  8
3
 10
43.63719903039987
 20
-26.9203354622
 30
0.0
  0
VERTEX
  5
1E20
  8
3
 10
42.97060603339992
 20
-26.98959527100001
 30
0.0
  0
VERTEX
  5
1E21
  8
3
 10
42.29135996729997
 20
-26.9663644191
 30
0.0
  0
VERTEX
  5
1E22
  8
3
 10
41.64983740560001
 20
-26.85236583250001
 30
0.0
  0
VERTEX
  5
1E23
  8
3
 10
41.09361714189981
 20
-26.65605426490001
 30
0.0
  0
VERTEX
  5
1E24
  8
3
 10
40.66395148859988
 20
-26.39198924710001
 30
0.0
  0
VERTEX
  5
1E25
  8
3
 10
40.39270678159983
 20
-26.07975527350001
 30
0.0
  0
VERTEX
  5
1E26
  8
3
 10
40.29999999999995
 20
-25.74250930950001
 30
0.0
  0
SEQEND
  5
1FF5
  8
3
  0
POLYLINE
  5
1019
  8
3
 66
     1
 10
0.0
 20
0.0
 30
0.0
  0
VERTEX
  5
1E27
  8
3
 10
40.29999999999995
 20
-25.8205488609
 30
0.0
  0
VERTEX
  5
1E28
  8
3
 10
40.39270678159983
 20
-25.48330289690001
 30
0.0
  0
VERTEX
  5
1E29
  8
3
 10
40.66395148859988
 20
-25.17106892330001
 30
0.0
  0
VERTEX
  5
1E2A
  8
3
 10
41.09361714189981
 20
-24.90700390550001
 30
0.0
  0
VERTEX
  5
1E2B
  8
3
 10
41.64983740560001
 20
-24.71069233790001
 30
0.0
  0
VERTEX
  5
1E2C
  8
3
 10
42.29135996729997
 20
-24.59669375130001
 30
0.0
  0
VERTEX
  5
1E2D
  8
3
 10
42.97060603339992
 20
-24.57346289940001
 30
0.0
  0
VERTEX
  5
1E2E
  8
3
 10
43.63719903039987
 20
-24.64272270820001
 30
0.0
  0
VERTEX
  5
1E2F
  8
3
 10
44.24170080529984
 20
-24.79933649460001
 30
0.0
  0
VERTEX
  5
1E30
  8
3
 10
44.73927822669998
 20
-25.03168893050001
 30
0.0
  0
VERTEX
  5
1E31
  8
3
 10
45.09302825369991
 20
-25.3225474986
 30
0.0
  0
VERTEX
  5
1E32
  8
3
 10
45.27671486509985
 20
-25.6503405495
 30
0.0
  0
VERTEX
  5
1E33
  8
3
 10
45.27671486509985
 20
-25.99075717220001
 30
0.0
  0
VERTEX
  5
1E34
  8
3
 10
45.09302825369991
 20
-26.31855022320001
 30
0.0
  0
VERTEX
  5
1E35
  8
3
 10
44.73927822669998
 20
-26.60940879130001
 30
0.0
  0
VERTEX
  5
1E36
  8
3
 10
44.24170080529984
 20
-26.84176122710001
 30
0.0
  0
VERTEX
  5
1E37
  8
3
 10
43.63719903039987
 20
-26.99837501350001
 30
0.0
  0
VERTEX
  5
1E38
  8
3
 10
42.97060603339992
 20
-27.06763482240001
 30
0.0
  0
VERTEX
  5
1E39
  8
3
 10
42.29135996729997
 20
-27.04440397050001
 30
0.0
  0
VERTEX
  5
1E3A
  8
3
 10
41.64983740560001
 20
-26.93040538390001
 30
0.0
  0
VERTEX
  5
1E3B
  8
3
 10
41.09361714189981
 20
-26.7340938162
 30
0.0
  0
VERTEX
  5
1E3C
  8
3
 10
40.66395148859988
 20
-26.47002879840001
 30
0.0
  0
VERTEX
  5
1E3D
  8
3
 10
40.39270678159983
 20
-26.15779482480001
 30
0.0
  0
VERTEX
  5
1E3E
  8
3
 10
40.29999999999995
 20
-25.8205488609
 30
0.0
  0
SEQEND
  5
1FF4
  8
3
  0
POLYLINE
  5
101A
  8
3
 66
     1
 10
0.0
 20
0.0
 30
0.0
  0
VERTEX
  5
1E3F
  8
3
 10
40.74499999999989
 20
-26.09039575550001
 30
0.0
  0
VERTEX
  5
1E40
  8
3
 10
40.83629788409985
 20
-25.78753481380001
 30
0.0
  0
VERTEX
  5
1E41
  8
3
 10
41.10207931879995
 20
-25.51158439580001
 30
0.0
  0
VERTEX
  5
1E42
  8
3
 10
41.51872845719981
 20
-25.28706390730001
 30
0.0
  0
VERTEX
  5
1E43
  8
3
 10
42.04922419489981
 20
-25.1339229788
 30
0.0
  0
VERTEX
  5
1E44
  8
3
 10
42.64642965769985
 20
-25.06576885390001
 30
0.0
  0
VERTEX
  5
1E45
  8
3
 10
43.25728051929991
 20
-25.08865732570001
 30
0.0
  0
VERTEX
  5
1E46
  8
3
 10
43.82749999999987
 20
-25.20055465310001
 30
0.0
  0
VERTEX
  5
1E47
  8
3
 10
44.30642159659988
 20
-25.3915182674
 30
0.0
  0
VERTEX
  5
1E48
  8
3
 10
44.65149102349983
 20
-25.64458021360001
 30
0.0
  0
VERTEX
  5
1E49
  8
3
 10
44.83204734790002
 20
-25.937254827
 30
0.0
  0
VERTEX
  5
1E4A
  8
3
 10
44.83204734790002
 20
-26.24353668400001
 30
0.0
  0
VERTEX
  5
1E4B
  8
3
 10
44.65149102349983
 20
-26.5362112974
 30
0.0
  0
VERTEX
  5
1E4C
  8
3
 10
44.30642159659988
 20
-26.78927324360001
 30
0.0
  0
VERTEX
  5
1E4D
  8
3
 10
43.82749999999987
 20
-26.98023685790001
 30
0.0
  0
VERTEX
  5
1E4E
  8
3
 10
43.25728051929991
 20
-27.09213418530001
 30
0.0
  0
VERTEX
  5
1E4F
  8
3
 10
42.64642965769985
 20
-27.11502265710001
 30
0.0
  0
VERTEX
  5
1E50
  8
3
 10
42.04922419489981
 20
-27.04686853220001
 30
0.0
  0
VERTEX
  5
1E51
  8
3
 10
41.51872845719981
 20
-26.8937276037
 30
0.0
  0
VERTEX
  5
1E52
  8
3
 10
41.10207931879995
 20
-26.66920711520001
 30
0.0
  0
VERTEX
  5
1E53
  8
3
 10
40.83629788409985
 20
-26.3932566972
 30
0.0
  0
VERTEX
  5
1E54
  8
3
 10
40.74499999999989
 20
-26.09039575550001
 30
0.0
  0
SEQEND
  5
1FF3
  8
3
  0
POLYLINE
  5
101B
  8
3
 66
     1
 10
0.0
 20
0.0
 30
0.0
  0
VERTEX
  5
1E55
  8
3
 10
40.29999999999995
 20
-26.36024265010001
 30
0.0
  0
VERTEX
  5
1E56
  8
3
 10
40.39270678159983
 20
-26.0229966862
 30
0.0
  0
VERTEX
  5
1E57
  8
3
 10
40.66395148859988
 20
-25.7107627126
 30
0.0
  0
VERTEX
  5
1E58
  8
3
 10
41.09361714189981
 20
-25.44669769480001
 30
0.0
  0
VERTEX
  5
1E59
  8
3
 10
41.64983740560001
 20
-25.2503861271
 30
0.0
  0
VERTEX
  5
1E5A
  8
3
 10
42.29135996729997
 20
-25.13638754050001
 30
0.0
  0
VERTEX
  5
1E5B
  8
3
 10
42.97060603339992
 20
-25.11315668860001
 30
0.0
  0
VERTEX
  5
1E5C
  8
3
 10
43.63719903039987
 20
-25.18241649750001
 30
0.0
  0
VERTEX
  5
1E5D
  8
3
 10
44.24170080529984
 20
-25.3390302839
 30
0.0
  0
VERTEX
  5
1E5E
  8
3
 10
44.73927822669998
 20
-25.57138271970001
 30
0.0
  0
VERTEX
  5
1E5F
  8
3
 10
45.09302825369991
 20
-25.8622412878
 30
0.0
  0
VERTEX
  5
1E60
  8
3
 10
45.27671486509985
 20
-26.1900343387
 30
0.0
  0
VERTEX
  5
1E61
  8
3
 10
45.27671486509985
 20
-26.53045096150001
 30
0.0
  0
VERTEX
  5
1E62
  8
3
 10
45.09302825369991
 20
-26.85824401240001
 30
0.0
  0
VERTEX
  5
1E63
  8
3
 10
44.73927822669998
 20
-27.14910258050001
 30
0.0
  0
VERTEX
  5
1E64
  8
3
 10
44.24170080529984
 20
-27.38145501640001
 30
0.0
  0
VERTEX
  5
1E65
  8
3
 10
43.63719903039987
 20
-27.53806880280001
 30
0.0
  0
VERTEX
  5
1E66
  8
3
 10
42.97060603339992
 20
-27.60732861160001
 30
0.0
  0
VERTEX
  5
1E67
  8
3
 10
42.29135996729997
 20
-27.5840977597
 30
0.0
  0
VERTEX
  5
1E68
  8
3
 10
41.64983740560001
 20
-27.47009917310001
 30
0.0
  0
VERTEX
  5
1E69
  8
3
 10
41.09361714189981
 20
-27.2737876055
 30
0.0
  0
VERTEX
  5
1E6A
  8
3
 10
40.66395148859988
 20
-27.00972258770001
 30
0.0
  0
VERTEX
  5
1E6B
  8
3
 10
40.39270678159983
 20
-26.69748861410001
 30
0.0
  0
VERTEX
  5
1E6C
  8
3
 10
40.29999999999995
 20
-26.36024265010001
 30
0.0
  0
SEQEND
  5
1FF2
  8
3
  0
POLYLINE
  5
101C
  8
3
 66
     1
 10
0.0
 20
0.0
 30
0.0
  0
VERTEX
  5
1E6D
  8
3
 10
40.29999999999995
 20
-26.4382822015
 30
0.0
  0
VERTEX
  5
1E6E
  8
3
 10
40.39270678159983
 20
-26.10103623750001
 30
0.0
  0
VERTEX
  5
1E6F
  8
3
 10
40.66395148859988
 20
-25.78880226390001
 30
0.0
  0
VERTEX
  5
1E70
  8
3
 10
41.09361714189981
 20
-25.5247372461
 30
0.0
  0
VERTEX
  5
1E71
  8
3
 10
41.64983740560001
 20
-25.32842567850001
 30
0.0
  0
VERTEX
  5
1E72
  8
3
 10
42.29135996729997
 20
-25.21442709190001
 30
0.0
  0
VERTEX
  5
1E73
  8
3
 10
42.97060603339992
 20
-25.19119624000001
 30
0.0
  0
VERTEX
  5
1E74
  8
3
 10
43.63719903039987
 20
-25.26045604880001
 30
0.0
  0
VERTEX
  5
1E75
  8
3
 10
44.24170080529984
 20
-25.41706983520001
 30
0.0
  0
VERTEX
  5
1E76
  8
3
 10
44.73927822669998
 20
-25.64942227110001
 30
0.0
  0
VERTEX
  5
1E77
  8
3
 10
45.09302825369991
 20
-25.94028083920001
 30
0.0
  0
VERTEX
  5
1E78
  8
3
 10
45.27671486509985
 20
-26.26807389010001
 30
0.0
  0
VERTEX
  5
1E79
  8
3
 10
45.27671486509985
 20
-26.6084905128
 30
0.0
  0
VERTEX
  5
1E7A
  8
3
 10
45.09302825369991
 20
-26.9362835638
 30
0.0
  0
VERTEX
  5
1E7B
  8
3
 10
44.73927822669998
 20
-27.22714213190001
 30
0.0
  0
VERTEX
  5
1E7C
  8
3
 10
44.24170080529984
 20
-27.45949456770001
 30
0.0
  0
VERTEX
  5
1E7D
  8
3
 10
43.63719903039987
 20
-27.61610835410001
 30
0.0
  0
VERTEX
  5
1E7E
  8
3
 10
42.97060603339992
 20
-27.68536816300001
 30
0.0
  0
VERTEX
  5
1E7F
  8
3
 10
42.29135996729997
 20
-27.66213731110001
 30
0.0
  0
VERTEX
  5
1E80
  8
3
 10
41.64983740560001
 20
-27.54813872450001
 30
0.0
  0
VERTEX
  5
1E81
  8
3
 10
41.09361714189981
 20
-27.35182715680001
 30
0.0
  0
VERTEX
  5
1E82
  8
3
 10
40.66395148859988
 20
-27.08776213900001
 30
0.0
  0
VERTEX
  5
1E83
  8
3
 10
40.39270678159983
 20
-26.7755281654
 30
0.0
  0
VERTEX
  5
1E84
  8
3
 10
40.29999999999995
 20
-26.4382822015
 30
0.0
  0
SEQEND
  5
1FF1
  8
3
  0
POLYLINE
  5
101D
  8
3
 66
     1
 10
0.0
 20
0.0
 30
0.0
  0
VERTEX
  5
1E85
  8
3
 10
40.74499999999989
 20
-26.70812909610001
 30
0.0
  0
VERTEX
  5
1E86
  8
3
 10
40.83629788409985
 20
-26.40526815440001
 30
0.0
  0
VERTEX
  5
1E87
  8
3
 10
41.10207931879995
 20
-26.12931773640001
 30
0.0
  0
VERTEX
  5
1E88
  8
3
 10
41.51872845719981
 20
-25.90479724790001
 30
0.0
  0
VERTEX
  5
1E89
  8
3
 10
42.04922419489981
 20
-25.75165631940001
 30
0.0
  0
VERTEX
  5
1E8A
  8
3
 10
42.64642965769985
 20
-25.68350219450001
 30
0.0
  0
VERTEX
  5
1E8B
  8
3
 10
43.25728051929991
 20
-25.70639066630001
 30
0.0
  0
VERTEX
  5
1E8C
  8
3
 10
43.82749999999987
 20
-25.81828799370001
 30
0.0
  0
VERTEX
  5
1E8D
  8
3
 10
44.30642159659988
 20
-26.00925160800001
 30
0.0
  0
VERTEX
  5
1E8E
  8
3
 10
44.65149102349983
 20
-26.26231355420001
 30
0.0
  0
VERTEX
  5
1E8F
  8
3
 10
44.83204734790002
 20
-26.5549881676
 30
0.0
  0
VERTEX
  5
1E90
  8
3
 10
44.83204734790002
 20
-26.8612700246
 30
0.0
  0
VERTEX
  5
1E91
  8
3
 10
44.65149102349983
 20
-27.15394463800001
 30
0.0
  0
VERTEX
  5
1E92
  8
3
 10
44.30642159659988
 20
-27.4070065842
 30
0.0
  0
VERTEX
  5
1E93
  8
3
 10
43.82749999999987
 20
-27.59797019850001
 30
0.0
  0
VERTEX
  5
1E94
  8
3
 10
43.25728051929991
 20
-27.70986752590001
 30
0.0
  0
VERTEX
  5
1E95
  8
3
 10
42.64642965769985
 20
-27.73275599770001
 30
0.0
  0
VERTEX
  5
1E96
  8
3
 10
42.04922419489981
 20
-27.66460187280001
 30
0.0
  0
VERTEX
  5
1E97
  8
3
 10
41.51872845719981
 20
-27.51146094430001
 30
0.0
  0
VERTEX
  5
1E98
  8
3
 10
41.10207931879995
 20
-27.28694045580001
 30
0.0
  0
VERTEX
  5
1E99
  8
3
 10
40.83629788409985
 20
-27.01099003780001
 30
0.0
  0
VERTEX
  5
1E9A
  8
3
 10
40.74499999999989
 20
-26.70812909610001
 30
0.0
  0
SEQEND
  5
1FF0
  8
3
  0
POLYLINE
  5
101E
  8
3
 66
     1
 10
0.0
 20
0.0
 30
0.0
  0
VERTEX
  5
1E9B
  8
3
 10
40.29999999999995
 20
-26.9779759907
 30
0.0
  0
VERTEX
  5
1E9C
  8
3
 10
40.39270678159983
 20
-26.64073002680001
 30
0.0
  0
VERTEX
  5
1E9D
  8
3
 10
40.66395148859988
 20
-26.32849605320001
 30
0.0
  0
VERTEX
  5
1E9E
  8
3
 10
41.09361714189981
 20
-26.06443103540001
 30
0.0
  0
VERTEX
  5
1E9F
  8
3
 10
41.64983740560001
 20
-25.86811946770001
 30
0.0
  0
VERTEX
  5
1EA0
  8
3
 10
42.29135996729997
 20
-25.75412088110001
 30
0.0
  0
VERTEX
  5
1EA1
  8
3
 10
42.97060603339992
 20
-25.73089002920001
 30
0.0
  0
VERTEX
  5
1EA2
  8
3
 10
43.63719903039987
 20
-25.80014983810001
 30
0.0
  0
VERTEX
  5
1EA3
  8
3
 10
44.24170080529984
 20
-25.95676362450001
 30
0.0
  0
VERTEX
  5
1EA4
  8
3
 10
44.73927822669998
 20
-26.18911606030001
 30
0.0
  0
VERTEX
  5
1EA5
  8
3
 10
45.09302825369991
 20
-26.4799746284
 30
0.0
  0
VERTEX
  5
1EA6
  8
3
 10
45.27671486509985
 20
-26.8077676794
 30
0.0
  0
VERTEX
  5
1EA7
  8
3
 10
45.27671486509985
 20
-27.14818430210001
 30
0.0
  0
VERTEX
  5
1EA8
  8
3
 10
45.09302825369991
 20
-27.475977353
 30
0.0
  0
VERTEX
  5
1EA9
  8
3
 10
44.73927822669998
 20
-27.76683592110001
 30
0.0
  0
VERTEX
  5
1EAA
  8
3
 10
44.24170080529984
 20
-27.99918835700001
 30
0.0
  0
VERTEX
  5
1EAB
  8
3
 10
43.63719903039987
 20
-28.15580214340001
 30
0.0
  0
VERTEX
  5
1EAC
  8
3
 10
42.97060603339992
 20
-28.22506195220001
 30
0.0
  0
VERTEX
  5
1EAD
  8
3
 10
42.29135996729997
 20
-28.20183110030001
 30
0.0
  0
VERTEX
  5
1EAE
  8
3
 10
41.64983740560001
 20
-28.08783251370001
 30
0.0
  0
VERTEX
  5
1EAF
  8
3
 10
41.09361714189981
 20
-27.8915209461
 30
0.0
  0
VERTEX
  5
1EB0
  8
3
 10
40.66395148859988
 20
-27.62745592830001
 30
0.0
  0
VERTEX
  5
1EB1
  8
3
 10
40.39270678159983
 20
-27.31522195470001
 30
0.0
  0
VERTEX
  5
1EB2
  8
3
 10
40.29999999999995
 20
-26.9779759907
 30
0.0
  0
SEQEND
  5
1FEF
  8
3
  0
POLYLINE
  5
101F
  8
3
 66
     1
 10
0.0
 20
0.0
 30
0.0
  0
VERTEX
  5
1EB3
  8
3
 10
40.29999999999995
 20
-27.05601554210001
 30
0.0
  0
VERTEX
  5
1EB4
  8
3
 10
40.39270678159983
 20
-26.71876957810001
 30
0.0
  0
VERTEX
  5
1EB5
  8
3
 10
40.66395148859988
 20
-26.40653560450001
 30
0.0
  0
VERTEX
  5
1EB6
  8
3
 10
41.09361714189981
 20
-26.14247058670001
 30
0.0
  0
VERTEX
  5
1EB7
  8
3
 10
41.64983740560001
 20
-25.94615901910001
 30
0.0
  0
VERTEX
  5
1EB8
  8
3
 10
42.29135996729997
 20
-25.8321604325
 30
0.0
  0
VERTEX
  5
1EB9
  8
3
 10
42.97060603339992
 20
-25.80892958060001
 30
0.0
  0
VERTEX
  5
1EBA
  8
3
 10
43.63719903039987
 20
-25.87818938940001
 30
0.0
  0
VERTEX
  5
1EBB
  8
3
 10
44.24170080529984
 20
-26.03480317580001
 30
0.0
  0
VERTEX
  5
1EBC
  8
3
 10
44.73927822669998
 20
-26.26715561170001
 30
0.0
  0
VERTEX
  5
1EBD
  8
3
 10
45.09302825369991
 20
-26.55801417980001
 30
0.0
  0
VERTEX
  5
1EBE
  8
3
 10
45.27671486509985
 20
-26.88580723070001
 30
0.0
  0
VERTEX
  5
1EBF
  8
3
 10
45.27671486509985
 20
-27.2262238534
 30
0.0
  0
VERTEX
  5
1EC0
  8
3
 10
45.09302825369991
 20
-27.5540169044
 30
0.0
  0
VERTEX
  5
1EC1
  8
3
 10
44.73927822669998
 20
-27.84487547250001
 30
0.0
  0
VERTEX
  5
1EC2
  8
3
 10
44.24170080529984
 20
-28.0772279083
 30
0.0
  0
VERTEX
  5
1EC3
  8
3
 10
43.63719903039987
 20
-28.2338416947
 30
0.0
  0
VERTEX
  5
1EC4
  8
3
 10
42.97060603339992
 20
-28.3031015036
 30
0.0
  0
VERTEX
  5
1EC5
  8
3
 10
42.29135996729997
 20
-28.27987065170001
 30
0.0
  0
VERTEX
  5
1EC6
  8
3
 10
41.64983740560001
 20
-28.1658720651
 30
0.0
  0
VERTEX
  5
1EC7
  8
3
 10
41.09361714189981
 20
-27.96956049740001
 30
0.0
  0
VERTEX
  5
1EC8
  8
3
 10
40.66395148859988
 20
-27.7054954796
 30
0.0
  0
VERTEX
  5
1EC9
  8
3
 10
40.39270678159983
 20
-27.393261506
 30
0.0
  0
VERTEX
  5
1ECA
  8
3
 10
40.29999999999995
 20
-27.05601554210001
 30
0.0
  0
SEQEND
  5
1FEE
  8
3
  0
POLYLINE
  5
1020
  8
3
 66
     1
 10
0.0
 20
0.0
 30
0.0
  0
VERTEX
  5
1ECB
  8
3
 10
40.74499999999989
 20
-27.32586243670001
 30
0.0
  0
VERTEX
  5
1ECC
  8
3
 10
40.83629788409985
 20
-27.023001495
 30
0.0
  0
VERTEX
  5
1ECD
  8
3
 10
41.10207931879995
 20
-26.74705107700001
 30
0.0
  0
VERTEX
  5
1ECE
  8
3
 10
41.51872845719981
 20
-26.5225305885
 30
0.0
  0
VERTEX
  5
1ECF
  8
3
 10
42.04922419489981
 20
-26.36938966000001
 30
0.0
  0
VERTEX
  5
1ED0
  8
3
 10
42.64642965769985
 20
-26.30123553510001
 30
0.0
  0
VERTEX
  5
1ED1
  8
3
 10
43.25728051929991
 20
-26.32412400690001
 30
0.0
  0
VERTEX
  5
1ED2
  8
3
 10
43.82749999999987
 20
-26.43602133430001
 30
0.0
  0
VERTEX
  5
1ED3
  8
3
 10
44.30642159659988
 20
-26.62698494860001
 30
0.0
  0
VERTEX
  5
1ED4
  8
3
 10
44.65149102349983
 20
-26.8800468948
 30
0.0
  0
VERTEX
  5
1ED5
  8
3
 10
44.83204734790002
 20
-27.17272150820001
 30
0.0
  0
VERTEX
  5
1ED6
  8
3
 10
44.83204734790002
 20
-27.4790033652
 30
0.0
  0
VERTEX
  5
1ED7
  8
3
 10
44.65149102349983
 20
-27.77167797860001
 30
0.0
  0
VERTEX
  5
1ED8
  8
3
 10
44.30642159659988
 20
-28.0247399248
 30
0.0
  0
VERTEX
  5
1ED9
  8
3
 10
43.82749999999987
 20
-28.21570353910001
 30
0.0
  0
VERTEX
  5
1EDA
  8
3
 10
43.25728051929991
 20
-28.32760086650001
 30
0.0
  0
VERTEX
  5
1EDB
  8
3
 10
42.64642965769985
 20
-28.35048933830001
 30
0.0
  0
VERTEX
  5
1EDC
  8
3
 10
42.04922419489981
 20
-28.2823352134
 30
0.0
  0
VERTEX
  5
1EDD
  8
3
 10
41.51872845719981
 20
-28.12919428490001
 30
0.0
  0
VERTEX
  5
1EDE
  8
3
 10
41.10207931879995
 20
-27.9046737964
 30
0.0
  0
VERTEX
  5
1EDF
  8
3
 10
40.83629788409985
 20
-27.62872337840001
 30
0.0
  0
VERTEX
  5
1EE0
  8
3
 10
40.74499999999989
 20
-27.32586243670001
 30
0.0
  0
SEQEND
  5
1FED
  8
3
  0
POLYLINE
  5
1021
  8
3
 66
     1
 10
0.0
 20
0.0
 30
0.0
  0
VERTEX
  5
1EE1
  8
3
 10
40.29999999999995
 20
-27.59570933130001
 30
0.0
  0
VERTEX
  5
1EE2
  8
3
 10
40.39270678159983
 20
-27.25846336740001
 30
0.0
  0
VERTEX
  5
1EE3
  8
3
 10
40.66395148859988
 20
-26.94622939380001
 30
0.0
  0
VERTEX
  5
1EE4
  8
3
 10
41.09361714189981
 20
-26.682164376
 30
0.0
  0
VERTEX
  5
1EE5
  8
3
 10
41.64983740560001
 20
-26.48585280830001
 30
0.0
  0
VERTEX
  5
1EE6
  8
3
 10
42.29135996729997
 20
-26.3718542217
 30
0.0
  0
VERTEX
  5
1EE7
  8
3
 10
42.97060603339992
 20
-26.34862336980001
 30
0.0
  0
VERTEX
  5
1EE8
  8
3
 10
43.63719903039987
 20
-26.41788317870001
 30
0.0
  0
VERTEX
  5
1EE9
  8
3
 10
44.24170080529984
 20
-26.57449696510001
 30
0.0
  0
VERTEX
  5
1EEA
  8
3
 10
44.73927822669998
 20
-26.80684940090001
 30
0.0
  0
VERTEX
  5
1EEB
  8
3
 10
45.09302825369991
 20
-27.09770796900001
 30
0.0
  0
VERTEX
  5
1EEC
  8
3
 10
45.27671486509985
 20
-27.42550102000001
 30
0.0
  0
VERTEX
  5
1EED
  8
3
 10
45.27671486509985
 20
-27.7659176427
 30
0.0
  0
VERTEX
  5
1EEE
  8
3
 10
45.09302825369991
 20
-28.0937106936
 30
0.0
  0
VERTEX
  5
1EEF
  8
3
 10
44.73927822669998
 20
-28.38456926170001
 30
0.0
  0
VERTEX
  5
1EF0
  8
3
 10
44.24170080529984
 20
-28.61692169760001
 30
0.0
  0
VERTEX
  5
1EF1
  8
3
 10
43.63719903039987
 20
-28.77353548400001
 30
0.0
  0
VERTEX
  5
1EF2
  8
3
 10
42.97060603339992
 20
-28.84279529280001
 30
0.0
  0
VERTEX
  5
1EF3
  8
3
 10
42.29135996729997
 20
-28.81956444090001
 30
0.0
  0
VERTEX
  5
1EF4
  8
3
 10
41.64983740560001
 20
-28.7055658543
 30
0.0
  0
VERTEX
  5
1EF5
  8
3
 10
41.09361714189981
 20
-28.50925428670001
 30
0.0
  0
VERTEX
  5
1EF6
  8
3
 10
40.66395148859988
 20
-28.24518926890001
 30
0.0
  0
VERTEX
  5
1EF7
  8
3
 10
40.39270678159983
 20
-27.9329552953
 30
0.0
  0
VERTEX
  5
1EF8
  8
3
 10
40.29999999999995
 20
-27.59570933130001
 30
0.0
  0
SEQEND
  5
1FEC
  8
3
  0
POLYLINE
  5
1022
  8
3
 66
     1
 10
0.0
 20
0.0
 30
0.0
  0
VERTEX
  5
1EF9
  8
3
 10
40.29999999999995
 20
-27.67374888270001
 30
0.0
  0
VERTEX
  5
1EFA
  8
3
 10
40.39270678159983
 20
-27.33650291870001
 30
0.0
  0
VERTEX
  5
1EFB
  8
3
 10
40.66395148859988
 20
-27.0242689451
 30
0.0
  0
VERTEX
  5
1EFC
  8
3
 10
41.09361714189981
 20
-26.76020392730001
 30
0.0
  0
VERTEX
  5
1EFD
  8
3
 10
41.64983740560001
 20
-26.56389235970001
 30
0.0
  0
VERTEX
  5
1EFE
  8
3
 10
42.29135996729997
 20
-26.4498937731
 30
0.0
  0
VERTEX
  5
1EFF
  8
3
 10
42.97060603339992
 20
-26.42666292120001
 30
0.0
  0
VERTEX
  5
1F00
  8
3
 10
43.63719903039987
 20
-26.49592273
 30
0.0
  0
VERTEX
  5
1F01
  8
3
 10
44.24170080529984
 20
-26.6525365164
 30
0.0
  0
VERTEX
  5
1F02
  8
3
 10
44.73927822669998
 20
-26.8848889523
 30
0.0
  0
VERTEX
  5
1F03
  8
3
 10
45.09302825369991
 20
-27.17574752040001
 30
0.0
  0
VERTEX
  5
1F04
  8
3
 10
45.27671486509985
 20
-27.50354057130001
 30
0.0
  0
VERTEX
  5
1F05
  8
3
 10
45.27671486509985
 20
-27.84395719410001
 30
0.0
  0
VERTEX
  5
1F06
  8
3
 10
45.09302825369991
 20
-28.17175024500001
 30
0.0
  0
VERTEX
  5
1F07
  8
3
 10
44.73927822669998
 20
-28.4626088131
 30
0.0
  0
VERTEX
  5
1F08
  8
3
 10
44.24170080529984
 20
-28.6949612489
 30
0.0
  0
VERTEX
  5
1F09
  8
3
 10
43.63719903039987
 20
-28.8515750353
 30
0.0
  0
VERTEX
  5
1F0A
  8
3
 10
42.97060603339992
 20
-28.9208348442
 30
0.0
  0
VERTEX
  5
1F0B
  8
3
 10
42.29135996729997
 20
-28.89760399230001
 30
0.0
  0
VERTEX
  5
1F0C
  8
3
 10
41.64983740560001
 20
-28.7836054057
 30
0.0
  0
VERTEX
  5
1F0D
  8
3
 10
41.09361714189981
 20
-28.58729383800001
 30
0.0
  0
VERTEX
  5
1F0E
  8
3
 10
40.66395148859988
 20
-28.3232288202
 30
0.0
  0
VERTEX
  5
1F0F
  8
3
 10
40.39270678159983
 20
-28.01099484660001
 30
0.0
  0
VERTEX
  5
1F10
  8
3
 10
40.29999999999995
 20
-27.67374888270001
 30
0.0
  0
SEQEND
  5
1FEB
  8
3
  0
POLYLINE
  5
1023
  8
3
 66
     1
 10
0.0
 20
0.0
 30
0.0
  0
VERTEX
  5
1F11
  8
3
 10
40.74499999999989
 20
-27.9435957773
 30
0.0
  0
VERTEX
  5
1F12
  8
3
 10
40.83629788409985
 20
-27.64073483560001
 30
0.0
  0
VERTEX
  5
1F13
  8
3
 10
41.10207931879995
 20
-27.36478441760001
 30
0.0
  0
VERTEX
  5
1F14
  8
3
 10
41.51872845719981
 20
-27.1402639291
 30
0.0
  0
VERTEX
  5
1F15
  8
3
 10
42.04922419489981
 20
-26.98712300060001
 30
0.0
  0
VERTEX
  5
1F16
  8
3
 10
42.64642965769985
 20
-26.9189688757
 30
0.0
  0
VERTEX
  5
1F17
  8
3
 10
43.25728051929991
 20
-26.9418573475
 30
0.0
  0
VERTEX
  5
1F18
  8
3
 10
43.82749999999987
 20
-27.05375467490001
 30
0.0
  0
VERTEX
  5
1F19
  8
3
 10
44.30642159659988
 20
-27.24471828920001
 30
0.0
  0
VERTEX
  5
1F1A
  8
3
 10
44.65149102349983
 20
-27.4977802354
 30
0.0
  0
VERTEX
  5
1F1B
  8
3
 10
44.83204734790002
 20
-27.79045484880001
 30
0.0
  0
VERTEX
  5
1F1C
  8
3
 10
44.83204734790002
 20
-28.09673670580001
 30
0.0
  0
VERTEX
  5
1F1D
  8
3
 10
44.65149102349983
 20
-28.38941131930001
 30
0.0
  0
VERTEX
  5
1F1E
  8
3
 10
44.30642159659988
 20
-28.64247326540001
 30
0.0
  0
VERTEX
  5
1F1F
  8
3
 10
43.82749999999987
 20
-28.8334368797
 30
0.0
  0
VERTEX
  5
1F20
  8
3
 10
43.25728051929991
 20
-28.9453342071
 30
0.0
  0
VERTEX
  5
1F21
  8
3
 10
42.64642965769985
 20
-28.96822267890001
 30
0.0
  0
VERTEX
  5
1F22
  8
3
 10
42.04922419489981
 20
-28.900068554
 30
0.0
  0
VERTEX
  5
1F23
  8
3
 10
41.51872845719981
 20
-28.74692762550001
 30
0.0
  0
VERTEX
  5
1F24
  8
3
 10
41.10207931879995
 20
-28.522407137
 30
0.0
  0
VERTEX
  5
1F25
  8
3
 10
40.83629788409985
 20
-28.24645671900001
 30
0.0
  0
VERTEX
  5
1F26
  8
3
 10
40.74499999999989
 20
-27.9435957773
 30
0.0
  0
SEQEND
  5
1FEA
  8
3
  0
POLYLINE
  5
1024
  8
3
 66
     1
 10
0.0
 20
0.0
 30
0.0
  0
VERTEX
  5
1F27
  8
3
 10
40.29999999999995
 20
-28.21344267190001
 30
0.0
  0
VERTEX
  5
1F28
  8
3
 10
40.39270678159983
 20
-27.87619670800001
 30
0.0
  0
VERTEX
  5
1F29
  8
3
 10
40.66395148859988
 20
-27.56396273440001
 30
0.0
  0
VERTEX
  5
1F2A
  8
3
 10
41.09361714189981
 20
-27.2998977166
 30
0.0
  0
VERTEX
  5
1F2B
  8
3
 10
41.64983740560001
 20
-27.10358614890001
 30
0.0
  0
VERTEX
  5
1F2C
  8
3
 10
42.29135996729997
 20
-26.9895875623
 30
0.0
  0
VERTEX
  5
1F2D
  8
3
 10
42.97060603339992
 20
-26.96635671040001
 30
0.0
  0
VERTEX
  5
1F2E
  8
3
 10
43.63719903039987
 20
-27.03561651930001
 30
0.0
  0
VERTEX
  5
1F2F
  8
3
 10
44.24170080529984
 20
-27.19223030570001
 30
0.0
  0
VERTEX
  5
1F30
  8
3
 10
44.73927822669998
 20
-27.4245827415
 30
0.0
  0
VERTEX
  5
1F31
  8
3
 10
45.09302825369991
 20
-27.71544130960001
 30
0.0
  0
VERTEX
  5
1F32
  8
3
 10
45.27671486509985
 20
-28.04323436060001
 30
0.0
  0
VERTEX
  5
1F33
  8
3
 10
45.27671486509985
 20
-28.3836509833
 30
0.0
  0
VERTEX
  5
1F34
  8
3
 10
45.09302825369991
 20
-28.71144403420001
 30
0.0
  0
VERTEX
  5
1F35
  8
3
 10
44.73927822669998
 20
-29.00230260230001
 30
0.0
  0
VERTEX
  5
1F36
  8
3
 10
44.24170080529984
 20
-29.2346550382
 30
0.0
  0
VERTEX
  5
1F37
  8
3
 10
43.63719903039987
 20
-29.3912688246
 30
0.0
  0
VERTEX
  5
1F38
  8
3
 10
42.97060603339992
 20
-29.4605286334
 30
0.0
  0
VERTEX
  5
1F39
  8
3
 10
42.29135996729997
 20
-29.43729778150001
 30
0.0
  0
VERTEX
  5
1F3A
  8
3
 10
41.64983740560001
 20
-29.3232991949
 30
0.0
  0
VERTEX
  5
1F3B
  8
3
 10
41.09361714189981
 20
-29.12698762730001
 30
0.0
  0
VERTEX
  5
1F3C
  8
3
 10
40.66395148859988
 20
-28.8629226095
 30
0.0
  0
VERTEX
  5
1F3D
  8
3
 10
40.39270678159983
 20
-28.5506886359
 30
0.0
  0
VERTEX
  5
1F3E
  8
3
 10
40.29999999999995
 20
-28.21344267190001
 30
0.0
  0
SEQEND
  5
1FE9
  8
3
  0
POLYLINE
  5
1025
  8
3
 66
     1
 10
0.0
 20
0.0
 30
0.0
  0
VERTEX
  5
1F3F
  8
3
 10
40.29999999999995
 20
-28.29148222330001
 30
0.0
  0
VERTEX
  5
1F40
  8
3
 10
40.39270678159983
 20
-27.9542362593
 30
0.0
  0
VERTEX
  5
1F41
  8
3
 10
40.66395148859988
 20
-27.6420022857
 30
0.0
  0
VERTEX
  5
1F42
  8
3
 10
41.09361714189981
 20
-27.37793726790001
 30
0.0
  0
VERTEX
  5
1F43
  8
3
 10
41.64983740560001
 20
-27.1816257003
 30
0.0
  0
VERTEX
  5
1F44
  8
3
 10
42.29135996729997
 20
-27.06762711370001
 30
0.0
  0
VERTEX
  5
1F45
  8
3
 10
42.97060603339992
 20
-27.0443962618
 30
0.0
  0
VERTEX
  5
1F46
  8
3
 10
43.63719903039987
 20
-27.1136560706
 30
0.0
  0
VERTEX
  5
1F47
  8
3
 10
44.24170080529984
 20
-27.270269857
 30
0.0
  0
VERTEX
  5
1F48
  8
3
 10
44.73927822669998
 20
-27.50262229290001
 30
0.0
  0
VERTEX
  5
1F49
  8
3
 10
45.09302825369991
 20
-27.79348086100001
 30
0.0
  0
VERTEX
  5
1F4A
  8
3
 10
45.27671486509985
 20
-28.1212739119
 30
0.0
  0
VERTEX
  5
1F4B
  8
3
 10
45.27671486509985
 20
-28.46169053470001
 30
0.0
  0
VERTEX
  5
1F4C
  8
3
 10
45.09302825369991
 20
-28.78948358560001
 30
0.0
  0
VERTEX
  5
1F4D
  8
3
 10
44.73927822669998
 20
-29.0803421537
 30
0.0
  0
VERTEX
  5
1F4E
  8
3
 10
44.24170080529984
 20
-29.31269458960001
 30
0.0
  0
VERTEX
  5
1F4F
  8
3
 10
43.63719903039987
 20
-29.46930837590001
 30
0.0
  0
VERTEX
  5
1F50
  8
3
 10
42.97060603339992
 20
-29.53856818480001
 30
0.0
  0
VERTEX
  5
1F51
  8
3
 10
42.29135996729997
 20
-29.5153373329
 30
0.0
  0
VERTEX
  5
1F52
  8
3
 10
41.64983740560001
 20
-29.40133874630001
 30
0.0
  0
VERTEX
  5
1F53
  8
3
 10
41.09361714189981
 20
-29.20502717860001
 30
0.0
  0
VERTEX
  5
1F54
  8
3
 10
40.66395148859988
 20
-28.94096216080001
 30
0.0
  0
VERTEX
  5
1F55
  8
3
 10
40.39270678159983
 20
-28.62872818720001
 30
0.0
  0
VERTEX
  5
1F56
  8
3
 10
40.29999999999995
 20
-28.29148222330001
 30
0.0
  0
SEQEND
  5
1FE8
  8
3
  0
POLYLINE
  5
1026
  8
3
 66
     1
 10
0.0
 20
0.0
 30
0.0
  0
VERTEX
  5
1F57
  8
3
 10
40.74499999999989
 20
-28.5613291179
 30
0.0
  0
VERTEX
  5
1F58
  8
3
 10
40.83629788409985
 20
-28.25846817620001
 30
0.0
  0
VERTEX
  5
1F59
  8
3
 10
41.10207931879995
 20
-27.98251775830001
 30
0.0
  0
VERTEX
  5
1F5A
  8
3
 10
41.51872845719981
 20
-27.75799726970001
 30
0.0
  0
VERTEX
  5
1F5B
  8
3
 10
42.04922419489981
 20
-27.6048563412
 30
0.0
  0
VERTEX
  5
1F5C
  8
3
 10
42.64642965769985
 20
-27.53670221630001
 30
0.0
  0
VERTEX
  5
1F5D
  8
3
 10
43.25728051929991
 20
-27.5595906881
 30
0.0
  0
VERTEX
  5
1F5E
  8
3
 10
43.82749999999987
 20
-27.6714880155
 30
0.0
  0
VERTEX
  5
1F5F
  8
3
 10
44.30642159659988
 20
-27.86245162990001
 30
0.0
  0
VERTEX
  5
1F60
  8
3
 10
44.65149102349983
 20
-28.11551357600001
 30
0.0
  0
VERTEX
  5
1F61
  8
3
 10
44.83204734790002
 20
-28.40818818940001
 30
0.0
  0
VERTEX
  5
1F62
  8
3
 10
44.83204734790002
 20
-28.71447004640001
 30
0.0
  0
VERTEX
  5
1F63
  8
3
 10
44.65149102349983
 20
-29.00714465990001
 30
0.0
  0
VERTEX
  5
1F64
  8
3
 10
44.30642159659988
 20
-29.26020660600001
 30
0.0
  0
VERTEX
  5
1F65
  8
3
 10
43.82749999999987
 20
-29.45117022030001
 30
0.0
  0
VERTEX
  5
1F66
  8
3
 10
43.25728051929991
 20
-29.5630675477
 30
0.0
  0
VERTEX
  5
1F67
  8
3
 10
42.64642965769985
 20
-29.5859560195
 30
0.0
  0
VERTEX
  5
1F68
  8
3
 10
42.04922419489981
 20
-29.51780189460001
 30
0.0
  0
VERTEX
  5
1F69
  8
3
 10
41.51872845719981
 20
-29.3646609661
 30
0.0
  0
VERTEX
  5
1F6A
  8
3
 10
41.10207931879995
 20
-29.14014047760001
 30
0.0
  0
VERTEX
  5
1F6B
  8
3
 10
40.83629788409985
 20
-28.86419005960001
 30
0.0
  0
VERTEX
  5
1F6C
  8
3
 10
40.74499999999989
 20
-28.5613291179
 30
0.0
  0
SEQEND
  5
1FE7
  8
3
  0
POLYLINE
  5
1027
  8
3
 66
     1
 10
0.0
 20
0.0
 30
0.0
  0
VERTEX
  5
1F6D
  8
3
 10
40.29999999999995
 20
-28.83117601250001
 30
0.0
  0
VERTEX
  5
1F6E
  8
3
 10
40.39270678159983
 20
-28.49393004860001
 30
0.0
  0
VERTEX
  5
1F6F
  8
3
 10
40.66395148859988
 20
-28.181696075
 30
0.0
  0
VERTEX
  5
1F70
  8
3
 10
41.09361714189981
 20
-27.91763105720001
 30
0.0
  0
VERTEX
  5
1F71
  8
3
 10
41.64983740560001
 20
-27.7213194895
 30
0.0
  0
VERTEX
  5
1F72
  8
3
 10
42.29135996729997
 20
-27.60732090290001
 30
0.0
  0
VERTEX
  5
1F73
  8
3
 10
42.97060603339992
 20
-27.584090051
 30
0.0
  0
VERTEX
  5
1F74
  8
3
 10
43.63719903039987
 20
-27.6533498599
 30
0.0
  0
VERTEX
  5
1F75
  8
3
 10
44.24170080529984
 20
-27.80996364630001
 30
0.0
  0
VERTEX
  5
1F76
  8
3
 10
44.73927822669998
 20
-28.0423160821
 30
0.0
  0
VERTEX
  5
1F77
  8
3
 10
45.09302825369991
 20
-28.33317465020001
 30
0.0
  0
VERTEX
  5
1F78
  8
3
 10
45.27671486509985
 20
-28.66096770120001
 30
0.0
  0
VERTEX
  5
1F79
  8
3
 10
45.27671486509985
 20
-29.00138432390001
 30
0.0
  0
VERTEX
  5
1F7A
  8
3
 10
45.09302825369991
 20
-29.32917737480001
 30
0.0
  0
VERTEX
  5
1F7B
  8
3
 10
44.73927822669998
 20
-29.6200359429
 30
0.0
  0
VERTEX
  5
1F7C
  8
3
 10
44.24170080529984
 20
-29.8523883788
 30
0.0
  0
VERTEX
  5
1F7D
  8
3
 10
43.63719903039987
 20
-30.0090021652
 30
0.0
  0
VERTEX
  5
1F7E
  8
3
 10
42.97060603339992
 20
-30.07826197400001
 30
0.0
  0
VERTEX
  5
1F7F
  8
3
 10
42.29135996729997
 20
-30.0550311221
 30
0.0
  0
VERTEX
  5
1F80
  8
3
 10
41.64983740560001
 20
-29.94103253550001
 30
0.0
  0
VERTEX
  5
1F81
  8
3
 10
41.09361714189981
 20
-29.74472096790001
 30
0.0
  0
VERTEX
  5
1F82
  8
3
 10
40.66395148859988
 20
-29.4806559501
 30
0.0
  0
VERTEX
  5
1F83
  8
3
 10
40.39270678159983
 20
-29.16842197650001
 30
0.0
  0
VERTEX
  5
1F84
  8
3
 10
40.29999999999995
 20
-28.83117601250001
 30
0.0
  0
SEQEND
  5
1FE6
  8
3
  0
LINE
  5
1028
  8
3
 10
41.54999999999995
 20
-27.42413778650001
 30
0.0
 11
42.79999999999995
 21
-27.7849817048
 31
0.0
  0
LINE
  5
1029
  8
3
 10
44.04999999999995
 20
-27.42413778650001
 30
0.0
 11
42.79999999999995
 21
-27.7849817048
 31
0.0
  0
LINE
  5
102A
  8
3
 10
42.79999999999995
 20
-27.7849817048
 30
0.0
 11
42.79999999999995
 21
-30.12325029500001
 31
0.0
  0
POLYLINE
  5
102B
  8
3
 66
     1
 10
0.0
 20
0.0
 30
0.0
  0
VERTEX
  5
1F85
  8
3
 10
40.29999999999995
 20
-28.90921556390001
 30
0.0
  0
VERTEX
  5
1F86
  8
3
 10
40.39270678159983
 20
-28.5719695999
 30
0.0
  0
VERTEX
  5
1F87
  8
3
 10
40.66395148859988
 20
-28.25973562630001
 30
0.0
  0
VERTEX
  5
1F88
  8
3
 10
41.09361714189981
 20
-27.99567060850001
 30
0.0
  0
VERTEX
  5
1F89
  8
3
 10
41.64983740560001
 20
-27.7993590409
 30
0.0
  0
VERTEX
  5
1F8A
  8
3
 10
42.29135996729997
 20
-27.68536045430001
 30
0.0
  0
VERTEX
  5
1F8B
  8
3
 10
42.97060603339992
 20
-27.6621296024
 30
0.0
  0
VERTEX
  5
1F8C
  8
3
 10
43.63719903039987
 20
-27.73138941120001
 30
0.0
  0
VERTEX
  5
1F8D
  8
3
 10
44.24170080529984
 20
-27.88800319760001
 30
0.0
  0
VERTEX
  5
1F8E
  8
3
 10
44.73927822669998
 20
-28.12035563350001
 30
0.0
  0
VERTEX
  5
1F8F
  8
3
 10
45.09302825369991
 20
-28.4112142016
 30
0.0
  0
VERTEX
  5
1F90
  8
3
 10
45.27671486509985
 20
-28.7390072525
 30
0.0
  0
VERTEX
  5
1F91
  8
3
 10
45.27671486509985
 20
-29.07942387530001
 30
0.0
  0
VERTEX
  5
1F92
  8
3
 10
45.09302825369991
 20
-29.40721692620001
 30
0.0
  0
VERTEX
  5
1F93
  8
3
 10
44.73927822669998
 20
-29.69807549430001
 30
0.0
  0
VERTEX
  5
1F94
  8
3
 10
44.24170080529984
 20
-29.93042793020001
 30
0.0
  0
VERTEX
  5
1F95
  8
3
 10
43.63719903039987
 20
-30.08704171650001
 30
0.0
  0
VERTEX
  5
1F96
  8
3
 10
42.97060603339992
 20
-30.15630152540001
 30
0.0
  0
VERTEX
  5
1F97
  8
3
 10
42.29135996729997
 20
-30.1330706735
 30
0.0
  0
VERTEX
  5
1F98
  8
3
 10
41.64983740560001
 20
-30.01907208690001
 30
0.0
  0
VERTEX
  5
1F99
  8
3
 10
41.09361714189981
 20
-29.8227605192
 30
0.0
  0
VERTEX
  5
1F9A
  8
3
 10
40.66395148859988
 20
-29.55869550140001
 30
0.0
  0
VERTEX
  5
1F9B
  8
3
 10
40.39270678159983
 20
-29.24646152780001
 30
0.0
  0
VERTEX
  5
1F9C
  8
3
 10
40.29999999999995
 20
-28.90921556390001
 30
0.0
  0
SEQEND
  5
1FE5
  8
3
  0
POLYLINE
  5
102C
  8
3
 66
     1
 10
0.0
 20
0.0
 30
0.0
  0
VERTEX
  5
1F9D
  8
3
 10
40.74499999999989
 20
-29.17906245850001
 30
0.0
  0
VERTEX
  5
1F9E
  8
3
 10
40.83629788409985
 20
-28.87620151680001
 30
0.0
  0
VERTEX
  5
1F9F
  8
3
 10
41.10207931879995
 20
-28.6002510989
 30
0.0
  0
VERTEX
  5
1FA0
  8
3
 10
41.51872845719981
 20
-28.37573061030001
 30
0.0
  0
VERTEX
  5
1FA1
  8
3
 10
42.04922419489981
 20
-28.2225896818
 30
0.0
  0
VERTEX
  5
1FA2
  8
3
 10
42.64642965769985
 20
-28.15443555690001
 30
0.0
  0
VERTEX
  5
1FA3
  8
3
 10
43.25728051929991
 20
-28.1773240288
 30
0.0
  0
VERTEX
  5
1FA4
  8
3
 10
43.82749999999987
 20
-28.2892213561
 30
0.0
  0
VERTEX
  5
1FA5
  8
3
 10
44.30642159659988
 20
-28.48018497050001
 30
0.0
  0
VERTEX
  5
1FA6
  8
3
 10
44.65149102349983
 20
-28.73324691660001
 30
0.0
  0
VERTEX
  5
1FA7
  8
3
 10
44.83204734790002
 20
-29.02592153000001
 30
0.0
  0
VERTEX
  5
1FA8
  8
3
 10
44.83204734790002
 20
-29.33220338700001
 30
0.0
  0
VERTEX
  5
1FA9
  8
3
 10
44.65149102349983
 20
-29.6248780005
 30
0.0
  0
VERTEX
  5
1FAA
  8
3
 10
44.30642159659988
 20
-29.87793994660001
 30
0.0
  0
VERTEX
  5
1FAB
  8
3
 10
43.82749999999987
 20
-30.06890356090001
 30
0.0
  0
VERTEX
  5
1FAC
  8
3
 10
43.25728051929991
 20
-30.18080088830001
 30
0.0
  0
VERTEX
  5
1FAD
  8
3
 10
42.64642965769985
 20
-30.2036893601
 30
0.0
  0
VERTEX
  5
1FAE
  8
3
 10
42.04922419489981
 20
-30.13553523520001
 30
0.0
  0
VERTEX
  5
1FAF
  8
3
 10
41.51872845719981
 20
-29.9823943068
 30
0.0
  0
VERTEX
  5
1FB0
  8
3
 10
41.10207931879995
 20
-29.75787381820001
 30
0.0
  0
VERTEX
  5
1FB1
  8
3
 10
40.83629788409985
 20
-29.4819234002
 30
0.0
  0
VERTEX
  5
1FB2
  8
3
 10
40.74499999999989
 20
-29.17906245850001
 30
0.0
  0
SEQEND
  5
1FE4
  8
3
  0
POLYLINE
  5
102D
  8
3
 66
     1
 10
0.0
 20
0.0
 30
0.0
  0
VERTEX
  5
1FB3
  8
3
 10
40.54389687309981
 20
-29.30101089510001
 30
0.0
  0
VERTEX
  5
1FB4
  8
3
 10
40.63528490199997
 20
-29.61881974630001
 30
0.0
  0
VERTEX
  5
1FB5
  8
3
 10
40.90204527409992
 20
-29.91088161450001
 30
0.0
  0
VERTEX
  5
1FB6
  8
3
 10
41.32256665049999
 20
-30.15353538400001
 30
0.0
  0
VERTEX
  5
1FB7
  8
3
 10
41.86278089019993
 20
-30.3271226896
 30
0.0
  0
VERTEX
  5
1FB8
  8
3
 10
42.47892304840002
 20
-30.4175805201
 30
0.0
  0
VERTEX
  5
1FB9
  8
3
 10
43.12107695159989
 20
-30.4175805201
 30
0.0
  0
VERTEX
  5
1FBA
  8
3
 10
43.73721910969994
 20
-30.3271226896
 30
0.0
  0
VERTEX
  5
1FBB
  8
3
 10
44.27743334949992
 20
-30.15353538400001
 30
0.0
  0
VERTEX
  5
1FBC
  8
3
 10
44.69795472589999
 20
-29.91088161450001
 30
0.0
  0
VERTEX
  5
1FBD
  8
3
 10
44.9647150978999
 20
-29.61881974630001
 30
0.0
  0
VERTEX
  5
1FBE
  8
3
 10
45.05610312679983
 20
-29.30101089510001
 30
0.0
  0
VERTEX
  5
1FBF
  8
3
 10
44.9647150978999
 20
-28.98320204390001
 30
0.0
  0
VERTEX
  5
1FC0
  8
3
 10
44.69795472589999
 20
-28.69114017570001
 30
0.0
  0
VERTEX
  5
1FC1
  8
3
 10
44.27743334949992
 20
-28.4484864062
 30
0.0
  0
VERTEX
  5
1FC2
  8
3
 10
43.73721910969994
 20
-28.27489910060001
 30
0.0
  0
VERTEX
  5
1FC3
  8
3
 10
43.12107695159989
 20
-28.18444127010001
 30
0.0
  0
VERTEX
  5
1FC4
  8
3
 10
42.47892304840002
 20
-28.18444127010001
 30
0.0
  0
VERTEX
  5
1FC5
  8
3
 10
41.86278089019993
 20
-28.27489910060001
 30
0.0
  0
VERTEX
  5
1FC6
  8
3
 10
41.32256665049999
 20
-28.4484864062
 30
0.0
  0
VERTEX
  5
1FC7
  8
3
 10
40.90204527409992
 20
-28.69114017570001
 30
0.0
  0
VERTEX
  5
1FC8
  8
3
 10
40.63528490199997
 20
-28.98320204390001
 30
0.0
  0
VERTEX
  5
1FC9
  8
3
 10
40.54389687309981
 20
-29.30101089510001
 30
0.0
  0
SEQEND
  5
1FE3
  8
3
  0
LINE
  5
102E
  8
3
 10
41.54999999999995
 20
-26.7024499501
 30
0.0
 11
41.54999999999995
 21
-27.42413778650001
 31
0.0
  0
LINE
  5
102F
  8
3
 10
41.54999999999995
 20
-27.42413778650001
 30
0.0
 11
41.54999999999995
 21
-29.7624063768
 31
0.0
  0
LINE
  5
1030
  8
3
 10
44.04999999999995
 20
-27.42413778650001
 30
0.0
 11
44.04999999999995
 21
-29.7624063768
 31
0.0
  0
LINE
  5
1031
  8
3
 10
44.04999999999995
 20
-26.7024499501
 30
0.0
 11
44.04999999999995
 21
-27.42413778650001
 31
0.0
  0
POLYLINE
  5
1032
  8
3
 66
     1
 10
0.0
 20
0.0
 30
0.0
  0
VERTEX
  5
1FCA
  8
3
 10
42.79999999999995
 20
-28.37406245850001
 30
0.0
  0
VERTEX
  5
1FCB
  8
3
 10
43.40572188340002
 20
-28.41971140060001
 30
0.0
  0
VERTEX
  5
1FCC
  8
3
 10
43.95762271929993
 20
-28.55260211790001
 30
0.0
  0
VERTEX
  5
1FCD
  8
3
 10
44.40666369639985
 20
-28.76092668710001
 30
0.0
  0
VERTEX
  5
1FCE
  8
3
 10
44.7129455534
 20
-29.026174556
 30
0.0
  0
VERTEX
  5
1FCF
  8
3
 10
44.84925380319987
 20
-29.32477728740001
 30
0.0
  0
VERTEX
  5
1FD0
  8
3
 10
44.80347685949982
 20
-29.63020271820001
 30
0.0
  0
VERTEX
  5
1FD1
  8
3
 10
44.57968220479984
 20
-29.91531245850001
 30
0.0
  0
VERTEX
  5
1FD2
  8
3
 10
44.19775497609999
 20
-30.15477325680001
 30
0.0
  0
VERTEX
  5
1FD3
  8
3
 10
43.69163108389989
 20
-30.32730797030001
 30
0.0
  0
VERTEX
  5
1FD4
  8
3
 10
43.10628185699989
 20
-30.41758613250001
 30
0.0
  0
VERTEX
  5
1FD5
  8
3
 10
42.4937181429998
 20
-30.41758613250001
 30
0.0
  0
VERTEX
  5
1FD6
  8
3
 10
41.90836891610002
 20
-30.32730797030001
 30
0.0
  0
VERTEX
  5
1FD7
  8
3
 10
41.40224502389992
 20
-30.15477325680001
 30
0.0
  0
VERTEX
  5
1FD8
  8
3
 10
41.02031779519984
 20
-29.91531245850001
 30
0.0
  0
VERTEX
  5
1FD9
  8
3
 10
40.79652314039981
 20
-29.63020271820001
 30
0.0
  0
VERTEX
  5
1FDA
  8
3
 10
40.75074619679981
 20
-29.32477728740001
 30
0.0
  0
VERTEX
  5
1FDB
  8
3
 10
40.88705444649986
 20
-29.026174556
 30
0.0
  0
VERTEX
  5
1FDC
  8
3
 10
41.19333630350002
 20
-28.76092668710001
 30
0.0
  0
VERTEX
  5
1FDD
  8
3
 10
41.64237728069998
 20
-28.55260211790001
 30
0.0
  0
VERTEX
  5
1FDE
  8
3
 10
42.19427811659989
 20
-28.41971140060001
 30
0.0
  0
VERTEX
  5
1FDF
  8
3
 10
42.79999999999995
 20
-28.37406245850001
 30
0.0
  0
SEQEND
  5
1FE2
  8
3
  0
LINE
  5
1033
  8
3
 10
44.04999999999995
 20
-29.7624063768
 30
0.0
 11
42.79999999999995
 21
-30.12325029500001
 31
0.0
  0
LINE
  5
1034
  8
3
 10
41.54999999999995
 20
-29.7624063768
 30
0.0
 11
42.79999999999995
 21
-30.12325029500001
 31
0.0
  0
LINE
  5
1035
  8
3
 10
42.79999999999995
 20
-26.34160603180001
 30
0.0
 11
42.79999999999995
 21
-27.7849817048
 31
0.0
  0
LINE
  5
1036
  8
3
 10
41.54999999999995
 20
-29.04071854030001
 30
0.0
 11
42.79999999999995
 21
-28.67987462200001
 31
0.0
  0
LINE
  5
1037
  8
3
 10
41.54999999999995
 20
-26.7024499501
 30
0.0
 11
42.79999999999995
 21
-26.34160603180001
 31
0.0
  0
LINE
  5
1038
  8
3
 10
44.04999999999995
 20
-29.04071854030001
 30
0.0
 11
42.79999999999995
 21
-28.67987462200001
 31
0.0
  0
LINE
  5
1039
  8
3
 10
44.04999999999995
 20
-26.7024499501
 30
0.0
 11
42.79999999999995
 21
-26.34160603180001
 31
0.0
  0
CIRCLE
  5
103A
  8
3
 10
42.79999999999995
 20
0.0
 30
0.0
 40
2.499999999999773
  0
CIRCLE
  5
103B
  8
3
 10
42.79999999999995
 20
0.0
 30
0.0
 40
2.316732743452349
  0
CIRCLE
  5
103C
  8
3
 10
42.79999999999995
 20
0.0
 30
0.0
 40
1.75
  0
LINE
  5
103D
  8
3
 10
46.8896699999998
 20
7.9375
 30
0.0
 11
46.8896699999998
 21
-7.9375
 31
0.0
  0
LINE
  5
103E
  8
3
 10
46.0501999999999
 20
7.098029999999994
 30
0.0
 11
46.0501999999999
 21
-7.098029999999994
 31
0.0
  0
LINE
  5
1047
  8
3
 10
39.19776030489993
 20
-19.04619
 30
0.0
 11
39.19776030489993
 21
-31.75381
 31
0.0
  0
LINE
  5
1048
  8
3
 10
38.05963951059994
 20
-19.05619000000002
 30
0.0
 11
38.05963951059994
 21
-31.74381000000001
 31
0.0
  0
LINE
  5
1049
  8
3
 10
37.13479999999981
 20
-19.304
 30
0.0
 11
37.13479999999981
 21
-31.49600000000001
 31
0.0
  0
LINE
  5
104A
  8
3
 10
39.19776030489993
 20
31.75381
 30
0.0
 11
39.19776030489993
 21
19.04618999999998
 31
0.0
  0
LINE
  5
104B
  8
3
 10
38.05963951059994
 20
31.74381000000001
 30
0.0
 11
38.05963951059994
 21
19.05618999999997
 31
0.0
  0
LINE
  5
104C
  8
3
 10
37.13479999999981
 20
31.496
 30
0.0
 11
37.13479999999981
 21
19.30399999999999
 31
0.0
  0
LINE
  5
1057
  8
3
 10
50.59999999999991
 20
2.0
 30
0.0
 11
43.44689797369983
 21
2.0
 31
0.0
  0
LINE
  5
1058
  8
3
 10
43.45012668539994
 20
-2.0
 30
0.0
 11
50.79999999999995
 21
-2.0
 31
0.0
  0
LINE
  5
1059
  8
3
 10
41.79999999999995
 20
2.0
 30
0.0
 11
41.6705666281
 21
1.784586694799998
 31
0.0
  0
LINE
  5
105A
  8
3
 10
41.6705666281
 20
-1.784586694900014
 30
0.0
 11
41.79999999999995
 21
-2.0
 31
0.0
  0
LINE
  5
105B
  8
3
 10
42.15322149059989
 20
2.0
 30
0.0
 11
41.79999999999995
 21
2.0
 31
0.0
  0
LINE
  5
105C
  8
3
 10
41.79999999999995
 20
-2.0
 30
0.0
 11
42.15322149059989
 21
-2.0
 31
0.0
  0
LINE
  5
105D
  8
3
 10
40.70697874299981
 20
0.1809071481999922
 30
0.0
 11
40.59827876190002
 21
0.0
 31
0.0
  0
LINE
  5
105E
  8
3
 10
40.59827876190002
 20
0.0
 30
0.0
 11
40.70785901670001
 21
-0.1823721698000043
 31
0.0
  0
LINE
  5
1067
  8
3
 10
50.79999999999995
 20
7.9375
 30
0.0
 11
36.54999999999995
 21
7.9375
 31
0.0
  0
LINE
  5
1068
  8
3
 10
36.54999999999995
 20
-7.9375
 30
0.0
 11
50.79999999999995
 21
-7.9375
 31
0.0
  0
LINE
  5
1069
  8
3
 10
36.54999999999995
 20
7.34187
 30
0.0
 11
29.5
 21
7.34187
 31
0.0
  0
LINE
  5
106A
  8
3
 10
29.5
 20
-7.34187
 30
0.0
 11
36.54999999999995
 21
-7.34187
 31
0.0
  0
LINE
  5
106B
  8
3
 10
29.5
 20
7.34187
 30
0.0
 11
28.09286254209997
 21
5.0
 31
0.0
  0
LINE
  5
106C
  8
3
 10
28.09286254209997
 20
-5.0
 30
0.0
 11
29.5
 21
-7.34187
 31
0.0
  0
LINE
  5
106F
  8
3
 10
-8.25
 20
-6.688000000000017
 30
0.0
 11
-7.235747275100039
 21
-5.0
 31
0.0
  0
LINE
  5
1070
  8
3
 10
-7.235747275100039
 20
5.0
 30
0.0
 11
-8.25
 21
6.687999999999988
 31
0.0
  0
LINE
  5
1071
  8
3
 10
50.79999999999995
 20
31.7505
 30
0.0
 11
35.79999999999995
 21
31.7505
 31
0.0
  0
LINE
  5
1072
  8
3
 10
35.79999999999995
 20
19.04949999999998
 30
0.0
 11
50.79999999999995
 21
19.04949999999998
 31
0.0
  0
LINE
  5
1073
  8
3
 10
50.79999999999995
 20
-19.04949999999999
 30
0.0
 11
35.79999999999995
 21
-19.04949999999999
 31
0.0
  0
LINE
  5
1074
  8
3
 10
35.79999999999995
 20
-31.7505
 30
0.0
 11
50.79999999999995
 21
-31.7505
 31
0.0
  0
LINE
  5
1075
  8
3
 10
35.79999999999995
 20
-19.04949999999999
 30
0.0
 11
33.8069271505999
 21
-22.3665302501
 31
0.0
  0
LINE
  5
1076
  8
3
 10
35.04999999999995
 20
-30.50229038830001
 30
0.0
 11
35.79999999999995
 21
-31.7505
 31
0.0
  0
LINE
  5
1077
  8
3
 10
35.79999999999995
 20
31.7505
 30
0.0
 11
35.04999999999995
 21
30.5022903882
 31
0.0
  0
LINE
  5
1078
  8
3
 10
33.8069271505999
 20
22.36653025
 30
0.0
 11
35.79999999999995
 21
19.04949999999998
 31
0.0
  0
LINE
  5
107B
  8
3
 10
0.0
 20
-5.0
 30
0.0
 11
28.09286254209997
 21
-5.0
 31
0.0
  0
LINE
  5
107C
  8
3
 10
28.09286254209997
 20
5.0
 30
0.0
 11
0.0
 21
5.0
 31
0.0
  0
LINE
  5
1081
  8
3
 10
40.69999999999982
 20
9.814229366999996
 30
0.0
 11
40.69999999999982
 21
6.871156972999984
 31
0.0
  0
LINE
  5
1082
  8
3
 10
40.69999999999982
 20
29.03350166179997
 30
0.0
 11
40.69999999999982
 21
10.10361416959998
 31
0.0
  0
LINE
  5
1083
  8
3
 10
44.89999999999986
 20
11.68652749709999
 30
0.0
 11
44.89999999999986
 21
29.03350166179997
 31
0.0
  0
LINE
  5
1084
  8
3
 10
44.89999999999986
 20
6.868522059399993
 30
0.0
 11
44.89999999999986
 21
8.2336046872
 31
0.0
  0
LINE
  5
1085
  8
3
 10
44.89999999999986
 20
-8.230611515899994
 30
0.0
 11
44.89999999999986
 21
-6.868522059400021
 31
0.0
  0
LINE
  5
1086
  8
3
 10
44.89999999999986
 20
-29.0335016619
 30
0.0
 11
44.89999999999986
 21
-11.6833290296
 31
0.0
  0
LINE
  5
1087
  8
3
 10
40.69999999999982
 20
-10.104045321
 30
0.0
 11
40.69999999999982
 21
-29.0335016619
 31
0.0
  0
LINE
  5
1088
  8
3
 10
40.69999999999982
 20
-6.8711569731
 30
0.0
 11
40.69999999999982
 21
-9.81297600640002
 31
0.0
  0
LINE
  5
1089
  8
3
 10
50.79999999999995
 20
-7.95929214360001
 30
0.0
 11
44.64204078409989
 21
-7.95929214360001
 31
0.0
  0
LINE
  5
108A
  8
3
 10
44.63418134709991
 20
-11.95929214360001
 30
0.0
 11
50.79999999999995
 21
-11.95929214360001
 31
0.0
  0
LINE
  5
108B
  8
3
 10
50.79999999999995
 20
11.95929214349998
 30
0.0
 11
44.64293091039985
 21
11.95929214349998
 31
0.0
  0
LINE
  5
108C
  8
3
 10
44.63354977580002
 20
7.959292143499994
 30
0.0
 11
50.79999999999995
 21
7.959292143499994
 31
0.0
  0
LINE
  5
1091
  8
3
 10
45.42499999999995
 20
-30.2675878623
 30
0.0
 11
45.42499999999995
 21
-29.40156245850001
 31
0.0
  0
LINE
  5
1092
  8
3
 10
40.17499999999995
 20
-29.40156245850001
 30
0.0
 11
40.17499999999995
 21
-30.26550752600001
 31
0.0
  0
LINE
  5
1093
  8
3
 10
40.17499999999995
 20
30.26550752589999
 30
0.0
 11
40.17499999999995
 21
29.40156245839997
 31
0.0
  0
LINE
  5
1094
  8
3
 10
45.42499999999995
 20
29.40156245839997
 30
0.0
 11
45.42499999999995
 21
30.26758786220002
 31
0.0
  0
LINE
  5
1095
  8
3
 10
44.8616538668
 20
-28.6726577437
 30
0.0
 11
44.51464281990002
 21
-28.42728387930001
 31
0.0
  0
LINE
  5
1096
  8
3
 10
41.08535717999985
 20
-28.42728387930001
 30
0.0
 11
40.73834613309987
 21
-28.6726577437
 31
0.0
  0
LINE
  5
1097
  8
3
 10
40.73834613309987
 20
28.6726577436
 30
0.0
 11
41.08535717999985
 21
28.4272838792
 31
0.0
  0
LINE
  5
1098
  8
3
 10
44.51464281990002
 20
28.4272838792
 30
0.0
 11
44.8616538668
 21
28.6726577436
 31
0.0
  0
LINE
  5
1099
  8
3
 10
40.9083956359998
 20
24.0274318522
 30
0.0
 11
41.37113098340001
 21
23.70022855020001
 31
0.0
  0
LINE
  5
109A
  8
3
 10
44.2288690165999
 20
23.70022855020001
 30
0.0
 11
44.69160436389984
 21
24.0274318522
 31
0.0
  0
LINE
  5
109B
  8
3
 10
41.38549679589983
 20
24.09409892369997
 30
0.0
 11
41.63727836629982
 21
24.00771254309997
 31
0.0
  0
LINE
  5
109C
  8
3
 10
43.96272163369986
 20
24.00771254309997
 30
0.0
 11
44.21450320399981
 21
24.09409892369997
 31
0.0
  0
LINE
  5
109D
  8
3
 10
44.11081035539996
 20
25.6513362921
 30
0.0
 11
43.96272163369986
 21
25.70214560529998
 31
0.0
  0
LINE
  5
109E
  8
3
 10
41.63727836629982
 20
25.70214560529998
 30
0.0
 11
41.48918964459995
 21
25.6513362921
 31
0.0
  0
LINE
  5
109F
  8
3
 10
40.29999999999995
 20
25.20281552019999
 30
0.0
 11
40.29999999999995
 21
25.12477596879997
 31
0.0
  0
LINE
  5
10A0
  8
3
 10
45.29999999999995
 20
25.12477596879997
 30
0.0
 11
45.29999999999995
 21
25.20281552019999
 31
0.0
  0
LINE
  5
10A1
  8
3
 10
44.21450320399981
 20
26.23349256539997
 30
0.0
 11
43.96272163369986
 21
26.31987894589999
 31
0.0
  0
LINE
  5
10A2
  8
3
 10
41.63727836629982
 20
26.31987894589999
 30
0.0
 11
41.38549679589983
 21
26.23349256539997
 31
0.0
  0
LINE
  5
10A3
  8
3
 10
41.38549679589983
 20
24.71183226429999
 30
0.0
 11
41.63727836629982
 21
24.62544588369998
 31
0.0
  0
LINE
  5
10A4
  8
3
 10
43.96272163369986
 20
24.62544588369998
 30
0.0
 11
44.21450320399981
 21
24.71183226429999
 31
0.0
  0
LINE
  5
10A5
  8
3
 10
40.29999999999995
 20
25.8205488608
 30
0.0
 11
40.29999999999995
 21
25.74250930939998
 31
0.0
  0
LINE
  5
10A6
  8
3
 10
45.29999999999995
 20
25.74250930939998
 30
0.0
 11
45.29999999999995
 21
25.8205488608
 31
0.0
  0
LINE
  5
10A7
  8
3
 10
44.21450320399981
 20
26.85122590599998
 30
0.0
 11
43.96272163369986
 21
26.93761228659999
 31
0.0
  0
LINE
  5
10A8
  8
3
 10
41.63727836629982
 20
26.93761228659999
 30
0.0
 11
41.38549679589983
 21
26.85122590599998
 31
0.0
  0
LINE
  5
10A9
  8
3
 10
41.38549679589983
 20
25.3295656049
 30
0.0
 11
41.63727836629982
 21
25.24317922429999
 31
0.0
  0
LINE
  5
10AA
  8
3
 10
43.96272163369986
 20
25.24317922429999
 30
0.0
 11
44.21450320399981
 21
25.3295656049
 31
0.0
  0
LINE
  5
10AB
  8
3
 10
40.29999999999995
 20
26.43828220140001
 30
0.0
 11
40.29999999999995
 21
26.36024264999999
 31
0.0
  0
LINE
  5
10AC
  8
3
 10
45.29999999999995
 20
26.36024264999999
 30
0.0
 11
45.29999999999995
 21
26.43828220140001
 31
0.0
  0
LINE
  5
10AD
  8
3
 10
44.21450320399981
 20
27.46895924659999
 30
0.0
 11
43.96272163369986
 21
27.5553456272
 31
0.0
  0
LINE
  5
10AE
  8
3
 10
41.63727836629982
 20
27.5553456272
 30
0.0
 11
41.38549679589983
 21
27.46895924659999
 31
0.0
  0
LINE
  5
10AF
  8
3
 10
41.38549679589983
 20
25.94729894550001
 30
0.0
 11
41.63727836629982
 21
25.8609125649
 31
0.0
  0
LINE
  5
10B0
  8
3
 10
43.96272163369986
 20
25.8609125649
 30
0.0
 11
44.21450320399981
 21
25.94729894550001
 31
0.0
  0
LINE
  5
10B1
  8
3
 10
40.29999999999995
 20
27.05601554199997
 30
0.0
 11
40.29999999999995
 21
26.97797599069999
 31
0.0
  0
LINE
  5
10B2
  8
3
 10
45.29999999999995
 20
26.97797599069999
 30
0.0
 11
45.29999999999995
 21
27.05601554199997
 31
0.0
  0
LINE
  5
10B3
  8
3
 10
44.21450320399981
 20
28.08669258720001
 30
0.0
 11
43.96272163369986
 21
28.17307896780001
 31
0.0
  0
LINE
  5
10B4
  8
3
 10
41.63727836629982
 20
28.17307896780001
 30
0.0
 11
41.38549679589983
 21
28.08669258720001
 31
0.0
  0
LINE
  5
10B5
  8
3
 10
41.38549679589983
 20
26.56503228610002
 30
0.0
 11
41.63727836629982
 21
26.47864590550002
 31
0.0
  0
LINE
  5
10B6
  8
3
 10
43.96272163369986
 20
26.47864590550002
 30
0.0
 11
44.21450320399981
 21
26.56503228610002
 31
0.0
  0
LINE
  5
10B7
  8
3
 10
40.29999999999995
 20
27.67374888259998
 30
0.0
 11
40.29999999999995
 21
27.5957093313
 31
0.0
  0
LINE
  5
10B8
  8
3
 10
45.29999999999995
 20
27.5957093313
 30
0.0
 11
45.29999999999995
 21
27.67374888259998
 31
0.0
  0
LINE
  5
10B9
  8
3
 10
44.21450320399981
 20
28.70442592780002
 30
0.0
 11
43.96272163369986
 21
28.79081230840002
 31
0.0
  0
LINE
  5
10BA
  8
3
 10
41.63727836629982
 20
28.79081230840002
 30
0.0
 11
41.38549679589983
 21
28.70442592780002
 31
0.0
  0
LINE
  5
10BB
  8
3
 10
41.38549679589983
 20
27.18276562669998
 30
0.0
 11
41.63727836629982
 21
27.09637924609997
 31
0.0
  0
LINE
  5
10BC
  8
3
 10
43.96272163369986
 20
27.09637924609997
 30
0.0
 11
44.21450320399981
 21
27.18276562669998
 31
0.0
  0
LINE
  5
10BD
  8
3
 10
40.29999999999995
 20
28.29148222319999
 30
0.0
 11
40.29999999999995
 21
28.21344267190001
 31
0.0
  0
LINE
  5
10BE
  8
3
 10
45.29999999999995
 20
28.21344267190001
 30
0.0
 11
45.29999999999995
 21
28.29148222319999
 31
0.0
  0
LINE
  5
10BF
  8
3
 10
44.21450320399981
 20
29.32215926839997
 30
0.0
 11
43.96272163369986
 21
29.40854564899998
 31
0.0
  0
LINE
  5
10C0
  8
3
 10
41.63727836629982
 20
29.40854564899998
 30
0.0
 11
41.38549679589983
 21
29.32215926839997
 31
0.0
  0
LINE
  5
10C1
  8
3
 10
41.38549679589983
 20
27.80049896729999
 30
0.0
 11
41.63727836629982
 21
27.71411258669998
 31
0.0
  0
LINE
  5
10C2
  8
3
 10
43.96272163369986
 20
27.71411258669998
 30
0.0
 11
44.21450320399981
 21
27.80049896729999
 31
0.0
  0
LINE
  5
10C3
  8
3
 10
40.29999999999995
 20
28.9092155638
 30
0.0
 11
40.29999999999995
 21
28.83117601249997
 31
0.0
  0
LINE
  5
10C4
  8
3
 10
45.29999999999995
 20
28.83117601249997
 30
0.0
 11
45.29999999999995
 21
28.9092155638
 31
0.0
  0
LINE
  5
10C5
  8
3
 10
44.21450320399981
 20
29.93989260899998
 30
0.0
 11
43.96272163369986
 21
30.02627898959999
 31
0.0
  0
LINE
  5
10C6
  8
3
 10
41.63727836629982
 20
30.02627898959999
 30
0.0
 11
41.38549679589983
 21
29.93989260899998
 31
0.0
  0
LINE
  5
10C7
  8
3
 10
41.52349395929991
 20
28.37088541329997
 30
0.0
 11
41.63727836629982
 21
28.33184592729999
 31
0.0
  0
LINE
  5
10C8
  8
3
 10
43.96272163369986
 20
28.33184592729999
 30
0.0
 11
44.07650604059995
 21
28.37088541329997
 31
0.0
  0
LINE
  5
10C9
  8
3
 10
44.69160436389984
 20
-24.02743185230001
 30
0.0
 11
44.2288690165999
 21
-23.70022855030001
 31
0.0
  0
LINE
  5
10CA
  8
3
 10
41.37113098340001
 20
-23.70022855030001
 30
0.0
 11
40.9083956359998
 21
-24.02743185230001
 31
0.0
  0
LINE
  5
10CB
  8
3
 10
44.21450320399981
 20
-24.0940989237
 30
0.0
 11
43.96272163369986
 21
-24.0077125432
 31
0.0
  0
LINE
  5
10CC
  8
3
 10
41.63727836629982
 20
-24.0077125432
 30
0.0
 11
41.38549679589983
 21
-24.0940989237
 31
0.0
  0
LINE
  5
10CD
  8
3
 10
41.48918964459995
 20
-25.65133629220001
 30
0.0
 11
41.63727836629982
 21
-25.70214560540001
 31
0.0
  0
LINE
  5
10CE
  8
3
 10
43.96272163369986
 20
-25.70214560540001
 30
0.0
 11
44.11081035539996
 21
-25.65133629220001
 31
0.0
  0
LINE
  5
10CF
  8
3
 10
45.29999999999995
 20
-25.20281552030001
 30
0.0
 11
45.29999999999995
 21
-25.12477596890001
 31
0.0
  0
LINE
  5
10D0
  8
3
 10
40.29999999999995
 20
-25.12477596890001
 30
0.0
 11
40.29999999999995
 21
-25.20281552030001
 31
0.0
  0
LINE
  5
10D1
  8
3
 10
41.38549679589983
 20
-26.23349256540001
 30
0.0
 11
41.63727836629982
 21
-26.319878946
 31
0.0
  0
LINE
  5
10D2
  8
3
 10
43.96272163369986
 20
-26.319878946
 30
0.0
 11
44.21450320399981
 21
-26.23349256540001
 31
0.0
  0
LINE
  5
10D3
  8
3
 10
44.21450320399981
 20
-24.71183226430001
 30
0.0
 11
43.96272163369986
 21
-24.62544588380001
 31
0.0
  0
LINE
  5
10D4
  8
3
 10
41.63727836629982
 20
-24.62544588380001
 30
0.0
 11
41.38549679589983
 21
-24.71183226430001
 31
0.0
  0
LINE
  5
10D5
  8
3
 10
45.29999999999995
 20
-25.8205488609
 30
0.0
 11
45.29999999999995
 21
-25.74250930950001
 31
0.0
  0
LINE
  5
10D6
  8
3
 10
40.29999999999995
 20
-25.74250930950001
 30
0.0
 11
40.29999999999995
 21
-25.8205488609
 31
0.0
  0
LINE
  5
10D7
  8
3
 10
41.38549679589983
 20
-26.85122590600001
 30
0.0
 11
41.63727836629982
 21
-26.9376122866
 31
0.0
  0
LINE
  5
10D8
  8
3
 10
43.96272163369986
 20
-26.9376122866
 30
0.0
 11
44.21450320399981
 21
-26.85122590600001
 31
0.0
  0
LINE
  5
10D9
  8
3
 10
44.21450320399981
 20
-25.32956560500001
 30
0.0
 11
43.96272163369986
 21
-25.24317922440001
 31
0.0
  0
LINE
  5
10DA
  8
3
 10
41.63727836629982
 20
-25.24317922440001
 30
0.0
 11
41.38549679589983
 21
-25.32956560500001
 31
0.0
  0
LINE
  5
10DB
  8
3
 10
45.29999999999995
 20
-26.4382822015
 30
0.0
 11
45.29999999999995
 21
-26.36024265010001
 31
0.0
  0
LINE
  5
10DC
  8
3
 10
40.29999999999995
 20
-26.36024265010001
 30
0.0
 11
40.29999999999995
 21
-26.4382822015
 31
0.0
  0
LINE
  5
10DD
  8
3
 10
41.38549679589983
 20
-27.46895924660001
 30
0.0
 11
41.63727836629982
 21
-27.55534562720001
 31
0.0
  0
LINE
  5
10DE
  8
3
 10
43.96272163369986
 20
-27.55534562720001
 30
0.0
 11
44.21450320399981
 21
-27.46895924660001
 31
0.0
  0
LINE
  5
10DF
  8
3
 10
44.21450320399981
 20
-25.94729894560001
 30
0.0
 11
43.96272163369986
 21
-25.86091256500001
 31
0.0
  0
LINE
  5
10E0
  8
3
 10
41.63727836629982
 20
-25.86091256500001
 30
0.0
 11
41.38549679589983
 21
-25.94729894560001
 31
0.0
  0
LINE
  5
10E1
  8
3
 10
45.29999999999995
 20
-27.05601554210001
 30
0.0
 11
45.29999999999995
 21
-26.9779759907
 31
0.0
  0
LINE
  5
10E2
  8
3
 10
40.29999999999995
 20
-26.9779759907
 30
0.0
 11
40.29999999999995
 21
-27.05601554210001
 31
0.0
  0
LINE
  5
10E3
  8
3
 10
41.38549679589983
 20
-28.08669258720001
 30
0.0
 11
41.63727836629982
 21
-28.17307896780001
 31
0.0
  0
LINE
  5
10E4
  8
3
 10
43.96272163369986
 20
-28.17307896780001
 30
0.0
 11
44.21450320399981
 21
-28.08669258720001
 31
0.0
  0
LINE
  5
10E5
  8
3
 10
44.21450320399981
 20
-26.56503228620001
 30
0.0
 11
43.96272163369986
 21
-26.4786459056
 31
0.0
  0
LINE
  5
10E6
  8
3
 10
41.63727836629982
 20
-26.4786459056
 30
0.0
 11
41.38549679589983
 21
-26.56503228620001
 31
0.0
  0
LINE
  5
10E7
  8
3
 10
45.29999999999995
 20
-27.67374888270001
 30
0.0
 11
45.29999999999995
 21
-27.59570933130001
 31
0.0
  0
LINE
  5
10E8
  8
3
 10
40.29999999999995
 20
-27.59570933130001
 30
0.0
 11
40.29999999999995
 21
-27.67374888270001
 31
0.0
  0
LINE
  5
10E9
  8
3
 10
41.38549679589983
 20
-28.7044259279
 30
0.0
 11
41.63727836629982
 21
-28.79081230840001
 31
0.0
  0
LINE
  5
10EA
  8
3
 10
43.96272163369986
 20
-28.79081230840001
 30
0.0
 11
44.21450320399981
 21
-28.7044259279
 31
0.0
  0
LINE
  5
10EB
  8
3
 10
44.21450320399981
 20
-27.18276562680001
 30
0.0
 11
43.96272163369986
 21
-27.0963792462
 31
0.0
  0
LINE
  5
10EC
  8
3
 10
41.63727836629982
 20
-27.0963792462
 30
0.0
 11
41.38549679589983
 21
-27.18276562680001
 31
0.0
  0
LINE
  5
10ED
  8
3
 10
45.29999999999995
 20
-28.29148222330001
 30
0.0
 11
45.29999999999995
 21
-28.21344267190001
 31
0.0
  0
LINE
  5
10EE
  8
3
 10
40.29999999999995
 20
-28.21344267190001
 30
0.0
 11
40.29999999999995
 21
-28.29148222330001
 31
0.0
  0
LINE
  5
10EF
  8
3
 10
41.38549679589983
 20
-29.3221592685
 30
0.0
 11
41.63727836629982
 21
-29.408545649
 31
0.0
  0
LINE
  5
10F0
  8
3
 10
43.96272163369986
 20
-29.408545649
 30
0.0
 11
44.21450320399981
 21
-29.3221592685
 31
0.0
  0
LINE
  5
10F1
  8
3
 10
44.21450320399981
 20
-27.8004989674
 30
0.0
 11
43.96272163369986
 21
-27.71411258680001
 31
0.0
  0
LINE
  5
10F2
  8
3
 10
41.63727836629982
 20
-27.71411258680001
 30
0.0
 11
41.38549679589983
 21
-27.8004989674
 31
0.0
  0
LINE
  5
10F3
  8
3
 10
45.29999999999995
 20
-28.90921556390001
 30
0.0
 11
45.29999999999995
 21
-28.83117601250001
 31
0.0
  0
LINE
  5
10F4
  8
3
 10
40.29999999999995
 20
-28.83117601250001
 30
0.0
 11
40.29999999999995
 21
-28.90921556390001
 31
0.0
  0
LINE
  5
10F5
  8
3
 10
41.38549679589983
 20
-29.93989260910001
 30
0.0
 11
41.63727836629982
 21
-30.0262789896
 31
0.0
  0
LINE
  5
10F6
  8
3
 10
43.96272163369986
 20
-30.0262789896
 30
0.0
 11
44.21450320399981
 21
-29.93989260910001
 31
0.0
  0
LINE
  5
10F7
  8
3
 10
44.07650604059995
 20
-28.3708854133
 30
0.0
 11
43.96272163369986
 21
-28.33184592740001
 31
0.0
  0
LINE
  5
10F8
  8
3
 10
41.63727836629982
 20
-28.33184592740001
 30
0.0
 11
41.52349395929991
 21
-28.3708854133
 31
0.0
  0
LINE
  5
10F9
  8
3
 10
50.79999999999995
 20
7.9375
 30
0.0
 11
46.8896699999998
 21
7.9375
 31
0.0
  0
LINE
  5
10FA
  8
3
 10
46.8896699999998
 20
-7.9375
 30
0.0
 11
50.79999999999995
 21
-7.9375
 31
0.0
  0
LINE
  5
10FB
  8
3
 10
46.8896699999998
 20
7.9375
 30
0.0
 11
46.0501999999999
 21
7.098029999999994
 31
0.0
  0
LINE
  5
10FC
  8
3
 10
46.0501999999999
 20
-7.098029999999994
 30
0.0
 11
46.8896699999998
 21
-7.9375
 31
0.0
  0
LINE
  5
1105
  8
3
 10
39.13479999999981
 20
-19.05619000000002
 30
0.0
 11
38.05963951059994
 21
-19.05619000000002
 31
0.0
  0
LINE
  5
1106
  8
3
 10
38.05963951059994
 20
-31.74381000000001
 30
0.0
 11
39.13479999999981
 21
-31.74381000000001
 31
0.0
  0
LINE
  5
1107
  8
3
 10
38.05963951059994
 20
-19.05619000000002
 30
0.0
 11
37.13479999999981
 21
-19.304
 31
0.0
  0
LINE
  5
1108
  8
3
 10
37.13479999999981
 20
-31.49600000000001
 30
0.0
 11
38.05963951059994
 21
-31.74381000000001
 31
0.0
  0
LINE
  5
110D
  8
3
 10
39.13479999999981
 20
31.74381000000001
 30
0.0
 11
38.05963951059994
 21
31.74381000000001
 31
0.0
  0
LINE
  5
110E
  8
3
 10
38.05963951059994
 20
19.05618999999997
 30
0.0
 11
39.13479999999981
 21
19.05618999999997
 31
0.0
  0
LINE
  5
110F
  8
3
 10
38.05963951059994
 20
31.74381000000001
 30
0.0
 11
37.13479999999981
 21
31.496
 31
0.0
  0
LINE
  5
1110
  8
3
 10
37.13479999999981
 20
19.30399999999999
 30
0.0
 11
38.05963951059994
 21
19.05618999999997
 31
0.0
  0
LINE
  5
1111
  8
1
 10
36.04999999999995
 20
0.0
 30
0.0
 11
36.04999999999995
 21
34.95
 31
0.0
  0
LINE
  5
1112
  8
1
 10
36.04999999999995
 20
-34.95
 30
0.0
 11
36.04999999999995
 21
0.0
 31
0.0
  0
LINE
  5
1113
  8
1
 10
49.79999999999995
 20
34.95
 30
0.0
 11
49.79999999999995
 21
-34.95
 31
0.0
  0
LINE
  5
1114
  8
1
 10
33.04999999999995
 20
0.0
 30
0.0
 11
33.04999999999995
 21
-22.22499999999999
 31
0.0
  0
LINE
  5
1115
  8
1
 10
33.04999999999995
 20
22.22499999999998
 30
0.0
 11
33.04999999999995
 21
0.0
 31
0.0
  0
LINE
  5
1129
  8
SK3
 10
-7.235747275100039
 20
5.0
 30
0.0
 11
0.0
 21
5.0
 31
0.0
  0
LINE
  5
112A
  8
SK3
 10
-7.235747275100039
 20
-5.0
 30
0.0
 11
0.0
 21
-5.0
 31
0.0
  0
ARC
  5
1140
  8
SK1
 10
51.0
 20
-16.07500000000002
 30
0.0
 40
0.3999999999999965
 50
75.00000000000534
 51
120.0000000000078
  0
ARC
  5
1141
  8
SK1
 10
51.0
 20
16.07499999999999
 30
0.0
 40
0.3999999999999965
 50
239.9999999999922
 51
284.9999999999948
  0
LINE
  5
1142
  8
SK1
 10
51.79907116049981
 20
-15.875
 30
0.0
 11
66.79999999999995
 21
-15.875
 31
0.0
  0
LINE
  5
1143
  8
SK1
 10
66.79999999999995
 20
15.875
 30
0.0
 11
51.79907116049981
 21
15.875
 31
0.0
  0
LINE
  5
1144
  8
SK1
 10
51.79907116049981
 20
15.875
 30
0.0
 11
51.10352761799982
 21
15.6886296694
 31
0.0
  0
LINE
  5
1145
  8
SK1
 10
51.10352761799982
 20
-15.68862966950002
 30
0.0
 11
51.79907116049981
 21
-15.875
 31
0.0
  0
ARC
  5
1146
  8
SK1
 10
66.79999999999995
 20
-14.375
 30
0.0
 40
1.5
 50
270.0
 51
0.0
  0
ARC
  5
1147
  8
SK1
 10
66.79999999999995
 20
14.375
 30
0.0
 40
1.5
 50
0.0
 51
90.0
  0
LINE
  5
114A
  8
SK1
 10
81.78800000000001
 20
19.04999999999998
 30
0.0
 11
70.61199999999985
 21
19.04999999999998
 31
0.0
  0
LINE
  5
114B
  8
SK1
 10
70.61199999999985
 20
-19.05000000000001
 30
0.0
 11
81.78800000000001
 21
-19.05000000000001
 31
0.0
  0
LINE
  5
114C
  8
SK1
 10
81.78800000000001
 20
-19.05000000000001
 30
0.0
 11
82.54999999999995
 21
-18.28800000000001
 31
0.0
  0
LINE
  5
114D
  8
SK1
 10
82.54999999999995
 20
18.28799999999998
 30
0.0
 11
81.78800000000001
 21
19.04999999999998
 31
0.0
  0
LINE
  5
114E
  8
SK1
 10
70.61199999999985
 20
19.04999999999998
 30
0.0
 11
69.84999999999991
 21
18.28799999999998
 31
0.0
  0
LINE
  5
114F
  8
SK1
 10
69.84999999999991
 20
-18.28800000000001
 30
0.0
 11
70.61199999999985
 21
-19.05000000000001
 31
0.0
  0
ARC
  5
1150
  8
SK1
 10
69.03719999999998
 20
-8.75030000000001
 30
0.0
 40
0.8128000000001521
 50
0.0
 51
90.0
  0
ARC
  5
1151
  8
SK1
 10
69.03719999999998
 20
8.750299999999982
 30
0.0
 40
0.8128000000001521
 50
270.0
 51
0.0
  0
LINE
  5
1152
  8
SK1
 10
69.03719999999998
 20
7.9375
 30
0.0
 11
68.29999999999995
 21
7.9375
 31
0.0
  0
LINE
  5
1153
  8
SK1
 10
68.29999999999995
 20
-7.9375
 30
0.0
 11
69.03719999999998
 21
-7.9375
 31
0.0
  0
LINE
  5
117D
  8
SK1
 10
51.79907116049981
 20
0.0
 30
0.0
 11
51.79907116049981
 21
15.875
 31
0.0
  0
LINE
  5
117E
  8
SK1
 10
51.79907116049981
 20
-15.875
 30
0.0
 11
51.79907116049981
 21
0.0
 31
0.0
  0
LINE
  5
117F
  8
SK1
 10
68.29999999999995
 20
0.0
 30
0.0
 11
68.29999999999995
 21
14.375
 31
0.0
  0
LINE
  5
1180
  8
SK1
 10
68.29999999999995
 20
-14.375
 30
0.0
 11
68.29999999999995
 21
0.0
 31
0.0
  0
LINE
  5
118B
  8
SK1
 10
81.78800000000001
 20
19.04999999999998
 30
0.0
 11
81.78800000000001
 21
-19.05000000000001
 31
0.0
  0
LINE
  5
118C
  8
SK1
 10
70.61199999999985
 20
19.04999999999998
 30
0.0
 11
70.61199999999985
 21
-19.05000000000001
 31
0.0
  0
LINE
  5
118D
  8
SK1
 10
82.54999999999995
 20
18.28799999999998
 30
0.0
 11
82.54999999999995
 21
-18.28800000000001
 31
0.0
  0
LINE
  5
118E
  8
SK1
 10
69.84999999999991
 20
18.28799999999998
 30
0.0
 11
69.84999999999991
 21
-18.28800000000001
 31
0.0
  0
LINE
  5
118F
  8
SK1
 10
57.20079999999984
 20
-19.05000000000001
 30
0.0
 11
50.79999999999995
 21
-19.05000000000001
 31
0.0
  0
LINE
  5
1190
  8
SK1
 10
57.20079999999984
 20
-19.05000000000001
 30
0.0
 11
57.20079999999984
 21
-31.75000000000001
 31
0.0
  0
LINE
  5
1191
  8
SK1
 10
57.20079999999984
 20
-31.75000000000001
 30
0.0
 11
50.79999999999995
 21
-31.75000000000001
 31
0.0
  0
LINE
  5
1192
  8
SK1
 10
57.20079999999984
 20
31.75
 30
0.0
 11
50.79999999999995
 21
31.75
 31
0.0
  0
LINE
  5
1193
  8
SK1
 10
57.20079999999984
 20
31.75
 30
0.0
 11
57.20079999999984
 21
19.04999999999998
 31
0.0
  0
LINE
  5
1194
  8
SK1
 10
57.20079999999984
 20
19.04999999999998
 30
0.0
 11
50.79999999999995
 21
19.04999999999998
 31
0.0
  0
LINE
  5
11B5
  8
SK3
 10
67.43398377609992
 20
-8.5
 30
0.0
 11
67.43398377609992
 21
8.5
 31
0.0
  0
LINE
  5
11B6
  8
SK3
 10
65.29999999999995
 20
8.5
 30
0.0
 11
65.29999999999995
 21
-8.5
 31
0.0
  0
LINE
  5
1237
  8
SK3
 10
74.61249999999995
 20
0.0
 30
0.0
 11
74.61249999999995
 21
-2.00660000000002
 31
0.0
  0
LINE
  5
1238
  8
SK3
 10
74.61249999999995
 20
2.006599999999992
 30
0.0
 11
74.61249999999995
 21
0.0
 31
0.0
  0
LINE
  5
1239
  8
SK3
 10
74.61249999999995
 20
0.0
 30
0.0
 11
82.54999999999995
 21
0.0
 31
0.0
  0
LINE
  5
123A
  8
SK3
 10
73.65999999999985
 20
4.013199999999983
 30
0.0
 11
73.65999999999985
 21
-4.013200000000012
 31
0.0
  0
LINE
  5
123B
  8
SK3
 10
74.61249999999995
 20
4.013199999999983
 30
0.0
 11
74.61249999999995
 21
2.006599999999992
 31
0.0
  0
LINE
  5
123C
  8
SK3
 10
74.61249999999995
 20
-2.00660000000002
 30
0.0
 11
74.61249999999995
 21
-4.013200000000012
 31
0.0
  0
LINE
  5
123D
  8
SK3
 10
74.61249999999995
 20
4.013199999999983
 30
0.0
 11
82.54999999999995
 21
4.013199999999983
 31
0.0
  0
LINE
  5
123E
  8
SK3
 10
74.61249999999995
 20
-4.013200000000012
 30
0.0
 11
82.54999999999995
 21
-4.013200000000012
 31
0.0
  0
LINE
  5
124F
  8
SK3
 10
68.29999999999995
 20
2.0
 30
0.0
 11
50.79999999999995
 21
2.0
 31
0.0
  0
LINE
  5
1250
  8
SK3
 10
50.79999999999995
 20
-2.0
 30
0.0
 11
68.29999999999995
 21
-2.0
 31
0.0
  0
LINE
  5
1259
  8
SK3
 10
68.29999999999995
 20
8.999994700000002
 30
0.0
 11
67.43398377609992
 21
8.5
 31
0.0
  0
LINE
  5
125A
  8
SK3
 10
67.43398377609992
 20
-8.5
 30
0.0
 11
68.29999999999995
 21
-8.999994700000002
 31
0.0
  0
LINE
  5
125B
  8
SK3
 10
67.43398377609992
 20
8.5
 30
0.0
 11
65.29999999999995
 21
8.5
 31
0.0
  0
LINE
  5
125C
  8
SK3
 10
65.29999999999995
 20
-8.5
 30
0.0
 11
67.43398377609992
 21
-8.5
 31
0.0
  0
LINE
  5
125F
  8
SK3
 10
65.29999999999995
 20
7.9375
 30
0.0
 11
50.79999999999995
 21
7.9375
 31
0.0
  0
LINE
  5
1260
  8
SK3
 10
50.79999999999995
 20
-7.9375
 30
0.0
 11
65.29999999999995
 21
-7.9375
 31
0.0
  0
LINE
  5
1281
  8
SK3
 10
68.29999999999995
 20
-7.95929214360001
 30
0.0
 11
50.79999999999995
 21
-7.95929214360001
 31
0.0
  0
LINE
  5
1282
  8
SK3
 10
50.79999999999995
 20
-11.95929214360001
 30
0.0
 11
68.29999999999995
 21
-11.95929214360001
 31
0.0
  0
LINE
  5
1283
  8
SK3
 10
68.29999999999995
 20
11.95929214349999
 30
0.0
 11
50.79999999999995
 21
11.95929214349999
 31
0.0
  0
LINE
  5
1284
  8
SK3
 10
50.79999999999995
 20
7.959292143499994
 30
0.0
 11
68.29999999999995
 21
7.959292143499994
 31
0.0
  0
LINE
  5
12F1
  8
SK3
 10
68.29999999999995
 20
7.9375
 30
0.0
 11
50.79999999999995
 21
7.9375
 31
0.0
  0
LINE
  5
12F2
  8
SK3
 10
50.79999999999995
 20
-7.9375
 30
0.0
 11
68.29999999999995
 21
-7.9375
 31
0.0
  0
LINE
  5
12F5
  8
SK3
 10
74.61249999999995
 20
4.013199999999983
 30
0.0
 11
73.65999999999985
 21
4.013199999999983
 31
0.0
  0
LINE
  5
12F6
  8
SK3
 10
73.65999999999985
 20
-4.013200000000012
 30
0.0
 11
74.61249999999995
 21
-4.013200000000012
 31
0.0
  0
LINE
  5
12F7
  8
SK3
 10
73.65999999999985
 20
4.013199999999983
 30
0.0
 11
71.24862616370001
 21
0.0
 31
0.0
  0
LINE
  5
12F8
  8
SK3
 10
71.24862616370001
 20
0.0
 30
0.0
 11
73.65999999999985
 21
-4.013200000000012
 31
0.0
  0
LINE
  5
1312
  8
SK1
 10
51.10352761799982
 20
15.6886296694
 30
0.0
 11
51.10352761799982
 21
-15.68862966950002
 31
0.0
  0
LINE
  5
1313
  8
SK1
 10
66.79999999999995
 20
15.875
 30
0.0
 11
66.79999999999995
 21
-15.875
 31
0.0
  0
LINE
  5
1316
  8
SK1
 10
69.03719999999998
 20
7.9375
 30
0.0
 11
69.03719999999998
 21
-7.9375
 31
0.0
  0
LINE
  5
1326
  8
NOCUT
 10
49.75000000000004
 20
34.94999999651428
 30
0.0
 11
36.00000000000004
 21
34.94999999651428
 31
0.0
  0
ARC
  5
1327
  8
NOCUT
 10
49.75000000000004
 20
33.94999999651428
 30
0.0
 40
0.9999999999999716
 50
0.0
 51
90.0
  0
ARC
  5
1328
  8
NOCUT
 10
36.00000000000004
 20
33.94999999651428
 30
0.0
 40
1.0
 50
90.0
 51
180.0
  0
LINE
  5
1329
  8
NOCUT
 10
50.75000000000004
 20
-0.0000000034857202
 30
0.0
 11
50.75000000000004
 21
33.94999999651428
 31
0.0
  0
LINE
  5
132E
  8
NOCUT
 10
35.00000000000004
 20
33.94999999651428
 30
0.0
 11
35.00000000000004
 21
24.22499999999999
 31
0.0
  0
ARC
  5
1331
  8
NOCUT
 10
33.00000000000004
 20
24.22499999999999
 30
0.0
 40
2.000000000000001
 50
270.0
 51
0.0
  0
DIMENSION
  5
1334
  8
SK2
  2
*D3
 10
100.1882966360857
 20
-15.875
 30
0.0
 11
98.31329663608565
 21
-0.0000000000000018
 31
0.0
 70
    32
  3
ISO-25
 13
66.79999999999995
 23
15.875
 33
0.0
 14
66.79999999999995
 24
-15.875
 34
0.0
 50
90.0
1001
ACAD
1000
DSTYLE
1002
{
1070
   287
1070
     5
1070
   271
1070
     3
1070
   272
1070
     3
1070
   279
1070
     2
1002
}
  0
DIMENSION
  5
1343
  8
SK2
  2
*D4
 10
113.9078685015291
 20
-34.95000000000001
 30
0.0
 11
112.0328685015291
 21
-0.000000001742869
 31
0.0
 70
    32
  3
ISO-25
 13
49.75000000000004
 23
34.94999999651428
 33
0.0
 14
49.79999999999995
 24
-34.95
 34
0.0
 50
90.0
1001
ACAD
1000
DSTYLE
1002
{
1070
   287
1070
     5
1070
   271
1070
     3
1070
   272
1070
     3
1070
   279
1070
     2
1002
}
  0
LINE
  5
1353
  8
SK4
 10
50.75
 20
-0.0000000034857197
 30
0.0
 11
82.54999999999995
 21
-0.0000000000000142
 31
0.0
  0
ENDSEC
  0
EOF
