  0
SECTION
  2
HEADER
  9
$ACADVER
  1
AC1009
  9
$DWGCODEPAGE
  3
ansi_1252
  9
$INSBASE
 10
0.0
 20
0.0
 30
0.0
  9
$EXTMIN
 10
-68.25000000000003
 20
-43.89728280658011
 30
0.0
  9
$EXTMAX
 10
211.7399590116038
 20
50.83203563714093
 30
0.0
  9
$LIMMIN
 10
0.0
 20
0.0
  9
$LIMMAX
 10
420.0
 20
297.0
  9
$ORTHOMODE
 70
     1
  9
$REGENMODE
 70
     1
  9
$FILLMODE
 70
     1
  9
$QTEXTMODE
 70
     0
  9
$MIRRTEXT
 70
     0
  9
$DRAGMODE
 70
     2
  9
$LTSCALE
 40
1.0
  9
$OSMODE
 70
   511
  9
$ATTMODE
 70
     1
  9
$TEXTSIZE
 40
2.5
  9
$TRACEWID
 40
1.0
  9
$TEXTSTYLE
  7
STANDARD
  9
$CLAYER
  8
0
  9
$CELTYPE
  6
BYLAYER
  9
$CECOLOR
 62
   256
  9
$DIMSCALE
 40
1.0
  9
$DIMASZ
 40
2.5
  9
$DIMEXO
 40
0.625
  9
$DIMDLI
 40
3.75
  9
$DIMRND
 40
0.0
  9
$DIMDLE
 40
0.0
  9
$DIMEXE
 40
1.25
  9
$DIMTP
 40
0.0
  9
$DIMTM
 40
0.0
  9
$DIMTXT
 40
2.5
  9
$DIMCEN
 40
2.5
  9
$DIMTSZ
 40
0.0
  9
$DIMTOL
 70
     0
  9
$DIMLIM
 70
     0
  9
$DIMTIH
 70
     0
  9
$DIMTOH
 70
     0
  9
$DIMSE1
 70
     0
  9
$DIMSE2
 70
     0
  9
$DIMTAD
 70
     1
  9
$DIMZIN
 70
     8
  9
$DIMBLK
  1

  9
$DIMASO
 70
     1
  9
$DIMSHO
 70
     1
  9
$DIMPOST
  1

  9
$DIMAPOST
  1

  9
$DIMALT
 70
     0
  9
$DIMALTD
 70
     3
  9
$DIMALTF
 40
0.03937007874016
  9
$DIMLFAC
 40
1.0
  9
$DIMTOFL
 70
     1
  9
$DIMTVP
 40
0.0
  9
$DIMTIX
 70
     0
  9
$DIMSOXD
 70
     0
  9
$DIMSAH
 70
     0
  9
$DIMBLK1
  1

  9
$DIMBLK2
  1

  9
$DIMSTYLE
  2
ISO-25
  9
$DIMCLRD
 70
     0
  9
$DIMCLRE
 70
     0
  9
$DIMCLRT
 70
     0
  9
$DIMTFAC
 40
1.0
  9
$DIMGAP
 40
0.625
  9
$LUNITS
 70
     2
  9
$LUPREC
 70
     3
  9
$SKETCHINC
 40
1.0
  9
$FILLETRAD
 40
10.0
  9
$AUNITS
 70
     0
  9
$AUPREC
 70
     0
  9
$MENU
  1
.
  9
$ELEVATION
 40
0.0
  9
$PELEVATION
 40
0.0
  9
$THICKNESS
 40
0.0
  9
$LIMCHECK
 70
     0
  9
$CHAMFERA
 40
10.0
  9
$CHAMFERB
 40
10.0
  9
$SKPOLY
 70
     0
  9
$TDCREATE
 40
2455022.429026158
  9
$TDUPDATE
 40
2458697.301719907
  9
$TDINDWG
 40
0.0145849653
  9
$TDUSRTIMER
 40
0.0088522222
  9
$USRTIMER
 70
     1
  9
$ANGBASE
 50
0.0
  9
$ANGDIR
 70
     0
  9
$PDMODE
 70
     0
  9
$PDSIZE
 40
0.0
  9
$PLINEWID
 40
0.0
  9
$COORDS
 70
     1
  9
$SPLFRAME
 70
     0
  9
$SPLINETYPE
 70
     6
  9
$SPLINESEGS
 70
     8
  9
$ATTDIA
 70
     0
  9
$ATTREQ
 70
     1
  9
$HANDLING
 70
     1
  9
$HANDSEED
  5
243A
  9
$SURFTAB1
 70
     6
  9
$SURFTAB2
 70
     6
  9
$SURFTYPE
 70
     6
  9
$SURFU
 70
     6
  9
$SURFV
 70
     6
  9
$UCSNAME
  2

  9
$UCSORG
 10
0.0
 20
0.0
 30
0.0
  9
$UCSXDIR
 10
1.0
 20
0.0
 30
0.0
  9
$UCSYDIR
 10
0.0
 20
1.0
 30
0.0
  9
$PUCSNAME
  2

  9
$PUCSORG
 10
0.0
 20
0.0
 30
0.0
  9
$PUCSXDIR
 10
1.0
 20
0.0
 30
0.0
  9
$PUCSYDIR
 10
0.0
 20
1.0
 30
0.0
  9
$USERI1
 70
     0
  9
$USERI2
 70
     0
  9
$USERI3
 70
     0
  9
$USERI4
 70
     0
  9
$USERI5
 70
     0
  9
$USERR1
 40
0.0
  9
$USERR2
 40
0.0
  9
$USERR3
 40
0.0
  9
$USERR4
 40
0.0
  9
$USERR5
 40
0.0
  9
$WORLDVIEW
 70
     1
  9
$SHADEDGE
 70
     3
  9
$SHADEDIF
 70
    70
  9
$TILEMODE
 70
     1
  9
$MAXACTVP
 70
    64
  9
$PLIMCHECK
 70
     0
  9
$PEXTMIN
 10
1.000000000000000E+20
 20
1.000000000000000E+20
 30
1.000000000000000E+20
  9
$PEXTMAX
 10
-1.000000000000000E+20
 20
-1.000000000000000E+20
 30
-1.000000000000000E+20
  9
$PLIMMIN
 10
0.0
 20
0.0
  9
$PLIMMAX
 10
0.0
 20
0.0
  9
$UNITMODE
 70
     0
  9
$VISRETAIN
 70
     1
  9
$PLINEGEN
 70
     0
  9
$PSLTSCALE
 70
     1
  0
ENDSEC
  0
SECTION
  2
TABLES
  0
TABLE
  2
VPORT
 70
     1
  0
VPORT
  2
*ACTIVE
 70
     0
 10
0.0
 20
0.0
 11
1.0
 21
1.0
 12
205.9318953936522
 22
3.467376415280413
 13
0.0
 23
0.0
 14
10.0
 24
10.0
 15
10.0
 25
10.0
 16
0.0
 26
0.0
 36
1.0
 17
-134.1869158878504
 27
0.0
 37
0.0
 40
102.1875853530163
 41
2.794759825327511
 42
50.0
 43
0.0
 44
0.0
 50
0.0
 51
0.0
 71
    16
 72
  1000
 73
     1
 74
     3
 75
     0
 76
     0
 77
     0
 78
     0
  0
ENDTAB
  0
TABLE
  2
LTYPE
 70
     6
  0
LTYPE
  2
CONTINUOUS
 70
     0
  3
Solid line
 72
    65
 73
     0
 40
0.0
  0
LTYPE
  2
CENTER
 70
     0
  3
 Center _____  _  _____  _  _____  _  _____  _ 
 72
    65
 73
     4
 40
50.8
 49
31.75
 49
-6.35
 49
6.35
 49
-6.35
  0
LTYPE
  2
DASHED
 70
     0
  3
Dashed __  __  __  __  __  __  __  __  __  __  
 72
    65
 73
     2
 40
19.05
 49
12.7
 49
-6.35
  0
LTYPE
  2
HIDDEN
 70
     0
  3
Hidden __ __ __ __ __ __ __ __ __ __ __ __ __ __
 72
    65
 73
     2
 40
1.905
 49
1.27
 49
-0.635
  0
LTYPE
  2
CENTERX2
 70
     0
  3
Center (2x) ________  __  ________  __  _____
 72
    65
 73
     4
 40
20.32
 49
12.7
 49
-2.54
 49
2.54
 49
-2.54
  0
LTYPE
  2
PHANTOM
 70
     0
  3
Phantom ______  __  __  ______  __  __  ______
 72
    65
 73
     6
 40
12.7
 49
6.35
 49
-1.27
 49
1.27
 49
-1.27
 49
1.27
 49
-1.27
  0
ENDTAB
  0
TABLE
  2
LAYER
 70
    26
  0
LAYER
  2
0
 70
     0
 62
     7
  6
CONTINUOUS
  0
LAYER
  2
1
 70
     0
 62
     4
  6
CONTINUOUS
  0
LAYER
  2
2
 70
     0
 62
     7
  6
CONTINUOUS
  0
LAYER
  2
3
 70
     0
 62
     1
  6
DASHED
  0
LAYER
  2
4
 70
     0
 62
     2
  6
CENTER
  0
LAYER
  2
6
 70
     0
 62
     5
  6
CONTINUOUS
  0
LAYER
  2
7
 70
     0
 62
     5
  6
CONTINUOUS
  0
LAYER
  2
11
 70
     0
 62
     4
  6
CONTINUOUS
  0
LAYER
  2
SK1
 70
     0
 62
     4
  6
CONTINUOUS
  0
LAYER
  2
SK2
 70
     0
 62
     7
  6
CONTINUOUS
  0
LAYER
  2
SK3
 70
     0
 62
     1
  6
DASHED
  0
LAYER
  2
SK4
 70
     0
 62
     2
  6
CENTER
  0
LAYER
  2
SK6
 70
     0
 62
     5
  6
CONTINUOUS
  0
LAYER
  2
SK7
 70
     0
 62
     5
  6
CONTINUOUS
  0
LAYER
  2
SK11
 70
     0
 62
     4
  6
CONTINUOUS
  0
LAYER
  2
CUT
 70
     0
 62
     1
  6
CONTINUOUS
  0
LAYER
  2
NOCUT
 70
     0
 62
    -7
  6
CONTINUOUS
  0
LAYER
  2
SKVIEW1
 70
     0
 62
     4
  6
CONTINUOUS
  0
LAYER
  2
SKVIEW2
 70
     0
 62
     7
  6
CONTINUOUS
  0
LAYER
  2
SKVIEW3
 70
     0
 62
     1
  6
DASHED
  0
LAYER
  2
SKVIEW4
 70
     0
 62
     2
  6
CENTER
  0
LAYER
  2
SKVIEW6
 70
     0
 62
     5
  6
CONTINUOUS
  0
LAYER
  2
SKVIEW7
 70
     0
 62
     5
  6
CONTINUOUS
  0
LAYER
  2
SKVIEW11
 70
     0
 62
     4
  6
CONTINUOUS
  0
LAYER
  2
INFTOTAL
 70
     0
 62
     9
  6
CONTINUOUS
  0
LAYER
  2
DEFPOINTS
 70
     0
 62
     7
  6
CONTINUOUS
  0
ENDTAB
  0
TABLE
  2
STYLE
 70
     1
  0
STYLE
  2
STANDARD
 70
     0
 40
0.0
 41
1.0
 50
0.0
 71
     0
 42
2.5
  3
txt
  4

  0
ENDTAB
  0
TABLE
  2
VIEW
 70
     0
  0
ENDTAB
  0
TABLE
  2
UCS
 70
     0
  0
ENDTAB
  0
TABLE
  2
APPID
 70
     2
  0
APPID
  2
ACAD
 70
     0
  0
APPID
  2
ACAECLAYERSTANDARD
 70
     0
  0
ENDTAB
  0
TABLE
  2
DIMSTYLE
 70
     1
  0
DIMSTYLE
  2
ISO-25
 70
     0
  3

  4

  5

  6

  7

 40
1.0
 41
2.5
 42
0.625
 43
3.75
 44
1.25
 45
0.0
 46
0.0
 47
0.0
 48
0.0
140
2.5
141
2.5
142
0.0
143
0.03937007874016
144
1.0
145
0.0
146
1.0
147
0.625
 71
     0
 72
     0
 73
     0
 74
     0
 75
     0
 76
     0
 77
     1
 78
     8
170
     0
171
     3
172
     1
173
     0
174
     0
175
     0
176
     0
177
     0
178
     0
  0
ENDTAB
  0
ENDSEC
  0
SECTION
  2
BLOCKS
  0
BLOCK
  8
0
  2
$MODEL_SPACE
 70
     0
 10
0.0
 20
0.0
 30
0.0
  3
$MODEL_SPACE
  1

  0
ENDBLK
  5
21
  8
0
  0
BLOCK
 67
     1
  8
0
  2
$PAPER_SPACE
 70
     0
 10
0.0
 20
0.0
 30
0.0
  3
$PAPER_SPACE
  1

  0
ENDBLK
  5
1D
 67
     1
  8
0
  0
BLOCK
  8
0
  2
_FILLED
 70
     0
 10
0.0
 20
0.0
 30
0.0
  3
_FILLED
  1

  0
SOLID
  5
1C4
  8
0
  6
BYBLOCK
 62
     0
 10
0.0
 20
0.0
 30
0.0
 11
-1.0
 21
0.2142857143
 31
0.0
 12
-1.0
 22
-0.2142857143
 32
0.0
 13
-1.0
 23
-0.2142857143
 33
0.0
  0
ENDBLK
  5
1C5
  8
0
  6
BYBLOCK
 62
     0
  0
BLOCK
  8
0
  2
*D5
 70
     1
 10
0.0
 20
0.0
 30
0.0
  3
*D5
  1

  0
LINE
  5
1D3
  8
2
 62
     0
 10
0.0
 20
22.84999999999999
 30
0.0
 11
0.0
 21
48.91573065769793
 31
0.0
  0
LINE
  5
1D4
  8
2
 62
     0
 10
152.4
 20
27.42499999999993
 30
0.0
 11
152.4
 21
48.91573065769793
 31
0.0
  0
LINE
  5
1D5
  8
2
 62
     0
 10
2.5
 20
47.66573065769793
 30
0.0
 11
149.9
 21
47.66573065769793
 31
0.0
  0
SOLID
  5
1D6
  8
2
 62
     0
 10
2.5
 20
48.08239732436459
 30
0.0
 11
2.5
 21
47.24906399103126
 31
0.0
 12
0.0
 22
47.66573065769793
 32
0.0
 13
0.0
 23
47.66573065769793
 33
0.0
  0
SOLID
  5
1D7
  8
2
 62
     0
 10
149.9
 20
47.24906399103126
 30
0.0
 11
149.9
 21
48.08239732436459
 31
0.0
 12
152.4
 22
47.66573065769793
 32
0.0
 13
152.4
 23
47.66573065769793
 33
0.0
  0
TEXT
  5
1D8
  8
2
  6
CONTINUOUS
 62
     0
 10
71.61666666666667
 20
48.29073065769793
 30
0.0
 40
2.5
  1
152.4
  0
POINT
  5
1D9
  8
DEFPOINTS
 62
     0
 10
0.0
 20
22.22499999999999
 30
0.0
  0
POINT
  5
1DA
  8
DEFPOINTS
 62
     0
 10
152.4
 20
26.79999999999993
 30
0.0
  0
POINT
  5
1DB
  8
DEFPOINTS
 62
     0
 10
152.4
 20
47.66573065769793
 30
0.0
  0
ENDBLK
  5
1DD
  8
0
  0
BLOCK
  8
0
  2
*D16
 70
     1
 10
0.0
 20
0.0
 30
0.0
  3
*D16
  1

  0
LINE
  5
16DF
  8
SK2
 62
     0
 10
169.2113703304999
 20
12.70000000000013
 30
0.0
 11
196.5501748489251
 21
12.70000000000013
 31
0.0
  0
LINE
  5
16E0
  8
SK2
 62
     0
 10
169.2113703304999
 20
-12.69999999999996
 30
0.0
 11
196.5501748489251
 21
-12.69999999999996
 31
0.0
  0
LINE
  5
16E1
  8
SK2
 62
     0
 10
195.3001748489251
 20
10.20000000000013
 30
0.0
 11
195.3001748489251
 21
-10.19999999999996
 31
0.0
  0
SOLID
  5
16E2
  8
SK2
 62
     0
 10
195.7168415155917
 20
10.20000000000013
 30
0.0
 11
194.8835081822584
 21
10.20000000000013
 31
0.0
 12
195.3001748489251
 22
12.70000000000013
 32
0.0
 13
195.3001748489251
 23
12.70000000000013
 33
0.0
  0
SOLID
  5
16E3
  8
SK2
 62
     0
 10
194.8835081822584
 20
-10.19999999999996
 30
0.0
 11
195.7168415155917
 21
-10.19999999999996
 31
0.0
 12
195.3001748489251
 22
-12.69999999999996
 32
0.0
 13
195.3001748489251
 23
-12.69999999999996
 33
0.0
  0
TEXT
  5
16E4
  8
SK2
  6
CONTINUOUS
 62
     0
 10
194.6751748489251
 20
-3.749999999999915
 30
0.0
 40
2.5
  1
25.4
 50
90.0
  0
POINT
  5
16E5
  8
DEFPOINTS
 62
     0
 10
168.5863703304999
 20
12.70000000000013
 30
0.0
  0
POINT
  5
16E6
  8
DEFPOINTS
 62
     0
 10
168.5863703304999
 20
-12.69999999999996
 30
0.0
  0
POINT
  5
16E7
  8
DEFPOINTS
 62
     0
 10
195.3001748489251
 20
-12.69999999999996
 30
0.0
  0
ENDBLK
  5
16DE
  8
0
  0
BLOCK
  8
0
  2
*D17
 70
     1
 10
0.0
 20
0.0
 30
0.0
  3
*D17
  1

  0
LINE
  5
16EE
  8
SK2
 62
     0
 10
152.025
 20
27.79999999999995
 30
0.0
 11
211.7399590116038
 21
27.79999999999994
 31
0.0
  0
LINE
  5
16EF
  8
SK2
 62
     0
 10
152.025
 20
-27.80000000000004
 30
0.0
 11
211.7399590116038
 21
-27.80000000000004
 31
0.0
  0
LINE
  5
16F0
  8
SK2
 62
     0
 10
210.4899590116038
 20
25.29999999999994
 30
0.0
 11
210.4899590116038
 21
-25.30000000000004
 31
0.0
  0
SOLID
  5
16F1
  8
SK2
 62
     0
 10
210.9066256782704
 20
25.29999999999994
 30
0.0
 11
210.0732923449371
 21
25.29999999999994
 31
0.0
 12
210.4899590116038
 22
27.79999999999994
 32
0.0
 13
210.4899590116038
 23
27.79999999999994
 33
0.0
  0
SOLID
  5
16F2
  8
SK2
 62
     0
 10
210.0732923449371
 20
-25.30000000000004
 30
0.0
 11
210.9066256782704
 21
-25.30000000000004
 31
0.0
 12
210.4899590116038
 22
-27.80000000000004
 32
0.0
 13
210.4899590116038
 23
-27.80000000000004
 33
0.0
  0
TEXT
  5
16F3
  8
SK2
  6
CONTINUOUS
 62
     0
 10
209.8649590116038
 20
-3.750000000000057
 30
0.0
 40
2.5
  1
55.6
 50
90.0
  0
POINT
  5
16F4
  8
DEFPOINTS
 62
     0
 10
151.4
 20
27.79999999999995
 30
0.0
  0
POINT
  5
16F5
  8
DEFPOINTS
 62
     0
 10
151.4
 20
-27.80000000000004
 30
0.0
  0
POINT
  5
16F6
  8
DEFPOINTS
 62
     0
 10
210.4899590116038
 20
-27.80000000000004
 30
0.0
  0
ENDBLK
  5
16ED
  8
0
  0
BLOCK
  8
0
  2
*D18
 70
     1
 10
0.0
 20
0.0
 30
0.0
  3
*D18
  1

  0
LINE
  5
16FD
  8
SK2
 62
     0
 10
0.0
 20
-22.84999999999999
 30
0.0
 11
0.0
 21
-43.28165299792866
 31
0.0
  0
LINE
  5
16FE
  8
SK2
 62
     0
 10
136.65
 20
-27.42500000000008
 30
0.0
 11
136.65
 21
-43.28165299792866
 31
0.0
  0
LINE
  5
16FF
  8
SK2
 62
     0
 10
2.5
 20
-42.03165299792866
 30
0.0
 11
134.15
 21
-42.03165299792866
 31
0.0
  0
SOLID
  5
1700
  8
SK2
 62
     0
 10
2.5
 20
-41.614986331262
 30
0.0
 11
2.5
 21
-42.44831966459532
 31
0.0
 12
0.0
 22
-42.03165299792866
 32
0.0
 13
0.0
 23
-42.03165299792866
 33
0.0
  0
SOLID
  5
1701
  8
SK2
 62
     0
 10
134.15
 20
-42.44831966459532
 30
0.0
 11
134.15
 21
-41.614986331262
 31
0.0
 12
136.65
 22
-42.03165299792866
 32
0.0
 13
136.65
 23
-42.03165299792866
 33
0.0
  0
TEXT
  5
1702
  8
SK2
  6
CONTINUOUS
 62
     0
 10
62.49166666666667
 20
-41.40665299792866
 30
0.0
 40
2.5
  1
136.65
  0
POINT
  5
1703
  8
DEFPOINTS
 62
     0
 10
0.0
 20
-22.22499999999999
 30
0.0
  0
POINT
  5
1704
  8
DEFPOINTS
 62
     0
 10
136.65
 20
-26.80000000000008
 30
0.0
  0
POINT
  5
1705
  8
DEFPOINTS
 62
     0
 10
136.65
 20
-42.03165299792866
 30
0.0
  0
ENDBLK
  5
16FC
  8
0
  0
ENDSEC
  0
SECTION
  2
ENTITIES
  0
LINE
  5
1B2
  8
4
 10
152.4
 20
-0.0000000069714549
 30
0.0
 11
0.0
 21
0.0
 31
0.0
  0
DIMENSION
  5
1CF
  8
2
  2
*D5
 10
152.4
 20
47.66573065769793
 30
0.0
 11
76.2
 21
49.54073065769793
 31
0.0
 70
    32
  3
ISO-25
 13
0.0
 23
22.22499999999999
 33
0.0
 14
152.4
 24
26.79999999999993
 34
0.0
  0
LINE
  5
364
  8
NOCUT
 10
152.4
 20
-0.0000000069714549
 30
0.0
 11
0.0
 21
0.0
 31
0.0
  0
LINE
  5
99D
  8
SK3
 10
-66.51794919240001
 20
0.0
 30
0.0
 11
-66.51794919240001
 21
8.149999999999991
 31
0.0
  0
LINE
  5
99E
  8
SK3
 10
-66.51794919240001
 20
-8.149999999999991
 30
0.0
 11
-66.51794919240001
 21
0.0
 31
0.0
  0
LINE
  5
99F
  8
SK3
 10
-63.48000000000002
 20
0.0
 30
0.0
 11
-63.48000000000002
 21
8.149999999999991
 31
0.0
  0
LINE
  5
9A0
  8
SK3
 10
-63.48000000000002
 20
-8.149999999999991
 30
0.0
 11
-63.48000000000002
 21
0.0
 31
0.0
  0
LINE
  5
9BF
  8
SK3
 10
-68.25000000000003
 20
-9.149999999999991
 30
0.0
 11
-66.51794919240001
 21
-8.149999999999991
 31
0.0
  0
LINE
  5
9C0
  8
SK3
 10
-66.51794919240001
 20
8.149999999999991
 30
0.0
 11
-68.25000000000003
 21
9.149999999999991
 31
0.0
  0
LINE
  5
9C1
  8
SK3
 10
-66.51794919240001
 20
-8.149999999999991
 30
0.0
 11
-63.48000000000002
 21
-8.149999999999991
 31
0.0
  0
LINE
  5
9C2
  8
SK3
 10
-63.48000000000002
 20
8.149999999999991
 30
0.0
 11
-66.51794919240001
 21
8.149999999999991
 31
0.0
  0
LINE
  5
9C3
  8
SK3
 10
-63.48000000000002
 20
-6.700000000000003
 30
0.0
 11
-8.249999999999964
 21
-6.700000000000003
 31
0.0
  0
LINE
  5
9C4
  8
SK3
 10
-8.249999999999972
 20
6.700000000000003
 30
0.0
 11
-63.48000000000002
 21
6.700000000000003
 31
0.0
  0
LINE
  5
9E1
  8
0
 10
154.4
 20
1.999999996514252
 30
0.0
 11
150.4
 21
-2.000000003485749
 31
0.0
  0
LINE
  5
9E2
  8
0
 10
150.4
 20
1.999999996514252
 30
0.0
 11
154.4
 21
-2.000000003485749
 31
0.0
  0
CIRCLE
  5
9E3
  8
0
 10
152.4
 20
-0.0000000034857481
 30
0.0
 40
1.5
  0
LINE
  5
9E4
  8
0
 10
3.0
 20
3.0
 30
0.0
 11
-3.0
 21
-3.0
 31
0.0
  0
LINE
  5
9E5
  8
0
 10
-3.0
 20
3.0
 30
0.0
 11
3.0
 21
-3.0
 31
0.0
  0
CIRCLE
  5
9E6
  8
0
 10
0.0
 20
0.0
 30
0.0
 40
2.5
  0
LINE
  5
9E7
  8
SK3
 10
-63.48000000000005
 20
-7.937499999800011
 30
0.0
 11
-39.75000000000003
 21
-7.937499999800011
 31
0.0
  0
LINE
  5
9E8
  8
SK3
 10
-39.75000000000003
 20
7.937500000199975
 30
0.0
 11
-39.75000000000003
 21
-7.937499999800011
 31
0.0
  0
LINE
  5
9E9
  8
SK3
 10
-39.75000000000003
 20
7.937500000199975
 30
0.0
 11
-63.48000000000005
 21
7.937500000199975
 31
0.0
  0
ARC
  5
AA1
  8
NOCUT
 10
0.5
 20
22.72499999999999
 30
0.0
 40
0.5
 50
270.0
 51
0.0
  0
LINE
  5
AA4
  8
NOCUT
 10
0.5
 20
22.22499999999999
 30
0.0
 11
0.0
 21
22.22499999999999
 31
0.0
  0
LINE
  5
AA5
  8
NOCUT
 10
135.65
 20
22.22499999999999
 30
0.0
 11
20.04999999999998
 21
22.22499999999999
 31
0.0
  0
LINE
  5
AA7
  8
NOCUT
 10
14.65616676909997
 20
30.7125381562
 30
0.0
 11
18.54999999999995
 21
30.7125381562
 31
0.0
  0
POLYLINE
  5
AA8
  8
NOCUT
 66
     1
 10
0.0
 20
0.0
 30
0.0
  0
VERTEX
  5
2288
  8
NOCUT
 10
18.54999999999995
 20
30.7125381562
 30
0.0
  0
VERTEX
  5
2289
  8
NOCUT
 10
18.57284145939997
 20
30.6889245341
 30
0.0
  0
VERTEX
  5
228A
  8
NOCUT
 10
19.04999999999995
 20
30.1953638825
 30
0.0
  0
SEQEND
  5
241F
  8
NOCUT
  0
POLYLINE
  5
AA9
  8
NOCUT
 66
     1
 10
0.0
 20
0.0
 30
0.0
  0
VERTEX
  5
228B
  8
NOCUT
 10
1.0
 20
30.1953638825
 30
0.0
  0
VERTEX
  5
228C
  8
NOCUT
 10
1.477158540600044
 20
30.6889245341
 30
0.0
  0
VERTEX
  5
228D
  8
NOCUT
 10
1.5
 20
30.7125381562
 30
0.0
  0
SEQEND
  5
2420
  8
NOCUT
  0
LINE
  5
AAA
  8
NOCUT
 10
1.499999999999996
 20
30.7125381562
 30
0.0
 11
7.603833230899966
 21
30.7125381562
 31
0.0
  0
POLYLINE
  5
AAB
  8
NOCUT
 66
     1
 10
0.0
 20
0.0
 30
0.0
  0
VERTEX
  5
228E
  8
NOCUT
 10
7.603833230899966
 20
30.7125381562
 30
0.0
  0
VERTEX
  5
228F
  8
NOCUT
 10
9.140787278000005
 20
27.9518236359
 30
0.0
  0
VERTEX
  5
2290
  8
NOCUT
 10
9.204999999999984
 20
27.8360650174
 30
0.0
  0
SEQEND
  5
2421
  8
NOCUT
  0
POLYLINE
  5
AAC
  8
NOCUT
 66
     1
 10
0.0
 20
0.0
 30
0.0
  0
VERTEX
  5
2291
  8
NOCUT
 10
13.05499999999995
 20
27.8360650174
 30
0.0
  0
VERTEX
  5
2292
  8
NOCUT
 10
13.1192127219
 20
27.9518236359
 30
0.0
  0
VERTEX
  5
2293
  8
NOCUT
 10
14.65616676909997
 20
30.7125381562
 30
0.0
  0
SEQEND
  5
2422
  8
NOCUT
  0
ARC
  5
AAD
  8
NOCUT
 10
12.54226966779999
 20
27.51838423379999
 30
0.0
 40
0.512803993977288
 50
271.4225108534019
 51
0.9711541378997977
  0
ARC
  5
AAE
  8
NOCUT
 10
9.716236145599964
 20
27.5169512018
 30
0.0
 40
0.5113363895821054
 50
178.8654582714003
 51
268.7408767374973
  0
LINE
  5
AAF
  8
NOCUT
 10
9.704999999999984
 20
27.0057382791
 30
0.0
 11
12.55499999999995
 21
27.0057382791
 31
0.0
  0
LINE
  5
AB0
  8
NOCUT
 10
0.0
 20
0.0
 30
0.0
 11
0.0
 21
22.22499999999999
 31
0.0
  0
LINE
  5
ACA
  8
NOCUT
 10
1.0
 20
22.72499999999999
 30
0.0
 11
1.0
 21
30.1953638825
 31
0.0
  0
LINE
  5
ACB
  8
NOCUT
 10
9.204999999999984
 20
27.8360650174
 30
0.0
 11
9.20489975601786
 21
27.5169512018
 31
0.0
  0
LINE
  5
ACC
  8
NOCUT
 10
13.05499999999995
 20
27.8360650174
 30
0.0
 11
13.05507366177728
 21
27.51838423379999
 31
0.0
  0
LINE
  5
ACD
  8
NOCUT
 10
19.04999999999995
 20
30.1953638825
 30
0.0
 11
19.04999999999995
 21
23.22499999999999
 31
0.0
  0
ARC
  5
B91
  8
1
 10
20.04999999999998
 20
-23.22499999999999
 30
0.0
 40
1.0
 50
90.0
 51
180.0
  0
ARC
  5
B93
  8
1
 10
20.04999999999998
 20
23.22499999999999
 30
0.0
 40
1.0
 50
180.0
 51
270.0
  0
ARC
  5
B94
  8
1
 10
0.799999999999983
 20
-22.42500000000001
 30
0.0
 40
0.5
 50
66.42182152179994
 51
90.0
  0
ARC
  5
B95
  8
1
 10
0.799999999999983
 20
22.42499999999998
 30
0.0
 40
0.5
 50
270.0
 51
293.5781784782001
  0
LINE
  5
B96
  8
1
 10
20.04999999999998
 20
-22.22499999999999
 30
0.0
 11
135.65
 21
-22.22500000000004
 31
0.0
  0
LINE
  5
B97
  8
1
 10
135.65
 20
22.22499999999999
 30
0.0
 11
20.04999999999998
 21
22.22499999999999
 31
0.0
  0
LINE
  5
B98
  8
1
 10
0.0
 20
-22.22499999999999
 30
0.0
 11
0.2999999999999829
 21
-21.92500000000001
 31
0.0
  0
LINE
  5
B99
  8
1
 10
0.2999999999999829
 20
21.92499999999998
 30
0.0
 11
0.0
 21
22.22499999999999
 31
0.0
  0
LINE
  5
B9C
  8
SK1
 10
0.0
 20
22.22499999999999
 30
0.0
 11
-67.3943082273
 21
12.39657058259999
 31
0.0
  0
LINE
  5
B9D
  8
SK1
 10
-67.3943082273
 20
-12.39657058270001
 30
0.0
 11
0.0
 21
-22.22499999999999
 31
0.0
  0
LINE
  5
B9E
  8
1
 10
0.2999999999999829
 20
-21.92500000000001
 30
0.0
 11
0.799999999999983
 21
-21.92500000000001
 31
0.0
  0
LINE
  5
B9F
  8
1
 10
0.799999999999983
 20
21.92499999999998
 30
0.0
 11
0.2999999999999829
 21
21.92499999999998
 31
0.0
  0
ARC
  5
BA0
  8
SK1
 10
-67.25
 20
-11.4070377962
 30
0.0
 40
1.000000000000014
 50
180.0
 51
261.7027777778003
  0
ARC
  5
BA1
  8
SK1
 10
-67.25
 20
11.40703779609998
 30
0.0
 40
1.000000000000014
 50
98.29722222219964
 51
180.0
  0
LINE
  5
BA2
  8
1
 10
14.6561667922
 20
30.49243725150001
 30
0.0
 11
13.05500004409998
 21
27.5903849293
 31
0.0
  0
LINE
  5
BA3
  8
1
 10
14.65616676899998
 20
-30.51805114620001
 30
0.0
 11
14.65616676899998
 21
30.49243720799998
 31
0.0
  0
LINE
  5
BA4
  8
1
 10
13.05500002099998
 20
-27.61768172550001
 30
0.0
 11
14.65616678619998
 21
-30.51748284710001
 31
0.0
  0
LINE
  5
BA5
  8
1
 10
13.05499999999998
 20
-27.61768156150001
 30
0.0
 11
13.05499999999998
 21
27.5896745586
 31
0.0
  0
LINE
  5
BA6
  8
1
 10
14.65616729029998
 20
-30.5174828113
 30
0.0
 11
14.76217597669998
 21
-30.54092502470002
 31
0.0
  0
LINE
  5
BA7
  8
1
 10
14.69253150219998
 20
30.50268419069999
 30
0.0
 11
14.65616753799998
 21
30.49243719839998
 31
0.0
  0
LINE
  5
BA8
  8
1
 10
18.54999999999998
 20
30.50268419069999
 30
0.0
 11
14.69253150219998
 21
30.50268419069999
 31
0.0
  0
LINE
  5
BA9
  8
1
 10
14.76217597669998
 20
-30.54092502470002
 30
0.0
 11
18.54999999999998
 21
-30.54092502470002
 31
0.0
  0
LINE
  5
BAA
  8
1
 10
9.204999955799991
 20
27.5903849293
 30
0.0
 11
7.603833207699978
 21
30.49243725150001
 31
0.0
  0
LINE
  5
BAB
  8
1
 10
9.204999999999984
 20
-27.6182445954
 30
0.0
 11
9.204999999999984
 21
27.5903848518
 31
0.0
  0
LINE
  5
BAC
  8
1
 10
7.6038332137
 20
-30.51748284710001
 30
0.0
 11
9.204999978799975
 21
-27.61768172539999
 31
0.0
  0
LINE
  5
BAD
  8
1
 10
7.603833230899994
 20
-30.5174828113
 30
0.0
 11
7.603833230899994
 21
30.49194635059999
 31
0.0
  0
LINE
  5
BAE
  8
1
 10
1.0
 20
-29.20362428180002
 30
0.0
 11
1.0
 21
29.22527756419998
 31
0.0
  0
ARC
  5
BAF
  8
1
 10
1.736068826500002
 20
28.83956144390001
 30
0.0
 40
0.8318485490646366
 50
106.4871262675995
 51
152.2338518675996
  0
POLYLINE
  5
BB0
  8
1
 66
     1
 10
0.0
 20
0.0
 30
0.0
  0
VERTEX
  5
2294
  8
1
 10
1.499991175799977
 20
-29.70136738420001
 30
0.0
  0
VERTEX
  5
2295
  8
1
 10
1.31486147779998
 20
-29.6078136875
 30
0.0
  0
VERTEX
  5
2296
  8
1
 10
1.220960437199977
 20
-29.54106786380001
 30
0.0
  0
VERTEX
  5
2297
  8
1
 10
1.131120186599986
 20
-29.45918995790001
 30
0.0
  0
VERTEX
  5
2298
  8
1
 10
1.068966655699995
 20
-29.38420485969999
 30
0.0
  0
VERTEX
  5
2299
  8
1
 10
1.029912598300001
 20
-29.3189781797
 30
0.0
  0
VERTEX
  5
229A
  8
1
 10
1.001757060399996
 20
-29.23060659110001
 30
0.0
  0
VERTEX
  5
229B
  8
1
 10
1.000001938499992
 20
-29.2054619834
 30
0.0
  0
SEQEND
  5
2423
  8
1
  0
LINE
  5
BB1
  8
1
 10
7.5674684974
 20
30.50268419069999
 30
0.0
 11
4.03465638199998
 21
30.50268419069999
 31
0.0
  0
LINE
  5
BB2
  8
1
 10
7.603832461599978
 20
30.49243719839998
 30
0.0
 11
7.5674684974
 21
30.50268419069999
 31
0.0
  0
LINE
  5
BB3
  8
1
 10
7.497824022700001
 20
-30.54092502470002
 30
0.0
 11
7.603832709099976
 21
-30.5174828113
 31
0.0
  0
LINE
  5
BB4
  8
1
 10
3.987796517999982
 20
-30.54092502470002
 30
0.0
 11
7.497824022700001
 21
-30.54092502470002
 31
0.0
  0
LINE
  5
BB5
  8
1
 10
1.500000037399985
 20
-29.70136454339999
 30
0.0
 11
3.987796517999982
 21
-30.54092512950001
 31
0.0
  0
LINE
  5
BB6
  8
1
 10
4.03465638199998
 20
30.5026843142
 30
0.0
 11
1.499999999899984
 21
29.6372041155
 31
0.0
  0
POLYLINE
  5
BB7
  8
1
 66
     1
 10
0.0
 20
0.0
 30
0.0
  0
VERTEX
  5
229C
  8
1
 10
18.81621828999999
 20
-30.4787564463
 30
0.0
  0
VERTEX
  5
229D
  8
1
 10
18.6790188139
 20
-30.52721612650001
 30
0.0
  0
VERTEX
  5
229E
  8
1
 10
18.54999999999998
 20
-30.54092502470002
 30
0.0
  0
SEQEND
  5
2424
  8
1
  0
ARC
  5
BB8
  8
1
 10
18.55943835959999
 20
29.86640550269999
 30
0.0
 40
0.6363486869715145
 50
60.60134603479981
 51
90.84984539750005
  0
ARC
  5
BB9
  8
1
 10
18.35098180669999
 20
29.95429978019999
 30
0.0
 40
0.6992094391558102
 50
1.340108450200791
 51
41.85091720829973
  0
LINE
  5
BBA
  8
1
 10
19.04999999999998
 20
29.97065231189998
 30
0.0
 11
19.04999999999998
 21
-29.97065231190001
 31
0.0
  0
ARC
  5
BBB
  8
1
 10
18.33294041069999
 20
-29.9485632036
 30
0.0
 40
0.7173997374297006
 50
312.3495695874001
 51
358.2355544919003
  0
ARC
  5
BBC
  8
1
 10
9.7449695926
 20
27.30906555679999
 30
0.0
 40
0.5407677835436584
 50
176.8865704259999
 51
265.761250323199
  0
ARC
  5
BBD
  8
1
 10
9.7179331838
 20
-27.29360212969999
 30
0.0
 40
0.4775741781478385
 50
91.55181642760164
 51
147.4596417165987
  0
ARC
  5
BBE
  8
1
 10
12.52505146019999
 20
27.30025443439999
 30
0.0
 40
0.5313222205439724
 50
273.2312498579008
 51
4.120929392898505
  0
ARC
  5
BBF
  8
1
 10
12.53972316129997
 20
-27.2977060387
 30
0.0
 40
0.4817452194643697
 50
32.86161398089808
 51
88.18276318630117
  0
LINE
  5
BC0
  8
1
 10
12.55499999999998
 20
26.7697769259
 30
0.0
 11
9.704999999999984
 21
26.7697769259
 31
0.0
  0
LINE
  5
BC1
  8
1
 10
9.704999999999984
 20
-26.81620310549999
 30
0.0
 11
12.55499999999998
 21
-26.81620310549999
 31
0.0
  0
LINE
  5
BC4
  8
1
 10
0.2999999999999829
 20
0.0
 30
0.0
 11
0.2999999999999829
 21
21.92499999999998
 31
0.0
  0
LINE
  5
BC5
  8
1
 10
0.2999999999999829
 20
-21.92500000000001
 30
0.0
 11
0.2999999999999829
 21
0.0
 31
0.0
  0
LINE
  5
BC6
  8
1
 10
0.0
 20
0.0
 30
0.0
 11
0.0
 21
22.22499999999999
 31
0.0
  0
LINE
  5
BC7
  8
1
 10
0.0
 20
-22.22499999999999
 30
0.0
 11
0.0
 21
0.0
 31
0.0
  0
LINE
  5
BCA
  8
SK1
 10
-68.25
 20
0.0
 30
0.0
 11
-68.25
 21
11.40703779609998
 31
0.0
  0
LINE
  5
BCB
  8
SK1
 10
-68.25
 20
-11.4070377962
 30
0.0
 11
-68.25
 21
0.0
 31
0.0
  0
LINE
  5
BCC
  8
1
 10
7.567468496899977
 20
30.50268419069999
 30
0.0
 11
7.6038324612
 21
30.49243719839998
 31
0.0
  0
LINE
  5
BCD
  8
1
 10
3.987796517999982
 20
-30.54092512950001
 30
0.0
 11
1.499999999899984
 21
-29.7013645289
 31
0.0
  0
LINE
  5
BDE
  8
3
 10
1.0
 20
-22.59999999999999
 30
0.0
 11
3.699999999999989
 21
-22.59999999999999
 31
0.0
  0
LINE
  5
BDF
  8
3
 10
1.0
 20
25.02000000000001
 30
0.0
 11
3.699999999999989
 21
25.02000000000001
 31
0.0
  0
LINE
  5
BE8
  8
3
 10
18.25
 20
25.02000000000001
 30
0.0
 11
19.04999999999998
 21
25.02000000000001
 31
0.0
  0
LINE
  5
BFE
  8
3
 10
3.699999999999989
 20
-22.59999999999999
 30
0.0
 11
18.25
 21
-22.59999999999999
 31
0.0
  0
LINE
  5
C08
  8
3
 10
3.699999999999989
 20
25.02000000000001
 30
0.0
 11
18.25
 21
25.02000000000001
 31
0.0
  0
LINE
  5
C10
  8
3
 10
11.13
 20
21.22
 30
0.0
 11
17.47999999999999
 21
21.22
 31
0.0
  0
LINE
  5
C11
  8
3
 10
4.780000000000001
 20
21.22
 30
0.0
 11
11.13
 21
21.22
 31
0.0
  0
LINE
  5
C12
  8
3
 10
11.13
 20
21.21000000000001
 30
0.0
 11
15.88
 21
21.21000000000001
 31
0.0
  0
LINE
  5
C13
  8
3
 10
6.379999999999995
 20
21.21000000000001
 30
0.0
 11
11.13
 21
21.21000000000001
 31
0.0
  0
LINE
  5
C26
  8
3
 10
4.780000000000001
 20
25.02000000000001
 30
0.0
 11
4.780000000000001
 21
21.22
 31
0.0
  0
LINE
  5
C27
  8
3
 10
17.47999999999999
 20
21.22
 30
0.0
 11
17.47999999999999
 21
25.02000000000001
 31
0.0
  0
LINE
  5
C28
  8
3
 10
6.379999999999995
 20
21.22
 30
0.0
 11
6.379999999999995
 21
21.21000000000001
 31
0.0
  0
LINE
  5
C29
  8
3
 10
15.88
 20
21.21000000000001
 30
0.0
 11
15.88
 21
21.22
 31
0.0
  0
LINE
  5
C2A
  8
3
 10
6.379999999999995
 20
21.21000000000001
 30
0.0
 11
11.13
 21
18.3559120596
 31
0.0
  0
LINE
  5
C2B
  8
3
 10
11.13
 20
18.3559120596
 30
0.0
 11
15.88
 21
21.21000000000001
 31
0.0
  0
LINE
  5
C2C
  8
1
 10
20.04999999999998
 20
22.22499999999999
 30
0.0
 11
20.04999999999998
 21
-22.22499999999999
 31
0.0
  0
LINE
  5
C2D
  8
1
 10
0.799999999999983
 20
21.92499999999998
 30
0.0
 11
0.799999999999983
 21
-21.92500000000001
 31
0.0
  0
LINE
  5
C2F
  8
1
 10
9.704999999999984
 20
26.26568698759999
 30
0.0
 11
9.704999999999984
 21
-26.08092552630001
 31
0.0
  0
LINE
  5
C30
  8
1
 10
12.55499999999998
 20
26.26578903699999
 30
0.0
 11
12.55499999999998
 21
-26.08072526110001
 31
0.0
  0
LINE
  5
C31
  8
1
 10
18.54999999999998
 20
30.50268419069999
 30
0.0
 11
18.54999999999998
 21
-30.54092502470002
 31
0.0
  0
LINE
  5
C32
  8
1
 10
1.5
 20
-29.7013645289
 30
0.0
 11
1.5
 21
29.6372041155
 31
0.0
  0
LINE
  5
C92
  8
SK4
 10
0.0
 20
0.0
 30
0.0
 11
-68.25
 21
0.0
 31
0.0
  0
TEXT
  5
D44
  8
SK6
 10
-66.17909534664395
 20
47.33203563714093
 30
0.0
 40
3.5
  1
BIG KAISER
 41
0.85
  0
TEXT
  5
D45
  8
SK6
 10
-66.17909534664395
 20
42.08203563714093
 30
0.0
 40
3.5
  1
BCV40-SMC1.000-6
 41
0.85
  0
INSERT
  5
D46
  8
SK6
  2
_FILLED
 10
-17.9836627818344
 20
-19.60235774778011
 30
0.0
 41
3.5
 42
3.5
 43
3.5
 50
55.49325986033524
  0
POLYLINE
  5
D47
  8
SK6
 66
     1
 10
0.0
 20
0.0
 30
0.0
  0
VERTEX
  5
229F
  8
SK6
 10
-19.966423916232
 20
-22.48656618059532
 30
0.0
  0
VERTEX
  5
22A0
  8
SK6
 10
-33.4822656830344
 20
-42.14728280658011
 30
0.0
  0
VERTEX
  5
22A1
  8
SK6
 10
-35.35726568303438
 20
-40.39728280658011
 30
0.0
  0
VERTEX
  5
22A2
  8
SK6
 10
-38.85726568303438
 20
-40.39728280658011
 30
0.0
  0
SEQEND
  5
2425
  8
SK6
  0
TEXT
  5
D48
  8
SK6
 10
-53.86143234970106
 20
-43.89728280658011
 30
0.0
 40
3.5
  1
BCV40
 41
0.85
  0
ARC
  5
E7B
  8
NOCUT
 10
20.04999999999998
 20
23.22499999999999
 30
0.0
 40
1.0
 50
180.0
 51
270.0
  0
ARC
  5
10C5
  8
1
 10
137.65
 20
26.79999999999995
 30
0.0
 40
1.0
 50
90.0
 51
180.0
  0
ARC
  5
10C6
  8
1
 10
137.65
 20
-26.80000000000004
 30
0.0
 40
1.0
 50
180.0
 51
270.0
  0
LINE
  5
10C7
  8
1
 10
137.65
 20
-27.80000000000004
 30
0.0
 11
151.4
 21
-27.80000000000004
 31
0.0
  0
LINE
  5
10C8
  8
1
 10
151.4
 20
27.79999999999995
 30
0.0
 11
137.65
 21
27.79999999999995
 31
0.0
  0
ARC
  5
10C9
  8
1
 10
151.4
 20
-26.80000000000004
 30
0.0
 40
1.0
 50
270.0
 51
0.0
  0
ARC
  5
10CA
  8
1
 10
151.4
 20
26.79999999999995
 30
0.0
 40
1.0
 50
0.0
 51
90.0
  0
ARC
  5
10CB
  8
1
 10
135.65
 20
23.22499999999996
 30
0.0
 40
1.0
 50
270.0
 51
0.0
  0
ARC
  5
10CC
  8
1
 10
135.65
 20
-23.22500000000004
 30
0.0
 40
1.000000000000014
 50
0.0
 51
90.0
  0
CIRCLE
  5
10E3
  8
1
 10
145.4
 20
-0.0000000000000284
 30
0.0
 40
1.609999999999954
  0
CIRCLE
  5
10E4
  8
1
 10
145.4
 20
-0.0000000000000284
 30
0.0
 40
2.000000000000009
  0
LINE
  5
10E5
  8
1
 10
146.3623020329
 20
-0.6382069655000464
 30
0.0
 11
146.4338544615
 21
0.5142745237999691
 31
0.0
  0
LINE
  5
10E6
  8
1
 10
145.4715524286001
 20
1.152481489299959
 30
0.0
 11
146.4338544615
 21
0.5142745237999691
 31
0.0
  0
LINE
  5
10E7
  8
1
 10
144.4376979671
 20
0.6382069654999611
 30
0.0
 11
145.4715524286001
 21
1.152481489299959
 31
0.0
  0
LINE
  5
10E8
  8
1
 10
144.4376979671
 20
0.6382069654999611
 30
0.0
 11
144.3661455386
 21
-0.5142745239000419
 31
0.0
  0
LINE
  5
10E9
  8
1
 10
145.3284475715
 20
-1.152481489400031
 30
0.0
 11
144.3661455386
 21
-0.5142745239000419
 31
0.0
  0
LINE
  5
10EA
  8
1
 10
145.3284475715
 20
-1.152481489400031
 30
0.0
 11
146.3623020329
 21
-0.6382069655000464
 31
0.0
  0
LINE
  5
1113
  8
1
 10
136.65
 20
-26.80000000000004
 30
0.0
 11
136.65
 21
26.79999999999995
 31
0.0
  0
CIRCLE
  5
1114
  8
1
 10
145.4
 20
-0.0000000000000284
 30
0.0
 40
2.249999999999773
  0
LINE
  5
1115
  8
1
 10
152.4
 20
-0.0000000000000284
 30
0.0
 11
152.4
 21
26.79999999999995
 31
0.0
  0
LINE
  5
1116
  8
1
 10
152.4
 20
-26.80000000000004
 30
0.0
 11
152.4
 21
-0.0000000000000284
 31
0.0
  0
POLYLINE
  5
1121
  8
3
 66
     1
 10
0.0
 20
0.0
 30
0.0
 70
   128
  0
VERTEX
  5
22A3
  8
3
 10
143.6093115452001
 20
18.24219684989995
 30
0.0
  0
VERTEX
  5
22A4
  8
3
 10
143.9514198639
 20
18.48631744099995
 30
0.0
  0
VERTEX
  5
22A5
  8
3
 10
144.4222408847001
 20
18.66917334059997
 30
0.0
  0
VERTEX
  5
22A6
  8
3
 10
144.9799400938
 20
18.77451699949995
 30
0.0
  0
VERTEX
  5
22A7
  8
3
 10
145.5749634689001
 20
18.79298817149996
 30
0.0
  0
VERTEX
  5
22A8
  8
3
 10
146.154440572
 20
18.72294561179996
 30
0.0
  0
VERTEX
  5
22A9
  8
3
 10
146.6668823195
 20
18.57061290909996
 30
0.0
  0
VERTEX
  5
22AA
  8
3
 10
147.0667560132
 20
18.34952549269997
 30
0.0
  0
VERTEX
  5
22AB
  8
3
 10
147.3185311208
 20
18.07932794979996
 30
0.0
  0
VERTEX
  5
22AC
  8
3
 10
147.3998363189001
 20
17.78402851759995
 30
0.0
  0
VERTEX
  5
22AD
  8
3
 10
147.303447284
 20
17.48986584679997
 30
0.0
  0
VERTEX
  5
22AE
  8
3
 10
147.0379286047001
 20
17.22297758149995
 30
0.0
  0
VERTEX
  5
22AF
  8
3
 10
146.626872781
 20
17.00707791519997
 30
0.0
  0
VERTEX
  5
22B0
  8
3
 10
146.1068039267
 20
16.86135048089997
 30
0.0
  0
VERTEX
  5
22B1
  8
3
 10
145.5239324417001
 20
16.79874380059996
 30
0.0
  0
VERTEX
  5
22B2
  8
3
 10
144.9300490154
 20
16.82482075249996
 30
0.0
  0
VERTEX
  5
22B3
  8
3
 10
144.3779227964
 20
16.93726428499997
 30
0.0
  0
VERTEX
  5
22B4
  8
3
 10
143.9166126223001
 20
17.12608329689996
 30
0.0
  0
VERTEX
  5
22B5
  8
3
 10
143.5871079264
 20
17.37450039019995
 30
0.0
  0
VERTEX
  5
22B6
  8
3
 10
143.4186866471
 20
17.66044261619996
 30
0.0
  0
VERTEX
  5
22B7
  8
3
 10
143.4263137539
 20
17.95850275319995
 30
0.0
  0
VERTEX
  5
22B8
  8
3
 10
143.6093115452001
 20
18.24219684989995
 30
0.0
  0
SEQEND
  5
2426
  8
3
  0
POLYLINE
  5
1122
  8
3
 66
     1
 10
0.0
 20
0.0
 30
0.0
 70
   128
  0
VERTEX
  5
22B9
  8
3
 10
144.2808197157
 20
17.42566224619995
 30
0.0
  0
VERTEX
  5
22BA
  8
3
 10
144.5790591897001
 20
17.61861928619996
 30
0.0
  0
VERTEX
  5
22BB
  8
3
 10
145.0022794601
 20
17.73982269329997
 30
0.0
  0
VERTEX
  5
22BC
  8
3
 10
145.4860490774001
 20
17.77082034759996
 30
0.0
  0
VERTEX
  5
22BD
  8
3
 10
145.9567185027001
 20
17.70689313699995
 30
0.0
  0
VERTEX
  5
22BE
  8
3
 10
146.3426325827001
 20
17.55777340009996
 30
0.0
  0
VERTEX
  5
22BF
  8
3
 10
146.5850393969
 20
17.34616326479997
 30
0.0
  0
VERTEX
  5
22C0
  8
3
 10
146.6470347053
 20
17.10427845619995
 30
0.0
  0
VERTEX
  5
22C1
  8
3
 10
146.5191802843
 20
16.86894374349995
 30
0.0
  0
VERTEX
  5
22C2
  8
3
 10
146.2209408104
 20
16.67598670359996
 30
0.0
  0
VERTEX
  5
22C3
  8
3
 10
145.7977205399
 20
16.55478329649995
 30
0.0
  0
VERTEX
  5
22C4
  8
3
 10
145.3139509226001
 20
16.52378564219995
 30
0.0
  0
VERTEX
  5
22C5
  8
3
 10
144.8432814973
 20
16.58771285279997
 30
0.0
  0
VERTEX
  5
22C6
  8
3
 10
144.4573674174
 20
16.73683258969996
 30
0.0
  0
VERTEX
  5
22C7
  8
3
 10
144.2149606031001
 20
16.94844272489996
 30
0.0
  0
VERTEX
  5
22C8
  8
3
 10
144.1529652947001
 20
17.19032753359997
 30
0.0
  0
VERTEX
  5
22C9
  8
3
 10
144.2808197157
 20
17.42566224619995
 30
0.0
  0
SEQEND
  5
2427
  8
3
  0
POLYLINE
  5
1123
  8
3
 66
     1
 10
0.0
 20
0.0
 30
0.0
 70
   128
  0
VERTEX
  5
22CA
  8
3
 10
143.6093115452001
 20
24.32588102729997
 30
0.0
  0
VERTEX
  5
22CB
  8
3
 10
143.9514198639
 20
24.57000161839997
 30
0.0
  0
VERTEX
  5
22CC
  8
3
 10
144.4222408847001
 20
24.75285751799995
 30
0.0
  0
VERTEX
  5
22CD
  8
3
 10
144.9799400938
 20
24.85820117699995
 30
0.0
  0
VERTEX
  5
22CE
  8
3
 10
145.5749634689001
 20
24.87667234889994
 30
0.0
  0
VERTEX
  5
22CF
  8
3
 10
146.154440572
 20
24.80662978919994
 30
0.0
  0
VERTEX
  5
22D0
  8
3
 10
146.6668823195
 20
24.65429708659997
 30
0.0
  0
VERTEX
  5
22D1
  8
3
 10
147.0667560132
 20
24.43320967019997
 30
0.0
  0
VERTEX
  5
22D2
  8
3
 10
147.3185311208
 20
24.16301212719995
 30
0.0
  0
VERTEX
  5
22D3
  8
3
 10
147.3998363189001
 20
23.86771269509995
 30
0.0
  0
VERTEX
  5
22D4
  8
3
 10
147.303447284
 20
23.57355002419996
 30
0.0
  0
VERTEX
  5
22D5
  8
3
 10
147.0379286047001
 20
23.30666175889996
 30
0.0
  0
VERTEX
  5
22D6
  8
3
 10
146.626872781
 20
23.09076209269995
 30
0.0
  0
VERTEX
  5
22D7
  8
3
 10
146.1068039267
 20
22.94503465839995
 30
0.0
  0
VERTEX
  5
22D8
  8
3
 10
145.5239324417001
 20
22.88242797799995
 30
0.0
  0
VERTEX
  5
22D9
  8
3
 10
144.9300490154
 20
22.90850492989995
 30
0.0
  0
VERTEX
  5
22DA
  8
3
 10
144.3779227964
 20
23.02094846239996
 30
0.0
  0
VERTEX
  5
22DB
  8
3
 10
143.9166126223001
 20
23.20976747429995
 30
0.0
  0
VERTEX
  5
22DC
  8
3
 10
143.5871079264
 20
23.45818456769996
 30
0.0
  0
VERTEX
  5
22DD
  8
3
 10
143.4186866471
 20
23.74412679359994
 30
0.0
  0
VERTEX
  5
22DE
  8
3
 10
143.4263137539
 20
24.04218693059997
 30
0.0
  0
VERTEX
  5
22DF
  8
3
 10
143.6093115452001
 20
24.32588102729997
 30
0.0
  0
SEQEND
  5
2428
  8
3
  0
LINE
  5
1124
  8
3
 10
145.3284475715
 20
22.65988854109994
 30
0.0
 11
144.3661455386
 21
22.34078505839994
 31
0.0
  0
LINE
  5
1125
  8
3
 10
145.3284475715
 20
22.65988854109994
 30
0.0
 11
145.3284475715
 21
24.65174696979994
 31
0.0
  0
LINE
  5
1126
  8
3
 10
145.3284475715
 20
22.65988854109994
 30
0.0
 11
146.3623020329
 21
22.40275127919995
 31
0.0
  0
LINE
  5
1127
  8
3
 10
145.3284475715
 20
24.65174696979994
 30
0.0
 11
146.3623020329
 21
24.39460970789994
 31
0.0
  0
LINE
  5
1128
  8
3
 10
145.3284475715
 20
24.65174696979994
 30
0.0
 11
144.3661455386
 21
24.33264348709997
 31
0.0
  0
POLYLINE
  5
1129
  8
3
 66
     1
 10
0.0
 20
0.0
 30
0.0
 70
   128
  0
VERTEX
  5
22E0
  8
3
 10
143.9584957939001
 20
24.43403294089995
 30
0.0
  0
VERTEX
  5
22E1
  8
3
 10
144.2694273364
 20
24.64863479979996
 30
0.0
  0
VERTEX
  5
22E2
  8
3
 10
144.7028739698
 20
24.80112928469995
 30
0.0
  0
VERTEX
  5
22E3
  8
3
 10
145.2118650255
 20
24.87499125179997
 30
0.0
  0
VERTEX
  5
22E4
  8
3
 10
145.7412434249
 20
24.86221661099995
 30
0.0
  0
VERTEX
  5
22E5
  8
3
 10
146.2336428043
 20
24.76418969289995
 30
0.0
  0
VERTEX
  5
22E6
  8
3
 10
146.6357040506
 20
24.59153323499996
 30
0.0
  0
VERTEX
  5
22E7
  8
3
 10
146.9038575891
 20
24.36295724359996
 30
0.0
  0
VERTEX
  5
22E8
  8
3
 10
147.009044823
 20
24.10323147409997
 30
0.0
  0
VERTEX
  5
22E9
  8
3
 10
146.9398670834001
 20
23.84050124359996
 30
0.0
  0
VERTEX
  5
22EA
  8
3
 10
146.7038208519
 20
23.60323744939995
 30
0.0
  0
VERTEX
  5
22EB
  8
3
 10
146.3264854002
 20
23.41715130509996
 30
0.0
  0
VERTEX
  5
22EC
  8
3
 10
145.8487508795
 20
23.30240813179995
 30
0.0
  0
VERTEX
  5
22ED
  8
3
 10
145.3223872379
 20
23.27144213269994
 30
0.0
  0
VERTEX
  5
22EE
  8
3
 10
144.8044341434001
 20
23.32760895439995
 30
0.0
  0
VERTEX
  5
22EF
  8
3
 10
144.3510198506
 20
23.46482205019995
 30
0.0
  0
VERTEX
  5
22F0
  8
3
 10
144.0112788336001
 20
23.66821225209995
 30
0.0
  0
VERTEX
  5
22F1
  8
3
 10
143.8220273032001
 20
23.91573907589995
 30
0.0
  0
VERTEX
  5
22F2
  8
3
 10
143.8037735992
 20
24.18057914919996
 30
0.0
  0
VERTEX
  5
22F3
  8
3
 10
143.9584957939001
 20
24.43403294089995
 30
0.0
  0
SEQEND
  5
2429
  8
3
  0
LINE
  5
112A
  8
3
 10
146.3623020329
 20
24.39460970789994
 30
0.0
 11
146.4338544615
 21
23.81836896319996
 31
0.0
  0
LINE
  5
112B
  8
3
 10
146.3623020329
 20
22.40275127919995
 30
0.0
 11
146.3623020329
 21
24.39460970789994
 31
0.0
  0
LINE
  5
112C
  8
3
 10
146.3623020329
 20
22.40275127919995
 30
0.0
 11
146.4338544615
 21
21.82651053449996
 31
0.0
  0
LINE
  5
112D
  8
3
 10
144.4376979671
 20
21.76454431369996
 30
0.0
 11
144.4376979671
 21
23.75640274239995
 31
0.0
  0
LINE
  5
112E
  8
3
 10
144.4376979671
 20
23.75640274239995
 30
0.0
 11
144.3661455386
 21
24.33264348709997
 31
0.0
  0
LINE
  5
112F
  8
3
 10
144.3661455386
 20
22.34078505839994
 30
0.0
 11
144.3661455386
 21
24.33264348709997
 31
0.0
  0
LINE
  5
1130
  8
3
 10
144.4376979671
 20
21.76454431369996
 30
0.0
 11
144.3661455386
 21
22.34078505839994
 31
0.0
  0
LINE
  5
1131
  8
3
 10
145.4715524286001
 20
21.50740705179996
 30
0.0
 11
145.4715524286001
 21
23.49926548049996
 31
0.0
  0
LINE
  5
1132
  8
3
 10
146.4338544615
 20
21.82651053449996
 30
0.0
 11
146.4338544615
 21
23.81836896319996
 31
0.0
  0
LINE
  5
1133
  8
3
 10
145.4715524286001
 20
23.49926548049996
 30
0.0
 11
146.4338544615
 21
23.81836896319996
 31
0.0
  0
LINE
  5
1134
  8
3
 10
145.4715524286001
 20
21.50740705179996
 30
0.0
 11
146.4338544615
 21
21.82651053449996
 31
0.0
  0
LINE
  5
1135
  8
3
 10
144.4376979671
 20
23.75640274239995
 30
0.0
 11
145.4715524286001
 21
23.49926548049996
 31
0.0
  0
LINE
  5
1136
  8
3
 10
144.4376979671
 20
21.76454431369996
 30
0.0
 11
145.4715524286001
 21
21.50740705179996
 31
0.0
  0
POLYLINE
  5
1137
  8
3
 66
     1
 10
0.0
 20
0.0
 30
0.0
 70
   128
  0
VERTEX
  5
22F4
  8
3
 10
143.6093115452001
 20
-17.35144724560004
 30
0.0
  0
VERTEX
  5
22F5
  8
3
 10
143.9514198639
 20
-17.10732665460005
 30
0.0
  0
VERTEX
  5
22F6
  8
3
 10
144.4222408847001
 20
-16.92447075500005
 30
0.0
  0
VERTEX
  5
22F7
  8
3
 10
144.9799400938
 20
-16.81912709600005
 30
0.0
  0
VERTEX
  5
22F8
  8
3
 10
145.5749634689001
 20
-16.80065592400004
 30
0.0
  0
VERTEX
  5
22F9
  8
3
 10
146.154440572
 20
-16.87069848380004
 30
0.0
  0
VERTEX
  5
22FA
  8
3
 10
146.6668823195
 20
-17.02303118640005
 30
0.0
  0
VERTEX
  5
22FB
  8
3
 10
147.0667560132
 20
-17.24411860280004
 30
0.0
  0
VERTEX
  5
22FC
  8
3
 10
147.3185311208
 20
-17.51431614580004
 30
0.0
  0
VERTEX
  5
22FD
  8
3
 10
147.3998363189001
 20
-17.80961557790005
 30
0.0
  0
VERTEX
  5
22FE
  8
3
 10
147.303447284
 20
-18.10377824880004
 30
0.0
  0
VERTEX
  5
22FF
  8
3
 10
147.0379286047001
 20
-18.37066651410004
 30
0.0
  0
VERTEX
  5
2300
  8
3
 10
146.626872781
 20
-18.58656618030004
 30
0.0
  0
VERTEX
  5
2301
  8
3
 10
146.1068039267
 20
-18.73229361460004
 30
0.0
  0
VERTEX
  5
2302
  8
3
 10
145.5239324417001
 20
-18.79490029500005
 30
0.0
  0
VERTEX
  5
2303
  8
3
 10
144.9300490154
 20
-18.76882334310004
 30
0.0
  0
VERTEX
  5
2304
  8
3
 10
144.3779227964
 20
-18.65637981050004
 30
0.0
  0
VERTEX
  5
2305
  8
3
 10
143.9166126223001
 20
-18.46756079870004
 30
0.0
  0
VERTEX
  5
2306
  8
3
 10
143.5871079264
 20
-18.21914370530004
 30
0.0
  0
VERTEX
  5
2307
  8
3
 10
143.4186866471
 20
-17.93320147930004
 30
0.0
  0
VERTEX
  5
2308
  8
3
 10
143.4263137539
 20
-17.63514134240005
 30
0.0
  0
VERTEX
  5
2309
  8
3
 10
143.6093115452001
 20
-17.35144724560004
 30
0.0
  0
SEQEND
  5
242A
  8
3
  0
POLYLINE
  5
1138
  8
3
 66
     1
 10
0.0
 20
0.0
 30
0.0
 70
   128
  0
VERTEX
  5
230A
  8
3
 10
144.2808197157
 20
-16.86894374360004
 30
0.0
  0
VERTEX
  5
230B
  8
3
 10
144.5790591897001
 20
-16.67598670360005
 30
0.0
  0
VERTEX
  5
230C
  8
3
 10
145.0022794601
 20
-16.55478329650005
 30
0.0
  0
VERTEX
  5
230D
  8
3
 10
145.4860490774001
 20
-16.52378564230004
 30
0.0
  0
VERTEX
  5
230E
  8
3
 10
145.9567185027001
 20
-16.58771285280004
 30
0.0
  0
VERTEX
  5
230F
  8
3
 10
146.3426325827001
 20
-16.73683258980005
 30
0.0
  0
VERTEX
  5
2310
  8
3
 10
146.5850393969
 20
-16.94844272500004
 30
0.0
  0
VERTEX
  5
2311
  8
3
 10
146.6470347053
 20
-17.19032753370004
 30
0.0
  0
VERTEX
  5
2312
  8
3
 10
146.5191802843
 20
-17.42566224630004
 30
0.0
  0
VERTEX
  5
2313
  8
3
 10
146.2209408104
 20
-17.61861928630005
 30
0.0
  0
VERTEX
  5
2314
  8
3
 10
145.7977205399
 20
-17.73982269340004
 30
0.0
  0
VERTEX
  5
2315
  8
3
 10
145.3139509226001
 20
-17.77082034760004
 30
0.0
  0
VERTEX
  5
2316
  8
3
 10
144.8432814973
 20
-17.70689313710004
 30
0.0
  0
VERTEX
  5
2317
  8
3
 10
144.4573674174
 20
-17.55777340020005
 30
0.0
  0
VERTEX
  5
2318
  8
3
 10
144.2149606031001
 20
-17.34616326490004
 30
0.0
  0
VERTEX
  5
2319
  8
3
 10
144.1529652947001
 20
-17.10427845630004
 30
0.0
  0
VERTEX
  5
231A
  8
3
 10
144.2808197157
 20
-16.86894374360004
 30
0.0
  0
SEQEND
  5
242B
  8
3
  0
POLYLINE
  5
1139
  8
3
 66
     1
 10
0.0
 20
0.0
 30
0.0
 70
   128
  0
VERTEX
  5
231B
  8
3
 10
143.6093115452001
 20
-23.43513142310005
 30
0.0
  0
VERTEX
  5
231C
  8
3
 10
143.9514198639
 20
-23.19101083200005
 30
0.0
  0
VERTEX
  5
231D
  8
3
 10
144.4222408847001
 20
-23.00815493240005
 30
0.0
  0
VERTEX
  5
231E
  8
3
 10
144.9799400938
 20
-22.90281127340005
 30
0.0
  0
VERTEX
  5
231F
  8
3
 10
145.5749634689001
 20
-22.88434010150005
 30
0.0
  0
VERTEX
  5
2320
  8
3
 10
146.154440572
 20
-22.95438266120004
 30
0.0
  0
VERTEX
  5
2321
  8
3
 10
146.6668823195
 20
-23.10671536390004
 30
0.0
  0
VERTEX
  5
2322
  8
3
 10
147.0667560132
 20
-23.32780278020005
 30
0.0
  0
VERTEX
  5
2323
  8
3
 10
147.3185311208
 20
-23.59800032320004
 30
0.0
  0
VERTEX
  5
2324
  8
3
 10
147.3998363189001
 20
-23.89329975540004
 30
0.0
  0
VERTEX
  5
2325
  8
3
 10
147.303447284
 20
-24.18746242620004
 30
0.0
  0
VERTEX
  5
2326
  8
3
 10
147.0379286047001
 20
-24.45435069150004
 30
0.0
  0
VERTEX
  5
2327
  8
3
 10
146.626872781
 20
-24.67025035770004
 30
0.0
  0
VERTEX
  5
2328
  8
3
 10
146.1068039267
 20
-24.81597779210004
 30
0.0
  0
VERTEX
  5
2329
  8
3
 10
145.5239324417001
 20
-24.87858447240004
 30
0.0
  0
VERTEX
  5
232A
  8
3
 10
144.9300490154
 20
-24.85250752050004
 30
0.0
  0
VERTEX
  5
232B
  8
3
 10
144.3779227964
 20
-24.74006398800005
 30
0.0
  0
VERTEX
  5
232C
  8
3
 10
143.9166126223001
 20
-24.55124497610004
 30
0.0
  0
VERTEX
  5
232D
  8
3
 10
143.5871079264
 20
-24.30282788270005
 30
0.0
  0
VERTEX
  5
232E
  8
3
 10
143.4186866471
 20
-24.01688565680004
 30
0.0
  0
VERTEX
  5
232F
  8
3
 10
143.4263137539
 20
-23.71882551980004
 30
0.0
  0
VERTEX
  5
2330
  8
3
 10
143.6093115452001
 20
-23.43513142310005
 30
0.0
  0
SEQEND
  5
242C
  8
3
  0
LINE
  5
113A
  8
3
 10
145.4715524286001
 20
-22.65988854120005
 30
0.0
 11
146.4338544615
 21
-22.34078505850005
 31
0.0
  0
LINE
  5
113B
  8
3
 10
144.4376979671
 20
-22.40275127930005
 30
0.0
 11
145.4715524286001
 21
-22.65988854120005
 31
0.0
  0
LINE
  5
113C
  8
3
 10
145.4715524286001
 20
-22.65988854120005
 30
0.0
 11
145.4715524286001
 21
-24.65174696990005
 31
0.0
  0
LINE
  5
113D
  8
3
 10
144.4376979671
 20
-24.39460970800005
 30
0.0
 11
145.4715524286001
 21
-24.65174696990005
 31
0.0
  0
LINE
  5
113E
  8
3
 10
145.4715524286001
 20
-24.65174696990005
 30
0.0
 11
146.4338544615
 21
-24.33264348720005
 31
0.0
  0
POLYLINE
  5
113F
  8
3
 66
     1
 10
0.0
 20
0.0
 30
0.0
 70
   128
  0
VERTEX
  5
2331
  8
3
 10
143.9584957939001
 20
-23.71697950950004
 30
0.0
  0
VERTEX
  5
2332
  8
3
 10
144.2694273364
 20
-23.50237765060004
 30
0.0
  0
VERTEX
  5
2333
  8
3
 10
144.7028739698
 20
-23.34988316570004
 30
0.0
  0
VERTEX
  5
2334
  8
3
 10
145.2118650255
 20
-23.27602119860005
 30
0.0
  0
VERTEX
  5
2335
  8
3
 10
145.7412434249
 20
-23.28879583940004
 30
0.0
  0
VERTEX
  5
2336
  8
3
 10
146.2336428043
 20
-23.38682275750004
 30
0.0
  0
VERTEX
  5
2337
  8
3
 10
146.6357040506
 20
-23.55947921540005
 30
0.0
  0
VERTEX
  5
2338
  8
3
 10
146.9038575891
 20
-23.78805520690004
 30
0.0
  0
VERTEX
  5
2339
  8
3
 10
147.009044823
 20
-24.04778097640005
 30
0.0
  0
VERTEX
  5
233A
  8
3
 10
146.9398670834001
 20
-24.31051120680005
 30
0.0
  0
VERTEX
  5
233B
  8
3
 10
146.7038208519
 20
-24.54777500100005
 30
0.0
  0
VERTEX
  5
233C
  8
3
 10
146.3264854002
 20
-24.73386114530004
 30
0.0
  0
VERTEX
  5
233D
  8
3
 10
145.8487508795
 20
-24.84860431870004
 30
0.0
  0
VERTEX
  5
233E
  8
3
 10
145.3223872379
 20
-24.87957031770004
 30
0.0
  0
VERTEX
  5
233F
  8
3
 10
144.8044341434001
 20
-24.82340349600004
 30
0.0
  0
VERTEX
  5
2340
  8
3
 10
144.3510198506
 20
-24.68619040020005
 30
0.0
  0
VERTEX
  5
2341
  8
3
 10
144.0112788336001
 20
-24.48280019830004
 30
0.0
  0
VERTEX
  5
2342
  8
3
 10
143.8220273032001
 20
-24.23527337460004
 30
0.0
  0
VERTEX
  5
2343
  8
3
 10
143.8037735992
 20
-23.97043330120005
 30
0.0
  0
VERTEX
  5
2344
  8
3
 10
143.9584957939001
 20
-23.71697950950004
 30
0.0
  0
SEQEND
  5
242D
  8
3
  0
LINE
  5
1140
  8
3
 10
144.4376979671
 20
-24.39460970800005
 30
0.0
 11
144.3661455386
 21
-23.81836896330005
 31
0.0
  0
LINE
  5
1141
  8
3
 10
144.4376979671
 20
-22.40275127930005
 30
0.0
 11
144.4376979671
 21
-24.39460970800005
 31
0.0
  0
LINE
  5
1142
  8
3
 10
144.4376979671
 20
-22.40275127930005
 30
0.0
 11
144.3661455386
 21
-21.82651053460005
 31
0.0
  0
LINE
  5
1143
  8
3
 10
146.3623020329
 20
-21.76454431380005
 30
0.0
 11
146.3623020329
 21
-23.75640274250004
 31
0.0
  0
LINE
  5
1144
  8
3
 10
146.3623020329
 20
-23.75640274250004
 30
0.0
 11
146.4338544615
 21
-24.33264348720005
 31
0.0
  0
LINE
  5
1145
  8
3
 10
146.3623020329
 20
-21.76454431380005
 30
0.0
 11
146.4338544615
 21
-22.34078505850005
 31
0.0
  0
LINE
  5
1146
  8
3
 10
146.4338544615
 20
-22.34078505850005
 30
0.0
 11
146.4338544615
 21
-24.33264348720005
 31
0.0
  0
LINE
  5
1147
  8
3
 10
145.3284475715
 20
-21.50740705190005
 30
0.0
 11
145.3284475715
 21
-23.49926548060005
 31
0.0
  0
LINE
  5
1148
  8
3
 10
144.3661455386
 20
-21.82651053460005
 30
0.0
 11
144.3661455386
 21
-23.81836896330005
 31
0.0
  0
LINE
  5
1149
  8
3
 10
145.3284475715
 20
-23.49926548060005
 30
0.0
 11
144.3661455386
 21
-23.81836896330005
 31
0.0
  0
LINE
  5
114A
  8
3
 10
145.3284475715
 20
-21.50740705190005
 30
0.0
 11
144.3661455386
 21
-21.82651053460005
 31
0.0
  0
LINE
  5
114B
  8
3
 10
145.3284475715
 20
-23.49926548060005
 30
0.0
 11
146.3623020329
 21
-23.75640274250004
 31
0.0
  0
LINE
  5
114C
  8
3
 10
145.3284475715
 20
-21.50740705190005
 30
0.0
 11
146.3623020329
 21
-21.76454431380005
 31
0.0
  0
CIRCLE
  5
114D
  8
3
 10
145.4
 20
-0.0000000000000284
 30
0.0
 40
1.249999999999987
  0
LINE
  5
114E
  8
3
 10
151.5808500000001
 20
-0.0000000000000284
 30
0.0
 11
151.5808500000001
 21
-6.350000000000051
 31
0.0
  0
LINE
  5
114F
  8
3
 10
151.5808500000001
 20
6.349999999999966
 30
0.0
 11
151.5808500000001
 21
-0.0000000000000284
 31
0.0
  0
LINE
  5
1150
  8
3
 10
150.8252
 20
-0.0000000000000284
 30
0.0
 11
150.8252
 21
-5.594350000000048
 31
0.0
  0
LINE
  5
1151
  8
3
 10
150.8252
 20
5.594349999999962
 30
0.0
 11
150.8252
 21
-0.0000000000000284
 31
0.0
  0
LINE
  5
115B
  8
3
 10
143.8791603050001
 20
-21.44300000000004
 30
0.0
 11
143.8791603050001
 21
-26.20931000000005
 31
0.0
  0
LINE
  5
115C
  8
3
 10
143.8791603050001
 20
-16.67669000000004
 30
0.0
 11
143.8791603050001
 21
-21.44300000000004
 31
0.0
  0
LINE
  5
115D
  8
3
 10
142.3162
 20
-21.44300000000004
 30
0.0
 11
142.3162
 21
-25.95150000000004
 31
0.0
  0
LINE
  5
115E
  8
3
 10
142.3162
 20
-16.93450000000004
 30
0.0
 11
142.3162
 21
-21.44300000000004
 31
0.0
  0
LINE
  5
115F
  8
3
 10
143.2410395106
 20
-21.44300000000004
 30
0.0
 11
143.2410395106
 21
-26.19931000000004
 31
0.0
  0
LINE
  5
1160
  8
3
 10
143.2410395106
 20
-16.68669000000004
 30
0.0
 11
143.2410395106
 21
-21.44300000000004
 31
0.0
  0
LINE
  5
1161
  8
3
 10
143.8791603050001
 20
26.20930999999996
 30
0.0
 11
143.8791603050001
 21
16.67668999999995
 31
0.0
  0
LINE
  5
1162
  8
3
 10
143.2410395106
 20
26.19930999999997
 30
0.0
 11
143.2410395106
 21
16.68668999999997
 31
0.0
  0
LINE
  5
1163
  8
3
 10
142.3162
 20
25.95149999999995
 30
0.0
 11
142.3162
 21
16.93449999999996
 31
0.0
  0
POLYLINE
  5
1164
  8
3
 66
     1
 10
0.0
 20
0.0
 30
0.0
 70
   128
  0
VERTEX
  5
2345
  8
3
 10
145.4
 20
25.12152318559995
 30
0.0
  0
VERTEX
  5
2346
  8
3
 10
144.6566203098
 20
25.06698215089994
 30
0.0
  0
VERTEX
  5
2347
  8
3
 10
143.9970687105
 20
24.90679015499995
 30
0.0
  0
VERTEX
  5
2348
  8
3
 10
143.4941539958001
 20
24.65118383479995
 30
0.0
  0
VERTEX
  5
2349
  8
3
 10
143.2055417518
 20
24.32008245189996
 30
0.0
  0
VERTEX
  5
234A
  8
3
 10
143.1647236033
 20
23.94598688249996
 30
0.0
  0
VERTEX
  5
234B
  8
3
 10
143.374696988
 20
23.57047534009996
 30
0.0
  0
VERTEX
  5
234C
  8
3
 10
143.8118977410001
 20
23.23896739439996
 30
0.0
  0
VERTEX
  5
234D
  8
3
 10
144.4291973030001
 20
22.99635236189996
 30
0.0
  0
VERTEX
  5
234E
  8
3
 10
145.1564436182
 20
22.87906067319994
 30
0.0
  0
VERTEX
  5
234F
  8
3
 10
145.9092332486
 20
22.90476719009996
 30
0.0
  0
VERTEX
  5
2350
  8
3
 10
146.6037036393
 20
23.06868165049997
 30
0.0
  0
VERTEX
  5
2351
  8
3
 10
147.1643002906
 20
23.34695157759995
 30
0.0
  0
VERTEX
  5
2352
  8
3
 10
147.5272665582
 20
23.70065450789997
 30
0.0
  0
VERTEX
  5
2353
  8
3
 10
147.6499646016
 20
24.08181428119997
 30
0.0
  0
VERTEX
  5
2354
  8
3
 10
147.5196449666001
 20
24.44399339389994
 30
0.0
  0
VERTEX
  5
2355
  8
3
 10
147.1518841384
 20
24.75037639479996
 30
0.0
  0
VERTEX
  5
2356
  8
3
 10
146.5861766848
 20
24.97446703559996
 30
0.0
  0
VERTEX
  5
2357
  8
3
 10
145.8856231952
 20
25.09869247419996
 30
0.0
  0
VERTEX
  5
2358
  8
3
 10
145.4
 20
25.12152318559995
 30
0.0
  0
SEQEND
  5
242E
  8
3
  0
POLYLINE
  5
1165
  8
3
 66
     1
 10
0.0
 20
0.0
 30
0.0
 70
   128
  0
VERTEX
  5
2359
  8
3
 10
145.4
 20
-22.87152318570004
 30
0.0
  0
VERTEX
  5
235A
  8
3
 10
144.6566203098
 20
-22.94333278340004
 30
0.0
  0
VERTEX
  5
235B
  8
3
 10
143.9970687105
 20
-23.14773251050004
 30
0.0
  0
VERTEX
  5
235C
  8
3
 10
143.4941539958001
 20
-23.45525281330004
 30
0.0
  0
VERTEX
  5
235D
  8
3
 10
143.2055417518
 20
-23.82323942160004
 30
0.0
  0
VERTEX
  5
235E
  8
3
 10
143.1647236033
 20
-24.20296826410004
 30
0.0
  0
VERTEX
  5
235F
  8
3
 10
143.374696988
 20
-24.55060171430005
 30
0.0
  0
VERTEX
  5
2360
  8
3
 10
143.8118977410001
 20
-24.83284041800005
 30
0.0
  0
VERTEX
  5
2361
  8
3
 10
144.4291973030001
 20
-25.02614105140005
 30
0.0
  0
VERTEX
  5
2362
  8
3
 10
145.1564436182
 20
-25.11583967190005
 30
0.0
  0
VERTEX
  5
2363
  8
3
 10
145.9092332486
 20
-25.09638337430005
 30
0.0
  0
VERTEX
  5
2364
  8
3
 10
146.6037036393
 20
-24.96962813820004
 30
0.0
  0
VERTEX
  5
2365
  8
3
 10
147.1643002906
 20
-24.74328408980004
 30
0.0
  0
VERTEX
  5
2366
  8
3
 10
147.5272665582
 20
-24.43361903000005
 30
0.0
  0
VERTEX
  5
2367
  8
3
 10
147.6499646016
 20
-24.06919320700004
 30
0.0
  0
VERTEX
  5
2368
  8
3
 10
147.5196449666001
 20
-23.68927144820005
 30
0.0
  0
VERTEX
  5
2369
  8
3
 10
147.1518841384
 20
-23.33849751700004
 30
0.0
  0
VERTEX
  5
236A
  8
3
 10
146.5861766848
 20
-23.06253480030004
 30
0.0
  0
VERTEX
  5
236B
  8
3
 10
145.8856231952
 20
-22.90172408300005
 30
0.0
  0
VERTEX
  5
236C
  8
3
 10
145.4
 20
-22.87152318570004
 30
0.0
  0
SEQEND
  5
242F
  8
3
  0
CIRCLE
  5
1166
  8
3
 10
145.4
 20
-0.0000000000000284
 30
0.0
 40
1.650000000000006
  0
LINE
  5
1169
  8
3
 10
145.4
 20
1.749999999999972
 30
0.0
 11
145.4
 21
1.649999999999949
 31
0.0
  0
LINE
  5
116A
  8
3
 10
145.4
 20
-1.650000000000034
 30
0.0
 11
145.4
 21
-1.750000000000028
 31
0.0
  0
LINE
  5
1173
  8
3
 10
-8.249999999999972
 20
0.0
 30
0.0
 11
-8.249999999999972
 21
6.700000000000004
 31
0.0
  0
LINE
  5
1174
  8
3
 10
-8.249999999999972
 20
-6.700000000000003
 30
0.0
 11
-8.249999999999972
 21
0.0
 31
0.0
  0
LINE
  5
1175
  8
3
 10
-7.689018500200035
 20
0.0
 30
0.0
 11
-7.689018500200035
 21
-5.754370000000023
 31
0.0
  0
LINE
  5
1176
  8
3
 10
-7.689018500200035
 20
5.754369999999994
 30
0.0
 11
-7.689018500200035
 21
0.0
 31
0.0
  0
POLYLINE
  5
1179
  8
3
 66
     1
 10
0.0
 20
0.0
 30
0.0
 70
   128
  0
VERTEX
  5
236D
  8
3
 10
145.4
 20
5.599170668499966
 30
0.0
  0
VERTEX
  5
236E
  8
3
 10
145.9332876108
 20
5.577178781699956
 30
0.0
  0
VERTEX
  5
236F
  8
3
 10
146.4061993754
 20
5.506890582199958
 30
0.0
  0
VERTEX
  5
2370
  8
3
 10
146.779647876
 20
5.373922949599972
 30
0.0
  0
VERTEX
  5
2371
  8
3
 10
147.0033708066
 20
5.166746755299954
 30
0.0
  0
VERTEX
  5
2372
  8
3
 10
147.0423143078
 20
4.901990443799946
 30
0.0
  0
VERTEX
  5
2373
  8
3
 10
146.905979949
 20
4.61201762449997
 30
0.0
  0
VERTEX
  5
2374
  8
3
 10
146.6107228934
 20
4.327451843999967
 30
0.0
  0
VERTEX
  5
2375
  8
3
 10
146.1715742775
 20
4.091463836299965
 30
0.0
  0
VERTEX
  5
2376
  8
3
 10
145.6378650509
 20
3.962230515499954
 30
0.0
  0
VERTEX
  5
2377
  8
3
 10
145.0938235977
 20
3.970856425999954
 30
0.0
  0
VERTEX
  5
2378
  8
3
 10
144.5960691482001
 20
4.104218921899957
 30
0.0
  0
VERTEX
  5
2379
  8
3
 10
144.174058135
 20
4.33862812619995
 30
0.0
  0
VERTEX
  5
237A
  8
3
 10
143.8757008241001
 20
4.637477207099948
 30
0.0
  0
VERTEX
  5
237B
  8
3
 10
143.7523216532001
 20
4.939104983099951
 30
0.0
  0
VERTEX
  5
237C
  8
3
 10
143.8120518363001
 20
5.192409302099946
 30
0.0
  0
VERTEX
  5
237D
  8
3
 10
144.0369070492
 20
5.382835439699959
 30
0.0
  0
VERTEX
  5
237E
  8
3
 10
144.4142080328001
 20
5.511474322199945
 30
0.0
  0
VERTEX
  5
237F
  8
3
 10
144.9146576038001
 20
5.581139607799969
 30
0.0
  0
VERTEX
  5
2380
  8
3
 10
145.4
 20
5.599170668499966
 30
0.0
  0
SEQEND
  5
2430
  8
3
  0
POLYLINE
  5
117A
  8
3
 66
     1
 10
0.0
 20
0.0
 30
0.0
 70
   128
  0
VERTEX
  5
2381
  8
3
 10
145.4
 20
-3.949170668600032
 30
0.0
  0
VERTEX
  5
2382
  8
3
 10
145.9332876108
 20
-4.015735755500032
 30
0.0
  0
VERTEX
  5
2383
  8
3
 10
146.4061993754
 20
-4.199196880800031
 30
0.0
  0
VERTEX
  5
2384
  8
3
 10
146.779647876
 20
-4.468897127800034
 30
0.0
  0
VERTEX
  5
2385
  8
3
 10
147.0033708066
 20
-4.777257273400039
 30
0.0
  0
VERTEX
  5
2386
  8
3
 10
147.0423143078
 20
-5.061061856900039
 30
0.0
  0
VERTEX
  5
2387
  8
3
 10
146.905979949
 20
-5.286201867400052
 30
0.0
  0
VERTEX
  5
2388
  8
3
 10
146.6107228934
 20
-5.448455892000055
 30
0.0
  0
VERTEX
  5
2389
  8
3
 10
146.1715742775
 20
-5.549946998600036
 30
0.0
  0
VERTEX
  5
238A
  8
3
 10
145.6378650509
 20
-5.594995109000052
 30
0.0
  0
VERTEX
  5
238B
  8
3
 10
145.0938235977
 20
-5.592200316400039
 30
0.0
  0
VERTEX
  5
238C
  8
3
 10
144.5960691482001
 20
-5.545119746300031
 30
0.0
  0
VERTEX
  5
238D
  8
3
 10
144.174058135
 20
-5.44296799410003
 30
0.0
  0
VERTEX
  5
238E
  8
3
 10
143.8757008241001
 20
-5.26915119130004
 30
0.0
  0
VERTEX
  5
238F
  8
3
 10
143.7523216532001
 20
-5.026603927700052
 30
0.0
  0
VERTEX
  5
2390
  8
3
 10
143.8120518363001
 20
-4.744167593500038
 30
0.0
  0
VERTEX
  5
2391
  8
3
 10
144.0369070492
 20
-4.453062560400042
 30
0.0
  0
VERTEX
  5
2392
  8
3
 10
144.4142080328001
 20
-4.188328753000037
 30
0.0
  0
VERTEX
  5
2393
  8
3
 10
144.9146576038001
 20
-4.004135245600054
 30
0.0
  0
VERTEX
  5
2394
  8
3
 10
145.4
 20
-3.949170668600032
 30
0.0
  0
SEQEND
  5
2431
  8
3
  0
LINE
  5
117B
  8
3
 10
141.2000000000001
 20
26.20424999999994
 30
0.0
 11
141.2000000000001
 21
16.68174999999996
 31
0.0
  0
LINE
  5
117C
  8
3
 10
141.2000000000001
 20
-16.68175000000004
 30
0.0
 11
141.2000000000001
 21
-26.20425000000005
 31
0.0
  0
POLYLINE
  5
117F
  8
3
 66
     1
 10
0.0
 20
0.0
 30
0.0
 70
   128
  0
VERTEX
  5
2395
  8
3
 10
145.4
 20
8.330759738099971
 30
0.0
  0
VERTEX
  5
2396
  8
3
 10
145.6461558845
 20
8.278374396699945
 30
0.0
  0
VERTEX
  5
2397
  8
3
 10
145.9833658684001
 20
8.068142678399965
 30
0.0
  0
VERTEX
  5
2398
  8
3
 10
146.5437403745
 20
7.49356561679997
 30
0.0
  0
VERTEX
  5
2399
  8
3
 10
146.8542250442
 20
7.043656785999956
 30
0.0
  0
VERTEX
  5
239A
  8
3
 10
147.0086961152
 20
6.712305987899953
 30
0.0
  0
VERTEX
  5
239B
  8
3
 10
147.0471813448001
 20
6.449290144399953
 30
0.0
  0
VERTEX
  5
239C
  8
3
 10
146.9741193683
 20
6.309675430799955
 30
0.0
  0
VERTEX
  5
239D
  8
3
 10
146.8117241572001
 20
6.260899641899954
 30
0.0
  0
VERTEX
  5
239E
  8
3
 10
146.4503275157
 20
6.334093831199964
 30
0.0
  0
VERTEX
  5
239F
  8
3
 10
145.8619997701001
 20
6.574465721499962
 30
0.0
  0
VERTEX
  5
23A0
  8
3
 10
145.6139613181
 20
6.654802368299954
 30
0.0
  0
VERTEX
  5
23A1
  8
3
 10
145.4
 20
6.680759738099965
 30
0.0
  0
SEQEND
  5
2432
  8
3
  0
POLYLINE
  5
1180
  8
3
 66
     1
 10
0.0
 20
0.0
 30
0.0
 70
   128
  0
VERTEX
  5
23A2
  8
3
 10
145.4
 20
7.69071023189997
 30
0.0
  0
VERTEX
  5
23A3
  8
3
 10
145.6461558845
 20
7.743095573199952
 30
0.0
  0
VERTEX
  5
23A4
  8
3
 10
145.9833658684001
 20
7.953327291599948
 30
0.0
  0
VERTEX
  5
23A5
  8
3
 10
146.5437403745
 20
8.527904353199972
 30
0.0
  0
VERTEX
  5
23A6
  8
3
 10
146.8542250442
 20
8.977813183999956
 30
0.0
  0
VERTEX
  5
23A7
  8
3
 10
147.0086961152
 20
9.309163981999973
 30
0.0
  0
VERTEX
  5
23A8
  8
3
 10
147.0471813448001
 20
9.572179825499973
 30
0.0
  0
VERTEX
  5
23A9
  8
3
 10
146.9741193683
 20
9.711794539199957
 30
0.0
  0
VERTEX
  5
23AA
  8
3
 10
146.8117241572001
 20
9.76057032809996
 30
0.0
  0
VERTEX
  5
23AB
  8
3
 10
146.4503275157
 20
9.68737613869996
 30
0.0
  0
VERTEX
  5
23AC
  8
3
 10
145.8619997701001
 20
9.447004248499951
 30
0.0
  0
VERTEX
  5
23AD
  8
3
 10
145.6139613181
 20
9.366667601699959
 30
0.0
  0
VERTEX
  5
23AE
  8
3
 10
145.4
 20
9.340710231899948
 30
0.0
  0
SEQEND
  5
2433
  8
3
  0
LINE
  5
1181
  8
3
 10
145.4
 20
7.69071023189997
 30
0.0
 11
145.4
 21
6.680759738099965
 31
0.0
  0
POLYLINE
  5
1182
  8
3
 66
     1
 10
0.0
 20
0.0
 30
0.0
 70
   128
  0
VERTEX
  5
23AF
  8
3
 10
145.4
 20
24.03448082139997
 30
0.0
  0
VERTEX
  5
23B0
  8
3
 10
144.8642458758
 20
23.98978004579996
 30
0.0
  0
VERTEX
  5
23B1
  8
3
 10
144.3865490241
 20
23.86052174159997
 30
0.0
  0
VERTEX
  5
23B2
  8
3
 10
144.0186753109
 20
23.66071305179994
 30
0.0
  0
VERTEX
  5
23B3
  8
3
 10
143.8004895612001
 20
23.41200634829997
 30
0.0
  0
VERTEX
  5
23B4
  8
3
 10
143.7556355866
 20
23.14135286139995
 30
0.0
  0
VERTEX
  5
23B5
  8
3
 10
143.888974011
 20
22.87808209599996
 30
0.0
  0
VERTEX
  5
23B6
  8
3
 10
144.1860555474
 20
22.65072352479996
 30
0.0
  0
VERTEX
  5
23B7
  8
3
 10
144.6146868015001
 20
22.48391497659995
 30
0.0
  0
VERTEX
  5
23B8
  8
3
 10
145.1284189261001
 20
22.39573274609995
 30
0.0
  0
VERTEX
  5
23B9
  8
3
 10
145.671581074
 20
22.39573274609995
 30
0.0
  0
VERTEX
  5
23BA
  8
3
 10
146.1853131985001
 20
22.48391497659995
 30
0.0
  0
VERTEX
  5
23BB
  8
3
 10
146.6139444526
 20
22.65072352479996
 30
0.0
  0
VERTEX
  5
23BC
  8
3
 10
146.911025989
 20
22.87808209599996
 30
0.0
  0
VERTEX
  5
23BD
  8
3
 10
147.0443644135001
 20
23.14135286139995
 30
0.0
  0
VERTEX
  5
23BE
  8
3
 10
146.9995104388
 20
23.41200634829997
 30
0.0
  0
VERTEX
  5
23BF
  8
3
 10
146.7813246892
 20
23.66071305179994
 30
0.0
  0
VERTEX
  5
23C0
  8
3
 10
146.4134509760001
 20
23.86052174159997
 30
0.0
  0
VERTEX
  5
23C1
  8
3
 10
145.9357541242
 20
23.98978004579996
 30
0.0
  0
VERTEX
  5
23C2
  8
3
 10
145.4
 20
24.03448082139997
 30
0.0
  0
SEQEND
  5
2434
  8
3
  0
POLYLINE
  5
1183
  8
3
 66
     1
 10
0.0
 20
0.0
 30
0.0
 70
   128
  0
VERTEX
  5
23C3
  8
3
 10
145.4
 20
-22.38448082150005
 30
0.0
  0
VERTEX
  5
23C4
  8
3
 10
144.8642458758
 20
-22.42918159710004
 30
0.0
  0
VERTEX
  5
23C5
  8
3
 10
144.3865490241
 20
-22.55843990120005
 30
0.0
  0
VERTEX
  5
23C6
  8
3
 10
144.0186753109
 20
-22.75824859100004
 30
0.0
  0
VERTEX
  5
23C7
  8
3
 10
143.8004895612001
 20
-23.00695529460005
 30
0.0
  0
VERTEX
  5
23C8
  8
3
 10
143.7556355866
 20
-23.27760878150004
 30
0.0
  0
VERTEX
  5
23C9
  8
3
 10
143.888974011
 20
-23.54087954680004
 30
0.0
  0
VERTEX
  5
23CA
  8
3
 10
144.1860555474
 20
-23.76823811810005
 30
0.0
  0
VERTEX
  5
23CB
  8
3
 10
144.6146868015001
 20
-23.93504666620004
 30
0.0
  0
VERTEX
  5
23CC
  8
3
 10
145.1284189261001
 20
-24.02322889680004
 30
0.0
  0
VERTEX
  5
23CD
  8
3
 10
145.671581074
 20
-24.02322889680004
 30
0.0
  0
VERTEX
  5
23CE
  8
3
 10
146.1853131985001
 20
-23.93504666620004
 30
0.0
  0
VERTEX
  5
23CF
  8
3
 10
146.6139444526
 20
-23.76823811810005
 30
0.0
  0
VERTEX
  5
23D0
  8
3
 10
146.911025989
 20
-23.54087954680004
 30
0.0
  0
VERTEX
  5
23D1
  8
3
 10
147.0443644135001
 20
-23.27760878150004
 30
0.0
  0
VERTEX
  5
23D2
  8
3
 10
146.9995104388
 20
-23.00695529460005
 30
0.0
  0
VERTEX
  5
23D3
  8
3
 10
146.7813246892
 20
-22.75824859100004
 30
0.0
  0
VERTEX
  5
23D4
  8
3
 10
146.4134509760001
 20
-22.55843990120005
 30
0.0
  0
VERTEX
  5
23D5
  8
3
 10
145.9357541242
 20
-22.42918159710004
 30
0.0
  0
VERTEX
  5
23D6
  8
3
 10
145.4
 20
-22.38448082150005
 30
0.0
  0
SEQEND
  5
2435
  8
3
  0
POLYLINE
  5
1184
  8
3
 66
     1
 10
0.0
 20
0.0
 30
0.0
 70
   128
  0
VERTEX
  5
23D7
  8
3
 10
145.4
 20
-8.330759738100028
 30
0.0
  0
VERTEX
  5
23D8
  8
3
 10
145.6461558845
 20
-8.278374396800046
 30
0.0
  0
VERTEX
  5
23D9
  8
3
 10
145.9833658684001
 20
-8.06814267840005
 30
0.0
  0
VERTEX
  5
23DA
  8
3
 10
146.5437403745
 20
-7.493565616800055
 30
0.0
  0
VERTEX
  5
23DB
  8
3
 10
146.8542250442
 20
-7.043656786000042
 30
0.0
  0
VERTEX
  5
23DC
  8
3
 10
147.0086961152
 20
-6.712305988000055
 30
0.0
  0
VERTEX
  5
23DD
  8
3
 10
147.0471813448001
 20
-6.449290144500054
 30
0.0
  0
VERTEX
  5
23DE
  8
3
 10
146.9741193683
 20
-6.309675430900028
 30
0.0
  0
VERTEX
  5
23DF
  8
3
 10
146.8117241572001
 20
-6.260899641900039
 30
0.0
  0
VERTEX
  5
23E0
  8
3
 10
146.4503275157
 20
-6.334093831300037
 30
0.0
  0
VERTEX
  5
23E1
  8
3
 10
145.8619997701001
 20
-6.574465721600035
 30
0.0
  0
VERTEX
  5
23E2
  8
3
 10
145.6139613181
 20
-6.654802368400055
 30
0.0
  0
VERTEX
  5
23E3
  8
3
 10
145.4
 20
-6.680759738100051
 30
0.0
  0
SEQEND
  5
2436
  8
3
  0
LINE
  5
1185
  8
3
 10
145.4
 20
-7.690710232000043
 30
0.0
 11
145.4
 21
-6.680759738100051
 31
0.0
  0
POLYLINE
  5
1186
  8
3
 66
     1
 10
0.0
 20
0.0
 30
0.0
 70
   128
  0
VERTEX
  5
23E4
  8
3
 10
145.4
 20
-7.690710232000043
 30
0.0
  0
VERTEX
  5
23E5
  8
3
 10
145.6461558845
 20
-7.743095573300053
 30
0.0
  0
VERTEX
  5
23E6
  8
3
 10
145.9833658684001
 20
-7.953327291700049
 30
0.0
  0
VERTEX
  5
23E7
  8
3
 10
146.5437403745
 20
-8.527904353300045
 30
0.0
  0
VERTEX
  5
23E8
  8
3
 10
146.8542250442
 20
-8.977813184100029
 30
0.0
  0
VERTEX
  5
23E9
  8
3
 10
147.0086961152
 20
-9.309163982100046
 30
0.0
  0
VERTEX
  5
23EA
  8
3
 10
147.0471813448001
 20
-9.572179825600045
 30
0.0
  0
VERTEX
  5
23EB
  8
3
 10
146.9741193683
 20
-9.711794539200042
 30
0.0
  0
VERTEX
  5
23EC
  8
3
 10
146.8117241572001
 20
-9.760570328100044
 30
0.0
  0
VERTEX
  5
23ED
  8
3
 10
146.4503275157
 20
-9.687376138800033
 30
0.0
  0
VERTEX
  5
23EE
  8
3
 10
145.8619997701001
 20
-9.447004248500036
 30
0.0
  0
VERTEX
  5
23EF
  8
3
 10
145.6139613181
 20
-9.366667601700044
 30
0.0
  0
VERTEX
  5
23F0
  8
3
 10
145.4
 20
-9.340710232000049
 30
0.0
  0
SEQEND
  5
2437
  8
3
  0
LINE
  5
1187
  8
3
 10
145.4
 20
-8.330759738100028
 30
0.0
 11
145.4
 21
-9.340710232000049
 31
0.0
  0
LINE
  5
1188
  8
3
 10
145.4
 20
9.340710231899948
 30
0.0
 11
145.4
 21
8.330759738099971
 31
0.0
  0
POLYLINE
  5
1189
  8
3
 66
     1
 10
0.0
 20
0.0
 30
0.0
 70
   128
  0
VERTEX
  5
23F1
  8
3
 10
145.4
 20
-22.08448082150004
 30
0.0
  0
VERTEX
  5
23F2
  8
3
 10
146.0338982529
 20
-22.13005122610004
 30
0.0
  0
VERTEX
  5
23F3
  8
3
 10
146.6164418393001
 20
-22.26307059700004
 30
0.0
  0
VERTEX
  5
23F4
  8
3
 10
147.1004365423
 20
-22.47276249580004
 30
0.0
  0
VERTEX
  5
23F5
  8
3
 10
147.4466719896
 20
-22.74213893180004
 30
0.0
  0
VERTEX
  5
23F6
  8
3
 10
147.6270982443
 20
-23.04937662840004
 30
0.0
  0
VERTEX
  5
23F7
  8
3
 10
147.6270982443
 20
-23.36958501450005
 30
0.0
  0
VERTEX
  5
23F8
  8
3
 10
147.4466719896
 20
-23.67682271110005
 30
0.0
  0
VERTEX
  5
23F9
  8
3
 10
147.1004365423
 20
-23.94619914710005
 30
0.0
  0
VERTEX
  5
23FA
  8
3
 10
146.6164418393001
 20
-24.15589104590004
 30
0.0
  0
VERTEX
  5
23FB
  8
3
 10
146.0338982529
 20
-24.28891041680004
 30
0.0
  0
VERTEX
  5
23FC
  8
3
 10
145.4
 20
-24.33448082150004
 30
0.0
  0
VERTEX
  5
23FD
  8
3
 10
144.7661017471001
 20
-24.28891041680004
 30
0.0
  0
VERTEX
  5
23FE
  8
3
 10
144.1835581607001
 20
-24.15589104590004
 30
0.0
  0
VERTEX
  5
23FF
  8
3
 10
143.6995634577001
 20
-23.94619914710005
 30
0.0
  0
VERTEX
  5
2400
  8
3
 10
143.3533280105001
 20
-23.67682271110005
 30
0.0
  0
VERTEX
  5
2401
  8
3
 10
143.1729017558001
 20
-23.36958501450005
 30
0.0
  0
VERTEX
  5
2402
  8
3
 10
143.1729017558001
 20
-23.04937662840004
 30
0.0
  0
VERTEX
  5
2403
  8
3
 10
143.3533280105001
 20
-22.74213893180004
 30
0.0
  0
VERTEX
  5
2404
  8
3
 10
143.6995634577001
 20
-22.47276249580004
 30
0.0
  0
VERTEX
  5
2405
  8
3
 10
144.1835581607001
 20
-22.26307059700004
 30
0.0
  0
VERTEX
  5
2406
  8
3
 10
144.7661017471001
 20
-22.13005122610004
 30
0.0
  0
VERTEX
  5
2407
  8
3
 10
145.4
 20
-22.08448082150004
 30
0.0
  0
SEQEND
  5
2438
  8
3
  0
POLYLINE
  5
118A
  8
3
 66
     1
 10
0.0
 20
0.0
 30
0.0
 70
   128
  0
VERTEX
  5
2408
  8
3
 10
145.4
 20
24.33448082139995
 30
0.0
  0
VERTEX
  5
2409
  8
3
 10
146.0338982529
 20
24.28891041669996
 30
0.0
  0
VERTEX
  5
240A
  8
3
 10
146.6164418393001
 20
24.15589104579996
 30
0.0
  0
VERTEX
  5
240B
  8
3
 10
147.1004365423
 20
23.94619914709994
 30
0.0
  0
VERTEX
  5
240C
  8
3
 10
147.4466719896
 20
23.67682271099997
 30
0.0
  0
VERTEX
  5
240D
  8
3
 10
147.6270982443
 20
23.36958501439994
 30
0.0
  0
VERTEX
  5
240E
  8
3
 10
147.6270982443
 20
23.04937662829997
 30
0.0
  0
VERTEX
  5
240F
  8
3
 10
147.4466719896
 20
22.74213893179996
 30
0.0
  0
VERTEX
  5
2410
  8
3
 10
147.1004365423
 20
22.47276249569995
 30
0.0
  0
VERTEX
  5
2411
  8
3
 10
146.6164418393001
 20
22.26307059699997
 30
0.0
  0
VERTEX
  5
2412
  8
3
 10
146.0338982529
 20
22.13005122609996
 30
0.0
  0
VERTEX
  5
2413
  8
3
 10
145.4
 20
22.08448082139995
 30
0.0
  0
VERTEX
  5
2414
  8
3
 10
144.7661017471001
 20
22.13005122609996
 30
0.0
  0
VERTEX
  5
2415
  8
3
 10
144.1835581607001
 20
22.26307059699997
 30
0.0
  0
VERTEX
  5
2416
  8
3
 10
143.6995634577001
 20
22.47276249569995
 30
0.0
  0
VERTEX
  5
2417
  8
3
 10
143.3533280105001
 20
22.74213893179996
 30
0.0
  0
VERTEX
  5
2418
  8
3
 10
143.1729017558001
 20
23.04937662829997
 30
0.0
  0
VERTEX
  5
2419
  8
3
 10
143.1729017558001
 20
23.36958501439994
 30
0.0
  0
VERTEX
  5
241A
  8
3
 10
143.3533280105001
 20
23.67682271099997
 30
0.0
  0
VERTEX
  5
241B
  8
3
 10
143.6995634577001
 20
23.94619914709994
 30
0.0
  0
VERTEX
  5
241C
  8
3
 10
144.1835581607001
 20
24.15589104579996
 30
0.0
  0
VERTEX
  5
241D
  8
3
 10
144.7661017471001
 20
24.28891041669996
 30
0.0
  0
VERTEX
  5
241E
  8
3
 10
145.4
 20
24.33448082139995
 30
0.0
  0
SEQEND
  5
2439
  8
3
  0
LINE
  5
118B
  8
3
 10
143.7670068382
 20
17.21947177849995
 30
0.0
 11
144.3793792739
 21
16.78645907669997
 31
0.0
  0
LINE
  5
118C
  8
3
 10
146.4206207262
 20
16.78645907669997
 30
0.0
 11
147.0329931619
 21
17.21947177849995
 31
0.0
  0
LINE
  5
118D
  8
3
 10
143.4
 20
23.88050622519995
 30
0.0
 11
143.4
 21
17.79682204769995
 31
0.0
  0
LINE
  5
118E
  8
3
 10
147.4
 20
17.79682204769995
 30
0.0
 11
147.4
 21
23.88050622519995
 31
0.0
  0
LINE
  5
118F
  8
3
 10
147.0329931619
 20
-17.21947177860004
 30
0.0
 11
146.4206207262
 21
-16.78645907670004
 31
0.0
  0
LINE
  5
1190
  8
3
 10
144.3793792739
 20
-16.78645907670004
 30
0.0
 11
143.7670068382
 21
-17.21947177860004
 31
0.0
  0
LINE
  5
1191
  8
3
 10
147.4
 20
-23.88050622520004
 30
0.0
 11
147.4
 21
-17.79682204780004
 31
0.0
  0
LINE
  5
1192
  8
3
 10
143.4
 20
-17.79682204780004
 30
0.0
 11
143.4
 21
-23.88050622520004
 31
0.0
  0
LINE
  5
1193
  8
3
 10
152.4
 20
6.349999999999966
 30
0.0
 11
151.5808500000001
 21
6.349999999999966
 31
0.0
  0
LINE
  5
1194
  8
3
 10
151.5808500000001
 20
-6.350000000000051
 30
0.0
 11
152.4
 21
-6.350000000000051
 31
0.0
  0
LINE
  5
1195
  8
3
 10
151.5808500000001
 20
6.349999999999966
 30
0.0
 11
150.8252
 21
5.594349999999962
 31
0.0
  0
LINE
  5
1196
  8
3
 10
150.8252
 20
-5.594350000000048
 30
0.0
 11
151.5808500000001
 21
-6.350000000000051
 31
0.0
  0
LINE
  5
119F
  8
3
 10
143.2410395106
 20
-16.68669000000004
 30
0.0
 11
142.3162
 21
-16.93450000000004
 31
0.0
  0
LINE
  5
11A0
  8
3
 10
142.3162
 20
-25.95150000000004
 30
0.0
 11
143.2410395106
 21
-26.19931000000004
 31
0.0
  0
LINE
  5
11A9
  8
3
 10
143.2410395106
 20
26.19930999999997
 30
0.0
 11
142.3162
 21
25.95149999999995
 31
0.0
  0
LINE
  5
11AA
  8
3
 10
142.3162
 20
16.93449999999996
 30
0.0
 11
143.2410395106
 21
16.68668999999997
 31
0.0
  0
LINE
  5
11B5
  8
3
 10
152.4
 20
1.749999999999972
 30
0.0
 11
145.4
 21
1.749999999999972
 31
0.0
  0
LINE
  5
11B6
  8
3
 10
145.4
 20
-1.750000000000028
 30
0.0
 11
152.4
 21
-1.750000000000028
 31
0.0
  0
LINE
  5
11C1
  8
3
 10
-8.249999999999972
 20
-6.688000000000017
 30
0.0
 11
-7.689018500200035
 21
-5.754370000000023
 31
0.0
  0
LINE
  5
11C2
  8
3
 10
-7.689018500200035
 20
5.754369999999994
 30
0.0
 11
-8.249999999999972
 21
6.687999999999988
 31
0.0
  0
LINE
  5
11C5
  8
3
 10
152.4
 20
5.754369999999946
 30
0.0
 11
-0.0000000000000071
 21
5.754369999999994
 31
0.0
  0
LINE
  5
11C6
  8
3
 10
0.0
 20
-5.754370000000023
 30
0.0
 11
152.4
 21
-5.754370000000059
 31
0.0
  0
LINE
  5
11C7
  8
3
 10
141.2000000000001
 20
26.20424999999994
 30
0.0
 11
138.3391523777
 21
21.44299999999995
 31
0.0
  0
LINE
  5
11C8
  8
3
 10
138.3391523777
 20
21.44299999999995
 30
0.0
 11
141.2000000000001
 21
16.68174999999996
 31
0.0
  0
LINE
  5
11C9
  8
3
 10
152.4
 20
-16.68175000000004
 30
0.0
 11
141.2000000000001
 21
-16.68175000000004
 31
0.0
  0
LINE
  5
11CA
  8
3
 10
141.2000000000001
 20
-26.20425000000005
 30
0.0
 11
152.4
 21
-26.20425000000005
 31
0.0
  0
LINE
  5
11CB
  8
3
 10
141.2000000000001
 20
-16.68175000000004
 30
0.0
 11
138.3391523777
 21
-21.44300000000004
 31
0.0
  0
LINE
  5
11CC
  8
3
 10
138.3391523777
 20
-21.44300000000004
 30
0.0
 11
141.2000000000001
 21
-26.20425000000005
 31
0.0
  0
LINE
  5
11CD
  8
3
 10
152.4
 20
26.20424999999994
 30
0.0
 11
141.2000000000001
 21
26.20424999999994
 31
0.0
  0
LINE
  5
11CE
  8
3
 10
141.2000000000001
 20
16.68174999999996
 30
0.0
 11
152.4
 21
16.68174999999996
 31
0.0
  0
LINE
  5
11D3
  8
3
 10
143.75
 20
23.20948082139995
 30
0.0
 11
143.75
 21
4.980511645799965
 31
0.0
  0
LINE
  5
11D4
  8
3
 10
147.05
 20
9.517509393899957
 30
0.0
 11
147.05
 21
23.20948082139995
 31
0.0
  0
LINE
  5
11D5
  8
3
 10
147.05
 20
4.978787621099968
 30
0.0
 11
147.05
 21
6.503960575999969
 31
0.0
  0
LINE
  5
11D6
  8
3
 10
147.05
 20
-6.503960576100042
 30
0.0
 11
147.05
 21
-4.978787621200041
 31
0.0
  0
LINE
  5
11D7
  8
3
 10
147.05
 20
-23.20948082150004
 30
0.0
 11
147.05
 21
-9.51750939400003
 31
0.0
  0
LINE
  5
11D8
  8
3
 10
143.75
 20
-4.98051164580005
 30
0.0
 11
143.75
 21
-23.20948082150004
 31
0.0
  0
LINE
  5
11D9
  8
3
 10
152.4
 20
-6.260734985000028
 30
0.0
 11
146.7955410454
 21
-6.260734985000028
 31
0.0
  0
LINE
  5
11DA
  8
3
 10
146.7955410454
 20
-9.760734985000028
 30
0.0
 11
152.4
 21
-9.760734985000028
 31
0.0
  0
LINE
  5
11DB
  8
3
 10
152.4
 20
9.76073498499997
 30
0.0
 11
146.7955410454
 21
9.76073498499997
 31
0.0
  0
LINE
  5
11DC
  8
3
 10
146.7955410454
 20
6.260734984999971
 30
0.0
 11
152.4
 21
6.260734984999971
 31
0.0
  0
LINE
  5
11DD
  8
3
 10
147.65
 20
-24.07536590840005
 30
0.0
 11
147.65
 21
-23.20948082150004
 31
0.0
  0
LINE
  5
11DE
  8
3
 10
143.15
 20
-23.20948082150004
 30
0.0
 11
143.15
 21
-24.07352314940005
 31
0.0
  0
LINE
  5
11DF
  8
3
 10
143.15
 20
24.07352314929994
 30
0.0
 11
143.15
 21
23.20948082139995
 31
0.0
  0
LINE
  5
11E0
  8
3
 10
147.65
 20
23.20948082139995
 30
0.0
 11
147.65
 21
24.07536590839996
 31
0.0
  0
LINE
  5
11E5
  8
1
 10
137.65
 20
-0.0000000000000284
 30
0.0
 11
137.65
 21
27.79999999999995
 31
0.0
  0
LINE
  5
11E6
  8
1
 10
137.65
 20
-27.80000000000004
 30
0.0
 11
137.65
 21
-0.0000000000000284
 31
0.0
  0
LINE
  5
11E7
  8
1
 10
151.4
 20
27.79999999999995
 30
0.0
 11
151.4
 21
-27.80000000000004
 31
0.0
  0
LINE
  5
11E8
  8
1
 10
135.65
 20
-0.0000000000000284
 30
0.0
 11
135.65
 21
-22.22500000000004
 31
0.0
  0
LINE
  5
11E9
  8
1
 10
135.65
 20
22.22499999999996
 30
0.0
 11
135.65
 21
-0.0000000000000284
 31
0.0
  0
LINE
  5
11F5
  8
SK3
 10
-0.0000000000000071
 20
5.754369999999994
 30
0.0
 11
-7.689018500200035
 21
5.754369999999994
 31
0.0
  0
LINE
  5
11F6
  8
SK3
 10
0.0
 20
-5.754370000000023
 30
0.0
 11
-7.689018500200035
 21
-5.754370000000023
 31
0.0
  0
ARC
  5
1225
  8
NOCUT
 10
135.65
 20
23.22499999999996
 30
0.0
 40
1.0
 50
270.0
 51
0.0
  0
ARC
  5
1226
  8
NOCUT
 10
137.65
 20
26.79999999999995
 30
0.0
 40
1.0
 50
90.0
 51
180.0
  0
LINE
  5
1227
  8
NOCUT
 10
151.4
 20
27.79999999999995
 30
0.0
 11
137.65
 21
27.79999999999995
 31
0.0
  0
ARC
  5
1228
  8
NOCUT
 10
151.4
 20
26.79999999999995
 30
0.0
 40
1.0
 50
0.0
 51
90.0
  0
LINE
  5
1229
  8
NOCUT
 10
152.4
 20
-0.0000000000000284
 30
0.0
 11
152.4
 21
26.79999999999995
 31
0.0
  0
LINE
  5
122C
  8
NOCUT
 10
136.65
 20
26.79999999999995
 30
0.0
 11
136.65
 21
23.22499999999996
 31
0.0
  0
LINE
  5
1592
  8
SK1
 10
180.3993703304999
 20
-14.98600000000002
 30
0.0
 11
181.1613703305
 21
-14.22399999999985
 31
0.0
  0
LINE
  5
1593
  8
SK1
 10
181.1613703305
 20
14.22400000000002
 30
0.0
 11
180.3993703304999
 21
14.98599999999996
 31
0.0
  0
LINE
  5
1594
  8
SK1
 10
180.3993703304999
 20
14.98599999999996
 30
0.0
 11
172.3983703304999
 21
14.98599999999996
 31
0.0
  0
LINE
  5
1595
  8
SK1
 10
172.3983703304999
 20
-14.98600000000002
 30
0.0
 11
180.3993703304999
 21
-14.98600000000002
 31
0.0
  0
LINE
  5
1596
  8
SK1
 10
172.3983703304999
 20
14.98599999999996
 30
0.0
 11
171.6363703305
 21
14.22400000000002
 31
0.0
  0
LINE
  5
1597
  8
SK1
 10
171.6363703305
 20
-14.22399999999985
 30
0.0
 11
172.3983703304999
 21
-14.98600000000002
 31
0.0
  0
ARC
  5
1598
  8
SK1
 10
170.9759703304999
 20
-7.010400000000033
 30
0.0
 40
0.6604000000000099
 50
0.0
 51
90.0
  0
ARC
  5
1599
  8
SK1
 10
170.9759703304999
 20
7.010399999999976
 30
0.0
 40
0.6604000000000099
 50
270.0
 51
0.0
  0
LINE
  5
159A
  8
SK1
 10
170.9759703304999
 20
6.349999999999994
 30
0.0
 11
170.0863703304999
 21
6.349999999999994
 31
0.0
  0
LINE
  5
159B
  8
SK1
 10
170.0863703304999
 20
-6.350000000000051
 30
0.0
 11
170.9759703304999
 21
-6.350000000000051
 31
0.0
  0
LINE
  5
159C
  8
SK1
 10
152.6148756332
 20
-16.67668999999992
 30
0.0
 11
152.5863703304999
 21
-16.67668999999992
 31
0.0
  0
LINE
  5
159F
  8
SK1
 10
152.5863703304999
 20
16.67669000000009
 30
0.0
 11
152.6148756332
 21
16.67669000000009
 31
0.0
  0
ARC
  5
15B4
  8
SK1
 10
152.7863703305
 20
-12.90000000000001
 30
0.0
 40
0.4000000000000211
 50
75.00000000000632
 51
119.9999999999964
  0
ARC
  5
15B5
  8
SK1
 10
152.7863703305
 20
12.89999999999995
 30
0.0
 40
0.3999999999999965
 50
239.9999999999922
 51
285.000000000003
  0
ARC
  5
15B6
  8
SK1
 10
168.5863703304999
 20
-11.19999999999996
 30
0.0
 40
1.500000000000114
 50
270.0
 51
0.0
  0
ARC
  5
15B7
  8
SK1
 10
168.5863703304999
 20
11.20000000000013
 30
0.0
 40
1.500000000000114
 50
0.0
 51
90.0
  0
LINE
  5
15B8
  8
SK1
 10
153.5854414910999
 20
-12.69999999999996
 30
0.0
 11
168.5863703304999
 21
-12.69999999999996
 31
0.0
  0
LINE
  5
15B9
  8
SK1
 10
168.5863703304999
 20
12.70000000000013
 30
0.0
 11
153.5854414910999
 21
12.70000000000013
 31
0.0
  0
LINE
  5
15BA
  8
SK1
 10
153.5854414910999
 20
12.70000000000013
 30
0.0
 11
152.8898979486
 21
12.51362966940004
 31
0.0
  0
LINE
  5
15BB
  8
SK1
 10
152.8898979486
 20
-12.51362966949992
 30
0.0
 11
153.5854414910999
 21
-12.69999999999996
 31
0.0
  0
LINE
  5
15C6
  8
SK1
 10
181.1613703305
 20
0.0000000000000853
 30
0.0
 11
181.1613703305
 21
-14.22399999999985
 31
0.0
  0
LINE
  5
15C7
  8
SK1
 10
181.1613703305
 20
14.22400000000002
 30
0.0
 11
181.1613703305
 21
0.0000000000000853
 31
0.0
  0
LINE
  5
15C8
  8
SK1
 10
180.3993703304999
 20
0.0000000000000853
 30
0.0
 11
180.3993703304999
 21
-14.98600000000002
 31
0.0
  0
LINE
  5
15C9
  8
SK1
 10
180.3993703304999
 20
14.98599999999996
 30
0.0
 11
180.3993703304999
 21
0.0000000000000853
 31
0.0
  0
LINE
  5
15CA
  8
SK1
 10
172.3983703304999
 20
0.0000000000000853
 30
0.0
 11
172.3983703304999
 21
-14.98600000000002
 31
0.0
  0
LINE
  5
15CB
  8
SK1
 10
172.3983703304999
 20
14.98599999999996
 30
0.0
 11
172.3983703304999
 21
0.0000000000000853
 31
0.0
  0
LINE
  5
15CC
  8
SK1
 10
171.6363703305
 20
0.0000000000000853
 30
0.0
 11
171.6363703305
 21
-14.22399999999985
 31
0.0
  0
LINE
  5
15CD
  8
SK1
 10
171.6363703305
 20
14.22400000000002
 30
0.0
 11
171.6363703305
 21
0.0000000000000853
 31
0.0
  0
LINE
  5
15CE
  8
SK1
 10
157.4885703304999
 20
-16.68050000000008
 30
0.0
 11
152.5863703304999
 21
-16.68050000000008
 31
0.0
  0
LINE
  5
15CF
  8
SK1
 10
157.4885703304999
 20
-16.68050000000008
 30
0.0
 11
157.4885703304999
 21
-26.20549999999995
 31
0.0
  0
LINE
  5
15D0
  8
SK1
 10
157.4885703304999
 20
-26.20549999999995
 30
0.0
 11
152.5863703304999
 21
-26.20549999999995
 31
0.0
  0
LINE
  5
15D1
  8
SK1
 10
157.4885703304999
 20
26.20549999999989
 30
0.0
 11
152.5863703304999
 21
26.20549999999989
 31
0.0
  0
LINE
  5
15D2
  8
SK1
 10
157.4885703304999
 20
26.20549999999989
 30
0.0
 11
157.4885703304999
 21
16.68050000000002
 31
0.0
  0
LINE
  5
15D3
  8
SK1
 10
157.4885703304999
 20
16.68050000000002
 30
0.0
 11
152.5863703304999
 21
16.68050000000002
 31
0.0
  0
LINE
  5
15F6
  8
SK1
 10
170.0863703304999
 20
0.0000000000000853
 30
0.0
 11
170.0863703304999
 21
11.20000000000013
 31
0.0
  0
LINE
  5
15F7
  8
SK1
 10
170.0863703304999
 20
-11.19999999999996
 30
0.0
 11
170.0863703304999
 21
0.0000000000000853
 31
0.0
  0
LINE
  5
15F8
  8
SK1
 10
153.5854414910999
 20
0.0000000000000853
 30
0.0
 11
153.5854414910999
 21
12.70000000000013
 31
0.0
  0
LINE
  5
15F9
  8
SK1
 10
153.5854414910999
 20
-12.69999999999996
 30
0.0
 11
153.5854414910999
 21
0.0000000000000853
 31
0.0
  0
LINE
  5
162D
  8
SK3
 10
174.0493703305
 20
2.006600000000021
 30
0.0
 11
174.0493703305
 21
0.0000000000000853
 31
0.0
  0
LINE
  5
162E
  8
SK3
 10
174.0493703305
 20
0.0000000000000853
 30
0.0
 11
174.0493703305
 21
-2.00659999999985
 31
0.0
  0
LINE
  5
162F
  8
SK3
 10
174.0493703305
 20
0.0000000000000853
 30
0.0
 11
181.1613703305
 21
0.0000000000000853
 31
0.0
  0
LINE
  5
1630
  8
SK3
 10
173.5413703305
 20
0.0000000000000853
 30
0.0
 11
173.5413703305
 21
-4.013200000000011
 31
0.0
  0
LINE
  5
1631
  8
SK3
 10
173.5413703305
 20
4.013199999999954
 30
0.0
 11
173.5413703305
 21
0.0000000000000853
 31
0.0
  0
LINE
  5
1632
  8
SK3
 10
174.0493703305
 20
4.013199999999954
 30
0.0
 11
174.0493703305
 21
2.006600000000021
 31
0.0
  0
LINE
  5
1633
  8
SK3
 10
174.0493703305
 20
-2.00659999999985
 30
0.0
 11
174.0493703305
 21
-4.013200000000011
 31
0.0
  0
LINE
  5
1634
  8
SK3
 10
174.0493703305
 20
4.013199999999954
 30
0.0
 11
181.1613703305
 21
4.013199999999954
 31
0.0
  0
LINE
  5
1635
  8
SK3
 10
174.0493703305
 20
-4.013200000000011
 30
0.0
 11
181.1613703305
 21
-4.013200000000011
 31
0.0
  0
LINE
  5
164C
  8
SK3
 10
169.2203480443999
 20
-6.749999999999915
 30
0.0
 11
169.2203480443999
 21
6.750000000000085
 31
0.0
  0
LINE
  5
164D
  8
SK3
 10
167.0863703304999
 20
6.750000000000085
 30
0.0
 11
167.0863703304999
 21
-6.749999999999915
 31
0.0
  0
LINE
  5
166E
  8
SK3
 10
170.0863703304999
 20
6.349999999999994
 30
0.0
 11
152.4
 21
6.349999999999994
 31
0.0
  0
LINE
  5
166F
  8
SK3
 10
152.4
 20
-6.350000000000051
 30
0.0
 11
170.0863703304999
 21
-6.350000000000051
 31
0.0
  0
LINE
  5
1672
  8
SK3
 10
174.0493703305
 20
4.013199999999954
 30
0.0
 11
173.5413703305
 21
4.013199999999954
 31
0.0
  0
LINE
  5
1673
  8
SK3
 10
173.5413703305
 20
-4.013200000000011
 30
0.0
 11
174.0493703305
 21
-4.013200000000011
 31
0.0
  0
LINE
  5
1674
  8
SK3
 10
173.5413703305
 20
4.013199999999954
 30
0.0
 11
171.1299964942
 21
0.0000000000000853
 31
0.0
  0
LINE
  5
1675
  8
SK3
 10
171.1299964942
 20
0.0000000000000853
 30
0.0
 11
173.5413703305
 21
-4.013200000000011
 31
0.0
  0
LINE
  5
1690
  8
SK3
 10
170.0863703304999
 20
1.750000000000085
 30
0.0
 11
152.4
 21
1.750000000000085
 31
0.0
  0
LINE
  5
1691
  8
SK3
 10
152.4
 20
-1.749999999999915
 30
0.0
 11
170.0863703304999
 21
-1.749999999999915
 31
0.0
  0
LINE
  5
1696
  8
SK3
 10
170.0863703304999
 20
7.249998200000022
 30
0.0
 11
169.2203480443999
 21
6.750000000000085
 31
0.0
  0
LINE
  5
1697
  8
SK3
 10
169.2203480443999
 20
-6.749999999999915
 30
0.0
 11
170.0863703304999
 21
-7.249998200000078
 31
0.0
  0
LINE
  5
1698
  8
SK3
 10
169.2203480443999
 20
6.750000000000085
 30
0.0
 11
167.0863703304999
 21
6.750000000000085
 31
0.0
  0
LINE
  5
1699
  8
SK3
 10
167.0863703304999
 20
-6.749999999999915
 30
0.0
 11
169.2203480443999
 21
-6.749999999999915
 31
0.0
  0
LINE
  5
16A0
  8
SK3
 10
167.0863703304999
 20
5.754369999999966
 30
0.0
 11
152.4
 21
5.754369999999966
 31
0.0
  0
LINE
  5
16A1
  8
SK3
 10
152.4
 20
-5.754370000000023
 30
0.0
 11
167.0863703304999
 21
-5.754370000000023
 31
0.0
  0
LINE
  5
16B4
  8
SK3
 10
170.0863703304999
 20
-6.260734984999913
 30
0.0
 11
152.4
 21
-6.260734984999913
 31
0.0
  0
LINE
  5
16B5
  8
SK3
 10
152.4
 20
-9.760734984999914
 30
0.0
 11
170.0863703304999
 21
-9.760734984999914
 31
0.0
  0
LINE
  5
16B6
  8
SK3
 10
170.0863703304999
 20
9.760734985000084
 30
0.0
 11
152.4
 21
9.760734985000084
 31
0.0
  0
LINE
  5
16B7
  8
SK3
 10
152.4
 20
6.260734985000084
 30
0.0
 11
170.0863703304999
 21
6.260734985000084
 31
0.0
  0
LINE
  5
16BC
  8
SK1
 10
170.9759703304999
 20
0.0000000000000853
 30
0.0
 11
170.9759703304999
 21
-6.350000000000051
 31
0.0
  0
LINE
  5
16BD
  8
SK1
 10
170.9759703304999
 20
6.349999999999994
 30
0.0
 11
170.9759703304999
 21
0.0000000000000853
 31
0.0
  0
LINE
  5
16C9
  8
SK1
 10
152.8898979486
 20
12.51362966940004
 30
0.0
 11
152.8898979486
 21
-12.51362966949992
 31
0.0
  0
LINE
  5
16CA
  8
SK1
 10
168.5863703304999
 20
12.70000000000013
 30
0.0
 11
168.5863703304999
 21
-12.69999999999996
 31
0.0
  0
LINE
  5
16D0
  8
SK4
 10
152.4
 20
-0.0000000000000284
 30
0.0
 11
181.1613703305
 21
-0.0000000000000284
 31
0.0
  0
DIMENSION
  5
16D9
  8
SK2
  2
*D16
 10
195.3001748489251
 20
-12.69999999999996
 30
0.0
 11
193.4251748489251
 21
0.0000000000000853
 31
0.0
 70
    32
  3
ISO-25
 13
168.5863703304999
 23
12.70000000000013
 33
0.0
 14
168.5863703304999
 24
-12.69999999999996
 34
0.0
 50
90.0
1001
ACAD
1000
DSTYLE
1002
{
1070
   287
1070
     5
1070
   144
1040
1.0
1070
   271
1070
     3
1070
   272
1070
     3
1070
   279
1070
     2
1002
}
  0
DIMENSION
  5
16E8
  8
SK2
  2
*D17
 10
210.4899590116038
 20
-27.80000000000004
 30
0.0
 11
208.6149590116038
 21
-0.0000000000000497
 31
0.0
 70
    32
  3
ISO-25
 13
151.4
 23
27.79999999999995
 33
0.0
 14
151.4
 24
-27.80000000000004
 34
0.0
 50
90.0
1001
ACAD
1000
DSTYLE
1002
{
1070
   287
1070
     5
1070
   144
1040
1.0
1070
   271
1070
     3
1070
   272
1070
     3
1070
   279
1070
     2
1002
}
  0
DIMENSION
  5
16F7
  8
SK2
  2
*D18
 10
136.65
 20
-42.03165299792866
 30
0.0
 11
68.325
 21
-40.15665299792866
 31
0.0
 70
    32
  3
ISO-25
 13
0.0
 23
-22.22499999999999
 33
0.0
 14
136.65
 24
-26.80000000000008
 34
0.0
1001
ACAD
1000
DSTYLE
1002
{
1070
   287
1070
     5
1070
   144
1040
1.0
1070
   271
1070
     3
1070
   272
1070
     3
1070
   279
1070
     2
1002
}
  0
ENDSEC
  0
EOF
