  0
SECTION
  2
HEADER
  9
$ACADVER
  1
AC1009
  9
$DWGCODEPAGE
  3
ansi_1252
  9
$INSBASE
 10
0.0
 20
0.0
 30
0.0
  9
$EXTMIN
 10
-68.25000000000003
 20
-43.89728280658011
 30
0.0
  9
$EXTMAX
 10
160.9399590116038
 20
50.83203563714093
 30
0.0
  9
$LIMMIN
 10
0.0
 20
0.0
  9
$LIMMAX
 10
420.0
 20
297.0
  9
$ORTHOMODE
 70
     1
  9
$REGENMODE
 70
     1
  9
$FILLMODE
 70
     1
  9
$QTEXTMODE
 70
     0
  9
$MIRRTEXT
 70
     0
  9
$DRAGMODE
 70
     2
  9
$LTSCALE
 40
1.0
  9
$OSMODE
 70
   511
  9
$ATTMODE
 70
     1
  9
$TEXTSIZE
 40
2.5
  9
$TRACEWID
 40
1.0
  9
$TEXTSTYLE
  7
STANDARD
  9
$CLAYER
  8
0
  9
$CELTYPE
  6
BYLAYER
  9
$CECOLOR
 62
   256
  9
$DIMSCALE
 40
1.0
  9
$DIMASZ
 40
2.5
  9
$DIMEXO
 40
0.625
  9
$DIMDLI
 40
3.75
  9
$DIMRND
 40
0.0
  9
$DIMDLE
 40
0.0
  9
$DIMEXE
 40
1.25
  9
$DIMTP
 40
0.0
  9
$DIMTM
 40
0.0
  9
$DIMTXT
 40
2.5
  9
$DIMCEN
 40
2.5
  9
$DIMTSZ
 40
0.0
  9
$DIMTOL
 70
     0
  9
$DIMLIM
 70
     0
  9
$DIMTIH
 70
     0
  9
$DIMTOH
 70
     0
  9
$DIMSE1
 70
     0
  9
$DIMSE2
 70
     0
  9
$DIMTAD
 70
     1
  9
$DIMZIN
 70
     8
  9
$DIMBLK
  1

  9
$DIMASO
 70
     1
  9
$DIMSHO
 70
     1
  9
$DIMPOST
  1

  9
$DIMAPOST
  1

  9
$DIMALT
 70
     0
  9
$DIMALTD
 70
     3
  9
$DIMALTF
 40
0.03937007874016
  9
$DIMLFAC
 40
1.0
  9
$DIMTOFL
 70
     1
  9
$DIMTVP
 40
0.0
  9
$DIMTIX
 70
     0
  9
$DIMSOXD
 70
     0
  9
$DIMSAH
 70
     0
  9
$DIMBLK1
  1

  9
$DIMBLK2
  1

  9
$DIMSTYLE
  2
ISO-25
  9
$DIMCLRD
 70
     0
  9
$DIMCLRE
 70
     0
  9
$DIMCLRT
 70
     0
  9
$DIMTFAC
 40
1.0
  9
$DIMGAP
 40
0.625
  9
$LUNITS
 70
     2
  9
$LUPREC
 70
     3
  9
$SKETCHINC
 40
1.0
  9
$FILLETRAD
 40
10.0
  9
$AUNITS
 70
     0
  9
$AUPREC
 70
     0
  9
$MENU
  1
.
  9
$ELEVATION
 40
0.0
  9
$PELEVATION
 40
0.0
  9
$THICKNESS
 40
0.0
  9
$LIMCHECK
 70
     0
  9
$CHAMFERA
 40
10.0
  9
$CHAMFERB
 40
10.0
  9
$SKPOLY
 70
     0
  9
$TDCREATE
 40
2455022.429026158
  9
$TDUPDATE
 40
2458697.295047697
  9
$TDINDWG
 40
0.0079128241
  9
$TDUSRTIMER
 40
0.002180081
  9
$USRTIMER
 70
     1
  9
$ANGBASE
 50
0.0
  9
$ANGDIR
 70
     0
  9
$PDMODE
 70
     0
  9
$PDSIZE
 40
0.0
  9
$PLINEWID
 40
0.0
  9
$COORDS
 70
     1
  9
$SPLFRAME
 70
     0
  9
$SPLINETYPE
 70
     6
  9
$SPLINESEGS
 70
     8
  9
$ATTDIA
 70
     0
  9
$ATTREQ
 70
     1
  9
$HANDLING
 70
     1
  9
$HANDSEED
  5
209D
  9
$SURFTAB1
 70
     6
  9
$SURFTAB2
 70
     6
  9
$SURFTYPE
 70
     6
  9
$SURFU
 70
     6
  9
$SURFV
 70
     6
  9
$UCSNAME
  2

  9
$UCSORG
 10
0.0
 20
0.0
 30
0.0
  9
$UCSXDIR
 10
1.0
 20
0.0
 30
0.0
  9
$UCSYDIR
 10
0.0
 20
1.0
 30
0.0
  9
$PUCSNAME
  2

  9
$PUCSORG
 10
0.0
 20
0.0
 30
0.0
  9
$PUCSXDIR
 10
1.0
 20
0.0
 30
0.0
  9
$PUCSYDIR
 10
0.0
 20
1.0
 30
0.0
  9
$USERI1
 70
     0
  9
$USERI2
 70
     0
  9
$USERI3
 70
     0
  9
$USERI4
 70
     0
  9
$USERI5
 70
     0
  9
$USERR1
 40
0.0
  9
$USERR2
 40
0.0
  9
$USERR3
 40
0.0
  9
$USERR4
 40
0.0
  9
$USERR5
 40
0.0
  9
$WORLDVIEW
 70
     1
  9
$SHADEDGE
 70
     3
  9
$SHADEDIF
 70
    70
  9
$TILEMODE
 70
     1
  9
$MAXACTVP
 70
    64
  9
$PLIMCHECK
 70
     0
  9
$PEXTMIN
 10
1.000000000000000E+20
 20
1.000000000000000E+20
 30
1.000000000000000E+20
  9
$PEXTMAX
 10
-1.000000000000000E+20
 20
-1.000000000000000E+20
 30
-1.000000000000000E+20
  9
$PLIMMIN
 10
0.0
 20
0.0
  9
$PLIMMAX
 10
0.0
 20
0.0
  9
$UNITMODE
 70
     0
  9
$VISRETAIN
 70
     1
  9
$PLINEGEN
 70
     0
  9
$PSLTSCALE
 70
     1
  0
ENDSEC
  0
SECTION
  2
TABLES
  0
TABLE
  2
VPORT
 70
     1
  0
VPORT
  2
*ACTIVE
 70
     0
 10
0.0
 20
0.0
 11
1.0
 21
1.0
 12
180.5318953936523
 22
3.467376415280413
 13
0.0
 23
0.0
 14
10.0
 24
10.0
 15
10.0
 25
10.0
 16
0.0
 26
0.0
 36
1.0
 17
-134.1869158878504
 27
0.0
 37
0.0
 40
96.62390481259547
 41
2.794759825327511
 42
50.0
 43
0.0
 44
0.0
 50
0.0
 51
0.0
 71
    16
 72
  1000
 73
     1
 74
     3
 75
     0
 76
     0
 77
     0
 78
     0
  0
ENDTAB
  0
TABLE
  2
LTYPE
 70
     6
  0
LTYPE
  2
CONTINUOUS
 70
     0
  3
Solid line
 72
    65
 73
     0
 40
0.0
  0
LTYPE
  2
CENTER
 70
     0
  3
 Center _____  _  _____  _  _____  _  _____  _ 
 72
    65
 73
     4
 40
50.8
 49
31.75
 49
-6.35
 49
6.35
 49
-6.35
  0
LTYPE
  2
DASHED
 70
     0
  3
Dashed __  __  __  __  __  __  __  __  __  __  
 72
    65
 73
     2
 40
19.05
 49
12.7
 49
-6.35
  0
LTYPE
  2
HIDDEN
 70
     0
  3
Hidden __ __ __ __ __ __ __ __ __ __ __ __ __ __
 72
    65
 73
     2
 40
1.905
 49
1.27
 49
-0.635
  0
LTYPE
  2
CENTERX2
 70
     0
  3
Center (2x) ________  __  ________  __  _____
 72
    65
 73
     4
 40
20.32
 49
12.7
 49
-2.54
 49
2.54
 49
-2.54
  0
LTYPE
  2
PHANTOM
 70
     0
  3
Phantom ______  __  __  ______  __  __  ______
 72
    65
 73
     6
 40
12.7
 49
6.35
 49
-1.27
 49
1.27
 49
-1.27
 49
1.27
 49
-1.27
  0
ENDTAB
  0
TABLE
  2
LAYER
 70
    26
  0
LAYER
  2
0
 70
     0
 62
     7
  6
CONTINUOUS
  0
LAYER
  2
1
 70
     0
 62
     4
  6
CONTINUOUS
  0
LAYER
  2
2
 70
     0
 62
     7
  6
CONTINUOUS
  0
LAYER
  2
3
 70
     0
 62
     1
  6
DASHED
  0
LAYER
  2
4
 70
     0
 62
     2
  6
CENTER
  0
LAYER
  2
6
 70
     0
 62
     5
  6
CONTINUOUS
  0
LAYER
  2
7
 70
     0
 62
     5
  6
CONTINUOUS
  0
LAYER
  2
11
 70
     0
 62
     4
  6
CONTINUOUS
  0
LAYER
  2
SK1
 70
     0
 62
     4
  6
CONTINUOUS
  0
LAYER
  2
SK2
 70
     0
 62
     7
  6
CONTINUOUS
  0
LAYER
  2
SK3
 70
     0
 62
     1
  6
DASHED
  0
LAYER
  2
SK4
 70
     0
 62
     2
  6
CENTER
  0
LAYER
  2
SK6
 70
     0
 62
     5
  6
CONTINUOUS
  0
LAYER
  2
SK7
 70
     0
 62
     5
  6
CONTINUOUS
  0
LAYER
  2
SK11
 70
     0
 62
     4
  6
CONTINUOUS
  0
LAYER
  2
CUT
 70
     0
 62
     1
  6
CONTINUOUS
  0
LAYER
  2
NOCUT
 70
     0
 62
     7
  6
CONTINUOUS
  0
LAYER
  2
SKVIEW1
 70
     0
 62
     4
  6
CONTINUOUS
  0
LAYER
  2
SKVIEW2
 70
     0
 62
     7
  6
CONTINUOUS
  0
LAYER
  2
SKVIEW3
 70
     0
 62
     1
  6
DASHED
  0
LAYER
  2
SKVIEW4
 70
     0
 62
     2
  6
CENTER
  0
LAYER
  2
SKVIEW6
 70
     0
 62
     5
  6
CONTINUOUS
  0
LAYER
  2
SKVIEW7
 70
     0
 62
     5
  6
CONTINUOUS
  0
LAYER
  2
SKVIEW11
 70
     0
 62
     4
  6
CONTINUOUS
  0
LAYER
  2
INFTOTAL
 70
     0
 62
     9
  6
CONTINUOUS
  0
LAYER
  2
DEFPOINTS
 70
     0
 62
     7
  6
CONTINUOUS
  0
ENDTAB
  0
TABLE
  2
STYLE
 70
     1
  0
STYLE
  2
STANDARD
 70
     0
 40
0.0
 41
1.0
 50
0.0
 71
     0
 42
2.5
  3
txt
  4

  0
ENDTAB
  0
TABLE
  2
VIEW
 70
     0
  0
ENDTAB
  0
TABLE
  2
UCS
 70
     0
  0
ENDTAB
  0
TABLE
  2
APPID
 70
     2
  0
APPID
  2
ACAD
 70
     0
  0
APPID
  2
ACAECLAYERSTANDARD
 70
     0
  0
ENDTAB
  0
TABLE
  2
DIMSTYLE
 70
     1
  0
DIMSTYLE
  2
ISO-25
 70
     0
  3

  4

  5

  6

  7

 40
1.0
 41
2.5
 42
0.625
 43
3.75
 44
1.25
 45
0.0
 46
0.0
 47
0.0
 48
0.0
140
2.5
141
2.5
142
0.0
143
0.03937007874016
144
1.0
145
0.0
146
1.0
147
0.625
 71
     0
 72
     0
 73
     0
 74
     0
 75
     0
 76
     0
 77
     1
 78
     8
170
     0
171
     3
172
     1
173
     0
174
     0
175
     0
176
     0
177
     0
178
     0
  0
ENDTAB
  0
ENDSEC
  0
SECTION
  2
BLOCKS
  0
BLOCK
  8
0
  2
$MODEL_SPACE
 70
     0
 10
0.0
 20
0.0
 30
0.0
  3
$MODEL_SPACE
  1

  0
ENDBLK
  5
21
  8
0
  0
BLOCK
 67
     1
  8
0
  2
$PAPER_SPACE
 70
     0
 10
0.0
 20
0.0
 30
0.0
  3
$PAPER_SPACE
  1

  0
ENDBLK
  5
1D
 67
     1
  8
0
  0
BLOCK
  8
0
  2
_FILLED
 70
     0
 10
0.0
 20
0.0
 30
0.0
  3
_FILLED
  1

  0
SOLID
  5
1C4
  8
0
  6
BYBLOCK
 62
     0
 10
0.0
 20
0.0
 30
0.0
 11
-1.0
 21
0.2142857143
 31
0.0
 12
-1.0
 22
-0.2142857143
 32
0.0
 13
-1.0
 23
-0.2142857143
 33
0.0
  0
ENDBLK
  5
1C5
  8
0
  6
BYBLOCK
 62
     0
  0
BLOCK
  8
0
  2
*D5
 70
     1
 10
0.0
 20
0.0
 30
0.0
  3
*D5
  1

  0
LINE
  5
1D3
  8
2
 62
     0
 10
0.0
 20
22.84999999999999
 30
0.0
 11
0.0
 21
48.91573065769793
 31
0.0
  0
LINE
  5
1D4
  8
2
 62
     0
 10
101.6
 20
27.42499999999998
 30
0.0
 11
101.6
 21
48.91573065769793
 31
0.0
  0
LINE
  5
1D5
  8
2
 62
     0
 10
2.5
 20
47.66573065769793
 30
0.0
 11
99.10000000000001
 21
47.66573065769793
 31
0.0
  0
SOLID
  5
1D6
  8
2
 62
     0
 10
2.5
 20
48.08239732436459
 30
0.0
 11
2.5
 21
47.24906399103126
 31
0.0
 12
0.0
 22
47.66573065769793
 32
0.0
 13
0.0
 23
47.66573065769793
 33
0.0
  0
SOLID
  5
1D7
  8
2
 62
     0
 10
99.10000000000001
 20
47.24906399103126
 30
0.0
 11
99.10000000000001
 21
48.08239732436459
 31
0.0
 12
101.6
 22
47.66573065769793
 32
0.0
 13
101.6
 23
47.66573065769793
 33
0.0
  0
TEXT
  5
1D8
  8
2
  6
CONTINUOUS
 62
     0
 10
46.84166666666667
 20
48.29073065769793
 30
0.0
 40
2.5
  1
101.6
  0
POINT
  5
1D9
  8
DEFPOINTS
 62
     0
 10
0.0
 20
22.22499999999999
 30
0.0
  0
POINT
  5
1DA
  8
DEFPOINTS
 62
     0
 10
101.6
 20
26.79999999999998
 30
0.0
  0
POINT
  5
1DB
  8
DEFPOINTS
 62
     0
 10
101.6
 20
47.66573065769793
 30
0.0
  0
ENDBLK
  5
1DD
  8
0
  0
BLOCK
  8
0
  2
*D16
 70
     1
 10
0.0
 20
0.0
 30
0.0
  3
*D16
  1

  0
LINE
  5
16DF
  8
SK2
 62
     0
 10
118.4113703304999
 20
12.70000000000016
 30
0.0
 11
145.750174848925
 21
12.70000000000016
 31
0.0
  0
LINE
  5
16E0
  8
SK2
 62
     0
 10
118.4113703304999
 20
-12.69999999999993
 30
0.0
 11
145.750174848925
 21
-12.69999999999993
 31
0.0
  0
LINE
  5
16E1
  8
SK2
 62
     0
 10
144.500174848925
 20
10.20000000000016
 30
0.0
 11
144.500174848925
 21
-10.19999999999993
 31
0.0
  0
SOLID
  5
16E2
  8
SK2
 62
     0
 10
144.9168415155917
 20
10.20000000000016
 30
0.0
 11
144.0835081822584
 21
10.20000000000016
 31
0.0
 12
144.500174848925
 22
12.70000000000016
 32
0.0
 13
144.500174848925
 23
12.70000000000016
 33
0.0
  0
SOLID
  5
16E3
  8
SK2
 62
     0
 10
144.0835081822584
 20
-10.19999999999993
 30
0.0
 11
144.9168415155917
 21
-10.19999999999993
 31
0.0
 12
144.500174848925
 22
-12.69999999999993
 32
0.0
 13
144.500174848925
 23
-12.69999999999993
 33
0.0
  0
TEXT
  5
16E4
  8
SK2
  6
CONTINUOUS
 62
     0
 10
143.875174848925
 20
-3.749999999999886
 30
0.0
 40
2.5
  1
25.4
 50
90.0
  0
POINT
  5
16E5
  8
DEFPOINTS
 62
     0
 10
117.7863703304999
 20
12.70000000000016
 30
0.0
  0
POINT
  5
16E6
  8
DEFPOINTS
 62
     0
 10
117.7863703304999
 20
-12.69999999999993
 30
0.0
  0
POINT
  5
16E7
  8
DEFPOINTS
 62
     0
 10
144.500174848925
 20
-12.69999999999993
 30
0.0
  0
ENDBLK
  5
16DE
  8
0
  0
BLOCK
  8
0
  2
*D17
 70
     1
 10
0.0
 20
0.0
 30
0.0
  3
*D17
  1

  0
LINE
  5
16EE
  8
SK2
 62
     0
 10
101.225
 20
27.79999999999998
 30
0.0
 11
160.9399590116038
 21
27.79999999999997
 31
0.0
  0
LINE
  5
16EF
  8
SK2
 62
     0
 10
101.225
 20
-27.80000000000001
 30
0.0
 11
160.9399590116038
 21
-27.80000000000001
 31
0.0
  0
LINE
  5
16F0
  8
SK2
 62
     0
 10
159.6899590116038
 20
25.29999999999997
 30
0.0
 11
159.6899590116038
 21
-25.30000000000001
 31
0.0
  0
SOLID
  5
16F1
  8
SK2
 62
     0
 10
160.1066256782705
 20
25.29999999999997
 30
0.0
 11
159.2732923449371
 21
25.29999999999997
 31
0.0
 12
159.6899590116038
 22
27.79999999999997
 32
0.0
 13
159.6899590116038
 23
27.79999999999997
 33
0.0
  0
SOLID
  5
16F2
  8
SK2
 62
     0
 10
159.2732923449371
 20
-25.30000000000001
 30
0.0
 11
160.1066256782705
 21
-25.30000000000001
 31
0.0
 12
159.6899590116038
 22
-27.80000000000001
 32
0.0
 13
159.6899590116038
 23
-27.80000000000001
 33
0.0
  0
TEXT
  5
16F3
  8
SK2
  6
CONTINUOUS
 62
     0
 10
159.0649590116038
 20
-3.750000000000028
 30
0.0
 40
2.5
  1
55.6
 50
90.0
  0
POINT
  5
16F4
  8
DEFPOINTS
 62
     0
 10
100.6
 20
27.79999999999998
 30
0.0
  0
POINT
  5
16F5
  8
DEFPOINTS
 62
     0
 10
100.6
 20
-27.80000000000001
 30
0.0
  0
POINT
  5
16F6
  8
DEFPOINTS
 62
     0
 10
159.6899590116038
 20
-27.80000000000001
 30
0.0
  0
ENDBLK
  5
16ED
  8
0
  0
BLOCK
  8
0
  2
*D18
 70
     1
 10
0.0
 20
0.0
 30
0.0
  3
*D18
  1

  0
LINE
  5
16FD
  8
SK2
 62
     0
 10
0.0
 20
-22.84999999999999
 30
0.0
 11
0.0
 21
-43.28165299792866
 31
0.0
  0
LINE
  5
16FE
  8
SK2
 62
     0
 10
85.85000000000001
 20
-27.42500000000001
 30
0.0
 11
85.85000000000001
 21
-43.28165299792866
 31
0.0
  0
LINE
  5
16FF
  8
SK2
 62
     0
 10
2.5
 20
-42.03165299792866
 30
0.0
 11
83.35000000000001
 21
-42.03165299792866
 31
0.0
  0
SOLID
  5
1700
  8
SK2
 62
     0
 10
2.5
 20
-41.614986331262
 30
0.0
 11
2.5
 21
-42.44831966459532
 31
0.0
 12
0.0
 22
-42.03165299792866
 32
0.0
 13
0.0
 23
-42.03165299792866
 33
0.0
  0
SOLID
  5
1701
  8
SK2
 62
     0
 10
83.35000000000001
 20
-42.44831966459532
 30
0.0
 11
83.35000000000001
 21
-41.614986331262
 31
0.0
 12
85.85000000000001
 22
-42.03165299792866
 32
0.0
 13
85.85000000000001
 23
-42.03165299792866
 33
0.0
  0
TEXT
  5
1702
  8
SK2
  6
CONTINUOUS
 62
     0
 10
37.925
 20
-41.40665299792866
 30
0.0
 40
2.5
  1
85.85
  0
POINT
  5
1703
  8
DEFPOINTS
 62
     0
 10
0.0
 20
-22.22499999999999
 30
0.0
  0
POINT
  5
1704
  8
DEFPOINTS
 62
     0
 10
85.85000000000001
 20
-26.80000000000001
 30
0.0
  0
POINT
  5
1705
  8
DEFPOINTS
 62
     0
 10
85.85000000000001
 20
-42.03165299792866
 30
0.0
  0
ENDBLK
  5
16FC
  8
0
  0
ENDSEC
  0
SECTION
  2
ENTITIES
  0
LINE
  5
1B2
  8
4
 10
101.6
 20
-0.0000000069714394
 30
0.0
 11
0.0
 21
0.0
 31
0.0
  0
DIMENSION
  5
1CF
  8
2
  2
*D5
 10
101.6
 20
47.66573065769793
 30
0.0
 11
50.8
 21
49.54073065769793
 31
0.0
 70
    32
  3
ISO-25
 13
0.0
 23
22.22499999999999
 33
0.0
 14
101.6
 24
26.79999999999998
 34
0.0
  0
LINE
  5
364
  8
NOCUT
 10
101.6
 20
-0.0000000069714394
 30
0.0
 11
0.0
 21
0.0
 31
0.0
  0
LINE
  5
99D
  8
SK3
 10
-66.51794919240001
 20
0.0
 30
0.0
 11
-66.51794919240001
 21
8.149999999999991
 31
0.0
  0
LINE
  5
99E
  8
SK3
 10
-66.51794919240001
 20
-8.149999999999991
 30
0.0
 11
-66.51794919240001
 21
0.0
 31
0.0
  0
LINE
  5
99F
  8
SK3
 10
-63.48000000000002
 20
0.0
 30
0.0
 11
-63.48000000000002
 21
8.149999999999991
 31
0.0
  0
LINE
  5
9A0
  8
SK3
 10
-63.48000000000002
 20
-8.149999999999991
 30
0.0
 11
-63.48000000000002
 21
0.0
 31
0.0
  0
LINE
  5
9BF
  8
SK3
 10
-68.25000000000003
 20
-9.149999999999991
 30
0.0
 11
-66.51794919240001
 21
-8.149999999999991
 31
0.0
  0
LINE
  5
9C0
  8
SK3
 10
-66.51794919240001
 20
8.149999999999991
 30
0.0
 11
-68.25000000000003
 21
9.149999999999991
 31
0.0
  0
LINE
  5
9C1
  8
SK3
 10
-66.51794919240001
 20
-8.149999999999991
 30
0.0
 11
-63.48000000000002
 21
-8.149999999999991
 31
0.0
  0
LINE
  5
9C2
  8
SK3
 10
-63.48000000000002
 20
8.149999999999991
 30
0.0
 11
-66.51794919240001
 21
8.149999999999991
 31
0.0
  0
LINE
  5
9C3
  8
SK3
 10
-63.48000000000002
 20
-6.700000000000003
 30
0.0
 11
-8.249999999999964
 21
-6.700000000000003
 31
0.0
  0
LINE
  5
9C4
  8
SK3
 10
-8.249999999999972
 20
6.700000000000003
 30
0.0
 11
-63.48000000000002
 21
6.700000000000003
 31
0.0
  0
LINE
  5
9E1
  8
0
 10
103.6
 20
1.99999999651428
 30
0.0
 11
99.60000000000005
 21
-2.00000000348572
 31
0.0
  0
LINE
  5
9E2
  8
0
 10
99.60000000000005
 20
1.99999999651428
 30
0.0
 11
103.6
 21
-2.00000000348572
 31
0.0
  0
CIRCLE
  5
9E3
  8
0
 10
101.6000000000001
 20
-0.0000000034857197
 30
0.0
 40
1.5
  0
LINE
  5
9E4
  8
0
 10
3.0
 20
3.0
 30
0.0
 11
-3.0
 21
-3.0
 31
0.0
  0
LINE
  5
9E5
  8
0
 10
-3.0
 20
3.0
 30
0.0
 11
3.0
 21
-3.0
 31
0.0
  0
CIRCLE
  5
9E6
  8
0
 10
0.0
 20
0.0
 30
0.0
 40
2.5
  0
LINE
  5
9E7
  8
SK3
 10
-63.48000000000005
 20
-7.937499999800011
 30
0.0
 11
-39.75000000000003
 21
-7.937499999800011
 31
0.0
  0
LINE
  5
9E8
  8
SK3
 10
-39.75000000000003
 20
7.937500000199975
 30
0.0
 11
-39.75000000000003
 21
-7.937499999800011
 31
0.0
  0
LINE
  5
9E9
  8
SK3
 10
-39.75000000000003
 20
7.937500000199975
 30
0.0
 11
-63.48000000000005
 21
7.937500000199975
 31
0.0
  0
ARC
  5
AA1
  8
NOCUT
 10
0.5
 20
22.72499999999999
 30
0.0
 40
0.5
 50
270.0
 51
0.0
  0
LINE
  5
AA4
  8
NOCUT
 10
0.5
 20
22.22499999999999
 30
0.0
 11
0.0
 21
22.22499999999999
 31
0.0
  0
LINE
  5
AA5
  8
NOCUT
 10
84.85
 20
22.22499999999999
 30
0.0
 11
20.04999999999998
 21
22.22499999999999
 31
0.0
  0
LINE
  5
AA7
  8
NOCUT
 10
14.65616676909997
 20
30.7125381562
 30
0.0
 11
18.54999999999995
 21
30.7125381562
 31
0.0
  0
POLYLINE
  5
AA8
  8
NOCUT
 66
     1
 10
0.0
 20
0.0
 30
0.0
  0
VERTEX
  5
1EEB
  8
NOCUT
 10
18.54999999999995
 20
30.7125381562
 30
0.0
  0
VERTEX
  5
1EEC
  8
NOCUT
 10
18.57284145939997
 20
30.6889245341
 30
0.0
  0
VERTEX
  5
1EED
  8
NOCUT
 10
19.04999999999995
 20
30.1953638825
 30
0.0
  0
SEQEND
  5
2082
  8
NOCUT
  0
POLYLINE
  5
AA9
  8
NOCUT
 66
     1
 10
0.0
 20
0.0
 30
0.0
  0
VERTEX
  5
1EEE
  8
NOCUT
 10
1.0
 20
30.1953638825
 30
0.0
  0
VERTEX
  5
1EEF
  8
NOCUT
 10
1.477158540600044
 20
30.6889245341
 30
0.0
  0
VERTEX
  5
1EF0
  8
NOCUT
 10
1.5
 20
30.7125381562
 30
0.0
  0
SEQEND
  5
2083
  8
NOCUT
  0
LINE
  5
AAA
  8
NOCUT
 10
1.499999999999996
 20
30.7125381562
 30
0.0
 11
7.603833230899966
 21
30.7125381562
 31
0.0
  0
POLYLINE
  5
AAB
  8
NOCUT
 66
     1
 10
0.0
 20
0.0
 30
0.0
  0
VERTEX
  5
1EF1
  8
NOCUT
 10
7.603833230899966
 20
30.7125381562
 30
0.0
  0
VERTEX
  5
1EF2
  8
NOCUT
 10
9.140787278000005
 20
27.9518236359
 30
0.0
  0
VERTEX
  5
1EF3
  8
NOCUT
 10
9.204999999999984
 20
27.8360650174
 30
0.0
  0
SEQEND
  5
2084
  8
NOCUT
  0
POLYLINE
  5
AAC
  8
NOCUT
 66
     1
 10
0.0
 20
0.0
 30
0.0
  0
VERTEX
  5
1EF4
  8
NOCUT
 10
13.05499999999995
 20
27.8360650174
 30
0.0
  0
VERTEX
  5
1EF5
  8
NOCUT
 10
13.1192127219
 20
27.9518236359
 30
0.0
  0
VERTEX
  5
1EF6
  8
NOCUT
 10
14.65616676909997
 20
30.7125381562
 30
0.0
  0
SEQEND
  5
2085
  8
NOCUT
  0
ARC
  5
AAD
  8
NOCUT
 10
12.54226966779999
 20
27.51838423379999
 30
0.0
 40
0.512803993977288
 50
271.4225108534019
 51
0.9711541378997977
  0
ARC
  5
AAE
  8
NOCUT
 10
9.716236145599964
 20
27.5169512018
 30
0.0
 40
0.5113363895821054
 50
178.8654582714003
 51
268.7408767374973
  0
LINE
  5
AAF
  8
NOCUT
 10
9.704999999999984
 20
27.0057382791
 30
0.0
 11
12.55499999999995
 21
27.0057382791
 31
0.0
  0
LINE
  5
AB0
  8
NOCUT
 10
0.0
 20
0.0
 30
0.0
 11
0.0
 21
22.22499999999999
 31
0.0
  0
LINE
  5
ACA
  8
NOCUT
 10
1.0
 20
22.72499999999999
 30
0.0
 11
1.0
 21
30.1953638825
 31
0.0
  0
LINE
  5
ACB
  8
NOCUT
 10
9.204999999999984
 20
27.8360650174
 30
0.0
 11
9.20489975601786
 21
27.5169512018
 31
0.0
  0
LINE
  5
ACC
  8
NOCUT
 10
13.05499999999995
 20
27.8360650174
 30
0.0
 11
13.05507366177728
 21
27.51838423379999
 31
0.0
  0
LINE
  5
ACD
  8
NOCUT
 10
19.04999999999995
 20
30.1953638825
 30
0.0
 11
19.04999999999995
 21
23.22499999999999
 31
0.0
  0
ARC
  5
B91
  8
1
 10
20.04999999999998
 20
-23.22499999999999
 30
0.0
 40
1.0
 50
90.0
 51
180.0
  0
ARC
  5
B93
  8
1
 10
20.04999999999998
 20
23.22499999999999
 30
0.0
 40
1.0
 50
180.0
 51
270.0
  0
ARC
  5
B94
  8
1
 10
0.799999999999983
 20
-22.42500000000001
 30
0.0
 40
0.5
 50
66.42182152179994
 51
90.0
  0
ARC
  5
B95
  8
1
 10
0.799999999999983
 20
22.42499999999998
 30
0.0
 40
0.5
 50
270.0
 51
293.5781784782001
  0
LINE
  5
B96
  8
1
 10
20.04999999999998
 20
-22.22499999999999
 30
0.0
 11
84.85
 21
-22.22499999999999
 31
0.0
  0
LINE
  5
B97
  8
1
 10
84.85
 20
22.22499999999999
 30
0.0
 11
20.04999999999998
 21
22.22499999999999
 31
0.0
  0
LINE
  5
B98
  8
1
 10
0.0
 20
-22.22499999999999
 30
0.0
 11
0.2999999999999829
 21
-21.92500000000001
 31
0.0
  0
LINE
  5
B99
  8
1
 10
0.2999999999999829
 20
21.92499999999998
 30
0.0
 11
0.0
 21
22.22499999999999
 31
0.0
  0
LINE
  5
B9C
  8
SK1
 10
0.0
 20
22.22499999999999
 30
0.0
 11
-67.3943082273
 21
12.39657058259999
 31
0.0
  0
LINE
  5
B9D
  8
SK1
 10
-67.3943082273
 20
-12.39657058270001
 30
0.0
 11
0.0
 21
-22.22499999999999
 31
0.0
  0
LINE
  5
B9E
  8
1
 10
0.2999999999999829
 20
-21.92500000000001
 30
0.0
 11
0.799999999999983
 21
-21.92500000000001
 31
0.0
  0
LINE
  5
B9F
  8
1
 10
0.799999999999983
 20
21.92499999999998
 30
0.0
 11
0.2999999999999829
 21
21.92499999999998
 31
0.0
  0
ARC
  5
BA0
  8
SK1
 10
-67.25
 20
-11.4070377962
 30
0.0
 40
1.000000000000014
 50
180.0
 51
261.7027777778003
  0
ARC
  5
BA1
  8
SK1
 10
-67.25
 20
11.40703779609998
 30
0.0
 40
1.000000000000014
 50
98.29722222219964
 51
180.0
  0
LINE
  5
BA2
  8
1
 10
14.6561667922
 20
30.49243725150001
 30
0.0
 11
13.05500004409998
 21
27.5903849293
 31
0.0
  0
LINE
  5
BA3
  8
1
 10
14.65616676899998
 20
-30.51805114620001
 30
0.0
 11
14.65616676899998
 21
30.49243720799998
 31
0.0
  0
LINE
  5
BA4
  8
1
 10
13.05500002099998
 20
-27.61768172550001
 30
0.0
 11
14.65616678619998
 21
-30.51748284710001
 31
0.0
  0
LINE
  5
BA5
  8
1
 10
13.05499999999998
 20
-27.61768156150001
 30
0.0
 11
13.05499999999998
 21
27.5896745586
 31
0.0
  0
LINE
  5
BA6
  8
1
 10
14.65616729029998
 20
-30.5174828113
 30
0.0
 11
14.76217597669998
 21
-30.54092502470002
 31
0.0
  0
LINE
  5
BA7
  8
1
 10
14.69253150219998
 20
30.50268419069999
 30
0.0
 11
14.65616753799998
 21
30.49243719839998
 31
0.0
  0
LINE
  5
BA8
  8
1
 10
18.54999999999998
 20
30.50268419069999
 30
0.0
 11
14.69253150219998
 21
30.50268419069999
 31
0.0
  0
LINE
  5
BA9
  8
1
 10
14.76217597669998
 20
-30.54092502470002
 30
0.0
 11
18.54999999999998
 21
-30.54092502470002
 31
0.0
  0
LINE
  5
BAA
  8
1
 10
9.204999955799991
 20
27.5903849293
 30
0.0
 11
7.603833207699978
 21
30.49243725150001
 31
0.0
  0
LINE
  5
BAB
  8
1
 10
9.204999999999984
 20
-27.6182445954
 30
0.0
 11
9.204999999999984
 21
27.5903848518
 31
0.0
  0
LINE
  5
BAC
  8
1
 10
7.6038332137
 20
-30.51748284710001
 30
0.0
 11
9.204999978799975
 21
-27.61768172539999
 31
0.0
  0
LINE
  5
BAD
  8
1
 10
7.603833230899994
 20
-30.5174828113
 30
0.0
 11
7.603833230899994
 21
30.49194635059999
 31
0.0
  0
LINE
  5
BAE
  8
1
 10
1.0
 20
-29.20362428180002
 30
0.0
 11
1.0
 21
29.22527756419998
 31
0.0
  0
ARC
  5
BAF
  8
1
 10
1.736068826500002
 20
28.83956144390001
 30
0.0
 40
0.8318485490646366
 50
106.4871262675995
 51
152.2338518675996
  0
POLYLINE
  5
BB0
  8
1
 66
     1
 10
0.0
 20
0.0
 30
0.0
  0
VERTEX
  5
1EF7
  8
1
 10
1.499991175799977
 20
-29.70136738420001
 30
0.0
  0
VERTEX
  5
1EF8
  8
1
 10
1.31486147779998
 20
-29.6078136875
 30
0.0
  0
VERTEX
  5
1EF9
  8
1
 10
1.220960437199977
 20
-29.54106786380001
 30
0.0
  0
VERTEX
  5
1EFA
  8
1
 10
1.131120186599986
 20
-29.45918995790001
 30
0.0
  0
VERTEX
  5
1EFB
  8
1
 10
1.068966655699995
 20
-29.38420485969999
 30
0.0
  0
VERTEX
  5
1EFC
  8
1
 10
1.029912598300001
 20
-29.3189781797
 30
0.0
  0
VERTEX
  5
1EFD
  8
1
 10
1.001757060399996
 20
-29.23060659110001
 30
0.0
  0
VERTEX
  5
1EFE
  8
1
 10
1.000001938499992
 20
-29.2054619834
 30
0.0
  0
SEQEND
  5
2086
  8
1
  0
LINE
  5
BB1
  8
1
 10
7.5674684974
 20
30.50268419069999
 30
0.0
 11
4.03465638199998
 21
30.50268419069999
 31
0.0
  0
LINE
  5
BB2
  8
1
 10
7.603832461599978
 20
30.49243719839998
 30
0.0
 11
7.5674684974
 21
30.50268419069999
 31
0.0
  0
LINE
  5
BB3
  8
1
 10
7.497824022700001
 20
-30.54092502470002
 30
0.0
 11
7.603832709099976
 21
-30.5174828113
 31
0.0
  0
LINE
  5
BB4
  8
1
 10
3.987796517999982
 20
-30.54092502470002
 30
0.0
 11
7.497824022700001
 21
-30.54092502470002
 31
0.0
  0
LINE
  5
BB5
  8
1
 10
1.500000037399985
 20
-29.70136454339999
 30
0.0
 11
3.987796517999982
 21
-30.54092512950001
 31
0.0
  0
LINE
  5
BB6
  8
1
 10
4.03465638199998
 20
30.5026843142
 30
0.0
 11
1.499999999899984
 21
29.6372041155
 31
0.0
  0
POLYLINE
  5
BB7
  8
1
 66
     1
 10
0.0
 20
0.0
 30
0.0
  0
VERTEX
  5
1EFF
  8
1
 10
18.81621828999999
 20
-30.4787564463
 30
0.0
  0
VERTEX
  5
1F00
  8
1
 10
18.6790188139
 20
-30.52721612650001
 30
0.0
  0
VERTEX
  5
1F01
  8
1
 10
18.54999999999998
 20
-30.54092502470002
 30
0.0
  0
SEQEND
  5
2087
  8
1
  0
ARC
  5
BB8
  8
1
 10
18.55943835959999
 20
29.86640550269999
 30
0.0
 40
0.6363486869715145
 50
60.60134603479981
 51
90.84984539750005
  0
ARC
  5
BB9
  8
1
 10
18.35098180669999
 20
29.95429978019999
 30
0.0
 40
0.6992094391558102
 50
1.340108450200791
 51
41.85091720829973
  0
LINE
  5
BBA
  8
1
 10
19.04999999999998
 20
29.97065231189998
 30
0.0
 11
19.04999999999998
 21
-29.97065231190001
 31
0.0
  0
ARC
  5
BBB
  8
1
 10
18.33294041069999
 20
-29.9485632036
 30
0.0
 40
0.7173997374297006
 50
312.3495695874001
 51
358.2355544919003
  0
ARC
  5
BBC
  8
1
 10
9.7449695926
 20
27.30906555679999
 30
0.0
 40
0.5407677835436584
 50
176.8865704259999
 51
265.761250323199
  0
ARC
  5
BBD
  8
1
 10
9.7179331838
 20
-27.29360212969999
 30
0.0
 40
0.4775741781478385
 50
91.55181642760164
 51
147.4596417165987
  0
ARC
  5
BBE
  8
1
 10
12.52505146019999
 20
27.30025443439999
 30
0.0
 40
0.5313222205439724
 50
273.2312498579008
 51
4.120929392898505
  0
ARC
  5
BBF
  8
1
 10
12.53972316129997
 20
-27.2977060387
 30
0.0
 40
0.4817452194643697
 50
32.86161398089808
 51
88.18276318630117
  0
LINE
  5
BC0
  8
1
 10
12.55499999999998
 20
26.7697769259
 30
0.0
 11
9.704999999999984
 21
26.7697769259
 31
0.0
  0
LINE
  5
BC1
  8
1
 10
9.704999999999984
 20
-26.81620310549999
 30
0.0
 11
12.55499999999998
 21
-26.81620310549999
 31
0.0
  0
LINE
  5
BC4
  8
1
 10
0.2999999999999829
 20
0.0
 30
0.0
 11
0.2999999999999829
 21
21.92499999999998
 31
0.0
  0
LINE
  5
BC5
  8
1
 10
0.2999999999999829
 20
-21.92500000000001
 30
0.0
 11
0.2999999999999829
 21
0.0
 31
0.0
  0
LINE
  5
BC6
  8
1
 10
0.0
 20
0.0
 30
0.0
 11
0.0
 21
22.22499999999999
 31
0.0
  0
LINE
  5
BC7
  8
1
 10
0.0
 20
-22.22499999999999
 30
0.0
 11
0.0
 21
0.0
 31
0.0
  0
LINE
  5
BCA
  8
SK1
 10
-68.25
 20
0.0
 30
0.0
 11
-68.25
 21
11.40703779609998
 31
0.0
  0
LINE
  5
BCB
  8
SK1
 10
-68.25
 20
-11.4070377962
 30
0.0
 11
-68.25
 21
0.0
 31
0.0
  0
LINE
  5
BCC
  8
1
 10
7.567468496899977
 20
30.50268419069999
 30
0.0
 11
7.6038324612
 21
30.49243719839998
 31
0.0
  0
LINE
  5
BCD
  8
1
 10
3.987796517999982
 20
-30.54092512950001
 30
0.0
 11
1.499999999899984
 21
-29.7013645289
 31
0.0
  0
LINE
  5
BDE
  8
3
 10
1.0
 20
-22.59999999999999
 30
0.0
 11
3.699999999999989
 21
-22.59999999999999
 31
0.0
  0
LINE
  5
BDF
  8
3
 10
1.0
 20
25.02000000000001
 30
0.0
 11
3.699999999999989
 21
25.02000000000001
 31
0.0
  0
LINE
  5
BE8
  8
3
 10
18.25
 20
25.02000000000001
 30
0.0
 11
19.04999999999998
 21
25.02000000000001
 31
0.0
  0
LINE
  5
BFE
  8
3
 10
3.699999999999989
 20
-22.59999999999999
 30
0.0
 11
18.25
 21
-22.59999999999999
 31
0.0
  0
LINE
  5
C08
  8
3
 10
3.699999999999989
 20
25.02000000000001
 30
0.0
 11
18.25
 21
25.02000000000001
 31
0.0
  0
LINE
  5
C10
  8
3
 10
11.13
 20
21.22
 30
0.0
 11
17.47999999999999
 21
21.22
 31
0.0
  0
LINE
  5
C11
  8
3
 10
4.780000000000001
 20
21.22
 30
0.0
 11
11.13
 21
21.22
 31
0.0
  0
LINE
  5
C12
  8
3
 10
11.13
 20
21.21000000000001
 30
0.0
 11
15.88
 21
21.21000000000001
 31
0.0
  0
LINE
  5
C13
  8
3
 10
6.379999999999995
 20
21.21000000000001
 30
0.0
 11
11.13
 21
21.21000000000001
 31
0.0
  0
LINE
  5
C26
  8
3
 10
4.780000000000001
 20
25.02000000000001
 30
0.0
 11
4.780000000000001
 21
21.22
 31
0.0
  0
LINE
  5
C27
  8
3
 10
17.47999999999999
 20
21.22
 30
0.0
 11
17.47999999999999
 21
25.02000000000001
 31
0.0
  0
LINE
  5
C28
  8
3
 10
6.379999999999995
 20
21.22
 30
0.0
 11
6.379999999999995
 21
21.21000000000001
 31
0.0
  0
LINE
  5
C29
  8
3
 10
15.88
 20
21.21000000000001
 30
0.0
 11
15.88
 21
21.22
 31
0.0
  0
LINE
  5
C2A
  8
3
 10
6.379999999999995
 20
21.21000000000001
 30
0.0
 11
11.13
 21
18.3559120596
 31
0.0
  0
LINE
  5
C2B
  8
3
 10
11.13
 20
18.3559120596
 30
0.0
 11
15.88
 21
21.21000000000001
 31
0.0
  0
LINE
  5
C2C
  8
1
 10
20.04999999999998
 20
22.22499999999999
 30
0.0
 11
20.04999999999998
 21
-22.22499999999999
 31
0.0
  0
LINE
  5
C2D
  8
1
 10
0.799999999999983
 20
21.92499999999998
 30
0.0
 11
0.799999999999983
 21
-21.92500000000001
 31
0.0
  0
LINE
  5
C2F
  8
1
 10
9.704999999999984
 20
26.26568698759999
 30
0.0
 11
9.704999999999984
 21
-26.08092552630001
 31
0.0
  0
LINE
  5
C30
  8
1
 10
12.55499999999998
 20
26.26578903699999
 30
0.0
 11
12.55499999999998
 21
-26.08072526110001
 31
0.0
  0
LINE
  5
C31
  8
1
 10
18.54999999999998
 20
30.50268419069999
 30
0.0
 11
18.54999999999998
 21
-30.54092502470002
 31
0.0
  0
LINE
  5
C32
  8
1
 10
1.5
 20
-29.7013645289
 30
0.0
 11
1.5
 21
29.6372041155
 31
0.0
  0
LINE
  5
C92
  8
SK4
 10
0.0
 20
0.0
 30
0.0
 11
-68.25
 21
0.0
 31
0.0
  0
TEXT
  5
D44
  8
SK6
 10
-66.17909534664395
 20
47.33203563714093
 30
0.0
 40
3.5
  1
BIG KAISER
 41
0.85
  0
TEXT
  5
D45
  8
SK6
 10
-66.17909534664395
 20
42.08203563714093
 30
0.0
 40
3.5
  1
BCV40-SMC1.000-4
 41
0.85
  0
INSERT
  5
D46
  8
SK6
  2
_FILLED
 10
-17.9836627818344
 20
-19.60235774778011
 30
0.0
 41
3.5
 42
3.5
 43
3.5
 50
55.49325986033524
  0
POLYLINE
  5
D47
  8
SK6
 66
     1
 10
0.0
 20
0.0
 30
0.0
  0
VERTEX
  5
1F02
  8
SK6
 10
-19.966423916232
 20
-22.48656618059532
 30
0.0
  0
VERTEX
  5
1F03
  8
SK6
 10
-33.4822656830344
 20
-42.14728280658011
 30
0.0
  0
VERTEX
  5
1F04
  8
SK6
 10
-35.35726568303438
 20
-40.39728280658011
 30
0.0
  0
VERTEX
  5
1F05
  8
SK6
 10
-38.85726568303438
 20
-40.39728280658011
 30
0.0
  0
SEQEND
  5
2088
  8
SK6
  0
TEXT
  5
D48
  8
SK6
 10
-53.86143234970106
 20
-43.89728280658011
 30
0.0
 40
3.5
  1
BCV40
 41
0.85
  0
ARC
  5
E7B
  8
NOCUT
 10
20.04999999999998
 20
23.22499999999999
 30
0.0
 40
1.0
 50
180.0
 51
270.0
  0
ARC
  5
10C5
  8
1
 10
86.85000000000001
 20
26.79999999999998
 30
0.0
 40
1.0
 50
90.0
 51
180.0
  0
ARC
  5
10C6
  8
1
 10
86.85000000000001
 20
-26.80000000000001
 30
0.0
 40
1.0
 50
180.0
 51
270.0
  0
LINE
  5
10C7
  8
1
 10
86.85000000000001
 20
-27.80000000000001
 30
0.0
 11
100.6
 21
-27.80000000000001
 31
0.0
  0
LINE
  5
10C8
  8
1
 10
100.6
 20
27.79999999999998
 30
0.0
 11
86.85000000000001
 21
27.79999999999998
 31
0.0
  0
ARC
  5
10C9
  8
1
 10
100.6
 20
-26.80000000000001
 30
0.0
 40
1.0
 50
270.0
 51
0.0
  0
ARC
  5
10CA
  8
1
 10
100.6
 20
26.79999999999998
 30
0.0
 40
1.0
 50
0.0
 51
90.0
  0
ARC
  5
10CB
  8
1
 10
84.85000000000001
 20
23.22499999999999
 30
0.0
 40
1.0
 50
270.0
 51
0.0
  0
ARC
  5
10CC
  8
1
 10
84.85000000000001
 20
-23.22500000000001
 30
0.0
 40
1.000000000000014
 50
0.0
 51
90.0
  0
CIRCLE
  5
10E3
  8
1
 10
94.60000000000001
 20
0.0
 30
0.0
 40
1.609999999999954
  0
CIRCLE
  5
10E4
  8
1
 10
94.60000000000001
 20
0.0
 30
0.0
 40
2.000000000000009
  0
LINE
  5
10E5
  8
1
 10
95.56230203289998
 20
-0.638206965500018
 30
0.0
 11
95.63385446150004
 21
0.5142745237999975
 31
0.0
  0
LINE
  5
10E6
  8
1
 10
94.67155242860007
 20
1.152481489299987
 30
0.0
 11
95.63385446150004
 21
0.5142745237999975
 31
0.0
  0
LINE
  5
10E7
  8
1
 10
93.63769796710004
 20
0.6382069654999896
 30
0.0
 11
94.67155242860007
 21
1.152481489299987
 31
0.0
  0
LINE
  5
10E8
  8
1
 10
93.63769796710004
 20
0.6382069654999896
 30
0.0
 11
93.56614553860003
 21
-0.5142745239000135
 31
0.0
  0
LINE
  5
10E9
  8
1
 10
94.5284475715
 20
-1.152481489400003
 30
0.0
 11
93.56614553860003
 21
-0.5142745239000135
 31
0.0
  0
LINE
  5
10EA
  8
1
 10
94.5284475715
 20
-1.152481489400003
 30
0.0
 11
95.56230203289998
 21
-0.638206965500018
 31
0.0
  0
LINE
  5
1113
  8
1
 10
85.85000000000001
 20
-26.80000000000001
 30
0.0
 11
85.85000000000001
 21
26.79999999999998
 31
0.0
  0
CIRCLE
  5
1114
  8
1
 10
94.60000000000001
 20
0.0
 30
0.0
 40
2.249999999999773
  0
LINE
  5
1115
  8
1
 10
101.6
 20
0.0
 30
0.0
 11
101.6
 21
26.79999999999998
 31
0.0
  0
LINE
  5
1116
  8
1
 10
101.6
 20
-26.80000000000001
 30
0.0
 11
101.6
 21
0.0
 31
0.0
  0
POLYLINE
  5
1121
  8
3
 66
     1
 10
0.0
 20
0.0
 30
0.0
 70
   128
  0
VERTEX
  5
1F06
  8
3
 10
92.80931154520009
 20
18.24219684989998
 30
0.0
  0
VERTEX
  5
1F07
  8
3
 10
93.15141986390005
 20
18.48631744099998
 30
0.0
  0
VERTEX
  5
1F08
  8
3
 10
93.62224088470008
 20
18.6691733406
 30
0.0
  0
VERTEX
  5
1F09
  8
3
 10
94.17994009380003
 20
18.77451699949998
 30
0.0
  0
VERTEX
  5
1F0A
  8
3
 10
94.77496346890005
 20
18.79298817149999
 30
0.0
  0
VERTEX
  5
1F0B
  8
3
 10
95.35444057200003
 20
18.72294561179999
 30
0.0
  0
VERTEX
  5
1F0C
  8
3
 10
95.86688231950005
 20
18.57061290909999
 30
0.0
  0
VERTEX
  5
1F0D
  8
3
 10
96.26675601320004
 20
18.3495254927
 30
0.0
  0
VERTEX
  5
1F0E
  8
3
 10
96.51853112080003
 20
18.07932794979999
 30
0.0
  0
VERTEX
  5
1F0F
  8
3
 10
96.59983631890007
 20
17.78402851759998
 30
0.0
  0
VERTEX
  5
1F10
  8
3
 10
96.50344728399999
 20
17.4898658468
 30
0.0
  0
VERTEX
  5
1F11
  8
3
 10
96.23792860470006
 20
17.22297758149998
 30
0.0
  0
VERTEX
  5
1F12
  8
3
 10
95.826872781
 20
17.0070779152
 30
0.0
  0
VERTEX
  5
1F13
  8
3
 10
95.3068039267
 20
16.8613504809
 30
0.0
  0
VERTEX
  5
1F14
  8
3
 10
94.72393244170006
 20
16.79874380059999
 30
0.0
  0
VERTEX
  5
1F15
  8
3
 10
94.13004901539999
 20
16.82482075249999
 30
0.0
  0
VERTEX
  5
1F16
  8
3
 10
93.57792279639999
 20
16.937264285
 30
0.0
  0
VERTEX
  5
1F17
  8
3
 10
93.11661262230007
 20
17.12608329689999
 30
0.0
  0
VERTEX
  5
1F18
  8
3
 10
92.78710792640003
 20
17.37450039019998
 30
0.0
  0
VERTEX
  5
1F19
  8
3
 10
92.61868664710003
 20
17.66044261619999
 30
0.0
  0
VERTEX
  5
1F1A
  8
3
 10
92.6263137539
 20
17.95850275319998
 30
0.0
  0
VERTEX
  5
1F1B
  8
3
 10
92.80931154520009
 20
18.24219684989998
 30
0.0
  0
SEQEND
  5
2089
  8
3
  0
POLYLINE
  5
1122
  8
3
 66
     1
 10
0.0
 20
0.0
 30
0.0
 70
   128
  0
VERTEX
  5
1F1C
  8
3
 10
93.48081971570001
 20
17.42566224619998
 30
0.0
  0
VERTEX
  5
1F1D
  8
3
 10
93.77905918970008
 20
17.61861928619999
 30
0.0
  0
VERTEX
  5
1F1E
  8
3
 10
94.20227946010003
 20
17.7398226933
 30
0.0
  0
VERTEX
  5
1F1F
  8
3
 10
94.68604907740006
 20
17.77082034759999
 30
0.0
  0
VERTEX
  5
1F20
  8
3
 10
95.15671850270006
 20
17.70689313699998
 30
0.0
  0
VERTEX
  5
1F21
  8
3
 10
95.54263258270008
 20
17.55777340009999
 30
0.0
  0
VERTEX
  5
1F22
  8
3
 10
95.78503939690005
 20
17.3461632648
 30
0.0
  0
VERTEX
  5
1F23
  8
3
 10
95.84703470530005
 20
17.10427845619998
 30
0.0
  0
VERTEX
  5
1F24
  8
3
 10
95.71918028430001
 20
16.86894374349998
 30
0.0
  0
VERTEX
  5
1F25
  8
3
 10
95.4209408104
 20
16.67598670359999
 30
0.0
  0
VERTEX
  5
1F26
  8
3
 10
94.99772053989999
 20
16.55478329649998
 30
0.0
  0
VERTEX
  5
1F27
  8
3
 10
94.51395092260007
 20
16.52378564219998
 30
0.0
  0
VERTEX
  5
1F28
  8
3
 10
94.04328149730006
 20
16.5877128528
 30
0.0
  0
VERTEX
  5
1F29
  8
3
 10
93.65736741739997
 20
16.73683258969999
 30
0.0
  0
VERTEX
  5
1F2A
  8
3
 10
93.41496060310008
 20
16.94844272489999
 30
0.0
  0
VERTEX
  5
1F2B
  8
3
 10
93.35296529470007
 20
17.1903275336
 30
0.0
  0
VERTEX
  5
1F2C
  8
3
 10
93.48081971570001
 20
17.42566224619998
 30
0.0
  0
SEQEND
  5
208A
  8
3
  0
POLYLINE
  5
1123
  8
3
 66
     1
 10
0.0
 20
0.0
 30
0.0
 70
   128
  0
VERTEX
  5
1F2D
  8
3
 10
92.80931154520009
 20
24.3258810273
 30
0.0
  0
VERTEX
  5
1F2E
  8
3
 10
93.15141986390005
 20
24.5700016184
 30
0.0
  0
VERTEX
  5
1F2F
  8
3
 10
93.62224088470008
 20
24.75285751799998
 30
0.0
  0
VERTEX
  5
1F30
  8
3
 10
94.17994009380003
 20
24.85820117699998
 30
0.0
  0
VERTEX
  5
1F31
  8
3
 10
94.77496346890005
 20
24.87667234889997
 30
0.0
  0
VERTEX
  5
1F32
  8
3
 10
95.35444057200003
 20
24.80662978919997
 30
0.0
  0
VERTEX
  5
1F33
  8
3
 10
95.86688231950005
 20
24.6542970866
 30
0.0
  0
VERTEX
  5
1F34
  8
3
 10
96.26675601320004
 20
24.4332096702
 30
0.0
  0
VERTEX
  5
1F35
  8
3
 10
96.51853112080003
 20
24.16301212719998
 30
0.0
  0
VERTEX
  5
1F36
  8
3
 10
96.59983631890007
 20
23.86771269509998
 30
0.0
  0
VERTEX
  5
1F37
  8
3
 10
96.50344728399999
 20
23.57355002419999
 30
0.0
  0
VERTEX
  5
1F38
  8
3
 10
96.23792860470006
 20
23.30666175889999
 30
0.0
  0
VERTEX
  5
1F39
  8
3
 10
95.826872781
 20
23.09076209269998
 30
0.0
  0
VERTEX
  5
1F3A
  8
3
 10
95.3068039267
 20
22.94503465839998
 30
0.0
  0
VERTEX
  5
1F3B
  8
3
 10
94.72393244170006
 20
22.88242797799998
 30
0.0
  0
VERTEX
  5
1F3C
  8
3
 10
94.13004901539999
 20
22.90850492989998
 30
0.0
  0
VERTEX
  5
1F3D
  8
3
 10
93.57792279639999
 20
23.02094846239999
 30
0.0
  0
VERTEX
  5
1F3E
  8
3
 10
93.11661262230007
 20
23.20976747429998
 30
0.0
  0
VERTEX
  5
1F3F
  8
3
 10
92.78710792640003
 20
23.45818456769999
 30
0.0
  0
VERTEX
  5
1F40
  8
3
 10
92.61868664710003
 20
23.74412679359997
 30
0.0
  0
VERTEX
  5
1F41
  8
3
 10
92.6263137539
 20
24.0421869306
 30
0.0
  0
VERTEX
  5
1F42
  8
3
 10
92.80931154520009
 20
24.3258810273
 30
0.0
  0
SEQEND
  5
208B
  8
3
  0
LINE
  5
1124
  8
3
 10
94.5284475715
 20
22.65988854109997
 30
0.0
 11
93.56614553860003
 21
22.34078505839997
 31
0.0
  0
LINE
  5
1125
  8
3
 10
94.5284475715
 20
22.65988854109997
 30
0.0
 11
94.5284475715
 21
24.65174696979997
 31
0.0
  0
LINE
  5
1126
  8
3
 10
94.5284475715
 20
22.65988854109997
 30
0.0
 11
95.56230203289998
 21
22.40275127919998
 31
0.0
  0
LINE
  5
1127
  8
3
 10
94.5284475715
 20
24.65174696979997
 30
0.0
 11
95.56230203289998
 21
24.39460970789997
 31
0.0
  0
LINE
  5
1128
  8
3
 10
94.5284475715
 20
24.65174696979997
 30
0.0
 11
93.56614553860003
 21
24.3326434871
 31
0.0
  0
POLYLINE
  5
1129
  8
3
 66
     1
 10
0.0
 20
0.0
 30
0.0
 70
   128
  0
VERTEX
  5
1F43
  8
3
 10
93.15849579390009
 20
24.43403294089998
 30
0.0
  0
VERTEX
  5
1F44
  8
3
 10
93.46942733640002
 20
24.64863479979999
 30
0.0
  0
VERTEX
  5
1F45
  8
3
 10
93.90287396979998
 20
24.80112928469998
 30
0.0
  0
VERTEX
  5
1F46
  8
3
 10
94.41186502549998
 20
24.8749912518
 30
0.0
  0
VERTEX
  5
1F47
  8
3
 10
94.94124342489998
 20
24.86221661099998
 30
0.0
  0
VERTEX
  5
1F48
  8
3
 10
95.4336428043
 20
24.76418969289998
 30
0.0
  0
VERTEX
  5
1F49
  8
3
 10
95.83570405060003
 20
24.59153323499999
 30
0.0
  0
VERTEX
  5
1F4A
  8
3
 10
96.10385758910002
 20
24.36295724359999
 30
0.0
  0
VERTEX
  5
1F4B
  8
3
 10
96.20904482299999
 20
24.1032314741
 30
0.0
  0
VERTEX
  5
1F4C
  8
3
 10
96.13986708340008
 20
23.84050124359999
 30
0.0
  0
VERTEX
  5
1F4D
  8
3
 10
95.90382085190001
 20
23.60323744939998
 30
0.0
  0
VERTEX
  5
1F4E
  8
3
 10
95.52648540020003
 20
23.41715130509999
 30
0.0
  0
VERTEX
  5
1F4F
  8
3
 10
95.04875087950005
 20
23.30240813179998
 30
0.0
  0
VERTEX
  5
1F50
  8
3
 10
94.52238723790002
 20
23.27144213269997
 30
0.0
  0
VERTEX
  5
1F51
  8
3
 10
94.00443414340008
 20
23.32760895439998
 30
0.0
  0
VERTEX
  5
1F52
  8
3
 10
93.55101985060001
 20
23.46482205019998
 30
0.0
  0
VERTEX
  5
1F53
  8
3
 10
93.21127883360008
 20
23.66821225209998
 30
0.0
  0
VERTEX
  5
1F54
  8
3
 10
93.02202730320005
 20
23.91573907589998
 30
0.0
  0
VERTEX
  5
1F55
  8
3
 10
93.00377359920002
 20
24.18057914919999
 30
0.0
  0
VERTEX
  5
1F56
  8
3
 10
93.15849579390009
 20
24.43403294089998
 30
0.0
  0
SEQEND
  5
208C
  8
3
  0
LINE
  5
112A
  8
3
 10
95.56230203289998
 20
24.39460970789997
 30
0.0
 11
95.63385446150004
 21
23.81836896319999
 31
0.0
  0
LINE
  5
112B
  8
3
 10
95.56230203289998
 20
22.40275127919998
 30
0.0
 11
95.56230203289998
 21
24.39460970789997
 31
0.0
  0
LINE
  5
112C
  8
3
 10
95.56230203289998
 20
22.40275127919998
 30
0.0
 11
95.63385446150004
 21
21.82651053449999
 31
0.0
  0
LINE
  5
112D
  8
3
 10
93.63769796710004
 20
21.76454431369999
 30
0.0
 11
93.63769796710004
 21
23.75640274239998
 31
0.0
  0
LINE
  5
112E
  8
3
 10
93.63769796710004
 20
23.75640274239998
 30
0.0
 11
93.56614553860003
 21
24.3326434871
 31
0.0
  0
LINE
  5
112F
  8
3
 10
93.56614553860003
 20
22.34078505839997
 30
0.0
 11
93.56614553860003
 21
24.3326434871
 31
0.0
  0
LINE
  5
1130
  8
3
 10
93.63769796710004
 20
21.76454431369999
 30
0.0
 11
93.56614553860003
 21
22.34078505839997
 31
0.0
  0
LINE
  5
1131
  8
3
 10
94.67155242860007
 20
21.50740705179999
 30
0.0
 11
94.67155242860007
 21
23.49926548049999
 31
0.0
  0
LINE
  5
1132
  8
3
 10
95.63385446150004
 20
21.82651053449999
 30
0.0
 11
95.63385446150004
 21
23.81836896319999
 31
0.0
  0
LINE
  5
1133
  8
3
 10
94.67155242860007
 20
23.49926548049999
 30
0.0
 11
95.63385446150004
 21
23.81836896319999
 31
0.0
  0
LINE
  5
1134
  8
3
 10
94.67155242860007
 20
21.50740705179999
 30
0.0
 11
95.63385446150004
 21
21.82651053449999
 31
0.0
  0
LINE
  5
1135
  8
3
 10
93.63769796710004
 20
23.75640274239998
 30
0.0
 11
94.67155242860007
 21
23.49926548049999
 31
0.0
  0
LINE
  5
1136
  8
3
 10
93.63769796710004
 20
21.76454431369999
 30
0.0
 11
94.67155242860007
 21
21.50740705179999
 31
0.0
  0
POLYLINE
  5
1137
  8
3
 66
     1
 10
0.0
 20
0.0
 30
0.0
 70
   128
  0
VERTEX
  5
1F57
  8
3
 10
92.80931154520009
 20
-17.35144724560001
 30
0.0
  0
VERTEX
  5
1F58
  8
3
 10
93.15141986390005
 20
-17.10732665460002
 30
0.0
  0
VERTEX
  5
1F59
  8
3
 10
93.62224088470008
 20
-16.92447075500002
 30
0.0
  0
VERTEX
  5
1F5A
  8
3
 10
94.17994009380003
 20
-16.81912709600002
 30
0.0
  0
VERTEX
  5
1F5B
  8
3
 10
94.77496346890005
 20
-16.80065592400001
 30
0.0
  0
VERTEX
  5
1F5C
  8
3
 10
95.35444057200003
 20
-16.87069848380001
 30
0.0
  0
VERTEX
  5
1F5D
  8
3
 10
95.86688231950005
 20
-17.02303118640002
 30
0.0
  0
VERTEX
  5
1F5E
  8
3
 10
96.26675601320004
 20
-17.24411860280001
 30
0.0
  0
VERTEX
  5
1F5F
  8
3
 10
96.51853112080003
 20
-17.51431614580001
 30
0.0
  0
VERTEX
  5
1F60
  8
3
 10
96.59983631890007
 20
-17.80961557790002
 30
0.0
  0
VERTEX
  5
1F61
  8
3
 10
96.50344728399999
 20
-18.10377824880001
 30
0.0
  0
VERTEX
  5
1F62
  8
3
 10
96.23792860470006
 20
-18.37066651410001
 30
0.0
  0
VERTEX
  5
1F63
  8
3
 10
95.826872781
 20
-18.58656618030001
 30
0.0
  0
VERTEX
  5
1F64
  8
3
 10
95.3068039267
 20
-18.73229361460001
 30
0.0
  0
VERTEX
  5
1F65
  8
3
 10
94.72393244170006
 20
-18.79490029500002
 30
0.0
  0
VERTEX
  5
1F66
  8
3
 10
94.13004901539999
 20
-18.76882334310001
 30
0.0
  0
VERTEX
  5
1F67
  8
3
 10
93.57792279639999
 20
-18.65637981050001
 30
0.0
  0
VERTEX
  5
1F68
  8
3
 10
93.11661262230007
 20
-18.46756079870001
 30
0.0
  0
VERTEX
  5
1F69
  8
3
 10
92.78710792640003
 20
-18.21914370530001
 30
0.0
  0
VERTEX
  5
1F6A
  8
3
 10
92.61868664710003
 20
-17.93320147930001
 30
0.0
  0
VERTEX
  5
1F6B
  8
3
 10
92.6263137539
 20
-17.63514134240002
 30
0.0
  0
VERTEX
  5
1F6C
  8
3
 10
92.80931154520009
 20
-17.35144724560001
 30
0.0
  0
SEQEND
  5
208D
  8
3
  0
POLYLINE
  5
1138
  8
3
 66
     1
 10
0.0
 20
0.0
 30
0.0
 70
   128
  0
VERTEX
  5
1F6D
  8
3
 10
93.48081971570001
 20
-16.86894374360001
 30
0.0
  0
VERTEX
  5
1F6E
  8
3
 10
93.77905918970008
 20
-16.67598670360002
 30
0.0
  0
VERTEX
  5
1F6F
  8
3
 10
94.20227946010003
 20
-16.55478329650002
 30
0.0
  0
VERTEX
  5
1F70
  8
3
 10
94.68604907740006
 20
-16.52378564230001
 30
0.0
  0
VERTEX
  5
1F71
  8
3
 10
95.15671850270006
 20
-16.58771285280001
 30
0.0
  0
VERTEX
  5
1F72
  8
3
 10
95.54263258270008
 20
-16.73683258980002
 30
0.0
  0
VERTEX
  5
1F73
  8
3
 10
95.78503939690005
 20
-16.94844272500001
 30
0.0
  0
VERTEX
  5
1F74
  8
3
 10
95.84703470530005
 20
-17.19032753370001
 30
0.0
  0
VERTEX
  5
1F75
  8
3
 10
95.71918028430001
 20
-17.42566224630001
 30
0.0
  0
VERTEX
  5
1F76
  8
3
 10
95.4209408104
 20
-17.61861928630002
 30
0.0
  0
VERTEX
  5
1F77
  8
3
 10
94.99772053989999
 20
-17.73982269340001
 30
0.0
  0
VERTEX
  5
1F78
  8
3
 10
94.51395092260007
 20
-17.77082034760001
 30
0.0
  0
VERTEX
  5
1F79
  8
3
 10
94.04328149730006
 20
-17.70689313710001
 30
0.0
  0
VERTEX
  5
1F7A
  8
3
 10
93.65736741739997
 20
-17.55777340020002
 30
0.0
  0
VERTEX
  5
1F7B
  8
3
 10
93.41496060310008
 20
-17.34616326490001
 30
0.0
  0
VERTEX
  5
1F7C
  8
3
 10
93.35296529470007
 20
-17.10427845630001
 30
0.0
  0
VERTEX
  5
1F7D
  8
3
 10
93.48081971570001
 20
-16.86894374360001
 30
0.0
  0
SEQEND
  5
208E
  8
3
  0
POLYLINE
  5
1139
  8
3
 66
     1
 10
0.0
 20
0.0
 30
0.0
 70
   128
  0
VERTEX
  5
1F7E
  8
3
 10
92.80931154520009
 20
-23.43513142310002
 30
0.0
  0
VERTEX
  5
1F7F
  8
3
 10
93.15141986390005
 20
-23.19101083200002
 30
0.0
  0
VERTEX
  5
1F80
  8
3
 10
93.62224088470008
 20
-23.00815493240002
 30
0.0
  0
VERTEX
  5
1F81
  8
3
 10
94.17994009380003
 20
-22.90281127340002
 30
0.0
  0
VERTEX
  5
1F82
  8
3
 10
94.77496346890005
 20
-22.88434010150002
 30
0.0
  0
VERTEX
  5
1F83
  8
3
 10
95.35444057200003
 20
-22.95438266120001
 30
0.0
  0
VERTEX
  5
1F84
  8
3
 10
95.86688231950005
 20
-23.10671536390001
 30
0.0
  0
VERTEX
  5
1F85
  8
3
 10
96.26675601320004
 20
-23.32780278020002
 30
0.0
  0
VERTEX
  5
1F86
  8
3
 10
96.51853112080003
 20
-23.59800032320001
 30
0.0
  0
VERTEX
  5
1F87
  8
3
 10
96.59983631890007
 20
-23.89329975540001
 30
0.0
  0
VERTEX
  5
1F88
  8
3
 10
96.50344728399999
 20
-24.18746242620001
 30
0.0
  0
VERTEX
  5
1F89
  8
3
 10
96.23792860470006
 20
-24.45435069150001
 30
0.0
  0
VERTEX
  5
1F8A
  8
3
 10
95.826872781
 20
-24.67025035770001
 30
0.0
  0
VERTEX
  5
1F8B
  8
3
 10
95.3068039267
 20
-24.81597779210001
 30
0.0
  0
VERTEX
  5
1F8C
  8
3
 10
94.72393244170006
 20
-24.87858447240001
 30
0.0
  0
VERTEX
  5
1F8D
  8
3
 10
94.13004901539999
 20
-24.85250752050001
 30
0.0
  0
VERTEX
  5
1F8E
  8
3
 10
93.57792279639999
 20
-24.74006398800002
 30
0.0
  0
VERTEX
  5
1F8F
  8
3
 10
93.11661262230007
 20
-24.55124497610001
 30
0.0
  0
VERTEX
  5
1F90
  8
3
 10
92.78710792640003
 20
-24.30282788270002
 30
0.0
  0
VERTEX
  5
1F91
  8
3
 10
92.61868664710003
 20
-24.01688565680001
 30
0.0
  0
VERTEX
  5
1F92
  8
3
 10
92.6263137539
 20
-23.71882551980001
 30
0.0
  0
VERTEX
  5
1F93
  8
3
 10
92.80931154520009
 20
-23.43513142310002
 30
0.0
  0
SEQEND
  5
208F
  8
3
  0
LINE
  5
113A
  8
3
 10
94.67155242860007
 20
-22.65988854120002
 30
0.0
 11
95.63385446150004
 21
-22.34078505850002
 31
0.0
  0
LINE
  5
113B
  8
3
 10
93.63769796710004
 20
-22.40275127930002
 30
0.0
 11
94.67155242860007
 21
-22.65988854120002
 31
0.0
  0
LINE
  5
113C
  8
3
 10
94.67155242860007
 20
-22.65988854120002
 30
0.0
 11
94.67155242860007
 21
-24.65174696990002
 31
0.0
  0
LINE
  5
113D
  8
3
 10
93.63769796710004
 20
-24.39460970800002
 30
0.0
 11
94.67155242860007
 21
-24.65174696990002
 31
0.0
  0
LINE
  5
113E
  8
3
 10
94.67155242860007
 20
-24.65174696990002
 30
0.0
 11
95.63385446150004
 21
-24.33264348720002
 31
0.0
  0
POLYLINE
  5
113F
  8
3
 66
     1
 10
0.0
 20
0.0
 30
0.0
 70
   128
  0
VERTEX
  5
1F94
  8
3
 10
93.15849579390009
 20
-23.71697950950001
 30
0.0
  0
VERTEX
  5
1F95
  8
3
 10
93.46942733640002
 20
-23.50237765060001
 30
0.0
  0
VERTEX
  5
1F96
  8
3
 10
93.90287396979998
 20
-23.34988316570001
 30
0.0
  0
VERTEX
  5
1F97
  8
3
 10
94.41186502549998
 20
-23.27602119860002
 30
0.0
  0
VERTEX
  5
1F98
  8
3
 10
94.94124342489998
 20
-23.28879583940001
 30
0.0
  0
VERTEX
  5
1F99
  8
3
 10
95.4336428043
 20
-23.38682275750001
 30
0.0
  0
VERTEX
  5
1F9A
  8
3
 10
95.83570405060003
 20
-23.55947921540002
 30
0.0
  0
VERTEX
  5
1F9B
  8
3
 10
96.10385758910002
 20
-23.78805520690001
 30
0.0
  0
VERTEX
  5
1F9C
  8
3
 10
96.20904482299999
 20
-24.04778097640002
 30
0.0
  0
VERTEX
  5
1F9D
  8
3
 10
96.13986708340008
 20
-24.31051120680002
 30
0.0
  0
VERTEX
  5
1F9E
  8
3
 10
95.90382085190001
 20
-24.54777500100002
 30
0.0
  0
VERTEX
  5
1F9F
  8
3
 10
95.52648540020003
 20
-24.73386114530001
 30
0.0
  0
VERTEX
  5
1FA0
  8
3
 10
95.04875087950005
 20
-24.84860431870001
 30
0.0
  0
VERTEX
  5
1FA1
  8
3
 10
94.52238723790002
 20
-24.87957031770001
 30
0.0
  0
VERTEX
  5
1FA2
  8
3
 10
94.00443414340008
 20
-24.82340349600001
 30
0.0
  0
VERTEX
  5
1FA3
  8
3
 10
93.55101985060001
 20
-24.68619040020002
 30
0.0
  0
VERTEX
  5
1FA4
  8
3
 10
93.21127883360008
 20
-24.48280019830001
 30
0.0
  0
VERTEX
  5
1FA5
  8
3
 10
93.02202730320005
 20
-24.23527337460001
 30
0.0
  0
VERTEX
  5
1FA6
  8
3
 10
93.00377359920002
 20
-23.97043330120002
 30
0.0
  0
VERTEX
  5
1FA7
  8
3
 10
93.15849579390009
 20
-23.71697950950001
 30
0.0
  0
SEQEND
  5
2090
  8
3
  0
LINE
  5
1140
  8
3
 10
93.63769796710004
 20
-24.39460970800002
 30
0.0
 11
93.56614553860003
 21
-23.81836896330002
 31
0.0
  0
LINE
  5
1141
  8
3
 10
93.63769796710004
 20
-22.40275127930002
 30
0.0
 11
93.63769796710004
 21
-24.39460970800002
 31
0.0
  0
LINE
  5
1142
  8
3
 10
93.63769796710004
 20
-22.40275127930002
 30
0.0
 11
93.56614553860003
 21
-21.82651053460002
 31
0.0
  0
LINE
  5
1143
  8
3
 10
95.56230203289998
 20
-21.76454431380002
 30
0.0
 11
95.56230203289998
 21
-23.75640274250001
 31
0.0
  0
LINE
  5
1144
  8
3
 10
95.56230203289998
 20
-23.75640274250001
 30
0.0
 11
95.63385446150004
 21
-24.33264348720002
 31
0.0
  0
LINE
  5
1145
  8
3
 10
95.56230203289998
 20
-21.76454431380002
 30
0.0
 11
95.63385446150004
 21
-22.34078505850002
 31
0.0
  0
LINE
  5
1146
  8
3
 10
95.63385446150004
 20
-22.34078505850002
 30
0.0
 11
95.63385446150004
 21
-24.33264348720002
 31
0.0
  0
LINE
  5
1147
  8
3
 10
94.5284475715
 20
-21.50740705190002
 30
0.0
 11
94.5284475715
 21
-23.49926548060002
 31
0.0
  0
LINE
  5
1148
  8
3
 10
93.56614553860003
 20
-21.82651053460002
 30
0.0
 11
93.56614553860003
 21
-23.81836896330002
 31
0.0
  0
LINE
  5
1149
  8
3
 10
94.5284475715
 20
-23.49926548060002
 30
0.0
 11
93.56614553860003
 21
-23.81836896330002
 31
0.0
  0
LINE
  5
114A
  8
3
 10
94.5284475715
 20
-21.50740705190002
 30
0.0
 11
93.56614553860003
 21
-21.82651053460002
 31
0.0
  0
LINE
  5
114B
  8
3
 10
94.5284475715
 20
-23.49926548060002
 30
0.0
 11
95.56230203289998
 21
-23.75640274250001
 31
0.0
  0
LINE
  5
114C
  8
3
 10
94.5284475715
 20
-21.50740705190002
 30
0.0
 11
95.56230203289998
 21
-21.76454431380002
 31
0.0
  0
CIRCLE
  5
114D
  8
3
 10
94.60000000000001
 20
0.0
 30
0.0
 40
1.249999999999987
  0
LINE
  5
114E
  8
3
 10
100.7808500000001
 20
0.0
 30
0.0
 11
100.7808500000001
 21
-6.350000000000023
 31
0.0
  0
LINE
  5
114F
  8
3
 10
100.7808500000001
 20
6.349999999999994
 30
0.0
 11
100.7808500000001
 21
0.0
 31
0.0
  0
LINE
  5
1150
  8
3
 10
100.0252
 20
0.0
 30
0.0
 11
100.0252
 21
-5.59435000000002
 31
0.0
  0
LINE
  5
1151
  8
3
 10
100.0252
 20
5.594349999999991
 30
0.0
 11
100.0252
 21
0.0
 31
0.0
  0
LINE
  5
115B
  8
3
 10
93.07916030500006
 20
-21.44300000000001
 30
0.0
 11
93.07916030500006
 21
-26.20931000000002
 31
0.0
  0
LINE
  5
115C
  8
3
 10
93.07916030500006
 20
-16.67669000000001
 30
0.0
 11
93.07916030500006
 21
-21.44300000000001
 31
0.0
  0
LINE
  5
115D
  8
3
 10
91.5162
 20
-21.44300000000001
 30
0.0
 11
91.5162
 21
-25.95150000000001
 31
0.0
  0
LINE
  5
115E
  8
3
 10
91.5162
 20
-16.93450000000001
 30
0.0
 11
91.5162
 21
-21.44300000000001
 31
0.0
  0
LINE
  5
115F
  8
3
 10
92.4410395106
 20
-21.44300000000001
 30
0.0
 11
92.4410395106
 21
-26.19931000000001
 31
0.0
  0
LINE
  5
1160
  8
3
 10
92.4410395106
 20
-16.68669000000001
 30
0.0
 11
92.4410395106
 21
-21.44300000000001
 31
0.0
  0
LINE
  5
1161
  8
3
 10
93.07916030500006
 20
26.20930999999999
 30
0.0
 11
93.07916030500006
 21
16.67668999999998
 31
0.0
  0
LINE
  5
1162
  8
3
 10
92.4410395106
 20
26.19931
 30
0.0
 11
92.4410395106
 21
16.68669
 31
0.0
  0
LINE
  5
1163
  8
3
 10
91.5162
 20
25.95149999999998
 30
0.0
 11
91.5162
 21
16.93449999999999
 31
0.0
  0
POLYLINE
  5
1164
  8
3
 66
     1
 10
0.0
 20
0.0
 30
0.0
 70
   128
  0
VERTEX
  5
1FA8
  8
3
 10
94.60000000000001
 20
25.12152318559998
 30
0.0
  0
VERTEX
  5
1FA9
  8
3
 10
93.85662030980005
 20
25.06698215089997
 30
0.0
  0
VERTEX
  5
1FAA
  8
3
 10
93.19706871050003
 20
24.90679015499998
 30
0.0
  0
VERTEX
  5
1FAB
  8
3
 10
92.69415399580008
 20
24.65118383479998
 30
0.0
  0
VERTEX
  5
1FAC
  8
3
 10
92.40554175179999
 20
24.32008245189999
 30
0.0
  0
VERTEX
  5
1FAD
  8
3
 10
92.3647236033
 20
23.94598688249999
 30
0.0
  0
VERTEX
  5
1FAE
  8
3
 10
92.57469698800001
 20
23.57047534009999
 30
0.0
  0
VERTEX
  5
1FAF
  8
3
 10
93.01189774100008
 20
23.23896739439999
 30
0.0
  0
VERTEX
  5
1FB0
  8
3
 10
93.62919730300005
 20
22.99635236189999
 30
0.0
  0
VERTEX
  5
1FB1
  8
3
 10
94.35644361820002
 20
22.87906067319997
 30
0.0
  0
VERTEX
  5
1FB2
  8
3
 10
95.10923324860003
 20
22.90476719009999
 30
0.0
  0
VERTEX
  5
1FB3
  8
3
 10
95.8037036393
 20
23.0686816505
 30
0.0
  0
VERTEX
  5
1FB4
  8
3
 10
96.36430029059999
 20
23.34695157759998
 30
0.0
  0
VERTEX
  5
1FB5
  8
3
 10
96.72726655820006
 20
23.7006545079
 30
0.0
  0
VERTEX
  5
1FB6
  8
3
 10
96.84996460160004
 20
24.0818142812
 30
0.0
  0
VERTEX
  5
1FB7
  8
3
 10
96.71964496660006
 20
24.44399339389997
 30
0.0
  0
VERTEX
  5
1FB8
  8
3
 10
96.3518841384
 20
24.75037639479999
 30
0.0
  0
VERTEX
  5
1FB9
  8
3
 10
95.7861766848
 20
24.97446703559999
 30
0.0
  0
VERTEX
  5
1FBA
  8
3
 10
95.0856231952
 20
25.09869247419999
 30
0.0
  0
VERTEX
  5
1FBB
  8
3
 10
94.60000000000001
 20
25.12152318559998
 30
0.0
  0
SEQEND
  5
2091
  8
3
  0
POLYLINE
  5
1165
  8
3
 66
     1
 10
0.0
 20
0.0
 30
0.0
 70
   128
  0
VERTEX
  5
1FBC
  8
3
 10
94.60000000000001
 20
-22.87152318570001
 30
0.0
  0
VERTEX
  5
1FBD
  8
3
 10
93.85662030980005
 20
-22.94333278340001
 30
0.0
  0
VERTEX
  5
1FBE
  8
3
 10
93.19706871050003
 20
-23.14773251050001
 30
0.0
  0
VERTEX
  5
1FBF
  8
3
 10
92.69415399580008
 20
-23.45525281330001
 30
0.0
  0
VERTEX
  5
1FC0
  8
3
 10
92.40554175179999
 20
-23.82323942160001
 30
0.0
  0
VERTEX
  5
1FC1
  8
3
 10
92.3647236033
 20
-24.20296826410001
 30
0.0
  0
VERTEX
  5
1FC2
  8
3
 10
92.57469698800001
 20
-24.55060171430002
 30
0.0
  0
VERTEX
  5
1FC3
  8
3
 10
93.01189774100008
 20
-24.83284041800002
 30
0.0
  0
VERTEX
  5
1FC4
  8
3
 10
93.62919730300005
 20
-25.02614105140002
 30
0.0
  0
VERTEX
  5
1FC5
  8
3
 10
94.35644361820002
 20
-25.11583967190002
 30
0.0
  0
VERTEX
  5
1FC6
  8
3
 10
95.10923324860003
 20
-25.09638337430002
 30
0.0
  0
VERTEX
  5
1FC7
  8
3
 10
95.8037036393
 20
-24.96962813820001
 30
0.0
  0
VERTEX
  5
1FC8
  8
3
 10
96.36430029059999
 20
-24.74328408980001
 30
0.0
  0
VERTEX
  5
1FC9
  8
3
 10
96.72726655820006
 20
-24.43361903000002
 30
0.0
  0
VERTEX
  5
1FCA
  8
3
 10
96.84996460160004
 20
-24.06919320700001
 30
0.0
  0
VERTEX
  5
1FCB
  8
3
 10
96.71964496660006
 20
-23.68927144820002
 30
0.0
  0
VERTEX
  5
1FCC
  8
3
 10
96.3518841384
 20
-23.33849751700001
 30
0.0
  0
VERTEX
  5
1FCD
  8
3
 10
95.7861766848
 20
-23.06253480030001
 30
0.0
  0
VERTEX
  5
1FCE
  8
3
 10
95.0856231952
 20
-22.90172408300002
 30
0.0
  0
VERTEX
  5
1FCF
  8
3
 10
94.60000000000001
 20
-22.87152318570001
 30
0.0
  0
SEQEND
  5
2092
  8
3
  0
CIRCLE
  5
1166
  8
3
 10
94.60000000000001
 20
0.0
 30
0.0
 40
1.650000000000006
  0
LINE
  5
1169
  8
3
 10
94.60000000000001
 20
1.75
 30
0.0
 11
94.60000000000001
 21
1.649999999999977
 31
0.0
  0
LINE
  5
116A
  8
3
 10
94.60000000000001
 20
-1.650000000000006
 30
0.0
 11
94.60000000000001
 21
-1.75
 31
0.0
  0
LINE
  5
1173
  8
3
 10
-8.249999999999972
 20
0.0
 30
0.0
 11
-8.249999999999972
 21
6.700000000000004
 31
0.0
  0
LINE
  5
1174
  8
3
 10
-8.249999999999972
 20
-6.700000000000003
 30
0.0
 11
-8.249999999999972
 21
0.0
 31
0.0
  0
LINE
  5
1175
  8
3
 10
-7.689018500200035
 20
0.0
 30
0.0
 11
-7.689018500200035
 21
-5.754370000000023
 31
0.0
  0
LINE
  5
1176
  8
3
 10
-7.689018500200035
 20
5.754369999999994
 30
0.0
 11
-7.689018500200035
 21
0.0
 31
0.0
  0
POLYLINE
  5
1179
  8
3
 66
     1
 10
0.0
 20
0.0
 30
0.0
 70
   128
  0
VERTEX
  5
1FD0
  8
3
 10
94.60000000000001
 20
5.599170668499994
 30
0.0
  0
VERTEX
  5
1FD1
  8
3
 10
95.13328761080002
 20
5.577178781699985
 30
0.0
  0
VERTEX
  5
1FD2
  8
3
 10
95.60619937540001
 20
5.506890582199986
 30
0.0
  0
VERTEX
  5
1FD3
  8
3
 10
95.97964787600004
 20
5.373922949600001
 30
0.0
  0
VERTEX
  5
1FD4
  8
3
 10
96.20337080659998
 20
5.166746755299982
 30
0.0
  0
VERTEX
  5
1FD5
  8
3
 10
96.24231430780002
 20
4.901990443799974
 30
0.0
  0
VERTEX
  5
1FD6
  8
3
 10
96.10597994899999
 20
4.612017624499998
 30
0.0
  0
VERTEX
  5
1FD7
  8
3
 10
95.8107228934
 20
4.327451843999995
 30
0.0
  0
VERTEX
  5
1FD8
  8
3
 10
95.37157427750002
 20
4.091463836299994
 30
0.0
  0
VERTEX
  5
1FD9
  8
3
 10
94.83786505090005
 20
3.962230515499982
 30
0.0
  0
VERTEX
  5
1FDA
  8
3
 10
94.2938235977
 20
3.970856425999983
 30
0.0
  0
VERTEX
  5
1FDB
  8
3
 10
93.79606914820009
 20
4.104218921899985
 30
0.0
  0
VERTEX
  5
1FDC
  8
3
 10
93.37405813500003
 20
4.338628126199978
 30
0.0
  0
VERTEX
  5
1FDD
  8
3
 10
93.07570082410007
 20
4.637477207099977
 30
0.0
  0
VERTEX
  5
1FDE
  8
3
 10
92.95232165320009
 20
4.93910498309998
 30
0.0
  0
VERTEX
  5
1FDF
  8
3
 10
93.01205183630007
 20
5.192409302099975
 30
0.0
  0
VERTEX
  5
1FE0
  8
3
 10
93.23690704919998
 20
5.382835439699988
 30
0.0
  0
VERTEX
  5
1FE1
  8
3
 10
93.61420803280008
 20
5.511474322199973
 30
0.0
  0
VERTEX
  5
1FE2
  8
3
 10
94.11465760380007
 20
5.581139607799997
 30
0.0
  0
VERTEX
  5
1FE3
  8
3
 10
94.60000000000001
 20
5.599170668499994
 30
0.0
  0
SEQEND
  5
2093
  8
3
  0
POLYLINE
  5
117A
  8
3
 66
     1
 10
0.0
 20
0.0
 30
0.0
 70
   128
  0
VERTEX
  5
1FE4
  8
3
 10
94.60000000000001
 20
-3.949170668600004
 30
0.0
  0
VERTEX
  5
1FE5
  8
3
 10
95.13328761080002
 20
-4.015735755500003
 30
0.0
  0
VERTEX
  5
1FE6
  8
3
 10
95.60619937540001
 20
-4.199196880800002
 30
0.0
  0
VERTEX
  5
1FE7
  8
3
 10
95.97964787600004
 20
-4.468897127800005
 30
0.0
  0
VERTEX
  5
1FE8
  8
3
 10
96.20337080659998
 20
-4.777257273400011
 30
0.0
  0
VERTEX
  5
1FE9
  8
3
 10
96.24231430780002
 20
-5.061061856900011
 30
0.0
  0
VERTEX
  5
1FEA
  8
3
 10
96.10597994899999
 20
-5.286201867400024
 30
0.0
  0
VERTEX
  5
1FEB
  8
3
 10
95.8107228934
 20
-5.448455892000027
 30
0.0
  0
VERTEX
  5
1FEC
  8
3
 10
95.37157427750002
 20
-5.549946998600007
 30
0.0
  0
VERTEX
  5
1FED
  8
3
 10
94.83786505090005
 20
-5.594995109000024
 30
0.0
  0
VERTEX
  5
1FEE
  8
3
 10
94.2938235977
 20
-5.59220031640001
 30
0.0
  0
VERTEX
  5
1FEF
  8
3
 10
93.79606914820009
 20
-5.545119746300003
 30
0.0
  0
VERTEX
  5
1FF0
  8
3
 10
93.37405813500003
 20
-5.442967994100002
 30
0.0
  0
VERTEX
  5
1FF1
  8
3
 10
93.07570082410007
 20
-5.269151191300011
 30
0.0
  0
VERTEX
  5
1FF2
  8
3
 10
92.95232165320009
 20
-5.026603927700023
 30
0.0
  0
VERTEX
  5
1FF3
  8
3
 10
93.01205183630007
 20
-4.744167593500009
 30
0.0
  0
VERTEX
  5
1FF4
  8
3
 10
93.23690704919998
 20
-4.453062560400014
 30
0.0
  0
VERTEX
  5
1FF5
  8
3
 10
93.61420803280008
 20
-4.188328753000008
 30
0.0
  0
VERTEX
  5
1FF6
  8
3
 10
94.11465760380007
 20
-4.004135245600025
 30
0.0
  0
VERTEX
  5
1FF7
  8
3
 10
94.60000000000001
 20
-3.949170668600004
 30
0.0
  0
SEQEND
  5
2094
  8
3
  0
LINE
  5
117B
  8
3
 10
90.40000000000008
 20
26.20424999999997
 30
0.0
 11
90.40000000000008
 21
16.68174999999999
 31
0.0
  0
LINE
  5
117C
  8
3
 10
90.40000000000008
 20
-16.68175000000001
 30
0.0
 11
90.40000000000008
 21
-26.20425000000002
 31
0.0
  0
POLYLINE
  5
117F
  8
3
 66
     1
 10
0.0
 20
0.0
 30
0.0
 70
   128
  0
VERTEX
  5
1FF8
  8
3
 10
94.60000000000001
 20
8.3307597381
 30
0.0
  0
VERTEX
  5
1FF9
  8
3
 10
94.8461558845
 20
8.278374396699974
 30
0.0
  0
VERTEX
  5
1FFA
  8
3
 10
95.18336586840006
 20
8.068142678399994
 30
0.0
  0
VERTEX
  5
1FFB
  8
3
 10
95.7437403745
 20
7.493565616799998
 30
0.0
  0
VERTEX
  5
1FFC
  8
3
 10
96.05422504420004
 20
7.043656785999985
 30
0.0
  0
VERTEX
  5
1FFD
  8
3
 10
96.20869611520003
 20
6.712305987899981
 30
0.0
  0
VERTEX
  5
1FFE
  8
3
 10
96.24718134480007
 20
6.449290144399981
 30
0.0
  0
VERTEX
  5
1FFF
  8
3
 10
96.1741193683
 20
6.309675430799984
 30
0.0
  0
VERTEX
  5
2000
  8
3
 10
96.01172415720008
 20
6.260899641899982
 30
0.0
  0
VERTEX
  5
2001
  8
3
 10
95.65032751570003
 20
6.334093831199993
 30
0.0
  0
VERTEX
  5
2002
  8
3
 10
95.06199977010009
 20
6.57446572149999
 30
0.0
  0
VERTEX
  5
2003
  8
3
 10
94.81396131810003
 20
6.654802368299983
 30
0.0
  0
VERTEX
  5
2004
  8
3
 10
94.60000000000001
 20
6.680759738099994
 30
0.0
  0
SEQEND
  5
2095
  8
3
  0
POLYLINE
  5
1180
  8
3
 66
     1
 10
0.0
 20
0.0
 30
0.0
 70
   128
  0
VERTEX
  5
2005
  8
3
 10
94.60000000000001
 20
7.690710231899999
 30
0.0
  0
VERTEX
  5
2006
  8
3
 10
94.8461558845
 20
7.74309557319998
 30
0.0
  0
VERTEX
  5
2007
  8
3
 10
95.18336586840006
 20
7.953327291599976
 30
0.0
  0
VERTEX
  5
2008
  8
3
 10
95.7437403745
 20
8.5279043532
 30
0.0
  0
VERTEX
  5
2009
  8
3
 10
96.05422504420004
 20
8.977813183999984
 30
0.0
  0
VERTEX
  5
200A
  8
3
 10
96.20869611520003
 20
9.309163982000001
 30
0.0
  0
VERTEX
  5
200B
  8
3
 10
96.24718134480007
 20
9.572179825500001
 30
0.0
  0
VERTEX
  5
200C
  8
3
 10
96.1741193683
 20
9.711794539199985
 30
0.0
  0
VERTEX
  5
200D
  8
3
 10
96.01172415720008
 20
9.760570328099988
 30
0.0
  0
VERTEX
  5
200E
  8
3
 10
95.65032751570003
 20
9.687376138699989
 30
0.0
  0
VERTEX
  5
200F
  8
3
 10
95.06199977010009
 20
9.44700424849998
 30
0.0
  0
VERTEX
  5
2010
  8
3
 10
94.81396131810003
 20
9.366667601699987
 30
0.0
  0
VERTEX
  5
2011
  8
3
 10
94.60000000000001
 20
9.340710231899976
 30
0.0
  0
SEQEND
  5
2096
  8
3
  0
LINE
  5
1181
  8
3
 10
94.60000000000001
 20
7.690710231899999
 30
0.0
 11
94.60000000000001
 21
6.680759738099994
 31
0.0
  0
POLYLINE
  5
1182
  8
3
 66
     1
 10
0.0
 20
0.0
 30
0.0
 70
   128
  0
VERTEX
  5
2012
  8
3
 10
94.60000000000001
 20
24.0344808214
 30
0.0
  0
VERTEX
  5
2013
  8
3
 10
94.0642458758
 20
23.98978004579999
 30
0.0
  0
VERTEX
  5
2014
  8
3
 10
93.5865490241
 20
23.8605217416
 30
0.0
  0
VERTEX
  5
2015
  8
3
 10
93.21867531090003
 20
23.66071305179997
 30
0.0
  0
VERTEX
  5
2016
  8
3
 10
93.00048956120007
 20
23.4120063483
 30
0.0
  0
VERTEX
  5
2017
  8
3
 10
92.9556355866
 20
23.14135286139998
 30
0.0
  0
VERTEX
  5
2018
  8
3
 10
93.08897401099999
 20
22.87808209599999
 30
0.0
  0
VERTEX
  5
2019
  8
3
 10
93.3860555474
 20
22.65072352479999
 30
0.0
  0
VERTEX
  5
201A
  8
3
 10
93.81468680150009
 20
22.48391497659998
 30
0.0
  0
VERTEX
  5
201B
  8
3
 10
94.32841892610007
 20
22.39573274609998
 30
0.0
  0
VERTEX
  5
201C
  8
3
 10
94.87158107399998
 20
22.39573274609998
 30
0.0
  0
VERTEX
  5
201D
  8
3
 10
95.38531319850006
 20
22.48391497659998
 30
0.0
  0
VERTEX
  5
201E
  8
3
 10
95.8139444526
 20
22.65072352479999
 30
0.0
  0
VERTEX
  5
201F
  8
3
 10
96.11102598900003
 20
22.87808209599999
 30
0.0
  0
VERTEX
  5
2020
  8
3
 10
96.24436441350007
 20
23.14135286139998
 30
0.0
  0
VERTEX
  5
2021
  8
3
 10
96.19951043880005
 20
23.4120063483
 30
0.0
  0
VERTEX
  5
2022
  8
3
 10
95.98132468920004
 20
23.66071305179997
 30
0.0
  0
VERTEX
  5
2023
  8
3
 10
95.61345097600007
 20
23.8605217416
 30
0.0
  0
VERTEX
  5
2024
  8
3
 10
95.13575412420003
 20
23.98978004579999
 30
0.0
  0
VERTEX
  5
2025
  8
3
 10
94.60000000000001
 20
24.0344808214
 30
0.0
  0
SEQEND
  5
2097
  8
3
  0
POLYLINE
  5
1183
  8
3
 66
     1
 10
0.0
 20
0.0
 30
0.0
 70
   128
  0
VERTEX
  5
2026
  8
3
 10
94.60000000000001
 20
-22.38448082150002
 30
0.0
  0
VERTEX
  5
2027
  8
3
 10
94.0642458758
 20
-22.42918159710001
 30
0.0
  0
VERTEX
  5
2028
  8
3
 10
93.5865490241
 20
-22.55843990120002
 30
0.0
  0
VERTEX
  5
2029
  8
3
 10
93.21867531090003
 20
-22.75824859100001
 30
0.0
  0
VERTEX
  5
202A
  8
3
 10
93.00048956120007
 20
-23.00695529460002
 30
0.0
  0
VERTEX
  5
202B
  8
3
 10
92.9556355866
 20
-23.27760878150001
 30
0.0
  0
VERTEX
  5
202C
  8
3
 10
93.08897401099999
 20
-23.54087954680001
 30
0.0
  0
VERTEX
  5
202D
  8
3
 10
93.3860555474
 20
-23.76823811810002
 30
0.0
  0
VERTEX
  5
202E
  8
3
 10
93.81468680150009
 20
-23.93504666620001
 30
0.0
  0
VERTEX
  5
202F
  8
3
 10
94.32841892610007
 20
-24.02322889680001
 30
0.0
  0
VERTEX
  5
2030
  8
3
 10
94.87158107399998
 20
-24.02322889680001
 30
0.0
  0
VERTEX
  5
2031
  8
3
 10
95.38531319850006
 20
-23.93504666620001
 30
0.0
  0
VERTEX
  5
2032
  8
3
 10
95.8139444526
 20
-23.76823811810002
 30
0.0
  0
VERTEX
  5
2033
  8
3
 10
96.11102598900003
 20
-23.54087954680001
 30
0.0
  0
VERTEX
  5
2034
  8
3
 10
96.24436441350007
 20
-23.27760878150001
 30
0.0
  0
VERTEX
  5
2035
  8
3
 10
96.19951043880005
 20
-23.00695529460002
 30
0.0
  0
VERTEX
  5
2036
  8
3
 10
95.98132468920004
 20
-22.75824859100001
 30
0.0
  0
VERTEX
  5
2037
  8
3
 10
95.61345097600007
 20
-22.55843990120002
 30
0.0
  0
VERTEX
  5
2038
  8
3
 10
95.13575412420003
 20
-22.42918159710001
 30
0.0
  0
VERTEX
  5
2039
  8
3
 10
94.60000000000001
 20
-22.38448082150002
 30
0.0
  0
SEQEND
  5
2098
  8
3
  0
POLYLINE
  5
1184
  8
3
 66
     1
 10
0.0
 20
0.0
 30
0.0
 70
   128
  0
VERTEX
  5
203A
  8
3
 10
94.60000000000001
 20
-8.3307597381
 30
0.0
  0
VERTEX
  5
203B
  8
3
 10
94.8461558845
 20
-8.278374396800018
 30
0.0
  0
VERTEX
  5
203C
  8
3
 10
95.18336586840006
 20
-8.068142678400022
 30
0.0
  0
VERTEX
  5
203D
  8
3
 10
95.7437403745
 20
-7.493565616800026
 30
0.0
  0
VERTEX
  5
203E
  8
3
 10
96.05422504420004
 20
-7.043656786000014
 30
0.0
  0
VERTEX
  5
203F
  8
3
 10
96.20869611520003
 20
-6.712305988000026
 30
0.0
  0
VERTEX
  5
2040
  8
3
 10
96.24718134480007
 20
-6.449290144500026
 30
0.0
  0
VERTEX
  5
2041
  8
3
 10
96.1741193683
 20
-6.3096754309
 30
0.0
  0
VERTEX
  5
2042
  8
3
 10
96.01172415720008
 20
-6.260899641900011
 30
0.0
  0
VERTEX
  5
2043
  8
3
 10
95.65032751570003
 20
-6.334093831300009
 30
0.0
  0
VERTEX
  5
2044
  8
3
 10
95.06199977010009
 20
-6.574465721600006
 30
0.0
  0
VERTEX
  5
2045
  8
3
 10
94.81396131810003
 20
-6.654802368400027
 30
0.0
  0
VERTEX
  5
2046
  8
3
 10
94.60000000000001
 20
-6.680759738100022
 30
0.0
  0
SEQEND
  5
2099
  8
3
  0
LINE
  5
1185
  8
3
 10
94.60000000000001
 20
-7.690710232000015
 30
0.0
 11
94.60000000000001
 21
-6.680759738100022
 31
0.0
  0
POLYLINE
  5
1186
  8
3
 66
     1
 10
0.0
 20
0.0
 30
0.0
 70
   128
  0
VERTEX
  5
2047
  8
3
 10
94.60000000000001
 20
-7.690710232000015
 30
0.0
  0
VERTEX
  5
2048
  8
3
 10
94.8461558845
 20
-7.743095573300025
 30
0.0
  0
VERTEX
  5
2049
  8
3
 10
95.18336586840006
 20
-7.95332729170002
 30
0.0
  0
VERTEX
  5
204A
  8
3
 10
95.7437403745
 20
-8.527904353300016
 30
0.0
  0
VERTEX
  5
204B
  8
3
 10
96.05422504420004
 20
-8.9778131841
 30
0.0
  0
VERTEX
  5
204C
  8
3
 10
96.20869611520003
 20
-9.309163982100017
 30
0.0
  0
VERTEX
  5
204D
  8
3
 10
96.24718134480007
 20
-9.572179825600017
 30
0.0
  0
VERTEX
  5
204E
  8
3
 10
96.1741193683
 20
-9.711794539200014
 30
0.0
  0
VERTEX
  5
204F
  8
3
 10
96.01172415720008
 20
-9.760570328100016
 30
0.0
  0
VERTEX
  5
2050
  8
3
 10
95.65032751570003
 20
-9.687376138800005
 30
0.0
  0
VERTEX
  5
2051
  8
3
 10
95.06199977010009
 20
-9.447004248500008
 30
0.0
  0
VERTEX
  5
2052
  8
3
 10
94.81396131810003
 20
-9.366667601700016
 30
0.0
  0
VERTEX
  5
2053
  8
3
 10
94.60000000000001
 20
-9.34071023200002
 30
0.0
  0
SEQEND
  5
209A
  8
3
  0
LINE
  5
1187
  8
3
 10
94.60000000000001
 20
-8.3307597381
 30
0.0
 11
94.60000000000001
 21
-9.34071023200002
 31
0.0
  0
LINE
  5
1188
  8
3
 10
94.60000000000001
 20
9.340710231899976
 30
0.0
 11
94.60000000000001
 21
8.3307597381
 31
0.0
  0
POLYLINE
  5
1189
  8
3
 66
     1
 10
0.0
 20
0.0
 30
0.0
 70
   128
  0
VERTEX
  5
2054
  8
3
 10
94.60000000000001
 20
-22.08448082150001
 30
0.0
  0
VERTEX
  5
2055
  8
3
 10
95.23389825290005
 20
-22.13005122610001
 30
0.0
  0
VERTEX
  5
2056
  8
3
 10
95.81644183930005
 20
-22.26307059700001
 30
0.0
  0
VERTEX
  5
2057
  8
3
 10
96.30043654230005
 20
-22.47276249580001
 30
0.0
  0
VERTEX
  5
2058
  8
3
 10
96.6466719896
 20
-22.74213893180001
 30
0.0
  0
VERTEX
  5
2059
  8
3
 10
96.82709824430002
 20
-23.04937662840001
 30
0.0
  0
VERTEX
  5
205A
  8
3
 10
96.82709824430002
 20
-23.36958501450002
 30
0.0
  0
VERTEX
  5
205B
  8
3
 10
96.6466719896
 20
-23.67682271110002
 30
0.0
  0
VERTEX
  5
205C
  8
3
 10
96.30043654230005
 20
-23.94619914710002
 30
0.0
  0
VERTEX
  5
205D
  8
3
 10
95.81644183930005
 20
-24.15589104590001
 30
0.0
  0
VERTEX
  5
205E
  8
3
 10
95.23389825290005
 20
-24.28891041680001
 30
0.0
  0
VERTEX
  5
205F
  8
3
 10
94.60000000000001
 20
-24.33448082150001
 30
0.0
  0
VERTEX
  5
2060
  8
3
 10
93.96610174710007
 20
-24.28891041680001
 30
0.0
  0
VERTEX
  5
2061
  8
3
 10
93.38355816070008
 20
-24.15589104590001
 30
0.0
  0
VERTEX
  5
2062
  8
3
 10
92.89956345770007
 20
-23.94619914710002
 30
0.0
  0
VERTEX
  5
2063
  8
3
 10
92.55332801050007
 20
-23.67682271110002
 30
0.0
  0
VERTEX
  5
2064
  8
3
 10
92.37290175580006
 20
-23.36958501450002
 30
0.0
  0
VERTEX
  5
2065
  8
3
 10
92.37290175580006
 20
-23.04937662840001
 30
0.0
  0
VERTEX
  5
2066
  8
3
 10
92.55332801050007
 20
-22.74213893180001
 30
0.0
  0
VERTEX
  5
2067
  8
3
 10
92.89956345770007
 20
-22.47276249580001
 30
0.0
  0
VERTEX
  5
2068
  8
3
 10
93.38355816070008
 20
-22.26307059700001
 30
0.0
  0
VERTEX
  5
2069
  8
3
 10
93.96610174710007
 20
-22.13005122610001
 30
0.0
  0
VERTEX
  5
206A
  8
3
 10
94.60000000000001
 20
-22.08448082150001
 30
0.0
  0
SEQEND
  5
209B
  8
3
  0
POLYLINE
  5
118A
  8
3
 66
     1
 10
0.0
 20
0.0
 30
0.0
 70
   128
  0
VERTEX
  5
206B
  8
3
 10
94.60000000000001
 20
24.33448082139998
 30
0.0
  0
VERTEX
  5
206C
  8
3
 10
95.23389825290005
 20
24.28891041669999
 30
0.0
  0
VERTEX
  5
206D
  8
3
 10
95.81644183930005
 20
24.15589104579999
 30
0.0
  0
VERTEX
  5
206E
  8
3
 10
96.30043654230005
 20
23.94619914709997
 30
0.0
  0
VERTEX
  5
206F
  8
3
 10
96.6466719896
 20
23.676822711
 30
0.0
  0
VERTEX
  5
2070
  8
3
 10
96.82709824430002
 20
23.36958501439997
 30
0.0
  0
VERTEX
  5
2071
  8
3
 10
96.82709824430002
 20
23.0493766283
 30
0.0
  0
VERTEX
  5
2072
  8
3
 10
96.6466719896
 20
22.74213893179999
 30
0.0
  0
VERTEX
  5
2073
  8
3
 10
96.30043654230005
 20
22.47276249569998
 30
0.0
  0
VERTEX
  5
2074
  8
3
 10
95.81644183930005
 20
22.263070597
 30
0.0
  0
VERTEX
  5
2075
  8
3
 10
95.23389825290005
 20
22.13005122609999
 30
0.0
  0
VERTEX
  5
2076
  8
3
 10
94.60000000000001
 20
22.08448082139998
 30
0.0
  0
VERTEX
  5
2077
  8
3
 10
93.96610174710007
 20
22.13005122609999
 30
0.0
  0
VERTEX
  5
2078
  8
3
 10
93.38355816070008
 20
22.263070597
 30
0.0
  0
VERTEX
  5
2079
  8
3
 10
92.89956345770007
 20
22.47276249569998
 30
0.0
  0
VERTEX
  5
207A
  8
3
 10
92.55332801050007
 20
22.74213893179999
 30
0.0
  0
VERTEX
  5
207B
  8
3
 10
92.37290175580006
 20
23.0493766283
 30
0.0
  0
VERTEX
  5
207C
  8
3
 10
92.37290175580006
 20
23.36958501439997
 30
0.0
  0
VERTEX
  5
207D
  8
3
 10
92.55332801050007
 20
23.676822711
 30
0.0
  0
VERTEX
  5
207E
  8
3
 10
92.89956345770007
 20
23.94619914709997
 30
0.0
  0
VERTEX
  5
207F
  8
3
 10
93.38355816070008
 20
24.15589104579999
 30
0.0
  0
VERTEX
  5
2080
  8
3
 10
93.96610174710007
 20
24.28891041669999
 30
0.0
  0
VERTEX
  5
2081
  8
3
 10
94.60000000000001
 20
24.33448082139998
 30
0.0
  0
SEQEND
  5
209C
  8
3
  0
LINE
  5
118B
  8
3
 10
92.96700683820005
 20
17.21947177849998
 30
0.0
 11
93.57937927390002
 21
16.7864590767
 31
0.0
  0
LINE
  5
118C
  8
3
 10
95.62062072620004
 20
16.7864590767
 30
0.0
 11
96.2329931619
 21
17.21947177849998
 31
0.0
  0
LINE
  5
118D
  8
3
 10
92.60000000000001
 20
23.88050622519998
 30
0.0
 11
92.60000000000001
 21
17.79682204769998
 31
0.0
  0
LINE
  5
118E
  8
3
 10
96.60000000000001
 20
17.79682204769998
 30
0.0
 11
96.60000000000001
 21
23.88050622519998
 31
0.0
  0
LINE
  5
118F
  8
3
 10
96.2329931619
 20
-17.21947177860001
 30
0.0
 11
95.62062072620004
 21
-16.78645907670001
 31
0.0
  0
LINE
  5
1190
  8
3
 10
93.57937927390002
 20
-16.78645907670001
 30
0.0
 11
92.96700683820005
 21
-17.21947177860001
 31
0.0
  0
LINE
  5
1191
  8
3
 10
96.60000000000001
 20
-23.88050622520001
 30
0.0
 11
96.60000000000001
 21
-17.79682204780001
 31
0.0
  0
LINE
  5
1192
  8
3
 10
92.60000000000001
 20
-17.79682204780001
 30
0.0
 11
92.60000000000001
 21
-23.88050622520001
 31
0.0
  0
LINE
  5
1193
  8
3
 10
101.6
 20
6.349999999999994
 30
0.0
 11
100.7808500000001
 21
6.349999999999994
 31
0.0
  0
LINE
  5
1194
  8
3
 10
100.7808500000001
 20
-6.350000000000023
 30
0.0
 11
101.6
 21
-6.350000000000023
 31
0.0
  0
LINE
  5
1195
  8
3
 10
100.7808500000001
 20
6.349999999999994
 30
0.0
 11
100.0252
 21
5.594349999999991
 31
0.0
  0
LINE
  5
1196
  8
3
 10
100.0252
 20
-5.59435000000002
 30
0.0
 11
100.7808500000001
 21
-6.350000000000023
 31
0.0
  0
LINE
  5
119F
  8
3
 10
92.4410395106
 20
-16.68669000000001
 30
0.0
 11
91.5162
 21
-16.93450000000001
 31
0.0
  0
LINE
  5
11A0
  8
3
 10
91.5162
 20
-25.95150000000001
 30
0.0
 11
92.4410395106
 21
-26.19931000000001
 31
0.0
  0
LINE
  5
11A9
  8
3
 10
92.4410395106
 20
26.19931
 30
0.0
 11
91.5162
 21
25.95149999999998
 31
0.0
  0
LINE
  5
11AA
  8
3
 10
91.5162
 20
16.93449999999999
 30
0.0
 11
92.4410395106
 21
16.68669
 31
0.0
  0
LINE
  5
11B5
  8
3
 10
101.6
 20
1.75
 30
0.0
 11
94.60000000000001
 21
1.75
 31
0.0
  0
LINE
  5
11B6
  8
3
 10
94.60000000000001
 20
-1.75
 30
0.0
 11
101.6
 21
-1.75
 31
0.0
  0
LINE
  5
11C1
  8
3
 10
-8.249999999999972
 20
-6.688000000000017
 30
0.0
 11
-7.689018500200035
 21
-5.754370000000023
 31
0.0
  0
LINE
  5
11C2
  8
3
 10
-7.689018500200035
 20
5.754369999999994
 30
0.0
 11
-8.249999999999972
 21
6.687999999999988
 31
0.0
  0
LINE
  5
11C5
  8
3
 10
101.6
 20
5.754369999999994
 30
0.0
 11
-0.0000000000000071
 21
5.754369999999994
 31
0.0
  0
LINE
  5
11C6
  8
3
 10
0.0
 20
-5.754370000000023
 30
0.0
 11
101.6
 21
-5.754370000000023
 31
0.0
  0
LINE
  5
11C7
  8
3
 10
90.40000000000008
 20
26.20424999999997
 30
0.0
 11
87.5391523777
 21
21.44299999999998
 31
0.0
  0
LINE
  5
11C8
  8
3
 10
87.5391523777
 20
21.44299999999998
 30
0.0
 11
90.40000000000008
 21
16.68174999999999
 31
0.0
  0
LINE
  5
11C9
  8
3
 10
101.6
 20
-16.68175000000001
 30
0.0
 11
90.40000000000008
 21
-16.68175000000001
 31
0.0
  0
LINE
  5
11CA
  8
3
 10
90.40000000000008
 20
-26.20425000000002
 30
0.0
 11
101.6
 21
-26.20425000000002
 31
0.0
  0
LINE
  5
11CB
  8
3
 10
90.40000000000008
 20
-16.68175000000001
 30
0.0
 11
87.5391523777
 21
-21.44300000000001
 31
0.0
  0
LINE
  5
11CC
  8
3
 10
87.5391523777
 20
-21.44300000000001
 30
0.0
 11
90.40000000000008
 21
-26.20425000000002
 31
0.0
  0
LINE
  5
11CD
  8
3
 10
101.6
 20
26.20424999999997
 30
0.0
 11
90.40000000000008
 21
26.20424999999997
 31
0.0
  0
LINE
  5
11CE
  8
3
 10
90.40000000000008
 20
16.68174999999999
 30
0.0
 11
101.6
 21
16.68174999999999
 31
0.0
  0
LINE
  5
11D3
  8
3
 10
92.95000000000002
 20
23.20948082139998
 30
0.0
 11
92.95000000000002
 21
4.980511645799993
 31
0.0
  0
LINE
  5
11D4
  8
3
 10
96.24999999999999
 20
9.517509393899985
 30
0.0
 11
96.24999999999999
 21
23.20948082139998
 31
0.0
  0
LINE
  5
11D5
  8
3
 10
96.24999999999999
 20
4.978787621099997
 30
0.0
 11
96.24999999999999
 21
6.503960575999997
 31
0.0
  0
LINE
  5
11D6
  8
3
 10
96.24999999999999
 20
-6.503960576100013
 30
0.0
 11
96.24999999999999
 21
-4.978787621200013
 31
0.0
  0
LINE
  5
11D7
  8
3
 10
96.24999999999999
 20
-23.20948082150001
 30
0.0
 11
96.24999999999999
 21
-9.517509394000001
 31
0.0
  0
LINE
  5
11D8
  8
3
 10
92.95000000000002
 20
-4.980511645800021
 30
0.0
 11
92.95000000000002
 21
-23.20948082150001
 31
0.0
  0
LINE
  5
11D9
  8
3
 10
101.6
 20
-6.260734984999999
 30
0.0
 11
95.99554104540002
 21
-6.260734984999999
 31
0.0
  0
LINE
  5
11DA
  8
3
 10
95.99554104540002
 20
-9.760734985
 30
0.0
 11
101.6
 21
-9.760734985
 31
0.0
  0
LINE
  5
11DB
  8
3
 10
101.6
 20
9.760734985
 30
0.0
 11
95.99554104540002
 21
9.760734985
 31
0.0
  0
LINE
  5
11DC
  8
3
 10
95.99554104540002
 20
6.260734984999999
 30
0.0
 11
101.6
 21
6.260734984999999
 31
0.0
  0
LINE
  5
11DD
  8
3
 10
96.85000000000001
 20
-24.07536590840002
 30
0.0
 11
96.85000000000001
 21
-23.20948082150001
 31
0.0
  0
LINE
  5
11DE
  8
3
 10
92.35000000000001
 20
-23.20948082150001
 30
0.0
 11
92.35000000000001
 21
-24.07352314940002
 31
0.0
  0
LINE
  5
11DF
  8
3
 10
92.35000000000001
 20
24.07352314929997
 30
0.0
 11
92.35000000000001
 21
23.20948082139998
 31
0.0
  0
LINE
  5
11E0
  8
3
 10
96.85000000000001
 20
23.20948082139998
 30
0.0
 11
96.85000000000001
 21
24.07536590839999
 31
0.0
  0
LINE
  5
11E5
  8
1
 10
86.85000000000001
 20
0.0
 30
0.0
 11
86.85000000000001
 21
27.79999999999998
 31
0.0
  0
LINE
  5
11E6
  8
1
 10
86.85000000000001
 20
-27.80000000000001
 30
0.0
 11
86.85000000000001
 21
0.0
 31
0.0
  0
LINE
  5
11E7
  8
1
 10
100.6
 20
27.79999999999998
 30
0.0
 11
100.6
 21
-27.80000000000001
 31
0.0
  0
LINE
  5
11E8
  8
1
 10
84.85000000000001
 20
0.0
 30
0.0
 11
84.85000000000001
 21
-22.22500000000001
 31
0.0
  0
LINE
  5
11E9
  8
1
 10
84.85000000000001
 20
22.22499999999999
 30
0.0
 11
84.85000000000001
 21
0.0
 31
0.0
  0
LINE
  5
11F5
  8
SK3
 10
-0.0000000000000071
 20
5.754369999999994
 30
0.0
 11
-7.689018500200035
 21
5.754369999999994
 31
0.0
  0
LINE
  5
11F6
  8
SK3
 10
0.0
 20
-5.754370000000023
 30
0.0
 11
-7.689018500200035
 21
-5.754370000000023
 31
0.0
  0
ARC
  5
1225
  8
NOCUT
 10
84.85
 20
23.22499999999999
 30
0.0
 40
1.0
 50
270.0
 51
0.0
  0
ARC
  5
1226
  8
NOCUT
 10
86.85
 20
26.79999999999998
 30
0.0
 40
1.0
 50
90.0
 51
180.0
  0
LINE
  5
1227
  8
NOCUT
 10
100.6
 20
27.79999999999998
 30
0.0
 11
86.85
 21
27.79999999999998
 31
0.0
  0
ARC
  5
1228
  8
NOCUT
 10
100.6
 20
26.79999999999998
 30
0.0
 40
1.0
 50
0.0
 51
90.0
  0
LINE
  5
1229
  8
NOCUT
 10
101.6
 20
0.0
 30
0.0
 11
101.6
 21
26.79999999999998
 31
0.0
  0
LINE
  5
122C
  8
NOCUT
 10
85.85
 20
26.79999999999998
 30
0.0
 11
85.85
 21
23.22499999999999
 31
0.0
  0
LINE
  5
1592
  8
SK1
 10
129.5993703304999
 20
-14.98599999999999
 30
0.0
 11
130.3613703305
 21
-14.22399999999982
 31
0.0
  0
LINE
  5
1593
  8
SK1
 10
130.3613703305
 20
14.22400000000005
 30
0.0
 11
129.5993703304999
 21
14.98599999999999
 31
0.0
  0
LINE
  5
1594
  8
SK1
 10
129.5993703304999
 20
14.98599999999999
 30
0.0
 11
121.5983703304999
 21
14.98599999999999
 31
0.0
  0
LINE
  5
1595
  8
SK1
 10
121.5983703304999
 20
-14.98599999999999
 30
0.0
 11
129.5993703304999
 21
-14.98599999999999
 31
0.0
  0
LINE
  5
1596
  8
SK1
 10
121.5983703304999
 20
14.98599999999999
 30
0.0
 11
120.8363703305
 21
14.22400000000005
 31
0.0
  0
LINE
  5
1597
  8
SK1
 10
120.8363703305
 20
-14.22399999999982
 30
0.0
 11
121.5983703304999
 21
-14.98599999999999
 31
0.0
  0
ARC
  5
1598
  8
SK1
 10
120.1759703304999
 20
-7.010400000000004
 30
0.0
 40
0.6604000000000099
 50
0.0
 51
90.0
  0
ARC
  5
1599
  8
SK1
 10
120.1759703304999
 20
7.010400000000004
 30
0.0
 40
0.6604000000000099
 50
270.0
 51
0.0
  0
LINE
  5
159A
  8
SK1
 10
120.1759703304999
 20
6.350000000000023
 30
0.0
 11
119.2863703304999
 21
6.350000000000023
 31
0.0
  0
LINE
  5
159B
  8
SK1
 10
119.2863703304999
 20
-6.350000000000023
 30
0.0
 11
120.1759703304999
 21
-6.350000000000023
 31
0.0
  0
LINE
  5
159C
  8
SK1
 10
101.8148756332
 20
-16.67668999999989
 30
0.0
 11
101.7863703304999
 21
-16.67668999999989
 31
0.0
  0
LINE
  5
159F
  8
SK1
 10
101.7863703304999
 20
16.67669000000012
 30
0.0
 11
101.8148756332
 21
16.67669000000012
 31
0.0
  0
ARC
  5
15B4
  8
SK1
 10
101.9863703305
 20
-12.89999999999998
 30
0.0
 40
0.4000000000000211
 50
75.00000000000632
 51
119.9999999999964
  0
ARC
  5
15B5
  8
SK1
 10
101.9863703305
 20
12.89999999999998
 30
0.0
 40
0.3999999999999965
 50
239.9999999999922
 51
285.000000000003
  0
ARC
  5
15B6
  8
SK1
 10
117.7863703304999
 20
-11.19999999999993
 30
0.0
 40
1.500000000000114
 50
270.0
 51
0.0
  0
ARC
  5
15B7
  8
SK1
 10
117.7863703304999
 20
11.20000000000016
 30
0.0
 40
1.500000000000114
 50
0.0
 51
90.0
  0
LINE
  5
15B8
  8
SK1
 10
102.7854414910999
 20
-12.69999999999993
 30
0.0
 11
117.7863703304999
 21
-12.69999999999993
 31
0.0
  0
LINE
  5
15B9
  8
SK1
 10
117.7863703304999
 20
12.70000000000016
 30
0.0
 11
102.7854414910999
 21
12.70000000000016
 31
0.0
  0
LINE
  5
15BA
  8
SK1
 10
102.7854414910999
 20
12.70000000000016
 30
0.0
 11
102.0898979486
 21
12.51362966940007
 31
0.0
  0
LINE
  5
15BB
  8
SK1
 10
102.0898979486
 20
-12.51362966949989
 30
0.0
 11
102.7854414910999
 21
-12.69999999999993
 31
0.0
  0
LINE
  5
15C6
  8
SK1
 10
130.3613703305
 20
0.0000000000001137
 30
0.0
 11
130.3613703305
 21
-14.22399999999982
 31
0.0
  0
LINE
  5
15C7
  8
SK1
 10
130.3613703305
 20
14.22400000000005
 30
0.0
 11
130.3613703305
 21
0.0000000000001137
 31
0.0
  0
LINE
  5
15C8
  8
SK1
 10
129.5993703304999
 20
0.0000000000001137
 30
0.0
 11
129.5993703304999
 21
-14.98599999999999
 31
0.0
  0
LINE
  5
15C9
  8
SK1
 10
129.5993703304999
 20
14.98599999999999
 30
0.0
 11
129.5993703304999
 21
0.0000000000001137
 31
0.0
  0
LINE
  5
15CA
  8
SK1
 10
121.5983703304999
 20
0.0000000000001137
 30
0.0
 11
121.5983703304999
 21
-14.98599999999999
 31
0.0
  0
LINE
  5
15CB
  8
SK1
 10
121.5983703304999
 20
14.98599999999999
 30
0.0
 11
121.5983703304999
 21
0.0000000000001137
 31
0.0
  0
LINE
  5
15CC
  8
SK1
 10
120.8363703305
 20
0.0000000000001137
 30
0.0
 11
120.8363703305
 21
-14.22399999999982
 31
0.0
  0
LINE
  5
15CD
  8
SK1
 10
120.8363703305
 20
14.22400000000005
 30
0.0
 11
120.8363703305
 21
0.0000000000001137
 31
0.0
  0
LINE
  5
15CE
  8
SK1
 10
106.6885703304999
 20
-16.68050000000005
 30
0.0
 11
101.7863703304999
 21
-16.68050000000005
 31
0.0
  0
LINE
  5
15CF
  8
SK1
 10
106.6885703304999
 20
-16.68050000000005
 30
0.0
 11
106.6885703304999
 21
-26.20549999999992
 31
0.0
  0
LINE
  5
15D0
  8
SK1
 10
106.6885703304999
 20
-26.20549999999992
 30
0.0
 11
101.7863703304999
 21
-26.20549999999992
 31
0.0
  0
LINE
  5
15D1
  8
SK1
 10
106.6885703304999
 20
26.20549999999992
 30
0.0
 11
101.7863703304999
 21
26.20549999999992
 31
0.0
  0
LINE
  5
15D2
  8
SK1
 10
106.6885703304999
 20
26.20549999999992
 30
0.0
 11
106.6885703304999
 21
16.68050000000005
 31
0.0
  0
LINE
  5
15D3
  8
SK1
 10
106.6885703304999
 20
16.68050000000005
 30
0.0
 11
101.7863703304999
 21
16.68050000000005
 31
0.0
  0
LINE
  5
15F6
  8
SK1
 10
119.2863703304999
 20
0.0000000000001137
 30
0.0
 11
119.2863703304999
 21
11.20000000000016
 31
0.0
  0
LINE
  5
15F7
  8
SK1
 10
119.2863703304999
 20
-11.19999999999993
 30
0.0
 11
119.2863703304999
 21
0.0000000000001137
 31
0.0
  0
LINE
  5
15F8
  8
SK1
 10
102.7854414910999
 20
0.0000000000001137
 30
0.0
 11
102.7854414910999
 21
12.70000000000016
 31
0.0
  0
LINE
  5
15F9
  8
SK1
 10
102.7854414910999
 20
-12.69999999999993
 30
0.0
 11
102.7854414910999
 21
0.0000000000001137
 31
0.0
  0
LINE
  5
162D
  8
SK3
 10
123.2493703305
 20
2.006600000000049
 30
0.0
 11
123.2493703305
 21
0.0000000000001137
 31
0.0
  0
LINE
  5
162E
  8
SK3
 10
123.2493703305
 20
0.0000000000001137
 30
0.0
 11
123.2493703305
 21
-2.006599999999821
 31
0.0
  0
LINE
  5
162F
  8
SK3
 10
123.2493703305
 20
0.0000000000001137
 30
0.0
 11
130.3613703305
 21
0.0000000000001137
 31
0.0
  0
LINE
  5
1630
  8
SK3
 10
122.7413703305
 20
0.0000000000001137
 30
0.0
 11
122.7413703305
 21
-4.013199999999983
 31
0.0
  0
LINE
  5
1631
  8
SK3
 10
122.7413703305
 20
4.013199999999983
 30
0.0
 11
122.7413703305
 21
0.0000000000001137
 31
0.0
  0
LINE
  5
1632
  8
SK3
 10
123.2493703305
 20
4.013199999999983
 30
0.0
 11
123.2493703305
 21
2.006600000000049
 31
0.0
  0
LINE
  5
1633
  8
SK3
 10
123.2493703305
 20
-2.006599999999821
 30
0.0
 11
123.2493703305
 21
-4.013199999999983
 31
0.0
  0
LINE
  5
1634
  8
SK3
 10
123.2493703305
 20
4.013199999999983
 30
0.0
 11
130.3613703305
 21
4.013199999999983
 31
0.0
  0
LINE
  5
1635
  8
SK3
 10
123.2493703305
 20
-4.013199999999983
 30
0.0
 11
130.3613703305
 21
-4.013199999999983
 31
0.0
  0
LINE
  5
164C
  8
SK3
 10
118.4203480443999
 20
-6.749999999999886
 30
0.0
 11
118.4203480443999
 21
6.750000000000114
 31
0.0
  0
LINE
  5
164D
  8
SK3
 10
116.2863703304999
 20
6.750000000000114
 30
0.0
 11
116.2863703304999
 21
-6.749999999999886
 31
0.0
  0
LINE
  5
166E
  8
SK3
 10
119.2863703304999
 20
6.350000000000023
 30
0.0
 11
101.6
 21
6.350000000000023
 31
0.0
  0
LINE
  5
166F
  8
SK3
 10
101.6
 20
-6.350000000000023
 30
0.0
 11
119.2863703304999
 21
-6.350000000000023
 31
0.0
  0
LINE
  5
1672
  8
SK3
 10
123.2493703305
 20
4.013199999999983
 30
0.0
 11
122.7413703305
 21
4.013199999999983
 31
0.0
  0
LINE
  5
1673
  8
SK3
 10
122.7413703305
 20
-4.013199999999983
 30
0.0
 11
123.2493703305
 21
-4.013199999999983
 31
0.0
  0
LINE
  5
1674
  8
SK3
 10
122.7413703305
 20
4.013199999999983
 30
0.0
 11
120.3299964942
 21
0.0000000000001137
 31
0.0
  0
LINE
  5
1675
  8
SK3
 10
120.3299964942
 20
0.0000000000001137
 30
0.0
 11
122.7413703305
 21
-4.013199999999983
 31
0.0
  0
LINE
  5
1690
  8
SK3
 10
119.2863703304999
 20
1.750000000000114
 30
0.0
 11
101.6
 21
1.750000000000114
 31
0.0
  0
LINE
  5
1691
  8
SK3
 10
101.6
 20
-1.749999999999886
 30
0.0
 11
119.2863703304999
 21
-1.749999999999886
 31
0.0
  0
LINE
  5
1696
  8
SK3
 10
119.2863703304999
 20
7.24999820000005
 30
0.0
 11
118.4203480443999
 21
6.750000000000114
 31
0.0
  0
LINE
  5
1697
  8
SK3
 10
118.4203480443999
 20
-6.749999999999886
 30
0.0
 11
119.2863703304999
 21
-7.24999820000005
 31
0.0
  0
LINE
  5
1698
  8
SK3
 10
118.4203480443999
 20
6.750000000000114
 30
0.0
 11
116.2863703304999
 21
6.750000000000114
 31
0.0
  0
LINE
  5
1699
  8
SK3
 10
116.2863703304999
 20
-6.749999999999886
 30
0.0
 11
118.4203480443999
 21
-6.749999999999886
 31
0.0
  0
LINE
  5
16A0
  8
SK3
 10
116.2863703304999
 20
5.754369999999994
 30
0.0
 11
101.6
 21
5.754369999999994
 31
0.0
  0
LINE
  5
16A1
  8
SK3
 10
101.6
 20
-5.754369999999994
 30
0.0
 11
116.2863703304999
 21
-5.754369999999994
 31
0.0
  0
LINE
  5
16B4
  8
SK3
 10
119.2863703304999
 20
-6.260734984999885
 30
0.0
 11
101.6
 21
-6.260734984999885
 31
0.0
  0
LINE
  5
16B5
  8
SK3
 10
101.6
 20
-9.760734984999885
 30
0.0
 11
119.2863703304999
 21
-9.760734984999885
 31
0.0
  0
LINE
  5
16B6
  8
SK3
 10
119.2863703304999
 20
9.760734985000113
 30
0.0
 11
101.6
 21
9.760734985000113
 31
0.0
  0
LINE
  5
16B7
  8
SK3
 10
101.6
 20
6.260734985000113
 30
0.0
 11
119.2863703304999
 21
6.260734985000113
 31
0.0
  0
LINE
  5
16BC
  8
SK1
 10
120.1759703304999
 20
0.0000000000001137
 30
0.0
 11
120.1759703304999
 21
-6.350000000000023
 31
0.0
  0
LINE
  5
16BD
  8
SK1
 10
120.1759703304999
 20
6.350000000000023
 30
0.0
 11
120.1759703304999
 21
0.0000000000001137
 31
0.0
  0
LINE
  5
16C9
  8
SK1
 10
102.0898979486
 20
12.51362966940007
 30
0.0
 11
102.0898979486
 21
-12.51362966949989
 31
0.0
  0
LINE
  5
16CA
  8
SK1
 10
117.7863703304999
 20
12.70000000000016
 30
0.0
 11
117.7863703304999
 21
-12.69999999999993
 31
0.0
  0
LINE
  5
16D0
  8
SK4
 10
101.6
 20
0.0
 30
0.0
 11
130.3613703305
 21
0.0
 31
0.0
  0
DIMENSION
  5
16D9
  8
SK2
  2
*D16
 10
144.500174848925
 20
-12.69999999999993
 30
0.0
 11
142.625174848925
 21
0.0000000000001137
 31
0.0
 70
    32
  3
ISO-25
 13
117.7863703304999
 23
12.70000000000016
 33
0.0
 14
117.7863703304999
 24
-12.69999999999993
 34
0.0
 50
90.0
1001
ACAD
1000
DSTYLE
1002
{
1070
   287
1070
     5
1070
   144
1040
1.0
1070
   271
1070
     3
1070
   272
1070
     3
1070
   279
1070
     2
1002
}
  0
DIMENSION
  5
16E8
  8
SK2
  2
*D17
 10
159.6899590116038
 20
-27.80000000000001
 30
0.0
 11
157.8149590116038
 21
-0.0000000000000213
 31
0.0
 70
    32
  3
ISO-25
 13
100.6
 23
27.79999999999998
 33
0.0
 14
100.6
 24
-27.80000000000001
 34
0.0
 50
90.0
1001
ACAD
1000
DSTYLE
1002
{
1070
   287
1070
     5
1070
   144
1040
1.0
1070
   271
1070
     3
1070
   272
1070
     3
1070
   279
1070
     2
1002
}
  0
DIMENSION
  5
16F7
  8
SK2
  2
*D18
 10
85.85000000000001
 20
-42.03165299792866
 30
0.0
 11
42.925
 21
-40.15665299792866
 31
0.0
 70
    32
  3
ISO-25
 13
0.0
 23
-22.22499999999999
 33
0.0
 14
85.85000000000001
 24
-26.80000000000001
 34
0.0
1001
ACAD
1000
DSTYLE
1002
{
1070
   287
1070
     5
1070
   144
1040
1.0
1070
   271
1070
     3
1070
   272
1070
     3
1070
   279
1070
     2
1002
}
  0
ENDSEC
  0
EOF
