  0
SECTION
  2
HEADER
  9
$ACADVER
  1
AC1009
  9
$DWGCODEPAGE
  3
ansi_1252
  9
$INSBASE
 10
0.0
 20
0.0
 30
0.0
  9
$EXTMIN
 10
-68.25000000000003
 20
-43.89728280658011
 30
0.0
  9
$EXTMAX
 10
110.1399590116038
 20
50.83203563714093
 30
0.0
  9
$LIMMIN
 10
0.0
 20
0.0
  9
$LIMMAX
 10
420.0
 20
297.0
  9
$ORTHOMODE
 70
     1
  9
$REGENMODE
 70
     1
  9
$FILLMODE
 70
     1
  9
$QTEXTMODE
 70
     0
  9
$MIRRTEXT
 70
     0
  9
$DRAGMODE
 70
     2
  9
$LTSCALE
 40
1.0
  9
$OSMODE
 70
   511
  9
$ATTMODE
 70
     1
  9
$TEXTSIZE
 40
2.5
  9
$TRACEWID
 40
1.0
  9
$TEXTSTYLE
  7
STANDARD
  9
$CLAYER
  8
0
  9
$CELTYPE
  6
BYLAYER
  9
$CECOLOR
 62
   256
  9
$DIMSCALE
 40
1.0
  9
$DIMASZ
 40
2.5
  9
$DIMEXO
 40
0.625
  9
$DIMDLI
 40
3.75
  9
$DIMRND
 40
0.0
  9
$DIMDLE
 40
0.0
  9
$DIMEXE
 40
1.25
  9
$DIMTP
 40
0.0
  9
$DIMTM
 40
0.0
  9
$DIMTXT
 40
2.5
  9
$DIMCEN
 40
2.5
  9
$DIMTSZ
 40
0.0
  9
$DIMTOL
 70
     0
  9
$DIMLIM
 70
     0
  9
$DIMTIH
 70
     0
  9
$DIMTOH
 70
     0
  9
$DIMSE1
 70
     0
  9
$DIMSE2
 70
     0
  9
$DIMTAD
 70
     1
  9
$DIMZIN
 70
     8
  9
$DIMBLK
  1

  9
$DIMASO
 70
     1
  9
$DIMSHO
 70
     1
  9
$DIMPOST
  1

  9
$DIMAPOST
  1

  9
$DIMALT
 70
     0
  9
$DIMALTD
 70
     3
  9
$DIMALTF
 40
0.03937007874016
  9
$DIMLFAC
 40
1.0
  9
$DIMTOFL
 70
     1
  9
$DIMTVP
 40
0.0
  9
$DIMTIX
 70
     0
  9
$DIMSOXD
 70
     0
  9
$DIMSAH
 70
     0
  9
$DIMBLK1
  1

  9
$DIMBLK2
  1

  9
$DIMSTYLE
  2
ISO-25
  9
$DIMCLRD
 70
     0
  9
$DIMCLRE
 70
     0
  9
$DIMCLRT
 70
     0
  9
$DIMTFAC
 40
1.0
  9
$DIMGAP
 40
0.625
  9
$LUNITS
 70
     2
  9
$LUPREC
 70
     3
  9
$SKETCHINC
 40
1.0
  9
$FILLETRAD
 40
10.0
  9
$AUNITS
 70
     0
  9
$AUPREC
 70
     0
  9
$MENU
  1
.
  9
$ELEVATION
 40
0.0
  9
$PELEVATION
 40
0.0
  9
$THICKNESS
 40
0.0
  9
$LIMCHECK
 70
     0
  9
$CHAMFERA
 40
10.0
  9
$CHAMFERB
 40
10.0
  9
$SKPOLY
 70
     0
  9
$TDCREATE
 40
2455022.429026158
  9
$TDUPDATE
 40
2458697.303118715
  9
$TDINDWG
 40
0.0062523264
  9
$TDUSRTIMER
 40
0.0002824074
  9
$USRTIMER
 70
     1
  9
$ANGBASE
 50
0.0
  9
$ANGDIR
 70
     0
  9
$PDMODE
 70
     0
  9
$PDSIZE
 40
0.0
  9
$PLINEWID
 40
0.0
  9
$COORDS
 70
     1
  9
$SPLFRAME
 70
     0
  9
$SPLINETYPE
 70
     6
  9
$SPLINESEGS
 70
     8
  9
$ATTDIA
 70
     0
  9
$ATTREQ
 70
     1
  9
$HANDLING
 70
     1
  9
$HANDSEED
  5
1D89
  9
$SURFTAB1
 70
     6
  9
$SURFTAB2
 70
     6
  9
$SURFTYPE
 70
     6
  9
$SURFU
 70
     6
  9
$SURFV
 70
     6
  9
$UCSNAME
  2

  9
$UCSORG
 10
0.0
 20
0.0
 30
0.0
  9
$UCSXDIR
 10
1.0
 20
0.0
 30
0.0
  9
$UCSYDIR
 10
0.0
 20
1.0
 30
0.0
  9
$PUCSNAME
  2

  9
$PUCSORG
 10
0.0
 20
0.0
 30
0.0
  9
$PUCSXDIR
 10
1.0
 20
0.0
 30
0.0
  9
$PUCSYDIR
 10
0.0
 20
1.0
 30
0.0
  9
$USERI1
 70
     0
  9
$USERI2
 70
     0
  9
$USERI3
 70
     0
  9
$USERI4
 70
     0
  9
$USERI5
 70
     0
  9
$USERR1
 40
0.0
  9
$USERR2
 40
0.0
  9
$USERR3
 40
0.0
  9
$USERR4
 40
0.0
  9
$USERR5
 40
0.0
  9
$WORLDVIEW
 70
     1
  9
$SHADEDGE
 70
     3
  9
$SHADEDIF
 70
    70
  9
$TILEMODE
 70
     1
  9
$MAXACTVP
 70
    64
  9
$PLIMCHECK
 70
     0
  9
$PEXTMIN
 10
1.000000000000000E+20
 20
1.000000000000000E+20
 30
1.000000000000000E+20
  9
$PEXTMAX
 10
-1.000000000000000E+20
 20
-1.000000000000000E+20
 30
-1.000000000000000E+20
  9
$PLIMMIN
 10
0.0
 20
0.0
  9
$PLIMMAX
 10
0.0
 20
0.0
  9
$UNITMODE
 70
     0
  9
$VISRETAIN
 70
     1
  9
$PLINEGEN
 70
     0
  9
$PSLTSCALE
 70
     1
  0
ENDSEC
  0
SECTION
  2
TABLES
  0
TABLE
  2
VPORT
 70
     1
  0
VPORT
  2
*ACTIVE
 70
     0
 10
0.0
 20
0.0
 11
1.0
 21
1.0
 12
155.1318953936523
 22
3.467376415280413
 13
0.0
 23
0.0
 14
10.0
 24
10.0
 15
10.0
 25
10.0
 16
0.0
 26
0.0
 36
1.0
 17
-134.1869158878504
 27
0.0
 37
0.0
 40
96.62390481259547
 41
2.794759825327511
 42
50.0
 43
0.0
 44
0.0
 50
0.0
 51
0.0
 71
    16
 72
  1000
 73
     1
 74
     3
 75
     0
 76
     0
 77
     0
 78
     0
  0
ENDTAB
  0
TABLE
  2
LTYPE
 70
     6
  0
LTYPE
  2
CONTINUOUS
 70
     0
  3
Solid line
 72
    65
 73
     0
 40
0.0
  0
LTYPE
  2
CENTER
 70
     0
  3
 Center _____  _  _____  _  _____  _  _____  _ 
 72
    65
 73
     4
 40
50.8
 49
31.75
 49
-6.35
 49
6.35
 49
-6.35
  0
LTYPE
  2
DASHED
 70
     0
  3
Dashed __  __  __  __  __  __  __  __  __  __  
 72
    65
 73
     2
 40
19.05
 49
12.7
 49
-6.35
  0
LTYPE
  2
HIDDEN
 70
     0
  3
Hidden __ __ __ __ __ __ __ __ __ __ __ __ __ __
 72
    65
 73
     2
 40
1.905
 49
1.27
 49
-0.635
  0
LTYPE
  2
CENTERX2
 70
     0
  3
Center (2x) ________  __  ________  __  _____
 72
    65
 73
     4
 40
20.32
 49
12.7
 49
-2.54
 49
2.54
 49
-2.54
  0
LTYPE
  2
PHANTOM
 70
     0
  3
Phantom ______  __  __  ______  __  __  ______
 72
    65
 73
     6
 40
12.7
 49
6.35
 49
-1.27
 49
1.27
 49
-1.27
 49
1.27
 49
-1.27
  0
ENDTAB
  0
TABLE
  2
LAYER
 70
    26
  0
LAYER
  2
0
 70
     0
 62
     7
  6
CONTINUOUS
  0
LAYER
  2
1
 70
     0
 62
     4
  6
CONTINUOUS
  0
LAYER
  2
2
 70
     0
 62
     7
  6
CONTINUOUS
  0
LAYER
  2
3
 70
     0
 62
     1
  6
DASHED
  0
LAYER
  2
4
 70
     0
 62
     2
  6
CENTER
  0
LAYER
  2
6
 70
     0
 62
     5
  6
CONTINUOUS
  0
LAYER
  2
7
 70
     0
 62
     5
  6
CONTINUOUS
  0
LAYER
  2
11
 70
     0
 62
     4
  6
CONTINUOUS
  0
LAYER
  2
SK1
 70
     0
 62
     4
  6
CONTINUOUS
  0
LAYER
  2
SK2
 70
     0
 62
     7
  6
CONTINUOUS
  0
LAYER
  2
SK3
 70
     0
 62
     1
  6
DASHED
  0
LAYER
  2
SK4
 70
     0
 62
     2
  6
CENTER
  0
LAYER
  2
SK6
 70
     0
 62
     5
  6
CONTINUOUS
  0
LAYER
  2
SK7
 70
     0
 62
     5
  6
CONTINUOUS
  0
LAYER
  2
SK11
 70
     0
 62
     4
  6
CONTINUOUS
  0
LAYER
  2
CUT
 70
     0
 62
     1
  6
CONTINUOUS
  0
LAYER
  2
NOCUT
 70
     0
 62
    -7
  6
CONTINUOUS
  0
LAYER
  2
SKVIEW1
 70
     0
 62
     4
  6
CONTINUOUS
  0
LAYER
  2
SKVIEW2
 70
     0
 62
     7
  6
CONTINUOUS
  0
LAYER
  2
SKVIEW3
 70
     0
 62
     1
  6
DASHED
  0
LAYER
  2
SKVIEW4
 70
     0
 62
     2
  6
CENTER
  0
LAYER
  2
SKVIEW6
 70
     0
 62
     5
  6
CONTINUOUS
  0
LAYER
  2
SKVIEW7
 70
     0
 62
     5
  6
CONTINUOUS
  0
LAYER
  2
SKVIEW11
 70
     0
 62
     4
  6
CONTINUOUS
  0
LAYER
  2
INFTOTAL
 70
     0
 62
     9
  6
CONTINUOUS
  0
LAYER
  2
DEFPOINTS
 70
     0
 62
     7
  6
CONTINUOUS
  0
ENDTAB
  0
TABLE
  2
STYLE
 70
     1
  0
STYLE
  2
STANDARD
 70
     0
 40
0.0
 41
1.0
 50
0.0
 71
     0
 42
2.5
  3
txt
  4

  0
ENDTAB
  0
TABLE
  2
VIEW
 70
     0
  0
ENDTAB
  0
TABLE
  2
UCS
 70
     0
  0
ENDTAB
  0
TABLE
  2
APPID
 70
     2
  0
APPID
  2
ACAD
 70
     0
  0
APPID
  2
ACAECLAYERSTANDARD
 70
     0
  0
ENDTAB
  0
TABLE
  2
DIMSTYLE
 70
     1
  0
DIMSTYLE
  2
ISO-25
 70
     0
  3

  4

  5

  6

  7

 40
1.0
 41
2.5
 42
0.625
 43
3.75
 44
1.25
 45
0.0
 46
0.0
 47
0.0
 48
0.0
140
2.5
141
2.5
142
0.0
143
0.03937007874016
144
1.0
145
0.0
146
1.0
147
0.625
 71
     0
 72
     0
 73
     0
 74
     0
 75
     0
 76
     0
 77
     1
 78
     8
170
     0
171
     3
172
     1
173
     0
174
     0
175
     0
176
     0
177
     0
178
     0
  0
ENDTAB
  0
ENDSEC
  0
SECTION
  2
BLOCKS
  0
BLOCK
  8
0
  2
$MODEL_SPACE
 70
     0
 10
0.0
 20
0.0
 30
0.0
  3
$MODEL_SPACE
  1

  0
ENDBLK
  5
21
  8
0
  0
BLOCK
 67
     1
  8
0
  2
$PAPER_SPACE
 70
     0
 10
0.0
 20
0.0
 30
0.0
  3
$PAPER_SPACE
  1

  0
ENDBLK
  5
1D
 67
     1
  8
0
  0
BLOCK
  8
0
  2
_FILLED
 70
     0
 10
0.0
 20
0.0
 30
0.0
  3
_FILLED
  1

  0
SOLID
  5
1C4
  8
0
  6
BYBLOCK
 62
     0
 10
0.0
 20
0.0
 30
0.0
 11
-1.0
 21
0.2142857143
 31
0.0
 12
-1.0
 22
-0.2142857143
 32
0.0
 13
-1.0
 23
-0.2142857143
 33
0.0
  0
ENDBLK
  5
1C5
  8
0
  6
BYBLOCK
 62
     0
  0
BLOCK
  8
0
  2
*D5
 70
     1
 10
0.0
 20
0.0
 30
0.0
  3
*D5
  1

  0
LINE
  5
1D3
  8
2
 62
     0
 10
0.0
 20
22.84999999999999
 30
0.0
 11
0.0
 21
48.91573065769793
 31
0.0
  0
LINE
  5
1D4
  8
2
 62
     0
 10
50.80000000000001
 20
27.42499999999998
 30
0.0
 11
50.80000000000001
 21
48.91573065769793
 31
0.0
  0
LINE
  5
1D5
  8
2
 62
     0
 10
2.5
 20
47.66573065769793
 30
0.0
 11
48.30000000000001
 21
47.66573065769793
 31
0.0
  0
SOLID
  5
1D6
  8
2
 62
     0
 10
2.5
 20
48.08239732436459
 30
0.0
 11
2.5
 21
47.24906399103126
 31
0.0
 12
0.0
 22
47.66573065769793
 32
0.0
 13
0.0
 23
47.66573065769793
 33
0.0
  0
SOLID
  5
1D7
  8
2
 62
     0
 10
48.30000000000001
 20
47.24906399103126
 30
0.0
 11
48.30000000000001
 21
48.08239732436459
 31
0.0
 12
50.80000000000001
 22
47.66573065769793
 32
0.0
 13
50.80000000000001
 23
47.66573065769793
 33
0.0
  0
TEXT
  5
1D8
  8
2
  6
CONTINUOUS
 62
     0
 10
21.85833333333334
 20
48.29073065769793
 30
0.0
 40
2.5
  1
50.8
  0
POINT
  5
1D9
  8
DEFPOINTS
 62
     0
 10
0.0
 20
22.22499999999999
 30
0.0
  0
POINT
  5
1DA
  8
DEFPOINTS
 62
     0
 10
50.80000000000001
 20
26.79999999999998
 30
0.0
  0
POINT
  5
1DB
  8
DEFPOINTS
 62
     0
 10
50.80000000000001
 20
47.66573065769793
 30
0.0
  0
ENDBLK
  5
1DD
  8
0
  0
BLOCK
  8
0
  2
*D16
 70
     1
 10
0.0
 20
0.0
 30
0.0
  3
*D16
  1

  0
LINE
  5
16DF
  8
SK2
 62
     0
 10
67.61137033049994
 20
12.70000000000016
 30
0.0
 11
94.95017484892503
 21
12.70000000000016
 31
0.0
  0
LINE
  5
16E0
  8
SK2
 62
     0
 10
67.61137033049994
 20
-12.69999999999993
 30
0.0
 11
94.95017484892503
 21
-12.69999999999993
 31
0.0
  0
LINE
  5
16E1
  8
SK2
 62
     0
 10
93.70017484892503
 20
10.20000000000016
 30
0.0
 11
93.70017484892503
 21
-10.19999999999993
 31
0.0
  0
SOLID
  5
16E2
  8
SK2
 62
     0
 10
94.1168415155917
 20
10.20000000000016
 30
0.0
 11
93.28350818225836
 21
10.20000000000016
 31
0.0
 12
93.70017484892503
 22
12.70000000000016
 32
0.0
 13
93.70017484892503
 23
12.70000000000016
 33
0.0
  0
SOLID
  5
16E3
  8
SK2
 62
     0
 10
93.28350818225836
 20
-10.19999999999993
 30
0.0
 11
94.1168415155917
 21
-10.19999999999993
 31
0.0
 12
93.70017484892503
 22
-12.69999999999993
 32
0.0
 13
93.70017484892503
 23
-12.69999999999993
 33
0.0
  0
TEXT
  5
16E4
  8
SK2
  6
CONTINUOUS
 62
     0
 10
93.07517484892503
 20
-3.749999999999886
 30
0.0
 40
2.5
  1
25.4
 50
90.0
  0
POINT
  5
16E5
  8
DEFPOINTS
 62
     0
 10
66.98637033049994
 20
12.70000000000016
 30
0.0
  0
POINT
  5
16E6
  8
DEFPOINTS
 62
     0
 10
66.98637033049994
 20
-12.69999999999993
 30
0.0
  0
POINT
  5
16E7
  8
DEFPOINTS
 62
     0
 10
93.70017484892503
 20
-12.69999999999993
 30
0.0
  0
ENDBLK
  5
16DE
  8
0
  0
BLOCK
  8
0
  2
*D17
 70
     1
 10
0.0
 20
0.0
 30
0.0
  3
*D17
  1

  0
LINE
  5
16EE
  8
SK2
 62
     0
 10
50.42500000000001
 20
27.79999999999998
 30
0.0
 11
110.1399590116038
 21
27.79999999999997
 31
0.0
  0
LINE
  5
16EF
  8
SK2
 62
     0
 10
50.42500000000001
 20
-27.80000000000001
 30
0.0
 11
110.1399590116038
 21
-27.80000000000001
 31
0.0
  0
LINE
  5
16F0
  8
SK2
 62
     0
 10
108.8899590116038
 20
25.29999999999997
 30
0.0
 11
108.8899590116038
 21
-25.30000000000001
 31
0.0
  0
SOLID
  5
16F1
  8
SK2
 62
     0
 10
109.3066256782704
 20
25.29999999999997
 30
0.0
 11
108.4732923449371
 21
25.29999999999997
 31
0.0
 12
108.8899590116038
 22
27.79999999999997
 32
0.0
 13
108.8899590116038
 23
27.79999999999997
 33
0.0
  0
SOLID
  5
16F2
  8
SK2
 62
     0
 10
108.4732923449371
 20
-25.30000000000001
 30
0.0
 11
109.3066256782704
 21
-25.30000000000001
 31
0.0
 12
108.8899590116038
 22
-27.80000000000001
 32
0.0
 13
108.8899590116038
 23
-27.80000000000001
 33
0.0
  0
TEXT
  5
16F3
  8
SK2
  6
CONTINUOUS
 62
     0
 10
108.2649590116038
 20
-3.750000000000028
 30
0.0
 40
2.5
  1
55.6
 50
90.0
  0
POINT
  5
16F4
  8
DEFPOINTS
 62
     0
 10
49.80000000000001
 20
27.79999999999998
 30
0.0
  0
POINT
  5
16F5
  8
DEFPOINTS
 62
     0
 10
49.80000000000001
 20
-27.80000000000001
 30
0.0
  0
POINT
  5
16F6
  8
DEFPOINTS
 62
     0
 10
108.8899590116038
 20
-27.80000000000001
 30
0.0
  0
ENDBLK
  5
16ED
  8
0
  0
BLOCK
  8
0
  2
*D18
 70
     1
 10
0.0
 20
0.0
 30
0.0
  3
*D18
  1

  0
LINE
  5
16FD
  8
SK2
 62
     0
 10
0.0
 20
-22.84999999999999
 30
0.0
 11
0.0
 21
-43.28165299792866
 31
0.0
  0
LINE
  5
16FE
  8
SK2
 62
     0
 10
35.05000000000001
 20
-27.42500000000001
 30
0.0
 11
35.05000000000001
 21
-43.28165299792866
 31
0.0
  0
LINE
  5
16FF
  8
SK2
 62
     0
 10
2.5
 20
-42.03165299792866
 30
0.0
 11
32.55000000000001
 21
-42.03165299792866
 31
0.0
  0
SOLID
  5
1700
  8
SK2
 62
     0
 10
2.5
 20
-41.614986331262
 30
0.0
 11
2.5
 21
-42.44831966459532
 31
0.0
 12
0.0
 22
-42.03165299792866
 32
0.0
 13
0.0
 23
-42.03165299792866
 33
0.0
  0
SOLID
  5
1701
  8
SK2
 62
     0
 10
32.55000000000001
 20
-42.44831966459532
 30
0.0
 11
32.55000000000001
 21
-41.614986331262
 31
0.0
 12
35.05000000000001
 22
-42.03165299792866
 32
0.0
 13
35.05000000000001
 23
-42.03165299792866
 33
0.0
  0
TEXT
  5
1702
  8
SK2
  6
CONTINUOUS
 62
     0
 10
12.73333333333334
 20
-41.40665299792866
 30
0.0
 40
2.5
  1
35.05
  0
POINT
  5
1703
  8
DEFPOINTS
 62
     0
 10
0.0
 20
-22.22499999999999
 30
0.0
  0
POINT
  5
1704
  8
DEFPOINTS
 62
     0
 10
35.05000000000001
 20
-26.80000000000001
 30
0.0
  0
POINT
  5
1705
  8
DEFPOINTS
 62
     0
 10
35.05000000000001
 20
-42.03165299792866
 30
0.0
  0
ENDBLK
  5
16FC
  8
0
  0
ENDSEC
  0
SECTION
  2
ENTITIES
  0
LINE
  5
1B2
  8
4
 10
50.80000000000001
 20
-0.0000000034857197
 30
0.0
 11
0.0
 21
0.0
 31
0.0
  0
DIMENSION
  5
1CF
  8
2
  2
*D5
 10
50.80000000000001
 20
47.66573065769793
 30
0.0
 11
25.40000000000001
 21
49.54073065769793
 31
0.0
 70
    32
  3
ISO-25
 13
0.0
 23
22.22499999999999
 33
0.0
 14
50.80000000000001
 24
26.79999999999998
 34
0.0
  0
LINE
  5
364
  8
NOCUT
 10
50.80000000000002
 20
-0.0000000034857197
 30
0.0
 11
0.0
 21
0.0
 31
0.0
  0
LINE
  5
99D
  8
SK3
 10
-66.51794919240001
 20
0.0
 30
0.0
 11
-66.51794919240001
 21
8.149999999999991
 31
0.0
  0
LINE
  5
99E
  8
SK3
 10
-66.51794919240001
 20
-8.149999999999991
 30
0.0
 11
-66.51794919240001
 21
0.0
 31
0.0
  0
LINE
  5
99F
  8
SK3
 10
-63.48000000000002
 20
0.0
 30
0.0
 11
-63.48000000000002
 21
8.149999999999991
 31
0.0
  0
LINE
  5
9A0
  8
SK3
 10
-63.48000000000002
 20
-8.149999999999991
 30
0.0
 11
-63.48000000000002
 21
0.0
 31
0.0
  0
LINE
  5
9BF
  8
SK3
 10
-68.25000000000003
 20
-9.149999999999991
 30
0.0
 11
-66.51794919240001
 21
-8.149999999999991
 31
0.0
  0
LINE
  5
9C0
  8
SK3
 10
-66.51794919240001
 20
8.149999999999991
 30
0.0
 11
-68.25000000000003
 21
9.149999999999991
 31
0.0
  0
LINE
  5
9C1
  8
SK3
 10
-66.51794919240001
 20
-8.149999999999991
 30
0.0
 11
-63.48000000000002
 21
-8.149999999999991
 31
0.0
  0
LINE
  5
9C2
  8
SK3
 10
-63.48000000000002
 20
8.149999999999991
 30
0.0
 11
-66.51794919240001
 21
8.149999999999991
 31
0.0
  0
LINE
  5
9C3
  8
SK3
 10
-63.48000000000002
 20
-6.700000000000003
 30
0.0
 11
-8.249999999999964
 21
-6.700000000000003
 31
0.0
  0
LINE
  5
9C4
  8
SK3
 10
-8.249999999999972
 20
6.700000000000003
 30
0.0
 11
-63.48000000000002
 21
6.700000000000003
 31
0.0
  0
LINE
  5
9E1
  8
0
 10
52.79999999999997
 20
1.99999999651428
 30
0.0
 11
48.80000000000006
 21
-2.00000000348572
 31
0.0
  0
LINE
  5
9E2
  8
0
 10
48.80000000000006
 20
1.99999999651428
 30
0.0
 11
52.79999999999997
 21
-2.00000000348572
 31
0.0
  0
CIRCLE
  5
9E3
  8
0
 10
50.80000000000006
 20
-0.0000000034857197
 30
0.0
 40
1.5
  0
LINE
  5
9E4
  8
0
 10
3.0
 20
3.0
 30
0.0
 11
-3.0
 21
-3.0
 31
0.0
  0
LINE
  5
9E5
  8
0
 10
-3.0
 20
3.0
 30
0.0
 11
3.0
 21
-3.0
 31
0.0
  0
CIRCLE
  5
9E6
  8
0
 10
0.0
 20
0.0
 30
0.0
 40
2.5
  0
LINE
  5
9E7
  8
SK3
 10
-63.48000000000005
 20
-7.937499999800011
 30
0.0
 11
-39.75000000000003
 21
-7.937499999800011
 31
0.0
  0
LINE
  5
9E8
  8
SK3
 10
-39.75000000000003
 20
7.937500000199975
 30
0.0
 11
-39.75000000000003
 21
-7.937499999800011
 31
0.0
  0
LINE
  5
9E9
  8
SK3
 10
-39.75000000000003
 20
7.937500000199975
 30
0.0
 11
-63.48000000000005
 21
7.937500000199975
 31
0.0
  0
ARC
  5
AA1
  8
NOCUT
 10
0.5
 20
22.72499999999999
 30
0.0
 40
0.5
 50
270.0
 51
0.0
  0
LINE
  5
AA4
  8
NOCUT
 10
0.5
 20
22.22499999999999
 30
0.0
 11
0.0
 21
22.22499999999999
 31
0.0
  0
LINE
  5
AA5
  8
NOCUT
 10
34.05000000000001
 20
22.22499999999999
 30
0.0
 11
20.04999999999998
 21
22.22499999999999
 31
0.0
  0
LINE
  5
AA7
  8
NOCUT
 10
14.65616676909997
 20
30.7125381562
 30
0.0
 11
18.54999999999995
 21
30.7125381562
 31
0.0
  0
POLYLINE
  5
AA8
  8
NOCUT
 66
     1
 10
0.0
 20
0.0
 30
0.0
  0
VERTEX
  5
1BD7
  8
NOCUT
 10
18.54999999999995
 20
30.7125381562
 30
0.0
  0
VERTEX
  5
1BD8
  8
NOCUT
 10
18.57284145939997
 20
30.6889245341
 30
0.0
  0
VERTEX
  5
1BD9
  8
NOCUT
 10
19.04999999999995
 20
30.1953638825
 30
0.0
  0
SEQEND
  5
1D6E
  8
NOCUT
  0
POLYLINE
  5
AA9
  8
NOCUT
 66
     1
 10
0.0
 20
0.0
 30
0.0
  0
VERTEX
  5
1BDA
  8
NOCUT
 10
1.0
 20
30.1953638825
 30
0.0
  0
VERTEX
  5
1BDB
  8
NOCUT
 10
1.477158540600044
 20
30.6889245341
 30
0.0
  0
VERTEX
  5
1BDC
  8
NOCUT
 10
1.5
 20
30.7125381562
 30
0.0
  0
SEQEND
  5
1D6F
  8
NOCUT
  0
LINE
  5
AAA
  8
NOCUT
 10
1.499999999999996
 20
30.7125381562
 30
0.0
 11
7.603833230899966
 21
30.7125381562
 31
0.0
  0
POLYLINE
  5
AAB
  8
NOCUT
 66
     1
 10
0.0
 20
0.0
 30
0.0
  0
VERTEX
  5
1BDD
  8
NOCUT
 10
7.603833230899966
 20
30.7125381562
 30
0.0
  0
VERTEX
  5
1BDE
  8
NOCUT
 10
9.140787278000005
 20
27.9518236359
 30
0.0
  0
VERTEX
  5
1BDF
  8
NOCUT
 10
9.204999999999984
 20
27.8360650174
 30
0.0
  0
SEQEND
  5
1D70
  8
NOCUT
  0
POLYLINE
  5
AAC
  8
NOCUT
 66
     1
 10
0.0
 20
0.0
 30
0.0
  0
VERTEX
  5
1BE0
  8
NOCUT
 10
13.05499999999995
 20
27.8360650174
 30
0.0
  0
VERTEX
  5
1BE1
  8
NOCUT
 10
13.1192127219
 20
27.9518236359
 30
0.0
  0
VERTEX
  5
1BE2
  8
NOCUT
 10
14.65616676909997
 20
30.7125381562
 30
0.0
  0
SEQEND
  5
1D71
  8
NOCUT
  0
ARC
  5
AAD
  8
NOCUT
 10
12.54226966779999
 20
27.51838423379999
 30
0.0
 40
0.512803993977288
 50
271.4225108534019
 51
0.9711541378997977
  0
ARC
  5
AAE
  8
NOCUT
 10
9.716236145599964
 20
27.5169512018
 30
0.0
 40
0.5113363895821054
 50
178.8654582714003
 51
268.7408767374973
  0
LINE
  5
AAF
  8
NOCUT
 10
9.704999999999984
 20
27.0057382791
 30
0.0
 11
12.55499999999995
 21
27.0057382791
 31
0.0
  0
LINE
  5
AB0
  8
NOCUT
 10
0.0
 20
0.0
 30
0.0
 11
0.0
 21
22.22499999999999
 31
0.0
  0
LINE
  5
ACA
  8
NOCUT
 10
1.0
 20
22.72499999999999
 30
0.0
 11
1.0
 21
30.1953638825
 31
0.0
  0
LINE
  5
ACB
  8
NOCUT
 10
9.204999999999984
 20
27.8360650174
 30
0.0
 11
9.20489975601786
 21
27.5169512018
 31
0.0
  0
LINE
  5
ACC
  8
NOCUT
 10
13.05499999999995
 20
27.8360650174
 30
0.0
 11
13.05507366177728
 21
27.51838423379999
 31
0.0
  0
LINE
  5
ACD
  8
NOCUT
 10
19.04999999999995
 20
30.1953638825
 30
0.0
 11
19.04999999999995
 21
23.22499999999999
 31
0.0
  0
ARC
  5
B91
  8
1
 10
20.04999999999998
 20
-23.22499999999999
 30
0.0
 40
1.0
 50
90.0
 51
180.0
  0
ARC
  5
B93
  8
1
 10
20.04999999999998
 20
23.22499999999999
 30
0.0
 40
1.0
 50
180.0
 51
270.0
  0
ARC
  5
B94
  8
1
 10
0.799999999999983
 20
-22.42500000000001
 30
0.0
 40
0.5
 50
66.42182152179994
 51
90.0
  0
ARC
  5
B95
  8
1
 10
0.799999999999983
 20
22.42499999999998
 30
0.0
 40
0.5
 50
270.0
 51
293.5781784782001
  0
LINE
  5
B96
  8
1
 10
20.04999999999998
 20
-22.22499999999999
 30
0.0
 11
34.05000000000001
 21
-22.22499999999999
 31
0.0
  0
LINE
  5
B97
  8
1
 10
34.05000000000001
 20
22.22499999999999
 30
0.0
 11
20.04999999999998
 21
22.22499999999999
 31
0.0
  0
LINE
  5
B98
  8
1
 10
0.0
 20
-22.22499999999999
 30
0.0
 11
0.2999999999999829
 21
-21.92500000000001
 31
0.0
  0
LINE
  5
B99
  8
1
 10
0.2999999999999829
 20
21.92499999999998
 30
0.0
 11
0.0
 21
22.22499999999999
 31
0.0
  0
LINE
  5
B9C
  8
SK1
 10
0.0
 20
22.22499999999999
 30
0.0
 11
-67.3943082273
 21
12.39657058259999
 31
0.0
  0
LINE
  5
B9D
  8
SK1
 10
-67.3943082273
 20
-12.39657058270001
 30
0.0
 11
0.0
 21
-22.22499999999999
 31
0.0
  0
LINE
  5
B9E
  8
1
 10
0.2999999999999829
 20
-21.92500000000001
 30
0.0
 11
0.799999999999983
 21
-21.92500000000001
 31
0.0
  0
LINE
  5
B9F
  8
1
 10
0.799999999999983
 20
21.92499999999998
 30
0.0
 11
0.2999999999999829
 21
21.92499999999998
 31
0.0
  0
ARC
  5
BA0
  8
SK1
 10
-67.25
 20
-11.4070377962
 30
0.0
 40
1.000000000000014
 50
180.0
 51
261.7027777778003
  0
ARC
  5
BA1
  8
SK1
 10
-67.25
 20
11.40703779609998
 30
0.0
 40
1.000000000000014
 50
98.29722222219964
 51
180.0
  0
LINE
  5
BA2
  8
1
 10
14.6561667922
 20
30.49243725150001
 30
0.0
 11
13.05500004409998
 21
27.5903849293
 31
0.0
  0
LINE
  5
BA3
  8
1
 10
14.65616676899998
 20
-30.51805114620001
 30
0.0
 11
14.65616676899998
 21
30.49243720799998
 31
0.0
  0
LINE
  5
BA4
  8
1
 10
13.05500002099998
 20
-27.61768172550001
 30
0.0
 11
14.65616678619998
 21
-30.51748284710001
 31
0.0
  0
LINE
  5
BA5
  8
1
 10
13.05499999999998
 20
-27.61768156150001
 30
0.0
 11
13.05499999999998
 21
27.5896745586
 31
0.0
  0
LINE
  5
BA6
  8
1
 10
14.65616729029998
 20
-30.5174828113
 30
0.0
 11
14.76217597669998
 21
-30.54092502470002
 31
0.0
  0
LINE
  5
BA7
  8
1
 10
14.69253150219998
 20
30.50268419069999
 30
0.0
 11
14.65616753799998
 21
30.49243719839998
 31
0.0
  0
LINE
  5
BA8
  8
1
 10
18.54999999999998
 20
30.50268419069999
 30
0.0
 11
14.69253150219998
 21
30.50268419069999
 31
0.0
  0
LINE
  5
BA9
  8
1
 10
14.76217597669998
 20
-30.54092502470002
 30
0.0
 11
18.54999999999998
 21
-30.54092502470002
 31
0.0
  0
LINE
  5
BAA
  8
1
 10
9.204999955799991
 20
27.5903849293
 30
0.0
 11
7.603833207699978
 21
30.49243725150001
 31
0.0
  0
LINE
  5
BAB
  8
1
 10
9.204999999999984
 20
-27.6182445954
 30
0.0
 11
9.204999999999984
 21
27.5903848518
 31
0.0
  0
LINE
  5
BAC
  8
1
 10
7.6038332137
 20
-30.51748284710001
 30
0.0
 11
9.204999978799975
 21
-27.61768172539999
 31
0.0
  0
LINE
  5
BAD
  8
1
 10
7.603833230899994
 20
-30.5174828113
 30
0.0
 11
7.603833230899994
 21
30.49194635059999
 31
0.0
  0
LINE
  5
BAE
  8
1
 10
1.0
 20
-29.20362428180002
 30
0.0
 11
1.0
 21
29.22527756419998
 31
0.0
  0
ARC
  5
BAF
  8
1
 10
1.736068826500002
 20
28.83956144390001
 30
0.0
 40
0.8318485490646366
 50
106.4871262675995
 51
152.2338518675996
  0
POLYLINE
  5
BB0
  8
1
 66
     1
 10
0.0
 20
0.0
 30
0.0
  0
VERTEX
  5
1BE3
  8
1
 10
1.499991175799977
 20
-29.70136738420001
 30
0.0
  0
VERTEX
  5
1BE4
  8
1
 10
1.31486147779998
 20
-29.6078136875
 30
0.0
  0
VERTEX
  5
1BE5
  8
1
 10
1.220960437199977
 20
-29.54106786380001
 30
0.0
  0
VERTEX
  5
1BE6
  8
1
 10
1.131120186599986
 20
-29.45918995790001
 30
0.0
  0
VERTEX
  5
1BE7
  8
1
 10
1.068966655699995
 20
-29.38420485969999
 30
0.0
  0
VERTEX
  5
1BE8
  8
1
 10
1.029912598300001
 20
-29.3189781797
 30
0.0
  0
VERTEX
  5
1BE9
  8
1
 10
1.001757060399996
 20
-29.23060659110001
 30
0.0
  0
VERTEX
  5
1BEA
  8
1
 10
1.000001938499992
 20
-29.2054619834
 30
0.0
  0
SEQEND
  5
1D72
  8
1
  0
LINE
  5
BB1
  8
1
 10
7.5674684974
 20
30.50268419069999
 30
0.0
 11
4.03465638199998
 21
30.50268419069999
 31
0.0
  0
LINE
  5
BB2
  8
1
 10
7.603832461599978
 20
30.49243719839998
 30
0.0
 11
7.5674684974
 21
30.50268419069999
 31
0.0
  0
LINE
  5
BB3
  8
1
 10
7.497824022700001
 20
-30.54092502470002
 30
0.0
 11
7.603832709099976
 21
-30.5174828113
 31
0.0
  0
LINE
  5
BB4
  8
1
 10
3.987796517999982
 20
-30.54092502470002
 30
0.0
 11
7.497824022700001
 21
-30.54092502470002
 31
0.0
  0
LINE
  5
BB5
  8
1
 10
1.500000037399985
 20
-29.70136454339999
 30
0.0
 11
3.987796517999982
 21
-30.54092512950001
 31
0.0
  0
LINE
  5
BB6
  8
1
 10
4.03465638199998
 20
30.5026843142
 30
0.0
 11
1.499999999899984
 21
29.6372041155
 31
0.0
  0
POLYLINE
  5
BB7
  8
1
 66
     1
 10
0.0
 20
0.0
 30
0.0
  0
VERTEX
  5
1BEB
  8
1
 10
18.81621828999999
 20
-30.4787564463
 30
0.0
  0
VERTEX
  5
1BEC
  8
1
 10
18.6790188139
 20
-30.52721612650001
 30
0.0
  0
VERTEX
  5
1BED
  8
1
 10
18.54999999999998
 20
-30.54092502470002
 30
0.0
  0
SEQEND
  5
1D73
  8
1
  0
ARC
  5
BB8
  8
1
 10
18.55943835959999
 20
29.86640550269999
 30
0.0
 40
0.6363486869715145
 50
60.60134603479981
 51
90.84984539750005
  0
ARC
  5
BB9
  8
1
 10
18.35098180669999
 20
29.95429978019999
 30
0.0
 40
0.6992094391558102
 50
1.340108450200791
 51
41.85091720829973
  0
LINE
  5
BBA
  8
1
 10
19.04999999999998
 20
29.97065231189998
 30
0.0
 11
19.04999999999998
 21
-29.97065231190001
 31
0.0
  0
ARC
  5
BBB
  8
1
 10
18.33294041069999
 20
-29.9485632036
 30
0.0
 40
0.7173997374297006
 50
312.3495695874001
 51
358.2355544919003
  0
ARC
  5
BBC
  8
1
 10
9.7449695926
 20
27.30906555679999
 30
0.0
 40
0.5407677835436584
 50
176.8865704259999
 51
265.761250323199
  0
ARC
  5
BBD
  8
1
 10
9.7179331838
 20
-27.29360212969999
 30
0.0
 40
0.4775741781478385
 50
91.55181642760164
 51
147.4596417165987
  0
ARC
  5
BBE
  8
1
 10
12.52505146019999
 20
27.30025443439999
 30
0.0
 40
0.5313222205439724
 50
273.2312498579008
 51
4.120929392898505
  0
ARC
  5
BBF
  8
1
 10
12.53972316129997
 20
-27.2977060387
 30
0.0
 40
0.4817452194643697
 50
32.86161398089808
 51
88.18276318630117
  0
LINE
  5
BC0
  8
1
 10
12.55499999999998
 20
26.7697769259
 30
0.0
 11
9.704999999999984
 21
26.7697769259
 31
0.0
  0
LINE
  5
BC1
  8
1
 10
9.704999999999984
 20
-26.81620310549999
 30
0.0
 11
12.55499999999998
 21
-26.81620310549999
 31
0.0
  0
LINE
  5
BC4
  8
1
 10
0.2999999999999829
 20
0.0
 30
0.0
 11
0.2999999999999829
 21
21.92499999999998
 31
0.0
  0
LINE
  5
BC5
  8
1
 10
0.2999999999999829
 20
-21.92500000000001
 30
0.0
 11
0.2999999999999829
 21
0.0
 31
0.0
  0
LINE
  5
BC6
  8
1
 10
0.0
 20
0.0
 30
0.0
 11
0.0
 21
22.22499999999999
 31
0.0
  0
LINE
  5
BC7
  8
1
 10
0.0
 20
-22.22499999999999
 30
0.0
 11
0.0
 21
0.0
 31
0.0
  0
LINE
  5
BCA
  8
SK1
 10
-68.25
 20
0.0
 30
0.0
 11
-68.25
 21
11.40703779609998
 31
0.0
  0
LINE
  5
BCB
  8
SK1
 10
-68.25
 20
-11.4070377962
 30
0.0
 11
-68.25
 21
0.0
 31
0.0
  0
LINE
  5
BCC
  8
1
 10
7.567468496899977
 20
30.50268419069999
 30
0.0
 11
7.6038324612
 21
30.49243719839998
 31
0.0
  0
LINE
  5
BCD
  8
1
 10
3.987796517999982
 20
-30.54092512950001
 30
0.0
 11
1.499999999899984
 21
-29.7013645289
 31
0.0
  0
LINE
  5
BDE
  8
3
 10
1.0
 20
-22.59999999999999
 30
0.0
 11
3.699999999999989
 21
-22.59999999999999
 31
0.0
  0
LINE
  5
BDF
  8
3
 10
1.0
 20
25.02000000000001
 30
0.0
 11
3.699999999999989
 21
25.02000000000001
 31
0.0
  0
LINE
  5
BE8
  8
3
 10
18.25
 20
25.02000000000001
 30
0.0
 11
19.04999999999998
 21
25.02000000000001
 31
0.0
  0
LINE
  5
BFE
  8
3
 10
3.699999999999989
 20
-22.59999999999999
 30
0.0
 11
18.25
 21
-22.59999999999999
 31
0.0
  0
LINE
  5
C08
  8
3
 10
3.699999999999989
 20
25.02000000000001
 30
0.0
 11
18.25
 21
25.02000000000001
 31
0.0
  0
LINE
  5
C10
  8
3
 10
11.13
 20
21.22
 30
0.0
 11
17.47999999999999
 21
21.22
 31
0.0
  0
LINE
  5
C11
  8
3
 10
4.780000000000001
 20
21.22
 30
0.0
 11
11.13
 21
21.22
 31
0.0
  0
LINE
  5
C12
  8
3
 10
11.13
 20
21.21000000000001
 30
0.0
 11
15.88
 21
21.21000000000001
 31
0.0
  0
LINE
  5
C13
  8
3
 10
6.379999999999995
 20
21.21000000000001
 30
0.0
 11
11.13
 21
21.21000000000001
 31
0.0
  0
LINE
  5
C26
  8
3
 10
4.780000000000001
 20
25.02000000000001
 30
0.0
 11
4.780000000000001
 21
21.22
 31
0.0
  0
LINE
  5
C27
  8
3
 10
17.47999999999999
 20
21.22
 30
0.0
 11
17.47999999999999
 21
25.02000000000001
 31
0.0
  0
LINE
  5
C28
  8
3
 10
6.379999999999995
 20
21.22
 30
0.0
 11
6.379999999999995
 21
21.21000000000001
 31
0.0
  0
LINE
  5
C29
  8
3
 10
15.88
 20
21.21000000000001
 30
0.0
 11
15.88
 21
21.22
 31
0.0
  0
LINE
  5
C2A
  8
3
 10
6.379999999999995
 20
21.21000000000001
 30
0.0
 11
11.13
 21
18.3559120596
 31
0.0
  0
LINE
  5
C2B
  8
3
 10
11.13
 20
18.3559120596
 30
0.0
 11
15.88
 21
21.21000000000001
 31
0.0
  0
LINE
  5
C2C
  8
1
 10
20.04999999999998
 20
22.22499999999999
 30
0.0
 11
20.04999999999998
 21
-22.22499999999999
 31
0.0
  0
LINE
  5
C2D
  8
1
 10
0.799999999999983
 20
21.92499999999998
 30
0.0
 11
0.799999999999983
 21
-21.92500000000001
 31
0.0
  0
LINE
  5
C2F
  8
1
 10
9.704999999999984
 20
26.26568698759999
 30
0.0
 11
9.704999999999984
 21
-26.08092552630001
 31
0.0
  0
LINE
  5
C30
  8
1
 10
12.55499999999998
 20
26.26578903699999
 30
0.0
 11
12.55499999999998
 21
-26.08072526110001
 31
0.0
  0
LINE
  5
C31
  8
1
 10
18.54999999999998
 20
30.50268419069999
 30
0.0
 11
18.54999999999998
 21
-30.54092502470002
 31
0.0
  0
LINE
  5
C32
  8
1
 10
1.5
 20
-29.7013645289
 30
0.0
 11
1.5
 21
29.6372041155
 31
0.0
  0
LINE
  5
C92
  8
SK4
 10
0.0
 20
0.0
 30
0.0
 11
-68.25
 21
0.0
 31
0.0
  0
TEXT
  5
D44
  8
SK6
 10
-66.17909534664395
 20
47.33203563714093
 30
0.0
 40
3.5
  1
BIG KAISER
 41
0.85
  0
TEXT
  5
D45
  8
SK6
 10
-66.17909534664395
 20
42.08203563714093
 30
0.0
 40
3.5
  1
BCV40-SMC1.000-2
 41
0.85
  0
INSERT
  5
D46
  8
SK6
  2
_FILLED
 10
-17.9836627818344
 20
-19.60235774778011
 30
0.0
 41
3.5
 42
3.5
 43
3.5
 50
55.49325986033524
  0
POLYLINE
  5
D47
  8
SK6
 66
     1
 10
0.0
 20
0.0
 30
0.0
  0
VERTEX
  5
1BEE
  8
SK6
 10
-19.966423916232
 20
-22.48656618059532
 30
0.0
  0
VERTEX
  5
1BEF
  8
SK6
 10
-33.4822656830344
 20
-42.14728280658011
 30
0.0
  0
VERTEX
  5
1BF0
  8
SK6
 10
-35.35726568303438
 20
-40.39728280658011
 30
0.0
  0
VERTEX
  5
1BF1
  8
SK6
 10
-38.85726568303438
 20
-40.39728280658011
 30
0.0
  0
SEQEND
  5
1D74
  8
SK6
  0
TEXT
  5
D48
  8
SK6
 10
-53.86143234970106
 20
-43.89728280658011
 30
0.0
 40
3.5
  1
BCV40
 41
0.85
  0
ARC
  5
E7B
  8
NOCUT
 10
20.04999999999998
 20
23.22499999999999
 30
0.0
 40
1.0
 50
180.0
 51
270.0
  0
ARC
  5
10C5
  8
1
 10
36.05000000000001
 20
26.79999999999998
 30
0.0
 40
1.0
 50
90.0
 51
180.0
  0
ARC
  5
10C6
  8
1
 10
36.05000000000001
 20
-26.80000000000001
 30
0.0
 40
1.0
 50
180.0
 51
270.0
  0
LINE
  5
10C7
  8
1
 10
36.05000000000001
 20
-27.80000000000001
 30
0.0
 11
49.80000000000001
 21
-27.80000000000001
 31
0.0
  0
LINE
  5
10C8
  8
1
 10
49.80000000000001
 20
27.79999999999998
 30
0.0
 11
36.05000000000001
 21
27.79999999999998
 31
0.0
  0
ARC
  5
10C9
  8
1
 10
49.80000000000001
 20
-26.80000000000001
 30
0.0
 40
1.0
 50
270.0
 51
0.0
  0
ARC
  5
10CA
  8
1
 10
49.80000000000001
 20
26.79999999999998
 30
0.0
 40
1.0
 50
0.0
 51
90.0
  0
ARC
  5
10CB
  8
1
 10
34.05000000000001
 20
23.22499999999999
 30
0.0
 40
1.0
 50
270.0
 51
0.0
  0
ARC
  5
10CC
  8
1
 10
34.05000000000001
 20
-23.22500000000001
 30
0.0
 40
1.000000000000014
 50
0.0
 51
90.0
  0
CIRCLE
  5
10E3
  8
1
 10
43.80000000000001
 20
0.0
 30
0.0
 40
1.609999999999954
  0
CIRCLE
  5
10E4
  8
1
 10
43.80000000000001
 20
0.0
 30
0.0
 40
2.000000000000009
  0
LINE
  5
10E5
  8
1
 10
44.76230203289998
 20
-0.638206965500018
 30
0.0
 11
44.83385446150004
 21
0.5142745237999975
 31
0.0
  0
LINE
  5
10E6
  8
1
 10
43.87155242860007
 20
1.152481489299987
 30
0.0
 11
44.83385446150004
 21
0.5142745237999975
 31
0.0
  0
LINE
  5
10E7
  8
1
 10
42.83769796710004
 20
0.6382069654999896
 30
0.0
 11
43.87155242860007
 21
1.152481489299987
 31
0.0
  0
LINE
  5
10E8
  8
1
 10
42.83769796710004
 20
0.6382069654999896
 30
0.0
 11
42.76614553860003
 21
-0.5142745239000135
 31
0.0
  0
LINE
  5
10E9
  8
1
 10
43.7284475715
 20
-1.152481489400003
 30
0.0
 11
42.76614553860003
 21
-0.5142745239000135
 31
0.0
  0
LINE
  5
10EA
  8
1
 10
43.7284475715
 20
-1.152481489400003
 30
0.0
 11
44.76230203289998
 21
-0.638206965500018
 31
0.0
  0
LINE
  5
1113
  8
1
 10
35.05000000000001
 20
-26.80000000000001
 30
0.0
 11
35.05000000000001
 21
26.79999999999998
 31
0.0
  0
CIRCLE
  5
1114
  8
1
 10
43.80000000000001
 20
0.0
 30
0.0
 40
2.249999999999773
  0
LINE
  5
1115
  8
1
 10
50.80000000000001
 20
0.0
 30
0.0
 11
50.80000000000001
 21
26.79999999999998
 31
0.0
  0
LINE
  5
1116
  8
1
 10
50.80000000000001
 20
-26.80000000000001
 30
0.0
 11
50.80000000000001
 21
0.0
 31
0.0
  0
POLYLINE
  5
1121
  8
3
 66
     1
 10
0.0
 20
0.0
 30
0.0
 70
   128
  0
VERTEX
  5
1BF2
  8
3
 10
42.00931154520009
 20
18.24219684989998
 30
0.0
  0
VERTEX
  5
1BF3
  8
3
 10
42.35141986390005
 20
18.48631744099998
 30
0.0
  0
VERTEX
  5
1BF4
  8
3
 10
42.82224088470008
 20
18.6691733406
 30
0.0
  0
VERTEX
  5
1BF5
  8
3
 10
43.37994009380003
 20
18.77451699949998
 30
0.0
  0
VERTEX
  5
1BF6
  8
3
 10
43.97496346890006
 20
18.79298817149999
 30
0.0
  0
VERTEX
  5
1BF7
  8
3
 10
44.55444057200003
 20
18.72294561179999
 30
0.0
  0
VERTEX
  5
1BF8
  8
3
 10
45.06688231950005
 20
18.57061290909999
 30
0.0
  0
VERTEX
  5
1BF9
  8
3
 10
45.46675601320004
 20
18.3495254927
 30
0.0
  0
VERTEX
  5
1BFA
  8
3
 10
45.71853112080004
 20
18.07932794979999
 30
0.0
  0
VERTEX
  5
1BFB
  8
3
 10
45.79983631890008
 20
17.78402851759998
 30
0.0
  0
VERTEX
  5
1BFC
  8
3
 10
45.70344728399999
 20
17.4898658468
 30
0.0
  0
VERTEX
  5
1BFD
  8
3
 10
45.43792860470006
 20
17.22297758149998
 30
0.0
  0
VERTEX
  5
1BFE
  8
3
 10
45.02687278100001
 20
17.0070779152
 30
0.0
  0
VERTEX
  5
1BFF
  8
3
 10
44.5068039267
 20
16.8613504809
 30
0.0
  0
VERTEX
  5
1C00
  8
3
 10
43.92393244170006
 20
16.79874380059999
 30
0.0
  0
VERTEX
  5
1C01
  8
3
 10
43.33004901539999
 20
16.82482075249999
 30
0.0
  0
VERTEX
  5
1C02
  8
3
 10
42.77792279639999
 20
16.937264285
 30
0.0
  0
VERTEX
  5
1C03
  8
3
 10
42.31661262230006
 20
17.12608329689999
 30
0.0
  0
VERTEX
  5
1C04
  8
3
 10
41.98710792640003
 20
17.37450039019998
 30
0.0
  0
VERTEX
  5
1C05
  8
3
 10
41.81868664710004
 20
17.66044261619999
 30
0.0
  0
VERTEX
  5
1C06
  8
3
 10
41.82631375390002
 20
17.95850275319998
 30
0.0
  0
VERTEX
  5
1C07
  8
3
 10
42.00931154520009
 20
18.24219684989998
 30
0.0
  0
SEQEND
  5
1D75
  8
3
  0
POLYLINE
  5
1122
  8
3
 66
     1
 10
0.0
 20
0.0
 30
0.0
 70
   128
  0
VERTEX
  5
1C08
  8
3
 10
42.68081971570001
 20
17.42566224619998
 30
0.0
  0
VERTEX
  5
1C09
  8
3
 10
42.97905918970008
 20
17.61861928619999
 30
0.0
  0
VERTEX
  5
1C0A
  8
3
 10
43.40227946010003
 20
17.7398226933
 30
0.0
  0
VERTEX
  5
1C0B
  8
3
 10
43.88604907740006
 20
17.77082034759999
 30
0.0
  0
VERTEX
  5
1C0C
  8
3
 10
44.35671850270006
 20
17.70689313699998
 30
0.0
  0
VERTEX
  5
1C0D
  8
3
 10
44.74263258270008
 20
17.55777340009999
 30
0.0
  0
VERTEX
  5
1C0E
  8
3
 10
44.98503939690005
 20
17.3461632648
 30
0.0
  0
VERTEX
  5
1C0F
  8
3
 10
45.04703470530006
 20
17.10427845619998
 30
0.0
  0
VERTEX
  5
1C10
  8
3
 10
44.91918028430001
 20
16.86894374349998
 30
0.0
  0
VERTEX
  5
1C11
  8
3
 10
44.62094081039999
 20
16.67598670359999
 30
0.0
  0
VERTEX
  5
1C12
  8
3
 10
44.19772053989999
 20
16.55478329649998
 30
0.0
  0
VERTEX
  5
1C13
  8
3
 10
43.71395092260008
 20
16.52378564219998
 30
0.0
  0
VERTEX
  5
1C14
  8
3
 10
43.24328149730007
 20
16.5877128528
 30
0.0
  0
VERTEX
  5
1C15
  8
3
 10
42.85736741739998
 20
16.73683258969999
 30
0.0
  0
VERTEX
  5
1C16
  8
3
 10
42.61496060310009
 20
16.94844272489999
 30
0.0
  0
VERTEX
  5
1C17
  8
3
 10
42.55296529470007
 20
17.1903275336
 30
0.0
  0
VERTEX
  5
1C18
  8
3
 10
42.68081971570001
 20
17.42566224619998
 30
0.0
  0
SEQEND
  5
1D76
  8
3
  0
POLYLINE
  5
1123
  8
3
 66
     1
 10
0.0
 20
0.0
 30
0.0
 70
   128
  0
VERTEX
  5
1C19
  8
3
 10
42.00931154520009
 20
24.3258810273
 30
0.0
  0
VERTEX
  5
1C1A
  8
3
 10
42.35141986390005
 20
24.5700016184
 30
0.0
  0
VERTEX
  5
1C1B
  8
3
 10
42.82224088470008
 20
24.75285751799998
 30
0.0
  0
VERTEX
  5
1C1C
  8
3
 10
43.37994009380003
 20
24.85820117699998
 30
0.0
  0
VERTEX
  5
1C1D
  8
3
 10
43.97496346890006
 20
24.87667234889997
 30
0.0
  0
VERTEX
  5
1C1E
  8
3
 10
44.55444057200003
 20
24.80662978919997
 30
0.0
  0
VERTEX
  5
1C1F
  8
3
 10
45.06688231950005
 20
24.6542970866
 30
0.0
  0
VERTEX
  5
1C20
  8
3
 10
45.46675601320004
 20
24.4332096702
 30
0.0
  0
VERTEX
  5
1C21
  8
3
 10
45.71853112080004
 20
24.16301212719998
 30
0.0
  0
VERTEX
  5
1C22
  8
3
 10
45.79983631890008
 20
23.86771269509998
 30
0.0
  0
VERTEX
  5
1C23
  8
3
 10
45.70344728399999
 20
23.57355002419999
 30
0.0
  0
VERTEX
  5
1C24
  8
3
 10
45.43792860470006
 20
23.30666175889999
 30
0.0
  0
VERTEX
  5
1C25
  8
3
 10
45.02687278100001
 20
23.09076209269998
 30
0.0
  0
VERTEX
  5
1C26
  8
3
 10
44.5068039267
 20
22.94503465839998
 30
0.0
  0
VERTEX
  5
1C27
  8
3
 10
43.92393244170006
 20
22.88242797799998
 30
0.0
  0
VERTEX
  5
1C28
  8
3
 10
43.33004901539999
 20
22.90850492989998
 30
0.0
  0
VERTEX
  5
1C29
  8
3
 10
42.77792279639999
 20
23.02094846239999
 30
0.0
  0
VERTEX
  5
1C2A
  8
3
 10
42.31661262230006
 20
23.20976747429998
 30
0.0
  0
VERTEX
  5
1C2B
  8
3
 10
41.98710792640003
 20
23.45818456769999
 30
0.0
  0
VERTEX
  5
1C2C
  8
3
 10
41.81868664710004
 20
23.74412679359997
 30
0.0
  0
VERTEX
  5
1C2D
  8
3
 10
41.82631375390002
 20
24.0421869306
 30
0.0
  0
VERTEX
  5
1C2E
  8
3
 10
42.00931154520009
 20
24.3258810273
 30
0.0
  0
SEQEND
  5
1D77
  8
3
  0
LINE
  5
1124
  8
3
 10
43.7284475715
 20
22.65988854109997
 30
0.0
 11
42.76614553860003
 21
22.34078505839997
 31
0.0
  0
LINE
  5
1125
  8
3
 10
43.7284475715
 20
22.65988854109997
 30
0.0
 11
43.7284475715
 21
24.65174696979997
 31
0.0
  0
LINE
  5
1126
  8
3
 10
43.7284475715
 20
22.65988854109997
 30
0.0
 11
44.76230203289998
 21
22.40275127919998
 31
0.0
  0
LINE
  5
1127
  8
3
 10
43.7284475715
 20
24.65174696979997
 30
0.0
 11
44.76230203289998
 21
24.39460970789997
 31
0.0
  0
LINE
  5
1128
  8
3
 10
43.7284475715
 20
24.65174696979997
 30
0.0
 11
42.76614553860003
 21
24.3326434871
 31
0.0
  0
POLYLINE
  5
1129
  8
3
 66
     1
 10
0.0
 20
0.0
 30
0.0
 70
   128
  0
VERTEX
  5
1C2F
  8
3
 10
42.35849579390009
 20
24.43403294089998
 30
0.0
  0
VERTEX
  5
1C30
  8
3
 10
42.66942733640002
 20
24.64863479979999
 30
0.0
  0
VERTEX
  5
1C31
  8
3
 10
43.10287396979999
 20
24.80112928469998
 30
0.0
  0
VERTEX
  5
1C32
  8
3
 10
43.61186502549998
 20
24.8749912518
 30
0.0
  0
VERTEX
  5
1C33
  8
3
 10
44.14124342489998
 20
24.86221661099998
 30
0.0
  0
VERTEX
  5
1C34
  8
3
 10
44.6336428043
 20
24.76418969289998
 30
0.0
  0
VERTEX
  5
1C35
  8
3
 10
45.03570405060003
 20
24.59153323499999
 30
0.0
  0
VERTEX
  5
1C36
  8
3
 10
45.30385758910001
 20
24.36295724359999
 30
0.0
  0
VERTEX
  5
1C37
  8
3
 10
45.40904482299999
 20
24.1032314741
 30
0.0
  0
VERTEX
  5
1C38
  8
3
 10
45.33986708340007
 20
23.84050124359999
 30
0.0
  0
VERTEX
  5
1C39
  8
3
 10
45.10382085190002
 20
23.60323744939998
 30
0.0
  0
VERTEX
  5
1C3A
  8
3
 10
44.72648540020003
 20
23.41715130509999
 30
0.0
  0
VERTEX
  5
1C3B
  8
3
 10
44.24875087950005
 20
23.30240813179998
 30
0.0
  0
VERTEX
  5
1C3C
  8
3
 10
43.72238723790002
 20
23.27144213269997
 30
0.0
  0
VERTEX
  5
1C3D
  8
3
 10
43.20443414340008
 20
23.32760895439998
 30
0.0
  0
VERTEX
  5
1C3E
  8
3
 10
42.75101985060002
 20
23.46482205019998
 30
0.0
  0
VERTEX
  5
1C3F
  8
3
 10
42.41127883360008
 20
23.66821225209998
 30
0.0
  0
VERTEX
  5
1C40
  8
3
 10
42.22202730320004
 20
23.91573907589998
 30
0.0
  0
VERTEX
  5
1C41
  8
3
 10
42.20377359920002
 20
24.18057914919999
 30
0.0
  0
VERTEX
  5
1C42
  8
3
 10
42.35849579390009
 20
24.43403294089998
 30
0.0
  0
SEQEND
  5
1D78
  8
3
  0
LINE
  5
112A
  8
3
 10
44.76230203289998
 20
24.39460970789997
 30
0.0
 11
44.83385446150004
 21
23.81836896319999
 31
0.0
  0
LINE
  5
112B
  8
3
 10
44.76230203289998
 20
22.40275127919998
 30
0.0
 11
44.76230203289998
 21
24.39460970789997
 31
0.0
  0
LINE
  5
112C
  8
3
 10
44.76230203289998
 20
22.40275127919998
 30
0.0
 11
44.83385446150004
 21
21.82651053449999
 31
0.0
  0
LINE
  5
112D
  8
3
 10
42.83769796710004
 20
21.76454431369999
 30
0.0
 11
42.83769796710004
 21
23.75640274239998
 31
0.0
  0
LINE
  5
112E
  8
3
 10
42.83769796710004
 20
23.75640274239998
 30
0.0
 11
42.76614553860003
 21
24.3326434871
 31
0.0
  0
LINE
  5
112F
  8
3
 10
42.76614553860003
 20
22.34078505839997
 30
0.0
 11
42.76614553860003
 21
24.3326434871
 31
0.0
  0
LINE
  5
1130
  8
3
 10
42.83769796710004
 20
21.76454431369999
 30
0.0
 11
42.76614553860003
 21
22.34078505839997
 31
0.0
  0
LINE
  5
1131
  8
3
 10
43.87155242860007
 20
21.50740705179999
 30
0.0
 11
43.87155242860007
 21
23.49926548049999
 31
0.0
  0
LINE
  5
1132
  8
3
 10
44.83385446150004
 20
21.82651053449999
 30
0.0
 11
44.83385446150004
 21
23.81836896319999
 31
0.0
  0
LINE
  5
1133
  8
3
 10
43.87155242860007
 20
23.49926548049999
 30
0.0
 11
44.83385446150004
 21
23.81836896319999
 31
0.0
  0
LINE
  5
1134
  8
3
 10
43.87155242860007
 20
21.50740705179999
 30
0.0
 11
44.83385446150004
 21
21.82651053449999
 31
0.0
  0
LINE
  5
1135
  8
3
 10
42.83769796710004
 20
23.75640274239998
 30
0.0
 11
43.87155242860007
 21
23.49926548049999
 31
0.0
  0
LINE
  5
1136
  8
3
 10
42.83769796710004
 20
21.76454431369999
 30
0.0
 11
43.87155242860007
 21
21.50740705179999
 31
0.0
  0
POLYLINE
  5
1137
  8
3
 66
     1
 10
0.0
 20
0.0
 30
0.0
 70
   128
  0
VERTEX
  5
1C43
  8
3
 10
42.00931154520009
 20
-17.35144724560001
 30
0.0
  0
VERTEX
  5
1C44
  8
3
 10
42.35141986390005
 20
-17.10732665460002
 30
0.0
  0
VERTEX
  5
1C45
  8
3
 10
42.82224088470008
 20
-16.92447075500002
 30
0.0
  0
VERTEX
  5
1C46
  8
3
 10
43.37994009380003
 20
-16.81912709600002
 30
0.0
  0
VERTEX
  5
1C47
  8
3
 10
43.97496346890006
 20
-16.80065592400001
 30
0.0
  0
VERTEX
  5
1C48
  8
3
 10
44.55444057200003
 20
-16.87069848380001
 30
0.0
  0
VERTEX
  5
1C49
  8
3
 10
45.06688231950005
 20
-17.02303118640002
 30
0.0
  0
VERTEX
  5
1C4A
  8
3
 10
45.46675601320004
 20
-17.24411860280001
 30
0.0
  0
VERTEX
  5
1C4B
  8
3
 10
45.71853112080004
 20
-17.51431614580001
 30
0.0
  0
VERTEX
  5
1C4C
  8
3
 10
45.79983631890008
 20
-17.80961557790002
 30
0.0
  0
VERTEX
  5
1C4D
  8
3
 10
45.70344728399999
 20
-18.10377824880001
 30
0.0
  0
VERTEX
  5
1C4E
  8
3
 10
45.43792860470006
 20
-18.37066651410001
 30
0.0
  0
VERTEX
  5
1C4F
  8
3
 10
45.02687278100001
 20
-18.58656618030001
 30
0.0
  0
VERTEX
  5
1C50
  8
3
 10
44.5068039267
 20
-18.73229361460001
 30
0.0
  0
VERTEX
  5
1C51
  8
3
 10
43.92393244170006
 20
-18.79490029500002
 30
0.0
  0
VERTEX
  5
1C52
  8
3
 10
43.33004901539999
 20
-18.76882334310001
 30
0.0
  0
VERTEX
  5
1C53
  8
3
 10
42.77792279639999
 20
-18.65637981050001
 30
0.0
  0
VERTEX
  5
1C54
  8
3
 10
42.31661262230006
 20
-18.46756079870001
 30
0.0
  0
VERTEX
  5
1C55
  8
3
 10
41.98710792640003
 20
-18.21914370530001
 30
0.0
  0
VERTEX
  5
1C56
  8
3
 10
41.81868664710004
 20
-17.93320147930001
 30
0.0
  0
VERTEX
  5
1C57
  8
3
 10
41.82631375390002
 20
-17.63514134240002
 30
0.0
  0
VERTEX
  5
1C58
  8
3
 10
42.00931154520009
 20
-17.35144724560001
 30
0.0
  0
SEQEND
  5
1D79
  8
3
  0
POLYLINE
  5
1138
  8
3
 66
     1
 10
0.0
 20
0.0
 30
0.0
 70
   128
  0
VERTEX
  5
1C59
  8
3
 10
42.68081971570001
 20
-16.86894374360001
 30
0.0
  0
VERTEX
  5
1C5A
  8
3
 10
42.97905918970008
 20
-16.67598670360002
 30
0.0
  0
VERTEX
  5
1C5B
  8
3
 10
43.40227946010003
 20
-16.55478329650002
 30
0.0
  0
VERTEX
  5
1C5C
  8
3
 10
43.88604907740006
 20
-16.52378564230001
 30
0.0
  0
VERTEX
  5
1C5D
  8
3
 10
44.35671850270006
 20
-16.58771285280001
 30
0.0
  0
VERTEX
  5
1C5E
  8
3
 10
44.74263258270008
 20
-16.73683258980002
 30
0.0
  0
VERTEX
  5
1C5F
  8
3
 10
44.98503939690005
 20
-16.94844272500001
 30
0.0
  0
VERTEX
  5
1C60
  8
3
 10
45.04703470530006
 20
-17.19032753370001
 30
0.0
  0
VERTEX
  5
1C61
  8
3
 10
44.91918028430001
 20
-17.42566224630001
 30
0.0
  0
VERTEX
  5
1C62
  8
3
 10
44.62094081039999
 20
-17.61861928630002
 30
0.0
  0
VERTEX
  5
1C63
  8
3
 10
44.19772053989999
 20
-17.73982269340001
 30
0.0
  0
VERTEX
  5
1C64
  8
3
 10
43.71395092260008
 20
-17.77082034760001
 30
0.0
  0
VERTEX
  5
1C65
  8
3
 10
43.24328149730007
 20
-17.70689313710001
 30
0.0
  0
VERTEX
  5
1C66
  8
3
 10
42.85736741739998
 20
-17.55777340020002
 30
0.0
  0
VERTEX
  5
1C67
  8
3
 10
42.61496060310009
 20
-17.34616326490001
 30
0.0
  0
VERTEX
  5
1C68
  8
3
 10
42.55296529470007
 20
-17.10427845630001
 30
0.0
  0
VERTEX
  5
1C69
  8
3
 10
42.68081971570001
 20
-16.86894374360001
 30
0.0
  0
SEQEND
  5
1D7A
  8
3
  0
POLYLINE
  5
1139
  8
3
 66
     1
 10
0.0
 20
0.0
 30
0.0
 70
   128
  0
VERTEX
  5
1C6A
  8
3
 10
42.00931154520009
 20
-23.43513142310002
 30
0.0
  0
VERTEX
  5
1C6B
  8
3
 10
42.35141986390005
 20
-23.19101083200002
 30
0.0
  0
VERTEX
  5
1C6C
  8
3
 10
42.82224088470008
 20
-23.00815493240002
 30
0.0
  0
VERTEX
  5
1C6D
  8
3
 10
43.37994009380003
 20
-22.90281127340002
 30
0.0
  0
VERTEX
  5
1C6E
  8
3
 10
43.97496346890006
 20
-22.88434010150002
 30
0.0
  0
VERTEX
  5
1C6F
  8
3
 10
44.55444057200003
 20
-22.95438266120001
 30
0.0
  0
VERTEX
  5
1C70
  8
3
 10
45.06688231950005
 20
-23.10671536390001
 30
0.0
  0
VERTEX
  5
1C71
  8
3
 10
45.46675601320004
 20
-23.32780278020002
 30
0.0
  0
VERTEX
  5
1C72
  8
3
 10
45.71853112080004
 20
-23.59800032320001
 30
0.0
  0
VERTEX
  5
1C73
  8
3
 10
45.79983631890008
 20
-23.89329975540001
 30
0.0
  0
VERTEX
  5
1C74
  8
3
 10
45.70344728399999
 20
-24.18746242620001
 30
0.0
  0
VERTEX
  5
1C75
  8
3
 10
45.43792860470006
 20
-24.45435069150001
 30
0.0
  0
VERTEX
  5
1C76
  8
3
 10
45.02687278100001
 20
-24.67025035770001
 30
0.0
  0
VERTEX
  5
1C77
  8
3
 10
44.5068039267
 20
-24.81597779210001
 30
0.0
  0
VERTEX
  5
1C78
  8
3
 10
43.92393244170006
 20
-24.87858447240001
 30
0.0
  0
VERTEX
  5
1C79
  8
3
 10
43.33004901539999
 20
-24.85250752050001
 30
0.0
  0
VERTEX
  5
1C7A
  8
3
 10
42.77792279639999
 20
-24.74006398800002
 30
0.0
  0
VERTEX
  5
1C7B
  8
3
 10
42.31661262230006
 20
-24.55124497610001
 30
0.0
  0
VERTEX
  5
1C7C
  8
3
 10
41.98710792640003
 20
-24.30282788270002
 30
0.0
  0
VERTEX
  5
1C7D
  8
3
 10
41.81868664710004
 20
-24.01688565680001
 30
0.0
  0
VERTEX
  5
1C7E
  8
3
 10
41.82631375390002
 20
-23.71882551980001
 30
0.0
  0
VERTEX
  5
1C7F
  8
3
 10
42.00931154520009
 20
-23.43513142310002
 30
0.0
  0
SEQEND
  5
1D7B
  8
3
  0
LINE
  5
113A
  8
3
 10
43.87155242860007
 20
-22.65988854120002
 30
0.0
 11
44.83385446150004
 21
-22.34078505850002
 31
0.0
  0
LINE
  5
113B
  8
3
 10
42.83769796710004
 20
-22.40275127930002
 30
0.0
 11
43.87155242860007
 21
-22.65988854120002
 31
0.0
  0
LINE
  5
113C
  8
3
 10
43.87155242860007
 20
-22.65988854120002
 30
0.0
 11
43.87155242860007
 21
-24.65174696990002
 31
0.0
  0
LINE
  5
113D
  8
3
 10
42.83769796710004
 20
-24.39460970800002
 30
0.0
 11
43.87155242860007
 21
-24.65174696990002
 31
0.0
  0
LINE
  5
113E
  8
3
 10
43.87155242860007
 20
-24.65174696990002
 30
0.0
 11
44.83385446150004
 21
-24.33264348720002
 31
0.0
  0
POLYLINE
  5
113F
  8
3
 66
     1
 10
0.0
 20
0.0
 30
0.0
 70
   128
  0
VERTEX
  5
1C80
  8
3
 10
42.35849579390009
 20
-23.71697950950001
 30
0.0
  0
VERTEX
  5
1C81
  8
3
 10
42.66942733640002
 20
-23.50237765060001
 30
0.0
  0
VERTEX
  5
1C82
  8
3
 10
43.10287396979999
 20
-23.34988316570001
 30
0.0
  0
VERTEX
  5
1C83
  8
3
 10
43.61186502549998
 20
-23.27602119860002
 30
0.0
  0
VERTEX
  5
1C84
  8
3
 10
44.14124342489998
 20
-23.28879583940001
 30
0.0
  0
VERTEX
  5
1C85
  8
3
 10
44.6336428043
 20
-23.38682275750001
 30
0.0
  0
VERTEX
  5
1C86
  8
3
 10
45.03570405060003
 20
-23.55947921540002
 30
0.0
  0
VERTEX
  5
1C87
  8
3
 10
45.30385758910001
 20
-23.78805520690001
 30
0.0
  0
VERTEX
  5
1C88
  8
3
 10
45.40904482299999
 20
-24.04778097640002
 30
0.0
  0
VERTEX
  5
1C89
  8
3
 10
45.33986708340007
 20
-24.31051120680002
 30
0.0
  0
VERTEX
  5
1C8A
  8
3
 10
45.10382085190002
 20
-24.54777500100002
 30
0.0
  0
VERTEX
  5
1C8B
  8
3
 10
44.72648540020003
 20
-24.73386114530001
 30
0.0
  0
VERTEX
  5
1C8C
  8
3
 10
44.24875087950005
 20
-24.84860431870001
 30
0.0
  0
VERTEX
  5
1C8D
  8
3
 10
43.72238723790002
 20
-24.87957031770001
 30
0.0
  0
VERTEX
  5
1C8E
  8
3
 10
43.20443414340008
 20
-24.82340349600001
 30
0.0
  0
VERTEX
  5
1C8F
  8
3
 10
42.75101985060002
 20
-24.68619040020002
 30
0.0
  0
VERTEX
  5
1C90
  8
3
 10
42.41127883360008
 20
-24.48280019830001
 30
0.0
  0
VERTEX
  5
1C91
  8
3
 10
42.22202730320004
 20
-24.23527337460001
 30
0.0
  0
VERTEX
  5
1C92
  8
3
 10
42.20377359920002
 20
-23.97043330120002
 30
0.0
  0
VERTEX
  5
1C93
  8
3
 10
42.35849579390009
 20
-23.71697950950001
 30
0.0
  0
SEQEND
  5
1D7C
  8
3
  0
LINE
  5
1140
  8
3
 10
42.83769796710004
 20
-24.39460970800002
 30
0.0
 11
42.76614553860003
 21
-23.81836896330002
 31
0.0
  0
LINE
  5
1141
  8
3
 10
42.83769796710004
 20
-22.40275127930002
 30
0.0
 11
42.83769796710004
 21
-24.39460970800002
 31
0.0
  0
LINE
  5
1142
  8
3
 10
42.83769796710004
 20
-22.40275127930002
 30
0.0
 11
42.76614553860003
 21
-21.82651053460002
 31
0.0
  0
LINE
  5
1143
  8
3
 10
44.76230203289998
 20
-21.76454431380002
 30
0.0
 11
44.76230203289998
 21
-23.75640274250001
 31
0.0
  0
LINE
  5
1144
  8
3
 10
44.76230203289998
 20
-23.75640274250001
 30
0.0
 11
44.83385446150004
 21
-24.33264348720002
 31
0.0
  0
LINE
  5
1145
  8
3
 10
44.76230203289998
 20
-21.76454431380002
 30
0.0
 11
44.83385446150004
 21
-22.34078505850002
 31
0.0
  0
LINE
  5
1146
  8
3
 10
44.83385446150004
 20
-22.34078505850002
 30
0.0
 11
44.83385446150004
 21
-24.33264348720002
 31
0.0
  0
LINE
  5
1147
  8
3
 10
43.7284475715
 20
-21.50740705190002
 30
0.0
 11
43.7284475715
 21
-23.49926548060002
 31
0.0
  0
LINE
  5
1148
  8
3
 10
42.76614553860003
 20
-21.82651053460002
 30
0.0
 11
42.76614553860003
 21
-23.81836896330002
 31
0.0
  0
LINE
  5
1149
  8
3
 10
43.7284475715
 20
-23.49926548060002
 30
0.0
 11
42.76614553860003
 21
-23.81836896330002
 31
0.0
  0
LINE
  5
114A
  8
3
 10
43.7284475715
 20
-21.50740705190002
 30
0.0
 11
42.76614553860003
 21
-21.82651053460002
 31
0.0
  0
LINE
  5
114B
  8
3
 10
43.7284475715
 20
-23.49926548060002
 30
0.0
 11
44.76230203289998
 21
-23.75640274250001
 31
0.0
  0
LINE
  5
114C
  8
3
 10
43.7284475715
 20
-21.50740705190002
 30
0.0
 11
44.76230203289998
 21
-21.76454431380002
 31
0.0
  0
CIRCLE
  5
114D
  8
3
 10
43.80000000000001
 20
0.0
 30
0.0
 40
1.249999999999987
  0
LINE
  5
114E
  8
3
 10
49.98085000000009
 20
0.0
 30
0.0
 11
49.98085000000009
 21
-6.350000000000023
 31
0.0
  0
LINE
  5
114F
  8
3
 10
49.98085000000009
 20
6.349999999999994
 30
0.0
 11
49.98085000000009
 21
0.0
 31
0.0
  0
LINE
  5
1150
  8
3
 10
49.22520000000003
 20
0.0
 30
0.0
 11
49.22520000000003
 21
-5.59435000000002
 31
0.0
  0
LINE
  5
1151
  8
3
 10
49.22520000000003
 20
5.594349999999991
 30
0.0
 11
49.22520000000003
 21
0.0
 31
0.0
  0
LINE
  5
115B
  8
3
 10
42.27916030500006
 20
-21.44300000000001
 30
0.0
 11
42.27916030500006
 21
-26.20931000000002
 31
0.0
  0
LINE
  5
115C
  8
3
 10
42.27916030500006
 20
-16.67669000000001
 30
0.0
 11
42.27916030500006
 21
-21.44300000000001
 31
0.0
  0
LINE
  5
115D
  8
3
 10
40.71620000000001
 20
-21.44300000000001
 30
0.0
 11
40.71620000000001
 21
-25.95150000000001
 31
0.0
  0
LINE
  5
115E
  8
3
 10
40.71620000000001
 20
-16.93450000000001
 30
0.0
 11
40.71620000000001
 21
-21.44300000000001
 31
0.0
  0
LINE
  5
115F
  8
3
 10
41.64103951060002
 20
-21.44300000000001
 30
0.0
 11
41.64103951060002
 21
-26.19931000000001
 31
0.0
  0
LINE
  5
1160
  8
3
 10
41.64103951060002
 20
-16.68669000000001
 30
0.0
 11
41.64103951060002
 21
-21.44300000000001
 31
0.0
  0
LINE
  5
1161
  8
3
 10
42.27916030500006
 20
26.20930999999999
 30
0.0
 11
42.27916030500006
 21
16.67668999999998
 31
0.0
  0
LINE
  5
1162
  8
3
 10
41.64103951060002
 20
26.19931
 30
0.0
 11
41.64103951060002
 21
16.68669
 31
0.0
  0
LINE
  5
1163
  8
3
 10
40.71620000000001
 20
25.95149999999998
 30
0.0
 11
40.71620000000001
 21
16.93449999999999
 31
0.0
  0
POLYLINE
  5
1164
  8
3
 66
     1
 10
0.0
 20
0.0
 30
0.0
 70
   128
  0
VERTEX
  5
1C94
  8
3
 10
43.80000000000001
 20
25.12152318559998
 30
0.0
  0
VERTEX
  5
1C95
  8
3
 10
43.05662030980005
 20
25.06698215089997
 30
0.0
  0
VERTEX
  5
1C96
  8
3
 10
42.39706871050004
 20
24.90679015499998
 30
0.0
  0
VERTEX
  5
1C97
  8
3
 10
41.89415399580008
 20
24.65118383479998
 30
0.0
  0
VERTEX
  5
1C98
  8
3
 10
41.60554175179999
 20
24.32008245189999
 30
0.0
  0
VERTEX
  5
1C99
  8
3
 10
41.56472360330002
 20
23.94598688249999
 30
0.0
  0
VERTEX
  5
1C9A
  8
3
 10
41.77469698800002
 20
23.57047534009999
 30
0.0
  0
VERTEX
  5
1C9B
  8
3
 10
42.21189774100009
 20
23.23896739439999
 30
0.0
  0
VERTEX
  5
1C9C
  8
3
 10
42.82919730300006
 20
22.99635236189999
 30
0.0
  0
VERTEX
  5
1C9D
  8
3
 10
43.55644361820003
 20
22.87906067319997
 30
0.0
  0
VERTEX
  5
1C9E
  8
3
 10
44.30923324860004
 20
22.90476719009999
 30
0.0
  0
VERTEX
  5
1C9F
  8
3
 10
45.0037036393
 20
23.0686816505
 30
0.0
  0
VERTEX
  5
1CA0
  8
3
 10
45.56430029059999
 20
23.34695157759998
 30
0.0
  0
VERTEX
  5
1CA1
  8
3
 10
45.92726655820007
 20
23.7006545079
 30
0.0
  0
VERTEX
  5
1CA2
  8
3
 10
46.04996460160004
 20
24.0818142812
 30
0.0
  0
VERTEX
  5
1CA3
  8
3
 10
45.91964496660006
 20
24.44399339389997
 30
0.0
  0
VERTEX
  5
1CA4
  8
3
 10
45.5518841384
 20
24.75037639479999
 30
0.0
  0
VERTEX
  5
1CA5
  8
3
 10
44.9861766848
 20
24.97446703559999
 30
0.0
  0
VERTEX
  5
1CA6
  8
3
 10
44.2856231952
 20
25.09869247419999
 30
0.0
  0
VERTEX
  5
1CA7
  8
3
 10
43.80000000000001
 20
25.12152318559998
 30
0.0
  0
SEQEND
  5
1D7D
  8
3
  0
POLYLINE
  5
1165
  8
3
 66
     1
 10
0.0
 20
0.0
 30
0.0
 70
   128
  0
VERTEX
  5
1CA8
  8
3
 10
43.80000000000001
 20
-22.87152318570001
 30
0.0
  0
VERTEX
  5
1CA9
  8
3
 10
43.05662030980005
 20
-22.94333278340001
 30
0.0
  0
VERTEX
  5
1CAA
  8
3
 10
42.39706871050004
 20
-23.14773251050001
 30
0.0
  0
VERTEX
  5
1CAB
  8
3
 10
41.89415399580008
 20
-23.45525281330001
 30
0.0
  0
VERTEX
  5
1CAC
  8
3
 10
41.60554175179999
 20
-23.82323942160001
 30
0.0
  0
VERTEX
  5
1CAD
  8
3
 10
41.56472360330002
 20
-24.20296826410001
 30
0.0
  0
VERTEX
  5
1CAE
  8
3
 10
41.77469698800002
 20
-24.55060171430002
 30
0.0
  0
VERTEX
  5
1CAF
  8
3
 10
42.21189774100009
 20
-24.83284041800002
 30
0.0
  0
VERTEX
  5
1CB0
  8
3
 10
42.82919730300006
 20
-25.02614105140002
 30
0.0
  0
VERTEX
  5
1CB1
  8
3
 10
43.55644361820003
 20
-25.11583967190002
 30
0.0
  0
VERTEX
  5
1CB2
  8
3
 10
44.30923324860004
 20
-25.09638337430002
 30
0.0
  0
VERTEX
  5
1CB3
  8
3
 10
45.0037036393
 20
-24.96962813820001
 30
0.0
  0
VERTEX
  5
1CB4
  8
3
 10
45.56430029059999
 20
-24.74328408980001
 30
0.0
  0
VERTEX
  5
1CB5
  8
3
 10
45.92726655820007
 20
-24.43361903000002
 30
0.0
  0
VERTEX
  5
1CB6
  8
3
 10
46.04996460160004
 20
-24.06919320700001
 30
0.0
  0
VERTEX
  5
1CB7
  8
3
 10
45.91964496660006
 20
-23.68927144820002
 30
0.0
  0
VERTEX
  5
1CB8
  8
3
 10
45.5518841384
 20
-23.33849751700001
 30
0.0
  0
VERTEX
  5
1CB9
  8
3
 10
44.9861766848
 20
-23.06253480030001
 30
0.0
  0
VERTEX
  5
1CBA
  8
3
 10
44.2856231952
 20
-22.90172408300002
 30
0.0
  0
VERTEX
  5
1CBB
  8
3
 10
43.80000000000001
 20
-22.87152318570001
 30
0.0
  0
SEQEND
  5
1D7E
  8
3
  0
CIRCLE
  5
1166
  8
3
 10
43.80000000000001
 20
0.0
 30
0.0
 40
1.650000000000006
  0
LINE
  5
1169
  8
3
 10
43.80000000000001
 20
1.75
 30
0.0
 11
43.80000000000001
 21
1.649999999999977
 31
0.0
  0
LINE
  5
116A
  8
3
 10
43.80000000000001
 20
-1.650000000000006
 30
0.0
 11
43.80000000000001
 21
-1.75
 31
0.0
  0
LINE
  5
1173
  8
3
 10
-8.249999999999972
 20
0.0
 30
0.0
 11
-8.249999999999972
 21
6.700000000000004
 31
0.0
  0
LINE
  5
1174
  8
3
 10
-8.249999999999972
 20
-6.700000000000003
 30
0.0
 11
-8.249999999999972
 21
0.0
 31
0.0
  0
LINE
  5
1175
  8
3
 10
-7.689018500200035
 20
0.0
 30
0.0
 11
-7.689018500200035
 21
-5.754370000000023
 31
0.0
  0
LINE
  5
1176
  8
3
 10
-7.689018500200035
 20
5.754369999999994
 30
0.0
 11
-7.689018500200035
 21
0.0
 31
0.0
  0
POLYLINE
  5
1179
  8
3
 66
     1
 10
0.0
 20
0.0
 30
0.0
 70
   128
  0
VERTEX
  5
1CBC
  8
3
 10
43.80000000000001
 20
5.599170668499994
 30
0.0
  0
VERTEX
  5
1CBD
  8
3
 10
44.33328761080003
 20
5.577178781699985
 30
0.0
  0
VERTEX
  5
1CBE
  8
3
 10
44.80619937540001
 20
5.506890582199986
 30
0.0
  0
VERTEX
  5
1CBF
  8
3
 10
45.17964787600005
 20
5.373922949600001
 30
0.0
  0
VERTEX
  5
1CC0
  8
3
 10
45.40337080659998
 20
5.166746755299982
 30
0.0
  0
VERTEX
  5
1CC1
  8
3
 10
45.44231430780002
 20
4.901990443799974
 30
0.0
  0
VERTEX
  5
1CC2
  8
3
 10
45.305979949
 20
4.612017624499998
 30
0.0
  0
VERTEX
  5
1CC3
  8
3
 10
45.01072289339999
 20
4.327451843999995
 30
0.0
  0
VERTEX
  5
1CC4
  8
3
 10
44.57157427750002
 20
4.091463836299994
 30
0.0
  0
VERTEX
  5
1CC5
  8
3
 10
44.03786505090005
 20
3.962230515499982
 30
0.0
  0
VERTEX
  5
1CC6
  8
3
 10
43.49382359769999
 20
3.970856425999983
 30
0.0
  0
VERTEX
  5
1CC7
  8
3
 10
42.99606914820009
 20
4.104218921899985
 30
0.0
  0
VERTEX
  5
1CC8
  8
3
 10
42.57405813500003
 20
4.338628126199978
 30
0.0
  0
VERTEX
  5
1CC9
  8
3
 10
42.27570082410006
 20
4.637477207099977
 30
0.0
  0
VERTEX
  5
1CCA
  8
3
 10
42.15232165320009
 20
4.93910498309998
 30
0.0
  0
VERTEX
  5
1CCB
  8
3
 10
42.21205183630008
 20
5.192409302099975
 30
0.0
  0
VERTEX
  5
1CCC
  8
3
 10
42.43690704919999
 20
5.382835439699988
 30
0.0
  0
VERTEX
  5
1CCD
  8
3
 10
42.81420803280008
 20
5.511474322199973
 30
0.0
  0
VERTEX
  5
1CCE
  8
3
 10
43.31465760380007
 20
5.581139607799997
 30
0.0
  0
VERTEX
  5
1CCF
  8
3
 10
43.80000000000001
 20
5.599170668499994
 30
0.0
  0
SEQEND
  5
1D7F
  8
3
  0
POLYLINE
  5
117A
  8
3
 66
     1
 10
0.0
 20
0.0
 30
0.0
 70
   128
  0
VERTEX
  5
1CD0
  8
3
 10
43.80000000000001
 20
-3.949170668600004
 30
0.0
  0
VERTEX
  5
1CD1
  8
3
 10
44.33328761080003
 20
-4.015735755500003
 30
0.0
  0
VERTEX
  5
1CD2
  8
3
 10
44.80619937540001
 20
-4.199196880800002
 30
0.0
  0
VERTEX
  5
1CD3
  8
3
 10
45.17964787600005
 20
-4.468897127800005
 30
0.0
  0
VERTEX
  5
1CD4
  8
3
 10
45.40337080659998
 20
-4.777257273400011
 30
0.0
  0
VERTEX
  5
1CD5
  8
3
 10
45.44231430780002
 20
-5.061061856900011
 30
0.0
  0
VERTEX
  5
1CD6
  8
3
 10
45.305979949
 20
-5.286201867400024
 30
0.0
  0
VERTEX
  5
1CD7
  8
3
 10
45.01072289339999
 20
-5.448455892000027
 30
0.0
  0
VERTEX
  5
1CD8
  8
3
 10
44.57157427750002
 20
-5.549946998600007
 30
0.0
  0
VERTEX
  5
1CD9
  8
3
 10
44.03786505090005
 20
-5.594995109000024
 30
0.0
  0
VERTEX
  5
1CDA
  8
3
 10
43.49382359769999
 20
-5.59220031640001
 30
0.0
  0
VERTEX
  5
1CDB
  8
3
 10
42.99606914820009
 20
-5.545119746300003
 30
0.0
  0
VERTEX
  5
1CDC
  8
3
 10
42.57405813500003
 20
-5.442967994100002
 30
0.0
  0
VERTEX
  5
1CDD
  8
3
 10
42.27570082410006
 20
-5.269151191300011
 30
0.0
  0
VERTEX
  5
1CDE
  8
3
 10
42.15232165320009
 20
-5.026603927700023
 30
0.0
  0
VERTEX
  5
1CDF
  8
3
 10
42.21205183630008
 20
-4.744167593500009
 30
0.0
  0
VERTEX
  5
1CE0
  8
3
 10
42.43690704919999
 20
-4.453062560400014
 30
0.0
  0
VERTEX
  5
1CE1
  8
3
 10
42.81420803280008
 20
-4.188328753000008
 30
0.0
  0
VERTEX
  5
1CE2
  8
3
 10
43.31465760380007
 20
-4.004135245600025
 30
0.0
  0
VERTEX
  5
1CE3
  8
3
 10
43.80000000000001
 20
-3.949170668600004
 30
0.0
  0
SEQEND
  5
1D80
  8
3
  0
LINE
  5
117B
  8
3
 10
39.60000000000008
 20
26.20424999999997
 30
0.0
 11
39.60000000000008
 21
16.68174999999999
 31
0.0
  0
LINE
  5
117C
  8
3
 10
39.60000000000008
 20
-16.68175000000001
 30
0.0
 11
39.60000000000008
 21
-26.20425000000002
 31
0.0
  0
POLYLINE
  5
117F
  8
3
 66
     1
 10
0.0
 20
0.0
 30
0.0
 70
   128
  0
VERTEX
  5
1CE4
  8
3
 10
43.80000000000001
 20
8.3307597381
 30
0.0
  0
VERTEX
  5
1CE5
  8
3
 10
44.04615588450002
 20
8.278374396699974
 30
0.0
  0
VERTEX
  5
1CE6
  8
3
 10
44.38336586840006
 20
8.068142678399994
 30
0.0
  0
VERTEX
  5
1CE7
  8
3
 10
44.94374037450001
 20
7.493565616799998
 30
0.0
  0
VERTEX
  5
1CE8
  8
3
 10
45.25422504420004
 20
7.043656785999985
 30
0.0
  0
VERTEX
  5
1CE9
  8
3
 10
45.40869611520003
 20
6.712305987899981
 30
0.0
  0
VERTEX
  5
1CEA
  8
3
 10
45.44718134480007
 20
6.449290144399981
 30
0.0
  0
VERTEX
  5
1CEB
  8
3
 10
45.3741193683
 20
6.309675430799984
 30
0.0
  0
VERTEX
  5
1CEC
  8
3
 10
45.21172415720008
 20
6.260899641899982
 30
0.0
  0
VERTEX
  5
1CED
  8
3
 10
44.85032751570003
 20
6.334093831199993
 30
0.0
  0
VERTEX
  5
1CEE
  8
3
 10
44.26199977010009
 20
6.57446572149999
 30
0.0
  0
VERTEX
  5
1CEF
  8
3
 10
44.01396131810003
 20
6.654802368299983
 30
0.0
  0
VERTEX
  5
1CF0
  8
3
 10
43.80000000000001
 20
6.680759738099994
 30
0.0
  0
SEQEND
  5
1D81
  8
3
  0
POLYLINE
  5
1180
  8
3
 66
     1
 10
0.0
 20
0.0
 30
0.0
 70
   128
  0
VERTEX
  5
1CF1
  8
3
 10
43.80000000000001
 20
7.690710231899999
 30
0.0
  0
VERTEX
  5
1CF2
  8
3
 10
44.04615588450002
 20
7.74309557319998
 30
0.0
  0
VERTEX
  5
1CF3
  8
3
 10
44.38336586840006
 20
7.953327291599976
 30
0.0
  0
VERTEX
  5
1CF4
  8
3
 10
44.94374037450001
 20
8.5279043532
 30
0.0
  0
VERTEX
  5
1CF5
  8
3
 10
45.25422504420004
 20
8.977813183999984
 30
0.0
  0
VERTEX
  5
1CF6
  8
3
 10
45.40869611520003
 20
9.309163982000001
 30
0.0
  0
VERTEX
  5
1CF7
  8
3
 10
45.44718134480007
 20
9.572179825500001
 30
0.0
  0
VERTEX
  5
1CF8
  8
3
 10
45.3741193683
 20
9.711794539199985
 30
0.0
  0
VERTEX
  5
1CF9
  8
3
 10
45.21172415720008
 20
9.760570328099988
 30
0.0
  0
VERTEX
  5
1CFA
  8
3
 10
44.85032751570003
 20
9.687376138699989
 30
0.0
  0
VERTEX
  5
1CFB
  8
3
 10
44.26199977010009
 20
9.44700424849998
 30
0.0
  0
VERTEX
  5
1CFC
  8
3
 10
44.01396131810003
 20
9.366667601699987
 30
0.0
  0
VERTEX
  5
1CFD
  8
3
 10
43.80000000000001
 20
9.340710231899976
 30
0.0
  0
SEQEND
  5
1D82
  8
3
  0
LINE
  5
1181
  8
3
 10
43.80000000000001
 20
7.690710231899999
 30
0.0
 11
43.80000000000001
 21
6.680759738099994
 31
0.0
  0
POLYLINE
  5
1182
  8
3
 66
     1
 10
0.0
 20
0.0
 30
0.0
 70
   128
  0
VERTEX
  5
1CFE
  8
3
 10
43.80000000000001
 20
24.0344808214
 30
0.0
  0
VERTEX
  5
1CFF
  8
3
 10
43.26424587579999
 20
23.98978004579999
 30
0.0
  0
VERTEX
  5
1D00
  8
3
 10
42.7865490241
 20
23.8605217416
 30
0.0
  0
VERTEX
  5
1D01
  8
3
 10
42.41867531090003
 20
23.66071305179997
 30
0.0
  0
VERTEX
  5
1D02
  8
3
 10
42.20048956120007
 20
23.4120063483
 30
0.0
  0
VERTEX
  5
1D03
  8
3
 10
42.1556355866
 20
23.14135286139998
 30
0.0
  0
VERTEX
  5
1D04
  8
3
 10
42.28897401099999
 20
22.87808209599999
 30
0.0
  0
VERTEX
  5
1D05
  8
3
 10
42.58605554740001
 20
22.65072352479999
 30
0.0
  0
VERTEX
  5
1D06
  8
3
 10
43.01468680150009
 20
22.48391497659998
 30
0.0
  0
VERTEX
  5
1D07
  8
3
 10
43.52841892610007
 20
22.39573274609998
 30
0.0
  0
VERTEX
  5
1D08
  8
3
 10
44.07158107399999
 20
22.39573274609998
 30
0.0
  0
VERTEX
  5
1D09
  8
3
 10
44.58531319850005
 20
22.48391497659998
 30
0.0
  0
VERTEX
  5
1D0A
  8
3
 10
45.01394445260001
 20
22.65072352479999
 30
0.0
  0
VERTEX
  5
1D0B
  8
3
 10
45.31102598900003
 20
22.87808209599999
 30
0.0
  0
VERTEX
  5
1D0C
  8
3
 10
45.44436441350007
 20
23.14135286139998
 30
0.0
  0
VERTEX
  5
1D0D
  8
3
 10
45.39951043880006
 20
23.4120063483
 30
0.0
  0
VERTEX
  5
1D0E
  8
3
 10
45.18132468920004
 20
23.66071305179997
 30
0.0
  0
VERTEX
  5
1D0F
  8
3
 10
44.81345097600007
 20
23.8605217416
 30
0.0
  0
VERTEX
  5
1D10
  8
3
 10
44.33575412420004
 20
23.98978004579999
 30
0.0
  0
VERTEX
  5
1D11
  8
3
 10
43.80000000000001
 20
24.0344808214
 30
0.0
  0
SEQEND
  5
1D83
  8
3
  0
POLYLINE
  5
1183
  8
3
 66
     1
 10
0.0
 20
0.0
 30
0.0
 70
   128
  0
VERTEX
  5
1D12
  8
3
 10
43.80000000000001
 20
-22.38448082150002
 30
0.0
  0
VERTEX
  5
1D13
  8
3
 10
43.26424587579999
 20
-22.42918159710001
 30
0.0
  0
VERTEX
  5
1D14
  8
3
 10
42.7865490241
 20
-22.55843990120002
 30
0.0
  0
VERTEX
  5
1D15
  8
3
 10
42.41867531090003
 20
-22.75824859100001
 30
0.0
  0
VERTEX
  5
1D16
  8
3
 10
42.20048956120007
 20
-23.00695529460002
 30
0.0
  0
VERTEX
  5
1D17
  8
3
 10
42.1556355866
 20
-23.27760878150001
 30
0.0
  0
VERTEX
  5
1D18
  8
3
 10
42.28897401099999
 20
-23.54087954680001
 30
0.0
  0
VERTEX
  5
1D19
  8
3
 10
42.58605554740001
 20
-23.76823811810002
 30
0.0
  0
VERTEX
  5
1D1A
  8
3
 10
43.01468680150009
 20
-23.93504666620001
 30
0.0
  0
VERTEX
  5
1D1B
  8
3
 10
43.52841892610007
 20
-24.02322889680001
 30
0.0
  0
VERTEX
  5
1D1C
  8
3
 10
44.07158107399999
 20
-24.02322889680001
 30
0.0
  0
VERTEX
  5
1D1D
  8
3
 10
44.58531319850005
 20
-23.93504666620001
 30
0.0
  0
VERTEX
  5
1D1E
  8
3
 10
45.01394445260001
 20
-23.76823811810002
 30
0.0
  0
VERTEX
  5
1D1F
  8
3
 10
45.31102598900003
 20
-23.54087954680001
 30
0.0
  0
VERTEX
  5
1D20
  8
3
 10
45.44436441350007
 20
-23.27760878150001
 30
0.0
  0
VERTEX
  5
1D21
  8
3
 10
45.39951043880006
 20
-23.00695529460002
 30
0.0
  0
VERTEX
  5
1D22
  8
3
 10
45.18132468920004
 20
-22.75824859100001
 30
0.0
  0
VERTEX
  5
1D23
  8
3
 10
44.81345097600007
 20
-22.55843990120002
 30
0.0
  0
VERTEX
  5
1D24
  8
3
 10
44.33575412420004
 20
-22.42918159710001
 30
0.0
  0
VERTEX
  5
1D25
  8
3
 10
43.80000000000001
 20
-22.38448082150002
 30
0.0
  0
SEQEND
  5
1D84
  8
3
  0
POLYLINE
  5
1184
  8
3
 66
     1
 10
0.0
 20
0.0
 30
0.0
 70
   128
  0
VERTEX
  5
1D26
  8
3
 10
43.80000000000001
 20
-8.3307597381
 30
0.0
  0
VERTEX
  5
1D27
  8
3
 10
44.04615588450002
 20
-8.278374396800018
 30
0.0
  0
VERTEX
  5
1D28
  8
3
 10
44.38336586840006
 20
-8.068142678400022
 30
0.0
  0
VERTEX
  5
1D29
  8
3
 10
44.94374037450001
 20
-7.493565616800026
 30
0.0
  0
VERTEX
  5
1D2A
  8
3
 10
45.25422504420004
 20
-7.043656786000014
 30
0.0
  0
VERTEX
  5
1D2B
  8
3
 10
45.40869611520003
 20
-6.712305988000026
 30
0.0
  0
VERTEX
  5
1D2C
  8
3
 10
45.44718134480007
 20
-6.449290144500026
 30
0.0
  0
VERTEX
  5
1D2D
  8
3
 10
45.3741193683
 20
-6.3096754309
 30
0.0
  0
VERTEX
  5
1D2E
  8
3
 10
45.21172415720008
 20
-6.260899641900011
 30
0.0
  0
VERTEX
  5
1D2F
  8
3
 10
44.85032751570003
 20
-6.334093831300009
 30
0.0
  0
VERTEX
  5
1D30
  8
3
 10
44.26199977010009
 20
-6.574465721600006
 30
0.0
  0
VERTEX
  5
1D31
  8
3
 10
44.01396131810003
 20
-6.654802368400027
 30
0.0
  0
VERTEX
  5
1D32
  8
3
 10
43.80000000000001
 20
-6.680759738100022
 30
0.0
  0
SEQEND
  5
1D85
  8
3
  0
LINE
  5
1185
  8
3
 10
43.80000000000001
 20
-7.690710232000015
 30
0.0
 11
43.80000000000001
 21
-6.680759738100022
 31
0.0
  0
POLYLINE
  5
1186
  8
3
 66
     1
 10
0.0
 20
0.0
 30
0.0
 70
   128
  0
VERTEX
  5
1D33
  8
3
 10
43.80000000000001
 20
-7.690710232000015
 30
0.0
  0
VERTEX
  5
1D34
  8
3
 10
44.04615588450002
 20
-7.743095573300025
 30
0.0
  0
VERTEX
  5
1D35
  8
3
 10
44.38336586840006
 20
-7.95332729170002
 30
0.0
  0
VERTEX
  5
1D36
  8
3
 10
44.94374037450001
 20
-8.527904353300016
 30
0.0
  0
VERTEX
  5
1D37
  8
3
 10
45.25422504420004
 20
-8.9778131841
 30
0.0
  0
VERTEX
  5
1D38
  8
3
 10
45.40869611520003
 20
-9.309163982100017
 30
0.0
  0
VERTEX
  5
1D39
  8
3
 10
45.44718134480007
 20
-9.572179825600017
 30
0.0
  0
VERTEX
  5
1D3A
  8
3
 10
45.3741193683
 20
-9.711794539200014
 30
0.0
  0
VERTEX
  5
1D3B
  8
3
 10
45.21172415720008
 20
-9.760570328100016
 30
0.0
  0
VERTEX
  5
1D3C
  8
3
 10
44.85032751570003
 20
-9.687376138800005
 30
0.0
  0
VERTEX
  5
1D3D
  8
3
 10
44.26199977010009
 20
-9.447004248500008
 30
0.0
  0
VERTEX
  5
1D3E
  8
3
 10
44.01396131810003
 20
-9.366667601700016
 30
0.0
  0
VERTEX
  5
1D3F
  8
3
 10
43.80000000000001
 20
-9.34071023200002
 30
0.0
  0
SEQEND
  5
1D86
  8
3
  0
LINE
  5
1187
  8
3
 10
43.80000000000001
 20
-8.3307597381
 30
0.0
 11
43.80000000000001
 21
-9.34071023200002
 31
0.0
  0
LINE
  5
1188
  8
3
 10
43.80000000000001
 20
9.340710231899976
 30
0.0
 11
43.80000000000001
 21
8.3307597381
 31
0.0
  0
POLYLINE
  5
1189
  8
3
 66
     1
 10
0.0
 20
0.0
 30
0.0
 70
   128
  0
VERTEX
  5
1D40
  8
3
 10
43.80000000000001
 20
-22.08448082150001
 30
0.0
  0
VERTEX
  5
1D41
  8
3
 10
44.43389825290006
 20
-22.13005122610001
 30
0.0
  0
VERTEX
  5
1D42
  8
3
 10
45.01644183930006
 20
-22.26307059700001
 30
0.0
  0
VERTEX
  5
1D43
  8
3
 10
45.50043654230006
 20
-22.47276249580001
 30
0.0
  0
VERTEX
  5
1D44
  8
3
 10
45.8466719896
 20
-22.74213893180001
 30
0.0
  0
VERTEX
  5
1D45
  8
3
 10
46.02709824430002
 20
-23.04937662840001
 30
0.0
  0
VERTEX
  5
1D46
  8
3
 10
46.02709824430002
 20
-23.36958501450002
 30
0.0
  0
VERTEX
  5
1D47
  8
3
 10
45.8466719896
 20
-23.67682271110002
 30
0.0
  0
VERTEX
  5
1D48
  8
3
 10
45.50043654230006
 20
-23.94619914710002
 30
0.0
  0
VERTEX
  5
1D49
  8
3
 10
45.01644183930006
 20
-24.15589104590001
 30
0.0
  0
VERTEX
  5
1D4A
  8
3
 10
44.43389825290006
 20
-24.28891041680001
 30
0.0
  0
VERTEX
  5
1D4B
  8
3
 10
43.80000000000001
 20
-24.33448082150001
 30
0.0
  0
VERTEX
  5
1D4C
  8
3
 10
43.16610174710007
 20
-24.28891041680001
 30
0.0
  0
VERTEX
  5
1D4D
  8
3
 10
42.58355816070008
 20
-24.15589104590001
 30
0.0
  0
VERTEX
  5
1D4E
  8
3
 10
42.09956345770007
 20
-23.94619914710002
 30
0.0
  0
VERTEX
  5
1D4F
  8
3
 10
41.75332801050007
 20
-23.67682271110002
 30
0.0
  0
VERTEX
  5
1D50
  8
3
 10
41.57290175580005
 20
-23.36958501450002
 30
0.0
  0
VERTEX
  5
1D51
  8
3
 10
41.57290175580005
 20
-23.04937662840001
 30
0.0
  0
VERTEX
  5
1D52
  8
3
 10
41.75332801050007
 20
-22.74213893180001
 30
0.0
  0
VERTEX
  5
1D53
  8
3
 10
42.09956345770007
 20
-22.47276249580001
 30
0.0
  0
VERTEX
  5
1D54
  8
3
 10
42.58355816070008
 20
-22.26307059700001
 30
0.0
  0
VERTEX
  5
1D55
  8
3
 10
43.16610174710007
 20
-22.13005122610001
 30
0.0
  0
VERTEX
  5
1D56
  8
3
 10
43.80000000000001
 20
-22.08448082150001
 30
0.0
  0
SEQEND
  5
1D87
  8
3
  0
POLYLINE
  5
118A
  8
3
 66
     1
 10
0.0
 20
0.0
 30
0.0
 70
   128
  0
VERTEX
  5
1D57
  8
3
 10
43.80000000000001
 20
24.33448082139998
 30
0.0
  0
VERTEX
  5
1D58
  8
3
 10
44.43389825290006
 20
24.28891041669999
 30
0.0
  0
VERTEX
  5
1D59
  8
3
 10
45.01644183930006
 20
24.15589104579999
 30
0.0
  0
VERTEX
  5
1D5A
  8
3
 10
45.50043654230006
 20
23.94619914709997
 30
0.0
  0
VERTEX
  5
1D5B
  8
3
 10
45.8466719896
 20
23.676822711
 30
0.0
  0
VERTEX
  5
1D5C
  8
3
 10
46.02709824430002
 20
23.36958501439997
 30
0.0
  0
VERTEX
  5
1D5D
  8
3
 10
46.02709824430002
 20
23.0493766283
 30
0.0
  0
VERTEX
  5
1D5E
  8
3
 10
45.8466719896
 20
22.74213893179999
 30
0.0
  0
VERTEX
  5
1D5F
  8
3
 10
45.50043654230006
 20
22.47276249569998
 30
0.0
  0
VERTEX
  5
1D60
  8
3
 10
45.01644183930006
 20
22.263070597
 30
0.0
  0
VERTEX
  5
1D61
  8
3
 10
44.43389825290006
 20
22.13005122609999
 30
0.0
  0
VERTEX
  5
1D62
  8
3
 10
43.80000000000001
 20
22.08448082139998
 30
0.0
  0
VERTEX
  5
1D63
  8
3
 10
43.16610174710007
 20
22.13005122609999
 30
0.0
  0
VERTEX
  5
1D64
  8
3
 10
42.58355816070008
 20
22.263070597
 30
0.0
  0
VERTEX
  5
1D65
  8
3
 10
42.09956345770007
 20
22.47276249569998
 30
0.0
  0
VERTEX
  5
1D66
  8
3
 10
41.75332801050007
 20
22.74213893179999
 30
0.0
  0
VERTEX
  5
1D67
  8
3
 10
41.57290175580005
 20
23.0493766283
 30
0.0
  0
VERTEX
  5
1D68
  8
3
 10
41.57290175580005
 20
23.36958501439997
 30
0.0
  0
VERTEX
  5
1D69
  8
3
 10
41.75332801050007
 20
23.676822711
 30
0.0
  0
VERTEX
  5
1D6A
  8
3
 10
42.09956345770007
 20
23.94619914709997
 30
0.0
  0
VERTEX
  5
1D6B
  8
3
 10
42.58355816070008
 20
24.15589104579999
 30
0.0
  0
VERTEX
  5
1D6C
  8
3
 10
43.16610174710007
 20
24.28891041669999
 30
0.0
  0
VERTEX
  5
1D6D
  8
3
 10
43.80000000000001
 20
24.33448082139998
 30
0.0
  0
SEQEND
  5
1D88
  8
3
  0
LINE
  5
118B
  8
3
 10
42.16700683820005
 20
17.21947177849998
 30
0.0
 11
42.77937927390002
 21
16.7864590767
 31
0.0
  0
LINE
  5
118C
  8
3
 10
44.82062072620005
 20
16.7864590767
 30
0.0
 11
45.43299316190001
 21
17.21947177849998
 31
0.0
  0
LINE
  5
118D
  8
3
 10
41.80000000000001
 20
23.88050622519998
 30
0.0
 11
41.80000000000001
 21
17.79682204769998
 31
0.0
  0
LINE
  5
118E
  8
3
 10
45.80000000000001
 20
17.79682204769998
 30
0.0
 11
45.80000000000001
 21
23.88050622519998
 31
0.0
  0
LINE
  5
118F
  8
3
 10
45.43299316190001
 20
-17.21947177860001
 30
0.0
 11
44.82062072620005
 21
-16.78645907670001
 31
0.0
  0
LINE
  5
1190
  8
3
 10
42.77937927390002
 20
-16.78645907670001
 30
0.0
 11
42.16700683820005
 21
-17.21947177860001
 31
0.0
  0
LINE
  5
1191
  8
3
 10
45.80000000000001
 20
-23.88050622520001
 30
0.0
 11
45.80000000000001
 21
-17.79682204780001
 31
0.0
  0
LINE
  5
1192
  8
3
 10
41.80000000000001
 20
-17.79682204780001
 30
0.0
 11
41.80000000000001
 21
-23.88050622520001
 31
0.0
  0
LINE
  5
1193
  8
3
 10
50.80000000000001
 20
6.349999999999994
 30
0.0
 11
49.98085000000009
 21
6.349999999999994
 31
0.0
  0
LINE
  5
1194
  8
3
 10
49.98085000000009
 20
-6.350000000000023
 30
0.0
 11
50.80000000000001
 21
-6.350000000000023
 31
0.0
  0
LINE
  5
1195
  8
3
 10
49.98085000000009
 20
6.349999999999994
 30
0.0
 11
49.22520000000003
 21
5.594349999999991
 31
0.0
  0
LINE
  5
1196
  8
3
 10
49.22520000000003
 20
-5.59435000000002
 30
0.0
 11
49.98085000000009
 21
-6.350000000000023
 31
0.0
  0
LINE
  5
119F
  8
3
 10
41.64103951060002
 20
-16.68669000000001
 30
0.0
 11
40.71620000000001
 21
-16.93450000000001
 31
0.0
  0
LINE
  5
11A0
  8
3
 10
40.71620000000001
 20
-25.95150000000001
 30
0.0
 11
41.64103951060002
 21
-26.19931000000001
 31
0.0
  0
LINE
  5
11A9
  8
3
 10
41.64103951060002
 20
26.19931
 30
0.0
 11
40.71620000000001
 21
25.95149999999998
 31
0.0
  0
LINE
  5
11AA
  8
3
 10
40.71620000000001
 20
16.93449999999999
 30
0.0
 11
41.64103951060002
 21
16.68669
 31
0.0
  0
LINE
  5
11B5
  8
3
 10
50.80000000000001
 20
1.75
 30
0.0
 11
43.80000000000001
 21
1.75
 31
0.0
  0
LINE
  5
11B6
  8
3
 10
43.80000000000001
 20
-1.75
 30
0.0
 11
50.80000000000001
 21
-1.75
 31
0.0
  0
LINE
  5
11C1
  8
3
 10
-8.249999999999972
 20
-6.688000000000017
 30
0.0
 11
-7.689018500200035
 21
-5.754370000000023
 31
0.0
  0
LINE
  5
11C2
  8
3
 10
-7.689018500200035
 20
5.754369999999994
 30
0.0
 11
-8.249999999999972
 21
6.687999999999988
 31
0.0
  0
LINE
  5
11C5
  8
3
 10
50.80000000000001
 20
5.754369999999994
 30
0.0
 11
-0.0000000000000071
 21
5.754369999999994
 31
0.0
  0
LINE
  5
11C6
  8
3
 10
0.0
 20
-5.754370000000023
 30
0.0
 11
50.80000000000001
 21
-5.754370000000023
 31
0.0
  0
LINE
  5
11C7
  8
3
 10
39.60000000000008
 20
26.20424999999997
 30
0.0
 11
36.73915237770001
 21
21.44299999999998
 31
0.0
  0
LINE
  5
11C8
  8
3
 10
36.73915237770001
 20
21.44299999999998
 30
0.0
 11
39.60000000000008
 21
16.68174999999999
 31
0.0
  0
LINE
  5
11C9
  8
3
 10
50.80000000000001
 20
-16.68175000000001
 30
0.0
 11
39.60000000000008
 21
-16.68175000000001
 31
0.0
  0
LINE
  5
11CA
  8
3
 10
39.60000000000008
 20
-26.20425000000002
 30
0.0
 11
50.80000000000001
 21
-26.20425000000002
 31
0.0
  0
LINE
  5
11CB
  8
3
 10
39.60000000000008
 20
-16.68175000000001
 30
0.0
 11
36.73915237770001
 21
-21.44300000000001
 31
0.0
  0
LINE
  5
11CC
  8
3
 10
36.73915237770001
 20
-21.44300000000001
 30
0.0
 11
39.60000000000008
 21
-26.20425000000002
 31
0.0
  0
LINE
  5
11CD
  8
3
 10
50.80000000000001
 20
26.20424999999997
 30
0.0
 11
39.60000000000008
 21
26.20424999999997
 31
0.0
  0
LINE
  5
11CE
  8
3
 10
39.60000000000008
 20
16.68174999999999
 30
0.0
 11
50.80000000000001
 21
16.68174999999999
 31
0.0
  0
LINE
  5
11D3
  8
3
 10
42.15000000000003
 20
23.20948082139998
 30
0.0
 11
42.15000000000003
 21
4.980511645799993
 31
0.0
  0
LINE
  5
11D4
  8
3
 10
45.44999999999999
 20
9.517509393899985
 30
0.0
 11
45.44999999999999
 21
23.20948082139998
 31
0.0
  0
LINE
  5
11D5
  8
3
 10
45.44999999999999
 20
4.978787621099997
 30
0.0
 11
45.44999999999999
 21
6.503960575999997
 31
0.0
  0
LINE
  5
11D6
  8
3
 10
45.44999999999999
 20
-6.503960576100013
 30
0.0
 11
45.44999999999999
 21
-4.978787621200013
 31
0.0
  0
LINE
  5
11D7
  8
3
 10
45.44999999999999
 20
-23.20948082150001
 30
0.0
 11
45.44999999999999
 21
-9.517509394000001
 31
0.0
  0
LINE
  5
11D8
  8
3
 10
42.15000000000003
 20
-4.980511645800021
 30
0.0
 11
42.15000000000003
 21
-23.20948082150001
 31
0.0
  0
LINE
  5
11D9
  8
3
 10
50.80000000000001
 20
-6.260734984999999
 30
0.0
 11
45.19554104540003
 21
-6.260734984999999
 31
0.0
  0
LINE
  5
11DA
  8
3
 10
45.19554104540003
 20
-9.760734985
 30
0.0
 11
50.80000000000001
 21
-9.760734985
 31
0.0
  0
LINE
  5
11DB
  8
3
 10
50.80000000000001
 20
9.760734985
 30
0.0
 11
45.19554104540003
 21
9.760734985
 31
0.0
  0
LINE
  5
11DC
  8
3
 10
45.19554104540003
 20
6.260734984999999
 30
0.0
 11
50.80000000000001
 21
6.260734984999999
 31
0.0
  0
LINE
  5
11DD
  8
3
 10
46.05000000000001
 20
-24.07536590840002
 30
0.0
 11
46.05000000000001
 21
-23.20948082150001
 31
0.0
  0
LINE
  5
11DE
  8
3
 10
41.55000000000001
 20
-23.20948082150001
 30
0.0
 11
41.55000000000001
 21
-24.07352314940002
 31
0.0
  0
LINE
  5
11DF
  8
3
 10
41.55000000000001
 20
24.07352314929997
 30
0.0
 11
41.55000000000001
 21
23.20948082139998
 31
0.0
  0
LINE
  5
11E0
  8
3
 10
46.05000000000001
 20
23.20948082139998
 30
0.0
 11
46.05000000000001
 21
24.07536590839999
 31
0.0
  0
LINE
  5
11E5
  8
1
 10
36.05000000000001
 20
0.0
 30
0.0
 11
36.05000000000001
 21
27.79999999999998
 31
0.0
  0
LINE
  5
11E6
  8
1
 10
36.05000000000001
 20
-27.80000000000001
 30
0.0
 11
36.05000000000001
 21
0.0
 31
0.0
  0
LINE
  5
11E7
  8
1
 10
49.80000000000001
 20
27.79999999999998
 30
0.0
 11
49.80000000000001
 21
-27.80000000000001
 31
0.0
  0
LINE
  5
11E8
  8
1
 10
34.05000000000001
 20
0.0
 30
0.0
 11
34.05000000000001
 21
-22.22500000000001
 31
0.0
  0
LINE
  5
11E9
  8
1
 10
34.05000000000001
 20
22.22499999999999
 30
0.0
 11
34.05000000000001
 21
0.0
 31
0.0
  0
LINE
  5
11F5
  8
SK3
 10
-0.0000000000000071
 20
5.754369999999994
 30
0.0
 11
-7.689018500200035
 21
5.754369999999994
 31
0.0
  0
LINE
  5
11F6
  8
SK3
 10
0.0
 20
-5.754370000000023
 30
0.0
 11
-7.689018500200035
 21
-5.754370000000023
 31
0.0
  0
ARC
  5
1225
  8
NOCUT
 10
34.05
 20
23.22499999999999
 30
0.0
 40
1.0
 50
270.0
 51
0.0
  0
ARC
  5
1226
  8
NOCUT
 10
36.05
 20
26.79999999999998
 30
0.0
 40
1.0
 50
90.0
 51
180.0
  0
LINE
  5
1227
  8
NOCUT
 10
49.8
 20
27.79999999999998
 30
0.0
 11
36.05
 21
27.79999999999998
 31
0.0
  0
ARC
  5
1228
  8
NOCUT
 10
49.8
 20
26.79999999999998
 30
0.0
 40
1.0
 50
0.0
 51
90.0
  0
LINE
  5
1229
  8
NOCUT
 10
50.8
 20
0.0
 30
0.0
 11
50.8
 21
26.79999999999998
 31
0.0
  0
LINE
  5
122C
  8
NOCUT
 10
35.05
 20
26.79999999999998
 30
0.0
 11
35.05
 21
23.22499999999999
 31
0.0
  0
LINE
  5
1592
  8
SK1
 10
78.79937033049993
 20
-14.98599999999999
 30
0.0
 11
79.56137033049998
 21
-14.22399999999982
 31
0.0
  0
LINE
  5
1593
  8
SK1
 10
79.56137033049998
 20
14.22400000000005
 30
0.0
 11
78.79937033049993
 21
14.98599999999999
 31
0.0
  0
LINE
  5
1594
  8
SK1
 10
78.79937033049993
 20
14.98599999999999
 30
0.0
 11
70.79837033049995
 21
14.98599999999999
 31
0.0
  0
LINE
  5
1595
  8
SK1
 10
70.79837033049995
 20
-14.98599999999999
 30
0.0
 11
78.79937033049993
 21
-14.98599999999999
 31
0.0
  0
LINE
  5
1596
  8
SK1
 10
70.79837033049995
 20
14.98599999999999
 30
0.0
 11
70.0363703305
 21
14.22400000000005
 31
0.0
  0
LINE
  5
1597
  8
SK1
 10
70.0363703305
 20
-14.22399999999982
 30
0.0
 11
70.79837033049995
 21
-14.98599999999999
 31
0.0
  0
ARC
  5
1598
  8
SK1
 10
69.37597033049991
 20
-7.010400000000004
 30
0.0
 40
0.6604000000000099
 50
0.0
 51
90.0
  0
ARC
  5
1599
  8
SK1
 10
69.37597033049991
 20
7.010400000000004
 30
0.0
 40
0.6604000000000099
 50
270.0
 51
0.0
  0
LINE
  5
159A
  8
SK1
 10
69.37597033049991
 20
6.350000000000023
 30
0.0
 11
68.48637033049994
 21
6.350000000000023
 31
0.0
  0
LINE
  5
159B
  8
SK1
 10
68.48637033049994
 20
-6.350000000000023
 30
0.0
 11
69.37597033049991
 21
-6.350000000000023
 31
0.0
  0
LINE
  5
159C
  8
SK1
 10
51.01487563320001
 20
-16.67668999999989
 30
0.0
 11
50.98637033049994
 21
-16.67668999999989
 31
0.0
  0
LINE
  5
159F
  8
SK1
 10
50.98637033049994
 20
16.67669000000012
 30
0.0
 11
51.01487563320001
 21
16.67669000000012
 31
0.0
  0
ARC
  5
15B4
  8
SK1
 10
51.18637033049998
 20
-12.89999999999998
 30
0.0
 40
0.4000000000000211
 50
75.0000000000064
 51
119.9999999999967
  0
ARC
  5
15B5
  8
SK1
 10
51.18637033049998
 20
12.89999999999998
 30
0.0
 40
0.3999999999999965
 50
239.9999999999922
 51
285.000000000003
  0
ARC
  5
15B6
  8
SK1
 10
66.98637033049994
 20
-11.19999999999993
 30
0.0
 40
1.500000000000114
 50
270.0
 51
0.0
  0
ARC
  5
15B7
  8
SK1
 10
66.98637033049994
 20
11.20000000000016
 30
0.0
 40
1.500000000000114
 50
0.0
 51
90.0
  0
LINE
  5
15B8
  8
SK1
 10
51.98544149109995
 20
-12.69999999999993
 30
0.0
 11
66.98637033049994
 21
-12.69999999999993
 31
0.0
  0
LINE
  5
15B9
  8
SK1
 10
66.98637033049994
 20
12.70000000000016
 30
0.0
 11
51.98544149109995
 21
12.70000000000016
 31
0.0
  0
LINE
  5
15BA
  8
SK1
 10
51.98544149109995
 20
12.70000000000016
 30
0.0
 11
51.28989794859996
 21
12.51362966940007
 31
0.0
  0
LINE
  5
15BB
  8
SK1
 10
51.28989794859996
 20
-12.51362966949989
 30
0.0
 11
51.98544149109995
 21
-12.69999999999993
 31
0.0
  0
LINE
  5
15C6
  8
SK1
 10
79.56137033049998
 20
0.0000000000001137
 30
0.0
 11
79.56137033049998
 21
-14.22399999999982
 31
0.0
  0
LINE
  5
15C7
  8
SK1
 10
79.56137033049998
 20
14.22400000000005
 30
0.0
 11
79.56137033049998
 21
0.0000000000001137
 31
0.0
  0
LINE
  5
15C8
  8
SK1
 10
78.79937033049993
 20
0.0000000000001137
 30
0.0
 11
78.79937033049993
 21
-14.98599999999999
 31
0.0
  0
LINE
  5
15C9
  8
SK1
 10
78.79937033049993
 20
14.98599999999999
 30
0.0
 11
78.79937033049993
 21
0.0000000000001137
 31
0.0
  0
LINE
  5
15CA
  8
SK1
 10
70.79837033049995
 20
0.0000000000001137
 30
0.0
 11
70.79837033049995
 21
-14.98599999999999
 31
0.0
  0
LINE
  5
15CB
  8
SK1
 10
70.79837033049995
 20
14.98599999999999
 30
0.0
 11
70.79837033049995
 21
0.0000000000001137
 31
0.0
  0
LINE
  5
15CC
  8
SK1
 10
70.0363703305
 20
0.0000000000001137
 30
0.0
 11
70.0363703305
 21
-14.22399999999982
 31
0.0
  0
LINE
  5
15CD
  8
SK1
 10
70.0363703305
 20
14.22400000000005
 30
0.0
 11
70.0363703305
 21
0.0000000000001137
 31
0.0
  0
LINE
  5
15CE
  8
SK1
 10
55.88857033049993
 20
-16.68050000000005
 30
0.0
 11
50.98637033049994
 21
-16.68050000000005
 31
0.0
  0
LINE
  5
15CF
  8
SK1
 10
55.88857033049993
 20
-16.68050000000005
 30
0.0
 11
55.88857033049993
 21
-26.20549999999992
 31
0.0
  0
LINE
  5
15D0
  8
SK1
 10
55.88857033049993
 20
-26.20549999999992
 30
0.0
 11
50.98637033049994
 21
-26.20549999999992
 31
0.0
  0
LINE
  5
15D1
  8
SK1
 10
55.88857033049993
 20
26.20549999999992
 30
0.0
 11
50.98637033049994
 21
26.20549999999992
 31
0.0
  0
LINE
  5
15D2
  8
SK1
 10
55.88857033049993
 20
26.20549999999992
 30
0.0
 11
55.88857033049993
 21
16.68050000000005
 31
0.0
  0
LINE
  5
15D3
  8
SK1
 10
55.88857033049993
 20
16.68050000000005
 30
0.0
 11
50.98637033049994
 21
16.68050000000005
 31
0.0
  0
LINE
  5
15F6
  8
SK1
 10
68.48637033049994
 20
0.0000000000001137
 30
0.0
 11
68.48637033049994
 21
11.20000000000016
 31
0.0
  0
LINE
  5
15F7
  8
SK1
 10
68.48637033049994
 20
-11.19999999999993
 30
0.0
 11
68.48637033049994
 21
0.0000000000001137
 31
0.0
  0
LINE
  5
15F8
  8
SK1
 10
51.98544149109995
 20
0.0000000000001137
 30
0.0
 11
51.98544149109995
 21
12.70000000000016
 31
0.0
  0
LINE
  5
15F9
  8
SK1
 10
51.98544149109995
 20
-12.69999999999993
 30
0.0
 11
51.98544149109995
 21
0.0000000000001137
 31
0.0
  0
LINE
  5
162D
  8
SK3
 10
72.44937033050002
 20
2.006600000000049
 30
0.0
 11
72.44937033050002
 21
0.0000000000001137
 31
0.0
  0
LINE
  5
162E
  8
SK3
 10
72.44937033050002
 20
0.0000000000001137
 30
0.0
 11
72.44937033050002
 21
-2.006599999999821
 31
0.0
  0
LINE
  5
162F
  8
SK3
 10
72.44937033050002
 20
0.0000000000001137
 30
0.0
 11
79.56137033049998
 21
0.0000000000001137
 31
0.0
  0
LINE
  5
1630
  8
SK3
 10
71.94137033049998
 20
0.0000000000001137
 30
0.0
 11
71.94137033049998
 21
-4.013199999999983
 31
0.0
  0
LINE
  5
1631
  8
SK3
 10
71.94137033049998
 20
4.013199999999983
 30
0.0
 11
71.94137033049998
 21
0.0000000000001137
 31
0.0
  0
LINE
  5
1632
  8
SK3
 10
72.44937033050002
 20
4.013199999999983
 30
0.0
 11
72.44937033050002
 21
2.006600000000049
 31
0.0
  0
LINE
  5
1633
  8
SK3
 10
72.44937033050002
 20
-2.006599999999821
 30
0.0
 11
72.44937033050002
 21
-4.013199999999983
 31
0.0
  0
LINE
  5
1634
  8
SK3
 10
72.44937033050002
 20
4.013199999999983
 30
0.0
 11
79.56137033049998
 21
4.013199999999983
 31
0.0
  0
LINE
  5
1635
  8
SK3
 10
72.44937033050002
 20
-4.013199999999983
 30
0.0
 11
79.56137033049998
 21
-4.013199999999983
 31
0.0
  0
LINE
  5
164C
  8
SK3
 10
67.62034804439992
 20
-6.749999999999886
 30
0.0
 11
67.62034804439992
 21
6.750000000000114
 31
0.0
  0
LINE
  5
164D
  8
SK3
 10
65.48637033049994
 20
6.750000000000114
 30
0.0
 11
65.48637033049994
 21
-6.749999999999886
 31
0.0
  0
LINE
  5
166E
  8
SK3
 10
68.48637033049994
 20
6.350000000000023
 30
0.0
 11
50.80000000000001
 21
6.350000000000023
 31
0.0
  0
LINE
  5
166F
  8
SK3
 10
50.80000000000001
 20
-6.350000000000023
 30
0.0
 11
68.48637033049994
 21
-6.350000000000023
 31
0.0
  0
LINE
  5
1672
  8
SK3
 10
72.44937033050002
 20
4.013199999999983
 30
0.0
 11
71.94137033049998
 21
4.013199999999983
 31
0.0
  0
LINE
  5
1673
  8
SK3
 10
71.94137033049998
 20
-4.013199999999983
 30
0.0
 11
72.44937033050002
 21
-4.013199999999983
 31
0.0
  0
LINE
  5
1674
  8
SK3
 10
71.94137033049998
 20
4.013199999999983
 30
0.0
 11
69.52999649420002
 21
0.0000000000001137
 31
0.0
  0
LINE
  5
1675
  8
SK3
 10
69.52999649420002
 20
0.0000000000001137
 30
0.0
 11
71.94137033049998
 21
-4.013199999999983
 31
0.0
  0
LINE
  5
1690
  8
SK3
 10
68.48637033049994
 20
1.750000000000114
 30
0.0
 11
50.80000000000001
 21
1.750000000000114
 31
0.0
  0
LINE
  5
1691
  8
SK3
 10
50.80000000000001
 20
-1.749999999999886
 30
0.0
 11
68.48637033049994
 21
-1.749999999999886
 31
0.0
  0
LINE
  5
1696
  8
SK3
 10
68.48637033049994
 20
7.24999820000005
 30
0.0
 11
67.62034804439992
 21
6.750000000000114
 31
0.0
  0
LINE
  5
1697
  8
SK3
 10
67.62034804439992
 20
-6.749999999999886
 30
0.0
 11
68.48637033049994
 21
-7.24999820000005
 31
0.0
  0
LINE
  5
1698
  8
SK3
 10
67.62034804439992
 20
6.750000000000114
 30
0.0
 11
65.48637033049994
 21
6.750000000000114
 31
0.0
  0
LINE
  5
1699
  8
SK3
 10
65.48637033049994
 20
-6.749999999999886
 30
0.0
 11
67.62034804439992
 21
-6.749999999999886
 31
0.0
  0
LINE
  5
16A0
  8
SK3
 10
65.48637033049994
 20
5.754369999999994
 30
0.0
 11
50.80000000000001
 21
5.754369999999994
 31
0.0
  0
LINE
  5
16A1
  8
SK3
 10
50.80000000000001
 20
-5.754369999999994
 30
0.0
 11
65.48637033049994
 21
-5.754369999999994
 31
0.0
  0
LINE
  5
16B4
  8
SK3
 10
68.48637033049994
 20
-6.260734984999885
 30
0.0
 11
50.80000000000001
 21
-6.260734984999885
 31
0.0
  0
LINE
  5
16B5
  8
SK3
 10
50.80000000000001
 20
-9.760734984999885
 30
0.0
 11
68.48637033049994
 21
-9.760734984999885
 31
0.0
  0
LINE
  5
16B6
  8
SK3
 10
68.48637033049994
 20
9.760734985000113
 30
0.0
 11
50.80000000000001
 21
9.760734985000113
 31
0.0
  0
LINE
  5
16B7
  8
SK3
 10
50.80000000000001
 20
6.260734985000113
 30
0.0
 11
68.48637033049994
 21
6.260734985000113
 31
0.0
  0
LINE
  5
16BC
  8
SK1
 10
69.37597033049991
 20
0.0000000000001137
 30
0.0
 11
69.37597033049991
 21
-6.350000000000023
 31
0.0
  0
LINE
  5
16BD
  8
SK1
 10
69.37597033049991
 20
6.350000000000023
 30
0.0
 11
69.37597033049991
 21
0.0000000000001137
 31
0.0
  0
LINE
  5
16C9
  8
SK1
 10
51.28989794859996
 20
12.51362966940007
 30
0.0
 11
51.28989794859996
 21
-12.51362966949989
 31
0.0
  0
LINE
  5
16CA
  8
SK1
 10
66.98637033049994
 20
12.70000000000016
 30
0.0
 11
66.98637033049994
 21
-12.69999999999993
 31
0.0
  0
LINE
  5
16D0
  8
SK4
 10
50.8
 20
0.0
 30
0.0
 11
79.56137033049998
 21
0.0
 31
0.0
  0
DIMENSION
  5
16D9
  8
SK2
  2
*D16
 10
93.70017484892503
 20
-12.69999999999993
 30
0.0
 11
91.82517484892503
 21
0.0000000000001119
 31
0.0
 70
    32
  3
ISO-25
 13
66.98637033049994
 23
12.70000000000016
 33
0.0
 14
66.98637033049994
 24
-12.69999999999993
 34
0.0
 50
90.0
1001
ACAD
1000
DSTYLE
1002
{
1070
   287
1070
     5
1070
   144
1040
1.0
1070
   271
1070
     3
1070
   272
1070
     3
1070
   279
1070
     2
1002
}
  0
DIMENSION
  5
16E8
  8
SK2
  2
*D17
 10
108.8899590116038
 20
-27.80000000000001
 30
0.0
 11
107.0149590116038
 21
-0.0000000000000213
 31
0.0
 70
    32
  3
ISO-25
 13
49.80000000000001
 23
27.79999999999998
 33
0.0
 14
49.80000000000001
 24
-27.80000000000001
 34
0.0
 50
90.0
1001
ACAD
1000
DSTYLE
1002
{
1070
   287
1070
     5
1070
   144
1040
1.0
1070
   271
1070
     3
1070
   272
1070
     3
1070
   279
1070
     2
1002
}
  0
DIMENSION
  5
16F7
  8
SK2
  2
*D18
 10
35.05000000000001
 20
-42.03165299792866
 30
0.0
 11
17.52500000000001
 21
-40.15665299792866
 31
0.0
 70
    32
  3
ISO-25
 13
0.0
 23
-22.22499999999999
 33
0.0
 14
35.05000000000001
 24
-26.80000000000001
 34
0.0
1001
ACAD
1000
DSTYLE
1002
{
1070
   287
1070
     5
1070
   144
1040
1.0
1070
   271
1070
     3
1070
   272
1070
     3
1070
   279
1070
     2
1002
}
  0
ENDSEC
  0
EOF
