  0
SECTION
  2
HEADER
  9
$ACADVER
  1
AC1009
  9
$DWGCODEPAGE
  3
ansi_1251
  9
$INSBASE
 10
0.0
 20
0.0
 30
0.0
  9
$EXTMIN
 10
1.000000000000000E+20
 20
1.000000000000000E+20
 30
1.000000000000000E+20
  9
$EXTMAX
 10
-1.000000000000000E+20
 20
-1.000000000000000E+20
 30
-1.000000000000000E+20
  9
$LIMMIN
 10
0.0
 20
0.0
  9
$LIMMAX
 10
420.0
 20
297.0
  9
$ORTHOMODE
 70
     0
  9
$REGENMODE
 70
     1
  9
$FILLMODE
 70
     1
  9
$QTEXTMODE
 70
     0
  9
$MIRRTEXT
 70
     0
  9
$DRAGMODE
 70
     2
  9
$LTSCALE
 40
1.0
  9
$OSMODE
 70
   279
  9
$ATTMODE
 70
     1
  9
$TEXTSIZE
 40
2.5
  9
$TRACEWID
 40
1.0
  9
$TEXTSTYLE
  7
STANDARD
  9
$CLAYER
  8
0
  9
$CELTYPE
  6
BYLAYER
  9
$CECOLOR
 62
   256
  9
$DIMSCALE
 40
1.0
  9
$DIMASZ
 40
2.5
  9
$DIMEXO
 40
0.625
  9
$DIMDLI
 40
3.75
  9
$DIMRND
 40
0.0
  9
$DIMDLE
 40
0.0
  9
$DIMEXE
 40
1.25
  9
$DIMTP
 40
0.0
  9
$DIMTM
 40
0.0
  9
$DIMTXT
 40
2.5
  9
$DIMCEN
 40
2.5
  9
$DIMTSZ
 40
0.0
  9
$DIMTOL
 70
     0
  9
$DIMLIM
 70
     0
  9
$DIMTIH
 70
     0
  9
$DIMTOH
 70
     0
  9
$DIMSE1
 70
     0
  9
$DIMSE2
 70
     0
  9
$DIMTAD
 70
     1
  9
$DIMZIN
 70
     8
  9
$DIMBLK
  1

  9
$DIMASO
 70
     1
  9
$DIMSHO
 70
     1
  9
$DIMPOST
  1

  9
$DIMAPOST
  1

  9
$DIMALT
 70
     0
  9
$DIMALTD
 70
     3
  9
$DIMALTF
 40
0.03937007874016
  9
$DIMLFAC
 40
1.0
  9
$DIMTOFL
 70
     1
  9
$DIMTVP
 40
0.0
  9
$DIMTIX
 70
     0
  9
$DIMSOXD
 70
     0
  9
$DIMSAH
 70
     0
  9
$DIMBLK1
  1

  9
$DIMBLK2
  1

  9
$DIMSTYLE
  2
ISO-25
  9
$DIMCLRD
 70
     0
  9
$DIMCLRE
 70
     0
  9
$DIMCLRT
 70
     0
  9
$DIMTFAC
 40
1.0
  9
$DIMGAP
 40
0.625
  9
$LUNITS
 70
     2
  9
$LUPREC
 70
     3
  9
$SKETCHINC
 40
1.0
  9
$FILLETRAD
 40
10.0
  9
$AUNITS
 70
     0
  9
$AUPREC
 70
     0
  9
$MENU
  1
.
  9
$ELEVATION
 40
0.0
  9
$PELEVATION
 40
0.0
  9
$THICKNESS
 40
0.0
  9
$LIMCHECK
 70
     0
  9
$CHAMFERA
 40
10.0
  9
$CHAMFERB
 40
10.0
  9
$SKPOLY
 70
     0
  9
$TDCREATE
 40
2455022.429026158
  9
$TDUPDATE
 40
2455022.429026158
  9
$TDINDWG
 40
0.0000000116
  9
$TDUSRTIMER
 40
2458690.781485671
  9
$USRTIMER
 70
     1
  9
$ANGBASE
 50
0.0
  9
$ANGDIR
 70
     0
  9
$PDMODE
 70
     0
  9
$PDSIZE
 40
0.0
  9
$PLINEWID
 40
0.0
  9
$COORDS
 70
     1
  9
$SPLFRAME
 70
     0
  9
$SPLINETYPE
 70
     6
  9
$SPLINESEGS
 70
     8
  9
$ATTDIA
 70
     0
  9
$ATTREQ
 70
     1
  9
$HANDLING
 70
     1
  9
$HANDSEED
  5
78E
  9
$SURFTAB1
 70
     6
  9
$SURFTAB2
 70
     6
  9
$SURFTYPE
 70
     6
  9
$SURFU
 70
     6
  9
$SURFV
 70
     6
  9
$UCSNAME
  2

  9
$UCSORG
 10
0.0
 20
0.0
 30
0.0
  9
$UCSXDIR
 10
1.0
 20
0.0
 30
0.0
  9
$UCSYDIR
 10
0.0
 20
1.0
 30
0.0
  9
$PUCSNAME
  2

  9
$PUCSORG
 10
0.0
 20
0.0
 30
0.0
  9
$PUCSXDIR
 10
1.0
 20
0.0
 30
0.0
  9
$PUCSYDIR
 10
0.0
 20
1.0
 30
0.0
  9
$USERI1
 70
     0
  9
$USERI2
 70
     0
  9
$USERI3
 70
     0
  9
$USERI4
 70
     0
  9
$USERI5
 70
     0
  9
$USERR1
 40
0.0
  9
$USERR2
 40
0.0
  9
$USERR3
 40
0.0
  9
$USERR4
 40
0.0
  9
$USERR5
 40
0.0
  9
$WORLDVIEW
 70
     1
  9
$SHADEDGE
 70
     3
  9
$SHADEDIF
 70
    70
  9
$TILEMODE
 70
     1
  9
$MAXACTVP
 70
    64
  9
$PLIMCHECK
 70
     0
  9
$PEXTMIN
 10
1.000000000000000E+20
 20
1.000000000000000E+20
 30
1.000000000000000E+20
  9
$PEXTMAX
 10
-1.000000000000000E+20
 20
-1.000000000000000E+20
 30
-1.000000000000000E+20
  9
$PLIMMIN
 10
0.0
 20
0.0
  9
$PLIMMAX
 10
420.0
 20
297.0
  9
$UNITMODE
 70
     0
  9
$VISRETAIN
 70
     1
  9
$PLINEGEN
 70
     0
  9
$PSLTSCALE
 70
     1
  0
ENDSEC
  0
SECTION
  2
TABLES
  0
TABLE
  2
VPORT
 70
     1
  0
VPORT
  2
*ACTIVE
 70
     0
 10
0.0
 20
0.0
 11
1.0
 21
1.0
 12
174.6755001282996
 22
1.468151113930936
 13
0.0
 23
0.0
 14
10.0
 24
10.0
 15
10.0
 25
10.0
 16
0.0
 26
0.0
 36
1.0
 17
-134.1869158878504
 27
0.0
 37
0.0
 40
166.4265646503364
 41
1.332880434782609
 42
50.0
 43
0.0
 44
0.0
 50
0.0
 51
0.0
 71
    16
 72
  1000
 73
     1
 74
     3
 75
     0
 76
     0
 77
     0
 78
     0
  0
ENDTAB
  0
TABLE
  2
LTYPE
 70
     5
  0
LTYPE
  2
CONTINUOUS
 70
     0
  3
Solid line
 72
    65
 73
     0
 40
0.0
  0
LTYPE
  2
CENTER
 70
     0
  3
 Center _____  _  _____  _  _____  _  _____  _ 
 72
    65
 73
     4
 40
50.8
 49
31.75
 49
-6.35
 49
6.35
 49
-6.35
  0
LTYPE
  2
DASHED
 70
     0
  3
Dashed __  __  __  __  __  __  __  __  __  __  
 72
    65
 73
     2
 40
19.05
 49
12.7
 49
-6.35
  0
LTYPE
  2
HIDDEN
 70
     0
  3
Hidden __ __ __ __ __ __ __ __ __ __ __ __ __ __
 72
    65
 73
     2
 40
1.905
 49
1.27
 49
-0.635
  0
LTYPE
  2
CENTERX2
 70
     0
  3
Center (2x) ________  __  ________  __  _____
 72
    65
 73
     4
 40
20.32
 49
12.7
 49
-2.54
 49
2.54
 49
-2.54
  0
ENDTAB
  0
TABLE
  2
LAYER
 70
    26
  0
LAYER
  2
0
 70
     0
 62
     7
  6
CONTINUOUS
  0
LAYER
  2
1
 70
     0
 62
     4
  6
CONTINUOUS
  0
LAYER
  2
2
 70
     0
 62
     7
  6
CONTINUOUS
  0
LAYER
  2
3
 70
     0
 62
     1
  6
DASHED
  0
LAYER
  2
4
 70
     0
 62
     2
  6
CENTER
  0
LAYER
  2
6
 70
     0
 62
     5
  6
CONTINUOUS
  0
LAYER
  2
7
 70
     0
 62
     5
  6
CONTINUOUS
  0
LAYER
  2
11
 70
     0
 62
     4
  6
CONTINUOUS
  0
LAYER
  2
SK1
 70
     0
 62
     4
  6
CONTINUOUS
  0
LAYER
  2
SK2
 70
     0
 62
     7
  6
CONTINUOUS
  0
LAYER
  2
SK3
 70
     0
 62
     1
  6
DASHED
  0
LAYER
  2
SK4
 70
     0
 62
     2
  6
CENTER
  0
LAYER
  2
SK6
 70
     0
 62
     5
  6
CONTINUOUS
  0
LAYER
  2
SK7
 70
     0
 62
     5
  6
CONTINUOUS
  0
LAYER
  2
SK11
 70
     0
 62
     4
  6
CONTINUOUS
  0
LAYER
  2
CUT
 70
     0
 62
     1
  6
CONTINUOUS
  0
LAYER
  2
NOCUT
 70
     0
 62
    -7
  6
CONTINUOUS
  0
LAYER
  2
SKVIEW1
 70
     0
 62
     4
  6
CONTINUOUS
  0
LAYER
  2
SKVIEW2
 70
     0
 62
     7
  6
CONTINUOUS
  0
LAYER
  2
SKVIEW3
 70
     0
 62
     1
  6
DASHED
  0
LAYER
  2
SKVIEW4
 70
     0
 62
     2
  6
CENTER
  0
LAYER
  2
SKVIEW6
 70
     0
 62
     5
  6
CONTINUOUS
  0
LAYER
  2
SKVIEW7
 70
     0
 62
     5
  6
CONTINUOUS
  0
LAYER
  2
SKVIEW11
 70
     0
 62
     4
  6
CONTINUOUS
  0
LAYER
  2
INFTOTAL
 70
     0
 62
     9
  6
CONTINUOUS
  0
LAYER
  2
DEFPOINTS
 70
     0
 62
     7
  6
CONTINUOUS
  0
ENDTAB
  0
TABLE
  2
STYLE
 70
     1
  0
STYLE
  2
STANDARD
 70
     0
 40
0.0
 41
1.0
 50
0.0
 71
     0
 42
2.5
  3
txt
  4

  0
ENDTAB
  0
TABLE
  2
VIEW
 70
     0
  0
ENDTAB
  0
TABLE
  2
UCS
 70
     0
  0
ENDTAB
  0
TABLE
  2
APPID
 70
     2
  0
APPID
  2
ACAD
 70
     0
  0
APPID
  2
ACAECLAYERSTANDARD
 70
     0
  0
ENDTAB
  0
TABLE
  2
DIMSTYLE
 70
     1
  0
DIMSTYLE
  2
ISO-25
 70
     0
  3

  4

  5

  6

  7

 40
1.0
 41
2.5
 42
0.625
 43
3.75
 44
1.25
 45
0.0
 46
0.0
 47
0.0
 48
0.0
140
2.5
141
2.5
142
0.0
143
0.03937007874016
144
1.0
145
0.0
146
1.0
147
0.625
 71
     0
 72
     0
 73
     0
 74
     0
 75
     0
 76
     0
 77
     1
 78
     8
170
     0
171
     3
172
     1
173
     0
174
     0
175
     0
176
     0
177
     0
178
     0
  0
ENDTAB
  0
ENDSEC
  0
SECTION
  2
BLOCKS
  0
BLOCK
  8
0
  2
$MODEL_SPACE
 70
     0
 10
0.0
 20
0.0
 30
0.0
  3
$MODEL_SPACE
  1

  0
ENDBLK
  5
21
  8
0
  0
BLOCK
 67
     1
  8
0
  2
$PAPER_SPACE
 70
     0
 10
0.0
 20
0.0
 30
0.0
  3
$PAPER_SPACE
  1

  0
ENDBLK
  5
1D
 67
     1
  8
0
  0
BLOCK
  8
0
  2
SW_CENTERMARKSYMBOL_0
 70
     0
 10
0.0
 20
0.0
 30
0.0
  3
SW_CENTERMARKSYMBOL_0
  1

  0
LINE
  5
19E
  8
4
 62
     0
 10
0.0
 20
0.0
 30
0.0
 11
0.0
 21
2.5
 31
0.0
  0
LINE
  5
19F
  8
4
 62
     0
 10
0.0
 20
0.0
 30
0.0
 11
-2.5
 21
0.0
 31
0.0
  0
LINE
  5
1A0
  8
4
 62
     0
 10
0.0
 20
0.0
 30
0.0
 11
0.0
 21
-2.5
 31
0.0
  0
LINE
  5
1A1
  8
4
 62
     0
 10
0.0
 20
0.0
 30
0.0
 11
2.5
 21
0.0
 31
0.0
  0
LINE
  5
1A2
  8
4
 62
     0
 10
0.0
 20
5.0
 30
0.0
 11
0.0
 21
8.85
 31
0.0
  0
LINE
  5
1A3
  8
4
 62
     0
 10
-5.0
 20
0.0
 30
0.0
 11
-8.85
 21
0.0
 31
0.0
  0
LINE
  5
1A4
  8
4
 62
     0
 10
0.0
 20
-5.0
 30
0.0
 11
0.0
 21
-8.85
 31
0.0
  0
LINE
  5
1A5
  8
4
 62
     0
 10
5.0
 20
0.0
 30
0.0
 11
8.85
 21
0.0
 31
0.0
  0
ENDBLK
  5
1A6
  8
0
  0
BLOCK
  8
0
  2
_FILLED
 70
     0
 10
0.0
 20
0.0
 30
0.0
  3
_FILLED
  1

  0
SOLID
  5
1C4
  8
0
  6
BYBLOCK
 62
     0
 10
0.0
 20
0.0
 30
0.0
 11
-1.0
 21
0.2142857143
 31
0.0
 12
-1.0
 22
-0.2142857143
 32
0.0
 13
-1.0
 23
-0.2142857143
 33
0.0
  0
ENDBLK
  5
1C5
  8
0
  6
BYBLOCK
 62
     0
  0
BLOCK
  8
0
  2
*D2
 70
     1
 10
0.0
 20
0.0
 30
0.0
  3
*D2
  1

  0
LINE
  5
1D3
  8
2
 62
     0
 10
0.0
 20
22.84999999999999
 30
0.0
 11
0.0
 21
48.91573065769793
 31
0.0
  0
LINE
  5
1D4
  8
2
 62
     0
 10
88.89999999999998
 20
10.20060949619997
 30
0.0
 11
88.89999999999998
 21
48.91573065769793
 31
0.0
  0
LINE
  5
1D5
  8
2
 62
     0
 10
2.5
 20
47.66573065769793
 30
0.0
 11
86.39999999999998
 21
47.66573065769793
 31
0.0
  0
SOLID
  5
1D6
  8
2
 62
     0
 10
2.5
 20
48.08239732436459
 30
0.0
 11
2.5
 21
47.24906399103126
 31
0.0
 12
0.0
 22
47.66573065769793
 32
0.0
 13
0.0
 23
47.66573065769793
 33
0.0
  0
SOLID
  5
1D7
  8
2
 62
     0
 10
86.39999999999998
 20
47.24906399103126
 30
0.0
 11
86.39999999999998
 21
48.08239732436459
 31
0.0
 12
88.89999999999998
 22
47.66573065769793
 32
0.0
 13
88.89999999999998
 23
47.66573065769793
 33
0.0
  0
TEXT
  5
1D8
  8
2
  6
CONTINUOUS
 62
     0
 10
40.49166666666665
 20
48.7073973243646
 30
0.0
 40
2.5
  1
88,9
  0
POINT
  5
1D9
  8
DEFPOINTS
 62
     0
 10
0.0
 20
22.22499999999999
 30
0.0
  0
POINT
  5
1DA
  8
DEFPOINTS
 62
     0
 10
88.89999999999998
 20
9.575609496199974
 30
0.0
  0
POINT
  5
1DB
  8
DEFPOINTS
 62
     0
 10
88.89999999999998
 20
47.66573065769793
 30
0.0
  0
ENDBLK
  5
1DD
  8
0
  0
BLOCK
  8
0
  2
*D3
 70
     1
 10
0.0
 20
0.0
 30
0.0
  3
*D3
  1

  0
LINE
  5
1E3
  8
SK2
 62
     0
 10
88.52499999999998
 20
3.174999999999983
 30
0.0
 11
108.151062126449
 21
3.174999999999983
 31
0.0
  0
LINE
  5
1E4
  8
SK2
 62
     0
 10
88.52499999999998
 20
-3.174999999999983
 30
0.0
 11
108.151062126449
 21
-3.174999999999983
 31
0.0
  0
LINE
  5
1E5
  8
SK2
 62
     0
 10
106.901062126449
 20
0.674999999999983
 30
0.0
 11
106.901062126449
 21
-0.674999999999983
 31
0.0
  0
SOLID
  5
1E6
  8
SK2
 62
     0
 10
107.3177287931157
 20
0.674999999999983
 30
0.0
 11
106.4843954597824
 21
0.674999999999983
 31
0.0
 12
106.901062126449
 22
3.174999999999983
 32
0.0
 13
106.901062126449
 23
3.174999999999983
 33
0.0
  0
SOLID
  5
1E7
  8
SK2
 62
     0
 10
106.4843954597824
 20
-0.674999999999983
 30
0.0
 11
107.3177287931157
 21
-0.674999999999983
 31
0.0
 12
106.901062126449
 22
-3.174999999999983
 32
0.0
 13
106.901062126449
 23
-3.174999999999983
 33
0.0
  0
TEXT
  5
1E8
  8
SK2
  6
CONTINUOUS
 62
     0
 10
106.2760621264491
 20
-3.637205577620065
 30
0.0
 40
2.5
  1
6.35
 50
90.0
  0
POINT
  5
1E9
  8
DEFPOINTS
 62
     0
 10
87.89999999999998
 20
3.174999999999983
 30
0.0
  0
POINT
  5
1EA
  8
DEFPOINTS
 62
     0
 10
87.89999999999998
 20
-3.174999999999983
 30
0.0
  0
POINT
  5
1EB
  8
DEFPOINTS
 62
     0
 10
106.901062126449
 20
-3.174999999999984
 30
0.0
  0
ENDBLK
  5
1EE
  8
0
  0
BLOCK
  8
0
  2
*D4
 70
     1
 10
0.0
 20
0.0
 30
0.0
  3
*D4
  1

  0
LINE
  5
1F3
  8
SK2
 62
     0
 10
51.40638579149999
 20
13.49999999999997
 30
0.0
 11
134.5618688691366
 21
13.49999999999997
 31
0.0
  0
LINE
  5
1F4
  8
SK2
 62
     0
 10
51.40638579149999
 20
-13.50000000000003
 30
0.0
 11
134.5618688691366
 21
-13.50000000000003
 31
0.0
  0
LINE
  5
1F5
  8
SK2
 62
     0
 10
133.3118688691366
 20
10.99999999999997
 30
0.0
 11
133.3118688691366
 21
-11.00000000000003
 31
0.0
  0
SOLID
  5
1F6
  8
SK2
 62
     0
 10
133.7285355358033
 20
10.99999999999997
 30
0.0
 11
132.89520220247
 21
10.99999999999997
 31
0.0
 12
133.3118688691366
 22
13.49999999999997
 32
0.0
 13
133.3118688691366
 23
13.49999999999997
 33
0.0
  0
SOLID
  5
1F7
  8
SK2
 62
     0
 10
132.89520220247
 20
-11.00000000000003
 30
0.0
 11
133.7285355358033
 21
-11.00000000000003
 31
0.0
 12
133.3118688691366
 22
-13.50000000000003
 32
0.0
 13
133.3118688691366
 23
-13.50000000000003
 33
0.0
  0
TEXT
  5
1F8
  8
SK2
  6
CONTINUOUS
 62
     0
 10
132.6868688691366
 20
-2.083333333333371
 30
0.0
 40
2.5
  1
27
 50
90.0
  0
POINT
  5
1F9
  8
DEFPOINTS
 62
     0
 10
50.78138579149999
 20
13.49999999999997
 30
0.0
  0
POINT
  5
1FA
  8
DEFPOINTS
 62
     0
 10
50.78138579149999
 20
-13.50000000000003
 30
0.0
  0
POINT
  5
1FB
  8
DEFPOINTS
 62
     0
 10
133.3118688691366
 20
-13.50000000000003
 30
0.0
  0
ENDBLK
  5
1FD
  8
0
  0
BLOCK
  8
0
  2
*D5
 70
     1
 10
0.0
 20
0.0
 30
0.0
  3
*D5
  1

  0
LINE
  5
202
  8
SK2
 62
     0
 10
34.67499999999998
 20
22.22499999999999
 30
0.0
 11
149.2271684808984
 21
22.22499999999999
 31
0.0
  0
LINE
  5
203
  8
SK2
 62
     0
 10
34.67499999999998
 20
-22.22499999999999
 30
0.0
 11
149.2271684808984
 21
-22.225
 31
0.0
  0
LINE
  5
204
  8
SK2
 62
     0
 10
147.9771684808984
 20
19.72499999999999
 30
0.0
 11
147.9771684808984
 21
-19.725
 31
0.0
  0
SOLID
  5
205
  8
SK2
 62
     0
 10
148.393835147565
 20
19.72499999999999
 30
0.0
 11
147.5605018142317
 21
19.72499999999999
 31
0.0
 12
147.9771684808984
 22
22.22499999999999
 32
0.0
 13
147.9771684808984
 23
22.22499999999999
 33
0.0
  0
SOLID
  5
206
  8
SK2
 62
     0
 10
147.5605018142317
 20
-19.725
 30
0.0
 11
148.393835147565
 21
-19.725
 31
0.0
 12
147.9771684808984
 22
-22.225
 32
0.0
 13
147.9771684808984
 23
-22.225
 33
0.0
  0
TEXT
  5
207
  8
SK2
  6
CONTINUOUS
 62
     0
 10
146.9355018142317
 20
-5.208333333333343
 30
0.0
 40
2.5
  1
44,45
 50
90.0
  0
POINT
  5
208
  8
DEFPOINTS
 62
     0
 10
34.04999999999998
 20
22.22499999999999
 30
0.0
  0
POINT
  5
209
  8
DEFPOINTS
 62
     0
 10
34.04999999999998
 20
-22.22499999999999
 30
0.0
  0
POINT
  5
20A
  8
DEFPOINTS
 62
     0
 10
147.9771684808984
 20
-22.225
 30
0.0
  0
ENDBLK
  5
20C
  8
0
  0
BLOCK
  8
0
  2
*D6
 70
     1
 10
0.0
 20
0.0
 30
0.0
  3
*D6
  1

  0
LINE
  5
211
  8
SK2
 62
     0
 10
0.0
 20
-22.84999999999999
 30
0.0
 11
0.0
 21
-48.27109509650273
 31
0.0
  0
LINE
  5
212
  8
SK2
 62
     0
 10
35.04999999999998
 20
-21.84999999999999
 30
0.0
 11
35.04999999999998
 21
-48.27109509650273
 31
0.0
  0
LINE
  5
213
  8
SK2
 62
     0
 10
2.5
 20
-47.02109509650273
 30
0.0
 11
32.54999999999998
 21
-47.02109509650273
 31
0.0
  0
SOLID
  5
214
  8
SK2
 62
     0
 10
2.5
 20
-46.60442842983606
 30
0.0
 11
2.5
 21
-47.43776176316939
 31
0.0
 12
0.0
 22
-47.02109509650273
 32
0.0
 13
0.0
 23
-47.02109509650273
 33
0.0
  0
SOLID
  5
215
  8
SK2
 62
     0
 10
32.54999999999998
 20
-47.43776176316939
 30
0.0
 11
32.54999999999998
 21
-46.60442842983606
 31
0.0
 12
35.04999999999998
 22
-47.02109509650273
 32
0.0
 13
35.04999999999998
 23
-47.02109509650273
 33
0.0
  0
TEXT
  5
216
  8
SK2
  6
CONTINUOUS
 62
     0
 10
12.52499999999999
 20
-45.97942842983606
 30
0.0
 40
2.5
  1
35,05
  0
POINT
  5
217
  8
DEFPOINTS
 62
     0
 10
0.0
 20
-22.22499999999999
 30
0.0
  0
POINT
  5
218
  8
DEFPOINTS
 62
     0
 10
35.04999999999998
 20
-21.22499999999999
 30
0.0
  0
POINT
  5
219
  8
DEFPOINTS
 62
     0
 10
35.04999999999998
 20
-47.02109509650273
 30
0.0
  0
ENDBLK
  5
21B
  8
0
  0
BLOCK
  8
0
  2
*D7
 70
     1
 10
0.0
 20
0.0
 30
0.0
  3
*D7
  1

  0
LINE
  5
220
  8
SK2
 62
     0
 10
89.52499999999998
 20
10.50000000003149
 30
0.0
 11
120.8530018407507
 21
10.50000000003149
 31
0.0
  0
LINE
  5
221
  8
SK2
 62
     0
 10
89.52499999999998
 20
-10.5000000000315
 30
0.0
 11
120.8530018407507
 21
-10.5000000000315
 31
0.0
  0
LINE
  5
222
  8
SK2
 62
     0
 10
119.6030018407507
 20
8.00000000003149
 30
0.0
 11
119.6030018407507
 21
-8.0000000000315
 31
0.0
  0
SOLID
  5
223
  8
SK2
 62
     0
 10
120.0196685074174
 20
8.00000000003149
 30
0.0
 11
119.186335174084
 21
8.00000000003149
 31
0.0
 12
119.6030018407507
 22
10.50000000003149
 32
0.0
 13
119.6030018407507
 23
10.50000000003149
 33
0.0
  0
SOLID
  5
224
  8
SK2
 62
     0
 10
119.186335174084
 20
-8.0000000000315
 30
0.0
 11
120.0196685074174
 21
-8.0000000000315
 31
0.0
 12
119.6030018407507
 22
-10.5000000000315
 32
0.0
 13
119.6030018407507
 23
-10.5000000000315
 33
0.0
  0
TEXT
  5
225
  8
SK2
  6
CONTINUOUS
 62
     0
 10
118.9780018407507
 20
-1.666666666666671
 30
0.0
 40
2.5
  1
21
 50
90.0
  0
POINT
  5
226
  8
DEFPOINTS
 62
     0
 10
88.89999999999998
 20
10.50000000003149
 30
0.0
  0
POINT
  5
227
  8
DEFPOINTS
 62
     0
 10
88.89999999999998
 20
-10.5000000000315
 30
0.0
  0
POINT
  5
228
  8
DEFPOINTS
 62
     0
 10
119.6030018407507
 20
-10.5000000000315
 30
0.0
  0
ENDBLK
  5
22A
  8
0
  0
BLOCK
  8
0
  2
*U8
 70
     1
 10
0.0
 20
0.0
 30
0.0
  3
*U8
  1

  0
TEXT
  5
55A
  8
SK6
 10
-50.0
 20
78.25
 30
0.0
 40
3.5
  1
BIG KAISER
 41
0.85
  0
TEXT
  5
55C
  8
SK6
 10
-50.0
 20
73.0
 30
0.0
 40
3.5
  1
BCV40-SF.250-3.5
 41
0.85
  0
ENDBLK
  5
55D
  8
0
  0
BLOCK
  8
0
  2
*U9
 70
     1
 10
0.0
 20
0.0
 30
0.0
  3
*U9
  1

  0
TEXT
  5
561
  8
SK6
 10
-59.69788960116666
 20
-43.0461554182
 30
0.0
 40
3.5
  1
BCV40
 41
0.85
  0
ENDBLK
  5
562
  8
0
  0
ENDSEC
  0
SECTION
  2
ENTITIES
  0
LINE
  5
CA
  8
1
 10
1.5
 20
-31.75
 30
0.0
 11
7.603833230899994
 21
-31.75
 31
0.0
  0
LINE
  5
CC
  8
1
 10
7.603833230899994
 20
31.74999999999997
 30
0.0
 11
1.5
 21
31.74999999999997
 31
0.0
  0
LINE
  5
CD
  8
1
 10
14.6561667691
 20
31.74999999999997
 30
0.0
 11
13.05500000000001
 21
28.97669780459998
 31
0.0
  0
LINE
  5
CE
  8
1
 10
13.05500000000001
 20
-28.97669780460001
 30
0.0
 11
14.6561667691
 21
-31.75
 31
0.0
  0
LINE
  5
CF
  8
1
 10
7.603833230899994
 20
-31.75
 30
0.0
 11
9.204999999999984
 21
-28.97669780460001
 31
0.0
  0
LINE
  5
D0
  8
1
 10
9.204999999999984
 20
28.97669780459998
 30
0.0
 11
7.603833230899994
 21
31.74999999999997
 31
0.0
  0
LINE
  5
D1
  8
1
 10
14.6561667691
 20
-31.75
 30
0.0
 11
18.55000000000001
 21
-31.75
 31
0.0
  0
LINE
  5
D2
  8
1
 10
18.55000000000001
 20
31.74999999999997
 30
0.0
 11
14.6561667691
 21
31.74999999999997
 31
0.0
  0
ARC
  5
D3
  8
1
 10
18.55000000000001
 20
31.24999999999997
 30
0.0
 40
0.5
 50
0.0
 51
90.0
  0
ARC
  5
D4
  8
1
 10
18.55000000000001
 20
-31.25
 30
0.0
 40
0.5
 50
270.0
 51
0.0
  0
ARC
  5
D5
  8
1
 10
1.5
 20
31.24999999999997
 30
0.0
 40
0.5
 50
90.0
 51
180.0
  0
ARC
  5
D6
  8
1
 10
1.5
 20
-31.25
 30
0.0
 40
0.5
 50
180.0
 51
270.0
  0
ARC
  5
D7
  8
1
 10
9.704999999999984
 20
-28.68000000000001
 30
0.0
 40
0.5
 50
90.0
 51
180.0
  0
ARC
  5
D8
  8
1
 10
12.55500000000001
 20
28.67999999999998
 30
0.0
 40
0.5
 50
270.0
 51
0.0
  0
ARC
  5
D9
  8
1
 10
9.704999999999984
 20
28.67999999999998
 30
0.0
 40
0.5
 50
180.0
 51
270.0
  0
ARC
  5
DA
  8
1
 10
12.55500000000001
 20
-28.68000000000001
 30
0.0
 40
0.5
 50
0.0
 51
90.0
  0
LINE
  5
DB
  8
1
 10
12.55500000000001
 20
28.17999999999998
 30
0.0
 11
9.704999999999984
 21
28.17999999999998
 31
0.0
  0
LINE
  5
DC
  8
1
 10
9.704999999999984
 20
-28.18000000000001
 30
0.0
 11
12.55500000000001
 21
-28.18000000000001
 31
0.0
  0
ARC
  5
DD
  8
1
 10
20.05000000000001
 20
-23.22499999999999
 30
0.0
 40
1.0
 50
90.0
 51
180.0
  0
ARC
  5
DE
  8
1
 10
20.05000000000001
 20
23.22499999999999
 30
0.0
 40
1.0
 50
180.0
 51
270.0
  0
ARC
  5
DF
  8
1
 10
0.8000000000000114
 20
-22.42500000000001
 30
0.0
 40
0.5000000000000163
 50
66.42182152180045
 51
90.0
  0
ARC
  5
E0
  8
1
 10
0.8000000000000114
 20
22.42499999999998
 30
0.0
 40
0.5
 50
270.0
 51
293.5781784782006
  0
LINE
  5
E1
  8
1
 10
34.04999999999998
 20
-22.22499999999999
 30
0.0
 11
35.04999999999998
 21
-21.22499999999999
 31
0.0
  0
LINE
  5
E2
  8
1
 10
35.04999999999998
 20
21.22499999999999
 30
0.0
 11
34.04999999999998
 21
22.22499999999999
 31
0.0
  0
LINE
  5
E3
  8
SK1
 10
0.0
 20
22.22499999999999
 30
0.0
 11
-67.39430822720001
 21
12.39657058259999
 31
0.0
  0
LINE
  5
E4
  8
SK1
 10
-67.39430822720001
 20
-12.39657058269998
 30
0.0
 11
0.0
 21
-22.22499999999999
 31
0.0
  0
LINE
  5
E5
  8
1
 10
20.05000000000001
 20
-22.22499999999999
 30
0.0
 11
34.04999999999998
 21
-22.22499999999999
 31
0.0
  0
LINE
  5
E6
  8
1
 10
34.04999999999998
 20
22.22499999999999
 30
0.0
 11
20.05000000000001
 21
22.22499999999999
 31
0.0
  0
LINE
  5
E7
  8
1
 10
0.0
 20
-22.22499999999999
 30
0.0
 11
0.3000000000000114
 21
-21.92500000000001
 31
0.0
  0
LINE
  5
E8
  8
1
 10
0.3000000000000114
 20
21.92499999999998
 30
0.0
 11
0.0
 21
22.22499999999999
 31
0.0
  0
LINE
  5
E9
  8
1
 10
0.3000000000000114
 20
-21.92500000000001
 30
0.0
 11
0.8000000000000114
 21
-21.92500000000001
 31
0.0
  0
LINE
  5
EA
  8
1
 10
0.8000000000000114
 20
21.92499999999998
 30
0.0
 11
0.3000000000000114
 21
21.92499999999998
 31
0.0
  0
ARC
  5
EB
  8
1
 10
37.04999999999998
 20
-15.50000000000003
 30
0.0
 40
2.0
 50
90.0
 51
180.0
  0
ARC
  5
EC
  8
1
 10
37.04999999999998
 20
15.49999999999997
 30
0.0
 40
2.0
 50
180.0
 51
270.0
  0
LINE
  5
ED
  8
1
 10
37.04999999999998
 20
-13.50000000000003
 30
0.0
 11
50.78138579149999
 21
-13.50000000000003
 31
0.0
  0
LINE
  5
EE
  8
1
 10
50.78138579149999
 20
13.49999999999997
 30
0.0
 11
37.04999999999998
 21
13.49999999999997
 31
0.0
  0
LINE
  5
EF
  8
1
 10
50.78138579149999
 20
-13.50000000000003
 30
0.0
 11
87.97845909579996
 21
-10.57252684210002
 31
0.0
  0
LINE
  5
F0
  8
1
 10
87.97845909579996
 20
10.57252684210002
 30
0.0
 11
50.78138579149999
 21
13.49999999999997
 31
0.0
  0
ARC
  5
F1
  8
SK1
 10
-67.25
 20
-11.4070377962
 30
0.0
 40
1.000000000000018
 50
180.0
 51
261.7027777777988
  0
ARC
  5
F2
  8
SK1
 10
-67.25
 20
11.4070377962
 30
0.0
 40
1.000000000000018
 50
98.29722222220124
 51
180.0
  0
ARC
  5
F3
  8
1
 10
87.89999999999998
 20
-9.575609508399992
 30
0.0
 40
1.000000000000038
 50
274.5000000000002
 51
0.0
  0
ARC
  5
F4
  8
1
 10
87.89999999999998
 20
9.575609508300005
 30
0.0
 40
1.000000000000038
 50
0.0
 51
85.49999999999983
  0
LINE
  5
F5
  8
1
 10
3.71536829759998
 20
8.042838178200014
 30
0.0
 11
4.034652632299981
 21
8.811856167900004
 31
0.0
  0
LINE
  5
F6
  8
1
 10
4.034656382099996
 20
8.811853219399978
 30
0.0
 11
7.567468496999993
 21
8.811853219399978
 31
0.0
  0
LINE
  5
F7
  8
1
 10
7.152654613099969
 20
8.049999904600014
 30
0.0
 11
7.567468496999993
 21
8.811853219399978
 31
0.0
  0
LINE
  5
F8
  8
1
 10
7.161482187199994
 20
8.049999999999983
 30
0.0
 11
3.699999999999989
 21
8.049999999999983
 31
0.0
  0
LINE
  5
F9
  8
1
 10
3.699999615099983
 20
8.050000384900017
 30
0.0
 11
0.9999994658999753
 21
10.7500005341
 31
0.0
  0
LINE
  5
FA
  8
1
 10
1.0
 20
10.75000044890001
 30
0.0
 11
1.0
 21
11.06550824809997
 31
0.0
  0
POLYLINE
  5
FB
  8
1
 66
     1
 10
0.0
 20
0.0
 30
0.0
  0
VERTEX
  5
763
  8
1
 10
1.499990290499994
 20
11.38852240849999
 30
0.0
  0
VERTEX
  5
764
  8
1
 10
1.37628928739997
 20
11.48840743299999
 30
0.0
  0
VERTEX
  5
765
  8
1
 10
1.285418490599994
 20
11.52616912829998
 30
0.0
  0
VERTEX
  5
766
  8
1
 10
1.211001128199996
 20
11.52931883580001
 30
0.0
  0
VERTEX
  5
767
  8
1
 10
1.143446607199991
 20
11.5023341559
 30
0.0
  0
VERTEX
  5
768
  8
1
 10
1.092957580299981
 20
11.45348233590002
 30
0.0
  0
VERTEX
  5
769
  8
1
 10
1.0379123779
 20
11.34366660319998
 30
0.0
  0
VERTEX
  5
76A
  8
1
 10
1.001107981199993
 20
11.11717929160002
 30
0.0
  0
VERTEX
  5
76B
  8
1
 10
1.000002335399984
 20
11.06504604310001
 30
0.0
  0
SEQEND
  5
78D
  8
1
  0
LINE
  5
FC
  8
1
 10
1.500000040999993
 20
11.38853068950002
 30
0.0
 11
4.034656382099996
 21
8.811852791999996
 31
0.0
  0
LINE
  5
FD
  8
1
 10
0.9999994658999753
 20
-10.7500005341
 30
0.0
 11
3.699999615099983
 21
-8.050000385000004
 31
0.0
  0
LINE
  5
FE
  8
1
 10
4.034652632299981
 20
-8.811856167900004
 30
0.0
 11
3.71536829759998
 21
-8.042838178200014
 31
0.0
  0
LINE
  5
FF
  8
1
 10
4.034656382099996
 20
-8.811852791999996
 30
0.0
 11
1.5
 21
-11.38853073120001
 31
0.0
  0
POLYLINE
  5
100
  8
1
 66
     1
 10
0.0
 20
0.0
 30
0.0
  0
VERTEX
  5
76C
  8
1
 10
1.000002335399984
 20
-11.06504604310001
 30
0.0
  0
VERTEX
  5
76D
  8
1
 10
1.043590932599983
 20
-11.35992959580003
 30
0.0
  0
VERTEX
  5
76E
  8
1
 10
1.086499236099996
 20
-11.44459527609999
 30
0.0
  0
VERTEX
  5
76F
  8
1
 10
1.151675699299972
 20
-11.50758116199998
 30
0.0
  0
VERTEX
  5
770
  8
1
 10
1.216350402499984
 20
-11.53009617950002
 30
0.0
  0
VERTEX
  5
771
  8
1
 10
1.286646524099979
 20
-11.52588765319999
 30
0.0
  0
VERTEX
  5
772
  8
1
 10
1.38470270229999
 20
-11.48329939440001
 30
0.0
  0
VERTEX
  5
773
  8
1
 10
1.499990290499994
 20
-11.38852240849999
 30
0.0
  0
SEQEND
  5
78C
  8
1
  0
LINE
  5
101
  8
1
 10
1.0
 20
-11.06550824810003
 30
0.0
 11
1.0
 21
-10.75000044890001
 31
0.0
  0
LINE
  5
102
  8
1
 10
3.699999999999989
 20
-8.049999999999983
 30
0.0
 11
7.152654613799996
 21
-8.049999999999983
 31
0.0
  0
LINE
  5
103
  8
1
 10
7.567468497499988
 20
-8.811853219399978
 30
0.0
 11
7.152654613799996
 21
-8.049999904700002
 31
0.0
  0
LINE
  5
104
  8
1
 10
7.567468497499988
 20
-8.811853219399978
 30
0.0
 11
4.034656382099996
 21
-8.811853219399978
 31
0.0
  0
LINE
  5
105
  8
1
 10
7.603832461699994
 20
-8.847246673400008
 30
0.0
 11
7.567468497499988
 21
-8.811853219399978
 31
0.0
  0
LINE
  5
106
  8
1
 10
7.603833230899994
 20
-31.75
 30
0.0
 11
7.603833230899994
 21
-8.848938227200023
 31
0.0
  0
LINE
  5
107
  8
1
 10
7.603833230899994
 20
8.847246640400016
 30
0.0
 11
7.603833230899994
 21
31.74999999999997
 31
0.0
  0
LINE
  5
108
  8
1
 10
7.567468496999993
 20
8.811853219399978
 30
0.0
 11
7.603832461299987
 21
8.847246673499995
 31
0.0
  0
LINE
  5
109
  8
1
 10
13.05500004409998
 20
8.855488666900015
 30
0.0
 11
14.65616679229998
 21
8.847246634599998
 31
0.0
  0
LINE
  5
10A
  8
1
 10
13.05500000000001
 20
8.855488658200017
 30
0.0
 11
13.05500000000001
 21
28.97669780459998
 31
0.0
  0
LINE
  5
10B
  8
1
 10
14.6561667691
 20
8.848938230400023
 30
0.0
 11
14.6561667691
 21
31.74999999999997
 31
0.0
  0
LINE
  5
10C
  8
1
 10
14.69253150179998
 20
8.811853219399978
 30
0.0
 11
15.10734538499997
 21
8.049999904700002
 31
0.0
  0
LINE
  5
10D
  8
1
 10
15.10734502769998
 20
8.049999999999983
 30
0.0
 11
13.44704320329998
 21
8.049999999999983
 31
0.0
  0
LINE
  5
10E
  8
1
 10
13.43780182399999
 20
8.053961846399972
 30
0.0
 11
13.05500056259999
 21
8.669042239800007
 31
0.0
  0
LINE
  5
10F
  8
1
 10
13.05500000000001
 20
8.69007815400002
 30
0.0
 11
13.05500000000001
 21
8.855489445000018
 31
0.0
  0
LINE
  5
110
  8
1
 10
14.65616753759997
 20
8.847246673199976
 30
0.0
 11
14.69253150179998
 21
8.811853219399978
 31
0.0
  0
LINE
  5
111
  8
1
 10
14.65616679229998
 20
-8.847246634699985
 30
0.0
 11
13.05500004409998
 21
-8.85548866709999
 31
0.0
  0
LINE
  5
112
  8
1
 10
14.6561667691
 20
-31.75
 30
0.0
 11
14.6561667691
 21
-8.847246640300028
 31
0.0
  0
LINE
  5
113
  8
1
 10
13.05500000000001
 20
-28.97669780460001
 30
0.0
 11
13.05500000000001
 21
-8.857701361300002
 31
0.0
  0
LINE
  5
114
  8
1
 10
13.05500000000001
 20
-8.669042973799975
 30
0.0
 11
13.43731549449998
 21
-8.054093609399985
 31
0.0
  0
LINE
  5
115
  8
1
 10
13.4468212324
 20
-8.049999999999983
 30
0.0
 11
15.10734502819997
 21
-8.049999999999983
 31
0.0
  0
LINE
  5
116
  8
1
 10
15.1073453857
 20
-8.049999904700002
 30
0.0
 11
14.69253150219998
 21
-8.811853219399978
 31
0.0
  0
LINE
  5
117
  8
1
 10
14.69253150229997
 20
-8.811853219399978
 30
0.0
 11
14.65616753799998
 21
-8.84724667330002
 31
0.0
  0
LINE
  5
118
  8
1
 10
13.05500000000001
 20
-8.855489703799975
 30
0.0
 11
13.05500000000001
 21
-8.690078156099986
 31
0.0
  0
LINE
  5
119
  8
1
 10
7.152654971400011
 20
-8.049999999999983
 30
0.0
 11
8.812956798100004
 21
-8.049999999999983
 31
0.0
  0
LINE
  5
11A
  8
1
 10
8.822198178199983
 20
-8.05396184769998
 30
0.0
 11
9.204999437399977
 21
-8.669042239800007
 31
0.0
  0
LINE
  5
11B
  8
1
 10
9.204999999999984
 20
-8.690078155599991
 30
0.0
 11
9.204999999999984
 21
-8.855489446400014
 31
0.0
  0
LINE
  5
11C
  8
1
 10
9.204999955900007
 20
-8.85548866740001
 30
0.0
 11
7.603833207700006
 21
-8.84724663480003
 31
0.0
  0
LINE
  5
11D
  8
1
 10
9.204999999999984
 20
-28.97669780460001
 30
0.0
 11
9.204999999999984
 21
-8.855488658700011
 31
0.0
  0
LINE
  5
11E
  8
1
 10
7.603833207700006
 20
8.847246634900017
 30
0.0
 11
9.204999955900007
 21
8.855488667499998
 31
0.0
  0
LINE
  5
11F
  8
1
 10
9.204999999999984
 20
8.857701354400007
 30
0.0
 11
9.204999999999984
 21
28.97669780459998
 31
0.0
  0
LINE
  5
120
  8
1
 10
9.204999999999984
 20
8.669042973799975
 30
0.0
 11
8.82268450769999
 21
8.054093610600006
 31
0.0
  0
LINE
  5
121
  8
1
 10
8.813178766699991
 20
8.049999999999983
 30
0.0
 11
7.152654970899988
 21
8.049999999999983
 31
0.0
  0
LINE
  5
122
  8
1
 10
9.204999999999984
 20
8.855489705499991
 30
0.0
 11
9.204999999999984
 21
8.69007815759997
 31
0.0
  0
LINE
  5
123
  8
1
 10
18.55000000000001
 20
-8.811853219399978
 30
0.0
 11
14.69253150229997
 21
-8.811853219399978
 31
0.0
  0
LINE
  5
124
  8
1
 10
14.69253150179998
 20
8.811853219399978
 30
0.0
 11
18.55000000000001
 21
8.811853219399978
 31
0.0
  0
LINE
  5
125
  8
1
 10
15.09851778029997
 20
-8.049999999999983
 30
0.0
 11
18.25
 21
-8.049999999999983
 31
0.0
  0
LINE
  5
126
  8
1
 10
18.8718112944
 20
-8.6718112943
 30
0.0
 11
18.25
 21
-8.049999999999983
 31
0.0
  0
ARC
  5
127
  8
1
 10
18.54261012500001
 20
-8.355095214999977
 30
0.0
 40
0.4568177807738968
 50
270.9269059549983
 51
316.1073460262986
  0
LINE
  5
128
  8
1
 10
18.25
 20
8.049999999999983
 30
0.0
 11
15.10734538499997
 21
8.049999999999983
 31
0.0
  0
ARC
  5
129
  8
1
 10
18.54533163049999
 20
8.361349136600012
 30
0.0
 40
0.4505282702078324
 50
43.55945694760342
 51
89.4062910709976
  0
LINE
  5
12A
  8
1
 10
18.25
 20
8.049999999999983
 30
0.0
 11
18.8718112944
 21
8.6718112943
 31
0.0
  0
LINE
  5
12B
  8
1
 10
19.05000000000001
 20
31.24999999999997
 30
0.0
 11
19.05000000000001
 21
8.849999999999994
 31
0.0
  0
LINE
  5
12C
  8
1
 10
19.05000000000001
 20
8.849999999999994
 30
0.0
 11
18.8718112944
 21
8.6718112943
 31
0.0
  0
LINE
  5
12D
  8
1
 10
18.8718112944
 20
-8.6718112943
 30
0.0
 11
19.05000000000001
 21
-8.849999999999994
 31
0.0
  0
LINE
  5
12E
  8
1
 10
19.05000000000001
 20
-8.849999999999994
 30
0.0
 11
19.05000000000001
 21
-31.25
 31
0.0
  0
LINE
  5
12F
  8
1
 10
1.0
 20
11.06551631390002
 30
0.0
 11
1.0
 21
31.24999999999997
 31
0.0
  0
LINE
  5
130
  8
1
 10
1.0
 20
-31.25
 30
0.0
 11
1.0
 21
-11.06551631390002
 31
0.0
  0
POLYLINE
  5
131
  8
1
 66
     1
 10
0.0
 20
0.0
 30
0.0
  0
VERTEX
  5
774
  8
1
 10
9.704999999999984
 20
-8.802922431600024
 30
0.0
  0
VERTEX
  5
775
  8
1
 10
9.61339682549999
 20
-8.8007872286
 30
0.0
  0
VERTEX
  5
776
  8
1
 10
9.520298052399994
 20
-8.792903181900016
 30
0.0
  0
VERTEX
  5
777
  8
1
 10
9.430001214799972
 20
-8.779729355800015
 30
0.0
  0
VERTEX
  5
778
  8
1
 10
9.347638275099996
 20
-8.76134711009999
 30
0.0
  0
VERTEX
  5
779
  8
1
 10
9.257923619099984
 20
-8.72632496090003
 30
0.0
  0
VERTEX
  5
77A
  8
1
 10
9.220714299099996
 20
-8.700557828200004
 30
0.0
  0
VERTEX
  5
77B
  8
1
 10
9.204999999999984
 20
-8.669042973799975
 30
0.0
  0
SEQEND
  5
78B
  8
1
  0
LINE
  5
132
  8
1
 10
9.704999999999984
 20
-8.802922431600024
 30
0.0
 11
9.704999999999984
 21
-8.049999999999983
 31
0.0
  0
LINE
  5
133
  8
1
 10
8.81481466439999
 20
-8.049999999999983
 30
0.0
 11
9.704999999999984
 21
-8.049999999999983
 31
0.0
  0
POLYLINE
  5
134
  8
1
 66
     1
 10
0.0
 20
0.0
 30
0.0
  0
VERTEX
  5
77C
  8
1
 10
12.55500000000001
 20
8.802922431600024
 30
0.0
  0
VERTEX
  5
77D
  8
1
 10
12.6466031745
 20
8.8007872286
 30
0.0
  0
VERTEX
  5
77E
  8
1
 10
12.7397019476
 20
8.792903181900016
 30
0.0
  0
VERTEX
  5
77F
  8
1
 10
12.82999878519999
 20
8.779729355800015
 30
0.0
  0
VERTEX
  5
780
  8
1
 10
12.91236172489999
 20
8.76134711009999
 30
0.0
  0
VERTEX
  5
781
  8
1
 10
13.00207638090001
 20
8.726324960899973
 30
0.0
  0
VERTEX
  5
782
  8
1
 10
13.0392857009
 20
8.700557828200004
 30
0.0
  0
VERTEX
  5
783
  8
1
 10
13.05500000000001
 20
8.669042973799975
 30
0.0
  0
SEQEND
  5
78A
  8
1
  0
LINE
  5
135
  8
1
 10
12.55500000000001
 20
8.802922431600024
 30
0.0
 11
12.55500000000001
 21
8.049999999999983
 31
0.0
  0
LINE
  5
136
  8
1
 10
13.445185337
 20
8.049999999999983
 30
0.0
 11
12.55500000000001
 21
8.049999999999983
 31
0.0
  0
LINE
  5
137
  8
1
 10
9.704999999999984
 20
8.802922431600024
 30
0.0
 11
9.704999999999984
 21
8.049999999999983
 31
0.0
  0
ARC
  5
138
  8
1
 10
9.616105060899997
 20
8.134303163700025
 30
0.0
 40
0.6745028061976626
 50
82.42676842310047
 51
127.5528870939997
  0
LINE
  5
139
  8
1
 10
9.704999999999984
 20
8.049999999999983
 30
0.0
 11
8.815087690899986
 21
8.049999999999983
 31
0.0
  0
ARC
  5
13A
  8
1
 10
12.64389493909999
 20
-8.134303163800013
 30
0.0
 40
0.6745028061289188
 50
262.4267684206997
 51
307.5528870964
  0
LINE
  5
13B
  8
1
 10
12.55500000000001
 20
-8.802922431600024
 30
0.0
 11
12.55500000000001
 21
-8.049999999999983
 31
0.0
  0
LINE
  5
13C
  8
1
 10
12.55500000000001
 20
-8.049999999999983
 30
0.0
 11
13.44491230979997
 21
-8.049999999999983
 31
0.0
  0
LINE
  5
13D
  8
1
 10
9.704999999999984
 20
8.802922431600024
 30
0.0
 11
12.55500000000001
 21
8.802922431600024
 31
0.0
  0
LINE
  5
13E
  8
1
 10
12.55500000000001
 20
8.049999999999983
 30
0.0
 11
9.704999999999984
 21
8.049999999999983
 31
0.0
  0
LINE
  5
13F
  8
1
 10
12.55500000000001
 20
-8.802922431600024
 30
0.0
 11
9.704999999999984
 21
-8.802922431600024
 31
0.0
  0
LINE
  5
140
  8
1
 10
9.704999999999984
 20
-8.049999999999983
 30
0.0
 11
12.55500000000001
 21
-8.049999999999983
 31
0.0
  0
CIRCLE
  5
141
  8
1
 10
11.13
 20
-0.0000000000000284
 30
0.0
 40
6.350000000000023
  0
LINE
  5
142
  8
1
 10
1.0
 20
10.74999999999997
 30
0.0
 11
1.0
 21
-10.75000000000003
 31
0.0
  0
LINE
  5
143
  8
1
 10
19.05000000000001
 20
-8.849999999999994
 30
0.0
 11
19.05000000000001
 21
8.849999999999994
 31
0.0
  0
LINE
  5
144
  8
1
 10
34.04999999999998
 20
-22.22499999999999
 30
0.0
 11
34.04999999999998
 21
22.22499999999999
 31
0.0
  0
LINE
  5
145
  8
1
 10
35.04999999999998
 20
21.22499999999999
 30
0.0
 11
35.04999999999998
 21
-21.22499999999999
 31
0.0
  0
LINE
  5
146
  8
1
 10
0.0
 20
-22.22499999999999
 30
0.0
 11
0.0
 21
22.22499999999999
 31
0.0
  0
LINE
  5
147
  8
1
 10
0.3000000000000114
 20
-21.92500000000001
 30
0.0
 11
0.3000000000000114
 21
21.92499999999998
 31
0.0
  0
CIRCLE
  5
148
  8
1
 10
11.13
 20
-0.0000000000000284
 30
0.0
 40
4.75
  0
LINE
  5
149
  8
1
 10
50.78138579149999
 20
-13.50000000000003
 30
0.0
 11
50.78138579149999
 21
13.49999999999997
 31
0.0
  0
LINE
  5
14A
  8
SK1
 10
-68.25
 20
-11.4070377962
 30
0.0
 11
-68.25
 21
11.40703779579999
 31
0.0
  0
LINE
  5
14B
  8
1
 10
88.89999999999998
 20
9.575609496199974
 30
0.0
 11
88.89999999999998
 21
-9.575609508399992
 31
0.0
  0
LINE
  5
176
  8
SK3
 10
-66.51794919240001
 20
-8.150000000000006
 30
0.0
 11
-66.51794919240001
 21
8.150000000000006
 31
0.0
  0
LINE
  5
177
  8
SK3
 10
-63.48000000000002
 20
-8.150000000000006
 30
0.0
 11
-63.48000000000002
 21
8.150000000000006
 31
0.0
  0
LINE
  5
178
  8
SK3
 10
-25.75
 20
-6.687998000000022
 30
0.0
 11
-25.75
 21
6.687998000000022
 31
0.0
  0
LINE
  5
179
  8
SK3
 10
-25.54691031250002
 20
6.349999999999994
 30
0.0
 11
-25.54691031250002
 21
-6.349999999999994
 31
0.0
  0
LINE
  5
17A
  8
3
 10
71.51999999999998
 20
-6.349999999999994
 30
0.0
 11
71.51999999999998
 21
6.349999999999994
 31
0.0
  0
LINE
  5
17B
  8
3
 10
73.42773246540003
 20
-3.174999999999983
 30
0.0
 11
73.42773246540003
 21
3.174999999999983
 31
0.0
  0
LINE
  5
17C
  8
3
 10
87.89999999999998
 20
3.174999999999983
 30
0.0
 11
87.89999999999998
 21
-3.174999999999983
 31
0.0
  0
LINE
  5
189
  8
SK3
 10
-68.25
 20
-9.150000000000006
 30
0.0
 11
-66.51794919240001
 21
-8.150000000000006
 31
0.0
  0
LINE
  5
18A
  8
SK3
 10
-66.51794919240001
 20
8.150000000000006
 30
0.0
 11
-68.25
 21
9.150000000000006
 31
0.0
  0
LINE
  5
18B
  8
SK3
 10
-66.51794919240001
 20
-8.150000000000006
 30
0.0
 11
-63.48000000000002
 21
-8.150000000000006
 31
0.0
  0
LINE
  5
18C
  8
SK3
 10
-63.48000000000002
 20
8.150000000000006
 30
0.0
 11
-66.51794919240001
 21
8.150000000000006
 31
0.0
  0
LINE
  5
18D
  8
SK3
 10
-63.48000000000002
 20
-6.687998000000022
 30
0.0
 11
-25.75
 21
-6.687998000000022
 31
0.0
  0
LINE
  5
18E
  8
SK3
 10
-25.75
 20
6.687998000000022
 30
0.0
 11
-63.48000000000002
 21
6.687998000000022
 31
0.0
  0
LINE
  5
18F
  8
SK3
 10
-25.75
 20
-6.687998000000022
 30
0.0
 11
-25.54691031250002
 21
-6.349999999999994
 31
0.0
  0
LINE
  5
190
  8
SK3
 10
-25.54691031250002
 20
6.349999999999994
 30
0.0
 11
-25.75
 21
6.687998000000022
 31
0.0
  0
LINE
  5
191
  8
3
 10
-0.0000000000000036
 20
-6.349999999999994
 30
0.0
 11
71.51999999999998
 21
-6.349999999999994
 31
0.0
  0
LINE
  5
192
  8
3
 10
71.51999999999998
 20
6.349999999999994
 30
0.0
 11
-0.0000000000000142
 21
6.349999999999994
 31
0.0
  0
LINE
  5
193
  8
3
 10
71.51999999999998
 20
-6.349999999999994
 30
0.0
 11
73.42773246540003
 21
-3.174999999999983
 31
0.0
  0
LINE
  5
194
  8
3
 10
73.42773246540003
 20
3.174999999999983
 30
0.0
 11
71.51999999999998
 21
6.349999999999994
 31
0.0
  0
LINE
  5
195
  8
3
 10
88.89999999999998
 20
3.752350269199979
 30
0.0
 11
87.89999999999998
 21
3.174999999999983
 31
0.0
  0
LINE
  5
196
  8
3
 10
87.89999999999998
 20
-3.174999999999983
 30
0.0
 11
88.89999999999998
 21
-3.752350269199979
 31
0.0
  0
LINE
  5
197
  8
3
 10
87.89999999999998
 20
3.174999999999983
 30
0.0
 11
73.42773246540003
 21
3.174999999999983
 31
0.0
  0
LINE
  5
198
  8
3
 10
73.42773246540003
 20
-3.174999999999983
 30
0.0
 11
87.89999999999998
 21
-3.174999999999983
 31
0.0
  0
INSERT
  5
199
  8
4
  2
SW_CENTERMARKSYMBOL_0
 10
11.13
 20
-0.0000000000000284
 30
0.0
  0
LINE
  5
1A7
  8
SK3
 10
-39.75
 20
7.937499999999972
 30
0.0
 11
-63.48000000000002
 21
7.937499999999972
 31
0.0
  0
LINE
  5
1A8
  8
SK3
 10
-63.48000000000002
 20
-7.937500000000028
 30
0.0
 11
-39.75
 21
-7.937500000000028
 31
0.0
  0
LINE
  5
1B0
  8
SK3
 10
-39.75
 20
7.937499999999972
 30
0.0
 11
-39.75
 21
-7.937500000000028
 31
0.0
  0
LINE
  5
1B2
  8
4
 10
88.89999999999998
 20
-0.0000000061000094
 30
0.0
 11
0.0
 21
0.0
 31
0.0
  0
LINE
  5
1B3
  8
SK4
 10
0.0
 20
0.0
 30
0.0
 11
-68.25
 21
-0.0000000002000036
 31
0.0
  0
DIMENSION
  5
1CF
  8
2
  2
*D2
 10
88.89999999999998
 20
47.66573065769793
 30
0.0
 11
44.44999999999999
 21
49.74906399103126
 31
0.0
 70
    32
  3
ISO-25
 13
0.0
 23
22.22499999999999
 33
0.0
 14
88.89999999999998
 24
9.575609496199974
 34
0.0
  0
DIMENSION
  5
1DF
  8
SK2
  2
*D3
 10
106.901062126449
 20
-3.174999999999983
 30
0.0
 11
106.901062126449
 21
0.1127944223799275
 31
0.0
 70
   160
  3
ISO-25
 13
87.89999999999998
 23
3.174999999999983
 33
0.0
 14
87.89999999999998
 24
-3.174999999999983
 34
0.0
 50
90.0
  0
DIMENSION
  5
1EF
  8
SK2
  2
*D4
 10
133.3118688691366
 20
-13.50000000000003
 30
0.0
 11
131.4368688691366
 21
-0.0000000000000302
 31
0.0
 70
    32
  3
ISO-25
 13
50.78138579149999
 23
13.49999999999997
 33
0.0
 14
50.78138579149999
 24
-13.50000000000003
 34
0.0
 50
90.0
  0
DIMENSION
  5
1FE
  8
SK2
  2
*D5
 10
147.9771684808984
 20
-22.225
 30
0.0
 11
145.893835147565
 21
-0.0000000000000036
 31
0.0
 70
    32
  3
ISO-25
 13
34.04999999999998
 23
22.22499999999999
 33
0.0
 14
34.04999999999998
 24
-22.22499999999999
 34
0.0
 50
90.0
  0
DIMENSION
  5
20D
  8
SK2
  2
*D6
 10
35.04999999999998
 20
-47.02109509650273
 30
0.0
 11
17.52499999999999
 21
-44.93776176316939
 31
0.0
 70
    32
  3
ISO-25
 13
0.0
 23
-22.22499999999999
 33
0.0
 14
35.04999999999998
 24
-21.22499999999999
 34
0.0
  0
DIMENSION
  5
21C
  8
SK2
  2
*D7
 10
119.6030018407507
 20
-10.5000000000315
 30
0.0
 11
117.7280018407507
 21
-0.0000000000000053
 31
0.0
 70
    32
  3
ISO-25
 13
88.89999999999998
 23
10.50000000003149
 33
0.0
 14
88.89999999999998
 24
-10.5000000000315
 34
0.0
 50
90.0
  0
LINE
  5
328
  8
NOCUT
 10
7.603833230899994
 20
31.74999999999997
 30
0.0
 11
1.5
 21
31.74999999999997
 31
0.0
  0
LINE
  5
32A
  8
NOCUT
 10
14.6561667691
 20
31.74999999999997
 30
0.0
 11
13.05500000000001
 21
28.97669780459998
 31
0.0
  0
LINE
  5
32B
  8
NOCUT
 10
9.204999999999984
 20
28.97669780459998
 30
0.0
 11
7.603833230899994
 21
31.74999999999997
 31
0.0
  0
LINE
  5
32C
  8
NOCUT
 10
18.55000000000001
 20
31.74999999999997
 30
0.0
 11
14.6561667691
 21
31.74999999999997
 31
0.0
  0
ARC
  5
32D
  8
NOCUT
 10
18.55000000000001
 20
31.24999999999997
 30
0.0
 40
0.5
 50
0.0
 51
90.0
  0
ARC
  5
32E
  8
NOCUT
 10
1.5
 20
31.24999999999997
 30
0.0
 40
0.5
 50
90.0
 51
180.0
  0
ARC
  5
32F
  8
NOCUT
 10
12.55500000000001
 20
28.67999999999998
 30
0.0
 40
0.5
 50
270.0
 51
0.0
  0
ARC
  5
330
  8
NOCUT
 10
9.704999999999984
 20
28.67999999999998
 30
0.0
 40
0.5
 50
180.0
 51
270.0
  0
LINE
  5
331
  8
NOCUT
 10
12.55500000000001
 20
28.17999999999998
 30
0.0
 11
9.704999999999984
 21
28.17999999999998
 31
0.0
  0
ARC
  5
332
  8
NOCUT
 10
20.05000000000001
 20
23.22499999999999
 30
0.0
 40
1.0
 50
180.0
 51
270.0
  0
ARC
  5
333
  8
NOCUT
 10
0.8000000000000114
 20
22.42499999999998
 30
0.0
 40
0.5
 50
270.0
 51
293.5781784782006
  0
LINE
  5
334
  8
NOCUT
 10
35.04999999999998
 20
21.22499999999999
 30
0.0
 11
34.04999999999998
 21
22.22499999999999
 31
0.0
  0
LINE
  5
335
  8
NOCUT
 10
34.04999999999998
 20
22.22499999999999
 30
0.0
 11
20.05000000000001
 21
22.22499999999999
 31
0.0
  0
LINE
  5
336
  8
NOCUT
 10
0.3000000000000114
 20
21.92499999999998
 30
0.0
 11
0.0
 21
22.22499999999999
 31
0.0
  0
LINE
  5
337
  8
NOCUT
 10
0.8000000000000114
 20
21.92499999999998
 30
0.0
 11
0.3000000000000114
 21
21.92499999999998
 31
0.0
  0
ARC
  5
338
  8
NOCUT
 10
37.04999999999998
 20
15.49999999999997
 30
0.0
 40
2.0
 50
180.0
 51
270.0
  0
LINE
  5
339
  8
NOCUT
 10
50.7813857915
 20
13.49999999999997
 30
0.0
 11
37.04999999999998
 21
13.49999999999997
 31
0.0
  0
LINE
  5
33A
  8
NOCUT
 10
87.97845909579995
 20
10.57252684210002
 30
0.0
 11
50.7813857915
 21
13.49999999999997
 31
0.0
  0
ARC
  5
33B
  8
NOCUT
 10
87.89999999999996
 20
9.575609508300005
 30
0.0
 40
1.000000000000038
 50
0.0
 51
85.49999999999983
  0
LINE
  5
364
  8
NOCUT
 10
88.89999999999996
 20
-0.0000000061000094
 30
0.0
 11
0.0
 21
0.0
 31
0.0
  0
LINE
  5
366
  8
NOCUT
 10
0.0
 20
22.22499999999999
 30
0.0
 11
0.0
 21
0.0
 31
0.0
  0
LINE
  5
367
  8
NOCUT
 10
35.04999999999998
 20
21.22499999999999
 30
0.0
 11
35.04999999999998
 21
15.49999999999997
 31
0.0
  0
LINE
  5
368
  8
NOCUT
 10
88.89999999999999
 20
9.575609508300005
 30
0.0
 11
88.89999999999996
 21
-0.0000000061000094
 31
0.0
  0
LINE
  5
369
  8
NOCUT
 10
19.05000000000001
 20
31.24999999999997
 30
0.0
 11
19.05000000000001
 21
23.22499999999999
 31
0.0
  0
LINE
  5
36B
  8
NOCUT
 10
1.0
 20
31.24999999999997
 30
0.0
 11
1.0
 21
21.9667424305044
 31
0.0
  0
LINE
  5
36C
  8
NOCUT
 10
9.204999999999984
 20
28.97669780459998
 30
0.0
 11
9.204999999999984
 21
28.67999999999998
 31
0.0
  0
LINE
  5
36D
  8
NOCUT
 10
13.05500000000001
 20
28.97669780459998
 30
0.0
 11
13.05500000000001
 21
28.67999999999998
 31
0.0
  0
LINE
  5
38E
  8
SK3
 10
-0.0000000000000142
 20
6.349999999999994
 30
0.0
 11
-25.54691031250002
 21
6.349999999999994
 31
0.0
  0
LINE
  5
38F
  8
SK3
 10
-0.0000000000000036
 20
-6.349999999999994
 30
0.0
 11
-25.54691031250002
 21
-6.349999999999994
 31
0.0
  0
LINE
  5
471
  8
0
 10
3.0
 20
3.0
 30
0.0
 11
-3.0
 21
-3.0
 31
0.0
  0
LINE
  5
472
  8
0
 10
-3.0
 20
3.0
 30
0.0
 11
3.0
 21
-3.0
 31
0.0
  0
CIRCLE
  5
473
  8
0
 10
0.0
 20
0.0
 30
0.0
 40
2.5
  0
LINE
  5
474
  8
0
 10
90.89999999999989
 20
1.999999993899991
 30
0.0
 11
86.89999999999998
 21
-2.000000006100009
 31
0.0
  0
LINE
  5
475
  8
0
 10
86.89999999999998
 20
1.999999993899991
 30
0.0
 11
90.89999999999989
 21
-2.000000006100009
 31
0.0
  0
CIRCLE
  5
476
  8
0
 10
88.89999999999998
 20
-0.0000000061000094
 30
0.0
 40
1.5
  0
INSERT
  5
556
  8
SK6
  2
*U8
 10
-16.17909534664395
 20
-30.91796436285907
 30
0.0
  0
INSERT
  5
55E
  8
SK6
  2
*U9
 10
5.836457251465603
 20
-0.8511273883801103
 30
0.0
  0
INSERT
  5
563
  8
SK6
  2
_FILLED
 10
-17.9836627818344
 20
-19.60235774778011
 30
0.0
 41
3.5
 42
3.5
 43
3.5
 50
55.49325986033524
  0
POLYLINE
  5
567
  8
SK6
 66
     1
 10
0.0
 20
0.0
 30
0.0
  0
VERTEX
  5
784
  8
SK6
 10
-19.966423916232
 20
-22.48656618059532
 30
0.0
  0
VERTEX
  5
785
  8
SK6
 10
-33.4822656830344
 20
-42.14728280658011
 30
0.0
  0
VERTEX
  5
786
  8
SK6
 10
-35.35726568303437
 20
-40.39728280658011
 30
0.0
  0
VERTEX
  5
787
  8
SK6
 10
-38.85726568303437
 20
-40.39728280658011
 30
0.0
  0
SEQEND
  5
789
  8
SK6
  0
ENDSEC
  0
EOF
